  0
SECTION
  2
HEADER
  9
$ACADVER
  1
AC1014
  9
$ACADMAINTVER
 70
     9
  9
$DWGCODEPAGE
  3
ANSI_949
  9
$INSBASE
 10
0.0
 20
0.0
 30
0.0
  9
$EXTMIN
 10
-0.1576766177895479
 20
-4.48259680076444
 30
-0.0015258207003583
  9
$EXTMAX
 10
368.9161053400457
 20
400.3812049515945
 30
0.0000000349246037
  9
$LIMMIN
 10
0.0
 20
0.0
  9
$LIMMAX
 10
420.0
 20
297.0
  9
$ORTHOMODE
 70
     0
  9
$REGENMODE
 70
     1
  9
$FILLMODE
 70
     1
  9
$QTEXTMODE
 70
     0
  9
$MIRRTEXT
 70
     0
  9
$DRAGMODE
 70
     2
  9
$LTSCALE
 40
0.2
  9
$OSMODE
 70
   567
  9
$ATTMODE
 70
     1
  9
$TEXTSIZE
 40
5.777225951253058
  9
$TRACEWID
 40
1.0
  9
$TEXTSTYLE
  7
STANDARD
  9
$CLAYER
  8
0
  9
$CELTYPE
  6
BYLAYER
  9
$CECOLOR
 62
   256
  9
$CELTSCALE
 40
1.0
  9
$DELOBJ
 70
     1
  9
$DISPSILH
 70
     0
  9
$DIMSCALE
 40
1.0
  9
$DIMASZ
 40
3.0
  9
$DIMEXO
 40
1.0
  9
$DIMDLI
 40
10.0
  9
$DIMRND
 40
0.0
  9
$DIMDLE
 40
0.0
  9
$DIMEXE
 40
0.6
  9
$DIMTP
 40
0.0
  9
$DIMTM
 40
0.0
  9
$DIMTXT
 40
3.5
  9
$DIMCEN
 40
0.09
  9
$DIMTSZ
 40
0.0
  9
$DIMTOL
 70
     0
  9
$DIMLIM
 70
     0
  9
$DIMTIH
 70
     0
  9
$DIMTOH
 70
     0
  9
$DIMSE1
 70
     0
  9
$DIMSE2
 70
     0
  9
$DIMTAD
 70
     1
  9
$DIMZIN
 70
     8
  9
$DIMBLK
  1

  9
$DIMASO
 70
     1
  9
$DIMSHO
 70
     1
  9
$DIMPOST
  1

  9
$DIMAPOST
  1

  9
$DIMALT
 70
     0
  9
$DIMALTD
 70
     2
  9
$DIMALTF
 40
25.4
  9
$DIMLFAC
 40
1.0
  9
$DIMTOFL
 70
     1
  9
$DIMTVP
 40
0.0
  9
$DIMTIX
 70
     1
  9
$DIMSOXD
 70
     0
  9
$DIMSAH
 70
     0
  9
$DIMBLK1
  1

  9
$DIMBLK2
  1

  9
$DIMSTYLE
  2
1_1_2
  9
$DIMCLRD
 70
   123
  9
$DIMCLRE
 70
   123
  9
$DIMCLRT
 70
     3
  9
$DIMTFAC
 40
1.0
  9
$DIMGAP
 40
1.0
  9
$DIMJUST
 70
     0
  9
$DIMSD1
 70
     0
  9
$DIMSD2
 70
     0
  9
$DIMTOLJ
 70
     1
  9
$DIMTZIN
 70
     0
  9
$DIMALTZ
 70
     0
  9
$DIMALTTZ
 70
     0
  9
$DIMFIT
 70
     0
  9
$DIMUPT
 70
     1
  9
$DIMUNIT
 70
     2
  9
$DIMDEC
 70
     2
  9
$DIMTDEC
 70
     2
  9
$DIMALTU
 70
     2
  9
$DIMALTTD
 70
     2
  9
$DIMTXSTY
  7
STANDARD
  9
$DIMAUNIT
 70
     1
  9
$LUNITS
 70
     2
  9
$LUPREC
 70
     4
  9
$SKETCHINC
 40
1.0
  9
$FILLETRAD
 40
0.5
  9
$AUNITS
 70
     0
  9
$AUPREC
 70
     0
  9
$MENU
  1
.
  9
$ELEVATION
 40
0.0
  9
$PELEVATION
 40
0.0
  9
$THICKNESS
 40
0.0
  9
$LIMCHECK
 70
     0
  9
$BLIPMODE
 70
     1
  9
$CHAMFERA
 40
1.0
  9
$CHAMFERB
 40
1.0
  9
$CHAMFERC
 40
20.0
  9
$CHAMFERD
 40
0.0
  9
$SKPOLY
 70
     0
  9
$TDCREATE
 40
2452839.586179271
  9
$TDUPDATE
 40
2453376.728900996
  9
$TDINDWG
 40
11.1171377083
  9
$TDUSRTIMER
 40
11.1171375347
  9
$USRTIMER
 70
     1
  9
$ANGBASE
 50
0.0
  9
$ANGDIR
 70
     0
  9
$PDMODE
 70
     0
  9
$PDSIZE
 40
0.0
  9
$PLINEWID
 40
0.0
  9
$COORDS
 70
     2
  9
$SPLFRAME
 70
     0
  9
$SPLINETYPE
 70
     6
  9
$SPLINESEGS
 70
   800
  9
$ATTDIA
 70
     0
  9
$ATTREQ
 70
     1
  9
$HANDLING
 70
 22529
  9
$HANDSEED
  5
433
  9
$SURFTAB1
 70
     6
  9
$SURFTAB2
 70
     6
  9
$SURFTYPE
 70
     6
  9
$SURFU
 70
     6
  9
$SURFV
 70
     6
  9
$UCSNAME
  2

  9
$UCSORG
 10
0.0
 20
0.0
 30
0.0
  9
$UCSXDIR
 10
1.0
 20
0.0
 30
0.0
  9
$UCSYDIR
 10
0.0
 20
1.0
 30
0.0
  9
$PUCSNAME
  2

  9
$PUCSORG
 10
0.0
 20
0.0
 30
0.0
  9
$PUCSXDIR
 10
1.0
 20
0.0
 30
0.0
  9
$PUCSYDIR
 10
0.0
 20
1.0
 30
0.0
  9
$USERI1
 70
     0
  9
$USERI2
 70
     0
  9
$USERI3
 70
     0
  9
$USERI4
 70
     0
  9
$USERI5
 70
     0
  9
$USERR1
 40
0.0
  9
$USERR2
 40
0.0
  9
$USERR3
 40
0.0
  9
$USERR4
 40
0.0
  9
$USERR5
 40
0.0
  9
$WORLDVIEW
 70
     1
  9
$SHADEDGE
 70
     3
  9
$SHADEDIF
 70
    70
  9
$TILEMODE
 70
     1
  9
$MAXACTVP
 70
    48
  9
$PINSBASE
 10
0.0
 20
0.0
 30
0.0
  9
$PLIMCHECK
 70
     0
  9
$PEXTMIN
 10
0.0
 20
0.0
 30
0.0
  9
$PEXTMAX
 10
0.0
 20
0.0
 30
0.0
  9
$PLIMMIN
 10
0.0
 20
0.0
  9
$PLIMMAX
 10
12.0
 20
9.0
  9
$UNITMODE
 70
     0
  9
$VISRETAIN
 70
     1
  9
$PLINEGEN
 70
     0
  9
$PSLTSCALE
 70
     1
  9
$TREEDEPTH
 70
  3020
  9
$PICKSTYLE
 70
     0
  9
$CMLSTYLE
  2
STANDARD
  9
$CMLJUST
 70
     0
  9
$CMLSCALE
 40
20.0
  9
$PROXYGRAPHICS
 70
     1
  9
$MEASUREMENT
 70
     1
  0
ENDSEC
  0
SECTION
  2
CLASSES
  0
CLASS
  1
ACDBDICTIONARYWDFLT
  2
AcDbDictionaryWithDefault
  3
AutoCAD 2000
 90
        0
280
     0
281
     0
  0
CLASS
  1
ACDBPLACEHOLDER
  2
AcDbPlaceHolder
  3
AutoCAD 2000
 90
        0
280
     0
281
     0
  0
CLASS
  1
LAYOUT
  2
AcDbLayout
  3
AutoCAD 2000
 90
        0
280
     0
281
     0
  0
CLASS
  1
DICTIONARYVAR
  2
AcDbDictionaryVar
  3
AutoCAD 2000
 90
        0
280
     0
281
     0
  0
CLASS
  1
DIMASSOC
  2
AcDbDimAssoc
  3
"AcDbDimAssoc|Product Desc:     AcDim ARX App For Dimension|Company:          Autodesk, Inc.|WEB Address:      www.autodesk.com"
 90
        0
280
     0
281
     0
  0
CLASS
  1
LONG_TRANSACTION
  2
AcDbLongTransaction
  3
AutoCAD 2000
 90
        0
280
     0
281
     0
  0
CLASS
  1
LWPOLYLINE
  2
AcDbPolyline
  3
AutoCAD 2000
 90
        0
280
     0
281
     1
  0
CLASS
  1
HATCH
  2
AcDbHatch
  3
AutoCAD 2000
 90
        0
280
     0
281
     1
  0
CLASS
  1
XRECORD
  2
AcDbXrecord
  3
AutoCAD 2000
 90
        0
280
     0
281
     0
  0
CLASS
  1
LONG_TRANSACTION
  2
AcDbLongTransaction
  3
AutoCAD 2000
 90
        0
280
     0
281
     0
  0
CLASS
  1
LWPOLYLINE
  2
AcDbPolyline
  3
AutoCAD 2000
 90
        0
280
     0
281
     1
  0
CLASS
  1
HATCH
  2
AcDbHatch
  3
AutoCAD 2000
 90
        0
280
     0
281
     1
  0
CLASS
  1
XRECORD
  2
AcDbXrecord
  3
AutoCAD 2000
 90
        0
280
     0
281
     0
  0
CLASS
  1
LONG_TRANSACTION
  2
AcDbLongTransaction
  3
AutoCAD 2000
 90
        0
280
     0
281
     0
  0
CLASS
  1
LWPOLYLINE
  2
AcDbPolyline
  3
AutoCAD 2000
 90
        0
280
     0
281
     1
  0
CLASS
  1
HATCH
  2
AcDbHatch
  3
AutoCAD 2000
 90
        0
280
     0
281
     1
  0
CLASS
  1
XRECORD
  2
AcDbXrecord
  3
AutoCAD 2000
 90
        0
280
     0
281
     0
  0
CLASS
  1
LONG_TRANSACTION
  2
AcDbLongTransaction
  3
AutoCAD 2000
 90
        0
280
     0
281
     0
  0
CLASS
  1
LWPOLYLINE
  2
AcDbPolyline
  3
AutoCAD 2000
 90
        0
280
     0
281
     1
  0
CLASS
  1
HATCH
  2
AcDbHatch
  3
AutoCAD 2000
 90
        0
280
     0
281
     1
  0
CLASS
  1
XRECORD
  2
AcDbXrecord
  3
AutoCAD 2000
 90
        0
280
     0
281
     0
  0
CLASS
  1
LONG_TRANSACTION
  2
AcDbLongTransaction
  3
AutoCAD 2000
 90
        0
280
     0
281
     0
  0
CLASS
  1
LWPOLYLINE
  2
AcDbPolyline
  3
AutoCAD 2000
 90
        0
280
     0
281
     1
  0
CLASS
  1
HATCH
  2
AcDbHatch
  3
AutoCAD 2000
 90
        0
280
     0
281
     1
  0
CLASS
  1
XRECORD
  2
AcDbXrecord
  3
AutoCAD 2000
 90
        0
280
     0
281
     0
  0
CLASS
  1
LONG_TRANSACTION
  2
AcDbLongTransaction
  3
AutoCAD 2000
 90
        0
280
     0
281
     0
  0
CLASS
  1
LWPOLYLINE
  2
AcDbPolyline
  3
AutoCAD 2000
 90
        0
280
     0
281
     1
  0
CLASS
  1
HATCH
  2
AcDbHatch
  3
AutoCAD 2000
 90
        0
280
     0
281
     1
  0
CLASS
  1
XRECORD
  2
AcDbXrecord
  3
AutoCAD 2000
 90
        0
280
     0
281
     0
  0
CLASS
  1
LONG_TRANSACTION
  2
AcDbLongTransaction
  3
AutoCAD 2000
 90
        0
280
     0
281
     0
  0
CLASS
  1
LWPOLYLINE
  2
AcDbPolyline
  3
AutoCAD 2000
 90
        0
280
     0
281
     1
  0
CLASS
  1
HATCH
  2
AcDbHatch
  3
AutoCAD 2000
 90
        0
280
     0
281
     1
  0
CLASS
  1
XRECORD
  2
AcDbXrecord
  3
AutoCAD 2000
 90
        0
280
     0
281
     0
  0
CLASS
  1
LONG_TRANSACTION
  2
AcDbLongTransaction
  3
AutoCAD 2000
 90
        0
280
     0
281
     0
  0
CLASS
  1
LWPOLYLINE
  2
AcDbPolyline
  3
AutoCAD 2000
 90
        0
280
     0
281
     1
  0
CLASS
  1
HATCH
  2
AcDbHatch
  3
AutoCAD 2000
 90
        0
280
     0
281
     1
  0
CLASS
  1
XRECORD
  2
AcDbXrecord
  3
AutoCAD 2000
 90
        0
280
     0
281
     0
  0
CLASS
  1
LONG_TRANSACTION
  2
AcDbLongTransaction
  3
AutoCAD 2000
 90
        0
280
     0
281
     0
  0
CLASS
  1
LWPOLYLINE
  2
AcDbPolyline
  3
AutoCAD 2000
 90
        0
280
     0
281
     1
  0
CLASS
  1
HATCH
  2
AcDbHatch
  3
AutoCAD 2000
 90
        0
280
     0
281
     1
  0
CLASS
  1
XRECORD
  2
AcDbXrecord
  3
AutoCAD 2000
 90
        0
280
     0
281
     0
  0
CLASS
  1
LONG_TRANSACTION
  2
AcDbLongTransaction
  3
AutoCAD 2000
 90
        0
280
     0
281
     0
  0
CLASS
  1
LWPOLYLINE
  2
AcDbPolyline
  3
AutoCAD 2000
 90
        0
280
     0
281
     1
  0
CLASS
  1
HATCH
  2
AcDbHatch
  3
AutoCAD 2000
 90
        0
280
     0
281
     1
  0
CLASS
  1
XRECORD
  2
AcDbXrecord
  3
AutoCAD 2000
 90
        0
280
     0
281
     0
  0
CLASS
  1
LONG_TRANSACTION
  2
AcDbLongTransaction
  3
AutoCAD 2000
 90
        0
280
     0
281
     0
  0
CLASS
  1
LWPOLYLINE
  2
AcDbPolyline
  3
AutoCAD 2000
 90
        0
280
     0
281
     1
  0
CLASS
  1
HATCH
  2
AcDbHatch
  3
AutoCAD 2000
 90
        0
280
     0
281
     1
  0
CLASS
  1
XRECORD
  2
AcDbXrecord
  3
AutoCAD 2000
 90
        0
280
     0
281
     0
  0
CLASS
  1
LONG_TRANSACTION
  2
AcDbLongTransaction
  3
AutoCAD 2000
 90
        0
280
     0
281
     0
  0
CLASS
  1
LWPOLYLINE
  2
AcDbPolyline
  3
AutoCAD 2000
 90
        0
280
     0
281
     1
  0
CLASS
  1
HATCH
  2
AcDbHatch
  3
AutoCAD 2000
 90
        0
280
     0
281
     1
  0
CLASS
  1
XRECORD
  2
AcDbXrecord
  3
AutoCAD 2000
 90
        0
280
     0
281
     0
  0
CLASS
  1
LONG_TRANSACTION
  2
AcDbLongTransaction
  3
AutoCAD 2000
 90
        0
280
     0
281
     0
  0
CLASS
  1
LWPOLYLINE
  2
AcDbPolyline
  3
AutoCAD 2000
 90
        0
280
     0
281
     1
  0
CLASS
  1
HATCH
  2
AcDbHatch
  3
AutoCAD 2000
 90
        0
280
     0
281
     1
  0
CLASS
  1
XRECORD
  2
AcDbXrecord
  3
AutoCAD 2000
 90
        0
280
     0
281
     0
  0
CLASS
  1
LONG_TRANSACTION
  2
AcDbLongTransaction
  3
AutoCAD 2000
 90
        0
280
     0
281
     0
  0
CLASS
  1
LWPOLYLINE
  2
AcDbPolyline
  3
AutoCAD 2000
 90
        0
280
     0
281
     1
  0
CLASS
  1
HATCH
  2
AcDbHatch
  3
AutoCAD 2000
 90
        0
280
     0
281
     1
  0
CLASS
  1
XRECORD
  2
AcDbXrecord
  3
AutoCAD 2000
 90
        0
280
     0
281
     0
  0
CLASS
  1
LONG_TRANSACTION
  2
AcDbLongTransaction
  3
AutoCAD 2000
 90
        0
280
     0
281
     0
  0
CLASS
  1
LWPOLYLINE
  2
AcDbPolyline
  3
AutoCAD 2000
 90
        0
280
     0
281
     1
  0
CLASS
  1
HATCH
  2
AcDbHatch
  3
AutoCAD 2000
 90
        0
280
     0
281
     1
  0
CLASS
  1
XRECORD
  2
AcDbXrecord
  3
AutoCAD 2000
 90
        0
280
     0
281
     0
  0
CLASS
  1
LONG_TRANSACTION
  2
AcDbLongTransaction
  3
AutoCAD 2000
 90
        0
280
     0
281
     0
  0
CLASS
  1
LWPOLYLINE
  2
AcDbPolyline
  3
AutoCAD 2000
 90
        0
280
     0
281
     1
  0
CLASS
  1
HATCH
  2
AcDbHatch
  3
AutoCAD 2000
 90
        0
280
     0
281
     1
  0
CLASS
  1
XRECORD
  2
AcDbXrecord
  3
AutoCAD 2000
 90
        0
280
     0
281
     0
  0
CLASS
  1
LONG_TRANSACTION
  2
AcDbLongTransaction
  3
AutoCAD 2000
 90
        0
280
     0
281
     0
  0
CLASS
  1
LWPOLYLINE
  2
AcDbPolyline
  3
AutoCAD 2000
 90
        0
280
     0
281
     1
  0
CLASS
  1
HATCH
  2
AcDbHatch
  3
AutoCAD 2000
 90
        0
280
     0
281
     1
  0
CLASS
  1
XRECORD
  2
AcDbXrecord
  3
AutoCAD 2000
 90
        0
280
     0
281
     0
  0
CLASS
  1
LONG_TRANSACTION
  2
AcDbLongTransaction
  3
AutoCAD 2000
 90
        0
280
     0
281
     0
  0
CLASS
  1
LWPOLYLINE
  2
AcDbPolyline
  3
AutoCAD 2000
 90
        0
280
     0
281
     1
  0
CLASS
  1
HATCH
  2
AcDbHatch
  3
AutoCAD 2000
 90
        0
280
     0
281
     1
  0
CLASS
  1
XRECORD
  2
AcDbXrecord
  3
AutoCAD 2000
 90
        0
280
     0
281
     0
  0
CLASS
  1
LONG_TRANSACTION
  2
AcDbLongTransaction
  3
AutoCAD 2000
 90
        0
280
     0
281
     0
  0
CLASS
  1
LWPOLYLINE
  2
AcDbPolyline
  3
AutoCAD 2000
 90
        0
280
     0
281
     1
  0
CLASS
  1
HATCH
  2
AcDbHatch
  3
AutoCAD 2000
 90
        0
280
     0
281
     1
  0
CLASS
  1
XRECORD
  2
AcDbXrecord
  3
AutoCAD 2000
 90
        0
280
     0
281
     0
  0
CLASS
  1
LONG_TRANSACTION
  2
AcDbLongTransaction
  3
AutoCAD 2000
 90
        0
280
     0
281
     0
  0
CLASS
  1
LWPOLYLINE
  2
AcDbPolyline
  3
AutoCAD 2000
 90
        0
280
     0
281
     1
  0
CLASS
  1
HATCH
  2
AcDbHatch
  3
AutoCAD 2000
 90
        0
280
     0
281
     1
  0
CLASS
  1
XRECORD
  2
AcDbXrecord
  3
AutoCAD 2000
 90
        0
280
     0
281
     0
  0
CLASS
  1
LONG_TRANSACTION
  2
AcDbLongTransaction
  3
AutoCAD 2000
 90
        0
280
     0
281
     0
  0
CLASS
  1
LWPOLYLINE
  2
AcDbPolyline
  3
AutoCAD 2000
 90
        0
280
     0
281
     1
  0
CLASS
  1
HATCH
  2
AcDbHatch
  3
AutoCAD 2000
 90
        0
280
     0
281
     1
  0
CLASS
  1
XRECORD
  2
AcDbXrecord
  3
AutoCAD 2000
 90
        0
280
     0
281
     0
  0
CLASS
  1
LONG_TRANSACTION
  2
AcDbLongTransaction
  3
AutoCAD 2000
 90
        0
280
     0
281
     0
  0
CLASS
  1
LWPOLYLINE
  2
AcDbPolyline
  3
AutoCAD 2000
 90
        0
280
     0
281
     1
  0
CLASS
  1
HATCH
  2
AcDbHatch
  3
AutoCAD 2000
 90
        0
280
     0
281
     1
  0
CLASS
  1
XRECORD
  2
AcDbXrecord
  3
AutoCAD 2000
 90
        0
280
     0
281
     0
  0
CLASS
  1
LONG_TRANSACTION
  2
AcDbLongTransaction
  3
AutoCAD 2000
 90
        0
280
     0
281
     0
  0
CLASS
  1
LWPOLYLINE
  2
AcDbPolyline
  3
AutoCAD 2000
 90
        0
280
     0
281
     1
  0
CLASS
  1
HATCH
  2
AcDbHatch
  3
AutoCAD 2000
 90
        0
280
     0
281
     1
  0
CLASS
  1
XRECORD
  2
AcDbXrecord
  3
AutoCAD 2000
 90
        0
280
     0
281
     0
  0
CLASS
  1
LONG_TRANSACTION
  2
AcDbLongTransaction
  3
AutoCAD 2000
 90
        0
280
     0
281
     0
  0
CLASS
  1
LWPOLYLINE
  2
AcDbPolyline
  3
AutoCAD 2000
 90
        0
280
     0
281
     1
  0
CLASS
  1
HATCH
  2
AcDbHatch
  3
AutoCAD 2000
 90
        0
280
     0
281
     1
  0
CLASS
  1
XRECORD
  2
AcDbXrecord
  3
AutoCAD 2000
 90
        0
280
     0
281
     0
  0
CLASS
  1
LONG_TRANSACTION
  2
AcDbLongTransaction
  3
AutoCAD 2000
 90
        0
280
     0
281
     0
  0
CLASS
  1
LWPOLYLINE
  2
AcDbPolyline
  3
AutoCAD 2000
 90
        0
280
     0
281
     1
  0
CLASS
  1
HATCH
  2
AcDbHatch
  3
AutoCAD 2000
 90
        0
280
     0
281
     1
  0
CLASS
  1
XRECORD
  2
AcDbXrecord
  3
AutoCAD 2000
 90
        0
280
     0
281
     0
  0
CLASS
  1
LONG_TRANSACTION
  2
AcDbLongTransaction
  3
AutoCAD 2000
 90
        0
280
     0
281
     0
  0
CLASS
  1
LWPOLYLINE
  2
AcDbPolyline
  3
AutoCAD 2000
 90
        0
280
     0
281
     1
  0
CLASS
  1
HATCH
  2
AcDbHatch
  3
AutoCAD 2000
 90
        0
280
     0
281
     1
  0
CLASS
  1
XRECORD
  2
AcDbXrecord
  3
AutoCAD 2000
 90
        0
280
     0
281
     0
  0
CLASS
  1
LONG_TRANSACTION
  2
AcDbLongTransaction
  3
AutoCAD 2000
 90
        0
280
     0
281
     0
  0
CLASS
  1
LWPOLYLINE
  2
AcDbPolyline
  3
AutoCAD 2000
 90
        0
280
     0
281
     1
  0
CLASS
  1
HATCH
  2
AcDbHatch
  3
AutoCAD 2000
 90
        0
280
     0
281
     1
  0
CLASS
  1
XRECORD
  2
AcDbXrecord
  3
AutoCAD 2000
 90
        0
280
     0
281
     0
  0
CLASS
  1
LONG_TRANSACTION
  2
AcDbLongTransaction
  3
AutoCAD 2000
 90
        0
280
     0
281
     0
  0
CLASS
  1
LWPOLYLINE
  2
AcDbPolyline
  3
AutoCAD 2000
 90
        0
280
     0
281
     1
  0
CLASS
  1
HATCH
  2
AcDbHatch
  3
AutoCAD 2000
 90
        0
280
     0
281
     1
  0
CLASS
  1
XRECORD
  2
AcDbXrecord
  3
AutoCAD 2000
 90
        0
280
     0
281
     0
  0
CLASS
  1
LONG_TRANSACTION
  2
AcDbLongTransaction
  3
AutoCAD 2000
 90
        0
280
     0
281
     0
  0
CLASS
  1
LWPOLYLINE
  2
AcDbPolyline
  3
AutoCAD 2000
 90
        0
280
     0
281
     1
  0
CLASS
  1
HATCH
  2
AcDbHatch
  3
AutoCAD 2000
 90
        0
280
     0
281
     1
  0
CLASS
  1
XRECORD
  2
AcDbXrecord
  3
AutoCAD 2000
 90
        0
280
     0
281
     0
  0
CLASS
  1
LONG_TRANSACTION
  2
AcDbLongTransaction
  3
AutoCAD 2000
 90
        0
280
     0
281
     0
  0
CLASS
  1
LWPOLYLINE
  2
AcDbPolyline
  3
AutoCAD 2000
 90
        0
280
     0
281
     1
  0
CLASS
  1
HATCH
  2
AcDbHatch
  3
AutoCAD 2000
 90
        0
280
     0
281
     1
  0
CLASS
  1
XRECORD
  2
AcDbXrecord
  3
AutoCAD 2000
 90
        0
280
     0
281
     0
  0
CLASS
  1
LONG_TRANSACTION
  2
AcDbLongTransaction
  3
AutoCAD 2000
 90
        0
280
     0
281
     0
  0
CLASS
  1
LWPOLYLINE
  2
AcDbPolyline
  3
AutoCAD 2000
 90
        0
280
     0
281
     1
  0
CLASS
  1
HATCH
  2
AcDbHatch
  3
AutoCAD 2000
 90
        0
280
     0
281
     1
  0
CLASS
  1
XRECORD
  2
AcDbXrecord
  3
AutoCAD 2000
 90
        0
280
     0
281
     0
  0
CLASS
  1
LONG_TRANSACTION
  2
AcDbLongTransaction
  3
AutoCAD 2000
 90
        0
280
     0
281
     0
  0
CLASS
  1
LWPOLYLINE
  2
AcDbPolyline
  3
AutoCAD 2000
 90
        0
280
     0
281
     1
  0
CLASS
  1
HATCH
  2
AcDbHatch
  3
AutoCAD 2000
 90
        0
280
     0
281
     1
  0
CLASS
  1
XRECORD
  2
AcDbXrecord
  3
AutoCAD 2000
 90
        0
280
     0
281
     0
  0
CLASS
  1
LONG_TRANSACTION
  2
AcDbLongTransaction
  3
AutoCAD 2000
 90
        0
280
     0
281
     0
  0
CLASS
  1
LWPOLYLINE
  2
AcDbPolyline
  3
AutoCAD 2000
 90
        0
280
     0
281
     1
  0
CLASS
  1
HATCH
  2
AcDbHatch
  3
AutoCAD 2000
 90
        0
280
     0
281
     1
  0
CLASS
  1
XRECORD
  2
AcDbXrecord
  3
AutoCAD 2000
 90
        0
280
     0
281
     0
  0
CLASS
  1
LONG_TRANSACTION
  2
AcDbLongTransaction
  3
AutoCAD 2000
 90
        0
280
     0
281
     0
  0
CLASS
  1
LWPOLYLINE
  2
AcDbPolyline
  3
AutoCAD 2000
 90
        0
280
     0
281
     1
  0
CLASS
  1
HATCH
  2
AcDbHatch
  3
AutoCAD 2000
 90
        0
280
     0
281
     1
  0
CLASS
  1
XRECORD
  2
AcDbXrecord
  3
AutoCAD 2000
 90
        0
280
     0
281
     0
  0
CLASS
  1
LONG_TRANSACTION
  2
AcDbLongTransaction
  3
AutoCAD 2000
 90
        0
280
     0
281
     0
  0
CLASS
  1
LWPOLYLINE
  2
AcDbPolyline
  3
AutoCAD 2000
 90
        0
280
     0
281
     1
  0
CLASS
  1
HATCH
  2
AcDbHatch
  3
AutoCAD 2000
 90
        0
280
     0
281
     1
  0
CLASS
  1
XRECORD
  2
AcDbXrecord
  3
AutoCAD 2000
 90
        0
280
     0
281
     0
  0
CLASS
  1
LONG_TRANSACTION
  2
AcDbLongTransaction
  3
AutoCAD 2000
 90
        0
280
     0
281
     0
  0
CLASS
  1
LWPOLYLINE
  2
AcDbPolyline
  3
AutoCAD 2000
 90
        0
280
     0
281
     1
  0
CLASS
  1
HATCH
  2
AcDbHatch
  3
AutoCAD 2000
 90
        0
280
     0
281
     1
  0
CLASS
  1
XRECORD
  2
AcDbXrecord
  3
AutoCAD 2000
 90
        0
280
     0
281
     0
  0
CLASS
  1
LONG_TRANSACTION
  2
AcDbLongTransaction
  3
AutoCAD 2000
 90
        0
280
     0
281
     0
  0
CLASS
  1
LWPOLYLINE
  2
AcDbPolyline
  3
AutoCAD 2000
 90
        0
280
     0
281
     1
  0
CLASS
  1
HATCH
  2
AcDbHatch
  3
AutoCAD 2000
 90
        0
280
     0
281
     1
  0
CLASS
  1
XRECORD
  2
AcDbXrecord
  3
AutoCAD 2000
 90
        0
280
     0
281
     0
  0
CLASS
  1
LONG_TRANSACTION
  2
AcDbLongTransaction
  3
AutoCAD 2000
 90
        0
280
     0
281
     0
  0
CLASS
  1
LWPOLYLINE
  2
AcDbPolyline
  3
AutoCAD 2000
 90
        0
280
     0
281
     1
  0
CLASS
  1
HATCH
  2
AcDbHatch
  3
AutoCAD 2000
 90
        0
280
     0
281
     1
  0
CLASS
  1
XRECORD
  2
AcDbXrecord
  3
AutoCAD 2000
 90
        0
280
     0
281
     0
  0
CLASS
  1
LONG_TRANSACTION
  2
AcDbLongTransaction
  3
AutoCAD 2000
 90
        0
280
     0
281
     0
  0
CLASS
  1
LWPOLYLINE
  2
AcDbPolyline
  3
AutoCAD 2000
 90
        0
280
     0
281
     1
  0
CLASS
  1
HATCH
  2
AcDbHatch
  3
AutoCAD 2000
 90
        0
280
     0
281
     1
  0
CLASS
  1
XRECORD
  2
AcDbXrecord
  3
AutoCAD 2000
 90
        0
280
     0
281
     0
  0
CLASS
  1
LONG_TRANSACTION
  2
AcDbLongTransaction
  3
AutoCAD 2000
 90
        0
280
     0
281
     0
  0
CLASS
  1
LWPOLYLINE
  2
AcDbPolyline
  3
AutoCAD 2000
 90
        0
280
     0
281
     1
  0
CLASS
  1
HATCH
  2
AcDbHatch
  3
AutoCAD 2000
 90
        0
280
     0
281
     1
  0
CLASS
  1
XRECORD
  2
AcDbXrecord
  3
AutoCAD 2000
 90
        0
280
     0
281
     0
  0
CLASS
  1
LONG_TRANSACTION
  2
AcDbLongTransaction
  3
AutoCAD 2000
 90
        0
280
     0
281
     0
  0
CLASS
  1
LWPOLYLINE
  2
AcDbPolyline
  3
AutoCAD 2000
 90
        0
280
     0
281
     1
  0
CLASS
  1
HATCH
  2
AcDbHatch
  3
AutoCAD 2000
 90
        0
280
     0
281
     1
  0
CLASS
  1
XRECORD
  2
AcDbXrecord
  3
AutoCAD 2000
 90
        0
280
     0
281
     0
  0
CLASS
  1
LONG_TRANSACTION
  2
AcDbLongTransaction
  3
AutoCAD 2000
 90
        0
280
     0
281
     0
  0
CLASS
  1
LWPOLYLINE
  2
AcDbPolyline
  3
AutoCAD 2000
 90
        0
280
     0
281
     1
  0
CLASS
  1
HATCH
  2
AcDbHatch
  3
AutoCAD 2000
 90
        0
280
     0
281
     1
  0
CLASS
  1
XRECORD
  2
AcDbXrecord
  3
AutoCAD 2000
 90
        0
280
     0
281
     0
  0
CLASS
  1
LONG_TRANSACTION
  2
AcDbLongTransaction
  3
AutoCAD 2000
 90
        0
280
     0
281
     0
  0
CLASS
  1
LWPOLYLINE
  2
AcDbPolyline
  3
AutoCAD 2000
 90
        0
280
     0
281
     1
  0
CLASS
  1
HATCH
  2
AcDbHatch
  3
AutoCAD 2000
 90
        0
280
     0
281
     1
  0
CLASS
  1
XRECORD
  2
AcDbXrecord
  3
AutoCAD 2000
 90
        0
280
     0
281
     0
  0
CLASS
  1
LONG_TRANSACTION
  2
AcDbLongTransaction
  3
AutoCAD 2000
 90
        0
280
     0
281
     0
  0
CLASS
  1
LWPOLYLINE
  2
AcDbPolyline
  3
AutoCAD 2000
 90
        0
280
     0
281
     1
  0
CLASS
  1
HATCH
  2
AcDbHatch
  3
AutoCAD 2000
 90
        0
280
     0
281
     1
  0
CLASS
  1
XRECORD
  2
AcDbXrecord
  3
AutoCAD 2000
 90
        0
280
     0
281
     0
  0
CLASS
  1
LONG_TRANSACTION
  2
AcDbLongTransaction
  3
AutoCAD 2000
 90
        0
280
     0
281
     0
  0
CLASS
  1
LWPOLYLINE
  2
AcDbPolyline
  3
AutoCAD 2000
 90
        0
280
     0
281
     1
  0
CLASS
  1
HATCH
  2
AcDbHatch
  3
AutoCAD 2000
 90
        0
280
     0
281
     1
  0
CLASS
  1
XRECORD
  2
AcDbXrecord
  3
AutoCAD 2000
 90
        0
280
     0
281
     0
  0
CLASS
  1
LONG_TRANSACTION
  2
AcDbLongTransaction
  3
AutoCAD 2000
 90
        0
280
     0
281
     0
  0
CLASS
  1
LWPOLYLINE
  2
AcDbPolyline
  3
AutoCAD 2000
 90
        0
280
     0
281
     1
  0
CLASS
  1
HATCH
  2
AcDbHatch
  3
AutoCAD 2000
 90
        0
280
     0
281
     1
  0
CLASS
  1
XRECORD
  2
AcDbXrecord
  3
AutoCAD 2000
 90
        0
280
     0
281
     0
  0
CLASS
  1
LONG_TRANSACTION
  2
AcDbLongTransaction
  3
AutoCAD 2000
 90
        0
280
     0
281
     0
  0
CLASS
  1
LWPOLYLINE
  2
AcDbPolyline
  3
AutoCAD 2000
 90
        0
280
     0
281
     1
  0
CLASS
  1
HATCH
  2
AcDbHatch
  3
AutoCAD 2000
 90
        0
280
     0
281
     1
  0
CLASS
  1
XRECORD
  2
AcDbXrecord
  3
AutoCAD 2000
 90
        0
280
     0
281
     0
  0
CLASS
  1
LONG_TRANSACTION
  2
AcDbLongTransaction
  3
AutoCAD 2000
 90
        0
280
     0
281
     0
  0
CLASS
  1
LWPOLYLINE
  2
AcDbPolyline
  3
AutoCAD 2000
 90
        0
280
     0
281
     1
  0
CLASS
  1
HATCH
  2
AcDbHatch
  3
AutoCAD 2000
 90
        0
280
     0
281
     1
  0
CLASS
  1
XRECORD
  2
AcDbXrecord
  3
AutoCAD 2000
 90
        0
280
     0
281
     0
  0
CLASS
  1
LONG_TRANSACTION
  2
AcDbLongTransaction
  3
AutoCAD 2000
 90
        0
280
     0
281
     0
  0
CLASS
  1
LWPOLYLINE
  2
AcDbPolyline
  3
AutoCAD 2000
 90
        0
280
     0
281
     1
  0
CLASS
  1
HATCH
  2
AcDbHatch
  3
AutoCAD 2000
 90
        0
280
     0
281
     1
  0
CLASS
  1
XRECORD
  2
AcDbXrecord
  3
AutoCAD 2000
 90
        0
280
     0
281
     0
  0
CLASS
  1
LONG_TRANSACTION
  2
AcDbLongTransaction
  3
AutoCAD 2000
 90
        0
280
     0
281
     0
  0
CLASS
  1
LWPOLYLINE
  2
AcDbPolyline
  3
AutoCAD 2000
 90
        0
280
     0
281
     1
  0
CLASS
  1
HATCH
  2
AcDbHatch
  3
AutoCAD 2000
 90
        0
280
     0
281
     1
  0
CLASS
  1
XRECORD
  2
AcDbXrecord
  3
AutoCAD 2000
 90
        0
280
     0
281
     0
  0
CLASS
  1
LONG_TRANSACTION
  2
AcDbLongTransaction
  3
AutoCAD 2000
 90
        0
280
     0
281
     0
  0
CLASS
  1
LWPOLYLINE
  2
AcDbPolyline
  3
AutoCAD 2000
 90
        0
280
     0
281
     1
  0
CLASS
  1
HATCH
  2
AcDbHatch
  3
AutoCAD 2000
 90
        0
280
     0
281
     1
  0
CLASS
  1
XRECORD
  2
AcDbXrecord
  3
AutoCAD 2000
 90
        0
280
     0
281
     0
  0
CLASS
  1
LONG_TRANSACTION
  2
AcDbLongTransaction
  3
AutoCAD 2000
 90
        0
280
     0
281
     0
  0
CLASS
  1
LWPOLYLINE
  2
AcDbPolyline
  3
AutoCAD 2000
 90
        0
280
     0
281
     1
  0
CLASS
  1
HATCH
  2
AcDbHatch
  3
AutoCAD 2000
 90
        0
280
     0
281
     1
  0
CLASS
  1
XRECORD
  2
AcDbXrecord
  3
AutoCAD 2000
 90
        0
280
     0
281
     0
  0
CLASS
  1
LONG_TRANSACTION
  2
AcDbLongTransaction
  3
AutoCAD 2000
 90
        0
280
     0
281
     0
  0
CLASS
  1
LWPOLYLINE
  2
AcDbPolyline
  3
AutoCAD 2000
 90
        0
280
     0
281
     1
  0
CLASS
  1
HATCH
  2
AcDbHatch
  3
AutoCAD 2000
 90
        0
280
     0
281
     1
  0
CLASS
  1
XRECORD
  2
AcDbXrecord
  3
AutoCAD 2000
 90
        0
280
     0
281
     0
  0
CLASS
  1
LONG_TRANSACTION
  2
AcDbLongTransaction
  3
AutoCAD 2000
 90
        0
280
     0
281
     0
  0
CLASS
  1
LWPOLYLINE
  2
AcDbPolyline
  3
AutoCAD 2000
 90
        0
280
     0
281
     1
  0
CLASS
  1
HATCH
  2
AcDbHatch
  3
AutoCAD 2000
 90
        0
280
     0
281
     1
  0
CLASS
  1
XRECORD
  2
AcDbXrecord
  3
AutoCAD 2000
 90
        0
280
     0
281
     0
  0
CLASS
  1
LONG_TRANSACTION
  2
AcDbLongTransaction
  3
AutoCAD 2000
 90
        0
280
     0
281
     0
  0
CLASS
  1
LWPOLYLINE
  2
AcDbPolyline
  3
AutoCAD 2000
 90
        0
280
     0
281
     1
  0
CLASS
  1
HATCH
  2
AcDbHatch
  3
AutoCAD 2000
 90
        0
280
     0
281
     1
  0
CLASS
  1
XRECORD
  2
AcDbXrecord
  3
AutoCAD 2000
 90
        0
280
     0
281
     0
  0
CLASS
  1
LONG_TRANSACTION
  2
AcDbLongTransaction
  3
AutoCAD 2000
 90
        0
280
     0
281
     0
  0
CLASS
  1
LWPOLYLINE
  2
AcDbPolyline
  3
AutoCAD 2000
 90
        0
280
     0
281
     1
  0
CLASS
  1
HATCH
  2
AcDbHatch
  3
AutoCAD 2000
 90
        0
280
     0
281
     1
  0
CLASS
  1
XRECORD
  2
AcDbXrecord
  3
AutoCAD 2000
 90
        0
280
     0
281
     0
  0
CLASS
  1
LONG_TRANSACTION
  2
AcDbLongTransaction
  3
AutoCAD 2000
 90
        0
280
     0
281
     0
  0
CLASS
  1
LWPOLYLINE
  2
AcDbPolyline
  3
AutoCAD 2000
 90
        0
280
     0
281
     1
  0
CLASS
  1
HATCH
  2
AcDbHatch
  3
AutoCAD 2000
 90
        0
280
     0
281
     1
  0
CLASS
  1
XRECORD
  2
AcDbXrecord
  3
AutoCAD 2000
 90
        0
280
     0
281
     0
  0
CLASS
  1
LONG_TRANSACTION
  2
AcDbLongTransaction
  3
AutoCAD 2000
 90
        0
280
     0
281
     0
  0
CLASS
  1
LWPOLYLINE
  2
AcDbPolyline
  3
AutoCAD 2000
 90
        0
280
     0
281
     1
  0
CLASS
  1
HATCH
  2
AcDbHatch
  3
AutoCAD 2000
 90
        0
280
     0
281
     1
  0
CLASS
  1
XRECORD
  2
AcDbXrecord
  3
AutoCAD 2000
 90
        0
280
     0
281
     0
  0
CLASS
  1
LONG_TRANSACTION
  2
AcDbLongTransaction
  3
AutoCAD 2000
 90
        0
280
     0
281
     0
  0
CLASS
  1
LWPOLYLINE
  2
AcDbPolyline
  3
AutoCAD 2000
 90
        0
280
     0
281
     1
  0
CLASS
  1
HATCH
  2
AcDbHatch
  3
AutoCAD 2000
 90
        0
280
     0
281
     1
  0
CLASS
  1
XRECORD
  2
AcDbXrecord
  3
AutoCAD 2000
 90
        0
280
     0
281
     0
  0
CLASS
  1
LONG_TRANSACTION
  2
AcDbLongTransaction
  3
AutoCAD 2000
 90
        0
280
     0
281
     0
  0
CLASS
  1
LWPOLYLINE
  2
AcDbPolyline
  3
AutoCAD 2000
 90
        0
280
     0
281
     1
  0
CLASS
  1
HATCH
  2
AcDbHatch
  3
AutoCAD 2000
 90
        0
280
     0
281
     1
  0
CLASS
  1
XRECORD
  2
AcDbXrecord
  3
AutoCAD 2000
 90
        0
280
     0
281
     0
  0
CLASS
  1
LONG_TRANSACTION
  2
AcDbLongTransaction
  3
AutoCAD 2000
 90
        0
280
     0
281
     0
  0
CLASS
  1
LWPOLYLINE
  2
AcDbPolyline
  3
AutoCAD 2000
 90
        0
280
     0
281
     1
  0
CLASS
  1
HATCH
  2
AcDbHatch
  3
AutoCAD 2000
 90
        0
280
     0
281
     1
  0
CLASS
  1
XRECORD
  2
AcDbXrecord
  3
AutoCAD 2000
 90
        0
280
     0
281
     0
  0
CLASS
  1
LONG_TRANSACTION
  2
AcDbLongTransaction
  3
AutoCAD 2000
 90
        0
280
     0
281
     0
  0
CLASS
  1
LWPOLYLINE
  2
AcDbPolyline
  3
AutoCAD 2000
 90
        0
280
     0
281
     1
  0
CLASS
  1
HATCH
  2
AcDbHatch
  3
AutoCAD 2000
 90
        0
280
     0
281
     1
  0
CLASS
  1
XRECORD
  2
AcDbXrecord
  3
AutoCAD 2000
 90
        0
280
     0
281
     0
  0
CLASS
  1
LONG_TRANSACTION
  2
AcDbLongTransaction
  3
AutoCAD 2000
 90
        0
280
     0
281
     0
  0
CLASS
  1
LWPOLYLINE
  2
AcDbPolyline
  3
AutoCAD 2000
 90
        0
280
     0
281
     1
  0
CLASS
  1
HATCH
  2
AcDbHatch
  3
AutoCAD 2000
 90
        0
280
     0
281
     1
  0
CLASS
  1
XRECORD
  2
AcDbXrecord
  3
AutoCAD 2000
 90
        0
280
     0
281
     0
  0
CLASS
  1
LONG_TRANSACTION
  2
AcDbLongTransaction
  3
AutoCAD 2000
 90
        0
280
     0
281
     0
  0
CLASS
  1
LWPOLYLINE
  2
AcDbPolyline
  3
AutoCAD 2000
 90
        0
280
     0
281
     1
  0
CLASS
  1
HATCH
  2
AcDbHatch
  3
AutoCAD 2000
 90
        0
280
     0
281
     1
  0
CLASS
  1
XRECORD
  2
AcDbXrecord
  3
AutoCAD 2000
 90
        0
280
     0
281
     0
  0
CLASS
  1
LONG_TRANSACTION
  2
AcDbLongTransaction
  3
AutoCAD 2000
 90
        0
280
     0
281
     0
  0
CLASS
  1
LWPOLYLINE
  2
AcDbPolyline
  3
AutoCAD 2000
 90
        0
280
     0
281
     1
  0
CLASS
  1
HATCH
  2
AcDbHatch
  3
AutoCAD 2000
 90
        0
280
     0
281
     1
  0
CLASS
  1
XRECORD
  2
AcDbXrecord
  3
AutoCAD 2000
 90
        0
280
     0
281
     0
  0
CLASS
  1
LONG_TRANSACTION
  2
AcDbLongTransaction
  3
AutoCAD 2000
 90
        0
280
     0
281
     0
  0
CLASS
  1
LWPOLYLINE
  2
AcDbPolyline
  3
AutoCAD 2000
 90
        0
280
     0
281
     1
  0
CLASS
  1
HATCH
  2
AcDbHatch
  3
AutoCAD 2000
 90
        0
280
     0
281
     1
  0
CLASS
  1
XRECORD
  2
AcDbXrecord
  3
AutoCAD 2000
 90
        0
280
     0
281
     0
  0
CLASS
  1
LONG_TRANSACTION
  2
AcDbLongTransaction
  3
AutoCAD 2000
 90
        0
280
     0
281
     0
  0
CLASS
  1
LWPOLYLINE
  2
AcDbPolyline
  3
AutoCAD 2000
 90
        0
280
     0
281
     1
  0
CLASS
  1
HATCH
  2
AcDbHatch
  3
AutoCAD 2000
 90
        0
280
     0
281
     1
  0
CLASS
  1
XRECORD
  2
AcDbXrecord
  3
AutoCAD 2000
 90
        0
280
     0
281
     0
  0
CLASS
  1
LONG_TRANSACTION
  2
AcDbLongTransaction
  3
AutoCAD 2000
 90
        0
280
     0
281
     0
  0
CLASS
  1
LWPOLYLINE
  2
AcDbPolyline
  3
AutoCAD 2000
 90
        0
280
     0
281
     1
  0
CLASS
  1
HATCH
  2
AcDbHatch
  3
AutoCAD 2000
 90
        0
280
     0
281
     1
  0
CLASS
  1
XRECORD
  2
AcDbXrecord
  3
AutoCAD 2000
 90
        0
280
     0
281
     0
  0
CLASS
  1
LONG_TRANSACTION
  2
AcDbLongTransaction
  3
AutoCAD 2000
 90
        0
280
     0
281
     0
  0
CLASS
  1
LWPOLYLINE
  2
AcDbPolyline
  3
AutoCAD 2000
 90
        0
280
     0
281
     1
  0
CLASS
  1
HATCH
  2
AcDbHatch
  3
AutoCAD 2000
 90
        0
280
     0
281
     1
  0
CLASS
  1
XRECORD
  2
AcDbXrecord
  3
AutoCAD 2000
 90
        0
280
     0
281
     0
  0
CLASS
  1
LONG_TRANSACTION
  2
AcDbLongTransaction
  3
AutoCAD 2000
 90
        0
280
     0
281
     0
  0
CLASS
  1
LWPOLYLINE
  2
AcDbPolyline
  3
AutoCAD 2000
 90
        0
280
     0
281
     1
  0
CLASS
  1
HATCH
  2
AcDbHatch
  3
AutoCAD 2000
 90
        0
280
     0
281
     1
  0
CLASS
  1
XRECORD
  2
AcDbXrecord
  3
AutoCAD 2000
 90
        0
280
     0
281
     0
  0
CLASS
  1
LONG_TRANSACTION
  2
AcDbLongTransaction
  3
AutoCAD 2000
 90
        0
280
     0
281
     0
  0
CLASS
  1
LWPOLYLINE
  2
AcDbPolyline
  3
AutoCAD 2000
 90
        0
280
     0
281
     1
  0
CLASS
  1
HATCH
  2
AcDbHatch
  3
AutoCAD 2000
 90
        0
280
     0
281
     1
  0
CLASS
  1
XRECORD
  2
AcDbXrecord
  3
AutoCAD 2000
 90
        0
280
     0
281
     0
  0
CLASS
  1
LONG_TRANSACTION
  2
AcDbLongTransaction
  3
AutoCAD 2000
 90
        0
280
     0
281
     0
  0
CLASS
  1
LWPOLYLINE
  2
AcDbPolyline
  3
AutoCAD 2000
 90
        0
280
     0
281
     1
  0
CLASS
  1
HATCH
  2
AcDbHatch
  3
AutoCAD 2000
 90
        0
280
     0
281
     1
  0
CLASS
  1
XRECORD
  2
AcDbXrecord
  3
AutoCAD 2000
 90
        0
280
     0
281
     0
  0
CLASS
  1
LONG_TRANSACTION
  2
AcDbLongTransaction
  3
AutoCAD 2000
 90
        0
280
     0
281
     0
  0
CLASS
  1
LWPOLYLINE
  2
AcDbPolyline
  3
AutoCAD 2000
 90
        0
280
     0
281
     1
  0
CLASS
  1
HATCH
  2
AcDbHatch
  3
AutoCAD 2000
 90
        0
280
     0
281
     1
  0
CLASS
  1
XRECORD
  2
AcDbXrecord
  3
AutoCAD 2000
 90
        0
280
     0
281
     0
  0
CLASS
  1
LONG_TRANSACTION
  2
AcDbLongTransaction
  3
AutoCAD 2000
 90
        0
280
     0
281
     0
  0
CLASS
  1
LWPOLYLINE
  2
AcDbPolyline
  3
AutoCAD 2000
 90
        0
280
     0
281
     1
  0
CLASS
  1
HATCH
  2
AcDbHatch
  3
AutoCAD 2000
 90
        0
280
     0
281
     1
  0
CLASS
  1
XRECORD
  2
AcDbXrecord
  3
AutoCAD 2000
 90
        0
280
     0
281
     0
  0
CLASS
  1
LONG_TRANSACTION
  2
AcDbLongTransaction
  3
AutoCAD 2000
 90
        0
280
     0
281
     0
  0
CLASS
  1
LWPOLYLINE
  2
AcDbPolyline
  3
AutoCAD 2000
 90
        0
280
     0
281
     1
  0
CLASS
  1
HATCH
  2
AcDbHatch
  3
AutoCAD 2000
 90
        0
280
     0
281
     1
  0
CLASS
  1
XRECORD
  2
AcDbXrecord
  3
AutoCAD 2000
 90
        0
280
     0
281
     0
  0
CLASS
  1
LONG_TRANSACTION
  2
AcDbLongTransaction
  3
AutoCAD 2000
 90
        0
280
     0
281
     0
  0
CLASS
  1
LWPOLYLINE
  2
AcDbPolyline
  3
AutoCAD 2000
 90
        0
280
     0
281
     1
  0
CLASS
  1
HATCH
  2
AcDbHatch
  3
AutoCAD 2000
 90
        0
280
     0
281
     1
  0
CLASS
  1
XRECORD
  2
AcDbXrecord
  3
AutoCAD 2000
 90
        0
280
     0
281
     0
  0
CLASS
  1
LONG_TRANSACTION
  2
AcDbLongTransaction
  3
AutoCAD 2000
 90
        0
280
     0
281
     0
  0
CLASS
  1
LWPOLYLINE
  2
AcDbPolyline
  3
AutoCAD 2000
 90
        0
280
     0
281
     1
  0
CLASS
  1
HATCH
  2
AcDbHatch
  3
AutoCAD 2000
 90
        0
280
     0
281
     1
  0
CLASS
  1
XRECORD
  2
AcDbXrecord
  3
AutoCAD 2000
 90
        0
280
     0
281
     0
  0
CLASS
  1
LONG_TRANSACTION
  2
AcDbLongTransaction
  3
AutoCAD 2000
 90
        0
280
     0
281
     0
  0
CLASS
  1
LWPOLYLINE
  2
AcDbPolyline
  3
AutoCAD 2000
 90
        0
280
     0
281
     1
  0
CLASS
  1
HATCH
  2
AcDbHatch
  3
AutoCAD 2000
 90
        0
280
     0
281
     1
  0
CLASS
  1
XRECORD
  2
AcDbXrecord
  3
AutoCAD 2000
 90
        0
280
     0
281
     0
  0
CLASS
  1
LONG_TRANSACTION
  2
AcDbLongTransaction
  3
AutoCAD 2000
 90
        0
280
     0
281
     0
  0
CLASS
  1
LWPOLYLINE
  2
AcDbPolyline
  3
AutoCAD 2000
 90
        0
280
     0
281
     1
  0
CLASS
  1
HATCH
  2
AcDbHatch
  3
AutoCAD 2000
 90
        0
280
     0
281
     1
  0
CLASS
  1
XRECORD
  2
AcDbXrecord
  3
AutoCAD 2000
 90
        0
280
     0
281
     0
  0
CLASS
  1
LONG_TRANSACTION
  2
AcDbLongTransaction
  3
AutoCAD 2000
 90
        0
280
     0
281
     0
  0
CLASS
  1
LWPOLYLINE
  2
AcDbPolyline
  3
AutoCAD 2000
 90
        0
280
     0
281
     1
  0
CLASS
  1
HATCH
  2
AcDbHatch
  3
AutoCAD 2000
 90
        0
280
     0
281
     1
  0
CLASS
  1
XRECORD
  2
AcDbXrecord
  3
AutoCAD 2000
 90
        0
280
     0
281
     0
  0
CLASS
  1
LONG_TRANSACTION
  2
AcDbLongTransaction
  3
AutoCAD 2000
 90
        0
280
     0
281
     0
  0
CLASS
  1
LWPOLYLINE
  2
AcDbPolyline
  3
AutoCAD 2000
 90
        0
280
     0
281
     1
  0
CLASS
  1
HATCH
  2
AcDbHatch
  3
AutoCAD 2000
 90
        0
280
     0
281
     1
  0
CLASS
  1
XRECORD
  2
AcDbXrecord
  3
AutoCAD 2000
 90
        0
280
     0
281
     0
  0
CLASS
  1
LONG_TRANSACTION
  2
AcDbLongTransaction
  3
AutoCAD 2000
 90
        0
280
     0
281
     0
  0
CLASS
  1
LWPOLYLINE
  2
AcDbPolyline
  3
AutoCAD 2000
 90
        0
280
     0
281
     1
  0
CLASS
  1
HATCH
  2
AcDbHatch
  3
AutoCAD 2000
 90
        0
280
     0
281
     1
  0
CLASS
  1
XRECORD
  2
AcDbXrecord
  3
AutoCAD 2000
 90
        0
280
     0
281
     0
  0
CLASS
  1
LONG_TRANSACTION
  2
AcDbLongTransaction
  3
AutoCAD 2000
 90
        0
280
     0
281
     0
  0
CLASS
  1
LWPOLYLINE
  2
AcDbPolyline
  3
AutoCAD 2000
 90
        0
280
     0
281
     1
  0
CLASS
  1
HATCH
  2
AcDbHatch
  3
AutoCAD 2000
 90
        0
280
     0
281
     1
  0
CLASS
  1
XRECORD
  2
AcDbXrecord
  3
AutoCAD 2000
 90
        0
280
     0
281
     0
  0
CLASS
  1
LONG_TRANSACTION
  2
AcDbLongTransaction
  3
AutoCAD 2000
 90
        0
280
     0
281
     0
  0
CLASS
  1
LWPOLYLINE
  2
AcDbPolyline
  3
AutoCAD 2000
 90
        0
280
     0
281
     1
  0
CLASS
  1
HATCH
  2
AcDbHatch
  3
AutoCAD 2000
 90
        0
280
     0
281
     1
  0
CLASS
  1
XRECORD
  2
AcDbXrecord
  3
AutoCAD 2000
 90
        0
280
     0
281
     0
  0
CLASS
  1
LONG_TRANSACTION
  2
AcDbLongTransaction
  3
AutoCAD 2000
 90
        0
280
     0
281
     0
  0
CLASS
  1
LWPOLYLINE
  2
AcDbPolyline
  3
AutoCAD 2000
 90
        0
280
     0
281
     1
  0
CLASS
  1
HATCH
  2
AcDbHatch
  3
AutoCAD 2000
 90
        0
280
     0
281
     1
  0
CLASS
  1
XRECORD
  2
AcDbXrecord
  3
AutoCAD 2000
 90
        0
280
     0
281
     0
  0
CLASS
  1
LONG_TRANSACTION
  2
AcDbLongTransaction
  3
AutoCAD 2000
 90
        0
280
     0
281
     0
  0
CLASS
  1
LWPOLYLINE
  2
AcDbPolyline
  3
AutoCAD 2000
 90
        0
280
     0
281
     1
  0
CLASS
  1
HATCH
  2
AcDbHatch
  3
AutoCAD 2000
 90
        0
280
     0
281
     1
  0
CLASS
  1
XRECORD
  2
AcDbXrecord
  3
AutoCAD 2000
 90
        0
280
     0
281
     0
  0
CLASS
  1
LONG_TRANSACTION
  2
AcDbLongTransaction
  3
AutoCAD 2000
 90
        0
280
     0
281
     0
  0
CLASS
  1
LWPOLYLINE
  2
AcDbPolyline
  3
AutoCAD 2000
 90
        0
280
     0
281
     1
  0
CLASS
  1
HATCH
  2
AcDbHatch
  3
AutoCAD 2000
 90
        0
280
     0
281
     1
  0
CLASS
  1
XRECORD
  2
AcDbXrecord
  3
AutoCAD 2000
 90
        0
280
     0
281
     0
  0
CLASS
  1
LONG_TRANSACTION
  2
AcDbLongTransaction
  3
AutoCAD 2000
 90
        0
280
     0
281
     0
  0
CLASS
  1
LWPOLYLINE
  2
AcDbPolyline
  3
AutoCAD 2000
 90
        0
280
     0
281
     1
  0
CLASS
  1
HATCH
  2
AcDbHatch
  3
AutoCAD 2000
 90
        0
280
     0
281
     1
  0
CLASS
  1
XRECORD
  2
AcDbXrecord
  3
AutoCAD 2000
 90
        0
280
     0
281
     0
  0
CLASS
  1
LONG_TRANSACTION
  2
AcDbLongTransaction
  3
AutoCAD 2000
 90
        0
280
     0
281
     0
  0
CLASS
  1
LWPOLYLINE
  2
AcDbPolyline
  3
AutoCAD 2000
 90
        0
280
     0
281
     1
  0
CLASS
  1
HATCH
  2
AcDbHatch
  3
AutoCAD 2000
 90
        0
280
     0
281
     1
  0
CLASS
  1
XRECORD
  2
AcDbXrecord
  3
AutoCAD 2000
 90
        0
280
     0
281
     0
  0
CLASS
  1
LONG_TRANSACTION
  2
AcDbLongTransaction
  3
AutoCAD 2000
 90
        0
280
     0
281
     0
  0
CLASS
  1
LWPOLYLINE
  2
AcDbPolyline
  3
AutoCAD 2000
 90
        0
280
     0
281
     1
  0
CLASS
  1
HATCH
  2
AcDbHatch
  3
AutoCAD 2000
 90
        0
280
     0
281
     1
  0
CLASS
  1
XRECORD
  2
AcDbXrecord
  3
AutoCAD 2000
 90
        0
280
     0
281
     0
  0
CLASS
  1
LONG_TRANSACTION
  2
AcDbLongTransaction
  3
AutoCAD 2000
 90
        0
280
     0
281
     0
  0
CLASS
  1
LWPOLYLINE
  2
AcDbPolyline
  3
AutoCAD 2000
 90
        0
280
     0
281
     1
  0
CLASS
  1
HATCH
  2
AcDbHatch
  3
AutoCAD 2000
 90
        0
280
     0
281
     1
  0
CLASS
  1
XRECORD
  2
AcDbXrecord
  3
AutoCAD 2000
 90
        0
280
     0
281
     0
  0
CLASS
  1
LONG_TRANSACTION
  2
AcDbLongTransaction
  3
AutoCAD 2000
 90
        0
280
     0
281
     0
  0
CLASS
  1
LWPOLYLINE
  2
AcDbPolyline
  3
AutoCAD 2000
 90
        0
280
     0
281
     1
  0
CLASS
  1
HATCH
  2
AcDbHatch
  3
AutoCAD 2000
 90
        0
280
     0
281
     1
  0
CLASS
  1
XRECORD
  2
AcDbXrecord
  3
AutoCAD 2000
 90
        0
280
     0
281
     0
  0
CLASS
  1
LONG_TRANSACTION
  2
AcDbLongTransaction
  3
AutoCAD 2000
 90
        0
280
     0
281
     0
  0
CLASS
  1
LWPOLYLINE
  2
AcDbPolyline
  3
AutoCAD 2000
 90
        0
280
     0
281
     1
  0
CLASS
  1
HATCH
  2
AcDbHatch
  3
AutoCAD 2000
 90
        0
280
     0
281
     1
  0
CLASS
  1
XRECORD
  2
AcDbXrecord
  3
AutoCAD 2000
 90
        0
280
     0
281
     0
  0
CLASS
  1
LONG_TRANSACTION
  2
AcDbLongTransaction
  3
AutoCAD 2000
 90
        0
280
     0
281
     0
  0
CLASS
  1
LWPOLYLINE
  2
AcDbPolyline
  3
AutoCAD 2000
 90
        0
280
     0
281
     1
  0
CLASS
  1
HATCH
  2
AcDbHatch
  3
AutoCAD 2000
 90
        0
280
     0
281
     1
  0
CLASS
  1
XRECORD
  2
AcDbXrecord
  3
AutoCAD 2000
 90
        0
280
     0
281
     0
  0
CLASS
  1
LONG_TRANSACTION
  2
AcDbLongTransaction
  3
AutoCAD 2000
 90
        0
280
     0
281
     0
  0
CLASS
  1
LWPOLYLINE
  2
AcDbPolyline
  3
AutoCAD 2000
 90
        0
280
     0
281
     1
  0
CLASS
  1
HATCH
  2
AcDbHatch
  3
AutoCAD 2000
 90
        0
280
     0
281
     1
  0
CLASS
  1
XRECORD
  2
AcDbXrecord
  3
AutoCAD 2000
 90
        0
280
     0
281
     0
  0
CLASS
  1
LONG_TRANSACTION
  2
AcDbLongTransaction
  3
AutoCAD 2000
 90
        0
280
     0
281
     0
  0
CLASS
  1
LWPOLYLINE
  2
AcDbPolyline
  3
AutoCAD 2000
 90
        0
280
     0
281
     1
  0
CLASS
  1
HATCH
  2
AcDbHatch
  3
AutoCAD 2000
 90
        0
280
     0
281
     1
  0
CLASS
  1
XRECORD
  2
AcDbXrecord
  3
AutoCAD 2000
 90
        0
280
     0
281
     0
  0
CLASS
  1
LONG_TRANSACTION
  2
AcDbLongTransaction
  3
AutoCAD 2000
 90
        0
280
     0
281
     0
  0
CLASS
  1
LWPOLYLINE
  2
AcDbPolyline
  3
AutoCAD 2000
 90
        0
280
     0
281
     1
  0
CLASS
  1
HATCH
  2
AcDbHatch
  3
AutoCAD 2000
 90
        0
280
     0
281
     1
  0
CLASS
  1
XRECORD
  2
AcDbXrecord
  3
AutoCAD 2000
 90
        0
280
     0
281
     0
  0
CLASS
  1
LONG_TRANSACTION
  2
AcDbLongTransaction
  3
AutoCAD 2000
 90
        0
280
     0
281
     0
  0
CLASS
  1
LWPOLYLINE
  2
AcDbPolyline
  3
AutoCAD 2000
 90
        0
280
     0
281
     1
  0
CLASS
  1
HATCH
  2
AcDbHatch
  3
AutoCAD 2000
 90
        0
280
     0
281
     1
  0
CLASS
  1
XRECORD
  2
AcDbXrecord
  3
AutoCAD 2000
 90
        0
280
     0
281
     0
  0
CLASS
  1
LONG_TRANSACTION
  2
AcDbLongTransaction
  3
AutoCAD 2000
 90
        0
280
     0
281
     0
  0
CLASS
  1
LWPOLYLINE
  2
AcDbPolyline
  3
AutoCAD 2000
 90
        0
280
     0
281
     1
  0
CLASS
  1
HATCH
  2
AcDbHatch
  3
AutoCAD 2000
 90
        0
280
     0
281
     1
  0
CLASS
  1
XRECORD
  2
AcDbXrecord
  3
AutoCAD 2000
 90
        0
280
     0
281
     0
  0
CLASS
  1
LONG_TRANSACTION
  2
AcDbLongTransaction
  3
AutoCAD 2000
 90
        0
280
     0
281
     0
  0
CLASS
  1
LWPOLYLINE
  2
AcDbPolyline
  3
AutoCAD 2000
 90
        0
280
     0
281
     1
  0
CLASS
  1
HATCH
  2
AcDbHatch
  3
AutoCAD 2000
 90
        0
280
     0
281
     1
  0
CLASS
  1
XRECORD
  2
AcDbXrecord
  3
AutoCAD 2000
 90
        0
280
     0
281
     0
  0
ENDSEC
  0
SECTION
  2
TABLES
  0
TABLE
  2
VPORT
  5
92
330
0
100
AcDbSymbolTable
 70
     2
  0
VPORT
  5
3F7
330
92
100
AcDbSymbolTableRecord
100
AcDbViewportTableRecord
  2
*ACTIVE
 70
     0
 10
0.0
 20
0.0
 11
1.0
 21
1.0
 12
184.3792143611281
 22
197.949304075415
 13
0.0
 23
0.0
 14
10.0
 24
10.0
 15
10.0
 25
10.0
 16
0.0
 26
0.0
 36
1.0
 17
0.0
 27
0.0
 37
0.0
 40
407.9348293257018
 41
1.549367088607595
 42
50.0
 43
0.0
 44
0.0
 50
0.0
 51
0.0
 71
     0
 72
 10000
 73
     1
 74
     3
 75
     0
 76
     0
 77
     0
 78
     1
  0
ENDTAB
  0
TABLE
  2
LTYPE
  5
8D
330
0
100
AcDbSymbolTable
 70
     3
  0
LTYPE
  5
8E
330
8D
100
AcDbSymbolTableRecord
100
AcDbLinetypeTableRecord
  2
BYBLOCK
 70
     0
  3

 72
    65
 73
     0
 40
0.0
  0
LTYPE
  5
8F
330
8D
100
AcDbSymbolTableRecord
100
AcDbLinetypeTableRecord
  2
BYLAYER
 70
     0
  3

 72
    65
 73
     0
 40
0.0
  0
LTYPE
  5
A
330
8D
100
AcDbSymbolTableRecord
100
AcDbLinetypeTableRecord
  2
CONTINUOUS
 70
     0
  3
Solid line
 72
    65
 73
     0
 40
0.0
  0
LTYPE
  5
131
330
8D
100
AcDbSymbolTableRecord
100
AcDbLinetypeTableRecord
  2
CENTER
 70
     0
  3
Center ____ _ ____ _ ____ _ ____ _ ____ _ ____
 72
    65
 73
     4
 40
50.8
 49
31.75
 74
     0
 49
-6.349999999999998
 74
     0
 49
6.349999999999998
 74
     0
 49
-6.349999999999998
 74
     0
  0
LTYPE
  5
D1
330
8D
100
AcDbSymbolTableRecord
100
AcDbLinetypeTableRecord
  2
CENTERX2
 70
     0
  3
Center (2x) ________  __  ________  __  _____
 72
    65
 73
     4
 40
101.6
 49
63.5
 74
     0
 49
-12.7
 74
     0
 49
12.7
 74
     0
 49
-12.7
 74
     0
  0
ENDTAB
  0
TABLE
  2
LAYER
  5
14
102
{ACAD_XDICTIONARY
360
15
102
}
330
0
100
AcDbSymbolTable
 70
     6
  0
LAYER
  5
6
330
14
100
AcDbSymbolTableRecord
100
AcDbLayerTableRecord
  2
0
 70
     0
 62
     7
  6
CONTINUOUS
  0
LAYER
  5
AF
330
14
100
AcDbSymbolTableRecord
100
AcDbLayerTableRecord
  2
DEFPOINTS
 70
     0
 62
     7
  6
CONTINUOUS
  0
LAYER
  5
11F
330
14
100
AcDbSymbolTableRecord
100
AcDbLayerTableRecord
  2
DIM
 70
     0
 62
     3
  6
CONTINUOUS
  0
LAYER
  5
D0
330
14
100
AcDbSymbolTableRecord
100
AcDbLayerTableRecord
  2
CL
 70
     0
 62
     1
  6
CENTERX2
  0
LAYER
  5
266
330
14
100
AcDbSymbolTableRecord
100
AcDbLayerTableRecord
  2
CEN
 70
     0
 62
     1
  6
CENTER
  0
LAYER
  5
26E
330
14
100
AcDbSymbolTableRecord
100
AcDbLayerTableRecord
  2
2
 70
     0
 62
     2
  6
CONTINUOUS
  0
ENDTAB
  0
TABLE
  2
STYLE
  5
8A
330
0
100
AcDbSymbolTable
 70
     1
  0
STYLE
  5
8B
330
8A
100
AcDbSymbolTableRecord
100
AcDbTextStyleTableRecord
  2
STANDARD
 70
     0
 40
0.0
 41
1.0
 50
0.0
 71
     0
 42
5.777225951253058
  3
romans.shx
  4
whgtxt.shx
  0
ENDTAB
  0
TABLE
  2
VIEW
  5
90
330
0
100
AcDbSymbolTable
 70
     0
  0
ENDTAB
  0
TABLE
  2
UCS
  5
91
330
0
100
AcDbSymbolTable
 70
     0
  0
ENDTAB
  0
TABLE
  2
APPID
  5
94
330
0
100
AcDbSymbolTable
 70
     2
  0
APPID
  5
95
330
94
100
AcDbSymbolTableRecord
100
AcDbRegAppTableRecord
  2
ACAD
 70
     0
  0
APPID
  5
426
330
94
100
AcDbSymbolTableRecord
100
AcDbRegAppTableRecord
  2
CONTENTBLOCKICON
 70
     0
  0
ENDTAB
  0
TABLE
  2
DIMSTYLE
  5
96
330
0
100
AcDbSymbolTable
 70
     2
  0
DIMSTYLE
105
A4
102
{ACAD_REACTORS
330
D3
330
218
330
24D
330
280
330
28F
330
1E5
330
1F4
330
1A6
330
A6
330
10F
330
22C
330
239
330
2B6
330
2DE
330
1B5
330
1C2
330
B9
330
193
330
16E
330
17D
330
100
330
161
102
}
330
96
100
AcDbSymbolTableRecord
100
AcDbDimStyleTableRecord
  2
STANDARD
 70
     0
  3

  4

  5

  6

  7

 40
1.0
 41
2.5
 42
1.0
 43
10.0
 44
0.6
 45
0.0
 46
0.0
 47
0.0
 48
0.0
140
3.0
141
0.09
142
0.0
143
25.4
144
1.0
145
0.0
146
1.0
147
1.0
 71
     0
 72
     0
 73
     0
 74
     0
 75
     0
 76
     0
 77
     1
 78
     8
170
     0
171
     2
172
     1
173
     0
174
     1
175
     0
176
   123
177
   123
178
     3
270
     2
271
     2
272
     2
273
     2
274
     2
340
8B
275
     1
280
     0
281
     0
282
     0
283
     1
284
     0
285
     0
286
     0
287
     0
288
     1
  0
DIMSTYLE
105
9C
330
96
100
AcDbSymbolTableRecord
100
AcDbDimStyleTableRecord
  2
1_1_2
 70
     0
  3

  4

  5

  6

  7

 40
1.0
 41
3.0
 42
1.0
 43
10.0
 44
0.6
 45
0.0
 46
0.0
 47
0.0
 48
0.0
140
3.5
141
0.09
142
0.0
143
25.4
144
1.0
145
0.0
146
1.0
147
1.0
 71
     0
 72
     0
 73
     0
 74
     0
 75
     0
 76
     0
 77
     1
 78
     8
170
     0
171
     2
172
     1
173
     0
174
     1
175
     0
176
   123
177
   123
178
     3
270
     2
271
     2
272
     2
273
     2
274
     2
340
8B
275
     1
280
     0
281
     0
282
     0
283
     1
284
     0
285
     0
286
     0
287
     0
288
     1
  0
ENDTAB
  0
TABLE
  2
BLOCK_RECORD
  5
1
330
0
100
AcDbSymbolTable
 70
    45
  0
BLOCK_RECORD
  5
2
102
{ACAD_XDICTIONARY
360
3
102
}
330
1
100
AcDbSymbolTableRecord
100
AcDbBlockTableRecord
  2
*MODEL_SPACE
  0
BLOCK_RECORD
  5
E
102
{ACAD_XDICTIONARY
360
F
102
}
330
1
100
AcDbSymbolTableRecord
100
AcDbBlockTableRecord
  2
*PAPER_SPACE
  0
BLOCK_RECORD
  5
D6
330
1
100
AcDbSymbolTableRecord
100
AcDbBlockTableRecord
  2
*D0
  0
BLOCK_RECORD
  5
CC
330
1
100
AcDbSymbolTableRecord
100
AcDbBlockTableRecord
  2
4
1001
ACAD
1000
DesignCenter Data
1002
{
1070
     1
1070
     4
1002
}
1001
CONTENTBLOCKICON
1071
        0
1004
2800000020000000200000000100080000000000000400000000000000000000000000000000000000000000000080000080000000808000800000008000800080800000C0C0C000C0DCC000F0CAA6000020400000206000002080000020A0000020C0000020E00000400000004020000040400000406000004080000040A0
1004
000040C0000040E00000600000006020000060400000606000006080000060A0000060C0000060E00000800000008020000080400000806000008080000080A0000080C0000080E00000A0000000A0200000A0400000A0600000A0800000A0A00000A0C00000A0E00000C0000000C0200000C0400000C0600000C0800000C0
1004
A00000C0C00000C0E00000E0000000E0200000E0400000E0600000E0800000E0A00000E0C00000E0E00040000000400020004000400040006000400080004000A0004000C0004000E00040200000402020004020400040206000402080004020A0004020C0004020E000404000004040200040404000404060004040800040
1004
40A0004040C0004040E00040600000406020004060400040606000406080004060A0004060C0004060E00040800000408020004080400040806000408080004080A0004080C0004080E00040A0000040A0200040A0400040A0600040A0800040A0A00040A0C00040A0E00040C0000040C0200040C0400040C0600040C08000
1004
40C0A00040C0C00040C0E00040E0000040E0200040E0400040E0600040E0800040E0A00040E0C00040E0E00080000000800020008000400080006000800080008000A0008000C0008000E00080200000802020008020400080206000802080008020A0008020C0008020E00080400000804020008040400080406000804080
1004
008040A0008040C0008040E00080600000806020008060400080606000806080008060A0008060C0008060E00080800000808020008080400080806000808080008080A0008080C0008080E00080A0000080A0200080A0400080A0600080A0800080A0A00080A0C00080A0E00080C0000080C0200080C0400080C0600080C0
1004
800080C0A00080C0C00080C0E00080E0000080E0200080E0400080E0600080E0800080E0A00080E0C00080E0E000C0000000C0002000C0004000C0006000C0008000C000A000C000C000C000E000C0200000C0202000C0204000C0206000C0208000C020A000C020C000C020E000C0400000C0402000C0404000C0406000C0
1004
408000C040A000C040C000C040E000C0600000C0602000C0604000C0606000C0608000C060A000C060C000C060E000C0800000C0802000C0804000C0806000C0808000C080A000C080C000C080E000C0A00000C0A02000C0A04000C0A06000C0A08000C0A0A000C0A0C000C0A0E000C0C00000C0C02000C0C04000C0C06000
1004
C0C08000C0C0A000F0FBFF00A4A0A000808080000000FF0000FF000000FFFF00FF000000FF00FF00FFFF0000FFFFFF0000000000000000000000000000000000000000000000000000000000000000000000000000000000000000000000000000000000000000000000000000000000000000000000000000000000000000
1004
0000000000000000000000000000000000000000FFFFFFFFFFFFFFFFFFFFFFFFFFFFFFFFFFFFFFFFFF000000000000000000FFFFFF00F9000000000000000000000000000000F9FFF9FF0000000000000000FF00FFF90000000000000000000000000000000000FFFFFF0000000000000000F3F3F9F9000000000000000000
1004
00000000000000F9FFF9FF0000000000000000FFF9000000000000000000000000000000000000000000FF0000000000000000FF00F3F300000000000000000000000000000000000000FF0000000000000000FF000000F3000000000000000000000000000000000000FF0000000000000000FF00000000F3000000000000
1004
0000000000000000000000FF0000000000000000FF0000000000F3F3000000000000000000000000000000FF0000000000000000FF00000000000000F30000000000000000000000000000FF0000000000000000FF0000000000000000F3F3000000000000000000000000FF0000000000000000FF00000000000000000000
1004
F30000000000000000000000FF0000000000000000FF0000000000000000000000F300000000000000000000FF0000000000000000FF000000000000000000000000F3F30000000000000000FF0000000000000000FF0000000000000000000000000000F300000000000000FF0000000000000000FF000000000000000000
1004
000000000000F3F30000000000FF0000000000000000FF0000000000000000000000000000000000F300000000FF0000000000000000FF000000000000000000000000000000000000F3000000FF0000000000000000FF00000000000000000000000000000000000000F3F300FF0000000000000000FF0000000000000000
1004
00000000000000000000000000FFFF0000000000000000FF00FFF900000000000000000000000000000000F9F900F30000000000000000FF00FFFF00000000000000000000000000000000F9F9FFFFFAF300000000000000FFF900F90000000000000000000000000000F90000F9FFFAFAF300000000000000FFFFFFFFFFFF
1004
FFFFFFFFFFFFFFFFFFFFFFFFFFFFFF0000FAFAFAF30000000000000000000000000000000000000000000000000000000000FAFAFAF30000000000000000000000000000000000000000000000000000000000FAFA000000000000000000000000000000000000000000000000000000000000000000000000000000000000
1004
0000000000000000000000000000000000000000000000000000000000000000000000000000000000000000000000000000000000000000
  0
BLOCK_RECORD
  5
ED
330
1
100
AcDbSymbolTableRecord
100
AcDbBlockTableRecord
  2
2
1001
ACAD
1000
DesignCenter Data
1002
{
1070
     1
1070
     4
1002
}
1001
CONTENTBLOCKICON
1071
        0
1004
2800000020000000200000000100080000000000000400000000000000000000000000000000000000000000000080000080000000808000800000008000800080800000C0C0C000C0DCC000F0CAA6000020400000206000002080000020A0000020C0000020E00000400000004020000040400000406000004080000040A0
1004
000040C0000040E00000600000006020000060400000606000006080000060A0000060C0000060E00000800000008020000080400000806000008080000080A0000080C0000080E00000A0000000A0200000A0400000A0600000A0800000A0A00000A0C00000A0E00000C0000000C0200000C0400000C0600000C0800000C0
1004
A00000C0C00000C0E00000E0000000E0200000E0400000E0600000E0800000E0A00000E0C00000E0E00040000000400020004000400040006000400080004000A0004000C0004000E00040200000402020004020400040206000402080004020A0004020C0004020E000404000004040200040404000404060004040800040
1004
40A0004040C0004040E00040600000406020004060400040606000406080004060A0004060C0004060E00040800000408020004080400040806000408080004080A0004080C0004080E00040A0000040A0200040A0400040A0600040A0800040A0A00040A0C00040A0E00040C0000040C0200040C0400040C0600040C08000
1004
40C0A00040C0C00040C0E00040E0000040E0200040E0400040E0600040E0800040E0A00040E0C00040E0E00080000000800020008000400080006000800080008000A0008000C0008000E00080200000802020008020400080206000802080008020A0008020C0008020E00080400000804020008040400080406000804080
1004
008040A0008040C0008040E00080600000806020008060400080606000806080008060A0008060C0008060E00080800000808020008080400080806000808080008080A0008080C0008080E00080A0000080A0200080A0400080A0600080A0800080A0A00080A0C00080A0E00080C0000080C0200080C0400080C0600080C0
1004
800080C0A00080C0C00080C0E00080E0000080E0200080E0400080E0600080E0800080E0A00080E0C00080E0E000C0000000C0002000C0004000C0006000C0008000C000A000C000C000C000E000C0200000C0202000C0204000C0206000C0208000C020A000C020C000C020E000C0400000C0402000C0404000C0406000C0
1004
408000C040A000C040C000C040E000C0600000C0602000C0604000C0606000C0608000C060A000C060C000C060E000C0800000C0802000C0804000C0806000C0808000C080A000C080C000C080E000C0A00000C0A02000C0A04000C0A06000C0A08000C0A0A000C0A0C000C0A0E000C0C00000C0C02000C0C04000C0C06000
1004
C0C08000C0C0A000F0FBFF00A4A0A000808080000000FF0000FF000000FFFF00FF000000FF00FF00FFFF0000FFFFFF00000000000000000000000000000000000000000000000000000000000000000000000000000000FFFFFFFFFFFFFFFFFFFFFFFFFFFFFFFFFFFF00000000000000000000000000FF0000000000000000
1004
00000000000000000000FF0000000000000000000000000000000000000000000000000000000000000000000000000000000000000000000000000000000000000000000000000000000000000000000000000000000000000000000000000000000000000000000000000000000000000000FF0000000000000000000000
1004
000000000000000000000000000000FF000000FF00000000000000000000000000000000000000000000000000000000FF0000FF00000000000000000000000000000000000000000000000000000000FF0000FF00000000000000000000000000000000000000000000000000000000FF0000FF0000000000000000000000
1004
0000000000000000000000000000000000FF0000FF00000000000000000000000000000000000000000000000000000000FF0000FF00000000000000000000000000000000000000000000000000000000FF0000FF00000000000000000000000000000000000000000000000000000000FF0000FF00000000000000000000
1004
000000000000000000000000000000000000FF0000FF00000000000000000000000000000000000000000000000000000000FF0000FF00000000000000000000000000000000000000000000000000000000FF0000FF00000000000000000000000000000000000000000000000000000000FF0000FF000000000000000000
1004
00000000000000000000000000000000000000FF0000FF00000000000000000000000000000000000000000000000000000000FF0000FF00000000000000000000000000000000000000000000000000000000FF0000FF00000000000000000000000000000000000000000000000000000000FF0000FF0000000000000000
1004
0000000000000000000000000000000000000000FF0000FF00000000000000000000000000000000000000000000000000000000FF0000FF00000000000000000000000000000000000000000000000000000000FF000000FF0000000000000000000000000000000000000000000000000000FF0000000000000000000000
1004
000000000000000000000000000000000000000000000000000000000000000000000000000000000000000000000000000000000000000000000000000000000000000000000000000000000000000000000000000000000000000000FF000000000000000000000000000000000000FF00000000000000000000000000FF
1004
FFFFFFFFFFFFFFFFFFFFFFFFFFFFFFFFFF000000000000000000000000000000000000000000000000000000000000000000000000000000
  0
BLOCK_RECORD
  5
219
330
1
100
AcDbSymbolTableRecord
100
AcDbBlockTableRecord
  2
*D3
  0
BLOCK_RECORD
  5
281
330
1
100
AcDbSymbolTableRecord
100
AcDbBlockTableRecord
  2
*D4
  0
BLOCK_RECORD
  5
A7
330
1
100
AcDbSymbolTableRecord
100
AcDbBlockTableRecord
  2
*D5
  0
BLOCK_RECORD
  5
110
330
1
100
AcDbSymbolTableRecord
100
AcDbBlockTableRecord
  2
*D6
  0
BLOCK_RECORD
  5
22D
330
1
100
AcDbSymbolTableRecord
100
AcDbBlockTableRecord
  2
*D7
  0
BLOCK_RECORD
  5
23A
330
1
100
AcDbSymbolTableRecord
100
AcDbBlockTableRecord
  2
*D8
  0
BLOCK_RECORD
  5
2B7
330
1
100
AcDbSymbolTableRecord
100
AcDbBlockTableRecord
  2
*D9
  0
BLOCK_RECORD
  5
2DF
330
1
100
AcDbSymbolTableRecord
100
AcDbBlockTableRecord
  2
*D10
  0
BLOCK_RECORD
  5
1B6
330
1
100
AcDbSymbolTableRecord
100
AcDbBlockTableRecord
  2
*D11
  0
BLOCK_RECORD
  5
1C3
330
1
100
AcDbSymbolTableRecord
100
AcDbBlockTableRecord
  2
*D12
  0
BLOCK_RECORD
  5
BA
330
1
100
AcDbSymbolTableRecord
100
AcDbBlockTableRecord
  2
*D13
  0
BLOCK_RECORD
  5
194
330
1
100
AcDbSymbolTableRecord
100
AcDbBlockTableRecord
  2
*D14
  0
BLOCK_RECORD
  5
17E
330
1
100
AcDbSymbolTableRecord
100
AcDbBlockTableRecord
  2
*D15
  0
BLOCK_RECORD
  5
162
330
1
100
AcDbSymbolTableRecord
100
AcDbBlockTableRecord
  2
*D16
  0
BLOCK_RECORD
  5
250
330
1
100
AcDbSymbolTableRecord
100
AcDbBlockTableRecord
  2
*D17
  0
BLOCK_RECORD
  5
292
330
1
100
AcDbSymbolTableRecord
100
AcDbBlockTableRecord
  2
*D18
  0
BLOCK_RECORD
  5
1E8
330
1
100
AcDbSymbolTableRecord
100
AcDbBlockTableRecord
  2
*D19
  0
BLOCK_RECORD
  5
1F7
330
1
100
AcDbSymbolTableRecord
100
AcDbBlockTableRecord
  2
*D20
  0
BLOCK_RECORD
  5
1A9
330
1
100
AcDbSymbolTableRecord
100
AcDbBlockTableRecord
  2
*D21
  0
BLOCK_RECORD
  5
171
330
1
100
AcDbSymbolTableRecord
100
AcDbBlockTableRecord
  2
*D22
  0
BLOCK_RECORD
  5
103
330
1
100
AcDbSymbolTableRecord
100
AcDbBlockTableRecord
  2
*D23
  0
BLOCK_RECORD
  5
2F3
330
1
100
AcDbSymbolTableRecord
100
AcDbBlockTableRecord
  2
*D24
  0
BLOCK_RECORD
  5
301
330
1
100
AcDbSymbolTableRecord
100
AcDbBlockTableRecord
  2
*D25
  0
BLOCK_RECORD
  5
30F
330
1
100
AcDbSymbolTableRecord
100
AcDbBlockTableRecord
  2
*D26
  0
BLOCK_RECORD
  5
31B
330
1
100
AcDbSymbolTableRecord
100
AcDbBlockTableRecord
  2
*D27
  0
BLOCK_RECORD
  5
327
330
1
100
AcDbSymbolTableRecord
100
AcDbBlockTableRecord
  2
*D28
  0
BLOCK_RECORD
  5
335
330
1
100
AcDbSymbolTableRecord
100
AcDbBlockTableRecord
  2
*D29
  0
BLOCK_RECORD
  5
341
330
1
100
AcDbSymbolTableRecord
100
AcDbBlockTableRecord
  2
*D30
  0
BLOCK_RECORD
  5
34D
330
1
100
AcDbSymbolTableRecord
100
AcDbBlockTableRecord
  2
*D31
  0
BLOCK_RECORD
  5
359
330
1
100
AcDbSymbolTableRecord
100
AcDbBlockTableRecord
  2
*D32
  0
BLOCK_RECORD
  5
365
330
1
100
AcDbSymbolTableRecord
100
AcDbBlockTableRecord
  2
*D33
  0
BLOCK_RECORD
  5
371
330
1
100
AcDbSymbolTableRecord
100
AcDbBlockTableRecord
  2
*D34
  0
BLOCK_RECORD
  5
37D
330
1
100
AcDbSymbolTableRecord
100
AcDbBlockTableRecord
  2
*D35
  0
BLOCK_RECORD
  5
389
330
1
100
AcDbSymbolTableRecord
100
AcDbBlockTableRecord
  2
*D36
  0
BLOCK_RECORD
  5
395
330
1
100
AcDbSymbolTableRecord
100
AcDbBlockTableRecord
  2
*D37
  0
BLOCK_RECORD
  5
3A1
330
1
100
AcDbSymbolTableRecord
100
AcDbBlockTableRecord
  2
*D38
  0
BLOCK_RECORD
  5
3AD
330
1
100
AcDbSymbolTableRecord
100
AcDbBlockTableRecord
  2
*D39
  0
BLOCK_RECORD
  5
3B9
330
1
100
AcDbSymbolTableRecord
100
AcDbBlockTableRecord
  2
*D40
  0
BLOCK_RECORD
  5
3C7
330
1
100
AcDbSymbolTableRecord
100
AcDbBlockTableRecord
  2
*D41
  0
BLOCK_RECORD
  5
3D3
330
1
100
AcDbSymbolTableRecord
100
AcDbBlockTableRecord
  2
*D42
  0
BLOCK_RECORD
  5
3DF
330
1
100
AcDbSymbolTableRecord
100
AcDbBlockTableRecord
  2
*D43
  0
BLOCK_RECORD
  5
3EB
330
1
100
AcDbSymbolTableRecord
100
AcDbBlockTableRecord
  2
*D44
  0
ENDTAB
  0
ENDSEC
  0
SECTION
  2
BLOCKS
  0
BLOCK
  5
5
330
2
100
AcDbEntity
  8
0
100
AcDbBlockBegin
  2
*MODEL_SPACE
 70
     0
 10
0.0
 20
0.0
 30
0.0
  3
*MODEL_SPACE
  1

  0
ENDBLK
  5
B
330
2
100
AcDbEntity
  8
0
100
AcDbBlockEnd
  0
BLOCK
  5
11
330
E
100
AcDbEntity
 67
     1
  8
0
100
AcDbBlockBegin
  2
*PAPER_SPACE
 70
     0
 10
0.0
 20
0.0
 30
0.0
  3
*PAPER_SPACE
  1

  0
ENDBLK
  5
12
330
E
100
AcDbEntity
 67
     1
  8
0
100
AcDbBlockEnd
  0
BLOCK
  5
DF
330
D6
100
AcDbEntity
  8
0
100
AcDbBlockBegin
  2
*D0
 70
     1
 10
0.0
 20
0.0
 30
0.0
  3
*D0
  1

  0
LINE
  5
D7
330
D6
100
AcDbEntity
  8
0
 62
   123
100
AcDbLine
 10
-474.0668181331803
 20
-2516.925402556208
 30
0.0
 11
-497.6135875546876
 21
-2534.857403328699
 31
0.0
  0
LINE
  5
D8
330
D6
100
AcDbEntity
  8
0
 62
   123
100
AcDbLine
 10
-584.3305466904876
 20
-2600.896550796242
 30
0.0
 11
-586.3194677715838
 21
-2602.411210141828
 31
0.0
  0
MTEXT
  5
D9
330
D6
100
AcDbEntity
  8
0
 62
     3
100
AcDbMText
 10
-484.8441670850144
 20
-2521.990466427412
 30
0.0
 40
3.0
 41
0.0
 71
     5
 72
     1
  1
\A1;\U+2205104%%P0.5
 11
0.7955684324385314
 21
0.6058637382343476
 31
0.0
1001
ACAD
1000
MTEXTBEGIN
1070
    73
1070
     1
1070
    44
1040
1.0
1070
    74
1070
     0
1000
MTEXTEND
  0
LINE
  5
DA
330
D6
100
AcDbEntity
  8
0
 62
   123
100
AcDbLine
 10
-582.3416256093914
 20
-2599.381891450657
 30
0.0
 11
-499.6025086357839
 21
-2536.372062674285
 31
0.0
  0
SOLID
  5
DB
330
D6
100
AcDbEntity
  8
0
 62
   123
100
AcDbTrace
 10
-584.5829899147519
 20
-2600.565063949392
 30
0.0
 11
-584.0781034662234
 21
-2601.228037643092
 31
0.0
 12
-582.3416256093914
 22
-2599.381891450657
 32
0.0
 13
-582.3416256093914
 23
-2599.381891450657
 33
0.0
  0
SOLID
  5
DC
330
D6
100
AcDbEntity
  8
0
 62
   123
100
AcDbTrace
 10
-497.8660307789517
 20
-2534.52591648185
 30
0.0
 11
-497.3611443304232
 21
-2535.188890175549
 31
0.0
 12
-499.6025086357839
 22
-2536.372062674285
 32
0.0
 13
-499.6025086357839
 23
-2536.372062674285
 33
0.0
  0
POINT
  5
DD
330
D6
100
AcDbEntity
  8
DEFPOINTS
 62
     0
100
AcDbPoint
 10
-499.6025086357839
 20
-2536.372062674285
 30
0.0
  0
POINT
  5
DE
330
D6
100
AcDbEntity
  8
DEFPOINTS
 62
     0
100
AcDbPoint
 10
-582.3416256093914
 20
-2599.381891450657
 30
0.0
  0
ENDBLK
  5
E0
330
D6
100
AcDbEntity
  8
0
100
AcDbBlockEnd
  0
BLOCK
  5
EA
330
CC
100
AcDbEntity
  8
0
100
AcDbBlockBegin
  2
4
 70
     0
 10
0.0
 20
0.0
 30
0.0
  3
4
  1

  0
LWPOLYLINE
  5
CD
330
CC
100
AcDbEntity
  8
0
100
AcDbPolyline
 90
        8
 70
     1
 43
0.0
 10
-40.0
 20
-45.00000000000045
 10
40.0
 20
-45.0
 42
0.4142135623730951
 10
45.0
 20
-40.0
 10
45.0
 20
40.0
 42
0.4142135623730951
 10
40.0
 20
45.0
 10
-40.0
 20
45.0
 42
0.4142135623730951
 10
-45.0
 20
40.0
 10
-45.0
 20
-40.00000000000045
 42
0.4142135623730951
  0
CIRCLE
  5
CE
330
CC
100
AcDbEntity
  8
0
100
AcDbCircle
 10
36.76955262170071
 20
36.76955262170031
 30
0.0
 40
3.25
  0
LINE
  5
CF
330
CC
100
AcDbEntity
  8
CL
 48
0.6
100
AcDbLine
 10
33.05724202047111
 20
33.05724202047122
 30
0.0
 11
40.48186322293008
 21
40.48186322292986
 31
0.0
  0
ARC
  5
D2
102
{ACAD_REACTORS
330
D5
102
}
330
CC
100
AcDbEntity
  8
CL
 48
0.6
100
AcDbCircle
 10
0.0
 20
0.0
 30
0.0
 40
51.9999999999996
100
AcDbArc
 50
35.90024337538245
 51
54.09975662462136
  0
DIMENSION
  5
D3
102
{ACAD_XDICTIONARY
360
D4
102
}
102
{ACAD_REACTORS
330
D5
102
}
330
CC
100
AcDbEntity
  8
0
100
AcDbDimension
  2
*D0
 10
-41.36955848680371
 20
-31.50491438818607
 30
0.0
 11
57.64255938315909
 21
43.89758955396246
 31
0.0
 12
540.9720671225876
 22
2567.87697706247
 32
0.0
 70
   131
  1
<>%%P0.5
  3
STANDARD
100
AcDbDiametricDimension
 15
41.36955848680371
 25
31.50491438818607
 35
0.0
 40
0.0
1001
ACAD
1000
DSTYLE
1002
{
1070
   287
1070
     4
1070
   287
1070
     4
1070
   287
1070
     4
1070
   287
1070
     4
1070
   287
1070
     4
1070
   279
1070
     1
1070
   289
1070
     3
1002
}
  0
ARC
  5
E1
330
CC
100
AcDbEntity
  8
CL
 48
0.6
100
AcDbCircle
 10
-0.0000000000002274
 20
0.0
 30
0.0
 40
52.0
100
AcDbArc
 50
129.2128702778055
 51
140.7871297221883
  0
LINE
  5
E2
330
CC
100
AcDbEntity
  8
CL
 48
0.6
100
AcDbLine
 10
-33.05724202047122
 20
33.05724202047122
 30
0.0
 11
-40.48186322292986
 21
40.48186322293031
 31
0.0
  0
CIRCLE
  5
E3
330
CC
100
AcDbEntity
  8
0
100
AcDbCircle
 10
-36.76955262170054
 20
36.76955262170077
 30
0.0
 40
3.25
  0
LINE
  5
E4
330
CC
100
AcDbEntity
  8
CL
 48
0.6
100
AcDbLine
 10
-33.05724202047122
 20
-33.05724202047122
 30
0.0
 11
-40.48186322293008
 21
-40.48186322292986
 31
0.0
  0
CIRCLE
  5
E5
330
CC
100
AcDbEntity
  8
0
100
AcDbCircle
 10
-36.76955262170077
 20
-36.76955262170031
 30
0.0
 40
3.25
  0
ARC
  5
E6
330
CC
100
AcDbEntity
  8
CL
 48
0.6
100
AcDbCircle
 10
0.0
 20
0.0
 30
0.0
 40
51.9999999999996
100
AcDbArc
 50
215.9002433753824
 51
234.0997566246214
  0
ARC
  5
E7
330
CC
100
AcDbEntity
  8
CL
 48
0.6
100
AcDbCircle
 10
0.0
 20
0.0000000000004547
 30
0.0
 40
52.0
100
AcDbArc
 50
309.2128702778056
 51
320.7871297221883
  0
LINE
  5
E8
330
CC
100
AcDbEntity
  8
CL
 48
0.6
100
AcDbLine
 10
33.05724202047076
 20
-33.05724202047122
 30
0.0
 11
40.48186322292941
 21
-40.48186322293031
 31
0.0
  0
CIRCLE
  5
E9
330
CC
100
AcDbEntity
  8
0
100
AcDbCircle
 10
36.76955262170025
 20
-36.76955262170077
 30
0.0
 40
3.25
  0
ENDBLK
  5
EB
330
CC
100
AcDbEntity
  8
0
100
AcDbBlockEnd
  0
BLOCK
  5
FA
330
ED
100
AcDbEntity
  8
0
100
AcDbBlockBegin
  2
2
 70
     0
 10
0.0
 20
0.0
 30
0.0
  3
2
  1

  0
LINE
  5
EE
330
ED
100
AcDbEntity
  8
0
100
AcDbLine
 10
46.0
 20
-29.00000000000044
 30
0.0
 11
46.0
 21
28.99999999999954
 31
0.0
  0
ARC
  5
EF
330
ED
100
AcDbEntity
  8
0
100
AcDbCircle
 10
45.0
 20
-29.00000000000089
 30
0.0
 40
1.0
100
AcDbArc
 50
270.0
 51
0.0
  0
ARC
  5
F0
330
ED
100
AcDbEntity
  8
0
100
AcDbCircle
 10
45.0
 20
28.99999999999909
 30
0.0
 40
1.0
100
AcDbArc
 50
0.0
 51
90.0
  0
ARC
  5
F1
330
ED
100
AcDbEntity
  8
0
100
AcDbCircle
 10
-28.99999999999954
 20
45.0
 30
0.0
 40
1.0
100
AcDbArc
 50
90.0
 51
180.0
  0
ARC
  5
F2
330
ED
100
AcDbEntity
  8
0
100
AcDbCircle
 10
29.00000000000089
 20
45.0
 30
0.0
 40
1.0
100
AcDbArc
 50
0.0
 51
90.0
  0
LINE
  5
F3
330
ED
100
AcDbEntity
  8
0
100
AcDbLine
 10
29.0
 20
46.0
 30
0.0
 11
-29.0
 21
46.0
 31
0.0
  0
LINE
  5
F4
330
ED
100
AcDbEntity
  8
0
100
AcDbLine
 10
-46.0
 20
29.0
 30
0.0
 11
-46.0
 21
-29.00000000000044
 31
0.0
  0
ARC
  5
F5
330
ED
100
AcDbEntity
  8
0
100
AcDbCircle
 10
-44.99999999999954
 20
-29.0
 30
0.0
 40
1.0
100
AcDbArc
 50
180.0
 51
270.0
  0
ARC
  5
F6
330
ED
100
AcDbEntity
  8
0
100
AcDbCircle
 10
-44.99999999999954
 20
29.0
 30
0.0
 40
1.0
100
AcDbArc
 50
90.0
 51
180.0
  0
LINE
  5
F7
330
ED
100
AcDbEntity
  8
0
100
AcDbLine
 10
-29.0
 20
-46.00000000000045
 30
0.0
 11
29.0
 21
-46.00000000000045
 31
0.0
  0
ARC
  5
F8
330
ED
100
AcDbEntity
  8
0
100
AcDbCircle
 10
-29.0
 20
-45.00000000000045
 30
0.0
 40
1.0
100
AcDbArc
 50
180.0
 51
270.0
  0
ARC
  5
F9
330
ED
100
AcDbEntity
  8
0
100
AcDbCircle
 10
29.0
 20
-45.00000000000045
 30
0.0
 40
1.0
100
AcDbArc
 50
270.0
 51
0.0
  0
ENDBLK
  5
FB
330
ED
100
AcDbEntity
  8
0
100
AcDbBlockEnd
  0
BLOCK
  5
223
330
219
100
AcDbEntity
  8
0
100
AcDbBlockBegin
  2
*D3
 70
     1
 10
0.0
 20
0.0
 30
0.0
  3
*D3
  1

  0
LINE
  5
21A
330
219
100
AcDbEntity
  8
0
 62
   123
100
AcDbLine
 10
8015.397448669745
 20
-4449.355034846232
 30
0.0
 11
8015.397448669745
 21
-4427.360738442884
 31
0.0
  0
LINE
  5
21B
330
219
100
AcDbEntity
  8
0
 62
   123
100
AcDbLine
 10
8180.396370870392
 20
-4451.175221557266
 30
0.0
 11
8180.396370870392
 21
-4427.360738442884
 31
0.0
  0
LINE
  5
21C
330
219
100
AcDbEntity
  8
0
 62
   123
100
AcDbLine
 10
8017.897448669744
 20
-4427.960738442886
 30
0.0
 11
8177.896370870392
 21
-4427.960738442886
 31
0.0
  0
SOLID
  5
21D
330
219
100
AcDbEntity
  8
0
 62
   123
100
AcDbTrace
 10
8017.897448669744
 20
-4427.544071776218
 30
0.0
 11
8017.897448669744
 21
-4428.37740510955
 31
0.0
 12
8015.397448669745
 22
-4427.960738442886
 32
0.0
 13
8015.397448669745
 23
-4427.960738442886
 33
0.0
  0
SOLID
  5
21E
330
219
100
AcDbEntity
  8
0
 62
   123
100
AcDbTrace
 10
8177.896370870392
 20
-4427.544071776218
 30
0.0
 11
8177.896370870392
 21
-4428.37740510955
 31
0.0
 12
8180.396370870392
 22
-4427.960738442886
 32
0.0
 13
8180.396370870392
 23
-4427.960738442886
 33
0.0
  0
MTEXT
  5
21F
330
219
100
AcDbEntity
  8
0
 62
     3
100
AcDbMText
 10
8090.896909770069
 20
-4425.460738442883
 30
0.0
 40
3.0
 41
0.0
 71
     5
 72
     1
  1
\A1;165
1001
ACAD
1000
MTEXTBEGIN
1070
    73
1070
     1
1070
    44
1040
1.0
1070
    74
1070
     0
1000
MTEXTEND
  0
POINT
  5
220
330
219
100
AcDbEntity
  8
DEFPOINTS
 62
     0
100
AcDbPoint
 10
8015.397448669745
 20
-4450.355034846232
 30
0.0
  0
POINT
  5
221
330
219
100
AcDbEntity
  8
DEFPOINTS
 62
     0
100
AcDbPoint
 10
8180.396370870392
 20
-4452.175221557267
 30
0.0
  0
POINT
  5
222
330
219
100
AcDbEntity
  8
DEFPOINTS
 62
     0
100
AcDbPoint
 10
8180.396370870392
 20
-4427.960738442886
 30
0.0
  0
ENDBLK
  5
224
330
219
100
AcDbEntity
  8
0
100
AcDbBlockEnd
  0
BLOCK
  5
28D
330
281
100
AcDbEntity
  8
0
100
AcDbBlockBegin
  2
*D4
 70
     1
 10
0.0
 20
0.0
 30
0.0
  3
*D4
  1

  0
LINE
  5
282
330
281
100
AcDbEntity
  8
0
 62
   123
100
AcDbLine
 10
8013.397448669744
 20
-4452.855034846233
 30
0.0
 11
8013.397448669744
 21
-4437.122381281983
 31
0.0
  0
LINE
  5
283
330
281
100
AcDbEntity
  8
0
 62
   123
100
AcDbLine
 10
8015.397448669745
 20
-4449.355034846232
 30
0.0
 11
8015.397448669745
 21
-4437.122381281983
 31
0.0
  0
LINE
  5
284
330
281
100
AcDbEntity
  8
0
 62
   123
100
AcDbLine
 10
8017.897448669744
 20
-4437.722381281981
 30
0.0
 11
8020.397448669745
 21
-4437.722381281981
 31
0.0
  0
LINE
  5
285
330
281
100
AcDbEntity
  8
0
 62
   123
100
AcDbLine
 10
8010.897448669743
 20
-4437.722381281981
 30
0.0
 11
8002.397448669745
 21
-4437.722381281981
 31
0.0
  0
LINE
  5
286
330
281
100
AcDbEntity
  8
0
 62
   123
100
AcDbLine
 10
8015.397448669745
 20
-4437.722381281981
 30
0.0
 11
8013.397448669744
 21
-4437.722381281981
 31
0.0
  0
SOLID
  5
287
330
281
100
AcDbEntity
  8
0
 62
   123
100
AcDbTrace
 10
8017.897448669744
 20
-4437.305714615315
 30
0.0
 11
8017.897448669744
 21
-4438.139047948649
 31
0.0
 12
8015.397448669745
 22
-4437.722381281981
 32
0.0
 13
8015.397448669745
 23
-4437.722381281981
 33
0.0
  0
SOLID
  5
288
330
281
100
AcDbEntity
  8
0
 62
   123
100
AcDbTrace
 10
8010.897448669743
 20
-4437.305714615315
 30
0.0
 11
8010.897448669743
 21
-4438.139047948649
 31
0.0
 12
8013.397448669744
 22
-4437.722381281981
 32
0.0
 13
8013.397448669744
 23
-4437.722381281981
 33
0.0
  0
MTEXT
  5
289
330
281
100
AcDbEntity
  8
0
 62
     3
100
AcDbMText
 10
8004.397448669745
 20
-4435.222381281983
 30
0.0
 40
3.0
 41
0.0
 71
     5
 72
     1
  1
\A1;2
1001
ACAD
1000
MTEXTBEGIN
1070
    73
1070
     1
1070
    44
1040
1.0
1070
    74
1070
     0
1000
MTEXTEND
  0
POINT
  5
28A
330
281
100
AcDbEntity
  8
DEFPOINTS
 62
     0
100
AcDbPoint
 10
8013.397448669744
 20
-4453.855034846232
 30
0.0
  0
POINT
  5
28B
330
281
100
AcDbEntity
  8
DEFPOINTS
 62
     0
100
AcDbPoint
 10
8015.397448669745
 20
-4450.355034846232
 30
0.0
  0
POINT
  5
28C
330
281
100
AcDbEntity
  8
DEFPOINTS
 62
     0
100
AcDbPoint
 10
8015.397448669745
 20
-4437.722381281981
 30
0.0
  0
ENDBLK
  5
28E
330
281
100
AcDbEntity
  8
0
100
AcDbBlockEnd
  0
BLOCK
  5
B4
330
A7
100
AcDbEntity
  8
0
100
AcDbBlockBegin
  2
*D5
 70
     1
 10
0.0
 20
0.0
 30
0.0
  3
*D5
  1

  0
LINE
  5
A8
330
A7
100
AcDbEntity
  8
0
 62
   123
100
AcDbLine
 10
7908.373367664069
 20
-4549.985179609985
 30
0.0
 11
7908.373367664072
 21
-4568.403767003458
 31
0.0
  0
LINE
  5
A9
330
A7
100
AcDbEntity
  8
0
 62
   123
100
AcDbLine
 10
7927.401988024664
 20
-4541.278869242422
 30
0.0
 11
7936.335865915497
 21
-4562.839966211073
 31
0.0
  0
ARC
  5
AA
330
A7
100
AcDbEntity
  8
0
 62
   123
100
AcDbCircle
 10
7908.373367664069
 20
-4495.355034846232
 30
0.0
 40
72.44873215722771
100
AcDbArc
 50
271.9772127434109
 51
290.5295441539795
  0
SOLID
  5
AB
330
A7
100
AcDbEntity
  8
0
 62
   123
100
AcDbTrace
 10
7910.880184520532
 20
-4568.177237697457
 30
0.0
 11
7910.865806537154
 21
-4567.344028409199
 31
0.0
 12
7908.373367664072
 22
-4567.80376700346
 32
0.0
 13
7908.373367664072
 23
-4567.80376700346
 33
0.0
  0
SOLID
  5
AC
330
A7
100
AcDbEntity
  8
0
 62
   123
100
AcDbTrace
 10
7933.627605292379
 20
-4562.815029862226
 30
0.0
 11
7933.933268585708
 21
-4563.590281044461
 31
0.0
 12
7936.106190485748
 22
-4562.285665573361
 32
0.0
 13
7936.106190485748
 23
-4562.285665573361
 33
0.0
  0
MTEXT
  5
AD
330
A7
100
AcDbEntity
  8
0
 62
     3
100
AcDbMText
 10
7921.967976985185
 20
-4563.678695874993
 30
0.0
 40
3.0
 41
0.0
 71
     5
 72
     1
  1
\A1;22°30'
 11
0.9807737751869577
 21
0.1951481537333186
 31
0.0
1001
ACAD
1000
MTEXTBEGIN
1070
    73
1070
     1
1070
    44
1040
1.0
1070
    74
1070
     0
1000
MTEXTEND
  0
POINT
  5
AE
330
A7
100
AcDbEntity
  8
DEFPOINTS
 62
     0
100
AcDbPoint
 10
7917.832648393941
 20
-4567.183586267399
 30
0.0
  0
POINT
  5
B0
330
A7
100
AcDbEntity
  8
DEFPOINTS
 62
     0
100
AcDbPoint
 10
7908.373367664069
 20
-4548.985179609984
 30
0.0
  0
POINT
  5
B1
330
A7
100
AcDbEntity
  8
DEFPOINTS
 62
     0
100
AcDbPoint
 10
7908.373367664069
 20
-4495.355034846232
 30
0.0
  0
POINT
  5
B2
330
A7
100
AcDbEntity
  8
DEFPOINTS
 62
     0
100
AcDbPoint
 10
7927.019195641746
 20
-4540.355034846232
 30
0.0
  0
POINT
  5
B3
330
A7
100
AcDbEntity
  8
DEFPOINTS
 62
     0
100
AcDbPoint
 10
7908.373367664069
 20
-4441.724890082481
 30
0.0
  0
ENDBLK
  5
B5
330
A7
100
AcDbEntity
  8
0
100
AcDbBlockEnd
  0
BLOCK
  5
11C
330
110
100
AcDbEntity
  8
0
100
AcDbBlockBegin
  2
*D6
 70
     1
 10
0.0
 20
0.0
 30
0.0
  3
*D6
  1

  0
LINE
  5
111
330
110
100
AcDbEntity
  8
0
 62
   123
100
AcDbLine
 10
7904.557467263344
 20
-4770.337441832634
 30
0.0
 11
7904.557467263344
 21
-4788.756029226108
 31
0.0
  0
LINE
  5
112
330
110
100
AcDbEntity
  8
0
 62
   123
100
AcDbLine
 10
7923.586087623935
 20
-4761.631131465071
 30
0.0
 11
7932.519965514768
 21
-4783.192228433723
 31
0.0
  0
ARC
  5
113
330
110
100
AcDbEntity
  8
0
 62
   123
100
AcDbCircle
 10
7904.557467263342
 20
-4715.707297068883
 30
0.0
 40
72.44873215722673
100
AcDbArc
 50
271.9772127434111
 51
290.5295441539795
  0
SOLID
  5
114
330
110
100
AcDbEntity
  8
0
 62
   123
100
AcDbTrace
 10
7907.064284119804
 20
-4788.529499920107
 30
0.0
 11
7907.049906136426
 21
-4787.696290631848
 31
0.0
 12
7904.557467263344
 22
-4788.15602922611
 32
0.0
 13
7904.557467263344
 23
-4788.15602922611
 33
0.0
  0
SOLID
  5
115
330
110
100
AcDbEntity
  8
0
 62
   123
100
AcDbTrace
 10
7929.811704891652
 20
-4783.167292084876
 30
0.0
 11
7930.11736818498
 21
-4783.94254326711
 31
0.0
 12
7932.29029008502
 22
-4782.63792779601
 32
0.0
 13
7932.29029008502
 23
-4782.63792779601
 33
0.0
  0
MTEXT
  5
116
330
110
100
AcDbEntity
  8
0
 62
     3
100
AcDbMText
 10
7918.152076584459
 20
-4784.030958097643
 30
0.0
 40
3.0
 41
0.0
 71
     5
 72
     1
  1
\A1;22°30'
 11
0.9807737751869577
 21
0.1951481537333186
 31
0.0
1001
ACAD
1000
MTEXTBEGIN
1070
    73
1070
     1
1070
    44
1040
1.0
1070
    74
1070
     0
1000
MTEXTEND
  0
POINT
  5
117
330
110
100
AcDbEntity
  8
DEFPOINTS
 62
     0
100
AcDbPoint
 10
7914.016747993215
 20
-4787.535848490048
 30
0.0
  0
POINT
  5
118
330
110
100
AcDbEntity
  8
DEFPOINTS
 62
     0
100
AcDbPoint
 10
7904.557467263344
 20
-4769.337441832635
 30
0.0
  0
POINT
  5
119
330
110
100
AcDbEntity
  8
DEFPOINTS
 62
     0
100
AcDbPoint
 10
7904.557467263342
 20
-4715.707297068883
 30
0.0
  0
POINT
  5
11A
330
110
100
AcDbEntity
  8
DEFPOINTS
 62
     0
100
AcDbPoint
 10
7923.20329524102
 20
-4760.707297068881
 30
0.0
  0
POINT
  5
11B
330
110
100
AcDbEntity
  8
DEFPOINTS
 62
     0
100
AcDbPoint
 10
7904.557467263342
 20
-4662.077152305129
 30
0.0
  0
ENDBLK
  5
11D
330
110
100
AcDbEntity
  8
0
100
AcDbBlockEnd
  0
BLOCK
  5
237
330
22D
100
AcDbEntity
  8
0
100
AcDbBlockBegin
  2
*D7
 70
     1
 10
0.0
 20
0.0
 30
0.0
  3
*D7
  1

  0
LINE
  5
22E
330
22D
100
AcDbEntity
  8
0
 62
   123
100
AcDbLine
 10
7863.379585334958
 20
-4454.39782860503
 30
0.0
 11
7863.379585334958
 21
-4431.290411395136
 31
0.0
  0
LINE
  5
22F
330
22D
100
AcDbEntity
  8
0
 62
   123
100
AcDbLine
 10
7953.379585334954
 20
-4454.39782860503
 30
0.0
 11
7953.379585334954
 21
-4431.290411395136
 31
0.0
  0
LINE
  5
230
330
22D
100
AcDbEntity
  8
0
 62
   123
100
AcDbLine
 10
7865.879585334958
 20
-4431.890411395135
 30
0.0
 11
7950.879585334956
 21
-4431.890411395135
 31
0.0
  0
SOLID
  5
231
330
22D
100
AcDbEntity
  8
0
 62
   123
100
AcDbTrace
 10
7865.879585334958
 20
-4431.47374472847
 30
0.0
 11
7865.879585334958
 21
-4432.307078061803
 31
0.0
 12
7863.379585334958
 22
-4431.890411395135
 32
0.0
 13
7863.379585334958
 23
-4431.890411395135
 33
0.0
  0
SOLID
  5
232
330
22D
100
AcDbEntity
  8
0
 62
   123
100
AcDbTrace
 10
7950.879585334956
 20
-4431.47374472847
 30
0.0
 11
7950.879585334956
 21
-4432.307078061803
 31
0.0
 12
7953.379585334954
 22
-4431.890411395135
 32
0.0
 13
7953.379585334954
 23
-4431.890411395135
 33
0.0
  0
MTEXT
  5
233
330
22D
100
AcDbEntity
  8
0
 62
     3
100
AcDbMText
 10
7908.379585334954
 20
-4429.390411395137
 30
0.0
 40
3.0
 41
0.0
 71
     5
 72
     1
  1
\A1;90
1001
ACAD
1000
MTEXTBEGIN
1070
    73
1070
     1
1070
    44
1040
1.0
1070
    74
1070
     0
1000
MTEXTEND
  0
POINT
  5
234
330
22D
100
AcDbEntity
  8
DEFPOINTS
 62
     0
100
AcDbPoint
 10
7863.379585334958
 20
-4455.397828605029
 30
0.0
  0
POINT
  5
235
330
22D
100
AcDbEntity
  8
DEFPOINTS
 62
     0
100
AcDbPoint
 10
7953.379585334954
 20
-4455.397828605029
 30
0.0
  0
POINT
  5
236
330
22D
100
AcDbEntity
  8
DEFPOINTS
 62
     0
100
AcDbPoint
 10
7953.379585334954
 20
-4431.890411395135
 30
0.0
  0
ENDBLK
  5
238
330
22D
100
AcDbEntity
  8
0
100
AcDbBlockEnd
  0
BLOCK
  5
244
330
23A
100
AcDbEntity
  8
0
100
AcDbBlockBegin
  2
*D8
 70
     1
 10
0.0
 20
0.0
 30
0.0
  3
*D8
  1

  0
LINE
  5
23B
330
23A
100
AcDbEntity
  8
0
 62
   123
100
AcDbLine
 10
7862.379585334955
 20
-4465.355034846232
 30
0.0
 11
7862.379585334955
 21
-4419.899748903413
 31
0.0
  0
LINE
  5
23C
330
23A
100
AcDbEntity
  8
0
 62
   123
100
AcDbLine
 10
7954.379585334958
 20
-4465.355034846232
 30
0.0
 11
7954.379585334958
 21
-4419.899748903413
 31
0.0
  0
LINE
  5
23D
330
23A
100
AcDbEntity
  8
0
 62
   123
100
AcDbLine
 10
7864.879585334955
 20
-4420.499748903413
 30
0.0
 11
7951.879585334959
 21
-4420.499748903413
 31
0.0
  0
SOLID
  5
23E
330
23A
100
AcDbEntity
  8
0
 62
   123
100
AcDbTrace
 10
7864.879585334955
 20
-4420.083082236746
 30
0.0
 11
7864.879585334955
 21
-4420.91641557008
 31
0.0
 12
7862.379585334955
 22
-4420.499748903413
 32
0.0
 13
7862.379585334955
 23
-4420.499748903413
 33
0.0
  0
SOLID
  5
23F
330
23A
100
AcDbEntity
  8
0
 62
   123
100
AcDbTrace
 10
7951.879585334959
 20
-4420.083082236746
 30
0.0
 11
7951.879585334959
 21
-4420.91641557008
 31
0.0
 12
7954.379585334958
 22
-4420.499748903413
 32
0.0
 13
7954.379585334958
 23
-4420.499748903413
 33
0.0
  0
MTEXT
  5
240
330
23A
100
AcDbEntity
  8
0
 62
     3
100
AcDbMText
 10
7908.379585334954
 20
-4417.999748903413
 30
0.0
 40
3.0
 41
0.0
 71
     5
 72
     1
  1
\A1;92
1001
ACAD
1000
MTEXTBEGIN
1070
    73
1070
     1
1070
    44
1040
1.0
1070
    74
1070
     0
1000
MTEXTEND
  0
POINT
  5
241
330
23A
100
AcDbEntity
  8
DEFPOINTS
 62
     0
100
AcDbPoint
 10
7862.379585334955
 20
-4466.355034846232
 30
0.0
  0
POINT
  5
242
330
23A
100
AcDbEntity
  8
DEFPOINTS
 62
     0
100
AcDbPoint
 10
7954.379585334958
 20
-4466.355034846232
 30
0.0
  0
POINT
  5
243
330
23A
100
AcDbEntity
  8
DEFPOINTS
 62
     0
100
AcDbPoint
 10
7954.379585334958
 20
-4420.499748903413
 30
0.0
  0
ENDBLK
  5
245
330
23A
100
AcDbEntity
  8
0
100
AcDbBlockEnd
  0
BLOCK
  5
2C1
330
2B7
100
AcDbEntity
  8
0
100
AcDbBlockBegin
  2
*D9
 70
     1
 10
0.0
 20
0.0
 30
0.0
  3
*D9
  1

  0
LINE
  5
2B8
330
2B7
100
AcDbEntity
  8
0
 62
   123
100
AcDbLine
 10
7994.397448669744
 20
-4489.705034846233
 30
0.0
 11
7994.397448669744
 21
-4427.360738442884
 31
0.0
  0
LINE
  5
2B9
330
2B7
100
AcDbEntity
  8
0
 62
   123
100
AcDbLine
 10
8015.397448669745
 20
-4449.146701512899
 30
0.0
 11
8015.397448669745
 21
-4427.360738442884
 31
0.0
  0
LINE
  5
2BA
330
2B7
100
AcDbEntity
  8
0
 62
   123
100
AcDbLine
 10
7996.897448669745
 20
-4427.960738442886
 30
0.0
 11
8012.897448669745
 21
-4427.960738442886
 31
0.0
  0
SOLID
  5
2BB
330
2B7
100
AcDbEntity
  8
0
 62
   123
100
AcDbTrace
 10
7996.897448669745
 20
-4427.544071776218
 30
0.0
 11
7996.897448669745
 21
-4428.37740510955
 31
0.0
 12
7994.397448669744
 22
-4427.960738442886
 32
0.0
 13
7994.397448669744
 23
-4427.960738442886
 33
0.0
  0
SOLID
  5
2BC
330
2B7
100
AcDbEntity
  8
0
 62
   123
100
AcDbTrace
 10
8012.897448669745
 20
-4427.544071776218
 30
0.0
 11
8012.897448669745
 21
-4428.37740510955
 31
0.0
 12
8015.397448669745
 22
-4427.960738442886
 32
0.0
 13
8015.397448669745
 23
-4427.960738442886
 33
0.0
  0
MTEXT
  5
2BD
330
2B7
100
AcDbEntity
  8
0
 62
     3
100
AcDbMText
 10
8004.897448669742
 20
-4425.460738442883
 30
0.0
 40
3.0
 41
0.0
 71
     5
 72
     1
  1
\A1;21
1001
ACAD
1000
MTEXTBEGIN
1070
    73
1070
     1
1070
    44
1040
1.0
1070
    74
1070
     0
1000
MTEXTEND
  0
POINT
  5
2BE
330
2B7
100
AcDbEntity
  8
DEFPOINTS
 62
     0
100
AcDbPoint
 10
7994.397448669744
 20
-4490.705034846232
 30
0.0
  0
POINT
  5
2BF
330
2B7
100
AcDbEntity
  8
DEFPOINTS
 62
     0
100
AcDbPoint
 10
8015.397448669745
 20
-4450.146701512899
 30
0.0
  0
POINT
  5
2C0
330
2B7
100
AcDbEntity
  8
DEFPOINTS
 62
     0
100
AcDbPoint
 10
8015.397448669745
 20
-4427.960738442886
 30
0.0
  0
ENDBLK
  5
2C2
330
2B7
100
AcDbEntity
  8
0
100
AcDbBlockEnd
  0
BLOCK
  5
2E9
330
2DF
100
AcDbEntity
  8
0
100
AcDbBlockBegin
  2
*D10
 70
     1
 10
0.0
 20
0.0
 30
0.0
  3
*D10
  1

  0
LINE
  5
2E0
330
2DF
100
AcDbEntity
  8
0
 62
   123
100
AcDbLine
 10
8179.396370870392
 20
-4449.175221557267
 30
0.0
 11
8200.882831706939
 21
-4449.175221557267
 31
0.0
  0
LINE
  5
2E1
330
2DF
100
AcDbEntity
  8
0
 62
   123
100
AcDbLine
 10
8179.396370870392
 20
-4541.17522155727
 30
0.0
 11
8200.882831706939
 21
-4541.17522155727
 31
0.0
  0
LINE
  5
2E2
330
2DF
100
AcDbEntity
  8
0
 62
   123
100
AcDbLine
 10
8200.282831706939
 20
-4451.675221557267
 30
0.0
 11
8200.282831706939
 21
-4538.675221557268
 31
0.0
  0
SOLID
  5
2E3
330
2DF
100
AcDbEntity
  8
0
 62
   123
100
AcDbTrace
 10
8199.866165040274
 20
-4451.675221557267
 30
0.0
 11
8200.699498373603
 21
-4451.675221557267
 31
0.0
 12
8200.282831706939
 22
-4449.175221557267
 32
0.0
 13
8200.282831706939
 23
-4449.175221557267
 33
0.0
  0
SOLID
  5
2E4
330
2DF
100
AcDbEntity
  8
0
 62
   123
100
AcDbTrace
 10
8199.866165040274
 20
-4538.675221557268
 30
0.0
 11
8200.699498373603
 21
-4538.675221557268
 31
0.0
 12
8200.282831706939
 22
-4541.17522155727
 32
0.0
 13
8200.282831706939
 23
-4541.17522155727
 33
0.0
  0
MTEXT
  5
2E5
330
2DF
100
AcDbEntity
  8
0
 62
     3
100
AcDbMText
 10
8197.782831706938
 20
-4495.175221557267
 30
0.0
 40
3.0
 41
0.0
 71
     5
 72
     1
  1
\A1;92
 11
0.0000000000000001
 21
1.0
 31
0.0
1001
ACAD
1000
MTEXTBEGIN
1070
    73
1070
     1
1070
    44
1040
1.0
1070
    74
1070
     0
1000
MTEXTEND
  0
POINT
  5
2E6
330
2DF
100
AcDbEntity
  8
DEFPOINTS
 62
     0
100
AcDbPoint
 10
8178.396370870393
 20
-4449.175221557267
 30
0.0
  0
POINT
  5
2E7
330
2DF
100
AcDbEntity
  8
DEFPOINTS
 62
     0
100
AcDbPoint
 10
8178.396370870393
 20
-4541.17522155727
 30
0.0
  0
POINT
  5
2E8
330
2DF
100
AcDbEntity
  8
DEFPOINTS
 62
     0
100
AcDbPoint
 10
8200.282831706939
 20
-4541.17522155727
 30
0.0
  0
ENDBLK
  5
2EA
330
2DF
100
AcDbEntity
  8
0
100
AcDbBlockEnd
  0
BLOCK
  5
1C0
330
1B6
100
AcDbEntity
  8
0
100
AcDbBlockBegin
  2
*D11
 70
     1
 10
0.0
 20
0.0
 30
0.0
  3
*D11
  1

  0
LINE
  5
1B7
330
1B6
100
AcDbEntity
  8
0
 62
   123
100
AcDbLine
 10
7858.563684934226
 20
-4685.707297068883
 30
0.0
 11
7858.563684934226
 21
-4640.252011126063
 31
0.0
  0
LINE
  5
1B8
330
1B6
100
AcDbEntity
  8
0
 62
   123
100
AcDbLine
 10
7950.56368493423
 20
-4685.707297068883
 30
0.0
 11
7950.56368493423
 21
-4640.252011126063
 31
0.0
  0
LINE
  5
1B9
330
1B6
100
AcDbEntity
  8
0
 62
   123
100
AcDbLine
 10
7861.063684934227
 20
-4640.852011126063
 30
0.0
 11
7948.06368493423
 21
-4640.852011126063
 31
0.0
  0
SOLID
  5
1BA
330
1B6
100
AcDbEntity
  8
0
 62
   123
100
AcDbTrace
 10
7861.063684934227
 20
-4640.435344459397
 30
0.0
 11
7861.063684934227
 21
-4641.268677792729
 31
0.0
 12
7858.563684934226
 22
-4640.852011126063
 32
0.0
 13
7858.563684934226
 23
-4640.852011126063
 33
0.0
  0
SOLID
  5
1BB
330
1B6
100
AcDbEntity
  8
0
 62
   123
100
AcDbTrace
 10
7948.06368493423
 20
-4640.435344459397
 30
0.0
 11
7948.06368493423
 21
-4641.268677792729
 31
0.0
 12
7950.56368493423
 22
-4640.852011126063
 32
0.0
 13
7950.56368493423
 23
-4640.852011126063
 33
0.0
  0
MTEXT
  5
1BC
330
1B6
100
AcDbEntity
  8
0
 62
     3
100
AcDbMText
 10
7904.563684934226
 20
-4638.352011126062
 30
0.0
 40
3.0
 41
0.0
 71
     5
 72
     1
  1
\A1;92
1001
ACAD
1000
MTEXTBEGIN
1070
    73
1070
     1
1070
    44
1040
1.0
1070
    74
1070
     0
1000
MTEXTEND
  0
POINT
  5
1BD
330
1B6
100
AcDbEntity
  8
DEFPOINTS
 62
     0
100
AcDbPoint
 10
7858.563684934226
 20
-4686.707297068881
 30
0.0
  0
POINT
  5
1BE
330
1B6
100
AcDbEntity
  8
DEFPOINTS
 62
     0
100
AcDbPoint
 10
7950.56368493423
 20
-4686.707297068881
 30
0.0
  0
POINT
  5
1BF
330
1B6
100
AcDbEntity
  8
DEFPOINTS
 62
     0
100
AcDbPoint
 10
7950.56368493423
 20
-4640.852011126063
 30
0.0
  0
ENDBLK
  5
1C1
330
1B6
100
AcDbEntity
  8
0
100
AcDbBlockEnd
  0
BLOCK
  5
1CD
330
1C3
100
AcDbEntity
  8
0
100
AcDbBlockBegin
  2
*D12
 70
     1
 10
0.0
 20
0.0
 30
0.0
  3
*D12
  1

  0
LINE
  5
1C4
330
1C3
100
AcDbEntity
  8
0
 62
   123
100
AcDbLine
 10
7859.563684934228
 20
-4674.75009082768
 30
0.0
 11
7859.563684934228
 21
-4651.642673617786
 31
0.0
  0
LINE
  5
1C5
330
1C3
100
AcDbEntity
  8
0
 62
   123
100
AcDbLine
 10
7949.563684934226
 20
-4674.75009082768
 30
0.0
 11
7949.563684934226
 21
-4651.642673617786
 31
0.0
  0
LINE
  5
1C6
330
1C3
100
AcDbEntity
  8
0
 62
   123
100
AcDbLine
 10
7862.063684934231
 20
-4652.242673617787
 30
0.0
 11
7947.063684934227
 21
-4652.242673617787
 31
0.0
  0
SOLID
  5
1C7
330
1C3
100
AcDbEntity
  8
0
 62
   123
100
AcDbTrace
 10
7862.063684934231
 20
-4651.826006951121
 30
0.0
 11
7862.063684934231
 21
-4652.659340284452
 31
0.0
 12
7859.563684934228
 22
-4652.242673617787
 32
0.0
 13
7859.563684934228
 23
-4652.242673617787
 33
0.0
  0
SOLID
  5
1C8
330
1C3
100
AcDbEntity
  8
0
 62
   123
100
AcDbTrace
 10
7947.063684934227
 20
-4651.826006951121
 30
0.0
 11
7947.063684934227
 21
-4652.659340284452
 31
0.0
 12
7949.563684934226
 22
-4652.242673617787
 32
0.0
 13
7949.563684934226
 23
-4652.242673617787
 33
0.0
  0
MTEXT
  5
1C9
330
1C3
100
AcDbEntity
  8
0
 62
     3
100
AcDbMText
 10
7904.563684934226
 20
-4649.742673617787
 30
0.0
 40
3.0
 41
0.0
 71
     5
 72
     1
  1
\A1;90
1001
ACAD
1000
MTEXTBEGIN
1070
    73
1070
     1
1070
    44
1040
1.0
1070
    74
1070
     0
1000
MTEXTEND
  0
POINT
  5
1CA
330
1C3
100
AcDbEntity
  8
DEFPOINTS
 62
     0
100
AcDbPoint
 10
7859.563684934228
 20
-4675.750090827679
 30
0.0
  0
POINT
  5
1CB
330
1C3
100
AcDbEntity
  8
DEFPOINTS
 62
     0
100
AcDbPoint
 10
7949.563684934226
 20
-4675.750090827679
 30
0.0
  0
POINT
  5
1CC
330
1C3
100
AcDbEntity
  8
DEFPOINTS
 62
     0
100
AcDbPoint
 10
7949.563684934226
 20
-4652.242673617787
 30
0.0
  0
ENDBLK
  5
1CE
330
1C3
100
AcDbEntity
  8
0
100
AcDbBlockEnd
  0
BLOCK
  5
C4
330
BA
100
AcDbEntity
  8
0
100
AcDbBlockBegin
  2
*D13
 70
     1
 10
0.0
 20
0.0
 30
0.0
  3
*D13
  1

  0
LINE
  5
BB
330
BA
100
AcDbEntity
  8
0
 62
   123
100
AcDbLine
 10
8198.940543836267
 20
-4669.527483779916
 30
0.0
 11
8220.427004672812
 21
-4669.527483779916
 31
0.0
  0
LINE
  5
BC
330
BA
100
AcDbEntity
  8
0
 62
   123
100
AcDbLine
 10
8198.940543836267
 20
-4761.527483779919
 30
0.0
 11
8220.427004672812
 21
-4761.527483779919
 31
0.0
  0
LINE
  5
BD
330
BA
100
AcDbEntity
  8
0
 62
   123
100
AcDbLine
 10
8219.827004672813
 20
-4672.027483779917
 30
0.0
 11
8219.827004672813
 21
-4759.027483779919
 31
0.0
  0
SOLID
  5
BE
330
BA
100
AcDbEntity
  8
0
 62
   123
100
AcDbTrace
 10
8219.410338006147
 20
-4672.027483779917
 30
0.0
 11
8220.243671339479
 21
-4672.027483779917
 31
0.0
 12
8219.827004672813
 22
-4669.527483779916
 32
0.0
 13
8219.827004672813
 23
-4669.527483779916
 33
0.0
  0
SOLID
  5
BF
330
BA
100
AcDbEntity
  8
0
 62
   123
100
AcDbTrace
 10
8219.410338006147
 20
-4759.027483779919
 30
0.0
 11
8220.243671339479
 21
-4759.027483779919
 31
0.0
 12
8219.827004672813
 22
-4761.527483779919
 32
0.0
 13
8219.827004672813
 23
-4761.527483779919
 33
0.0
  0
MTEXT
  5
C0
330
BA
100
AcDbEntity
  8
0
 62
     3
100
AcDbMText
 10
8217.327004672814
 20
-4715.527483779917
 30
0.0
 40
3.0
 41
0.0
 71
     5
 72
     1
  1
\A1;92
 11
0.0000000000000001
 21
1.0
 31
0.0
1001
ACAD
1000
MTEXTBEGIN
1070
    73
1070
     1
1070
    44
1040
1.0
1070
    74
1070
     0
1000
MTEXTEND
  0
POINT
  5
C1
330
BA
100
AcDbEntity
  8
DEFPOINTS
 62
     0
100
AcDbPoint
 10
8197.940543836265
 20
-4669.527483779916
 30
0.0
  0
POINT
  5
C2
330
BA
100
AcDbEntity
  8
DEFPOINTS
 62
     0
100
AcDbPoint
 10
8197.940543836265
 20
-4761.527483779919
 30
0.0
  0
POINT
  5
C3
330
BA
100
AcDbEntity
  8
DEFPOINTS
 62
     0
100
AcDbPoint
 10
8219.827004672813
 20
-4761.527483779919
 30
0.0
  0
ENDBLK
  5
C5
330
BA
100
AcDbEntity
  8
0
100
AcDbBlockEnd
  0
BLOCK
  5
19E
330
194
100
AcDbEntity
  8
0
100
AcDbBlockBegin
  2
*D14
 70
     1
 10
0.0
 20
0.0
 30
0.0
  3
*D14
  1

  0
LINE
  5
195
330
194
100
AcDbEntity
  8
0
 62
   123
100
AcDbLine
 10
8013.941621635618
 20
-4710.057297068883
 30
0.0
 11
8013.941621635618
 21
-4647.713000665534
 31
0.0
  0
LINE
  5
196
330
194
100
AcDbEntity
  8
0
 62
   123
100
AcDbLine
 10
8034.941621635619
 20
-4669.498963735548
 30
0.0
 11
8034.941621635619
 21
-4647.713000665534
 31
0.0
  0
LINE
  5
197
330
194
100
AcDbEntity
  8
0
 62
   123
100
AcDbLine
 10
8016.441621635619
 20
-4648.313000665535
 30
0.0
 11
8032.441621635618
 21
-4648.313000665535
 31
0.0
  0
SOLID
  5
198
330
194
100
AcDbEntity
  8
0
 62
   123
100
AcDbTrace
 10
8016.441621635619
 20
-4647.896333998867
 30
0.0
 11
8016.441621635619
 21
-4648.7296673322
 31
0.0
 12
8013.941621635618
 22
-4648.313000665535
 32
0.0
 13
8013.941621635618
 23
-4648.313000665535
 33
0.0
  0
SOLID
  5
199
330
194
100
AcDbEntity
  8
0
 62
   123
100
AcDbTrace
 10
8032.441621635618
 20
-4647.896333998867
 30
0.0
 11
8032.441621635618
 21
-4648.7296673322
 31
0.0
 12
8034.941621635619
 22
-4648.313000665535
 32
0.0
 13
8034.941621635619
 23
-4648.313000665535
 33
0.0
  0
MTEXT
  5
19A
330
194
100
AcDbEntity
  8
0
 62
     3
100
AcDbMText
 10
8024.441621635617
 20
-4645.813000665533
 30
0.0
 40
3.0
 41
0.0
 71
     5
 72
     1
  1
\A1;21
1001
ACAD
1000
MTEXTBEGIN
1070
    73
1070
     1
1070
    44
1040
1.0
1070
    74
1070
     0
1000
MTEXTEND
  0
POINT
  5
19B
330
194
100
AcDbEntity
  8
DEFPOINTS
 62
     0
100
AcDbPoint
 10
8013.941621635618
 20
-4711.057297068882
 30
0.0
  0
POINT
  5
19C
330
194
100
AcDbEntity
  8
DEFPOINTS
 62
     0
100
AcDbPoint
 10
8034.941621635619
 20
-4670.498963735548
 30
0.0
  0
POINT
  5
19D
330
194
100
AcDbEntity
  8
DEFPOINTS
 62
     0
100
AcDbPoint
 10
8034.941621635619
 20
-4648.313000665535
 30
0.0
  0
ENDBLK
  5
19F
330
194
100
AcDbEntity
  8
0
100
AcDbBlockEnd
  0
BLOCK
  5
18A
330
17E
100
AcDbEntity
  8
0
100
AcDbBlockBegin
  2
*D15
 70
     1
 10
0.0
 20
0.0
 30
0.0
  3
*D15
  1

  0
LINE
  5
17F
330
17E
100
AcDbEntity
  8
0
 62
   123
100
AcDbLine
 10
8032.94162163562
 20
-4673.207297068881
 30
0.0
 11
8032.94162163562
 21
-4657.474643504634
 31
0.0
  0
LINE
  5
180
330
17E
100
AcDbEntity
  8
0
 62
   123
100
AcDbLine
 10
8034.941621635619
 20
-4669.707297068881
 30
0.0
 11
8034.941621635619
 21
-4657.474643504634
 31
0.0
  0
LINE
  5
181
330
17E
100
AcDbEntity
  8
0
 62
   123
100
AcDbLine
 10
8037.441621635618
 20
-4658.074643504632
 30
0.0
 11
8039.941621635618
 21
-4658.074643504632
 31
0.0
  0
LINE
  5
182
330
17E
100
AcDbEntity
  8
0
 62
   123
100
AcDbLine
 10
8030.441621635619
 20
-4658.074643504632
 30
0.0
 11
8021.941621635617
 21
-4658.074643504632
 31
0.0
  0
LINE
  5
183
330
17E
100
AcDbEntity
  8
0
 62
   123
100
AcDbLine
 10
8034.941621635619
 20
-4658.074643504632
 30
0.0
 11
8032.94162163562
 21
-4658.074643504632
 31
0.0
  0
SOLID
  5
184
330
17E
100
AcDbEntity
  8
0
 62
   123
100
AcDbTrace
 10
8037.441621635618
 20
-4657.657976837966
 30
0.0
 11
8037.441621635618
 21
-4658.491310171299
 31
0.0
 12
8034.941621635619
 22
-4658.074643504632
 32
0.0
 13
8034.941621635619
 23
-4658.074643504632
 33
0.0
  0
SOLID
  5
185
330
17E
100
AcDbEntity
  8
0
 62
   123
100
AcDbTrace
 10
8030.441621635619
 20
-4657.657976837966
 30
0.0
 11
8030.441621635619
 21
-4658.491310171299
 31
0.0
 12
8032.94162163562
 22
-4658.074643504632
 32
0.0
 13
8032.94162163562
 23
-4658.074643504632
 33
0.0
  0
MTEXT
  5
186
330
17E
100
AcDbEntity
  8
0
 62
     3
100
AcDbMText
 10
8023.94162163562
 20
-4655.574643504633
 30
0.0
 40
3.0
 41
0.0
 71
     5
 72
     1
  1
\A1;2
1001
ACAD
1000
MTEXTBEGIN
1070
    73
1070
     1
1070
    44
1040
1.0
1070
    74
1070
     0
1000
MTEXTEND
  0
POINT
  5
187
330
17E
100
AcDbEntity
  8
DEFPOINTS
 62
     0
100
AcDbPoint
 10
8032.94162163562
 20
-4674.207297068881
 30
0.0
  0
POINT
  5
188
330
17E
100
AcDbEntity
  8
DEFPOINTS
 62
     0
100
AcDbPoint
 10
8034.941621635619
 20
-4670.707297068881
 30
0.0
  0
POINT
  5
189
330
17E
100
AcDbEntity
  8
DEFPOINTS
 62
     0
100
AcDbPoint
 10
8034.941621635619
 20
-4658.074643504632
 30
0.0
  0
ENDBLK
  5
18B
330
17E
100
AcDbEntity
  8
0
100
AcDbBlockEnd
  0
BLOCK
  5
16C
330
162
100
AcDbEntity
  8
0
100
AcDbBlockBegin
  2
*D16
 70
     1
 10
0.0
 20
0.0
 30
0.0
  3
*D16
  1

  0
LINE
  5
163
330
162
100
AcDbEntity
  8
0
 62
   123
100
AcDbLine
 10
8034.941621635619
 20
-4669.707297068881
 30
0.0
 11
8034.941621635619
 21
-4647.713000665534
 31
0.0
  0
LINE
  5
164
330
162
100
AcDbEntity
  8
0
 62
   123
100
AcDbLine
 10
8199.940543836268
 20
-4671.527483779917
 30
0.0
 11
8199.940543836268
 21
-4647.713000665534
 31
0.0
  0
LINE
  5
165
330
162
100
AcDbEntity
  8
0
 62
   123
100
AcDbLine
 10
8037.441621635618
 20
-4648.313000665535
 30
0.0
 11
8197.440543836266
 21
-4648.313000665535
 31
0.0
  0
SOLID
  5
166
330
162
100
AcDbEntity
  8
0
 62
   123
100
AcDbTrace
 10
8037.441621635618
 20
-4647.896333998867
 30
0.0
 11
8037.441621635618
 21
-4648.7296673322
 31
0.0
 12
8034.941621635619
 22
-4648.313000665535
 32
0.0
 13
8034.941621635619
 23
-4648.313000665535
 33
0.0
  0
SOLID
  5
167
330
162
100
AcDbEntity
  8
0
 62
   123
100
AcDbTrace
 10
8197.440543836266
 20
-4647.896333998867
 30
0.0
 11
8197.440543836266
 21
-4648.7296673322
 31
0.0
 12
8199.940543836268
 22
-4648.313000665535
 32
0.0
 13
8199.940543836268
 23
-4648.313000665535
 33
0.0
  0
MTEXT
  5
168
330
162
100
AcDbEntity
  8
0
 62
     3
100
AcDbMText
 10
8110.441082735944
 20
-4645.813000665533
 30
0.0
 40
3.0
 41
0.0
 71
     5
 72
     1
  1
\A1;165
1001
ACAD
1000
MTEXTBEGIN
1070
    73
1070
     1
1070
    44
1040
1.0
1070
    74
1070
     0
1000
MTEXTEND
  0
POINT
  5
169
330
162
100
AcDbEntity
  8
DEFPOINTS
 62
     0
100
AcDbPoint
 10
8034.941621635619
 20
-4670.707297068881
 30
0.0
  0
POINT
  5
16A
330
162
100
AcDbEntity
  8
DEFPOINTS
 62
     0
100
AcDbPoint
 10
8199.940543836268
 20
-4672.527483779917
 30
0.0
  0
POINT
  5
16B
330
162
100
AcDbEntity
  8
DEFPOINTS
 62
     0
100
AcDbPoint
 10
8199.940543836268
 20
-4648.313000665535
 30
0.0
  0
ENDBLK
  5
16D
330
162
100
AcDbEntity
  8
0
100
AcDbBlockEnd
  0
BLOCK
  5
25A
330
250
100
AcDbEntity
  8
0
100
AcDbBlockBegin
  2
*D17
 70
     1
 10
0.0
 20
0.0
 30
0.0
  3
*D17
  1

  0
LINE
  5
251
330
250
100
AcDbEntity
  8
0
 62
   123
100
AcDbLine
 10
8012.397448669743
 20
-4453.855034846232
 30
0.0
 11
7984.307772935292
 21
-4453.855034846232
 31
0.0
  0
LINE
  5
252
330
250
100
AcDbEntity
  8
0
 62
   123
100
AcDbLine
 10
8012.397448669743
 20
-4536.855034846232
 30
0.0
 11
7984.307772935292
 21
-4536.855034846232
 31
0.0
  0
LINE
  5
253
330
250
100
AcDbEntity
  8
0
 62
   123
100
AcDbLine
 10
7984.907772935293
 20
-4456.355034846231
 30
0.0
 11
7984.907772935293
 21
-4534.355034846232
 31
0.0
  0
SOLID
  5
254
330
250
100
AcDbEntity
  8
0
 62
   123
100
AcDbTrace
 10
7984.491106268627
 20
-4456.355034846231
 30
0.0
 11
7985.324439601959
 21
-4456.355034846231
 31
0.0
 12
7984.907772935293
 22
-4453.855034846232
 32
0.0
 13
7984.907772935293
 23
-4453.855034846232
 33
0.0
  0
SOLID
  5
255
330
250
100
AcDbEntity
  8
0
 62
   123
100
AcDbTrace
 10
7984.491106268627
 20
-4534.355034846232
 30
0.0
 11
7985.324439601959
 21
-4534.355034846232
 31
0.0
 12
7984.907772935293
 22
-4536.855034846232
 32
0.0
 13
7984.907772935293
 23
-4536.855034846232
 33
0.0
  0
MTEXT
  5
256
330
250
100
AcDbEntity
  8
0
 62
     3
100
AcDbMText
 10
7980.957622935294
 20
-4493.990078213481
 30
0.0
 40
3.0
 41
0.0
 71
     5
 72
     1
  1
\A1;\A1;{\f??|b0|i0|c0|p49;%%C}83{\f??|b0|i0|c0|p49;\H0.7x;\S+0^ -0.035;\H1.429x;(h}7{\f??|b0|i0|c0|p49;)}
 11
0.0000000000000001
 21
1.0
 31
0.0
1001
ACAD
1000
MTEXTBEGIN
1070
    73
1070
     1
1070
    44
1040
1.0
1070
    74
1070
     0
1000
MTEXTEND
  0
POINT
  5
257
330
250
100
AcDbEntity
  8
DEFPOINTS
 62
     0
100
AcDbPoint
 10
8013.397448669744
 20
-4453.855034846232
 30
0.0
  0
POINT
  5
258
330
250
100
AcDbEntity
  8
DEFPOINTS
 62
     0
100
AcDbPoint
 10
8013.397448669744
 20
-4536.855034846232
 30
0.0
  0
POINT
  5
259
330
250
100
AcDbEntity
  8
DEFPOINTS
 62
     0
100
AcDbPoint
 10
7984.907772935293
 20
-4536.855034846232
 30
0.0
  0
ENDBLK
  5
25B
330
250
100
AcDbEntity
  8
0
100
AcDbBlockEnd
  0
BLOCK
  5
29C
330
292
100
AcDbEntity
  8
0
100
AcDbBlockBegin
  2
*D18
 70
     1
 10
0.0
 20
0.0
 30
0.0
  3
*D18
  1

  0
LINE
  5
293
330
292
100
AcDbEntity
  8
0
 62
   123
100
AcDbLine
 10
8015.397448669745
 20
-4449.146701512899
 30
0.0
 11
8015.397448669745
 21
-4437.122381281983
 31
0.0
  0
LINE
  5
294
330
292
100
AcDbEntity
  8
0
 62
   123
100
AcDbLine
 10
8022.897448669743
 20
-4450.756297504704
 30
0.0
 11
8022.897448669743
 21
-4437.122381281983
 31
0.0
  0
LINE
  5
295
330
292
100
AcDbEntity
  8
0
 62
   123
100
AcDbLine
 10
8017.897448669744
 20
-4437.722381281981
 30
0.0
 11
8020.397448669745
 21
-4437.722381281981
 31
0.0
  0
SOLID
  5
296
330
292
100
AcDbEntity
  8
0
 62
   123
100
AcDbTrace
 10
8017.897448669744
 20
-4437.305714615315
 30
0.0
 11
8017.897448669744
 21
-4438.139047948649
 31
0.0
 12
8015.397448669745
 22
-4437.722381281981
 32
0.0
 13
8015.397448669745
 23
-4437.722381281981
 33
0.0
  0
SOLID
  5
297
330
292
100
AcDbEntity
  8
0
 62
   123
100
AcDbTrace
 10
8020.397448669745
 20
-4437.305714615315
 30
0.0
 11
8020.397448669745
 21
-4438.139047948649
 31
0.0
 12
8022.897448669743
 22
-4437.722381281981
 32
0.0
 13
8022.897448669743
 23
-4437.722381281981
 33
0.0
  0
MTEXT
  5
298
330
292
100
AcDbEntity
  8
0
 62
     3
100
AcDbMText
 10
8019.147448669746
 20
-4435.222381281983
 30
0.0
 40
3.0
 41
0.0
 71
     5
 72
     1
  1
\A1;7.5
1001
ACAD
1000
MTEXTBEGIN
1070
    73
1070
     1
1070
    44
1040
1.0
1070
    74
1070
     0
1000
MTEXTEND
  0
POINT
  5
299
330
292
100
AcDbEntity
  8
DEFPOINTS
 62
     0
100
AcDbPoint
 10
8015.397448669745
 20
-4450.146701512899
 30
0.0
  0
POINT
  5
29A
330
292
100
AcDbEntity
  8
DEFPOINTS
 62
     0
100
AcDbPoint
 10
8022.897448669743
 20
-4451.756297504704
 30
0.0
  0
POINT
  5
29B
330
292
100
AcDbEntity
  8
DEFPOINTS
 62
     0
100
AcDbPoint
 10
8022.897448669743
 20
-4437.722381281981
 30
0.0
  0
ENDBLK
  5
29D
330
292
100
AcDbEntity
  8
0
100
AcDbBlockEnd
  0
BLOCK
  5
1F2
330
1E8
100
AcDbEntity
  8
0
100
AcDbBlockBegin
  2
*D19
 70
     1
 10
0.0
 20
0.0
 30
0.0
  3
*D19
  1

  0
LINE
  5
1E9
330
1E8
100
AcDbEntity
  8
0
 62
   123
100
AcDbLine
 10
7996.941621635618
 20
-4721.707297068881
 30
0.0
 11
7990.1412564488
 21
-4721.707297068881
 31
0.0
  0
LINE
  5
1EA
330
1E8
100
AcDbEntity
  8
0
 62
   123
100
AcDbLine
 10
7996.941621635618
 20
-4710.707297068881
 30
0.0
 11
7990.1412564488
 21
-4710.707297068881
 31
0.0
  0
LINE
  5
1EB
330
1E8
100
AcDbEntity
  8
0
 62
   123
100
AcDbLine
 10
7990.741256448798
 20
-4719.207297068883
 30
0.0
 11
7990.741256448798
 21
-4713.207297068882
 31
0.0
  0
SOLID
  5
1EC
330
1E8
100
AcDbEntity
  8
0
 62
   123
100
AcDbTrace
 10
7990.324589782132
 20
-4719.207297068883
 30
0.0
 11
7991.157923115466
 21
-4719.207297068883
 31
0.0
 12
7990.741256448798
 22
-4721.707297068881
 32
0.0
 13
7990.741256448798
 23
-4721.707297068881
 33
0.0
  0
SOLID
  5
1ED
330
1E8
100
AcDbEntity
  8
0
 62
   123
100
AcDbTrace
 10
7990.324589782132
 20
-4713.207297068882
 30
0.0
 11
7991.157923115466
 21
-4713.207297068882
 31
0.0
 12
7990.741256448798
 22
-4710.707297068881
 32
0.0
 13
7990.741256448798
 23
-4710.707297068881
 33
0.0
  0
MTEXT
  5
1EE
330
1E8
100
AcDbEntity
  8
0
 62
     3
100
AcDbMText
 10
7988.241256448802
 20
-4716.207297068883
 30
0.0
 40
3.0
 41
0.0
 71
     5
 72
     1
  1
\A1;11
 11
0.0000000000000001
 21
1.0
 31
0.0
1001
ACAD
1000
MTEXTBEGIN
1070
    73
1070
     1
1070
    44
1040
1.0
1070
    74
1070
     0
1000
MTEXTEND
  0
POINT
  5
1EF
330
1E8
100
AcDbEntity
  8
DEFPOINTS
 62
     0
100
AcDbPoint
 10
7997.941621635617
 20
-4721.707297068881
 30
0.0
  0
POINT
  5
1F0
330
1E8
100
AcDbEntity
  8
DEFPOINTS
 62
     0
100
AcDbPoint
 10
7997.941621635617
 20
-4710.707297068881
 30
0.0
  0
POINT
  5
1F1
330
1E8
100
AcDbEntity
  8
DEFPOINTS
 62
     0
100
AcDbPoint
 10
7990.741256448798
 20
-4710.707297068881
 30
0.0
  0
ENDBLK
  5
1F3
330
1E8
100
AcDbEntity
  8
0
100
AcDbBlockEnd
  0
BLOCK
  5
201
330
1F7
100
AcDbEntity
  8
0
100
AcDbBlockBegin
  2
*D20
 70
     1
 10
0.0
 20
0.0
 30
0.0
  3
*D20
  1

  0
LINE
  5
1F8
330
1F7
100
AcDbEntity
  8
0
 62
   123
100
AcDbLine
 10
7996.941621635618
 20
-4721.707297068881
 30
0.0
 11
7979.272775568091
 21
-4721.707297068881
 31
0.0
  0
LINE
  5
1F9
330
1F7
100
AcDbEntity
  8
0
 62
   123
100
AcDbLine
 10
8026.94162163562
 20
-4709.707297068881
 30
0.0
 11
7979.272775568091
 21
-4709.707297068881
 31
0.0
  0
LINE
  5
1FA
330
1F7
100
AcDbEntity
  8
0
 62
   123
100
AcDbLine
 10
7979.872775568091
 20
-4719.207297068883
 30
0.0
 11
7979.872775568091
 21
-4712.207297068881
 31
0.0
  0
SOLID
  5
1FB
330
1F7
100
AcDbEntity
  8
0
 62
   123
100
AcDbTrace
 10
7979.456108901423
 20
-4719.207297068883
 30
0.0
 11
7980.289442234758
 21
-4719.207297068883
 31
0.0
 12
7979.872775568091
 22
-4721.707297068881
 32
0.0
 13
7979.872775568091
 23
-4721.707297068881
 33
0.0
  0
SOLID
  5
1FC
330
1F7
100
AcDbEntity
  8
0
 62
   123
100
AcDbTrace
 10
7979.456108901423
 20
-4712.207297068881
 30
0.0
 11
7980.289442234758
 21
-4712.207297068881
 31
0.0
 12
7979.872775568091
 22
-4709.707297068881
 32
0.0
 13
7979.872775568091
 23
-4709.707297068881
 33
0.0
  0
MTEXT
  5
1FD
330
1F7
100
AcDbEntity
  8
0
 62
     3
100
AcDbMText
 10
7975.922625568093
 20
-4715.707297068881
 30
0.0
 40
3.0
 41
0.0
 71
     5
 72
     1
  1
\A1;\A1;{\f??|b0|i0|c0|p49;%%C}12{\f??|b0|i0|c0|p49;\H0.7x;\S+0^ -0.018;\H1.429x;(h}7{\f??|b0|i0|c0|p49;)}
 11
0.0000000000000001
 21
1.0
 31
0.0
1001
ACAD
1000
MTEXTBEGIN
1070
    73
1070
     1
1070
    44
1040
1.0
1070
    74
1070
     0
1000
MTEXTEND
  0
POINT
  5
1FE
330
1F7
100
AcDbEntity
  8
DEFPOINTS
 62
     0
100
AcDbPoint
 10
7997.941621635617
 20
-4721.707297068881
 30
0.0
  0
POINT
  5
1FF
330
1F7
100
AcDbEntity
  8
DEFPOINTS
 62
     0
100
AcDbPoint
 10
8027.941621635617
 20
-4709.707297068881
 30
0.0
  0
POINT
  5
200
330
1F7
100
AcDbEntity
  8
DEFPOINTS
 62
     0
100
AcDbPoint
 10
7979.872775568091
 20
-4709.707297068881
 30
0.0
  0
ENDBLK
  5
202
330
1F7
100
AcDbEntity
  8
0
100
AcDbBlockEnd
  0
BLOCK
  5
1B3
330
1A9
100
AcDbEntity
  8
0
100
AcDbBlockBegin
  2
*D21
 70
     1
 10
0.0
 20
0.0
 30
0.0
  3
*D21
  1

  0
LINE
  5
1AA
330
1A9
100
AcDbEntity
  8
0
 62
   123
100
AcDbLine
 10
7997.941621635617
 20
-4709.707297068881
 30
0.0
 11
7997.941621635617
 21
-4684.510040581541
 31
0.0
  0
LINE
  5
1AB
330
1A9
100
AcDbEntity
  8
0
 62
   123
100
AcDbLine
 10
8027.941621635617
 20
-4708.707297068881
 30
0.0
 11
8027.941621635617
 21
-4684.510040581541
 31
0.0
  0
LINE
  5
1AC
330
1A9
100
AcDbEntity
  8
0
 62
   123
100
AcDbLine
 10
8000.441621635619
 20
-4685.110040581541
 30
0.0
 11
8025.44162163562
 21
-4685.110040581541
 31
0.0
  0
SOLID
  5
1AD
330
1A9
100
AcDbEntity
  8
0
 62
   123
100
AcDbTrace
 10
8000.441621635619
 20
-4684.693373914874
 30
0.0
 11
8000.441621635619
 21
-4685.526707248208
 31
0.0
 12
7997.941621635617
 22
-4685.110040581541
 32
0.0
 13
7997.941621635617
 23
-4685.110040581541
 33
0.0
  0
SOLID
  5
1AE
330
1A9
100
AcDbEntity
  8
0
 62
   123
100
AcDbTrace
 10
8025.44162163562
 20
-4684.693373914874
 30
0.0
 11
8025.44162163562
 21
-4685.526707248208
 31
0.0
 12
8027.941621635617
 22
-4685.110040581541
 32
0.0
 13
8027.941621635617
 23
-4685.110040581541
 33
0.0
  0
MTEXT
  5
1AF
330
1A9
100
AcDbEntity
  8
0
 62
     3
100
AcDbMText
 10
8014.200306000118
 20
-4682.610040581542
 30
0.0
 40
3.0
 41
0.0
 71
     5
 72
     1
  1
\A1;30
1001
ACAD
1000
MTEXTBEGIN
1070
    73
1070
     1
1070
    44
1040
1.0
1070
    74
1070
     0
1000
MTEXTEND
  0
POINT
  5
1B0
330
1A9
100
AcDbEntity
  8
DEFPOINTS
 62
     0
100
AcDbPoint
 10
7997.941621635617
 20
-4710.707297068881
 30
0.0
  0
POINT
  5
1B1
330
1A9
100
AcDbEntity
  8
DEFPOINTS
 62
     0
100
AcDbPoint
 10
8027.941621635617
 20
-4709.707297068881
 30
0.0
  0
POINT
  5
1B2
330
1A9
100
AcDbEntity
  8
DEFPOINTS
 62
     0
100
AcDbPoint
 10
8027.941621635617
 20
-4685.110040581541
 30
0.0
  0
ENDBLK
  5
1B4
330
1A9
100
AcDbEntity
  8
0
100
AcDbBlockEnd
  0
BLOCK
  5
17B
330
171
100
AcDbEntity
  8
0
100
AcDbBlockBegin
  2
*D22
 70
     1
 10
0.0
 20
0.0
 30
0.0
  3
*D22
  1

  0
LINE
  5
172
330
171
100
AcDbEntity
  8
0
 62
   123
100
AcDbLine
 10
8034.941621635619
 20
-4669.498963735548
 30
0.0
 11
8034.941621635619
 21
-4657.474643504634
 31
0.0
  0
LINE
  5
173
330
171
100
AcDbEntity
  8
0
 62
   123
100
AcDbLine
 10
8042.441621635619
 20
-4671.108559727354
 30
0.0
 11
8042.441621635619
 21
-4657.474643504634
 31
0.0
  0
LINE
  5
174
330
171
100
AcDbEntity
  8
0
 62
   123
100
AcDbLine
 10
8037.441621635618
 20
-4658.074643504632
 30
0.0
 11
8039.941621635618
 21
-4658.074643504632
 31
0.0
  0
SOLID
  5
175
330
171
100
AcDbEntity
  8
0
 62
   123
100
AcDbTrace
 10
8037.441621635618
 20
-4657.657976837966
 30
0.0
 11
8037.441621635618
 21
-4658.491310171299
 31
0.0
 12
8034.941621635619
 22
-4658.074643504632
 32
0.0
 13
8034.941621635619
 23
-4658.074643504632
 33
0.0
  0
SOLID
  5
176
330
171
100
AcDbEntity
  8
0
 62
   123
100
AcDbTrace
 10
8039.941621635618
 20
-4657.657976837966
 30
0.0
 11
8039.941621635618
 21
-4658.491310171299
 31
0.0
 12
8042.441621635619
 22
-4658.074643504632
 32
0.0
 13
8042.441621635619
 23
-4658.074643504632
 33
0.0
  0
MTEXT
  5
177
330
171
100
AcDbEntity
  8
0
 62
     3
100
AcDbMText
 10
8038.691621635619
 20
-4655.574643504633
 30
0.0
 40
3.0
 41
0.0
 71
     5
 72
     1
  1
\A1;7.5
1001
ACAD
1000
MTEXTBEGIN
1070
    73
1070
     1
1070
    44
1040
1.0
1070
    74
1070
     0
1000
MTEXTEND
  0
POINT
  5
178
330
171
100
AcDbEntity
  8
DEFPOINTS
 62
     0
100
AcDbPoint
 10
8034.941621635619
 20
-4670.498963735548
 30
0.0
  0
POINT
  5
179
330
171
100
AcDbEntity
  8
DEFPOINTS
 62
     0
100
AcDbPoint
 10
8042.441621635619
 20
-4672.108559727354
 30
0.0
  0
POINT
  5
17A
330
171
100
AcDbEntity
  8
DEFPOINTS
 62
     0
100
AcDbPoint
 10
8042.441621635619
 20
-4658.074643504632
 30
0.0
  0
ENDBLK
  5
17C
330
171
100
AcDbEntity
  8
0
100
AcDbBlockEnd
  0
BLOCK
  5
10D
330
103
100
AcDbEntity
  8
0
100
AcDbBlockBegin
  2
*D23
 70
     1
 10
0.0
 20
0.0
 30
0.0
  3
*D23
  1

  0
LINE
  5
104
330
103
100
AcDbEntity
  8
0
 62
   123
100
AcDbLine
 10
8031.941621635619
 20
-4674.207297068881
 30
0.0
 11
7967.0188907887
 21
-4674.207297068881
 31
0.0
  0
LINE
  5
105
330
103
100
AcDbEntity
  8
0
 62
   123
100
AcDbLine
 10
8031.941621635619
 20
-4757.207297068881
 30
0.0
 11
7967.0188907887
 21
-4757.207297068881
 31
0.0
  0
LINE
  5
106
330
103
100
AcDbEntity
  8
0
 62
   123
100
AcDbLine
 10
7967.618890788699
 20
-4676.707297068881
 30
0.0
 11
7967.618890788699
 21
-4754.707297068882
 31
0.0
  0
SOLID
  5
107
330
103
100
AcDbEntity
  8
0
 62
   123
100
AcDbTrace
 10
7967.202224122032
 20
-4676.707297068881
 30
0.0
 11
7968.035557455367
 21
-4676.707297068881
 31
0.0
 12
7967.618890788699
 22
-4674.207297068881
 32
0.0
 13
7967.618890788699
 23
-4674.207297068881
 33
0.0
  0
SOLID
  5
108
330
103
100
AcDbEntity
  8
0
 62
   123
100
AcDbTrace
 10
7967.202224122032
 20
-4754.707297068882
 30
0.0
 11
7968.035557455367
 21
-4754.707297068882
 31
0.0
 12
7967.618890788699
 22
-4757.207297068881
 32
0.0
 13
7967.618890788699
 23
-4757.207297068881
 33
0.0
  0
MTEXT
  5
109
330
103
100
AcDbEntity
  8
0
 62
     3
100
AcDbMText
 10
7963.668740788701
 20
-4714.342340436131
 30
0.0
 40
3.0
 41
0.0
 71
     5
 72
     1
  1
\A1;\A1;{\f??|b0|i0|c0|p49;%%C}83{\f??|b0|i0|c0|p49;\H0.7x;\S+0^ -0.035;\H1.429x;(h}7{\f??|b0|i0|c0|p49;)}
 11
0.0000000000000001
 21
1.0
 31
0.0
1001
ACAD
1000
MTEXTBEGIN
1070
    73
1070
     1
1070
    44
1040
1.0
1070
    74
1070
     0
1000
MTEXTEND
  0
POINT
  5
10A
330
103
100
AcDbEntity
  8
DEFPOINTS
 62
     0
100
AcDbPoint
 10
8032.94162163562
 20
-4674.207297068881
 30
0.0
  0
POINT
  5
10B
330
103
100
AcDbEntity
  8
DEFPOINTS
 62
     0
100
AcDbPoint
 10
8032.94162163562
 20
-4757.207297068881
 30
0.0
  0
POINT
  5
10C
330
103
100
AcDbEntity
  8
DEFPOINTS
 62
     0
100
AcDbPoint
 10
7967.618890788699
 20
-4757.207297068881
 30
0.0
  0
ENDBLK
  5
10E
330
103
100
AcDbEntity
  8
0
100
AcDbBlockEnd
  0
BLOCK
  5
2FF
330
2F3
100
AcDbEntity
  8
0
100
AcDbBlockBegin
  2
*D24
 70
     1
 10
0.0
 20
0.0
 30
0.0
  3
*D24
  1

  0
LINE
  5
41B
330
2F3
100
AcDbEntity
  8
0
 62
   123
100
AcDbLine
 10
55.0473632018684
 20
266.2564817866359
 30
0.0
 11
55.04736320186839
 21
247.8378943931589
 31
0.0
  0
LINE
  5
41C
330
2F3
100
AcDbEntity
  8
0
 62
   123
100
AcDbLine
 10
74.07598356246196
 20
274.9627921541986
 30
0.0
 11
83.00986145329614
 21
253.4016951855456
 31
0.0
  0
ARC
  5
41D
330
2F3
100
AcDbEntity
  8
0
 62
   123
100
AcDbCircle
 10
55.0473632018684
 20
320.8866265503875
 30
0.0
 40
72.44873215722856
100
AcDbArc
 50
271.9772127434108
 51
290.5295441539797
  0
SOLID
  5
41E
330
2F3
100
AcDbEntity
  8
0
 62
   123
100
AcDbTrace
 10
57.55418005832932
 20
248.0644236991623
 30
0.0
 11
57.53980207495199
 21
248.8976329874197
 31
0.0
 12
55.04736320186839
 22
248.4378943931589
 32
0.0
 13
55.04736320186839
 23
248.4378943931589
 33
0.0
  0
SOLID
  5
41F
330
2F3
100
AcDbEntity
  8
0
 62
   123
100
AcDbTrace
 10
80.30160083017838
 20
253.4266315343935
 30
0.0
 11
80.607264123506
 21
252.6513803521587
 31
0.0
 12
82.78018602354677
 22
253.955995823259
 32
0.0
 13
82.78018602354677
 23
253.955995823259
 33
0.0
  0
MTEXT
  5
420
330
2F3
100
AcDbEntity
  8
0
 62
     3
100
AcDbMText
 10
68.64197252298557
 20
252.5629655216259
 30
0.0
 40
3.0
 41
0.0
 71
     5
 72
     1
  1
\A1;22°30'
 11
0.9807737751869577
 21
0.1951481537333186
 31
0.0
  0
POINT
  5
421
330
2F3
100
AcDbEntity
  8
DEFPOINTS
 62
     0
100
AcDbPoint
 10
64.50664393174043
 20
249.0580751292199
 30
0.0
  0
POINT
  5
422
330
2F3
100
AcDbEntity
  8
DEFPOINTS
 62
     0
100
AcDbPoint
 10
55.04736320186839
 20
267.2564817866359
 30
0.0
  0
POINT
  5
423
330
2F3
100
AcDbEntity
  8
DEFPOINTS
 62
     0
100
AcDbPoint
 10
55.0473632018684
 20
320.8866265503875
 30
0.0
  0
POINT
  5
424
330
2F3
100
AcDbEntity
  8
DEFPOINTS
 62
     0
100
AcDbPoint
 10
73.69319117954638
 20
275.8866265503875
 30
0.0
  0
POINT
  5
425
330
2F3
100
AcDbEntity
  8
DEFPOINTS
 62
     0
100
AcDbPoint
 10
55.0473632018684
 20
374.5167713141409
 30
0.0
  0
ENDBLK
  5
300
330
2F3
100
AcDbEntity
  8
0
100
AcDbBlockEnd
  0
BLOCK
  5
30D
330
301
100
AcDbEntity
  8
0
100
AcDbBlockBegin
  2
*D25
 70
     1
 10
0.0
 20
0.0
 30
0.0
  3
*D25
  1

  0
LINE
  5
428
330
301
100
AcDbEntity
  8
0
 62
   123
100
AcDbLine
 10
51.23146280114088
 20
45.90421956398495
 30
0.0
 11
51.23146280114086
 21
27.48563217051048
 31
0.0
  0
LINE
  5
429
330
301
100
AcDbEntity
  8
0
 62
   123
100
AcDbLine
 10
70.26008316173627
 20
54.6105299315494
 30
0.0
 11
79.19396105257061
 21
33.04943296289804
 31
0.0
  0
ARC
  5
42A
330
301
100
AcDbEntity
  8
0
 62
   123
100
AcDbCircle
 10
51.23146280114087
 20
100.5343643277383
 30
0.0
 40
72.44873215722783
100
AcDbArc
 50
271.9772127434108
 51
290.5295441539816
  0
SOLID
  5
42B
330
301
100
AcDbEntity
  8
0
 62
   123
100
AcDbTrace
 10
53.73827965760181
 20
27.71216147651381
 30
0.0
 11
53.72390167422446
 21
28.54537076477123
 31
0.0
 12
51.23146280114087
 22
28.08563217051047
 32
0.0
 13
51.23146280114087
 23
28.08563217051047
 33
0.0
  0
SOLID
  5
42C
330
301
100
AcDbEntity
  8
0
 62
   123
100
AcDbTrace
 10
76.48570042945284
 20
33.07436931174587
 30
0.0
 11
76.7913637227805
 21
32.29911812951101
 31
0.0
 12
78.96428562282124
 22
33.6037336006114
 32
0.0
 13
78.96428562282124
 23
33.6037336006114
 33
0.0
  0
MTEXT
  5
42D
330
301
100
AcDbEntity
  8
0
 62
     3
100
AcDbMText
 10
64.82607212225906
 20
32.2107032989777
 30
0.0
 40
3.0
 41
0.0
 71
     5
 72
     1
  1
\A1;22°30'
 11
0.9807737751869542
 21
0.1951481537333361
 31
0.0
  0
POINT
  5
42E
330
301
100
AcDbEntity
  8
DEFPOINTS
 62
     0
100
AcDbPoint
 10
60.69074353101363
 20
28.70581290657156
 30
0.0
  0
POINT
  5
42F
330
301
100
AcDbEntity
  8
DEFPOINTS
 62
     0
100
AcDbPoint
 10
51.23146280114087
 20
46.90421956398494
 30
0.0
  0
POINT
  5
430
330
301
100
AcDbEntity
  8
DEFPOINTS
 62
     0
100
AcDbPoint
 10
51.23146280114087
 20
100.5343643277383
 30
0.0
  0
POINT
  5
431
330
301
100
AcDbEntity
  8
DEFPOINTS
 62
     0
100
AcDbPoint
 10
69.87729077882066
 20
55.53436432773833
 30
0.0
  0
POINT
  5
432
330
301
100
AcDbEntity
  8
DEFPOINTS
 62
     0
100
AcDbPoint
 10
51.23146280114088
 20
154.1645090914907
 30
0.0
  0
ENDBLK
  5
30E
330
301
100
AcDbEntity
  8
0
100
AcDbBlockEnd
  0
BLOCK
  5
319
330
30F
100
AcDbEntity
  8
0
100
AcDbBlockBegin
  2
*D26
 70
     1
 10
0.0
 20
0.0
 30
0.0
  3
*D26
  1

  0
LINE
  5
310
330
30F
100
AcDbEntity
  8
0
 62
   123
100
AcDbLine
 10
178.6156171734201
 20
142.0343643277383
 30
0.0
 11
113.6928863265006
 21
142.0343643277383
 31
0.0
  0
LINE
  5
311
330
30F
100
AcDbEntity
  8
0
 62
   123
100
AcDbLine
 10
178.6156171734201
 20
59.03436432773833
 30
0.0
 11
113.6928863265006
 21
59.03436432773835
 31
0.0
  0
LINE
  5
312
330
30F
100
AcDbEntity
  8
0
 62
   123
100
AcDbLine
 10
114.2928863265006
 20
139.5343643277383
 30
0.0
 11
114.2928863265006
 21
61.53436432773835
 31
0.0
  0
SOLID
  5
313
330
30F
100
AcDbEntity
  8
0
 62
   123
100
AcDbTrace
 10
113.8762196598339
 20
139.5343643277383
 30
0.0
 11
114.7095529931672
 21
139.5343643277383
 31
0.0
 12
114.2928863265006
 22
142.0343643277383
 32
0.0
 13
114.2928863265006
 23
142.0343643277383
 33
0.0
  0
SOLID
  5
314
330
30F
100
AcDbEntity
  8
0
 62
   123
100
AcDbTrace
 10
113.8762196598339
 20
61.53436432773835
 30
0.0
 11
114.7095529931672
 21
61.53436432773835
 31
0.0
 12
114.2928863265006
 22
59.03436432773835
 32
0.0
 13
114.2928863265006
 23
59.03436432773835
 33
0.0
  0
MTEXT
  5
315
330
30F
100
AcDbEntity
  8
0
 62
     3
100
AcDbMText
 10
110.3427363265006
 20
101.8993209604887
 30
0.0
 40
3.0
 41
0.0
 71
     5
 72
     1
  1
\A1;\A1;{\f??|b0|i0|c0|p49;%%C}83{\f??|b0|i0|c0|p49;\H0.7x;\S+0^ -0.035;\H1.429x;(h}7{\f??|b0|i0|c0|p49;)}
 11
0.0000000000000001
 21
1.0
 31
0.0
1001
ACAD
1000
MTEXTBEGIN
1070
    73
1070
     1
1070
    44
1040
1.0
1070
    74
1070
     0
1000
MTEXTEND
  0
POINT
  5
316
330
30F
100
AcDbEntity
  8
DEFPOINTS
 62
     0
100
AcDbPoint
 10
179.6156171734201
 20
142.0343643277383
 30
0.0
  0
POINT
  5
317
330
30F
100
AcDbEntity
  8
DEFPOINTS
 62
     0
100
AcDbPoint
 10
179.6156171734201
 20
59.03436432773833
 30
0.0
  0
POINT
  5
318
330
30F
100
AcDbEntity
  8
DEFPOINTS
 62
     0
100
AcDbPoint
 10
114.2928863265006
 20
59.03436432773835
 30
0.0
  0
ENDBLK
  5
31A
330
30F
100
AcDbEntity
  8
0
100
AcDbBlockEnd
  0
BLOCK
  5
325
330
31B
100
AcDbEntity
  8
0
100
AcDbBlockBegin
  2
*D27
 70
     1
 10
0.0
 20
0.0
 30
0.0
  3
*D27
  1

  0
LINE
  5
31C
330
31B
100
AcDbEntity
  8
0
 62
   123
100
AcDbLine
 10
345.6145393740644
 20
146.7141776167036
 30
0.0
 11
367.1010002106119
 21
146.7141776167036
 31
0.0
  0
LINE
  5
31D
330
31B
100
AcDbEntity
  8
0
 62
   123
100
AcDbLine
 10
345.6145393740644
 20
54.71417761670091
 30
0.0
 11
367.1010002106119
 21
54.71417761670091
 31
0.0
  0
LINE
  5
31E
330
31B
100
AcDbEntity
  8
0
 62
   123
100
AcDbLine
 10
366.5010002106119
 20
144.2141776167036
 30
0.0
 11
366.5010002106118
 21
57.21417761670091
 31
0.0
  0
SOLID
  5
31F
330
31B
100
AcDbEntity
  8
0
 62
   123
100
AcDbTrace
 10
366.0843335439452
 20
144.2141776167036
 30
0.0
 11
366.9176668772786
 21
144.2141776167036
 31
0.0
 12
366.5010002106119
 22
146.7141776167036
 32
0.0
 13
366.5010002106119
 23
146.7141776167036
 33
0.0
  0
SOLID
  5
320
330
31B
100
AcDbEntity
  8
0
 62
   123
100
AcDbTrace
 10
366.0843335439452
 20
57.21417761670091
 30
0.0
 11
366.9176668772785
 21
57.21417761670091
 31
0.0
 12
366.5010002106118
 22
54.71417761670091
 32
0.0
 13
366.5010002106118
 23
54.71417761670091
 33
0.0
  0
MTEXT
  5
321
330
31B
100
AcDbEntity
  8
0
 62
     3
100
AcDbMText
 10
364.0010002106119
 20
100.7141776167027
 30
0.0
 40
3.0
 41
0.0
 71
     5
 72
     1
  1
\A1;92
 11
0.0000000000000001
 21
1.0
 31
0.0
1001
ACAD
1000
MTEXTBEGIN
1070
    73
1070
     1
1070
    44
1040
1.0
1070
    74
1070
     0
1000
MTEXTEND
  0
POINT
  5
322
330
31B
100
AcDbEntity
  8
DEFPOINTS
 62
     0
100
AcDbPoint
 10
344.6145393740644
 20
146.7141776167036
 30
0.0
  0
POINT
  5
323
330
31B
100
AcDbEntity
  8
DEFPOINTS
 62
     0
100
AcDbPoint
 10
344.6145393740644
 20
54.71417761670091
 30
0.0
  0
POINT
  5
324
330
31B
100
AcDbEntity
  8
DEFPOINTS
 62
     0
100
AcDbPoint
 10
366.5010002106118
 20
54.71417761670091
 30
0.0
  0
ENDBLK
  5
326
330
31B
100
AcDbEntity
  8
0
100
AcDbBlockEnd
  0
BLOCK
  5
333
330
327
100
AcDbEntity
  8
0
100
AcDbBlockBegin
  2
*D28
 70
     1
 10
0.0
 20
0.0
 30
0.0
  3
*D28
  1

  0
LINE
  5
328
330
327
100
AcDbEntity
  8
0
 62
   123
100
AcDbLine
 10
179.6156171734201
 20
143.0343643277383
 30
0.0
 11
179.6156171734201
 21
158.7670178919875
 31
0.0
  0
LINE
  5
329
330
327
100
AcDbEntity
  8
0
 62
   123
100
AcDbLine
 10
181.6156171734182
 20
146.5343643277383
 30
0.0
 11
181.6156171734182
 21
158.7670178919875
 31
0.0
  0
LINE
  5
32A
330
327
100
AcDbEntity
  8
0
 62
   123
100
AcDbLine
 10
184.1156171734182
 20
158.1670178919875
 30
0.0
 11
186.6156171734182
 21
158.1670178919875
 31
0.0
  0
LINE
  5
32B
330
327
100
AcDbEntity
  8
0
 62
   123
100
AcDbLine
 10
177.1156171734201
 20
158.1670178919875
 30
0.0
 11
168.6156171734201
 21
158.1670178919875
 31
0.0
  0
LINE
  5
32C
330
327
100
AcDbEntity
  8
0
 62
   123
100
AcDbLine
 10
181.6156171734182
 20
158.1670178919875
 30
0.0
 11
179.6156171734201
 21
158.1670178919875
 31
0.0
  0
SOLID
  5
32D
330
327
100
AcDbEntity
  8
0
 62
   123
100
AcDbTrace
 10
184.1156171734182
 20
158.5836845586542
 30
0.0
 11
184.1156171734182
 21
157.7503512253209
 31
0.0
 12
181.6156171734182
 22
158.1670178919875
 32
0.0
 13
181.6156171734182
 23
158.1670178919875
 33
0.0
  0
SOLID
  5
32E
330
327
100
AcDbEntity
  8
0
 62
   123
100
AcDbTrace
 10
177.1156171734201
 20
158.5836845586542
 30
0.0
 11
177.1156171734201
 21
157.7503512253209
 31
0.0
 12
179.6156171734201
 22
158.1670178919875
 32
0.0
 13
179.6156171734201
 23
158.1670178919875
 33
0.0
  0
MTEXT
  5
32F
330
327
100
AcDbEntity
  8
0
 62
     3
100
AcDbMText
 10
170.6156171734201
 20
160.6670178919876
 30
0.0
 40
3.0
 41
0.0
 71
     5
 72
     1
  1
\A1;2
1001
ACAD
1000
MTEXTBEGIN
1070
    73
1070
     1
1070
    44
1040
1.0
1070
    74
1070
     0
1000
MTEXTEND
  0
POINT
  5
330
330
327
100
AcDbEntity
  8
DEFPOINTS
 62
     0
100
AcDbPoint
 10
179.6156171734201
 20
142.0343643277383
 30
0.0
  0
POINT
  5
331
330
327
100
AcDbEntity
  8
DEFPOINTS
 62
     0
100
AcDbPoint
 10
181.6156171734182
 20
145.5343643277383
 30
0.0
  0
POINT
  5
332
330
327
100
AcDbEntity
  8
DEFPOINTS
 62
     0
100
AcDbPoint
 10
181.6156171734182
 20
158.1670178919875
 30
0.0
  0
ENDBLK
  5
334
330
327
100
AcDbEntity
  8
0
100
AcDbBlockEnd
  0
BLOCK
  5
33F
330
335
100
AcDbEntity
  8
0
100
AcDbBlockBegin
  2
*D29
 70
     1
 10
0.0
 20
0.0
 30
0.0
  3
*D29
  1

  0
LINE
  5
336
330
335
100
AcDbEntity
  8
0
 62
   123
100
AcDbLine
 10
181.6156171734182
 20
146.7426976610713
 30
0.0
 11
181.6156171734182
 21
158.7670178919875
 31
0.0
  0
LINE
  5
337
330
335
100
AcDbEntity
  8
0
 62
   123
100
AcDbLine
 10
189.1156171734182
 20
145.1331016692656
 30
0.0
 11
189.1156171734182
 21
158.7670178919875
 31
0.0
  0
LINE
  5
338
330
335
100
AcDbEntity
  8
0
 62
   123
100
AcDbLine
 10
184.1156171734182
 20
158.1670178919875
 30
0.0
 11
186.6156171734182
 21
158.1670178919875
 31
0.0
  0
SOLID
  5
339
330
335
100
AcDbEntity
  8
0
 62
   123
100
AcDbTrace
 10
184.1156171734182
 20
158.5836845586542
 30
0.0
 11
184.1156171734182
 21
157.7503512253209
 31
0.0
 12
181.6156171734182
 22
158.1670178919875
 32
0.0
 13
181.6156171734182
 23
158.1670178919875
 33
0.0
  0
SOLID
  5
33A
330
335
100
AcDbEntity
  8
0
 62
   123
100
AcDbTrace
 10
186.6156171734182
 20
158.5836845586542
 30
0.0
 11
186.6156171734182
 21
157.7503512253209
 31
0.0
 12
189.1156171734182
 22
158.1670178919875
 32
0.0
 13
189.1156171734182
 23
158.1670178919875
 33
0.0
  0
MTEXT
  5
33B
330
335
100
AcDbEntity
  8
0
 62
     3
100
AcDbMText
 10
185.3656171734182
 20
160.6670178919876
 30
0.0
 40
3.0
 41
0.0
 71
     5
 72
     1
  1
\A1;7.5
1001
ACAD
1000
MTEXTBEGIN
1070
    73
1070
     1
1070
    44
1040
1.0
1070
    74
1070
     0
1000
MTEXTEND
  0
POINT
  5
33C
330
335
100
AcDbEntity
  8
DEFPOINTS
 62
     0
100
AcDbPoint
 10
181.6156171734182
 20
145.7426976610713
 30
0.0
  0
POINT
  5
33D
330
335
100
AcDbEntity
  8
DEFPOINTS
 62
     0
100
AcDbPoint
 10
189.1156171734182
 20
144.1331016692656
 30
0.0
  0
POINT
  5
33E
330
335
100
AcDbEntity
  8
DEFPOINTS
 62
     0
100
AcDbPoint
 10
189.1156171734182
 20
158.1670178919875
 30
0.0
  0
ENDBLK
  5
340
330
335
100
AcDbEntity
  8
0
100
AcDbBlockEnd
  0
BLOCK
  5
34B
330
341
100
AcDbEntity
  8
0
100
AcDbBlockBegin
  2
*D30
 70
     1
 10
0.0
 20
0.0
 30
0.0
  3
*D30
  1

  0
LINE
  5
342
330
341
100
AcDbEntity
  8
0
 62
   123
100
AcDbLine
 10
181.6156171734182
 20
146.5343643277383
 30
0.0
 11
181.6156171734182
 21
168.5286607310841
 31
0.0
  0
LINE
  5
343
330
341
100
AcDbEntity
  8
0
 62
   123
100
AcDbLine
 10
346.614539374068
 20
144.7141776167027
 30
0.0
 11
346.614539374068
 21
168.5286607310841
 31
0.0
  0
LINE
  5
344
330
341
100
AcDbEntity
  8
0
 62
   123
100
AcDbLine
 10
184.1156171734182
 20
167.9286607310841
 30
0.0
 11
344.114539374068
 21
167.9286607310841
 31
0.0
  0
SOLID
  5
345
330
341
100
AcDbEntity
  8
0
 62
   123
100
AcDbTrace
 10
184.1156171734182
 20
168.3453273977508
 30
0.0
 11
184.1156171734182
 21
167.5119940644175
 31
0.0
 12
181.6156171734182
 22
167.9286607310841
 32
0.0
 13
181.6156171734182
 23
167.9286607310841
 33
0.0
  0
SOLID
  5
346
330
341
100
AcDbEntity
  8
0
 62
   123
100
AcDbTrace
 10
344.114539374068
 20
168.3453273977508
 30
0.0
 11
344.114539374068
 21
167.5119940644175
 31
0.0
 12
346.614539374068
 22
167.9286607310841
 32
0.0
 13
346.614539374068
 23
167.9286607310841
 33
0.0
  0
MTEXT
  5
347
330
341
100
AcDbEntity
  8
0
 62
     3
100
AcDbMText
 10
257.1150782737431
 20
170.4286607310841
 30
0.0
 40
3.0
 41
0.0
 71
     5
 72
     1
  1
\A1;165
1001
ACAD
1000
MTEXTBEGIN
1070
    73
1070
     1
1070
    44
1040
1.0
1070
    74
1070
     0
1000
MTEXTEND
  0
POINT
  5
348
330
341
100
AcDbEntity
  8
DEFPOINTS
 62
     0
100
AcDbPoint
 10
181.6156171734182
 20
145.5343643277383
 30
0.0
  0
POINT
  5
349
330
341
100
AcDbEntity
  8
DEFPOINTS
 62
     0
100
AcDbPoint
 10
346.614539374068
 20
143.7141776167027
 30
0.0
  0
POINT
  5
34A
330
341
100
AcDbEntity
  8
DEFPOINTS
 62
     0
100
AcDbPoint
 10
346.614539374068
 20
167.9286607310841
 30
0.0
  0
ENDBLK
  5
34C
330
341
100
AcDbEntity
  8
0
100
AcDbBlockEnd
  0
BLOCK
  5
357
330
34D
100
AcDbEntity
  8
0
100
AcDbBlockBegin
  2
*D31
 70
     1
 10
0.0
 20
0.0
 30
0.0
  3
*D31
  1

  0
LINE
  5
34E
330
34D
100
AcDbEntity
  8
0
 62
   123
100
AcDbLine
 10
143.6156171734173
 20
94.53436432773832
 30
0.0
 11
125.9467711058927
 21
94.53436432773832
 31
0.0
  0
LINE
  5
34F
330
34D
100
AcDbEntity
  8
0
 62
   123
100
AcDbLine
 10
173.6156171734164
 20
106.5343643277383
 30
0.0
 11
125.9467711058927
 21
106.5343643277383
 31
0.0
  0
LINE
  5
350
330
34D
100
AcDbEntity
  8
0
 62
   123
100
AcDbLine
 10
126.5467711058927
 20
97.03436432773834
 30
0.0
 11
126.5467711058927
 21
104.0343643277383
 31
0.0
  0
SOLID
  5
351
330
34D
100
AcDbEntity
  8
0
 62
   123
100
AcDbTrace
 10
126.130104439226
 20
97.03436432773834
 30
0.0
 11
126.9634377725594
 21
97.03436432773834
 31
0.0
 12
126.5467711058927
 22
94.53436432773832
 32
0.0
 13
126.5467711058927
 23
94.53436432773832
 33
0.0
  0
SOLID
  5
352
330
34D
100
AcDbEntity
  8
0
 62
   123
100
AcDbTrace
 10
126.130104439226
 20
104.0343643277383
 30
0.0
 11
126.9634377725594
 21
104.0343643277383
 31
0.0
 12
126.5467711058927
 22
106.5343643277383
 32
0.0
 13
126.5467711058927
 23
106.5343643277383
 33
0.0
  0
MTEXT
  5
353
330
34D
100
AcDbEntity
  8
0
 62
     3
100
AcDbMText
 10
122.5966211058927
 20
100.5343643277383
 30
0.0
 40
3.0
 41
0.0
 71
     5
 72
     1
  1
\A1;\A1;{\f??|b0|i0|c0|p49;%%C}12{\f??|b0|i0|c0|p49;\H0.7x;\S+0^ -0.018;\H1.429x;(h}7{\f??|b0|i0|c0|p49;)}
 11
0.0000000000000001
 21
1.0
 31
0.0
1001
ACAD
1000
MTEXTBEGIN
1070
    73
1070
     1
1070
    44
1040
1.0
1070
    74
1070
     0
1000
MTEXTEND
  0
POINT
  5
354
330
34D
100
AcDbEntity
  8
DEFPOINTS
 62
     0
100
AcDbPoint
 10
144.6156171734173
 20
94.53436432773832
 30
0.0
  0
POINT
  5
355
330
34D
100
AcDbEntity
  8
DEFPOINTS
 62
     0
100
AcDbPoint
 10
174.6156171734164
 20
106.5343643277383
 30
0.0
  0
POINT
  5
356
330
34D
100
AcDbEntity
  8
DEFPOINTS
 62
     0
100
AcDbPoint
 10
126.5467711058927
 20
106.5343643277383
 30
0.0
  0
ENDBLK
  5
358
330
34D
100
AcDbEntity
  8
0
100
AcDbBlockEnd
  0
BLOCK
  5
363
330
359
100
AcDbEntity
  8
0
100
AcDbBlockBegin
  2
*D32
 70
     1
 10
0.0
 20
0.0
 30
0.0
  3
*D32
  1

  0
LINE
  5
35A
330
359
100
AcDbEntity
  8
0
 62
   123
100
AcDbLine
 10
143.6156171734173
 20
94.53436432773832
 30
0.0
 11
136.8152519866011
 21
94.53436432773832
 31
0.0
  0
LINE
  5
35B
330
359
100
AcDbEntity
  8
0
 62
   123
100
AcDbLine
 10
143.6156171734173
 20
105.5343643277383
 30
0.0
 11
136.8152519866011
 21
105.5343643277383
 31
0.0
  0
LINE
  5
35C
330
359
100
AcDbEntity
  8
0
 62
   123
100
AcDbLine
 10
137.4152519866011
 20
97.03436432773834
 30
0.0
 11
137.4152519866011
 21
103.0343643277383
 31
0.0
  0
SOLID
  5
35D
330
359
100
AcDbEntity
  8
0
 62
   123
100
AcDbTrace
 10
136.9985853199344
 20
97.03436432773834
 30
0.0
 11
137.8319186532678
 21
97.03436432773834
 31
0.0
 12
137.4152519866011
 22
94.53436432773832
 32
0.0
 13
137.4152519866011
 23
94.53436432773832
 33
0.0
  0
SOLID
  5
35E
330
359
100
AcDbEntity
  8
0
 62
   123
100
AcDbTrace
 10
136.9985853199344
 20
103.0343643277383
 30
0.0
 11
137.8319186532678
 21
103.0343643277383
 31
0.0
 12
137.4152519866011
 22
105.5343643277383
 32
0.0
 13
137.4152519866011
 23
105.5343643277383
 33
0.0
  0
MTEXT
  5
35F
330
359
100
AcDbEntity
  8
0
 62
     3
100
AcDbMText
 10
134.9152519866011
 20
100.0343643277365
 30
0.0
 40
3.0
 41
0.0
 71
     5
 72
     1
  1
\A1;11
 11
0.0000000000000001
 21
1.0
 31
0.0
1001
ACAD
1000
MTEXTBEGIN
1070
    73
1070
     1
1070
    44
1040
1.0
1070
    74
1070
     0
1000
MTEXTEND
  0
POINT
  5
360
330
359
100
AcDbEntity
  8
DEFPOINTS
 62
     0
100
AcDbPoint
 10
144.6156171734173
 20
94.53436432773832
 30
0.0
  0
POINT
  5
361
330
359
100
AcDbEntity
  8
DEFPOINTS
 62
     0
100
AcDbPoint
 10
144.6156171734173
 20
105.5343643277383
 30
0.0
  0
POINT
  5
362
330
359
100
AcDbEntity
  8
DEFPOINTS
 62
     0
100
AcDbPoint
 10
137.4152519866011
 20
105.5343643277383
 30
0.0
  0
ENDBLK
  5
364
330
359
100
AcDbEntity
  8
0
100
AcDbBlockEnd
  0
BLOCK
  5
36F
330
365
100
AcDbEntity
  8
0
100
AcDbBlockBegin
  2
*D33
 70
     1
 10
0.0
 20
0.0
 30
0.0
  3
*D33
  1

  0
LINE
  5
366
330
365
100
AcDbEntity
  8
0
 62
   123
100
AcDbLine
 10
6.237680472027932
 20
141.4915705689409
 30
0.0
 11
6.237680472027934
 21
164.5989877788329
 31
0.0
  0
LINE
  5
367
330
365
100
AcDbEntity
  8
0
 62
   123
100
AcDbLine
 10
96.23768047202611
 20
141.4915705689409
 30
0.0
 11
96.23768047202611
 21
164.5989877788329
 31
0.0
  0
LINE
  5
368
330
365
100
AcDbEntity
  8
0
 62
   123
100
AcDbLine
 10
8.737680472027934
 20
163.9989877788329
 30
0.0
 11
93.73768047202611
 21
163.9989877788329
 31
0.0
  0
SOLID
  5
369
330
365
100
AcDbEntity
  8
0
 62
   123
100
AcDbTrace
 10
8.737680472027934
 20
164.4156544454996
 30
0.0
 11
8.737680472027934
 21
163.5823211121663
 31
0.0
 12
6.237680472027934
 22
163.9989877788329
 32
0.0
 13
6.237680472027934
 23
163.9989877788329
 33
0.0
  0
SOLID
  5
36A
330
365
100
AcDbEntity
  8
0
 62
   123
100
AcDbTrace
 10
93.73768047202611
 20
164.4156544454996
 30
0.0
 11
93.73768047202611
 21
163.5823211121663
 31
0.0
 12
96.23768047202611
 22
163.9989877788329
 32
0.0
 13
96.23768047202611
 23
163.9989877788329
 33
0.0
  0
MTEXT
  5
36B
330
365
100
AcDbEntity
  8
0
 62
     3
100
AcDbMText
 10
51.23768047202611
 20
166.498987778833
 30
0.0
 40
3.0
 41
0.0
 71
     5
 72
     1
  1
\A1;90
1001
ACAD
1000
MTEXTBEGIN
1070
    73
1070
     1
1070
    44
1040
1.0
1070
    74
1070
     0
1000
MTEXTEND
  0
POINT
  5
36C
330
365
100
AcDbEntity
  8
DEFPOINTS
 62
     0
100
AcDbPoint
 10
6.237680472027932
 20
140.4915705689409
 30
0.0
  0
POINT
  5
36D
330
365
100
AcDbEntity
  8
DEFPOINTS
 62
     0
100
AcDbPoint
 10
96.23768047202611
 20
140.4915705689409
 30
0.0
  0
POINT
  5
36E
330
365
100
AcDbEntity
  8
DEFPOINTS
 62
     0
100
AcDbPoint
 10
96.23768047202611
 20
163.9989877788329
 30
0.0
  0
ENDBLK
  5
370
330
365
100
AcDbEntity
  8
0
100
AcDbBlockEnd
  0
BLOCK
  5
37B
330
371
100
AcDbEntity
  8
0
100
AcDbBlockBegin
  2
*D34
 70
     1
 10
0.0
 20
0.0
 30
0.0
  3
*D34
  1

  0
LINE
  5
372
330
371
100
AcDbEntity
  8
0
 62
   123
100
AcDbLine
 10
5.237680472026113
 20
130.5343643277383
 30
0.0
 11
5.237680472026116
 21
175.9896502705565
 31
0.0
  0
LINE
  5
373
330
371
100
AcDbEntity
  8
0
 62
   123
100
AcDbLine
 10
97.23768047202975
 20
130.5343643277383
 30
0.0
 11
97.23768047202975
 21
175.9896502705565
 31
0.0
  0
LINE
  5
374
330
371
100
AcDbEntity
  8
0
 62
   123
100
AcDbLine
 10
7.737680472026116
 20
175.3896502705565
 30
0.0
 11
94.73768047202975
 21
175.3896502705565
 31
0.0
  0
SOLID
  5
375
330
371
100
AcDbEntity
  8
0
 62
   123
100
AcDbTrace
 10
7.737680472026116
 20
175.8063169372232
 30
0.0
 11
7.737680472026116
 21
174.9729836038899
 31
0.0
 12
5.237680472026116
 22
175.3896502705565
 32
0.0
 13
5.237680472026116
 23
175.3896502705565
 33
0.0
  0
SOLID
  5
376
330
371
100
AcDbEntity
  8
0
 62
   123
100
AcDbTrace
 10
94.73768047202975
 20
175.8063169372232
 30
0.0
 11
94.73768047202975
 21
174.9729836038899
 31
0.0
 12
97.23768047202975
 22
175.3896502705565
 32
0.0
 13
97.23768047202975
 23
175.3896502705565
 33
0.0
  0
MTEXT
  5
377
330
371
100
AcDbEntity
  8
0
 62
     3
100
AcDbMText
 10
51.23768047202611
 20
177.8896502705565
 30
0.0
 40
3.0
 41
0.0
 71
     5
 72
     1
  1
\A1;92
1001
ACAD
1000
MTEXTBEGIN
1070
    73
1070
     1
1070
    44
1040
1.0
1070
    74
1070
     0
1000
MTEXTEND
  0
POINT
  5
378
330
371
100
AcDbEntity
  8
DEFPOINTS
 62
     0
100
AcDbPoint
 10
5.237680472026113
 20
129.5343643277383
 30
0.0
  0
POINT
  5
379
330
371
100
AcDbEntity
  8
DEFPOINTS
 62
     0
100
AcDbPoint
 10
97.23768047202975
 20
129.5343643277383
 30
0.0
  0
POINT
  5
37A
330
371
100
AcDbEntity
  8
DEFPOINTS
 62
     0
100
AcDbPoint
 10
97.23768047202975
 20
175.3896502705565
 30
0.0
  0
ENDBLK
  5
37C
330
371
100
AcDbEntity
  8
0
100
AcDbBlockEnd
  0
BLOCK
  5
387
330
37D
100
AcDbEntity
  8
0
100
AcDbBlockBegin
  2
*D35
 70
     1
 10
0.0
 20
0.0
 30
0.0
  3
*D35
  1

  0
LINE
  5
37E
330
37D
100
AcDbEntity
  8
0
 62
   123
100
AcDbLine
 10
144.6156171734173
 20
106.5343643277383
 30
0.0
 11
144.6156171734173
 21
131.7316208150783
 31
0.0
  0
LINE
  5
37F
330
37D
100
AcDbEntity
  8
0
 62
   123
100
AcDbLine
 10
174.6156171734164
 20
107.5343643277383
 30
0.0
 11
174.6156171734164
 21
131.7316208150783
 31
0.0
  0
LINE
  5
380
330
37D
100
AcDbEntity
  8
0
 62
   123
100
AcDbLine
 10
147.1156171734173
 20
131.1316208150783
 30
0.0
 11
172.1156171734164
 21
131.1316208150783
 31
0.0
  0
SOLID
  5
381
330
37D
100
AcDbEntity
  8
0
 62
   123
100
AcDbTrace
 10
147.1156171734173
 20
131.548287481745
 30
0.0
 11
147.1156171734173
 21
130.7149541484116
 31
0.0
 12
144.6156171734173
 22
131.1316208150783
 32
0.0
 13
144.6156171734173
 23
131.1316208150783
 33
0.0
  0
SOLID
  5
382
330
37D
100
AcDbEntity
  8
0
 62
   123
100
AcDbTrace
 10
172.1156171734164
 20
131.548287481745
 30
0.0
 11
172.1156171734164
 21
130.7149541484116
 31
0.0
 12
174.6156171734164
 22
131.1316208150783
 32
0.0
 13
174.6156171734164
 23
131.1316208150783
 33
0.0
  0
MTEXT
  5
383
330
37D
100
AcDbEntity
  8
0
 62
     3
100
AcDbMText
 10
160.8743015379177
 20
133.6316208150783
 30
0.0
 40
3.0
 41
0.0
 71
     5
 72
     1
  1
\A1;30
1001
ACAD
1000
MTEXTBEGIN
1070
    73
1070
     1
1070
    44
1040
1.0
1070
    74
1070
     0
1000
MTEXTEND
  0
POINT
  5
384
330
37D
100
AcDbEntity
  8
DEFPOINTS
 62
     0
100
AcDbPoint
 10
144.6156171734173
 20
105.5343643277383
 30
0.0
  0
POINT
  5
385
330
37D
100
AcDbEntity
  8
DEFPOINTS
 62
     0
100
AcDbPoint
 10
174.6156171734164
 20
106.5343643277383
 30
0.0
  0
POINT
  5
386
330
37D
100
AcDbEntity
  8
DEFPOINTS
 62
     0
100
AcDbPoint
 10
174.6156171734164
 20
131.1316208150783
 30
0.0
  0
ENDBLK
  5
388
330
37D
100
AcDbEntity
  8
0
100
AcDbBlockEnd
  0
BLOCK
  5
393
330
389
100
AcDbEntity
  8
0
100
AcDbBlockBegin
  2
*D36
 70
     1
 10
0.0
 20
0.0
 30
0.0
  3
*D36
  1

  0
LINE
  5
38A
330
389
100
AcDbEntity
  8
0
 62
   123
100
AcDbLine
 10
160.6156171734173
 20
106.1843643277379
 30
0.0
 11
160.6156171734173
 21
168.5286607310841
 31
0.0
  0
LINE
  5
38B
330
389
100
AcDbEntity
  8
0
 62
   123
100
AcDbLine
 10
181.6156171734182
 20
146.7426976610713
 30
0.0
 11
181.6156171734182
 21
168.5286607310841
 31
0.0
  0
LINE
  5
38C
330
389
100
AcDbEntity
  8
0
 62
   123
100
AcDbLine
 10
163.1156171734173
 20
167.9286607310841
 30
0.0
 11
179.1156171734182
 21
167.9286607310841
 31
0.0
  0
SOLID
  5
38D
330
389
100
AcDbEntity
  8
0
 62
   123
100
AcDbTrace
 10
163.1156171734173
 20
168.3453273977508
 30
0.0
 11
163.1156171734173
 21
167.5119940644175
 31
0.0
 12
160.6156171734173
 22
167.9286607310841
 32
0.0
 13
160.6156171734173
 23
167.9286607310841
 33
0.0
  0
SOLID
  5
38E
330
389
100
AcDbEntity
  8
0
 62
   123
100
AcDbTrace
 10
179.1156171734182
 20
168.3453273977508
 30
0.0
 11
179.1156171734182
 21
167.5119940644175
 31
0.0
 12
181.6156171734182
 22
167.9286607310841
 32
0.0
 13
181.6156171734182
 23
167.9286607310841
 33
0.0
  0
MTEXT
  5
38F
330
389
100
AcDbEntity
  8
0
 62
     3
100
AcDbMText
 10
171.1156171734173
 20
170.4286607310841
 30
0.0
 40
3.0
 41
0.0
 71
     5
 72
     1
  1
\A1;21
1001
ACAD
1000
MTEXTBEGIN
1070
    73
1070
     1
1070
    44
1040
1.0
1070
    74
1070
     0
1000
MTEXTEND
  0
POINT
  5
390
330
389
100
AcDbEntity
  8
DEFPOINTS
 62
     0
100
AcDbPoint
 10
160.6156171734173
 20
105.1843643277379
 30
0.0
  0
POINT
  5
391
330
389
100
AcDbEntity
  8
DEFPOINTS
 62
     0
100
AcDbPoint
 10
181.6156171734182
 20
145.7426976610713
 30
0.0
  0
POINT
  5
392
330
389
100
AcDbEntity
  8
DEFPOINTS
 62
     0
100
AcDbPoint
 10
181.6156171734182
 20
167.9286607310841
 30
0.0
  0
ENDBLK
  5
394
330
389
100
AcDbEntity
  8
0
100
AcDbBlockEnd
  0
BLOCK
  5
39F
330
395
100
AcDbEntity
  8
0
100
AcDbBlockBegin
  2
*D37
 70
     1
 10
0.0
 20
0.0
 30
0.0
  3
*D37
  1

  0
LINE
  5
396
330
395
100
AcDbEntity
  8
0
 62
   123
100
AcDbLine
 10
162.071444207545
 20
366.8866265503875
 30
0.0
 11
162.071444207545
 21
388.8809229537343
 31
0.0
  0
LINE
  5
397
330
395
100
AcDbEntity
  8
0
 62
   123
100
AcDbLine
 10
327.070366408192
 20
365.0664398393528
 30
0.0
 11
327.070366408192
 21
388.8809229537343
 31
0.0
  0
LINE
  5
398
330
395
100
AcDbEntity
  8
0
 62
   123
100
AcDbLine
 10
164.571444207545
 20
388.2809229537342
 30
0.0
 11
324.570366408192
 21
388.2809229537342
 31
0.0
  0
SOLID
  5
399
330
395
100
AcDbEntity
  8
0
 62
   123
100
AcDbTrace
 10
164.571444207545
 20
388.6975896204009
 30
0.0
 11
164.571444207545
 21
387.8642562870675
 31
0.0
 12
162.071444207545
 22
388.2809229537342
 32
0.0
 13
162.071444207545
 23
388.2809229537342
 33
0.0
  0
SOLID
  5
39A
330
395
100
AcDbEntity
  8
0
 62
   123
100
AcDbTrace
 10
324.570366408192
 20
388.6975896204009
 30
0.0
 11
324.570366408192
 21
387.8642562870675
 31
0.0
 12
327.070366408192
 22
388.2809229537342
 32
0.0
 13
327.070366408192
 23
388.2809229537342
 33
0.0
  0
MTEXT
  5
39B
330
395
100
AcDbEntity
  8
0
 62
     3
100
AcDbMText
 10
237.5709053078689
 20
390.7809229537342
 30
0.0
 40
3.0
 41
0.0
 71
     5
 72
     1
  1
\A1;165
1001
ACAD
1000
MTEXTBEGIN
1070
    73
1070
     1
1070
    44
1040
1.0
1070
    74
1070
     0
1000
MTEXTEND
  0
POINT
  5
39C
330
395
100
AcDbEntity
  8
DEFPOINTS
 62
     0
100
AcDbPoint
 10
162.071444207545
 20
365.8866265503875
 30
0.0
  0
POINT
  5
39D
330
395
100
AcDbEntity
  8
DEFPOINTS
 62
     0
100
AcDbPoint
 10
327.070366408192
 20
364.0664398393528
 30
0.0
  0
POINT
  5
39E
330
395
100
AcDbEntity
  8
DEFPOINTS
 62
     0
100
AcDbPoint
 10
327.070366408192
 20
388.2809229537342
 30
0.0
  0
ENDBLK
  5
3A0
330
395
100
AcDbEntity
  8
0
100
AcDbBlockEnd
  0
BLOCK
  5
3AB
330
3A1
100
AcDbEntity
  8
0
100
AcDbBlockBegin
  2
*D38
 70
     1
 10
0.0
 20
0.0
 30
0.0
  3
*D38
  1

  0
LINE
  5
3A2
330
3A1
100
AcDbEntity
  8
0
 62
   123
100
AcDbLine
 10
141.0714442075432
 20
326.5366265503871
 30
0.0
 11
141.0714442075432
 21
388.8809229537343
 31
0.0
  0
LINE
  5
3A3
330
3A1
100
AcDbEntity
  8
0
 62
   123
100
AcDbLine
 10
162.071444207545
 20
367.0949598837205
 30
0.0
 11
162.071444207545
 21
388.8809229537343
 31
0.0
  0
LINE
  5
3A4
330
3A1
100
AcDbEntity
  8
0
 62
   123
100
AcDbLine
 10
143.5714442075432
 20
388.2809229537342
 30
0.0
 11
159.571444207545
 21
388.2809229537342
 31
0.0
  0
SOLID
  5
3A5
330
3A1
100
AcDbEntity
  8
0
 62
   123
100
AcDbTrace
 10
143.5714442075432
 20
388.6975896204009
 30
0.0
 11
143.5714442075432
 21
387.8642562870675
 31
0.0
 12
141.0714442075432
 22
388.2809229537342
 32
0.0
 13
141.0714442075432
 23
388.2809229537342
 33
0.0
  0
SOLID
  5
3A6
330
3A1
100
AcDbEntity
  8
0
 62
   123
100
AcDbTrace
 10
159.571444207545
 20
388.6975896204009
 30
0.0
 11
159.571444207545
 21
387.8642562870675
 31
0.0
 12
162.071444207545
 22
388.2809229537342
 32
0.0
 13
162.071444207545
 23
388.2809229537342
 33
0.0
  0
MTEXT
  5
3A7
330
3A1
100
AcDbEntity
  8
0
 62
     3
100
AcDbMText
 10
151.5714442075432
 20
390.7809229537342
 30
0.0
 40
3.0
 41
0.0
 71
     5
 72
     1
  1
\A1;21
1001
ACAD
1000
MTEXTBEGIN
1070
    73
1070
     1
1070
    44
1040
1.0
1070
    74
1070
     0
1000
MTEXTEND
  0
POINT
  5
3A8
330
3A1
100
AcDbEntity
  8
DEFPOINTS
 62
     0
100
AcDbPoint
 10
141.0714442075432
 20
325.5366265503871
 30
0.0
  0
POINT
  5
3A9
330
3A1
100
AcDbEntity
  8
DEFPOINTS
 62
     0
100
AcDbPoint
 10
162.071444207545
 20
366.0949598837205
 30
0.0
  0
POINT
  5
3AA
330
3A1
100
AcDbEntity
  8
DEFPOINTS
 62
     0
100
AcDbPoint
 10
162.071444207545
 20
388.2809229537342
 30
0.0
  0
ENDBLK
  5
3AC
330
3A1
100
AcDbEntity
  8
0
100
AcDbBlockEnd
  0
BLOCK
  5
3B7
330
3AD
100
AcDbEntity
  8
0
100
AcDbBlockBegin
  2
*D39
 70
     1
 10
0.0
 20
0.0
 30
0.0
  3
*D39
  1

  0
LINE
  5
3AE
330
3AD
100
AcDbEntity
  8
0
 62
   123
100
AcDbLine
 10
162.071444207545
 20
367.0949598837205
 30
0.0
 11
162.071444207545
 21
379.1192801146377
 31
0.0
  0
LINE
  5
3AF
330
3AD
100
AcDbEntity
  8
0
 62
   123
100
AcDbLine
 10
169.5714442075423
 20
365.4853638919157
 30
0.0
 11
169.5714442075423
 21
379.1192801146377
 31
0.0
  0
LINE
  5
3B0
330
3AD
100
AcDbEntity
  8
0
 62
   123
100
AcDbLine
 10
164.571444207545
 20
378.5192801146377
 30
0.0
 11
167.0714442075422
 21
378.5192801146377
 31
0.0
  0
SOLID
  5
3B1
330
3AD
100
AcDbEntity
  8
0
 62
   123
100
AcDbTrace
 10
164.571444207545
 20
378.9359467813044
 30
0.0
 11
164.571444207545
 21
378.102613447971
 31
0.0
 12
162.071444207545
 22
378.5192801146377
 32
0.0
 13
162.071444207545
 23
378.5192801146377
 33
0.0
  0
SOLID
  5
3B2
330
3AD
100
AcDbEntity
  8
0
 62
   123
100
AcDbTrace
 10
167.0714442075422
 20
378.9359467813044
 30
0.0
 11
167.0714442075422
 21
378.102613447971
 31
0.0
 12
169.5714442075423
 22
378.5192801146377
 32
0.0
 13
169.5714442075423
 23
378.5192801146377
 33
0.0
  0
MTEXT
  5
3B3
330
3AD
100
AcDbEntity
  8
0
 62
     3
100
AcDbMText
 10
165.8214442075436
 20
381.0192801146376
 30
0.0
 40
3.0
 41
0.0
 71
     5
 72
     1
  1
\A1;7.5
1001
ACAD
1000
MTEXTBEGIN
1070
    73
1070
     1
1070
    44
1040
1.0
1070
    74
1070
     0
1000
MTEXTEND
  0
POINT
  5
3B4
330
3AD
100
AcDbEntity
  8
DEFPOINTS
 62
     0
100
AcDbPoint
 10
162.071444207545
 20
366.0949598837205
 30
0.0
  0
POINT
  5
3B5
330
3AD
100
AcDbEntity
  8
DEFPOINTS
 62
     0
100
AcDbPoint
 10
169.5714442075423
 20
364.4853638919157
 30
0.0
  0
POINT
  5
3B6
330
3AD
100
AcDbEntity
  8
DEFPOINTS
 62
     0
100
AcDbPoint
 10
169.5714442075423
 20
378.5192801146377
 30
0.0
  0
ENDBLK
  5
3B8
330
3AD
100
AcDbEntity
  8
0
100
AcDbBlockEnd
  0
BLOCK
  5
3C5
330
3B9
100
AcDbEntity
  8
0
100
AcDbBlockBegin
  2
*D40
 70
     1
 10
0.0
 20
0.0
 30
0.0
  3
*D40
  1

  0
LINE
  5
3BA
330
3B9
100
AcDbEntity
  8
0
 62
   123
100
AcDbLine
 10
160.0714442075432
 20
363.3866265503875
 30
0.0
 11
160.0714442075432
 21
379.1192801146377
 31
0.0
  0
LINE
  5
3BB
330
3B9
100
AcDbEntity
  8
0
 62
   123
100
AcDbLine
 10
162.071444207545
 20
366.8866265503875
 30
0.0
 11
162.071444207545
 21
379.1192801146377
 31
0.0
  0
LINE
  5
3BC
330
3B9
100
AcDbEntity
  8
0
 62
   123
100
AcDbLine
 10
164.571444207545
 20
378.5192801146377
 30
0.0
 11
167.071444207545
 21
378.5192801146377
 31
0.0
  0
LINE
  5
3BD
330
3B9
100
AcDbEntity
  8
0
 62
   123
100
AcDbLine
 10
157.5714442075432
 20
378.5192801146377
 30
0.0
 11
149.071444207545
 21
378.5192801146377
 31
0.0
  0
LINE
  5
3BE
330
3B9
100
AcDbEntity
  8
0
 62
   123
100
AcDbLine
 10
162.071444207545
 20
378.5192801146377
 30
0.0
 11
160.0714442075432
 21
378.5192801146377
 31
0.0
  0
SOLID
  5
3BF
330
3B9
100
AcDbEntity
  8
0
 62
   123
100
AcDbTrace
 10
164.571444207545
 20
378.9359467813044
 30
0.0
 11
164.571444207545
 21
378.102613447971
 31
0.0
 12
162.071444207545
 22
378.5192801146377
 32
0.0
 13
162.071444207545
 23
378.5192801146377
 33
0.0
  0
SOLID
  5
3C0
330
3B9
100
AcDbEntity
  8
0
 62
   123
100
AcDbTrace
 10
157.5714442075432
 20
378.9359467813044
 30
0.0
 11
157.5714442075432
 21
378.102613447971
 31
0.0
 12
160.0714442075432
 22
378.5192801146377
 32
0.0
 13
160.0714442075432
 23
378.5192801146377
 33
0.0
  0
MTEXT
  5
3C1
330
3B9
100
AcDbEntity
  8
0
 62
     3
100
AcDbMText
 10
151.071444207545
 20
381.0192801146376
 30
0.0
 40
3.0
 41
0.0
 71
     5
 72
     1
  1
\A1;2
1001
ACAD
1000
MTEXTBEGIN
1070
    73
1070
     1
1070
    44
1040
1.0
1070
    74
1070
     0
1000
MTEXTEND
  0
POINT
  5
3C2
330
3B9
100
AcDbEntity
  8
DEFPOINTS
 62
     0
100
AcDbPoint
 10
160.0714442075432
 20
362.3866265503875
 30
0.0
  0
POINT
  5
3C3
330
3B9
100
AcDbEntity
  8
DEFPOINTS
 62
     0
100
AcDbPoint
 10
162.071444207545
 20
365.8866265503875
 30
0.0
  0
POINT
  5
3C4
330
3B9
100
AcDbEntity
  8
DEFPOINTS
 62
     0
100
AcDbPoint
 10
162.071444207545
 20
378.5192801146377
 30
0.0
  0
ENDBLK
  5
3C6
330
3B9
100
AcDbEntity
  8
0
100
AcDbBlockEnd
  0
BLOCK
  5
3D1
330
3C7
100
AcDbEntity
  8
0
100
AcDbBlockBegin
  2
*D41
 70
     1
 10
0.0
 20
0.0
 30
0.0
  3
*D41
  1

  0
LINE
  5
3C8
330
3C7
100
AcDbEntity
  8
0
 62
   123
100
AcDbLine
 10
159.0714442075432
 20
362.3866265503875
 30
0.0
 11
130.9817684730937
 21
362.3866265503875
 31
0.0
  0
LINE
  5
3C9
330
3C7
100
AcDbEntity
  8
0
 62
   123
100
AcDbLine
 10
159.0714442075432
 20
279.3866265503875
 30
0.0
 11
130.9817684730937
 21
279.3866265503875
 31
0.0
  0
LINE
  5
3CA
330
3C7
100
AcDbEntity
  8
0
 62
   123
100
AcDbLine
 10
131.5817684730937
 20
359.8866265503875
 30
0.0
 11
131.5817684730937
 21
281.8866265503875
 31
0.0
  0
SOLID
  5
3CB
330
3C7
100
AcDbEntity
  8
0
 62
   123
100
AcDbTrace
 10
131.165101806427
 20
359.8866265503875
 30
0.0
 11
131.9984351397603
 21
359.8866265503875
 31
0.0
 12
131.5817684730937
 22
362.3866265503875
 32
0.0
 13
131.5817684730937
 23
362.3866265503875
 33
0.0
  0
SOLID
  5
3CC
330
3C7
100
AcDbEntity
  8
0
 62
   123
100
AcDbTrace
 10
131.165101806427
 20
281.8866265503875
 30
0.0
 11
131.9984351397603
 21
281.8866265503875
 31
0.0
 12
131.5817684730937
 22
279.3866265503875
 32
0.0
 13
131.5817684730937
 23
279.3866265503875
 33
0.0
  0
MTEXT
  5
3CD
330
3C7
100
AcDbEntity
  8
0
 62
     3
100
AcDbMText
 10
127.6316184730936
 20
322.2515831831387
 30
0.0
 40
3.0
 41
0.0
 71
     5
 72
     1
  1
\A1;\A1;{\f??|b0|i0|c0|p49;%%C}83{\f??|b0|i0|c0|p49;\H0.7x;\S+0^ -0.035;\H1.429x;(h}7{\f??|b0|i0|c0|p49;)}
 11
0.0000000000000001
 21
1.0
 31
0.0
1001
ACAD
1000
MTEXTBEGIN
1070
    73
1070
     1
1070
    44
1040
1.0
1070
    74
1070
     0
1000
MTEXTEND
  0
POINT
  5
3CE
330
3C7
100
AcDbEntity
  8
DEFPOINTS
 62
     0
100
AcDbPoint
 10
160.0714442075432
 20
362.3866265503875
 30
0.0
  0
POINT
  5
3CF
330
3C7
100
AcDbEntity
  8
DEFPOINTS
 62
     0
100
AcDbPoint
 10
160.0714442075432
 20
279.3866265503875
 30
0.0
  0
POINT
  5
3D0
330
3C7
100
AcDbEntity
  8
DEFPOINTS
 62
     0
100
AcDbPoint
 10
131.5817684730937
 20
279.3866265503875
 30
0.0
  0
ENDBLK
  5
3D2
330
3C7
100
AcDbEntity
  8
0
100
AcDbBlockEnd
  0
BLOCK
  5
3DD
330
3D3
100
AcDbEntity
  8
0
100
AcDbBlockBegin
  2
*D42
 70
     1
 10
0.0
 20
0.0
 30
0.0
  3
*D42
  1

  0
LINE
  5
3D4
330
3D3
100
AcDbEntity
  8
0
 62
   123
100
AcDbLine
 10
9.053580872754537
 20
350.8866265503875
 30
0.0
 11
9.05358087275454
 21
396.3419124932066
 31
0.0
  0
LINE
  5
3D5
330
3D3
100
AcDbEntity
  8
0
 62
   123
100
AcDbLine
 10
101.0535808727581
 20
350.8866265503875
 30
0.0
 11
101.0535808727581
 21
396.3419124932066
 31
0.0
  0
LINE
  5
3D6
330
3D3
100
AcDbEntity
  8
0
 62
   123
100
AcDbLine
 10
11.55358087275454
 20
395.7419124932066
 30
0.0
 11
98.55358087275817
 21
395.7419124932066
 31
0.0
  0
SOLID
  5
3D7
330
3D3
100
AcDbEntity
  8
0
 62
   123
100
AcDbTrace
 10
11.55358087275454
 20
396.1585791598733
 30
0.0
 11
11.55358087275454
 21
395.3252458265399
 31
0.0
 12
9.05358087275454
 22
395.7419124932066
 32
0.0
 13
9.05358087275454
 23
395.7419124932066
 33
0.0
  0
SOLID
  5
3D8
330
3D3
100
AcDbEntity
  8
0
 62
   123
100
AcDbTrace
 10
98.55358087275817
 20
396.1585791598733
 30
0.0
 11
98.55358087275817
 21
395.3252458265399
 31
0.0
 12
101.0535808727581
 22
395.7419124932066
 32
0.0
 13
101.0535808727581
 23
395.7419124932066
 33
0.0
  0
MTEXT
  5
3D9
330
3D3
100
AcDbEntity
  8
0
 62
     3
100
AcDbMText
 10
55.05358087275363
 20
398.2419124932066
 30
0.0
 40
3.0
 41
0.0
 71
     5
 72
     1
  1
\A1;92
1001
ACAD
1000
MTEXTBEGIN
1070
    73
1070
     1
1070
    44
1040
1.0
1070
    74
1070
     0
1000
MTEXTEND
  0
POINT
  5
3DA
330
3D3
100
AcDbEntity
  8
DEFPOINTS
 62
     0
100
AcDbPoint
 10
9.053580872754537
 20
349.8866265503875
 30
0.0
  0
POINT
  5
3DB
330
3D3
100
AcDbEntity
  8
DEFPOINTS
 62
     0
100
AcDbPoint
 10
101.0535808727581
 20
349.8866265503875
 30
0.0
  0
POINT
  5
3DC
330
3D3
100
AcDbEntity
  8
DEFPOINTS
 62
     0
100
AcDbPoint
 10
101.0535808727581
 20
395.7419124932066
 30
0.0
  0
ENDBLK
  5
3DE
330
3D3
100
AcDbEntity
  8
0
100
AcDbBlockEnd
  0
BLOCK
  5
3E9
330
3DF
100
AcDbEntity
  8
0
100
AcDbBlockBegin
  2
*D43
 70
     1
 10
0.0
 20
0.0
 30
0.0
  3
*D43
  1

  0
LINE
  5
3E0
330
3DF
100
AcDbEntity
  8
0
 62
   123
100
AcDbLine
 10
10.05358087275817
 20
361.84383279159
 30
0.0
 11
10.05358087275817
 21
384.951250001484
 31
0.0
  0
LINE
  5
3E1
330
3DF
100
AcDbEntity
  8
0
 62
   123
100
AcDbLine
 10
100.0535808727536
 20
361.84383279159
 30
0.0
 11
100.0535808727536
 21
384.951250001484
 31
0.0
  0
LINE
  5
3E2
330
3DF
100
AcDbEntity
  8
0
 62
   123
100
AcDbLine
 10
12.55358087275817
 20
384.351250001484
 30
0.0
 11
97.55358087275363
 21
384.351250001484
 31
0.0
  0
SOLID
  5
3E3
330
3DF
100
AcDbEntity
  8
0
 62
   123
100
AcDbTrace
 10
12.55358087275817
 20
384.7679166681507
 30
0.0
 11
12.55358087275817
 21
383.9345833348173
 31
0.0
 12
10.05358087275817
 22
384.351250001484
 32
0.0
 13
10.05358087275817
 23
384.351250001484
 33
0.0
  0
SOLID
  5
3E4
330
3DF
100
AcDbEntity
  8
0
 62
   123
100
AcDbTrace
 10
97.55358087275363
 20
384.7679166681507
 30
0.0
 11
97.55358087275363
 21
383.9345833348173
 31
0.0
 12
100.0535808727536
 22
384.351250001484
 32
0.0
 13
100.0535808727536
 23
384.351250001484
 33
0.0
  0
MTEXT
  5
3E5
330
3DF
100
AcDbEntity
  8
0
 62
     3
100
AcDbMText
 10
55.05358087275363
 20
386.851250001484
 30
0.0
 40
3.0
 41
0.0
 71
     5
 72
     1
  1
\A1;90
1001
ACAD
1000
MTEXTBEGIN
1070
    73
1070
     1
1070
    44
1040
1.0
1070
    74
1070
     0
1000
MTEXTEND
  0
POINT
  5
3E6
330
3DF
100
AcDbEntity
  8
DEFPOINTS
 62
     0
100
AcDbPoint
 10
10.05358087275817
 20
360.8438327915901
 30
0.0
  0
POINT
  5
3E7
330
3DF
100
AcDbEntity
  8
DEFPOINTS
 62
     0
100
AcDbPoint
 10
100.0535808727536
 20
360.8438327915901
 30
0.0
  0
POINT
  5
3E8
330
3DF
100
AcDbEntity
  8
DEFPOINTS
 62
     0
100
AcDbPoint
 10
100.0535808727536
 20
384.351250001484
 30
0.0
  0
ENDBLK
  5
3EA
330
3DF
100
AcDbEntity
  8
0
100
AcDbBlockEnd
  0
BLOCK
  5
3F5
330
3EB
100
AcDbEntity
  8
0
100
AcDbBlockBegin
  2
*D44
 70
     1
 10
0.0
 20
0.0
 30
0.0
  3
*D44
  1

  0
LINE
  5
3EC
330
3EB
100
AcDbEntity
  8
0
 62
   123
100
AcDbLine
 10
326.0703664081929
 20
367.0664398393528
 30
0.0
 11
347.5568272447414
 21
367.0664398393528
 31
0.0
  0
LINE
  5
3ED
330
3EB
100
AcDbEntity
  8
0
 62
   123
100
AcDbLine
 10
326.0703664081929
 20
275.06643983935
 30
0.0
 11
347.5568272447414
 21
275.06643983935
 31
0.0
  0
LINE
  5
3EE
330
3EB
100
AcDbEntity
  8
0
 62
   123
100
AcDbLine
 10
346.9568272447414
 20
364.5664398393528
 30
0.0
 11
346.9568272447414
 21
277.5664398393501
 31
0.0
  0
SOLID
  5
3EF
330
3EB
100
AcDbEntity
  8
0
 62
   123
100
AcDbTrace
 10
346.5401605780747
 20
364.5664398393528
 30
0.0
 11
347.3734939114081
 21
364.5664398393528
 31
0.0
 12
346.9568272447414
 22
367.0664398393528
 32
0.0
 13
346.9568272447414
 23
367.0664398393528
 33
0.0
  0
SOLID
  5
3F0
330
3EB
100
AcDbEntity
  8
0
 62
   123
100
AcDbTrace
 10
346.5401605780747
 20
277.5664398393501
 30
0.0
 11
347.3734939114081
 21
277.5664398393501
 31
0.0
 12
346.9568272447414
 22
275.06643983935
 32
0.0
 13
346.9568272447414
 23
275.06643983935
 33
0.0
  0
MTEXT
  5
3F1
330
3EB
100
AcDbEntity
  8
0
 62
     3
100
AcDbMText
 10
344.4568272447413
 20
321.0664398393528
 30
0.0
 40
3.0
 41
0.0
 71
     5
 72
     1
  1
\A1;92
 11
0.0000000000000001
 21
1.0
 31
0.0
1001
ACAD
1000
MTEXTBEGIN
1070
    73
1070
     1
1070
    44
1040
1.0
1070
    74
1070
     0
1000
MTEXTEND
  0
POINT
  5
3F2
330
3EB
100
AcDbEntity
  8
DEFPOINTS
 62
     0
100
AcDbPoint
 10
325.0703664081929
 20
367.0664398393528
 30
0.0
  0
POINT
  5
3F3
330
3EB
100
AcDbEntity
  8
DEFPOINTS
 62
     0
100
AcDbPoint
 10
325.0703664081929
 20
275.06643983935
 30
0.0
  0
POINT
  5
3F4
330
3EB
100
AcDbEntity
  8
DEFPOINTS
 62
     0
100
AcDbPoint
 10
346.9568272447414
 20
275.06643983935
 30
0.0
  0
ENDBLK
  5
3F6
330
3EB
100
AcDbEntity
  8
0
100
AcDbBlockEnd
  0
ENDSEC
  0
SECTION
  2
ENTITIES
  0
ARC
  5
9D
330
2
100
AcDbEntity
  8
0
 48
0.6
100
AcDbCircle
 10
315.51281896008
 20
273.9777938393508
 30
0.0
 40
33.95579199999999
100
AcDbArc
 50
179.8504230000004
 51
213.8981229999992
  0
ARC
  5
9E
330
2
100
AcDbEntity
  8
0
 48
0.6
100
AcDbCircle
 10
315.51281896008
 20
273.9777938393508
 30
0.0
 40
36.555792
100
AcDbArc
 50
179.8610604128478
 51
213.8176429999978
  0
ARC
  5
9F
330
2
100
AcDbEntity
  8
0
 48
0.6
100
AcDbCircle
 10
315.51281896008
 20
273.9777938393508
 30
0.0
 40
39.15579199999999
100
AcDbArc
 50
179.8702869999971
 51
212.7486590000019
  0
ARC
  5
A0
330
2
100
AcDbEntity
  8
0
100
AcDbCircle
 10
210.3741662075444
 20
274.7979805503873
 30
0.0
 40
39.15579199999999
100
AcDbArc
 50
179.8702869999971
 51
212.7486590000019
  0
ARC
  5
A1
330
2
100
AcDbEntity
  8
0
100
AcDbCircle
 10
210.3741662075444
 20
274.7979805503873
 30
0.0
 40
36.555792
100
AcDbArc
 50
179.8610604128478
 51
213.8176429999978
  0
ARC
  5
A2
330
2
100
AcDbEntity
  8
0
100
AcDbCircle
 10
210.3741662075444
 20
274.7979805503873
 30
0.0
 40
33.95579199999999
100
AcDbArc
 50
179.8504230000004
 51
213.8981229999992
  0
LEADER
  5
A3
330
2
100
AcDbEntity
  8
0
100
AcDbLeader
  3
STANDARD
 76
     2
 10
176.562865207542
 20
259.267148550387
 30
0.0
 10
151.7428213887542
 20
229.3747319335689
 30
0.0
1001
ACAD
1000
DSTYLE
1002
{
1070
     5
1000

1070
   342
1005
0
1002
}
  0
LEADER
  5
A5
330
2
100
AcDbEntity
  8
0
 48
0.6
100
AcDbLeader
  3
STANDARD
 76
     2
 10
282.4347728690399
 20
258.2580138281045
 30
0.0
 10
257.39918603565
 20
223.2661981632582
 30
0.0
1001
ACAD
1000
DSTYLE
1002
{
1070
     5
1000

1070
   342
1005
0
1002
}
  0
DIMENSION
  5
A6
330
2
100
AcDbEntity
  8
0
100
AcDbDimension
  2
*D24
 10
55.0473632018684
 20
374.5167713141408
 30
0.0
 11
68.64197252298557
 21
252.562965521626
 31
0.0
 70
    34
  1
<>
  3
STANDARD
100
AcDb2LineAngularDimension
 13
55.0473632018684
 23
320.8866265503875
 33
0.0
 14
73.69319117954638
 24
275.8866265503875
 34
0.0
 15
55.0473632018684
 25
267.2564817866359
 35
0.0
 16
64.50664393174043
 26
249.0580751292199
 36
0.0
1001
ACAD
1000
DSTYLE
1002
{
1070
   271
1070
     1
1070
   271
1070
     1
1070
   271
1070
     1
1070
   271
1070
     1
1070
   271
1070
     1
1070
   271
1070
     1
1070
   271
1070
     1
1002
}
  0
LINE
  5
B6
102
{ACAD_REACTORS
330
102
102
}
330
2
100
AcDbEntity
  8
0
100
AcDbLine
 10
179.6156171734201
 20
142.0343643277383
 30
0.0
 11
179.6156171734201
 21
59.03436432773833
 31
0.0
  0
LINE
  5
B7
330
2
100
AcDbEntity
  8
0
100
AcDbLine
 10
181.6156171734182
 20
145.5343643277383
 30
0.0
 11
181.6156171734182
 21
55.53436432773833
 31
0.0
  0
LINE
  5
B8
330
2
100
AcDbEntity
  8
0
100
AcDbLine
 10
188.2156171734213
 20
145.5343643277383
 30
0.0
 11
188.2156171734213
 21
55.53436432773833
 31
0.0
  0
DIMENSION
  5
B9
330
2
100
AcDbEntity
  8
0
100
AcDbDimension
  2
*D27
 10
366.5010002106118
 20
54.71417761670091
 30
0.0
 11
366.5010002106118
 21
100.7141776167027
 31
0.0
 70
   160
  3
STANDARD
100
AcDbAlignedDimension
 13
344.6145393740644
 23
146.7141776167036
 33
0.0
 14
344.6145393740644
 24
54.71417761670091
 34
0.0
 50
90.0
100
AcDbRotatedDimension
  0
LINE
  5
C6
330
2
100
AcDbEntity
  8
0
100
AcDbLine
 10
346.614539374068
 20
143.7141776167027
 30
0.0
 11
346.614539374068
 21
57.71417761670091
 31
0.0
  0
LINE
  5
C7
330
2
100
AcDbEntity
  8
0
100
AcDbLine
 10
287.9556518811068
 20
146.7141776167018
 30
0.0
 11
287.9556518811068
 21
54.71417761670091
 31
0.0
  0
ARC
  5
C8
330
2
100
AcDbEntity
  8
0
 48
0.6
100
AcDbCircle
 10
51.16221615784525
 20
100.5343643277383
 30
0.0
 40
36.81561599999999
100
AcDbArc
 50
206.3656725032168
 51
243.634327496789
  0
CIRCLE
  5
C9
330
2
100
AcDbEntity
  8
0
 48
0.6
100
AcDbCircle
 10
51.23768047202975
 20
100.5343643277383
 30
0.0
 40
43.5
  0
CIRCLE
  5
CA
330
2
100
AcDbEntity
  8
0
 48
0.6
100
AcDbCircle
 10
51.23768047202975
 20
100.5343643277383
 30
0.0
 40
42.00000000000005
  0
INSERT
  5
CB
330
2
100
AcDbEntity
  8
0
100
AcDbBlockReference
  2
4
 10
51.23768047202975
 20
100.5343643277383
 30
0.0
  0
INSERT
  5
EC
330
2
100
AcDbEntity
  8
0
100
AcDbBlockReference
  2
2
 10
51.23768047202975
 20
100.5343643277383
 30
0.0
  0
ARC
  5
FC
330
2
100
AcDbEntity
  8
0
 48
0.6
100
AcDbCircle
 10
51.16221615784525
 20
100.5343643277383
 30
0.0
 40
36.81561599999999
100
AcDbArc
 50
296.3656725032108
 51
333.6343274967831
  0
LINE
  5
FD
330
2
100
AcDbEntity
  8
CL
 48
0.6
100
AcDbLine
 10
51.23768047202975
 20
46.90421956398495
 30
0.0
 11
51.23768047202975
 21
154.1645090914907
 31
0.0
  0
CIRCLE
  5
FE
330
2
100
AcDbEntity
  8
0
 48
0.6
100
AcDbCircle
 10
51.48495472315153
 20
100.5343643277383
 30
0.0
 40
20.0
  0
LINE
  5
FF
330
2
100
AcDbEntity
  8
CL
 48
0.6
100
AcDbLine
 10
69.87729077882068
 20
55.53436432773833
 30
0.0
 11
51.23768047202975
 21
100.5343643277383
 31
0.0
  0
DIMENSION
  5
100
102
{ACAD_XDICTIONARY
360
101
102
}
102
{ACAD_REACTORS
330
102
102
}
330
2
100
AcDbEntity
  8
0
100
AcDbDimension
  2
*D26
 10
114.2928863265006
 20
59.03436432773835
 30
0.0
 11
114.2928863265005
 21
101.8993209604887
 31
0.0
 70
   160
  1
\A1;{\f??|b0|i0|c0|p49;%%C}<>{\f??|b0|i0|c0|p49;\H0.7x;\S+0^ -0.035;\H1.429x;(h}7{\f??|b0|i0|c0|p49;)}
  3
STANDARD
100
AcDbAlignedDimension
 13
179.6156171734201
 23
142.0343643277383
 33
0.0
 14
179.6156171734201
 24
59.03436432773833
 34
0.0
 50
90.0
100
AcDbRotatedDimension
  0
DIMENSION
  5
10F
330
2
100
AcDbEntity
  8
0
100
AcDbDimension
  2
*D25
 10
51.23146280114088
 20
154.1645090914907
 30
0.0
 11
64.82607212225905
 21
32.21070329897769
 31
0.0
 70
    34
  1
<>
  3
STANDARD
100
AcDb2LineAngularDimension
 13
51.23146280114088
 23
100.5343643277383
 33
0.0
 14
69.87729077882068
 24
55.53436432773833
 34
0.0
 15
51.23146280114088
 25
46.90421956398495
 35
0.0
 16
60.69074353101363
 26
28.70581290657156
 36
0.0
1001
ACAD
1000
DSTYLE
1002
{
1070
   271
1070
     1
1070
   271
1070
     1
1070
   271
1070
     1
1070
   271
1070
     1
1070
   271
1070
     1
1070
   271
1070
     1
1070
   271
1070
     1
1002
}
  0
MTEXT
  5
11E
330
2
100
AcDbEntity
  8
DIM
100
AcDbMText
 10
209.0272529157991
 20
5.27267598212893
 30
0.0
 40
3.5
 41
0.0
 71
     5
 72
     1
  1
UL Style 3271, AWG20
1001
ACAD
1000
MTEXTBEGIN
1070
    73
1070
     1
1070
    44
1040
1.0
1070
    74
1070
     0
1000
MTEXTEND
  0
LEADER
  5
120
330
2
100
AcDbEntity
  8
0
100
AcDbLeader
  3
STANDARD
 76
     2
 10
196.107038173417
 20
38.91488632773689
 30
0.0
 10
171.2869943546284
 20
9.022469710919722
 30
0.0
1001
ACAD
1000
DSTYLE
1002
{
1070
     5
1000

1070
   342
1005
0
1002
}
  0
MTEXT
  5
121
330
2
100
AcDbEntity
  8
DIM
100
AcDbMText
 10
216.6788942728899
 20
12.6435418967012
 30
0.0
 40
3.5
 41
0.0
 71
     5
 72
     1
  1
MOTOR LEAD WIRE 300mm
1001
ACAD
1000
MTEXTBEGIN
1070
    73
1070
     1
1070
    44
1040
1.0
1070
    74
1070
     0
1000
MTEXTEND
  0
LINE
  5
122
330
2
100
AcDbEntity
  8
0
 62
   123
100
AcDbLine
 10
171.2869943546284
 20
9.022469710919722
 30
0.0
 11
254.7401972779734
 21
9.022469710919722
 31
0.0
  0
LINE
  5
123
330
2
100
AcDbEntity
  8
0
100
AcDbLine
 10
181.6156171734182
 20
55.53436432773833
 30
0.0
 11
188.2156171734213
 21
55.53436432773833
 31
0.0
  0
LINE
  5
124
330
2
100
AcDbEntity
  8
0
100
AcDbLine
 10
181.6156171734182
 20
59.03436432773833
 30
0.0
 11
179.6156171734201
 21
59.03436432773833
 31
0.0
  0
ARC
  5
125
330
2
100
AcDbEntity
  8
0
 48
0.6
100
AcDbCircle
 10
84.69467315196107
 20
40.81494097627819
 30
0.0
 40
0.7499080000000001
100
AcDbArc
 50
85.16289500000455
 51
205.3344229999993
  0
ARC
  5
126
330
2
100
AcDbEntity
  8
0
100
AcDbCircle
 10
103.5492781519624
 20
69.844916976278
 30
0.0
 40
39.15579199999999
100
AcDbArc
 50
201.4369589999971
 51
235.2486590000054
  0
ARC
  5
127
330
2
100
AcDbEntity
  8
0
 48
0.6
100
AcDbCircle
 10
103.5492781519624
 20
69.844916976278
 30
0.0
 40
33.95579199999999
100
AcDbArc
 50
204.9259499999998
 51
236.3981230000006
  0
ARC
  5
128
330
2
100
AcDbEntity
  8
0
 48
0.6
100
AcDbCircle
 10
103.8018355035774
 20
70.12540792886375
 30
0.0
 40
36.92930121396881
100
AcDbArc
 50
203.2726782588581
 51
236.2329275593634
  0
ARC
  5
129
330
2
100
AcDbEntity
  8
0
100
AcDbCircle
 10
87.0777011519649
 20
37.93797597627781
 30
0.0
 40
0.7499080000000001
100
AcDbArc
 50
92.01298199999559
 51
212.184510000001
  0
ARC
  5
12A
330
2
100
AcDbEntity
  8
0
100
AcDbCircle
 10
85.80835015196134
 20
37.13910297627808
 30
0.0
 40
0.7499080000000001
100
AcDbArc
 50
272.0129819999954
 51
32.18451000000101
  0
ARC
  5
12B
330
2
100
AcDbEntity
  8
0
 48
0.6
100
AcDbCircle
 10
103.5492781519624
 20
69.844916976278
 30
0.0
 40
35.255792
100
AcDbArc
 50
236.3564240000014
 51
242.0987460000029
  0
ARC
  5
12C
330
2
100
AcDbEntity
  8
0
 48
0.6
100
AcDbCircle
 10
83.33910115195886
 20
40.17316897627643
 30
0.0
 40
0.7499080000000001
100
AcDbArc
 50
265.1628950000044
 51
25.33442299999946
  0
ARC
  5
12D
330
2
100
AcDbEntity
  8
0
100
AcDbCircle
 10
81.29308415195827
 20
38.42044097627786
 30
0.0
 40
0.7499080000000001
100
AcDbArc
 50
265.1628950000044
 51
25.33442299999946
  0
ARC
  5
12E
330
2
100
AcDbEntity
  8
0
 48
0.6
100
AcDbCircle
 10
82.64865715195901
 20
39.06221397627814
 30
0.0
 40
0.7499080000000001
100
AcDbArc
 50
85.16289500000455
 51
205.3344229999993
  0
ARC
  5
12F
330
2
100
AcDbEntity
  8
0
100
AcDbCircle
 10
103.5492781519624
 20
69.844916976278
 30
0.0
 40
37.855792
100
AcDbArc
 50
235.2486590000054
 51
242.0987460000029
  0
LINE
  5
130
330
2
100
AcDbEntity
  8
0
  6
CENTER
 62
     1
 48
0.6
100
AcDbLine
 10
91.83297116068388
 20
60.33463213801496
 30
0.0
 11
84.36875890540887
 21
67.71945003747532
 31
0.0
  0
ARC
  5
132
330
2
100
AcDbEntity
  8
0
  6
CENTER
 62
     1
 48
0.6
100
AcDbCircle
 10
51.16212917054872
 20
100.6266284198536
 30
0.0
 40
52.0
100
AcDbArc
 50
309.4771085798279
 51
321.0513680242216
  0
LINE
  5
133
330
2
100
AcDbEntity
  8
0
 48
0.6
100
AcDbLine
 10
72.76257629187966
 20
55.53436432773833
 30
0.0
 11
67.02152606534946
 21
55.53436432773833
 31
0.0
  0
ARC
  5
134
330
2
100
AcDbEntity
  8
0
 48
0.6
100
AcDbCircle
 10
39.95692711778156
 20
65.46541682445331
 30
0.0
 40
3.067967999999998
100
AcDbArc
 50
72.28019184719491
 51
128.0513255193868
  0
ARC
  5
135
330
2
100
AcDbEntity
  8
0
 48
0.6
100
AcDbCircle
 10
36.17493786974228
 20
70.29721441166839
 30
0.0
 40
3.067967999999998
100
AcDbArc
 50
243.634327496789
 51
308.0513255193868
  0
ARC
  5
136
330
2
100
AcDbEntity
  8
0
 48
0.6
100
AcDbCircle
 10
62.36750519791167
 20
65.46541682445331
 30
0.0
 40
3.067967999999998
100
AcDbArc
 50
51.94867448061305
 51
107.719808152805
  0
ARC
  5
137
330
2
100
AcDbEntity
  8
0
 48
0.6
100
AcDbCircle
 10
66.14949444594822
 20
70.29721441166839
 30
0.0
 40
3.067967999999998
100
AcDbArc
 50
231.948674480613
 51
296.3656725032108
  0
ARC
  5
138
330
2
100
AcDbEntity
  8
0
 48
0.6
100
AcDbCircle
 10
51.16221615784525
 20
100.5343643277383
 30
0.0
 40
33.74764799999999
100
AcDbArc
 50
252.2801918471949
 51
287.7198081528051
  0
CIRCLE
  5
139
330
2
100
AcDbEntity
  8
0
 48
0.6
100
AcDbCircle
 10
88.10086503304864
 20
64.02704108774469
 30
0.0
 40
3.25
  0
LEADER
  5
13A
330
2
100
AcDbEntity
  8
0
 48
0.6
100
AcDbLeader
  3
STANDARD
 76
     2
 10
301.9789458349141
 20
37.90575160545358
 30
0.0
 10
276.9433590015251
 20
2.913935940608098
 30
0.0
1001
ACAD
1000
DSTYLE
1002
{
1070
     5
1000

1070
   342
1005
0
1002
}
  0
MTEXT
  5
13B
330
2
100
AcDbEntity
  8
DIM
100
AcDbMText
 10
317.1281755446507
 20
-1.65801848529918
 30
0.0
 40
3.5
 41
0.0
 71
     5
 72
     1
  1
UL Style 3266 , AWG24
1001
ACAD
1000
MTEXTBEGIN
1070
    73
1070
     1
1070
    44
1040
1.0
1070
    74
1070
     0
1000
MTEXTEND
  0
MTEXT
  5
13C
330
2
100
AcDbEntity
  8
DIM
100
AcDbMText
 10
321.9646123683396
 20
7.442908988435192
 30
0.0
 40
3.5
 41
0.0
 71
     5
 72
     1
  1
BRAKE LEAD WIRE 300mm
1001
ACAD
1000
MTEXTBEGIN
1070
    73
1070
     1
1070
    44
1040
1.0
1070
    74
1070
     0
1000
MTEXTEND
  0
LINE
  5
13D
330
2
100
AcDbEntity
  8
0
 62
   123
 48
0.6
100
AcDbLine
 10
276.9433590015251
 20
2.913935940608098
 30
0.0
 11
361.2648877878564
 21
2.913935940608098
 31
0.0
  0
LINE
  5
13E
330
2
100
AcDbEntity
  8
0
100
AcDbLine
 10
287.9556518811068
 20
55.53436432773833
 30
0.0
 11
188.2156171734213
 21
55.53436432773833
 31
0.0
  0
ARC
  5
13F
330
2
100
AcDbEntity
  8
0
100
AcDbCircle
 10
229.9183391734177
 20
54.44571832773817
 30
0.0
 40
36.555792
100
AcDbArc
 50
179.8610604128478
 51
213.8176429999978
  0
ARC
  5
140
330
2
100
AcDbEntity
  8
0
100
AcDbCircle
 10
229.9183391734177
 20
54.44571832773817
 30
0.0
 40
33.95579199999999
100
AcDbArc
 50
179.8504230000004
 51
213.8981229999992
  0
ARC
  5
141
330
2
100
AcDbEntity
  8
0
100
AcDbCircle
 10
229.9183391734177
 20
54.44571832773817
 30
0.0
 40
39.15579199999999
100
AcDbArc
 50
179.8702869999971
 51
212.7486590000019
  0
ARC
  5
142
330
2
100
AcDbEntity
  8
0
100
AcDbCircle
 10
201.0118861734199
 20
31.01864532773652
 30
0.0
 40
0.7499080000000001
100
AcDbArc
 50
249.5129820000002
 51
9.684509999999278
  0
ARC
  5
143
330
2
100
AcDbEntity
  8
0
100
AcDbCircle
 10
229.9183391734177
 20
54.44571832773817
 30
0.0
 40
35.255792
100
AcDbArc
 50
213.8564239999994
 51
219.5987459999966
  0
ARC
  5
144
330
2
100
AcDbEntity
  8
0
100
AcDbCircle
 10
201.3896651734166
 20
34.84086332773768
 30
0.0
 40
0.7499080000000001
100
AcDbArc
 50
62.66289500000094
 51
182.8344229999968
  0
ARC
  5
145
330
2
100
AcDbEntity
  8
0
100
AcDbCircle
 10
199.8916831734213
 20
34.76669732773825
 30
0.0
 40
0.7499080000000001
100
AcDbArc
 50
242.6628950000009
 51
2.834422999996808
  0
ARC
  5
146
330
2
100
AcDbEntity
  8
0
100
AcDbCircle
 10
229.9183391734177
 20
54.44571832773817
 30
0.0
 40
37.855792
100
AcDbArc
 50
212.7486590000019
 51
219.5987459999966
  0
ARC
  5
147
330
2
100
AcDbEntity
  8
0
100
AcDbCircle
 10
198.8286521734198
 20
34.00453032773657
 30
0.0
 40
0.7499080000000001
100
AcDbArc
 50
62.66289500000094
 51
182.8344229999968
  0
ARC
  5
148
330
2
100
AcDbEntity
  8
0
100
AcDbCircle
 10
197.3306711734203
 20
33.93036432773806
 30
0.0
 40
0.7499080000000001
100
AcDbArc
 50
242.6628950000009
 51
2.834422999996808
  0
ARC
  5
149
330
2
100
AcDbEntity
  8
0
100
AcDbCircle
 10
202.4903281734196
 20
31.27094832773764
 30
0.0
 40
0.7499080000000001
100
AcDbArc
 50
69.51298200000024
 51
189.6845099999992
  0
ARC
  5
14A
330
2
100
AcDbEntity
  8
0
100
AcDbCircle
 10
198.1156171734173
 20
55.03436432773833
 30
0.0
 40
0.5
100
AcDbArc
 50
270.0
 51
0.0
  0
LINE
  5
14B
330
2
100
AcDbEntity
  8
0
100
AcDbLine
 10
198.6156171734173
 20
55.53436432773833
 30
0.0
 11
198.6156171734173
 21
55.03436432773833
 31
0.0
  0
LINE
  5
14C
330
2
100
AcDbEntity
  8
0
100
AcDbLine
 10
188.2156171734213
 20
64.63562698620808
 30
0.0
 11
189.1156171734182
 21
64.63562698620808
 31
0.0
  0
LINE
  5
14D
330
2
100
AcDbEntity
  8
0
100
AcDbLine
 10
189.1156171734182
 20
64.63562698620808
 30
0.0
 11
189.1156171734182
 21
56.93562698620735
 31
0.0
  0
ARC
  5
14E
330
2
100
AcDbEntity
  8
0
100
AcDbCircle
 10
189.1156171734182
 20
55.03436432773833
 30
0.0
 40
0.5
100
AcDbArc
 50
180.0
 51
270.0
  0
LINE
  5
14F
330
2
100
AcDbEntity
  8
0
100
AcDbLine
 10
188.6156171734173
 20
55.53436432773833
 30
0.0
 11
188.6156171734173
 21
55.03436432773833
 31
0.0
  0
LINE
  5
150
330
2
100
AcDbEntity
  8
0
100
AcDbLine
 10
188.2156171734213
 20
56.93562698620735
 30
0.0
 11
189.1156171734182
 21
56.93562698620735
 31
0.0
  0
LINE
  5
151
330
2
100
AcDbEntity
  8
0
100
AcDbLine
 10
198.1156171734173
 20
54.53436432773833
 30
0.0
 11
189.1156171734182
 21
54.53436432773833
 31
0.0
  0
ARC
  5
152
330
2
100
AcDbEntity
  8
0
 48
0.6
100
AcDbCircle
 10
335.0569919259541
 20
53.62553161670075
 30
0.0
 40
39.15579199999999
100
AcDbArc
 50
179.8702869999971
 51
212.7486590000019
  0
ARC
  5
153
330
2
100
AcDbEntity
  8
0
 48
0.6
100
AcDbCircle
 10
335.0569919259541
 20
53.62553161670075
 30
0.0
 40
36.555792
100
AcDbArc
 50
179.8610604128478
 51
213.8176429999978
  0
ARC
  5
154
330
2
100
AcDbEntity
  8
0
 48
0.6
100
AcDbCircle
 10
335.0569919259541
 20
53.62553161670075
 30
0.0
 40
33.95579199999999
100
AcDbArc
 50
179.8504230000004
 51
213.8981229999992
  0
ARC
  5
155
330
2
100
AcDbEntity
  8
0
 48
0.6
100
AcDbCircle
 10
305.0303359259578
 20
33.94651061670174
 30
0.0
 40
0.7499080000000001
100
AcDbArc
 50
242.6628950000009
 51
2.834422999996808
  0
ARC
  5
156
330
2
100
AcDbEntity
  8
0
 48
0.6
100
AcDbCircle
 10
306.5283179259576
 20
34.02067661670116
 30
0.0
 40
0.7499080000000001
100
AcDbArc
 50
62.66289500000094
 51
182.8344229999968
  0
ARC
  5
157
330
2
100
AcDbEntity
  8
0
 48
0.6
100
AcDbCircle
 10
302.4693239259577
 20
33.11017761670064
 30
0.0
 40
0.7499080000000001
100
AcDbArc
 50
242.6628950000009
 51
2.834422999996808
  0
ARC
  5
158
330
2
100
AcDbEntity
  8
0
 48
0.6
100
AcDbCircle
 10
303.9673049259554
 20
33.18434361670006
 30
0.0
 40
0.7499080000000001
100
AcDbArc
 50
62.66289500000094
 51
182.8344229999968
  0
LINE
  5
159
330
2
100
AcDbEntity
  8
0
 48
0.6
100
AcDbLine
 10
303.2542699259574
 20
53.71417761670182
 30
0.0
 11
294.2542699259575
 21
53.71417761670182
 31
0.0
  0
ARC
  5
15A
330
2
100
AcDbEntity
  8
0
 48
0.6
100
AcDbCircle
 10
294.2542699259575
 20
54.21417761670091
 30
0.0
 40
0.5
100
AcDbArc
 50
180.0
 51
270.0
  0
LINE
  5
15B
330
2
100
AcDbEntity
  8
0
 48
0.6
100
AcDbLine
 10
293.7542699259565
 20
54.71417761670091
 30
0.0
 11
293.7542699259565
 21
54.21417761670091
 31
0.0
  0
ARC
  5
15C
330
2
100
AcDbEntity
  8
0
 48
0.6
100
AcDbCircle
 10
303.2542699259574
 20
54.21417761670091
 30
0.0
 40
0.5
100
AcDbArc
 50
270.0
 51
0.0
  0
LINE
  5
15D
330
2
100
AcDbEntity
  8
0
 48
0.6
100
AcDbLine
 10
303.7542699259565
 20
54.71417761670091
 30
0.0
 11
303.7542699259565
 21
54.21417761670091
 31
0.0
  0
ARC
  5
15E
330
2
100
AcDbEntity
  8
0
100
AcDbCircle
 10
343.614539374068
 20
57.71417761670091
 30
0.0
 40
3.0
100
AcDbArc
 50
270.0
 51
359.9999999999997
  0
LINE
  5
15F
330
2
100
AcDbEntity
  8
0
100
AcDbLine
 10
343.614539374068
 20
54.71417761670091
 30
0.0
 11
287.9556518811068
 21
54.71417761670091
 31
0.0
  0
LINE
  5
160
330
2
100
AcDbEntity
  8
0
100
AcDbLine
 10
287.9556518811068
 20
77.44404866469813
 30
0.0
 11
346.614539374068
 21
77.44404866469813
 31
0.0
  0
DIMENSION
  5
161
330
2
100
AcDbEntity
  8
0
100
AcDbDimension
  2
*D30
 10
346.614539374068
 20
167.9286607310841
 30
0.0
 11
257.1150782737431
 21
167.9286607310841
 31
0.0
 70
   160
  3
STANDARD
100
AcDbAlignedDimension
 13
181.6156171734182
 23
145.5343643277383
 33
0.0
 14
346.614539374068
 24
143.7141776167027
 34
0.0
100
AcDbRotatedDimension
  0
DIMENSION
  5
16E
102
{ACAD_XDICTIONARY
360
16F
102
}
102
{ACAD_REACTORS
330
170
102
}
330
2
100
AcDbEntity
  8
0
100
AcDbDimension
  2
*D29
 10
189.1156171734182
 20
158.1670178919875
 30
0.0
 11
185.3656171734182
 21
158.1670178919875
 31
0.0
 70
   160
  3
STANDARD
100
AcDbAlignedDimension
 13
181.6156171734182
 23
145.7426976610713
 33
0.0
 14
189.1156171734182
 24
144.1331016692656
 34
0.0
100
AcDbRotatedDimension
  0
DIMENSION
  5
17D
330
2
100
AcDbEntity
  8
0
100
AcDbDimension
  2
*D28
 10
181.6156171734182
 20
158.1670178919875
 30
0.0
 11
170.6156171734201
 21
158.1670178919875
 31
0.0
 70
   160
  3
STANDARD
100
AcDbAlignedDimension
 13
179.6156171734201
 23
142.0343643277383
 33
0.0
 14
181.6156171734182
 24
145.5343643277383
 34
0.0
100
AcDbRotatedDimension
  0
LINE
  5
18C
330
2
100
AcDbEntity
  8
0
100
AcDbLine
 10
181.6156171734182
 20
145.5343643277383
 30
0.0
 11
188.2156171734213
 21
145.5343643277383
 31
0.0
  0
LINE
  5
18D
330
2
100
AcDbEntity
  8
CL
 48
0.6
100
AcDbLine
 10
354.4948950658108
 20
100.5343643277383
 30
0.0
 11
141.7418125851809
 21
100.5343643277383
 31
0.0
  0
LINE
  5
18E
330
2
100
AcDbEntity
  8
0
 62
   123
100
AcDbLine
 10
151.7428213887542
 20
229.3747319335689
 30
0.0
 11
235.1960243120993
 21
229.3747319335689
 31
0.0
  0
ARC
  5
18F
330
2
100
AcDbEntity
  8
0
100
AcDbCircle
 10
182.9461552075463
 20
251.6232105503886
 30
0.0
 40
0.7499080000000001
100
AcDbArc
 50
69.51298200000024
 51
189.6845099999992
  0
ARC
  5
190
330
2
100
AcDbEntity
  8
0
100
AcDbCircle
 10
210.3741662075444
 20
274.7979805503873
 30
0.0
 40
35.255792
100
AcDbArc
 50
213.8564239999994
 51
219.5987459999966
  0
MTEXT
  5
191
330
2
100
AcDbEntity
  8
DIM
100
AcDbMText
 10
197.1347213070157
 20
232.9958041193513
 30
0.0
 40
3.5
 41
0.0
 71
     5
 72
     1
  1
MOTOR LEAD WIRE 300mm
1001
ACAD
1000
MTEXTBEGIN
1070
    73
1070
     1
1070
    44
1040
1.0
1070
    74
1070
     0
1000
MTEXTEND
  0
MTEXT
  5
192
330
2
100
AcDbEntity
  8
DIM
100
AcDbMText
 10
189.483079949925
 20
225.624938204779
 30
0.0
 40
3.5
 41
0.0
 71
     5
 72
     1
  1
UL Style 3271, AWG20
1001
ACAD
1000
MTEXTBEGIN
1070
    73
1070
     1
1070
    44
1040
1.0
1070
    74
1070
     0
1000
MTEXTEND
  0
DIMENSION
  5
193
330
2
100
AcDbEntity
  8
0
100
AcDbDimension
  2
*D36
 10
181.6156171734182
 20
167.9286607310841
 30
0.0
 11
171.1156171734173
 21
167.9286607310841
 31
0.0
 70
   160
  3
STANDARD
100
AcDbAlignedDimension
 13
160.6156171734173
 23
105.1843643277379
 33
0.0
 14
181.6156171734182
 24
145.7426976610713
 34
0.0
100
AcDbRotatedDimension
  0
LINE
  5
1A0
330
2
100
AcDbEntity
  8
0
100
AcDbLine
 10
181.6156171734182
 20
142.0343643277383
 30
0.0
 11
179.6156171734201
 21
142.0343643277383
 31
0.0
  0
LINE
  5
1A1
330
2
100
AcDbEntity
  8
0
100
AcDbLine
 10
174.6156171734164
 20
106.5343643277383
 30
0.0
 11
174.6156171734164
 21
105.5343643277383
 31
0.0
  0
LINE
  5
1A2
102
{ACAD_REACTORS
330
1A8
330
1F6
102
}
330
2
100
AcDbEntity
  8
CL
  6
BYBLOCK
 62
     0
100
AcDbLine
 10
179.6156171734201
 20
106.5343643277383
 30
0.0
 11
174.6156171734164
 21
106.5343643277383
 31
0.0
  0
LINE
  5
1A3
330
2
100
AcDbEntity
  8
0
100
AcDbLine
 10
144.6156171734173
 20
105.5343643277383
 30
0.0
 11
144.6156171734173
 21
94.53436432773832
 31
0.0
  0
LINE
  5
1A4
102
{ACAD_REACTORS
330
1A8
330
1E7
102
}
330
2
100
AcDbEntity
  8
CL
  6
BYBLOCK
 62
     0
100
AcDbLine
 10
174.6156171734164
 20
105.5343643277383
 30
0.0
 11
144.6156171734173
 21
105.5343643277383
 31
0.0
  0
LINE
  5
1A5
102
{ACAD_REACTORS
330
1E7
330
1F6
102
}
330
2
100
AcDbEntity
  8
CL
  6
BYBLOCK
 62
     0
100
AcDbLine
 10
179.6156171734201
 20
94.53436432773832
 30
0.0
 11
144.6156171734173
 21
94.53436432773832
 31
0.0
  0
DIMENSION
  5
1A6
102
{ACAD_XDICTIONARY
360
1A7
102
}
102
{ACAD_REACTORS
330
1A8
102
}
330
2
100
AcDbEntity
  8
0
100
AcDbDimension
  2
*D35
 10
174.6156171734164
 20
131.1316208150783
 30
0.0
 11
160.8743015379177
 21
131.1316208150783
 31
0.0
 70
   160
  3
STANDARD
100
AcDbAlignedDimension
 13
144.6156171734173
 23
105.5343643277383
 33
0.0
 14
174.6156171734164
 24
106.5343643277383
 34
0.0
100
AcDbRotatedDimension
  0
DIMENSION
  5
1B5
330
2
100
AcDbEntity
  8
0
100
AcDbDimension
  2
*D34
 10
97.23768047202975
 20
175.3896502705565
 30
0.0
 11
51.23768047202611
 21
175.3896502705565
 31
0.0
 70
   160
  3
STANDARD
100
AcDbAlignedDimension
 13
5.237680472026113
 23
129.5343643277383
 33
0.0
 14
97.23768047202975
 24
129.5343643277383
 34
0.0
100
AcDbRotatedDimension
  0
DIMENSION
  5
1C2
330
2
100
AcDbEntity
  8
0
100
AcDbDimension
  2
*D33
 10
96.23768047202611
 20
163.9989877788329
 30
0.0
 11
51.23768047202611
 21
163.9989877788329
 31
0.0
 70
   160
  3
STANDARD
100
AcDbAlignedDimension
 13
6.237680472027932
 23
140.4915705689409
 33
0.0
 14
96.23768047202611
 24
140.4915705689409
 34
0.0
100
AcDbRotatedDimension
  0
LINE
  5
1CF
330
2
100
AcDbEntity
  8
CL
 48
0.6
100
AcDbLine
 10
2.23167850874961
 20
100.5343643277383
 30
0.0
 11
100.7382309375498
 21
100.5343643277383
 31
0.0
  0
ARC
  5
1D0
330
2
100
AcDbEntity
  8
0
 48
0.6
100
AcDbCircle
 10
51.16221615784525
 20
100.5343643277383
 30
0.0
 40
36.81561599999999
100
AcDbArc
 50
116.3656725032109
 51
153.634327496783
  0
ARC
  5
1D1
330
2
100
AcDbEntity
  8
0
 48
0.6
100
AcDbCircle
 10
51.16221615784525
 20
100.5343643277383
 30
0.0
 40
33.74764799999999
100
AcDbArc
 50
162.2801918472015
 51
197.7198081527984
  0
ARC
  5
1D2
330
2
100
AcDbEntity
  8
0
 48
0.6
100
AcDbCircle
 10
20.92506624177713
 20
115.5216426158403
 30
0.0
 40
3.067967999999998
100
AcDbArc
 50
153.634327496783
 51
218.0513255193776
  0
ARC
  5
1D3
330
2
100
AcDbEntity
  8
0
 48
0.6
100
AcDbCircle
 10
16.09326865455841
 20
111.7396533677992
 30
0.0
 40
3.067967999999998
100
AcDbArc
 50
342.2801918472014
 51
38.05132551937779
  0
ARC
  5
1D4
330
2
100
AcDbEntity
  8
0
 48
0.6
100
AcDbCircle
 10
20.92506624177713
 20
85.54708603963446
 30
0.0
 40
3.067967999999998
100
AcDbArc
 50
141.9486744806222
 51
206.3656725032168
  0
ARC
  5
1D5
330
2
100
AcDbEntity
  8
0
 48
0.6
100
AcDbCircle
 10
16.09326865455841
 20
89.32907528767282
 30
0.0
 40
3.067967999999998
100
AcDbArc
 50
321.9486744806221
 51
17.71980815279839
  0
ARC
  5
1D6
330
2
100
AcDbEntity
  8
0
 48
0.6
100
AcDbCircle
 10
51.16221615784525
 20
100.5343643277383
 30
0.0
 40
36.81561599999999
100
AcDbArc
 50
26.36567250321681
 51
63.63432749678904
  0
CIRCLE
  5
1D7
330
2
100
AcDbEntity
  8
0
 48
0.6
100
AcDbCircle
 10
51.23768047202975
 20
100.5343643277383
 30
0.0
 40
6.0
  0
ARC
  5
1D8
330
2
100
AcDbEntity
  8
0
 48
0.6
100
AcDbCircle
 10
39.95692711778156
 20
135.6033118310206
 30
0.0
 40
3.067967999999998
100
AcDbArc
 50
231.948674480613
 51
287.7198081528051
  0
ARC
  5
1D9
330
2
100
AcDbEntity
  8
0
 48
0.6
100
AcDbCircle
 10
36.17493786974228
 20
130.7715142438064
 30
0.0
 40
3.067967999999998
100
AcDbArc
 50
51.94867448061305
 51
116.3656725032109
  0
ARC
  5
1DA
330
2
100
AcDbEntity
  8
0
 48
0.6
100
AcDbCircle
 10
62.36750519791167
 20
135.6033118310206
 30
0.0
 40
3.067967999999998
100
AcDbArc
 50
252.2801918471949
 51
308.0513255193868
  0
ARC
  5
1DB
330
2
100
AcDbEntity
  8
0
 48
0.6
100
AcDbCircle
 10
66.14949444594822
 20
130.7715142438064
 30
0.0
 40
3.067967999999998
100
AcDbArc
 50
63.63432749678904
 51
128.0513255193868
  0
ARC
  5
1DC
330
2
100
AcDbEntity
  8
0
 48
0.6
100
AcDbCircle
 10
51.16221615784525
 20
100.5343643277383
 30
0.0
 40
33.74764799999999
100
AcDbArc
 50
72.28019184719491
 51
107.719808152805
  0
ARC
  5
1DD
330
2
100
AcDbEntity
  8
0
 48
0.6
100
AcDbCircle
 10
51.16221615784525
 20
100.5343643277383
 30
0.0
 40
33.74764799999999
100
AcDbArc
 50
342.2801918472014
 51
17.71980815279839
  0
ARC
  5
1DE
330
2
100
AcDbEntity
  8
0
 48
0.6
100
AcDbCircle
 10
81.39936607391792
 20
115.5216426158403
 30
0.0
 40
3.067967999999998
100
AcDbArc
 50
321.9486744806221
 51
26.36567250321681
  0
ARC
  5
1DF
330
2
100
AcDbEntity
  8
0
 48
0.6
100
AcDbCircle
 10
86.23116366113118
 20
111.7396533677992
 30
0.0
 40
3.067967999999998
100
AcDbArc
 50
141.9486744806222
 51
197.7198081527984
  0
ARC
  5
1E0
330
2
100
AcDbEntity
  8
0
 48
0.6
100
AcDbCircle
 10
81.39936607391792
 20
85.54708603963446
 30
0.0
 40
3.067967999999998
100
AcDbArc
 50
333.6343274967831
 51
38.05132551937779
  0
ARC
  5
1E1
330
2
100
AcDbEntity
  8
0
 48
0.6
100
AcDbCircle
 10
86.23116366113118
 20
89.32907528767282
 30
0.0
 40
3.067967999999998
100
AcDbArc
 50
162.2801918472015
 51
218.0513255193776
  0
LWPOLYLINE
  5
1E2
330
2
100
AcDbEntity
  8
0
 62
     3
100
AcDbPolyline
 90
        4
 70
     1
 43
0.0
 10
45.57413981629816
 20
164.8431045110501
 10
48.21443680232642
 20
164.8431045110501
 10
48.21443680232642
 20
167.9119213287513
 10
45.57413981629816
 20
167.9119213287513
  0
LEADER
  5
1E3
330
2
100
AcDbEntity
  8
0
100
AcDbLeader
  3
STANDARD
 73
     0
 75
     1
 40
3.0
 41
26.65178571428571
 76
     3
 10
88.03187366845667
 20
140.4535387805417
 30
0.0
 10
82.48410158393108
 20
153.2941041637013
 30
0.0
 10
79.98410158393108
 20
153.2941041637013
 30
0.0
340
1E4
1001
ACAD
1000
DSTYLE
1002
{
1070
     5
1000

1070
   342
1005
0
1002
}
  0
MTEXT
  5
1E4
102
{ACAD_REACTORS
330
1E3
102
}
330
2
100
AcDbEntity
  8
0
 62
     3
100
AcDbMText
 10
78.98410158393108
 20
154.2941041637013
 30
0.0
 40
3.0
 41
0.0
 71
     9
 72
     1
  1
4-%%C6.5 hole
1001
ACAD
1000
MTEXTBEGIN
1070
    73
1070
     1
1070
    44
1040
1.0
1070
    74
1070
     0
1000
MTEXTEND
  0
DIMENSION
  5
1E5
102
{ACAD_XDICTIONARY
360
1E6
102
}
102
{ACAD_REACTORS
330
1E7
102
}
330
2
100
AcDbEntity
  8
0
100
AcDbDimension
  2
*D32
 10
137.4152519866011
 20
105.5343643277383
 30
0.0
 11
137.4152519866011
 21
100.0343643277365
 31
0.0
 70
   160
  1
<>
  3
STANDARD
100
AcDbAlignedDimension
 13
144.6156171734173
 23
94.53436432773832
 33
0.0
 14
144.6156171734173
 24
105.5343643277383
 34
0.0
 50
90.0
100
AcDbRotatedDimension
  0
DIMENSION
  5
1F4
102
{ACAD_XDICTIONARY
360
1F5
102
}
102
{ACAD_REACTORS
330
1F6
102
}
330
2
100
AcDbEntity
  8
0
100
AcDbDimension
  2
*D31
 10
126.5467711058927
 20
106.5343643277383
 30
0.0
 11
126.5467711058927
 21
100.5343643277383
 31
0.0
 70
   160
  1
\A1;{\f??|b0|i0|c0|p49;%%C}12{\f??|b0|i0|c0|p49;\H0.7x;\S+0^ -0.018;\H1.429x;(h}7{\f??|b0|i0|c0|p49;)}
  3
STANDARD
100
AcDbAlignedDimension
 13
144.6156171734173
 23
94.53436432773832
 33
0.0
 14
174.6156171734164
 24
106.5343643277383
 34
0.0
 50
90.0
100
AcDbRotatedDimension
  0
ARC
  5
203
330
2
100
AcDbEntity
  8
0
100
AcDbCircle
 10
181.8454922075443
 20
255.1931255503887
 30
0.0
 40
0.7499080000000001
100
AcDbArc
 50
62.66289500000094
 51
182.8344229999968
  0
ARC
  5
204
330
2
100
AcDbEntity
  8
0
100
AcDbCircle
 10
177.7864982075461
 20
254.2826265503872
 30
0.0
 40
0.7499080000000001
100
AcDbArc
 50
242.6628950000009
 51
2.834422999996808
  0
ARC
  5
205
330
2
100
AcDbEntity
  8
0
100
AcDbCircle
 10
179.2844792075457
 20
254.3567925503866
 30
0.0
 40
0.7499080000000001
100
AcDbArc
 50
62.66289500000094
 51
182.8344229999968
  0
ARC
  5
206
330
2
100
AcDbEntity
  8
0
100
AcDbCircle
 10
210.3741662075444
 20
274.7979805503873
 30
0.0
 40
37.855792
100
AcDbArc
 50
212.7486590000019
 51
219.5987459999966
  0
ARC
  5
207
330
2
100
AcDbEntity
  8
0
100
AcDbCircle
 10
180.3475102075472
 20
255.1189595503874
 30
0.0
 40
0.7499080000000001
100
AcDbArc
 50
242.6628950000009
 51
2.834422999996808
  0
ARC
  5
208
330
2
100
AcDbEntity
  8
0
100
AcDbCircle
 10
181.4677132075457
 20
251.3709075503866
 30
0.0
 40
0.7499080000000001
100
AcDbArc
 50
249.5129820000002
 51
9.684509999999278
  0
LINE
  5
209
330
2
100
AcDbEntity
  8
0
100
AcDbLine
 10
287.9556518811068
 20
145.5343643277383
 30
0.0
 11
188.2156171734213
 21
145.5343643277383
 31
0.0
  0
LINE
  5
20A
330
2
100
AcDbEntity
  8
0
100
AcDbLine
 10
189.1156171734182
 20
136.4331016692667
 30
0.0
 11
189.1156171734182
 21
144.1331016692656
 31
0.0
  0
LINE
  5
20B
330
2
100
AcDbEntity
  8
0
100
AcDbLine
 10
188.2156171734213
 20
136.4331016692667
 30
0.0
 11
189.1156171734182
 21
136.4331016692667
 31
0.0
  0
LINE
  5
20C
102
{ACAD_REACTORS
330
170
102
}
330
2
100
AcDbEntity
  8
0
100
AcDbLine
 10
188.2156171734213
 20
144.1331016692656
 30
0.0
 11
189.1156171734182
 21
144.1331016692656
 31
0.0
  0
ARC
  5
20D
330
2
100
AcDbEntity
  8
0
100
AcDbCircle
 10
343.614539374068
 20
143.7141776167027
 30
0.0
 40
3.0
100
AcDbArc
 50
359.9999999999997
 51
90.00000000000046
  0
LINE
  5
20E
330
2
100
AcDbEntity
  8
0
100
AcDbLine
 10
287.9556518811068
 20
123.9843065687046
 30
0.0
 11
346.614539374068
 21
123.9843065687046
 31
0.0
  0
LINE
  5
20F
330
2
100
AcDbEntity
  8
0
100
AcDbLine
 10
343.614539374068
 20
146.7141776167036
 30
0.0
 11
287.9556518811068
 21
146.7141776167018
 31
0.0
  0
ARC
  5
210
330
2
100
AcDbEntity
  8
0
 48
0.6
100
AcDbCircle
 10
284.4231319600803
 20
253.5366058393501
 30
0.0
 40
0.7499080000000001
100
AcDbArc
 50
62.66289500000094
 51
182.8344229999968
  0
ARC
  5
211
330
2
100
AcDbEntity
  8
0
 48
0.6
100
AcDbCircle
 10
282.9251509600835
 20
253.4624398393507
 30
0.0
 40
0.7499080000000001
100
AcDbArc
 50
242.6628950000009
 51
2.834422999996808
  0
ARC
  5
212
330
2
100
AcDbEntity
  8
0
 48
0.6
100
AcDbCircle
 10
286.9841449600817
 20
254.3729388393512
 30
0.0
 40
0.7499080000000001
100
AcDbArc
 50
62.66289500000094
 51
182.8344229999968
  0
ARC
  5
213
330
2
100
AcDbEntity
  8
0
 48
0.6
100
AcDbCircle
 10
285.4861629600809
 20
254.2987728393518
 30
0.0
 40
0.7499080000000001
100
AcDbArc
 50
242.6628950000009
 51
2.834422999996808
  0
LINE
  5
214
330
2
100
AcDbEntity
  8
0
 62
   123
 48
0.6
100
AcDbLine
 10
257.39918603565
 20
223.2661981632582
 30
0.0
 11
341.7207148219822
 21
223.2661981632582
 31
0.0
  0
MTEXT
  5
215
330
2
100
AcDbEntity
  8
DIM
100
AcDbMText
 10
302.4204394024636
 20
227.7951712110843
 30
0.0
 40
3.5
 41
0.0
 71
     5
 72
     1
  1
BRAKE LEAD WIRE 300mm
1001
ACAD
1000
MTEXTBEGIN
1070
    73
1070
     1
1070
    44
1040
1.0
1070
    74
1070
     0
1000
MTEXTEND
  0
MTEXT
  5
216
330
2
100
AcDbEntity
  8
DIM
100
AcDbMText
 10
297.5840025787765
 20
218.6942437373509
 30
0.0
 40
3.5
 41
0.0
 71
     5
 72
     1
  1
UL Style 3266 , AWG24
1001
ACAD
1000
MTEXTBEGIN
1070
    73
1070
     1
1070
    44
1040
1.0
1070
    74
1070
     0
1000
MTEXTEND
  0
LINE
  5
217
330
2
100
AcDbEntity
  8
CL
 48
0.6
100
AcDbLine
 10
334.9507220999357
 20
320.8866265503875
 30
0.0
 11
135.7112666357124
 21
320.8866265503875
 31
0.0
  0
DIMENSION
  5
218
330
2
100
AcDbEntity
  8
0
100
AcDbDimension
  2
*D37
 10
327.070366408192
 20
388.2809229537342
 30
0.0
 11
237.5709053078689
 21
388.2809229537342
 31
0.0
 70
   160
  1
<>
  3
STANDARD
100
AcDbAlignedDimension
 13
162.071444207545
 23
365.8866265503875
 33
0.0
 14
327.070366408192
 24
364.0664398393528
 34
0.0
100
AcDbRotatedDimension
  0
LINE
  5
225
330
2
100
AcDbEntity
  8
0
100
AcDbLine
 10
268.4114789152354
 20
275.8866265503875
 30
0.0
 11
168.6714442075472
 21
275.8866265503875
 31
0.0
  0
LINE
  5
226
330
2
100
AcDbEntity
  8
0
100
AcDbLine
 10
268.4114789152354
 20
365.8866265503875
 30
0.0
 11
168.6714442075472
 21
365.8866265503875
 31
0.0
  0
CIRCLE
  5
227
330
2
100
AcDbEntity
  8
0
 48
0.6
100
AcDbCircle
 10
55.05358087275817
 20
320.8866265503875
 30
0.0
 40
42.00000000000005
  0
CIRCLE
  5
228
330
2
100
AcDbEntity
  8
0
 48
0.6
100
AcDbCircle
 10
55.05358087275817
 20
320.8866265503875
 30
0.0
 40
43.5
  0
ARC
  5
229
330
2
100
AcDbEntity
  8
0
 48
0.6
100
AcDbCircle
 10
54.97811655857367
 20
320.8866265503875
 30
0.0
 40
36.81561599999999
100
AcDbArc
 50
206.3656725032168
 51
243.634327496789
  0
ARC
  5
22A
330
2
100
AcDbEntity
  8
0
 48
0.6
100
AcDbCircle
 10
54.97811655857367
 20
320.8866265503875
 30
0.0
 40
36.81561599999999
100
AcDbArc
 50
116.3656725032109
 51
153.634327496783
  0
LINE
  5
22B
330
2
100
AcDbEntity
  8
CL
 48
0.6
100
AcDbLine
 10
5.800304658358982
 20
320.8866265503875
 30
0.0
 11
104.3068570871573
 21
320.8866265503875
 31
0.0
  0
DIMENSION
  5
22C
330
2
100
AcDbEntity
  8
0
100
AcDbDimension
  2
*D43
 10
100.0535808727536
 20
384.351250001484
 30
0.0
 11
55.05358087275363
 21
384.351250001484
 31
0.0
 70
   160
  3
STANDARD
100
AcDbAlignedDimension
 13
10.05358087275817
 23
360.8438327915901
 33
0.0
 14
100.0535808727536
 24
360.8438327915901
 34
0.0
100
AcDbRotatedDimension
  0
DIMENSION
  5
239
330
2
100
AcDbEntity
  8
0
100
AcDbDimension
  2
*D42
 10
101.0535808727581
 20
395.7419124932066
 30
0.0
 11
55.05358087275363
 21
395.7419124932066
 31
0.0
 70
   160
  3
STANDARD
100
AcDbAlignedDimension
 13
9.053580872754537
 23
349.8866265503875
 33
0.0
 14
101.0535808727581
 24
349.8866265503875
 34
0.0
100
AcDbRotatedDimension
  0
INSERT
  5
246
330
2
100
AcDbEntity
  8
0
100
AcDbBlockReference
  2
4
 10
55.05358087275817
 20
320.8866265503875
 30
0.0
  0
INSERT
  5
247
330
2
100
AcDbEntity
  8
0
100
AcDbBlockReference
  2
2
 10
55.30085512387723
 20
320.8866265503875
 30
0.0
  0
ARC
  5
248
330
2
100
AcDbEntity
  8
0
 48
0.6
100
AcDbCircle
 10
19.90916905528865
 20
309.6813375103238
 30
0.0
 40
3.067967999999998
100
AcDbArc
 50
321.9486744806221
 51
17.71980815279839
  0
ARC
  5
249
330
2
100
AcDbEntity
  8
0
 48
0.6
100
AcDbCircle
 10
24.74096664250464
 20
305.8993482622854
 30
0.0
 40
3.067967999999998
100
AcDbArc
 50
141.9486744806222
 51
206.3656725032168
  0
ARC
  5
24A
330
2
100
AcDbEntity
  8
0
 48
0.6
100
AcDbCircle
 10
19.90916905528865
 20
332.0919155904494
 30
0.0
 40
3.067967999999998
100
AcDbArc
 50
342.2801918472014
 51
38.05132551937779
  0
ARC
  5
24B
330
2
100
AcDbEntity
  8
0
 48
0.6
100
AcDbCircle
 10
24.74096664250464
 20
335.8739048384896
 30
0.0
 40
3.067967999999998
100
AcDbArc
 50
153.634327496783
 51
218.0513255193776
  0
ARC
  5
24C
330
2
100
AcDbEntity
  8
0
 48
0.6
100
AcDbCircle
 10
54.97811655857367
 20
320.8866265503875
 30
0.0
 40
33.74764799999999
100
AcDbArc
 50
162.2801918472015
 51
197.7198081527984
  0
DIMENSION
  5
24D
102
{ACAD_XDICTIONARY
360
24E
102
}
102
{ACAD_REACTORS
330
24F
102
}
330
2
100
AcDbEntity
  8
0
100
AcDbDimension
  2
*D41
 10
131.5817684730937
 20
279.3866265503875
 30
0.0
 11
131.5817684730936
 21
322.2515831831387
 31
0.0
 70
   160
  1
\A1;{\f??|b0|i0|c0|p49;%%C}<>{\f??|b0|i0|c0|p49;\H0.7x;\S+0^ -0.035;\H1.429x;(h}7{\f??|b0|i0|c0|p49;)}
  3
STANDARD
100
AcDbAlignedDimension
 13
160.0714442075432
 23
362.3866265503875
 33
0.0
 14
160.0714442075432
 24
279.3866265503875
 34
0.0
 50
90.0
100
AcDbRotatedDimension
  0
LINE
  5
25C
330
2
100
AcDbEntity
  8
0
100
AcDbLine
 10
162.071444207545
 20
275.8866265503875
 30
0.0
 11
168.6714442075472
 21
275.8866265503875
 31
0.0
  0
LINE
  5
25D
330
2
100
AcDbEntity
  8
0
100
AcDbLine
 10
168.6714442075472
 20
365.8866265503875
 30
0.0
 11
168.6714442075472
 21
275.8866265503875
 31
0.0
  0
LINE
  5
25E
330
2
100
AcDbEntity
  8
0
100
AcDbLine
 10
162.071444207545
 20
365.8866265503875
 30
0.0
 11
162.071444207545
 21
275.8866265503875
 31
0.0
  0
LINE
  5
25F
330
2
100
AcDbEntity
  8
0
100
AcDbLine
 10
162.071444207545
 20
365.8866265503875
 30
0.0
 11
168.6714442075472
 21
365.8866265503875
 31
0.0
  0
ARC
  5
260
330
2
100
AcDbEntity
  8
0
 48
0.6
100
AcDbCircle
 10
155.1146311183756
 20
352.452857439408
 30
0.0
 40
26.81626566475105
100
AcDbArc
 50
269.907726570802
 51
280.6520097393286
  0
LINE
  5
261
330
2
100
AcDbEntity
  8
0
 48
0.6
100
AcDbLine
 10
141.0714442075432
 20
325.5366265503871
 30
0.0
 11
142.071444207545
 21
326.5366265503871
 31
0.0
  0
LINE
  5
262
330
2
100
AcDbEntity
  8
0
 48
0.6
100
AcDbLine
 10
142.071444207545
 20
326.5366265503871
 30
0.0
 11
160.0714442075432
 21
326.5366265503871
 31
0.0
  0
LINE
  5
263
330
2
100
AcDbEntity
  8
0
 48
0.6
100
AcDbLine
 10
142.071444207545
 20
325.6366265503875
 30
0.0
 11
155.071444207545
 21
325.6366265503875
 31
0.0
  0
LINE
  5
264
330
2
100
AcDbEntity
  8
0
 48
0.6
100
AcDbLine
 10
149.071444207545
 20
326.5366265503871
 30
0.0
 11
160.0714442075432
 21
326.5366265503871
 31
0.0
  0
LINE
  5
265
330
2
100
AcDbEntity
  8
CEN
 48
0.6
100
AcDbLine
 10
139.5106122859006
 20
326.0261265503868
 30
0.0
 11
163.0714442075432
 21
326.0261265503868
 31
0.0
  0
ARC
  5
267
330
2
100
AcDbEntity
  8
0
 48
0.6
100
AcDbCircle
 10
155.1146311183747
 20
289.3203956613388
 30
0.0
 40
26.81626566478071
100
AcDbArc
 50
79.34799026067249
 51
90.09227342919791
  0
LINE
  5
268
330
2
100
AcDbEntity
  8
0
 48
0.6
100
AcDbLine
 10
141.0714442075432
 20
316.2366265503887
 30
0.0
 11
142.071444207545
 21
315.2366265503879
 31
0.0
  0
LINE
  5
269
330
2
100
AcDbEntity
  8
0
 48
0.6
100
AcDbLine
 10
142.071444207545
 20
315.2366265503879
 30
0.0
 11
160.0714442075432
 21
315.2366265503879
 31
0.0
  0
LINE
  5
26A
330
2
100
AcDbEntity
  8
0
 48
0.6
100
AcDbLine
 10
142.071444207545
 20
316.1366265503875
 30
0.0
 11
155.071444207545
 21
316.1366265503875
 31
0.0
  0
LINE
  5
26B
330
2
100
AcDbEntity
  8
0
 48
0.6
100
AcDbLine
 10
149.071444207545
 20
315.2366265503879
 30
0.0
 11
160.0714442075432
 21
315.2366265503879
 31
0.0
  0
LINE
  5
26C
330
2
100
AcDbEntity
  8
CEN
 48
0.6
100
AcDbLine
 10
139.3171670601877
 20
315.7471265503863
 30
0.0
 11
163.0714442075432
 21
315.7471265503863
 31
0.0
  0
LINE
  5
26D
330
2
100
AcDbEntity
  8
2
 48
0.6
100
AcDbLine
 10
155.071444207545
 20
322.3415264347377
 30
0.0
 11
143.1688963704436
 21
316.1366265503875
 31
0.0
  0
LINE
  5
26F
330
2
100
AcDbEntity
  8
2
 48
0.6
100
AcDbLine
 10
155.071444207545
 20
325.6366265503875
 30
0.0
 11
155.071444207545
 21
316.1366265503875
 31
0.0
  0
LINE
  5
270
330
2
100
AcDbEntity
  8
2
 48
0.6
100
AcDbLine
 10
142.071444207545
 20
326.5366265503871
 30
0.0
 11
142.071444207545
 21
315.2366265503869
 31
0.0
  0
LINE
  5
271
330
2
100
AcDbEntity
  8
0
 48
0.6
100
AcDbLine
 10
141.0714442075432
 20
325.5366265503871
 30
0.0
 11
141.0714442075432
 21
316.2366265503887
 31
0.0
  0
LINE
  5
272
330
2
100
AcDbEntity
  8
2
 48
0.6
100
AcDbLine
 10
155.071444207545
 20
323.5067159273985
 30
0.0
 11
142.071444207545
 21
316.6266252195546
 31
0.0
  0
LINE
  5
273
330
2
100
AcDbEntity
  8
2
 48
0.6
100
AcDbLine
 10
155.071444207545
 20
324.4852566540712
 30
0.0
 11
142.071444207545
 21
317.9178973420385
 31
0.0
  0
LINE
  5
274
330
2
100
AcDbEntity
  8
0
100
AcDbLine
 10
178.5714442075422
 20
274.8866265503875
 30
0.0
 11
169.5714442075423
 21
274.8866265503875
 31
0.0
  0
LINE
  5
275
102
{ACAD_REACTORS
330
24F
102
}
330
2
100
AcDbEntity
  8
0
100
AcDbLine
 10
160.0714442075432
 20
362.3866265503875
 30
0.0
 11
160.0714442075432
 21
279.3866265503875
 31
0.0
  0
LINE
  5
276
330
2
100
AcDbEntity
  8
0
100
AcDbLine
 10
168.6714442075472
 20
277.2878892088583
 30
0.0
 11
169.5714442075423
 21
277.2878892088583
 31
0.0
  0
LINE
  5
277
330
2
100
AcDbEntity
  8
0
100
AcDbLine
 10
162.071444207545
 20
279.3866265503875
 30
0.0
 11
160.0714442075432
 21
279.3866265503875
 31
0.0
  0
LINE
  5
278
330
2
100
AcDbEntity
  8
0
100
AcDbLine
 10
169.0714442075432
 20
275.8866265503875
 30
0.0
 11
169.0714442075432
 21
275.3866265503875
 31
0.0
  0
ARC
  5
279
330
2
100
AcDbEntity
  8
0
100
AcDbCircle
 10
169.5714442075423
 20
275.3866265503875
 30
0.0
 40
0.5
100
AcDbArc
 50
180.0
 51
270.0
  0
LINE
  5
27A
330
2
100
AcDbEntity
  8
0
100
AcDbLine
 10
169.5714442075423
 20
284.9878892088582
 30
0.0
 11
169.5714442075423
 21
277.2878892088583
 31
0.0
  0
LINE
  5
27B
330
2
100
AcDbEntity
  8
0
100
AcDbLine
 10
168.6714442075472
 20
284.9878892088582
 30
0.0
 11
169.5714442075423
 21
284.9878892088582
 31
0.0
  0
LINE
  5
27C
102
{ACAD_REACTORS
330
291
102
}
330
2
100
AcDbEntity
  8
0
100
AcDbLine
 10
168.6714442075472
 20
364.4853638919157
 30
0.0
 11
169.5714442075423
 21
364.4853638919157
 31
0.0
  0
LINE
  5
27D
330
2
100
AcDbEntity
  8
0
100
AcDbLine
 10
168.6714442075472
 20
356.7853638919168
 30
0.0
 11
169.5714442075423
 21
356.7853638919168
 31
0.0
  0
LINE
  5
27E
330
2
100
AcDbEntity
  8
0
100
AcDbLine
 10
162.071444207545
 20
362.3866265503875
 30
0.0
 11
160.0714442075432
 21
362.3866265503875
 31
0.0
  0
LINE
  5
27F
330
2
100
AcDbEntity
  8
0
100
AcDbLine
 10
169.5714442075423
 20
356.7853638919168
 30
0.0
 11
169.5714442075423
 21
364.4853638919157
 31
0.0
  0
DIMENSION
  5
280
330
2
100
AcDbEntity
  8
0
100
AcDbDimension
  2
*D40
 10
162.071444207545
 20
378.5192801146377
 30
0.0
 11
151.071444207545
 21
378.5192801146377
 31
0.0
 70
   160
  3
STANDARD
100
AcDbAlignedDimension
 13
160.0714442075432
 23
362.3866265503875
 33
0.0
 14
162.071444207545
 24
365.8866265503875
 34
0.0
100
AcDbRotatedDimension
  0
DIMENSION
  5
28F
102
{ACAD_XDICTIONARY
360
290
102
}
102
{ACAD_REACTORS
330
291
102
}
330
2
100
AcDbEntity
  8
0
100
AcDbDimension
  2
*D39
 10
169.5714442075423
 20
378.5192801146377
 30
0.0
 11
165.8214442075436
 21
378.5192801146377
 31
0.0
 70
   160
  3
STANDARD
100
AcDbAlignedDimension
 13
162.071444207545
 23
366.0949598837205
 33
0.0
 14
169.5714442075423
 24
364.4853638919157
 34
0.0
100
AcDbRotatedDimension
  0
LINE
  5
29E
330
2
100
AcDbEntity
  8
0
100
AcDbLine
 10
179.0714442075459
 20
275.8866265503875
 30
0.0
 11
179.0714442075459
 21
275.3866265503875
 31
0.0
  0
ARC
  5
29F
330
2
100
AcDbEntity
  8
0
100
AcDbCircle
 10
178.5714442075422
 20
275.3866265503875
 30
0.0
 40
0.5
100
AcDbArc
 50
270.0
 51
0.0
  0
LWPOLYLINE
  5
2A0
330
2
100
AcDbEntity
  8
0
 62
     3
100
AcDbPolyline
 90
        4
 70
     1
 43
0.0
 10
49.39004021702749
 20
385.1953667336993
 10
52.03033720305211
 20
385.1953667336993
 10
52.03033720305211
 20
388.2641835514013
 10
49.39004021702749
 20
388.2641835514013
  0
ARC
  5
2A1
330
2
100
AcDbEntity
  8
0
 48
0.6
100
AcDbCircle
 10
90.04706406185869
 20
309.6813375103238
 30
0.0
 40
3.067967999999998
100
AcDbArc
 50
162.2801918472015
 51
218.0513255193776
  0
CIRCLE
  5
2A2
330
2
100
AcDbEntity
  8
0
 48
0.6
100
AcDbCircle
 10
55.30085512387723
 20
320.8866265503875
 30
0.0
 40
20.0
  0
LINE
  5
2A3
330
2
100
AcDbEntity
  8
CL
 48
0.6
100
AcDbLine
 10
55.05358087275817
 20
267.2564817866359
 30
0.0
 11
55.05358087275817
 21
374.5167713141408
 31
0.0
  0
ARC
  5
2A4
330
2
100
AcDbEntity
  8
0
 48
0.6
100
AcDbCircle
 10
85.21526647464634
 20
305.8993482622854
 30
0.0
 40
3.067967999999998
100
AcDbArc
 50
333.6343274967831
 51
38.05132551937779
  0
ARC
  5
2A5
330
2
100
AcDbEntity
  8
0
 48
0.6
100
AcDbCircle
 10
54.97811655857367
 20
320.8866265503875
 30
0.0
 40
33.74764799999999
100
AcDbArc
 50
252.2801918471949
 51
287.7198081528051
  0
ARC
  5
2A6
330
2
100
AcDbEntity
  8
0
 48
0.6
100
AcDbCircle
 10
69.96539484667664
 20
290.6494766343184
 30
0.0
 40
3.067967999999998
100
AcDbArc
 50
231.948674480613
 51
296.3656725032108
  0
ARC
  5
2A7
330
2
100
AcDbEntity
  8
0
 48
0.6
100
AcDbCircle
 10
66.183405598641
 20
285.8176790471024
 30
0.0
 40
3.067967999999998
100
AcDbArc
 50
51.94867448061305
 51
107.719808152805
  0
ARC
  5
2A8
330
2
100
AcDbEntity
  8
0
 48
0.6
100
AcDbCircle
 10
39.9908382704707
 20
290.6494766343184
 30
0.0
 40
3.067967999999998
100
AcDbArc
 50
243.634327496789
 51
308.0513255193868
  0
ARC
  5
2A9
330
2
100
AcDbEntity
  8
0
 48
0.6
100
AcDbCircle
 10
43.7728275185118
 20
285.8176790471024
 30
0.0
 40
3.067967999999998
100
AcDbArc
 50
72.28019184719491
 51
128.0513255193868
  0
LINE
  5
2AA
330
2
100
AcDbEntity
  8
0
 48
0.6
100
AcDbLine
 10
76.57847669260809
 20
275.8866265503875
 30
0.0
 11
70.83742646607698
 21
275.8866265503875
 31
0.0
  0
ARC
  5
2AB
330
2
100
AcDbEntity
  8
0
 48
0.6
100
AcDbCircle
 10
54.97811655857367
 20
320.8866265503875
 30
0.0
 40
36.81561599999999
100
AcDbArc
 50
296.3656725032108
 51
333.6343274967831
  0
ARC
  5
2AC
330
2
100
AcDbEntity
  8
0
 48
0.6
100
AcDbCircle
 10
90.04706406185869
 20
332.0919155904494
 30
0.0
 40
3.067967999999998
100
AcDbArc
 50
141.9486744806222
 51
197.7198081527984
  0
ARC
  5
2AD
330
2
100
AcDbEntity
  8
0
 48
0.6
100
AcDbCircle
 10
85.21526647464634
 20
335.8739048384896
 30
0.0
 40
3.067967999999998
100
AcDbArc
 50
321.9486744806221
 51
26.36567250321681
  0
ARC
  5
2AE
330
2
100
AcDbEntity
  8
0
 48
0.6
100
AcDbCircle
 10
54.97811655857367
 20
320.8866265503875
 30
0.0
 40
33.74764799999999
100
AcDbArc
 50
342.2801918472014
 51
17.71980815279839
  0
ARC
  5
2AF
330
2
100
AcDbEntity
  8
0
 48
0.6
100
AcDbCircle
 10
54.97811655857367
 20
320.8866265503875
 30
0.0
 40
33.74764799999999
100
AcDbArc
 50
72.28019184719491
 51
107.719808152805
  0
ARC
  5
2B0
330
2
100
AcDbEntity
  8
0
 48
0.6
100
AcDbCircle
 10
69.96539484667664
 20
351.1237764664565
 30
0.0
 40
3.067967999999998
100
AcDbArc
 50
63.63432749678904
 51
128.0513255193868
  0
ARC
  5
2B1
330
2
100
AcDbEntity
  8
0
 48
0.6
100
AcDbCircle
 10
66.183405598641
 20
355.9555740536707
 30
0.0
 40
3.067967999999998
100
AcDbArc
 50
252.2801918471949
 51
308.0513255193868
  0
ARC
  5
2B2
330
2
100
AcDbEntity
  8
0
 48
0.6
100
AcDbCircle
 10
39.9908382704707
 20
351.1237764664565
 30
0.0
 40
3.067967999999998
100
AcDbArc
 50
51.94867448061305
 51
116.3656725032109
  0
ARC
  5
2B3
330
2
100
AcDbEntity
  8
0
 48
0.6
100
AcDbCircle
 10
43.7728275185118
 20
355.9555740536707
 30
0.0
 40
3.067967999999998
100
AcDbArc
 50
231.948674480613
 51
287.7198081528051
  0
CIRCLE
  5
2B4
330
2
100
AcDbEntity
  8
0
 48
0.6
100
AcDbCircle
 10
55.05358087275817
 20
320.8866265503875
 30
0.0
 40
6.0
  0
ARC
  5
2B5
330
2
100
AcDbEntity
  8
0
 48
0.6
100
AcDbCircle
 10
54.97811655857367
 20
320.8866265503875
 30
0.0
 40
36.81561599999999
100
AcDbArc
 50
26.36567250321681
 51
63.63432749678904
  0
DIMENSION
  5
2B6
330
2
100
AcDbEntity
  8
0
100
AcDbDimension
  2
*D38
 10
162.071444207545
 20
388.2809229537342
 30
0.0
 11
151.5714442075432
 21
388.2809229537342
 31
0.0
 70
   160
  3
STANDARD
100
AcDbAlignedDimension
 13
141.0714442075432
 23
325.5366265503871
 33
0.0
 14
162.071444207545
 24
366.0949598837205
 34
0.0
100
AcDbRotatedDimension
  0
ARC
  5
2C3
330
2
100
AcDbEntity
  8
0
 48
0.6
100
AcDbCircle
 10
88.51057355268858
 20
261.1672031989273
 30
0.0
 40
0.7499080000000001
100
AcDbArc
 50
85.16289500000455
 51
205.3344229999993
  0
ARC
  5
2C4
330
2
100
AcDbEntity
  8
0
100
AcDbCircle
 10
90.89360155269242
 20
258.2902381989279
 30
0.0
 40
0.7499080000000001
100
AcDbArc
 50
92.01298199999559
 51
212.184510000001
  0
ARC
  5
2C5
330
2
100
AcDbEntity
  8
0
100
AcDbCircle
 10
89.62425055268885
 20
257.4913651989272
 30
0.0
 40
0.7499080000000001
100
AcDbArc
 50
272.0129819999954
 51
32.18451000000101
  0
ARC
  5
2C6
330
2
100
AcDbEntity
  8
0
 48
0.6
100
AcDbCircle
 10
107.3651785526908
 20
290.1971791989272
 30
0.0
 40
35.255792
100
AcDbArc
 50
236.3564240000014
 51
242.0987460000029
  0
ARC
  5
2C7
330
2
100
AcDbEntity
  8
0
 48
0.6
100
AcDbCircle
 10
87.15500155268911
 20
260.5254311989265
 30
0.0
 40
0.7499080000000001
100
AcDbArc
 50
265.1628950000044
 51
25.33442299999946
  0
ARC
  5
2C8
330
2
100
AcDbEntity
  8
0
100
AcDbCircle
 10
85.10898455268762
 20
258.772703198927
 30
0.0
 40
0.7499080000000001
100
AcDbArc
 50
265.1628950000044
 51
25.33442299999946
  0
ARC
  5
2C9
330
2
100
AcDbEntity
  8
0
 48
0.6
100
AcDbCircle
 10
86.46455755268835
 20
259.4144761989273
 30
0.0
 40
0.7499080000000001
100
AcDbArc
 50
85.16289500000455
 51
205.3344229999993
  0
ARC
  5
2CA
330
2
100
AcDbEntity
  8
0
100
AcDbCircle
 10
107.3651785526908
 20
290.1971791989272
 30
0.0
 40
37.855792
100
AcDbArc
 50
235.2486590000054
 51
242.0987460000029
  0
ARC
  5
2CB
330
2
100
AcDbEntity
  8
0
100
AcDbCircle
 10
107.3651785526908
 20
290.1971791989272
 30
0.0
 40
39.15579199999999
100
AcDbArc
 50
201.4369589999971
 51
235.2486590000054
  0
ARC
  5
2CC
330
2
100
AcDbEntity
  8
0
 48
0.6
100
AcDbCircle
 10
107.3651785526908
 20
290.1971791989272
 30
0.0
 40
33.95579199999999
100
AcDbArc
 50
204.9259499999998
 51
236.3981230000006
  0
ARC
  5
2CD
330
2
100
AcDbEntity
  8
0
 48
0.6
100
AcDbCircle
 10
107.6177359043076
 20
290.4776701515138
 30
0.0
 40
36.92930121396881
100
AcDbArc
 50
203.2726782588581
 51
236.2329275593634
  0
LINE
  5
2CE
330
2
100
AcDbEntity
  8
CL
 48
0.6
100
AcDbLine
 10
73.69319117954638
 20
275.8866265503875
 30
0.0
 11
55.05358087275817
 21
320.8866265503875
 31
0.0
  0
LEADER
  5
2CF
330
2
100
AcDbEntity
  8
0
100
AcDbLeader
  3
STANDARD
 73
     0
 75
     1
 40
3.0
 41
26.65178571428571
 76
     3
 10
91.84777406918511
 20
360.8058010031918
 30
0.0
 10
86.30000198465859
 20
373.6463663863505
 30
0.0
 10
83.80000198465859
 20
373.6463663863505
 30
0.0
340
2D0
1001
ACAD
1000
DSTYLE
1002
{
1070
     5
1000

1070
   342
1005
0
1002
}
  0
MTEXT
  5
2D0
102
{ACAD_REACTORS
330
2CF
102
}
330
2
100
AcDbEntity
  8
0
 62
     3
100
AcDbMText
 10
82.80000198465859
 20
374.6463663863505
 30
0.0
 40
3.0
 41
0.0
 71
     9
 72
     1
  1
4-%%C6.5 hole
1001
ACAD
1000
MTEXTBEGIN
1070
    73
1070
     1
1070
    44
1040
1.0
1070
    74
1070
     0
1000
MTEXTEND
  0
LINE
  5
2D1
330
2
100
AcDbEntity
  8
0
100
AcDbLine
 10
268.4114789152354
 20
297.7963108873482
 30
0.0
 11
327.070366408192
 21
297.7963108873482
 31
0.0
  0
LINE
  5
2D2
330
2
100
AcDbEntity
  8
0
100
AcDbLine
 10
324.0703664081929
 20
275.06643983935
 30
0.0
 11
268.4114789152354
 21
275.06643983935
 31
0.0
  0
LINE
  5
2D3
330
2
100
AcDbEntity
  8
0
100
AcDbLine
 10
324.0703664081929
 20
367.0664398393528
 30
0.0
 11
268.4114789152354
 21
367.0664398393528
 31
0.0
  0
LINE
  5
2D4
330
2
100
AcDbEntity
  8
0
100
AcDbLine
 10
268.4114789152354
 20
344.3365687913555
 30
0.0
 11
327.070366408192
 21
344.3365687913555
 31
0.0
  0
LINE
  5
2D5
330
2
100
AcDbEntity
  8
0
100
AcDbLine
 10
268.4114789152354
 20
367.0664398393528
 30
0.0
 11
268.4114789152354
 21
275.06643983935
 31
0.0
  0
LINE
  5
2D6
330
2
100
AcDbEntity
  8
0
100
AcDbLine
 10
327.070366408192
 20
364.0664398393528
 30
0.0
 11
327.070366408192
 21
278.0664398393501
 31
0.0
  0
ARC
  5
2D7
330
2
100
AcDbEntity
  8
0
100
AcDbCircle
 10
324.0703664081929
 20
278.0664398393501
 30
0.0
 40
3.0
100
AcDbArc
 50
270.0
 51
359.9999999999997
  0
LINE
  5
2D8
330
2
100
AcDbEntity
  8
0
 48
0.6
100
AcDbLine
 10
284.2100969600815
 20
275.06643983935
 30
0.0
 11
284.2100969600815
 21
274.56643983935
 31
0.0
  0
ARC
  5
2D9
330
2
100
AcDbEntity
  8
0
 48
0.6
100
AcDbCircle
 10
283.7100969600833
 20
274.56643983935
 30
0.0
 40
0.5
100
AcDbArc
 50
270.0
 51
0.0
  0
LINE
  5
2DA
330
2
100
AcDbEntity
  8
0
 48
0.6
100
AcDbLine
 10
274.2100969600833
 20
275.06643983935
 30
0.0
 11
274.2100969600833
 21
274.56643983935
 31
0.0
  0
ARC
  5
2DB
330
2
100
AcDbEntity
  8
0
 48
0.6
100
AcDbCircle
 10
274.7100969600824
 20
274.56643983935
 30
0.0
 40
0.5
100
AcDbArc
 50
180.0
 51
270.0
  0
LINE
  5
2DC
330
2
100
AcDbEntity
  8
0
 48
0.6
100
AcDbLine
 10
283.7100969600833
 20
274.0664398393519
 30
0.0
 11
274.7100969600824
 21
274.0664398393519
 31
0.0
  0
ARC
  5
2DD
330
2
100
AcDbEntity
  8
0
100
AcDbCircle
 10
324.0703664081929
 20
364.0664398393528
 30
0.0
 40
3.0
100
AcDbArc
 50
359.9999999999997
 51
90.00000000000046
  0
DIMENSION
  5
2DE
330
2
100
AcDbEntity
  8
0
100
AcDbDimension
  2
*D44
 10
346.9568272447414
 20
275.06643983935
 30
0.0
 11
346.9568272447413
 21
321.0664398393528
 31
0.0
 70
   160
  3
STANDARD
100
AcDbAlignedDimension
 13
325.0703664081929
 23
367.0664398393528
 33
0.0
 14
325.0703664081929
 24
275.06643983935
 34
0.0
 50
90.0
100
AcDbRotatedDimension
  0
ENDSEC
  0
SECTION
  2
OBJECTS
  0
DICTIONARY
  5
9
330
0
100
AcDbDictionary
  3
ACAD_GROUP
350
98
  3
ACAD_LAYOUT
350
D
  3
ACAD_MLINESTYLE
350
99
  3
ACAD_PLOTSETTINGS
350
9A
  3
ACAD_PLOTSTYLENAME
350
8
  3
ACDBHEADERROUNDTRIPXREC
350
3F8
  3
ACDBVARIABLEDICTIONARY
350
2EB
  0
DICTIONARY
  5
15
330
14
100
AcDbDictionary
280
     1
  3
ACAD_LAYERFILTERS
360
16
  3
ACAD_LAYERSTATES
360
89
  0
DICTIONARY
  5
3
330
2
100
AcDbDictionary
280
     1
  3
ACAD_LAYOUTSELFREF
360
419
  0
DICTIONARY
  5
F
330
E
100
AcDbDictionary
280
     1
  3
ACAD_LAYOUTSELFREF
360
41A
  0
DICTIONARY
  5
D4
330
D3
100
AcDbDictionary
280
     1
  3
ACAD_DIMASSOC
360
D5
  0
DICTIONARY
  5
101
330
100
100
AcDbDictionary
280
     1
  3
ACAD_DIMASSOC
360
102
  0
DICTIONARY
  5
16F
330
16E
100
AcDbDictionary
280
     1
  3
ACAD_DIMASSOC
360
170
  0
DICTIONARY
  5
1A7
330
1A6
100
AcDbDictionary
280
     1
  3
ACAD_DIMASSOC
360
1A8
  0
DICTIONARY
  5
1E6
330
1E5
100
AcDbDictionary
280
     1
  3
ACAD_DIMASSOC
360
1E7
  0
DICTIONARY
  5
1F5
330
1F4
100
AcDbDictionary
280
     1
  3
ACAD_DIMASSOC
360
1F6
  0
DICTIONARY
  5
24E
330
24D
100
AcDbDictionary
280
     1
  3
ACAD_DIMASSOC
360
24F
  0
DICTIONARY
  5
290
330
28F
100
AcDbDictionary
280
     1
  3
ACAD_DIMASSOC
360
291
  0
DICTIONARY
  5
98
102
{ACAD_REACTORS
330
9
102
}
330
9
100
AcDbDictionary
  0
DICTIONARY
  5
D
102
{ACAD_REACTORS
330
9
102
}
330
9
100
AcDbDictionary
  0
DICTIONARY
  5
99
102
{ACAD_REACTORS
330
9
102
}
330
9
100
AcDbDictionary
  3
STANDARD
350
9B
  0
DICTIONARY
  5
9A
102
{ACAD_REACTORS
330
9
102
}
330
9
100
AcDbDictionary
  0
ACDBDICTIONARYWDFLT
  5
8
102
{ACAD_REACTORS
330
9
102
}
330
9
100
AcDbDictionary
281
     1
  3
Normal
350
7
100
AcDbDictionaryWithDefault
340
7
  0
DICTIONARY
  5
3F8
102
{ACAD_REACTORS
330
9
102
}
330
9
100
AcDbDictionary
  3
CEPSNTYPE
350
402
  3
DIMSTYLEDATA
350
406
  3
FINGERPRINTGUID
350
403
  3
HYPERLINKBASE
350
3FB
  3
INSUNITS
350
401
  3
LAYOUTDICT
350
3FD
  3
LWETCUNION
350
400
  3
PLOTSETDICT
350
3FE
  3
PLOTSTYLNAMDICT
350
3FF
  3
PSVPSCALE
350
405
  3
PUCSBASE
350
409
  3
PUCSORGBACK
350
40F
  3
PUCSORGBOTTOM
350
40B
  3
PUCSORGFRONT
350
40E
  3
PUCSORGLEFT
350
40C
  3
PUCSORGRIGHT
350
40D
  3
PUCSORGTOP
350
40A
  3
PUCSORTHOREF
350
407
  3
PUCSORTHOVIEW
350
408
  3
STYLESHEET
350
3FC
  3
TSTACKALIGN
350
3F9
  3
TSTACKSIZE
350
3FA
  3
UCSBASE
350
412
  3
UCSORGBACK
350
418
  3
UCSORGBOTTOM
350
414
  3
UCSORGFRONT
350
417
  3
UCSORGLEFT
350
415
  3
UCSORGRIGHT
350
416
  3
UCSORGTOP
350
413
  3
UCSORTHOREF
350
410
  3
UCSORTHOVIEW
350
411
  3
VERSIONGUID
350
404
  0
DICTIONARY
  5
2EB
102
{ACAD_REACTORS
330
9
102
}
330
9
100
AcDbDictionary
  3
DIMASSOC
350
2ED
  3
HIDETEXT
350
2EC
  0
DICTIONARY
  5
16
102
{ACAD_REACTORS
330
15
102
}
330
15
100
AcDbDictionary
280
     1
  3
$LAYERS
360
17
  3
-_UND_0
360
18
  3
-PEGC
360
19
  3
101
360
1A
  3
102
360
1B
  3
1DUC
360
1C
  3
1EQ
360
1D
  3
1TUB
360
1E
  3
2
360
1F
  3
2000
360
20
  3
50
360
21
  3
58J
360
22
  3
65
360
23
  3
AA
360
24
  3
ACABADOS
360
25
  3
AGUA_Y_DREN
360
26
  3
AIRE
360
27
  3
ALLE_AUS
360
28
  3
ALLES_MIT_S
360
29
  3
AMARILLO
360
2A
  3
APAGADOS
360
2B
  3
ARR
360
2C
  3
BA
360
2D
  3
BACKS
360
2E
  3
BASE
360
2F
  3
BLOQ_INUTIL
360
30
  3
CADKON
360
31
  3
CARPINTERIA
360
32
  3
CERRADOS
360
33
  3
COL
360
34
  3
COLOR
360
35
  3
COLOR_250
360
36
  3
COLORES
360
37
  3
CONGELADOS
360
38
  3
CONJUNTO
360
39
  3
D1
360
3A
  3
DA_
360
3B
  3
DET-
360
3C
  3
DOR-H
360
3D
  3
EJES
360
3E
  3
ELECTRICO
360
3F
  3
F1
360
40
  3
FROZEN
360
41
  3
GRID
360
42
  3
GRIDTXT
360
43
  3
HATCH
360
44
  3
HCAD
360
45
  3
INSTALACIONES
360
46
  3
JIZNI
360
47
  3
KCK
360
48
  3
KKK
360
49
  3
LAY
360
4A
  3
LAYER-0
360
4E
  3
LAYER-1
360
4F
  3
LAYER_1_UND_0
360
4B
  3
LAYER_2_UND_0
360
4C
  3
LAYER_9_UND_0_SCHRAFFUR
360
4D
  3
LOCK
360
50
  3
LOCKED
360
51
  3
LOTES
360
52
  3
LUNAR
360
53
  3
LUNAR2
360
54
  3
M
360
55
  3
MIS_LAYERS
360
56
  3
MRKCK
360
57
  3
NECADKON
360
58
  3
NI_LH
360
59
  3
NI_RH
360
5A
  3
NUM
360
5B
  3
OFF
360
5C
  3
ON
360
5D
  3
PBASE
360
5E
  3
PEGC
360
5F
  3
PEGCT
360
60
  3
PFRAME
360
61
  3
PGRID
360
62
  3
PGRIDT
360
63
  3
PLAFONES
360
64
  3
PLANTAS
360
65
  3
PLOT
360
66
  3
PRENDIDAS
360
67
  3
PRENDIDOS
360
68
  3
PRINT
360
69
  3
PT
360
6A
  3
PTH
360
6B
  3
PVGRID
360
6C
  3
RED_DE_AGUA_POTABLE
360
6D
  3
RED_DE_ENERGIA_ELECTRICA
360
6E
  3
SEVERNI
360
6F
  3
SHIN
360
70
  3
SHOW_ALL_LAYER
360
71
  3
SIN
360
72
  3
STORAGE-CART
360
73
  3
T
360
74
  3
TEXTOS
360
75
  3
TEXTURAS
360
76
  3
TUBERIAS
360
77
  3
UNFRZ
360
78
  3
V\U+0160ECHNY_NEPOU\U+017D\U+00CDVAN\U+00C9
360
79
  3
VA
360
7A
  3
VENTILACI\U+00D3N
360
7B
  3
VYHODNI
360
7C
  3
YO
360
7D
  3
ZAPADNI
360
7E
  3
사용
360
7F
  3
신규
360
80
  3
실박스
360
81
  3
우리토목
360
82
  3
주차
360
83
  3
지상정밀
360
84
  3
쩜선
360
85
  3
플로터_작업층
360
86
  3
현재_작업층
360
87
  3
현재_잠금
360
88
  0
DICTIONARY
  5
89
102
{ACAD_REACTORS
330
15
102
}
330
15
100
AcDbDictionary
  0
XRECORD
  5
419
102
{ACAD_REACTORS
330
3
102
}
330
3
100
AcDbXrecord
340
2
  0
XRECORD
  5
41A
102
{ACAD_REACTORS
330
F
102
}
330
F
100
AcDbXrecord
340
E
  0
DIMASSOC
  5
D5
102
{ACAD_REACTORS
330
D4
102
}
330
D4
100
AcDbDimAssoc
330
D3
 90
        2
 70
     0
 71
     0
  1
AcDbOsnapPointRef
 72
     3
331
D2
 73
     2
 91
        0
 40
0.0
 10
0.0
 20
0.0
 30
0.0
 75
     0
  0
DIMASSOC
  5
102
102
{ACAD_REACTORS
330
101
102
}
330
101
100
AcDbDimAssoc
330
100
 90
        3
 70
     0
 71
     0
  1
AcDbOsnapPointRef
 72
    13
331
B6
 73
     2
 91
        0
 40
0.0
 10
179.6156171734201
 20
142.0343643277383
 30
0.0
 75
     0
  1
AcDbOsnapPointRef
 72
     1
331
B6
 73
     2
 91
        0
 40
1.0
 10
179.6156171734201
 20
59.03436432773833
 30
0.0
 75
     0
  0
DIMASSOC
  5
170
102
{ACAD_REACTORS
330
16F
102
}
330
16F
100
AcDbDimAssoc
330
16E
 90
        2
 70
     0
 71
     0
  1
AcDbOsnapPointRef
 72
     1
331
20C
 73
     2
 91
        0
 40
1.0
 10
189.1156171734182
 20
144.1331016692656
 30
0.0
 75
     0
  0
DIMASSOC
  5
1A8
102
{ACAD_REACTORS
330
1A7
102
}
330
1A7
100
AcDbDimAssoc
330
1A6
 90
        3
 70
     0
 71
     0
  1
AcDbOsnapPointRef
 72
     1
331
1A4
 73
     2
 91
        0
 40
1.0
 10
144.6156171734173
 20
105.5343643277383
 30
0.0
 75
     0
  1
AcDbOsnapPointRef
 72
     1
331
1A2
 73
     2
 91
        0
 40
1.0
 10
174.6156171734164
 20
106.5343643277383
 30
0.0
 75
     0
  0
DIMASSOC
  5
1E7
102
{ACAD_REACTORS
330
1E6
102
}
330
1E6
100
AcDbDimAssoc
330
1E5
 90
        3
 70
     0
 71
     0
  1
AcDbOsnapPointRef
 72
     1
331
1A5
 73
     2
 91
        0
 40
1.0
 10
144.6156171734173
 20
94.53436432773832
 30
0.0
 75
     0
  1
AcDbOsnapPointRef
 72
     1
331
1A4
 73
     2
 91
        0
 40
1.0
 10
144.6156171734173
 20
105.5343643277383
 30
0.0
 75
     0
  0
DIMASSOC
  5
1F6
102
{ACAD_REACTORS
330
1F5
102
}
330
1F5
100
AcDbDimAssoc
330
1F4
 90
        3
 70
     0
 71
     0
  1
AcDbOsnapPointRef
 72
     1
331
1A5
 73
     2
 91
        0
 40
1.0
 10
144.6156171734173
 20
94.53436432773832
 30
0.0
 75
     0
  1
AcDbOsnapPointRef
 72
     1
331
1A2
 73
     2
 91
        0
 40
1.0
 10
174.6156171734164
 20
106.5343643277383
 30
0.0
 75
     0
  0
DIMASSOC
  5
24F
102
{ACAD_REACTORS
330
24E
102
}
330
24E
100
AcDbDimAssoc
330
24D
 90
        3
 70
     0
 71
     0
  1
AcDbOsnapPointRef
 72
    13
331
275
 73
     2
 91
        0
 40
0.0
 10
160.0714442075432
 20
362.3866265503875
 30
0.0
 75
     0
  1
AcDbOsnapPointRef
 72
     1
331
275
 73
     2
 91
        0
 40
1.0
 10
160.0714442075432
 20
279.3866265503875
 30
0.0
 75
     0
  0
DIMASSOC
  5
291
102
{ACAD_REACTORS
330
290
102
}
330
290
100
AcDbDimAssoc
330
28F
 90
        2
 70
     0
 71
     0
  1
AcDbOsnapPointRef
 72
     1
331
27C
 73
     2
 91
        0
 40
1.0
 10
169.5714442075423
 20
364.4853638919157
 30
0.0
 75
     0
  0
MLINESTYLE
  5
9B
102
{ACAD_REACTORS
330
99
102
}
330
99
100
AcDbMlineStyle
  2
STANDARD
 70
     0
  3

 62
   256
 51
90.0
 52
90.0
 71
     2
 49
0.5
 62
   256
  6
BYLAYER
 49
-0.5
 62
   256
  6
BYLAYER
  0
ACDBPLACEHOLDER
  5
7
102
{ACAD_REACTORS
330
8
102
}
330
8
100
AcDbPlaceHolder
280
     0
  0
XRECORD
  5
402
102
{ACAD_REACTORS
330
3F8
102
}
330
3F8
100
AcDbXrecord
 90
        0
  0
XRECORD
  5
406
102
{ACAD_REACTORS
330
3F8
102
}
330
3F8
100
AcDbXrecord
1000
DSTYLE
1002
{
1070
    79
 70
     2
1070
   179
 70
     1
1070
   289
 70
     0
1002
}
  0
XRECORD
  5
403
102
{ACAD_REACTORS
330
3F8
102
}
330
3F8
100
AcDbXrecord
  1
{FDEAD578-A652-11D2-9A35-0060089B3A3F}
  0
XRECORD
  5
3FB
102
{ACAD_REACTORS
330
3F8
102
}
330
3F8
100
AcDbXrecord
  1

  0
XRECORD
  5
401
102
{ACAD_REACTORS
330
3F8
102
}
330
3F8
100
AcDbXrecord
 90
        4
  0
XRECORD
  5
3FD
102
{ACAD_REACTORS
330
3F8
102
}
330
3F8
100
AcDbXrecord
340
D
  0
XRECORD
  5
400
102
{ACAD_REACTORS
330
3F8
102
}
330
3F8
100
AcDbXrecord
 90
    10781
  0
XRECORD
  5
3FE
102
{ACAD_REACTORS
330
3F8
102
}
330
3F8
100
AcDbXrecord
340
9A
  0
XRECORD
  5
3FF
102
{ACAD_REACTORS
330
3F8
102
}
330
3F8
100
AcDbXrecord
340
8
  0
XRECORD
  5
405
102
{ACAD_REACTORS
330
3F8
102
}
330
3F8
100
AcDbXrecord
 40
0.0
  0
XRECORD
  5
409
102
{ACAD_REACTORS
330
3F8
102
}
330
3F8
100
AcDbXrecord
340
0
  0
XRECORD
  5
40F
102
{ACAD_REACTORS
330
3F8
102
}
330
3F8
100
AcDbXrecord
 10
0.0
 20
0.0
 30
0.0
  0
XRECORD
  5
40B
102
{ACAD_REACTORS
330
3F8
102
}
330
3F8
100
AcDbXrecord
 10
0.0
 20
0.0
 30
0.0
  0
XRECORD
  5
40E
102
{ACAD_REACTORS
330
3F8
102
}
330
3F8
100
AcDbXrecord
 10
0.0
 20
0.0
 30
0.0
  0
XRECORD
  5
40C
102
{ACAD_REACTORS
330
3F8
102
}
330
3F8
100
AcDbXrecord
 10
0.0
 20
0.0
 30
0.0
  0
XRECORD
  5
40D
102
{ACAD_REACTORS
330
3F8
102
}
330
3F8
100
AcDbXrecord
 10
0.0
 20
0.0
 30
0.0
  0
XRECORD
  5
40A
102
{ACAD_REACTORS
330
3F8
102
}
330
3F8
100
AcDbXrecord
 10
0.0
 20
0.0
 30
0.0
  0
XRECORD
  5
407
102
{ACAD_REACTORS
330
3F8
102
}
330
3F8
100
AcDbXrecord
340
0
  0
XRECORD
  5
408
102
{ACAD_REACTORS
330
3F8
102
}
330
3F8
100
AcDbXrecord
 70
     0
  0
XRECORD
  5
3FC
102
{ACAD_REACTORS
330
3F8
102
}
330
3F8
100
AcDbXrecord
  1

  0
XRECORD
  5
3F9
102
{ACAD_REACTORS
330
3F8
102
}
330
3F8
100
AcDbXrecord
 90
        1
  0
XRECORD
  5
3FA
102
{ACAD_REACTORS
330
3F8
102
}
330
3F8
100
AcDbXrecord
 90
       70
  0
XRECORD
  5
412
102
{ACAD_REACTORS
330
3F8
102
}
330
3F8
100
AcDbXrecord
340
0
  0
XRECORD
  5
418
102
{ACAD_REACTORS
330
3F8
102
}
330
3F8
100
AcDbXrecord
 10
0.0
 20
0.0
 30
0.0
  0
XRECORD
  5
414
102
{ACAD_REACTORS
330
3F8
102
}
330
3F8
100
AcDbXrecord
 10
0.0
 20
0.0
 30
0.0
  0
XRECORD
  5
417
102
{ACAD_REACTORS
330
3F8
102
}
330
3F8
100
AcDbXrecord
 10
0.0
 20
0.0
 30
0.0
  0
XRECORD
  5
415
102
{ACAD_REACTORS
330
3F8
102
}
330
3F8
100
AcDbXrecord
 10
0.0
 20
0.0
 30
0.0
  0
XRECORD
  5
416
102
{ACAD_REACTORS
330
3F8
102
}
330
3F8
100
AcDbXrecord
 10
0.0
 20
0.0
 30
0.0
  0
XRECORD
  5
413
102
{ACAD_REACTORS
330
3F8
102
}
330
3F8
100
AcDbXrecord
 10
0.0
 20
0.0
 30
0.0
  0
XRECORD
  5
410
102
{ACAD_REACTORS
330
3F8
102
}
330
3F8
100
AcDbXrecord
340
0
  0
XRECORD
  5
411
102
{ACAD_REACTORS
330
3F8
102
}
330
3F8
100
AcDbXrecord
 70
     0
  0
XRECORD
  5
404
102
{ACAD_REACTORS
330
3F8
102
}
330
3F8
100
AcDbXrecord
  1
{CDB3424C-45AE-45B1-8920-7A3D403719EE}
  0
DICTIONARYVAR
  5
2ED
102
{ACAD_REACTORS
330
2EB
102
}
330
2EB
100
DictionaryVariables
280
     0
  1
2
  0
DICTIONARYVAR
  5
2EC
102
{ACAD_REACTORS
330
2EB
102
}
330
2EB
100
DictionaryVariables
280
     0
  1
1
  0
XRECORD
  5
17
102
{ACAD_REACTORS
330
16
102
}
330
16
100
AcDbXrecord
  1
$layers
  1
*
  1
*
  1
*
 70
     0
  1
*
  1
*
  0
XRECORD
  5
18
102
{ACAD_REACTORS
330
16
102
}
330
16
100
AcDbXrecord
  1
- und 0
  1
-*,0
  1
*
  1
*
 70
     0
  1
*
  1
*
  0
XRECORD
  5
19
102
{ACAD_REACTORS
330
16
102
}
330
16
100
AcDbXrecord
  1
-pegc
  1
*-pegc
  1
*
  1
*
 70
     0
  1
*
  1
*
  0
XRECORD
  5
1A
102
{ACAD_REACTORS
330
16
102
}
330
16
100
AcDbXrecord
  1
101
  1
*101
  1
*
  1
*
 70
   256
  1
*
  1
*
  0
XRECORD
  5
1B
102
{ACAD_REACTORS
330
16
102
}
330
16
100
AcDbXrecord
  1
102
  1
102*
  1
*
  1
*
 70
     0
  1
*
  1
*
  0
XRECORD
  5
1C
102
{ACAD_REACTORS
330
16
102
}
330
16
100
AcDbXrecord
  1
1duc
  1
*1duc*
  1
*
  1
*
 70
     0
  1
*
  1
*
  0
XRECORD
  5
1D
102
{ACAD_REACTORS
330
16
102
}
330
16
100
AcDbXrecord
  1
1eq
  1
*1eq*
  1
*
  1
*
 70
     0
  1
*
  1
*
  0
XRECORD
  5
1E
102
{ACAD_REACTORS
330
16
102
}
330
16
100
AcDbXrecord
  1
1tub
  1
*1t*
  1
*
  1
*
 70
     0
  1
*
  1
*
  0
XRECORD
  5
1F
102
{ACAD_REACTORS
330
16
102
}
330
16
100
AcDbXrecord
  1
2
  1
*
  1
2
  1
*
 70
     0
  1
*
  1
*
  0
XRECORD
  5
20
102
{ACAD_REACTORS
330
16
102
}
330
16
100
AcDbXrecord
  1
2000
  1
2000*
  1
*
  1
*
 70
     0
  1
*
  1
*
  0
XRECORD
  5
21
102
{ACAD_REACTORS
330
16
102
}
330
16
100
AcDbXrecord
  1
50
  1
*-50
  1
*
  1
*
 70
     0
  1
*
  1
*
  0
XRECORD
  5
22
102
{ACAD_REACTORS
330
16
102
}
330
16
100
AcDbXrecord
  1
58J
  1
*58*
  1
*
  1
*
 70
     0
  1
*
  1
*
  0
XRECORD
  5
23
102
{ACAD_REACTORS
330
16
102
}
330
16
100
AcDbXrecord
  1
65
  1
*65
  1
*
  1
*
 70
     0
  1
*
  1
*
  0
XRECORD
  5
24
102
{ACAD_REACTORS
330
16
102
}
330
16
100
AcDbXrecord
  1
aa
  1
aa*
  1
*
  1
*
 70
     0
  1
*
  1
*
  0
XRECORD
  5
25
102
{ACAD_REACTORS
330
16
102
}
330
16
100
AcDbXrecord
  1
acabados
  1
a-*
  1
*
  1
*
 70
     5
  1
*
  1
*
  0
XRECORD
  5
26
102
{ACAD_REACTORS
330
16
102
}
330
16
100
AcDbXrecord
  1
AGUA Y DREN
  1
A-DS-*
  1
*
  1
*
 70
     0
  1
*
  1
*
  0
XRECORD
  5
27
102
{ACAD_REACTORS
330
16
102
}
330
16
100
AcDbXrecord
  1
Aire
  1
*
  1
*
  1
*
 70
     0
  1
*
  1
*
  0
XRECORD
  5
28
102
{ACAD_REACTORS
330
16
102
}
330
16
100
AcDbXrecord
  1
alle aus
  1
99999999999
  1
*
  1
*
 70
     0
  1
*
  1
*
  0
XRECORD
  5
29
102
{ACAD_REACTORS
330
16
102
}
330
16
100
AcDbXrecord
  1
Alles mit S
  1
s*
  1
*
  1
*
 70
     0
  1
*
  1
*
  0
XRECORD
  5
2A
102
{ACAD_REACTORS
330
16
102
}
330
16
100
AcDbXrecord
  1
amarillo
  1
*
  1
yellow
  1
*
 70
     0
  1
*
  1
*
  0
XRECORD
  5
2B
102
{ACAD_REACTORS
330
16
102
}
330
16
100
AcDbXrecord
  1
APAGADOS
  1
*
  1
*
  1
*
 70
     4
  1
*
  1
*
  0
XRECORD
  5
2C
102
{ACAD_REACTORS
330
16
102
}
330
16
100
AcDbXrecord
  1
ARR
  1
ARR*
  1
*
  1
*
 70
     0
  1
*
  1
*
  0
XRECORD
  5
2D
102
{ACAD_REACTORS
330
16
102
}
330
16
100
AcDbXrecord
  1
ba
  1
*
  1
*
  1
*
 70
     0
  1
*
  1
*
  0
XRECORD
  5
2E
102
{ACAD_REACTORS
330
16
102
}
330
16
100
AcDbXrecord
  1
BACKS
  1
*-H
  1
*
  1
*
 70
     0
  1
*
  1
*
  0
XRECORD
  5
2F
102
{ACAD_REACTORS
330
16
102
}
330
16
100
AcDbXrecord
  1
BASE
  1
*-PBASE
  1
*
  1
*
 70
     0
  1
*
  1
*
  0
XRECORD
  5
30
102
{ACAD_REACTORS
330
16
102
}
330
16
100
AcDbXrecord
  1
BLOQ_INUTIL
  1
*
  1
*
  1
*
 70
     0
  1
*
  1
*
  0
XRECORD
  5
31
102
{ACAD_REACTORS
330
16
102
}
330
16
100
AcDbXrecord
  1
CADKON
  1
?[KAHBSM]?????[23M],?[KAHBSM]?????[23M][1456A-DGHILN-SU-Z]
  1
*
  1
*
 70
     0
  1
*
  1
*
  0
XRECORD
  5
32
102
{ACAD_REACTORS
330
16
102
}
330
16
100
AcDbXrecord
  1
carpinteria
  1
carp*
  1
*
  1
*
 70
     0
  1
*
  1
*
  0
XRECORD
  5
33
102
{ACAD_REACTORS
330
16
102
}
330
16
100
AcDbXrecord
  1
cerrados
  1
*
  1
*
  1
*
 70
   256
  1
*
  1
*
  0
XRECORD
  5
34
102
{ACAD_REACTORS
330
16
102
}
330
16
100
AcDbXrecord
  1
COL
  1
*
  1
*
  1
*
 70
     1
  1
*
  1
*
  0
XRECORD
  5
35
102
{ACAD_REACTORS
330
16
102
}
330
16
100
AcDbXrecord
  1
COLOR
  1
*
  1
253
  1
*
 70
     0
  1
*
  1
*
  0
XRECORD
  5
36
102
{ACAD_REACTORS
330
16
102
}
330
16
100
AcDbXrecord
  1
color 250
  1
*
  1
250
  1
*
 70
     0
  1
*
  1
*
  0
XRECORD
  5
37
102
{ACAD_REACTORS
330
16
102
}
330
16
100
AcDbXrecord
  1
COLORES
  1
*
  1
6
  1
*
 70
     0
  1
*
  1
*
  0
XRECORD
  5
38
102
{ACAD_REACTORS
330
16
102
}
330
16
100
AcDbXrecord
  1
Congelados
  1
*
  1
*
  1
*
 70
     4
  1
*
  1
*
  0
XRECORD
  5
39
102
{ACAD_REACTORS
330
16
102
}
330
16
100
AcDbXrecord
  1
CONJUNTO
  1
CON-*
  1
*
  1
*
 70
     0
  1
*
  1
*
  0
XRECORD
  5
3A
102
{ACAD_REACTORS
330
16
102
}
330
16
100
AcDbXrecord
  1
d1
  1
achurados
  1
*
  1
*
 70
     0
  1
*
  1
*
  0
XRECORD
  5
3B
102
{ACAD_REACTORS
330
16
102
}
330
16
100
AcDbXrecord
  1
DA_
  1
DA*
  1
*
  1
*
 70
     0
  1
*
  1
*
  0
XRECORD
  5
3C
102
{ACAD_REACTORS
330
16
102
}
330
16
100
AcDbXrecord
  1
DET-
  1
*
  1
*
  1
*
 70
     0
  1
*
  1
*
  0
XRECORD
  5
3D
102
{ACAD_REACTORS
330
16
102
}
330
16
100
AcDbXrecord
  1
DOR-H
  1
*
  1
7
  1
*
 70
     0
  1
*
  1
*
  0
XRECORD
  5
3E
102
{ACAD_REACTORS
330
16
102
}
330
16
100
AcDbXrecord
  1
ejes
  1
eje*
  1
*
  1
*
 70
     0
  1
*
  1
*
  0
XRECORD
  5
3F
102
{ACAD_REACTORS
330
16
102
}
330
16
100
AcDbXrecord
  1
ELECTRICO
  1
ELEC-*
  1
*
  1
*
 70
     0
  1
*
  1
*
  0
XRECORD
  5
40
102
{ACAD_REACTORS
330
16
102
}
330
16
100
AcDbXrecord
  1
F1
  1
Halaxref*
  1
*
  1
*
 70
     0
  1
*
  1
*
  0
XRECORD
  5
41
102
{ACAD_REACTORS
330
16
102
}
330
16
100
AcDbXrecord
  1
frozen
  1
*
  1
*
  1
*
 70
     4
  1
*
  1
*
  0
XRECORD
  5
42
102
{ACAD_REACTORS
330
16
102
}
330
16
100
AcDbXrecord
  1
grid
  1
*-PGRID
  1
*
  1
*
 70
     1
  1
*
  1
*
  0
XRECORD
  5
43
102
{ACAD_REACTORS
330
16
102
}
330
16
100
AcDbXrecord
  1
GRIDTXT
  1
*-PGRIDT
  1
*
  1
*
 70
     0
  1
*
  1
*
  0
XRECORD
  5
44
102
{ACAD_REACTORS
330
16
102
}
330
16
100
AcDbXrecord
  1
HATCH
  1
HAT*
  1
*
  1
*
 70
     0
  1
*
  1
*
  0
XRECORD
  5
45
102
{ACAD_REACTORS
330
16
102
}
330
16
100
AcDbXrecord
  1
HCAD
  1
1HCAD-*
  1
*
  1
*
 70
    13
  1
*
  1
*
  0
XRECORD
  5
46
102
{ACAD_REACTORS
330
16
102
}
330
16
100
AcDbXrecord
  1
INSTALACIONES
  1
I-*
  1
*
  1
*
 70
     0
  1
*
  1
*
  0
XRECORD
  5
47
102
{ACAD_REACTORS
330
16
102
}
330
16
100
AcDbXrecord
  1
JIZNI
  1
*-J
  1
*
  1
*
 70
     0
  1
*
  1
*
  0
XRECORD
  5
48
102
{ACAD_REACTORS
330
16
102
}
330
16
100
AcDbXrecord
  1
kck
  1
*
  1
*
  1
*
 70
     0
  1
*
  1
*
  0
XRECORD
  5
49
102
{ACAD_REACTORS
330
16
102
}
330
16
100
AcDbXrecord
  1
kkk
  1
k
  1
*
  1
*
 70
     0
  1
*
  1
*
  0
XRECORD
  5
4A
102
{ACAD_REACTORS
330
16
102
}
330
16
100
AcDbXrecord
  1
lay
  1
??-*
  1
*
  1
*
 70
     0
  1
*
  1
*
  0
XRECORD
  5
4E
102
{ACAD_REACTORS
330
16
102
}
330
16
100
AcDbXrecord
  1
Layer-0
  1
0*
  1
*
  1
*
 70
     0
  1
*
  1
*
  0
XRECORD
  5
4F
102
{ACAD_REACTORS
330
16
102
}
330
16
100
AcDbXrecord
  1
Layer-1
  1
1*
  1
*
  1
*
 70
     0
  1
*
  1
*
  0
XRECORD
  5
4B
102
{ACAD_REACTORS
330
16
102
}
330
16
100
AcDbXrecord
  1
Layer 1 und 0
  1
1*,0
  1
*
  1
*
 70
     0
  1
*
  1
*
  0
XRECORD
  5
4C
102
{ACAD_REACTORS
330
16
102
}
330
16
100
AcDbXrecord
  1
Layer 2 und 0
  1
2*,0
  1
*
  1
*
 70
     0
  1
*
  1
*
  0
XRECORD
  5
4D
102
{ACAD_REACTORS
330
16
102
}
330
16
100
AcDbXrecord
  1
Layer 9 und 0 Schraffur
  1
9*,0
  1
*
  1
*
 70
     0
  1
*
  1
*
  0
XRECORD
  5
50
102
{ACAD_REACTORS
330
16
102
}
330
16
100
AcDbXrecord
  1
LOCK
  1
*
  1
*
  1
*
 70
   256
  1
*
  1
*
  0
XRECORD
  5
51
102
{ACAD_REACTORS
330
16
102
}
330
16
100
AcDbXrecord
  1
locked
  1
*
  1
*
  1
*
 70
   256
  1
*
  1
*
  0
XRECORD
  5
52
102
{ACAD_REACTORS
330
16
102
}
330
16
100
AcDbXrecord
  1
Lotes
  1
*
  1
*
  1
*
 70
     1
  1
*
  1
*
  0
XRECORD
  5
53
102
{ACAD_REACTORS
330
16
102
}
330
16
100
AcDbXrecord
  1
LUNAR
  1
*
  1
*
  1
*
 70
    48
  1
*
  1
*
  0
XRECORD
  5
54
102
{ACAD_REACTORS
330
16
102
}
330
16
100
AcDbXrecord
  1
LUNAR2
  1
*
  1
*
  1
*
 70
    12
  1
*
  1
*
  0
XRECORD
  5
55
102
{ACAD_REACTORS
330
16
102
}
330
16
100
AcDbXrecord
  1
M
  1
M*
  1
*
  1
*
 70
     0
  1
*
  1
*
  0
XRECORD
  5
56
102
{ACAD_REACTORS
330
16
102
}
330
16
100
AcDbXrecord
  1
mis_layers
  1
mis_*
  1
*
  1
*
 70
     0
  1
*
  1
*
  0
XRECORD
  5
57
102
{ACAD_REACTORS
330
16
102
}
330
16
100
AcDbXrecord
  1
MRKCK
  1
*
  1
*
  1
*
 70
     0
  1
*
  1
*
  0
XRECORD
  5
58
102
{ACAD_REACTORS
330
16
102
}
330
16
100
AcDbXrecord
  1
NECADKON
  1
~*?[KAHBSM]?????[23M]*
  1
*
  1
*
 70
     0
  1
*
  1
*
  0
XRECORD
  5
59
102
{ACAD_REACTORS
330
16
102
}
330
16
100
AcDbXrecord
  1
NI_LH
  1
NI_LH*
  1
*
  1
*
 70
     0
  1
*
  1
*
  0
XRECORD
  5
5A
102
{ACAD_REACTORS
330
16
102
}
330
16
100
AcDbXrecord
  1
NI_RH
  1
NI_RH*
  1
*
  1
*
 70
     0
  1
*
  1
*
  0
XRECORD
  5
5B
102
{ACAD_REACTORS
330
16
102
}
330
16
100
AcDbXrecord
  1
NUM
  1
NUM*
  1
*
  1
*
 70
     0
  1
*
  1
*
  0
XRECORD
  5
5C
102
{ACAD_REACTORS
330
16
102
}
330
16
100
AcDbXrecord
  1
off
  1
*
  1
*
  1
*
 70
     3
  1
*
  1
*
  0
XRECORD
  5
5D
102
{ACAD_REACTORS
330
16
102
}
330
16
100
AcDbXrecord
  1
on
  1
*
  1
*
  1
*
 70
     0
  1
*
  1
*
  0
XRECORD
  5
5E
102
{ACAD_REACTORS
330
16
102
}
330
16
100
AcDbXrecord
  1
PBASE
  1
*PBASE
  1
*
  1
*
 70
     0
  1
*
  1
*
  0
XRECORD
  5
5F
102
{ACAD_REACTORS
330
16
102
}
330
16
100
AcDbXrecord
  1
PEGC
  1
*PEGC
  1
*
  1
*
 70
     0
  1
*
  1
*
  0
XRECORD
  5
60
102
{ACAD_REACTORS
330
16
102
}
330
16
100
AcDbXrecord
  1
PEGCT
  1
*PEGCT
  1
*
  1
*
 70
     0
  1
*
  1
*
  0
XRECORD
  5
61
102
{ACAD_REACTORS
330
16
102
}
330
16
100
AcDbXrecord
  1
PFRAME
  1
PFRAME*
  1
*
  1
*
 70
     0
  1
*
  1
*
  0
XRECORD
  5
62
102
{ACAD_REACTORS
330
16
102
}
330
16
100
AcDbXrecord
  1
PGRID
  1
*PGRID
  1
*
  1
*
 70
     0
  1
*
  1
*
  0
XRECORD
  5
63
102
{ACAD_REACTORS
330
16
102
}
330
16
100
AcDbXrecord
  1
PGRIDT
  1
*PGRIDT
  1
*
  1
*
 70
     0
  1
*
  1
*
  0
XRECORD
  5
64
102
{ACAD_REACTORS
330
16
102
}
330
16
100
AcDbXrecord
  1
PLAFONES
  1
0-*
  1
*
  1
*
 70
     0
  1
*
  1
*
  0
XRECORD
  5
65
102
{ACAD_REACTORS
330
16
102
}
330
16
100
AcDbXrecord
  1
PLANTAS
  1
P-*
  1
*
  1
*
 70
     0
  1
*
  1
*
  0
XRECORD
  5
66
102
{ACAD_REACTORS
330
16
102
}
330
16
100
AcDbXrecord
  1
Plot
  1
*
  1
*
  1
*
 70
  1024
  1
*
  1
*
  0
XRECORD
  5
67
102
{ACAD_REACTORS
330
16
102
}
330
16
100
AcDbXrecord
  1
PRENDIDAS
  1
*
  1
*
  1
*
 70
    13
  1
*
  1
*
  0
XRECORD
  5
68
102
{ACAD_REACTORS
330
16
102
}
330
16
100
AcDbXrecord
  1
PRENDIDOS
  1
*
  1
*
  1
*
 70
    12
  1
*
  1
*
  0
XRECORD
  5
69
102
{ACAD_REACTORS
330
16
102
}
330
16
100
AcDbXrecord
  1
print
  1
*
  1
7
  1
*
 70
  1280
  1
*
  1
*
  0
XRECORD
  5
6A
102
{ACAD_REACTORS
330
16
102
}
330
16
100
AcDbXrecord
  1
PT
  1
PT-*
  1
*
  1
*
 70
     0
  1
*
  1
*
  0
XRECORD
  5
6B
102
{ACAD_REACTORS
330
16
102
}
330
16
100
AcDbXrecord
  1
PTH
  1
PTH*
  1
*
  1
*
 70
     0
  1
*
  1
*
  0
XRECORD
  5
6C
102
{ACAD_REACTORS
330
16
102
}
330
16
100
AcDbXrecord
  1
PVGRID
  1
*PVGRID
  1
*
  1
*
 70
     0
  1
*
  1
*
  0
XRECORD
  5
6D
102
{ACAD_REACTORS
330
16
102
}
330
16
100
AcDbXrecord
  1
Red de Agua Potable
  1
Red de Agua Potable
  1
*
  1
*
 70
     1
  1
*
  1
*
  0
XRECORD
  5
6E
102
{ACAD_REACTORS
330
16
102
}
330
16
100
AcDbXrecord
  1
Red de Energia Electrica
  1
Lotes
  1
*
  1
*
 70
     1
  1
*
  1
*
  0
XRECORD
  5
6F
102
{ACAD_REACTORS
330
16
102
}
330
16
100
AcDbXrecord
  1
SEVERNI
  1
*-S
  1
*
  1
*
 70
     0
  1
*
  1
*
  0
XRECORD
  5
70
102
{ACAD_REACTORS
330
16
102
}
330
16
100
AcDbXrecord
  1
shin
  1
일*
  1
*
  1
*
 70
     0
  1
*
  1
*
  0
XRECORD
  5
71
102
{ACAD_REACTORS
330
16
102
}
330
16
100
AcDbXrecord
  1
SHOW ALL LAYER
  1
*
  1
*
  1
*
 70
     0
  1
*
  1
*
  0
XRECORD
  5
72
102
{ACAD_REACTORS
330
16
102
}
330
16
100
AcDbXrecord
  1
sin
  1
sin
  1
*
  1
*
 70
     0
  1
*
  1
*
  0
XRECORD
  5
73
102
{ACAD_REACTORS
330
16
102
}
330
16
100
AcDbXrecord
  1
STORAGE-CART
  1
STORAGE-CART*
  1
*
  1
*
 70
     0
  1
*
  1
*
  0
XRECORD
  5
74
102
{ACAD_REACTORS
330
16
102
}
330
16
100
AcDbXrecord
  1
T
  1
T*
  1
*
  1
*
 70
     0
  1
*
  1
*
  0
XRECORD
  5
75
102
{ACAD_REACTORS
330
16
102
}
330
16
100
AcDbXrecord
  1
TEXTOS
  1
TXT*
  1
*
  1
*
 70
     0
  1
*
  1
*
  0
XRECORD
  5
76
102
{ACAD_REACTORS
330
16
102
}
330
16
100
AcDbXrecord
  1
TEXTURAS
  1
*TEXTURAS
  1
*
  1
*
 70
     0
  1
*
  1
*
  0
XRECORD
  5
77
102
{ACAD_REACTORS
330
16
102
}
330
16
100
AcDbXrecord
  1
TUBERIAS
  1
T*
  1
*
  1
*
 70
     0
  1
*
  1
*
  0
XRECORD
  5
78
102
{ACAD_REACTORS
330
16
102
}
330
16
100
AcDbXrecord
  1
UNFRZ
  1
*
  1
*
  1
*
 70
    12
  1
*
  1
*
  0
XRECORD
  5
79
102
{ACAD_REACTORS
330
16
102
}
330
16
100
AcDbXrecord
  1
v\U+0161echny nepou\U+017E\U+00EDvan\U+00E9
  1
*
  1
*
  1
*
 70
     0
  1
*
  1
*
  0
XRECORD
  5
7A
102
{ACAD_REACTORS
330
16
102
}
330
16
100
AcDbXrecord
  1
VA
  1
VA*
  1
*
  1
*
 70
     0
  1
*
  1
*
  0
XRECORD
  5
7B
102
{ACAD_REACTORS
330
16
102
}
330
16
100
AcDbXrecord
  1
Ventilaci\U+00F3n
  1
*
  1
*
  1
*
 70
     0
  1
*
  1
*
  0
XRECORD
  5
7C
102
{ACAD_REACTORS
330
16
102
}
330
16
100
AcDbXrecord
  1
VYHODNI
  1
*-V
  1
*
  1
*
 70
     0
  1
*
  1
*
  0
XRECORD
  5
7D
102
{ACAD_REACTORS
330
16
102
}
330
16
100
AcDbXrecord
  1
Yo
  1
Muros
  1
*
  1
*
 70
     0
  1
*
  1
*
  0
XRECORD
  5
7E
102
{ACAD_REACTORS
330
16
102
}
330
16
100
AcDbXrecord
  1
ZAPADNI
  1
*-Z
  1
*
  1
*
 70
     0
  1
*
  1
*
  0
XRECORD
  5
7F
102
{ACAD_REACTORS
330
16
102
}
330
16
100
AcDbXrecord
  1
사용
  1
*
  1
*
  1
*
 70
   256
  1
*
  1
*
  0
XRECORD
  5
80
102
{ACAD_REACTORS
330
16
102
}
330
16
100
AcDbXrecord
  1
신규
  1
신규
  1
*
  1
*
 70
     0
  1
*
  1
*
  0
XRECORD
  5
81
102
{ACAD_REACTORS
330
16
102
}
330
16
100
AcDbXrecord
  1
실박스
  1
BLO,SYM,SYM1,SYM2
  1
*
  1
*
 70
     0
  1
*
  1
*
  0
XRECORD
  5
82
102
{ACAD_REACTORS
330
16
102
}
330
16
100
AcDbXrecord
  1
우리토목
  1
w-*
  1
*
  1
*
 70
     0
  1
*
  1
*
  0
XRECORD
  5
83
102
{ACAD_REACTORS
330
16
102
}
330
16
100
AcDbXrecord
  1
주차
  1
car*
  1
*
  1
*
 70
     0
  1
*
  1
*
  0
XRECORD
  5
84
102
{ACAD_REACTORS
330
16
102
}
330
16
100
AcDbXrecord
  1
지상정밀
  1
*
  1
*
  1
*
 70
     0
  1
*
  1
*
  0
XRECORD
  5
85
102
{ACAD_REACTORS
330
16
102
}
330
16
100
AcDbXrecord
  1
쩜선
  1
*
  1
*
  1
*
 70
     0
  1
*
  1
*
  0
XRECORD
  5
86
102
{ACAD_REACTORS
330
16
102
}
330
16
100
AcDbXrecord
  1
플로터 작업층
  1
*
  1
*
  1
*
 70
  1025
  1
*
  1
*
  0
XRECORD
  5
87
102
{ACAD_REACTORS
330
16
102
}
330
16
100
AcDbXrecord
  1
현재 작업층
  1
*
  1
*
  1
*
 70
     1
  1
*
  1
*
  0
XRECORD
  5
88
102
{ACAD_REACTORS
330
16
102
}
330
16
100
AcDbXrecord
  1
현재 잠금
  1
*
  1
*
  1
*
 70
   257
  1
*
  1
*
  0
ENDSEC
  0
EOF
