  0
SECTION
  2
HEADER
  9
$ACADVER
  1
AC1014
  9
$ACADMAINTVER
 70
     9
  9
$DWGCODEPAGE
  3
ANSI_949
  9
$INSBASE
 10
0.0
 20
0.0
 30
0.0
  9
$EXTMIN
 10
-2.685579498138395
 20
-24.416468710755
 30
-0.0015258207003583
  9
$EXTMAX
 10
353.7486880579672
 20
374.2609590005704
 30
0.0000000349246037
  9
$LIMMIN
 10
0.0
 20
0.0
  9
$LIMMAX
 10
420.0
 20
297.0
  9
$ORTHOMODE
 70
     0
  9
$REGENMODE
 70
     1
  9
$FILLMODE
 70
     1
  9
$QTEXTMODE
 70
     0
  9
$MIRRTEXT
 70
     0
  9
$DRAGMODE
 70
     2
  9
$LTSCALE
 40
0.2
  9
$OSMODE
 70
   567
  9
$ATTMODE
 70
     1
  9
$TEXTSIZE
 40
5.777225951253058
  9
$TRACEWID
 40
1.0
  9
$TEXTSTYLE
  7
STANDARD
  9
$CLAYER
  8
0
  9
$CELTYPE
  6
BYLAYER
  9
$CECOLOR
 62
   256
  9
$CELTSCALE
 40
1.0
  9
$DELOBJ
 70
     1
  9
$DISPSILH
 70
     0
  9
$DIMSCALE
 40
1.0
  9
$DIMASZ
 40
3.0
  9
$DIMEXO
 40
1.0
  9
$DIMDLI
 40
10.0
  9
$DIMRND
 40
0.0
  9
$DIMDLE
 40
0.0
  9
$DIMEXE
 40
0.6
  9
$DIMTP
 40
0.0
  9
$DIMTM
 40
0.0
  9
$DIMTXT
 40
3.5
  9
$DIMCEN
 40
0.09
  9
$DIMTSZ
 40
0.0
  9
$DIMTOL
 70
     0
  9
$DIMLIM
 70
     0
  9
$DIMTIH
 70
     0
  9
$DIMTOH
 70
     0
  9
$DIMSE1
 70
     0
  9
$DIMSE2
 70
     0
  9
$DIMTAD
 70
     1
  9
$DIMZIN
 70
     8
  9
$DIMBLK
  1

  9
$DIMASO
 70
     1
  9
$DIMSHO
 70
     1
  9
$DIMPOST
  1

  9
$DIMAPOST
  1

  9
$DIMALT
 70
     0
  9
$DIMALTD
 70
     2
  9
$DIMALTF
 40
25.4
  9
$DIMLFAC
 40
1.0
  9
$DIMTOFL
 70
     1
  9
$DIMTVP
 40
0.0
  9
$DIMTIX
 70
     1
  9
$DIMSOXD
 70
     0
  9
$DIMSAH
 70
     0
  9
$DIMBLK1
  1

  9
$DIMBLK2
  1

  9
$DIMSTYLE
  2
1_1_2
  9
$DIMCLRD
 70
   123
  9
$DIMCLRE
 70
   123
  9
$DIMCLRT
 70
     3
  9
$DIMTFAC
 40
1.0
  9
$DIMGAP
 40
1.0
  9
$DIMJUST
 70
     0
  9
$DIMSD1
 70
     0
  9
$DIMSD2
 70
     0
  9
$DIMTOLJ
 70
     1
  9
$DIMTZIN
 70
     0
  9
$DIMALTZ
 70
     0
  9
$DIMALTTZ
 70
     0
  9
$DIMFIT
 70
     0
  9
$DIMUPT
 70
     1
  9
$DIMUNIT
 70
     2
  9
$DIMDEC
 70
     2
  9
$DIMTDEC
 70
     2
  9
$DIMALTU
 70
     2
  9
$DIMALTTD
 70
     2
  9
$DIMTXSTY
  7
STANDARD
  9
$DIMAUNIT
 70
     1
  9
$LUNITS
 70
     2
  9
$LUPREC
 70
     4
  9
$SKETCHINC
 40
1.0
  9
$FILLETRAD
 40
0.5
  9
$AUNITS
 70
     0
  9
$AUPREC
 70
     0
  9
$MENU
  1
.
  9
$ELEVATION
 40
0.0
  9
$PELEVATION
 40
0.0
  9
$THICKNESS
 40
0.0
  9
$LIMCHECK
 70
     0
  9
$BLIPMODE
 70
     1
  9
$CHAMFERA
 40
1.0
  9
$CHAMFERB
 40
1.0
  9
$CHAMFERC
 40
20.0
  9
$CHAMFERD
 40
0.0
  9
$SKPOLY
 70
     0
  9
$TDCREATE
 40
2452839.586179271
  9
$TDUPDATE
 40
2453376.728727384
  9
$TDINDWG
 40
11.1168291782
  9
$TDUSRTIMER
 40
11.1168290046
  9
$USRTIMER
 70
     1
  9
$ANGBASE
 50
0.0
  9
$ANGDIR
 70
     0
  9
$PDMODE
 70
     0
  9
$PDSIZE
 40
0.0
  9
$PLINEWID
 40
0.0
  9
$COORDS
 70
     2
  9
$SPLFRAME
 70
     0
  9
$SPLINETYPE
 70
     6
  9
$SPLINESEGS
 70
   800
  9
$ATTDIA
 70
     0
  9
$ATTREQ
 70
     1
  9
$HANDLING
 70
 22529
  9
$HANDSEED
  5
403
  9
$SURFTAB1
 70
     6
  9
$SURFTAB2
 70
     6
  9
$SURFTYPE
 70
     6
  9
$SURFU
 70
     6
  9
$SURFV
 70
     6
  9
$UCSNAME
  2

  9
$UCSORG
 10
0.0
 20
0.0
 30
0.0
  9
$UCSXDIR
 10
1.0
 20
0.0
 30
0.0
  9
$UCSYDIR
 10
0.0
 20
1.0
 30
0.0
  9
$PUCSNAME
  2

  9
$PUCSORG
 10
0.0
 20
0.0
 30
0.0
  9
$PUCSXDIR
 10
1.0
 20
0.0
 30
0.0
  9
$PUCSYDIR
 10
0.0
 20
1.0
 30
0.0
  9
$USERI1
 70
     0
  9
$USERI2
 70
     0
  9
$USERI3
 70
     0
  9
$USERI4
 70
     0
  9
$USERI5
 70
     0
  9
$USERR1
 40
0.0
  9
$USERR2
 40
0.0
  9
$USERR3
 40
0.0
  9
$USERR4
 40
0.0
  9
$USERR5
 40
0.0
  9
$WORLDVIEW
 70
     1
  9
$SHADEDGE
 70
     3
  9
$SHADEDIF
 70
    70
  9
$TILEMODE
 70
     1
  9
$MAXACTVP
 70
    48
  9
$PINSBASE
 10
0.0
 20
0.0
 30
0.0
  9
$PLIMCHECK
 70
     0
  9
$PEXTMIN
 10
0.0
 20
0.0
 30
0.0
  9
$PEXTMAX
 10
0.0
 20
0.0
 30
0.0
  9
$PLIMMIN
 10
0.0
 20
0.0
  9
$PLIMMAX
 10
12.0
 20
9.0
  9
$UNITMODE
 70
     0
  9
$VISRETAIN
 70
     1
  9
$PLINEGEN
 70
     0
  9
$PSLTSCALE
 70
     1
  9
$TREEDEPTH
 70
  3020
  9
$PICKSTYLE
 70
     0
  9
$CMLSTYLE
  2
STANDARD
  9
$CMLJUST
 70
     0
  9
$CMLSCALE
 40
20.0
  9
$PROXYGRAPHICS
 70
     1
  9
$MEASUREMENT
 70
     1
  0
ENDSEC
  0
SECTION
  2
CLASSES
  0
CLASS
  1
ACDBDICTIONARYWDFLT
  2
AcDbDictionaryWithDefault
  3
AutoCAD 2000
 90
        0
280
     0
281
     0
  0
CLASS
  1
ACDBPLACEHOLDER
  2
AcDbPlaceHolder
  3
AutoCAD 2000
 90
        0
280
     0
281
     0
  0
CLASS
  1
LAYOUT
  2
AcDbLayout
  3
AutoCAD 2000
 90
        0
280
     0
281
     0
  0
CLASS
  1
DICTIONARYVAR
  2
AcDbDictionaryVar
  3
AutoCAD 2000
 90
        0
280
     0
281
     0
  0
CLASS
  1
DIMASSOC
  2
AcDbDimAssoc
  3
"AcDbDimAssoc|Product Desc:     AcDim ARX App For Dimension|Company:          Autodesk, Inc.|WEB Address:      www.autodesk.com"
 90
        0
280
     0
281
     0
  0
CLASS
  1
LONG_TRANSACTION
  2
AcDbLongTransaction
  3
AutoCAD 2000
 90
        0
280
     0
281
     0
  0
CLASS
  1
LWPOLYLINE
  2
AcDbPolyline
  3
AutoCAD 2000
 90
        0
280
     0
281
     1
  0
CLASS
  1
HATCH
  2
AcDbHatch
  3
AutoCAD 2000
 90
        0
280
     0
281
     1
  0
CLASS
  1
XRECORD
  2
AcDbXrecord
  3
AutoCAD 2000
 90
        0
280
     0
281
     0
  0
CLASS
  1
LONG_TRANSACTION
  2
AcDbLongTransaction
  3
AutoCAD 2000
 90
        0
280
     0
281
     0
  0
CLASS
  1
LWPOLYLINE
  2
AcDbPolyline
  3
AutoCAD 2000
 90
        0
280
     0
281
     1
  0
CLASS
  1
HATCH
  2
AcDbHatch
  3
AutoCAD 2000
 90
        0
280
     0
281
     1
  0
CLASS
  1
XRECORD
  2
AcDbXrecord
  3
AutoCAD 2000
 90
        0
280
     0
281
     0
  0
CLASS
  1
LONG_TRANSACTION
  2
AcDbLongTransaction
  3
AutoCAD 2000
 90
        0
280
     0
281
     0
  0
CLASS
  1
LWPOLYLINE
  2
AcDbPolyline
  3
AutoCAD 2000
 90
        0
280
     0
281
     1
  0
CLASS
  1
HATCH
  2
AcDbHatch
  3
AutoCAD 2000
 90
        0
280
     0
281
     1
  0
CLASS
  1
XRECORD
  2
AcDbXrecord
  3
AutoCAD 2000
 90
        0
280
     0
281
     0
  0
CLASS
  1
LONG_TRANSACTION
  2
AcDbLongTransaction
  3
AutoCAD 2000
 90
        0
280
     0
281
     0
  0
CLASS
  1
LWPOLYLINE
  2
AcDbPolyline
  3
AutoCAD 2000
 90
        0
280
     0
281
     1
  0
CLASS
  1
HATCH
  2
AcDbHatch
  3
AutoCAD 2000
 90
        0
280
     0
281
     1
  0
CLASS
  1
XRECORD
  2
AcDbXrecord
  3
AutoCAD 2000
 90
        0
280
     0
281
     0
  0
CLASS
  1
LONG_TRANSACTION
  2
AcDbLongTransaction
  3
AutoCAD 2000
 90
        0
280
     0
281
     0
  0
CLASS
  1
LWPOLYLINE
  2
AcDbPolyline
  3
AutoCAD 2000
 90
        0
280
     0
281
     1
  0
CLASS
  1
HATCH
  2
AcDbHatch
  3
AutoCAD 2000
 90
        0
280
     0
281
     1
  0
CLASS
  1
XRECORD
  2
AcDbXrecord
  3
AutoCAD 2000
 90
        0
280
     0
281
     0
  0
CLASS
  1
LONG_TRANSACTION
  2
AcDbLongTransaction
  3
AutoCAD 2000
 90
        0
280
     0
281
     0
  0
CLASS
  1
LWPOLYLINE
  2
AcDbPolyline
  3
AutoCAD 2000
 90
        0
280
     0
281
     1
  0
CLASS
  1
HATCH
  2
AcDbHatch
  3
AutoCAD 2000
 90
        0
280
     0
281
     1
  0
CLASS
  1
XRECORD
  2
AcDbXrecord
  3
AutoCAD 2000
 90
        0
280
     0
281
     0
  0
CLASS
  1
LONG_TRANSACTION
  2
AcDbLongTransaction
  3
AutoCAD 2000
 90
        0
280
     0
281
     0
  0
CLASS
  1
LWPOLYLINE
  2
AcDbPolyline
  3
AutoCAD 2000
 90
        0
280
     0
281
     1
  0
CLASS
  1
HATCH
  2
AcDbHatch
  3
AutoCAD 2000
 90
        0
280
     0
281
     1
  0
CLASS
  1
XRECORD
  2
AcDbXrecord
  3
AutoCAD 2000
 90
        0
280
     0
281
     0
  0
CLASS
  1
LONG_TRANSACTION
  2
AcDbLongTransaction
  3
AutoCAD 2000
 90
        0
280
     0
281
     0
  0
CLASS
  1
LWPOLYLINE
  2
AcDbPolyline
  3
AutoCAD 2000
 90
        0
280
     0
281
     1
  0
CLASS
  1
HATCH
  2
AcDbHatch
  3
AutoCAD 2000
 90
        0
280
     0
281
     1
  0
CLASS
  1
XRECORD
  2
AcDbXrecord
  3
AutoCAD 2000
 90
        0
280
     0
281
     0
  0
CLASS
  1
LONG_TRANSACTION
  2
AcDbLongTransaction
  3
AutoCAD 2000
 90
        0
280
     0
281
     0
  0
CLASS
  1
LWPOLYLINE
  2
AcDbPolyline
  3
AutoCAD 2000
 90
        0
280
     0
281
     1
  0
CLASS
  1
HATCH
  2
AcDbHatch
  3
AutoCAD 2000
 90
        0
280
     0
281
     1
  0
CLASS
  1
XRECORD
  2
AcDbXrecord
  3
AutoCAD 2000
 90
        0
280
     0
281
     0
  0
CLASS
  1
LONG_TRANSACTION
  2
AcDbLongTransaction
  3
AutoCAD 2000
 90
        0
280
     0
281
     0
  0
CLASS
  1
LWPOLYLINE
  2
AcDbPolyline
  3
AutoCAD 2000
 90
        0
280
     0
281
     1
  0
CLASS
  1
HATCH
  2
AcDbHatch
  3
AutoCAD 2000
 90
        0
280
     0
281
     1
  0
CLASS
  1
XRECORD
  2
AcDbXrecord
  3
AutoCAD 2000
 90
        0
280
     0
281
     0
  0
CLASS
  1
LONG_TRANSACTION
  2
AcDbLongTransaction
  3
AutoCAD 2000
 90
        0
280
     0
281
     0
  0
CLASS
  1
LWPOLYLINE
  2
AcDbPolyline
  3
AutoCAD 2000
 90
        0
280
     0
281
     1
  0
CLASS
  1
HATCH
  2
AcDbHatch
  3
AutoCAD 2000
 90
        0
280
     0
281
     1
  0
CLASS
  1
XRECORD
  2
AcDbXrecord
  3
AutoCAD 2000
 90
        0
280
     0
281
     0
  0
CLASS
  1
LONG_TRANSACTION
  2
AcDbLongTransaction
  3
AutoCAD 2000
 90
        0
280
     0
281
     0
  0
CLASS
  1
LWPOLYLINE
  2
AcDbPolyline
  3
AutoCAD 2000
 90
        0
280
     0
281
     1
  0
CLASS
  1
HATCH
  2
AcDbHatch
  3
AutoCAD 2000
 90
        0
280
     0
281
     1
  0
CLASS
  1
XRECORD
  2
AcDbXrecord
  3
AutoCAD 2000
 90
        0
280
     0
281
     0
  0
CLASS
  1
LONG_TRANSACTION
  2
AcDbLongTransaction
  3
AutoCAD 2000
 90
        0
280
     0
281
     0
  0
CLASS
  1
LWPOLYLINE
  2
AcDbPolyline
  3
AutoCAD 2000
 90
        0
280
     0
281
     1
  0
CLASS
  1
HATCH
  2
AcDbHatch
  3
AutoCAD 2000
 90
        0
280
     0
281
     1
  0
CLASS
  1
XRECORD
  2
AcDbXrecord
  3
AutoCAD 2000
 90
        0
280
     0
281
     0
  0
CLASS
  1
LONG_TRANSACTION
  2
AcDbLongTransaction
  3
AutoCAD 2000
 90
        0
280
     0
281
     0
  0
CLASS
  1
LWPOLYLINE
  2
AcDbPolyline
  3
AutoCAD 2000
 90
        0
280
     0
281
     1
  0
CLASS
  1
HATCH
  2
AcDbHatch
  3
AutoCAD 2000
 90
        0
280
     0
281
     1
  0
CLASS
  1
XRECORD
  2
AcDbXrecord
  3
AutoCAD 2000
 90
        0
280
     0
281
     0
  0
CLASS
  1
LONG_TRANSACTION
  2
AcDbLongTransaction
  3
AutoCAD 2000
 90
        0
280
     0
281
     0
  0
CLASS
  1
LWPOLYLINE
  2
AcDbPolyline
  3
AutoCAD 2000
 90
        0
280
     0
281
     1
  0
CLASS
  1
HATCH
  2
AcDbHatch
  3
AutoCAD 2000
 90
        0
280
     0
281
     1
  0
CLASS
  1
XRECORD
  2
AcDbXrecord
  3
AutoCAD 2000
 90
        0
280
     0
281
     0
  0
CLASS
  1
LONG_TRANSACTION
  2
AcDbLongTransaction
  3
AutoCAD 2000
 90
        0
280
     0
281
     0
  0
CLASS
  1
LWPOLYLINE
  2
AcDbPolyline
  3
AutoCAD 2000
 90
        0
280
     0
281
     1
  0
CLASS
  1
HATCH
  2
AcDbHatch
  3
AutoCAD 2000
 90
        0
280
     0
281
     1
  0
CLASS
  1
XRECORD
  2
AcDbXrecord
  3
AutoCAD 2000
 90
        0
280
     0
281
     0
  0
CLASS
  1
LONG_TRANSACTION
  2
AcDbLongTransaction
  3
AutoCAD 2000
 90
        0
280
     0
281
     0
  0
CLASS
  1
LWPOLYLINE
  2
AcDbPolyline
  3
AutoCAD 2000
 90
        0
280
     0
281
     1
  0
CLASS
  1
HATCH
  2
AcDbHatch
  3
AutoCAD 2000
 90
        0
280
     0
281
     1
  0
CLASS
  1
XRECORD
  2
AcDbXrecord
  3
AutoCAD 2000
 90
        0
280
     0
281
     0
  0
CLASS
  1
LONG_TRANSACTION
  2
AcDbLongTransaction
  3
AutoCAD 2000
 90
        0
280
     0
281
     0
  0
CLASS
  1
LWPOLYLINE
  2
AcDbPolyline
  3
AutoCAD 2000
 90
        0
280
     0
281
     1
  0
CLASS
  1
HATCH
  2
AcDbHatch
  3
AutoCAD 2000
 90
        0
280
     0
281
     1
  0
CLASS
  1
XRECORD
  2
AcDbXrecord
  3
AutoCAD 2000
 90
        0
280
     0
281
     0
  0
CLASS
  1
LONG_TRANSACTION
  2
AcDbLongTransaction
  3
AutoCAD 2000
 90
        0
280
     0
281
     0
  0
CLASS
  1
LWPOLYLINE
  2
AcDbPolyline
  3
AutoCAD 2000
 90
        0
280
     0
281
     1
  0
CLASS
  1
HATCH
  2
AcDbHatch
  3
AutoCAD 2000
 90
        0
280
     0
281
     1
  0
CLASS
  1
XRECORD
  2
AcDbXrecord
  3
AutoCAD 2000
 90
        0
280
     0
281
     0
  0
CLASS
  1
LONG_TRANSACTION
  2
AcDbLongTransaction
  3
AutoCAD 2000
 90
        0
280
     0
281
     0
  0
CLASS
  1
LWPOLYLINE
  2
AcDbPolyline
  3
AutoCAD 2000
 90
        0
280
     0
281
     1
  0
CLASS
  1
HATCH
  2
AcDbHatch
  3
AutoCAD 2000
 90
        0
280
     0
281
     1
  0
CLASS
  1
XRECORD
  2
AcDbXrecord
  3
AutoCAD 2000
 90
        0
280
     0
281
     0
  0
CLASS
  1
LONG_TRANSACTION
  2
AcDbLongTransaction
  3
AutoCAD 2000
 90
        0
280
     0
281
     0
  0
CLASS
  1
LWPOLYLINE
  2
AcDbPolyline
  3
AutoCAD 2000
 90
        0
280
     0
281
     1
  0
CLASS
  1
HATCH
  2
AcDbHatch
  3
AutoCAD 2000
 90
        0
280
     0
281
     1
  0
CLASS
  1
XRECORD
  2
AcDbXrecord
  3
AutoCAD 2000
 90
        0
280
     0
281
     0
  0
CLASS
  1
LONG_TRANSACTION
  2
AcDbLongTransaction
  3
AutoCAD 2000
 90
        0
280
     0
281
     0
  0
CLASS
  1
LWPOLYLINE
  2
AcDbPolyline
  3
AutoCAD 2000
 90
        0
280
     0
281
     1
  0
CLASS
  1
HATCH
  2
AcDbHatch
  3
AutoCAD 2000
 90
        0
280
     0
281
     1
  0
CLASS
  1
XRECORD
  2
AcDbXrecord
  3
AutoCAD 2000
 90
        0
280
     0
281
     0
  0
CLASS
  1
LONG_TRANSACTION
  2
AcDbLongTransaction
  3
AutoCAD 2000
 90
        0
280
     0
281
     0
  0
CLASS
  1
LWPOLYLINE
  2
AcDbPolyline
  3
AutoCAD 2000
 90
        0
280
     0
281
     1
  0
CLASS
  1
HATCH
  2
AcDbHatch
  3
AutoCAD 2000
 90
        0
280
     0
281
     1
  0
CLASS
  1
XRECORD
  2
AcDbXrecord
  3
AutoCAD 2000
 90
        0
280
     0
281
     0
  0
CLASS
  1
LONG_TRANSACTION
  2
AcDbLongTransaction
  3
AutoCAD 2000
 90
        0
280
     0
281
     0
  0
CLASS
  1
LWPOLYLINE
  2
AcDbPolyline
  3
AutoCAD 2000
 90
        0
280
     0
281
     1
  0
CLASS
  1
HATCH
  2
AcDbHatch
  3
AutoCAD 2000
 90
        0
280
     0
281
     1
  0
CLASS
  1
XRECORD
  2
AcDbXrecord
  3
AutoCAD 2000
 90
        0
280
     0
281
     0
  0
CLASS
  1
LONG_TRANSACTION
  2
AcDbLongTransaction
  3
AutoCAD 2000
 90
        0
280
     0
281
     0
  0
CLASS
  1
LWPOLYLINE
  2
AcDbPolyline
  3
AutoCAD 2000
 90
        0
280
     0
281
     1
  0
CLASS
  1
HATCH
  2
AcDbHatch
  3
AutoCAD 2000
 90
        0
280
     0
281
     1
  0
CLASS
  1
XRECORD
  2
AcDbXrecord
  3
AutoCAD 2000
 90
        0
280
     0
281
     0
  0
CLASS
  1
LONG_TRANSACTION
  2
AcDbLongTransaction
  3
AutoCAD 2000
 90
        0
280
     0
281
     0
  0
CLASS
  1
LWPOLYLINE
  2
AcDbPolyline
  3
AutoCAD 2000
 90
        0
280
     0
281
     1
  0
CLASS
  1
HATCH
  2
AcDbHatch
  3
AutoCAD 2000
 90
        0
280
     0
281
     1
  0
CLASS
  1
XRECORD
  2
AcDbXrecord
  3
AutoCAD 2000
 90
        0
280
     0
281
     0
  0
CLASS
  1
LONG_TRANSACTION
  2
AcDbLongTransaction
  3
AutoCAD 2000
 90
        0
280
     0
281
     0
  0
CLASS
  1
LWPOLYLINE
  2
AcDbPolyline
  3
AutoCAD 2000
 90
        0
280
     0
281
     1
  0
CLASS
  1
HATCH
  2
AcDbHatch
  3
AutoCAD 2000
 90
        0
280
     0
281
     1
  0
CLASS
  1
XRECORD
  2
AcDbXrecord
  3
AutoCAD 2000
 90
        0
280
     0
281
     0
  0
CLASS
  1
LONG_TRANSACTION
  2
AcDbLongTransaction
  3
AutoCAD 2000
 90
        0
280
     0
281
     0
  0
CLASS
  1
LWPOLYLINE
  2
AcDbPolyline
  3
AutoCAD 2000
 90
        0
280
     0
281
     1
  0
CLASS
  1
HATCH
  2
AcDbHatch
  3
AutoCAD 2000
 90
        0
280
     0
281
     1
  0
CLASS
  1
XRECORD
  2
AcDbXrecord
  3
AutoCAD 2000
 90
        0
280
     0
281
     0
  0
CLASS
  1
LONG_TRANSACTION
  2
AcDbLongTransaction
  3
AutoCAD 2000
 90
        0
280
     0
281
     0
  0
CLASS
  1
LWPOLYLINE
  2
AcDbPolyline
  3
AutoCAD 2000
 90
        0
280
     0
281
     1
  0
CLASS
  1
HATCH
  2
AcDbHatch
  3
AutoCAD 2000
 90
        0
280
     0
281
     1
  0
CLASS
  1
XRECORD
  2
AcDbXrecord
  3
AutoCAD 2000
 90
        0
280
     0
281
     0
  0
CLASS
  1
LONG_TRANSACTION
  2
AcDbLongTransaction
  3
AutoCAD 2000
 90
        0
280
     0
281
     0
  0
CLASS
  1
LWPOLYLINE
  2
AcDbPolyline
  3
AutoCAD 2000
 90
        0
280
     0
281
     1
  0
CLASS
  1
HATCH
  2
AcDbHatch
  3
AutoCAD 2000
 90
        0
280
     0
281
     1
  0
CLASS
  1
XRECORD
  2
AcDbXrecord
  3
AutoCAD 2000
 90
        0
280
     0
281
     0
  0
CLASS
  1
LONG_TRANSACTION
  2
AcDbLongTransaction
  3
AutoCAD 2000
 90
        0
280
     0
281
     0
  0
CLASS
  1
LWPOLYLINE
  2
AcDbPolyline
  3
AutoCAD 2000
 90
        0
280
     0
281
     1
  0
CLASS
  1
HATCH
  2
AcDbHatch
  3
AutoCAD 2000
 90
        0
280
     0
281
     1
  0
CLASS
  1
XRECORD
  2
AcDbXrecord
  3
AutoCAD 2000
 90
        0
280
     0
281
     0
  0
CLASS
  1
LONG_TRANSACTION
  2
AcDbLongTransaction
  3
AutoCAD 2000
 90
        0
280
     0
281
     0
  0
CLASS
  1
LWPOLYLINE
  2
AcDbPolyline
  3
AutoCAD 2000
 90
        0
280
     0
281
     1
  0
CLASS
  1
HATCH
  2
AcDbHatch
  3
AutoCAD 2000
 90
        0
280
     0
281
     1
  0
CLASS
  1
XRECORD
  2
AcDbXrecord
  3
AutoCAD 2000
 90
        0
280
     0
281
     0
  0
CLASS
  1
LONG_TRANSACTION
  2
AcDbLongTransaction
  3
AutoCAD 2000
 90
        0
280
     0
281
     0
  0
CLASS
  1
LWPOLYLINE
  2
AcDbPolyline
  3
AutoCAD 2000
 90
        0
280
     0
281
     1
  0
CLASS
  1
HATCH
  2
AcDbHatch
  3
AutoCAD 2000
 90
        0
280
     0
281
     1
  0
CLASS
  1
XRECORD
  2
AcDbXrecord
  3
AutoCAD 2000
 90
        0
280
     0
281
     0
  0
CLASS
  1
LONG_TRANSACTION
  2
AcDbLongTransaction
  3
AutoCAD 2000
 90
        0
280
     0
281
     0
  0
CLASS
  1
LWPOLYLINE
  2
AcDbPolyline
  3
AutoCAD 2000
 90
        0
280
     0
281
     1
  0
CLASS
  1
HATCH
  2
AcDbHatch
  3
AutoCAD 2000
 90
        0
280
     0
281
     1
  0
CLASS
  1
XRECORD
  2
AcDbXrecord
  3
AutoCAD 2000
 90
        0
280
     0
281
     0
  0
CLASS
  1
LONG_TRANSACTION
  2
AcDbLongTransaction
  3
AutoCAD 2000
 90
        0
280
     0
281
     0
  0
CLASS
  1
LWPOLYLINE
  2
AcDbPolyline
  3
AutoCAD 2000
 90
        0
280
     0
281
     1
  0
CLASS
  1
HATCH
  2
AcDbHatch
  3
AutoCAD 2000
 90
        0
280
     0
281
     1
  0
CLASS
  1
XRECORD
  2
AcDbXrecord
  3
AutoCAD 2000
 90
        0
280
     0
281
     0
  0
CLASS
  1
LONG_TRANSACTION
  2
AcDbLongTransaction
  3
AutoCAD 2000
 90
        0
280
     0
281
     0
  0
CLASS
  1
LWPOLYLINE
  2
AcDbPolyline
  3
AutoCAD 2000
 90
        0
280
     0
281
     1
  0
CLASS
  1
HATCH
  2
AcDbHatch
  3
AutoCAD 2000
 90
        0
280
     0
281
     1
  0
CLASS
  1
XRECORD
  2
AcDbXrecord
  3
AutoCAD 2000
 90
        0
280
     0
281
     0
  0
CLASS
  1
LONG_TRANSACTION
  2
AcDbLongTransaction
  3
AutoCAD 2000
 90
        0
280
     0
281
     0
  0
CLASS
  1
LWPOLYLINE
  2
AcDbPolyline
  3
AutoCAD 2000
 90
        0
280
     0
281
     1
  0
CLASS
  1
HATCH
  2
AcDbHatch
  3
AutoCAD 2000
 90
        0
280
     0
281
     1
  0
CLASS
  1
XRECORD
  2
AcDbXrecord
  3
AutoCAD 2000
 90
        0
280
     0
281
     0
  0
CLASS
  1
LONG_TRANSACTION
  2
AcDbLongTransaction
  3
AutoCAD 2000
 90
        0
280
     0
281
     0
  0
CLASS
  1
LWPOLYLINE
  2
AcDbPolyline
  3
AutoCAD 2000
 90
        0
280
     0
281
     1
  0
CLASS
  1
HATCH
  2
AcDbHatch
  3
AutoCAD 2000
 90
        0
280
     0
281
     1
  0
CLASS
  1
XRECORD
  2
AcDbXrecord
  3
AutoCAD 2000
 90
        0
280
     0
281
     0
  0
CLASS
  1
LONG_TRANSACTION
  2
AcDbLongTransaction
  3
AutoCAD 2000
 90
        0
280
     0
281
     0
  0
CLASS
  1
LWPOLYLINE
  2
AcDbPolyline
  3
AutoCAD 2000
 90
        0
280
     0
281
     1
  0
CLASS
  1
HATCH
  2
AcDbHatch
  3
AutoCAD 2000
 90
        0
280
     0
281
     1
  0
CLASS
  1
XRECORD
  2
AcDbXrecord
  3
AutoCAD 2000
 90
        0
280
     0
281
     0
  0
CLASS
  1
LONG_TRANSACTION
  2
AcDbLongTransaction
  3
AutoCAD 2000
 90
        0
280
     0
281
     0
  0
CLASS
  1
LWPOLYLINE
  2
AcDbPolyline
  3
AutoCAD 2000
 90
        0
280
     0
281
     1
  0
CLASS
  1
HATCH
  2
AcDbHatch
  3
AutoCAD 2000
 90
        0
280
     0
281
     1
  0
CLASS
  1
XRECORD
  2
AcDbXrecord
  3
AutoCAD 2000
 90
        0
280
     0
281
     0
  0
CLASS
  1
LONG_TRANSACTION
  2
AcDbLongTransaction
  3
AutoCAD 2000
 90
        0
280
     0
281
     0
  0
CLASS
  1
LWPOLYLINE
  2
AcDbPolyline
  3
AutoCAD 2000
 90
        0
280
     0
281
     1
  0
CLASS
  1
HATCH
  2
AcDbHatch
  3
AutoCAD 2000
 90
        0
280
     0
281
     1
  0
CLASS
  1
XRECORD
  2
AcDbXrecord
  3
AutoCAD 2000
 90
        0
280
     0
281
     0
  0
CLASS
  1
LONG_TRANSACTION
  2
AcDbLongTransaction
  3
AutoCAD 2000
 90
        0
280
     0
281
     0
  0
CLASS
  1
LWPOLYLINE
  2
AcDbPolyline
  3
AutoCAD 2000
 90
        0
280
     0
281
     1
  0
CLASS
  1
HATCH
  2
AcDbHatch
  3
AutoCAD 2000
 90
        0
280
     0
281
     1
  0
CLASS
  1
XRECORD
  2
AcDbXrecord
  3
AutoCAD 2000
 90
        0
280
     0
281
     0
  0
CLASS
  1
LONG_TRANSACTION
  2
AcDbLongTransaction
  3
AutoCAD 2000
 90
        0
280
     0
281
     0
  0
CLASS
  1
LWPOLYLINE
  2
AcDbPolyline
  3
AutoCAD 2000
 90
        0
280
     0
281
     1
  0
CLASS
  1
HATCH
  2
AcDbHatch
  3
AutoCAD 2000
 90
        0
280
     0
281
     1
  0
CLASS
  1
XRECORD
  2
AcDbXrecord
  3
AutoCAD 2000
 90
        0
280
     0
281
     0
  0
CLASS
  1
LONG_TRANSACTION
  2
AcDbLongTransaction
  3
AutoCAD 2000
 90
        0
280
     0
281
     0
  0
CLASS
  1
LWPOLYLINE
  2
AcDbPolyline
  3
AutoCAD 2000
 90
        0
280
     0
281
     1
  0
CLASS
  1
HATCH
  2
AcDbHatch
  3
AutoCAD 2000
 90
        0
280
     0
281
     1
  0
CLASS
  1
XRECORD
  2
AcDbXrecord
  3
AutoCAD 2000
 90
        0
280
     0
281
     0
  0
CLASS
  1
LONG_TRANSACTION
  2
AcDbLongTransaction
  3
AutoCAD 2000
 90
        0
280
     0
281
     0
  0
CLASS
  1
LWPOLYLINE
  2
AcDbPolyline
  3
AutoCAD 2000
 90
        0
280
     0
281
     1
  0
CLASS
  1
HATCH
  2
AcDbHatch
  3
AutoCAD 2000
 90
        0
280
     0
281
     1
  0
CLASS
  1
XRECORD
  2
AcDbXrecord
  3
AutoCAD 2000
 90
        0
280
     0
281
     0
  0
CLASS
  1
LONG_TRANSACTION
  2
AcDbLongTransaction
  3
AutoCAD 2000
 90
        0
280
     0
281
     0
  0
CLASS
  1
LWPOLYLINE
  2
AcDbPolyline
  3
AutoCAD 2000
 90
        0
280
     0
281
     1
  0
CLASS
  1
HATCH
  2
AcDbHatch
  3
AutoCAD 2000
 90
        0
280
     0
281
     1
  0
CLASS
  1
XRECORD
  2
AcDbXrecord
  3
AutoCAD 2000
 90
        0
280
     0
281
     0
  0
CLASS
  1
LONG_TRANSACTION
  2
AcDbLongTransaction
  3
AutoCAD 2000
 90
        0
280
     0
281
     0
  0
CLASS
  1
LWPOLYLINE
  2
AcDbPolyline
  3
AutoCAD 2000
 90
        0
280
     0
281
     1
  0
CLASS
  1
HATCH
  2
AcDbHatch
  3
AutoCAD 2000
 90
        0
280
     0
281
     1
  0
CLASS
  1
XRECORD
  2
AcDbXrecord
  3
AutoCAD 2000
 90
        0
280
     0
281
     0
  0
CLASS
  1
LONG_TRANSACTION
  2
AcDbLongTransaction
  3
AutoCAD 2000
 90
        0
280
     0
281
     0
  0
CLASS
  1
LWPOLYLINE
  2
AcDbPolyline
  3
AutoCAD 2000
 90
        0
280
     0
281
     1
  0
CLASS
  1
HATCH
  2
AcDbHatch
  3
AutoCAD 2000
 90
        0
280
     0
281
     1
  0
CLASS
  1
XRECORD
  2
AcDbXrecord
  3
AutoCAD 2000
 90
        0
280
     0
281
     0
  0
CLASS
  1
LONG_TRANSACTION
  2
AcDbLongTransaction
  3
AutoCAD 2000
 90
        0
280
     0
281
     0
  0
CLASS
  1
LWPOLYLINE
  2
AcDbPolyline
  3
AutoCAD 2000
 90
        0
280
     0
281
     1
  0
CLASS
  1
HATCH
  2
AcDbHatch
  3
AutoCAD 2000
 90
        0
280
     0
281
     1
  0
CLASS
  1
XRECORD
  2
AcDbXrecord
  3
AutoCAD 2000
 90
        0
280
     0
281
     0
  0
CLASS
  1
LONG_TRANSACTION
  2
AcDbLongTransaction
  3
AutoCAD 2000
 90
        0
280
     0
281
     0
  0
CLASS
  1
LWPOLYLINE
  2
AcDbPolyline
  3
AutoCAD 2000
 90
        0
280
     0
281
     1
  0
CLASS
  1
HATCH
  2
AcDbHatch
  3
AutoCAD 2000
 90
        0
280
     0
281
     1
  0
CLASS
  1
XRECORD
  2
AcDbXrecord
  3
AutoCAD 2000
 90
        0
280
     0
281
     0
  0
CLASS
  1
LONG_TRANSACTION
  2
AcDbLongTransaction
  3
AutoCAD 2000
 90
        0
280
     0
281
     0
  0
CLASS
  1
LWPOLYLINE
  2
AcDbPolyline
  3
AutoCAD 2000
 90
        0
280
     0
281
     1
  0
CLASS
  1
HATCH
  2
AcDbHatch
  3
AutoCAD 2000
 90
        0
280
     0
281
     1
  0
CLASS
  1
XRECORD
  2
AcDbXrecord
  3
AutoCAD 2000
 90
        0
280
     0
281
     0
  0
CLASS
  1
LONG_TRANSACTION
  2
AcDbLongTransaction
  3
AutoCAD 2000
 90
        0
280
     0
281
     0
  0
CLASS
  1
LWPOLYLINE
  2
AcDbPolyline
  3
AutoCAD 2000
 90
        0
280
     0
281
     1
  0
CLASS
  1
HATCH
  2
AcDbHatch
  3
AutoCAD 2000
 90
        0
280
     0
281
     1
  0
CLASS
  1
XRECORD
  2
AcDbXrecord
  3
AutoCAD 2000
 90
        0
280
     0
281
     0
  0
CLASS
  1
LONG_TRANSACTION
  2
AcDbLongTransaction
  3
AutoCAD 2000
 90
        0
280
     0
281
     0
  0
CLASS
  1
LWPOLYLINE
  2
AcDbPolyline
  3
AutoCAD 2000
 90
        0
280
     0
281
     1
  0
CLASS
  1
HATCH
  2
AcDbHatch
  3
AutoCAD 2000
 90
        0
280
     0
281
     1
  0
CLASS
  1
XRECORD
  2
AcDbXrecord
  3
AutoCAD 2000
 90
        0
280
     0
281
     0
  0
CLASS
  1
LONG_TRANSACTION
  2
AcDbLongTransaction
  3
AutoCAD 2000
 90
        0
280
     0
281
     0
  0
CLASS
  1
LWPOLYLINE
  2
AcDbPolyline
  3
AutoCAD 2000
 90
        0
280
     0
281
     1
  0
CLASS
  1
HATCH
  2
AcDbHatch
  3
AutoCAD 2000
 90
        0
280
     0
281
     1
  0
CLASS
  1
XRECORD
  2
AcDbXrecord
  3
AutoCAD 2000
 90
        0
280
     0
281
     0
  0
CLASS
  1
LONG_TRANSACTION
  2
AcDbLongTransaction
  3
AutoCAD 2000
 90
        0
280
     0
281
     0
  0
CLASS
  1
LWPOLYLINE
  2
AcDbPolyline
  3
AutoCAD 2000
 90
        0
280
     0
281
     1
  0
CLASS
  1
HATCH
  2
AcDbHatch
  3
AutoCAD 2000
 90
        0
280
     0
281
     1
  0
CLASS
  1
XRECORD
  2
AcDbXrecord
  3
AutoCAD 2000
 90
        0
280
     0
281
     0
  0
CLASS
  1
LONG_TRANSACTION
  2
AcDbLongTransaction
  3
AutoCAD 2000
 90
        0
280
     0
281
     0
  0
CLASS
  1
LWPOLYLINE
  2
AcDbPolyline
  3
AutoCAD 2000
 90
        0
280
     0
281
     1
  0
CLASS
  1
HATCH
  2
AcDbHatch
  3
AutoCAD 2000
 90
        0
280
     0
281
     1
  0
CLASS
  1
XRECORD
  2
AcDbXrecord
  3
AutoCAD 2000
 90
        0
280
     0
281
     0
  0
CLASS
  1
LONG_TRANSACTION
  2
AcDbLongTransaction
  3
AutoCAD 2000
 90
        0
280
     0
281
     0
  0
CLASS
  1
LWPOLYLINE
  2
AcDbPolyline
  3
AutoCAD 2000
 90
        0
280
     0
281
     1
  0
CLASS
  1
HATCH
  2
AcDbHatch
  3
AutoCAD 2000
 90
        0
280
     0
281
     1
  0
CLASS
  1
XRECORD
  2
AcDbXrecord
  3
AutoCAD 2000
 90
        0
280
     0
281
     0
  0
CLASS
  1
LONG_TRANSACTION
  2
AcDbLongTransaction
  3
AutoCAD 2000
 90
        0
280
     0
281
     0
  0
CLASS
  1
LWPOLYLINE
  2
AcDbPolyline
  3
AutoCAD 2000
 90
        0
280
     0
281
     1
  0
CLASS
  1
HATCH
  2
AcDbHatch
  3
AutoCAD 2000
 90
        0
280
     0
281
     1
  0
CLASS
  1
XRECORD
  2
AcDbXrecord
  3
AutoCAD 2000
 90
        0
280
     0
281
     0
  0
CLASS
  1
LONG_TRANSACTION
  2
AcDbLongTransaction
  3
AutoCAD 2000
 90
        0
280
     0
281
     0
  0
CLASS
  1
LWPOLYLINE
  2
AcDbPolyline
  3
AutoCAD 2000
 90
        0
280
     0
281
     1
  0
CLASS
  1
HATCH
  2
AcDbHatch
  3
AutoCAD 2000
 90
        0
280
     0
281
     1
  0
CLASS
  1
XRECORD
  2
AcDbXrecord
  3
AutoCAD 2000
 90
        0
280
     0
281
     0
  0
CLASS
  1
LONG_TRANSACTION
  2
AcDbLongTransaction
  3
AutoCAD 2000
 90
        0
280
     0
281
     0
  0
CLASS
  1
LWPOLYLINE
  2
AcDbPolyline
  3
AutoCAD 2000
 90
        0
280
     0
281
     1
  0
CLASS
  1
HATCH
  2
AcDbHatch
  3
AutoCAD 2000
 90
        0
280
     0
281
     1
  0
CLASS
  1
XRECORD
  2
AcDbXrecord
  3
AutoCAD 2000
 90
        0
280
     0
281
     0
  0
CLASS
  1
LONG_TRANSACTION
  2
AcDbLongTransaction
  3
AutoCAD 2000
 90
        0
280
     0
281
     0
  0
CLASS
  1
LWPOLYLINE
  2
AcDbPolyline
  3
AutoCAD 2000
 90
        0
280
     0
281
     1
  0
CLASS
  1
HATCH
  2
AcDbHatch
  3
AutoCAD 2000
 90
        0
280
     0
281
     1
  0
CLASS
  1
XRECORD
  2
AcDbXrecord
  3
AutoCAD 2000
 90
        0
280
     0
281
     0
  0
CLASS
  1
LONG_TRANSACTION
  2
AcDbLongTransaction
  3
AutoCAD 2000
 90
        0
280
     0
281
     0
  0
CLASS
  1
LWPOLYLINE
  2
AcDbPolyline
  3
AutoCAD 2000
 90
        0
280
     0
281
     1
  0
CLASS
  1
HATCH
  2
AcDbHatch
  3
AutoCAD 2000
 90
        0
280
     0
281
     1
  0
CLASS
  1
XRECORD
  2
AcDbXrecord
  3
AutoCAD 2000
 90
        0
280
     0
281
     0
  0
CLASS
  1
LONG_TRANSACTION
  2
AcDbLongTransaction
  3
AutoCAD 2000
 90
        0
280
     0
281
     0
  0
CLASS
  1
LWPOLYLINE
  2
AcDbPolyline
  3
AutoCAD 2000
 90
        0
280
     0
281
     1
  0
CLASS
  1
HATCH
  2
AcDbHatch
  3
AutoCAD 2000
 90
        0
280
     0
281
     1
  0
CLASS
  1
XRECORD
  2
AcDbXrecord
  3
AutoCAD 2000
 90
        0
280
     0
281
     0
  0
CLASS
  1
LONG_TRANSACTION
  2
AcDbLongTransaction
  3
AutoCAD 2000
 90
        0
280
     0
281
     0
  0
CLASS
  1
LWPOLYLINE
  2
AcDbPolyline
  3
AutoCAD 2000
 90
        0
280
     0
281
     1
  0
CLASS
  1
HATCH
  2
AcDbHatch
  3
AutoCAD 2000
 90
        0
280
     0
281
     1
  0
CLASS
  1
XRECORD
  2
AcDbXrecord
  3
AutoCAD 2000
 90
        0
280
     0
281
     0
  0
CLASS
  1
LONG_TRANSACTION
  2
AcDbLongTransaction
  3
AutoCAD 2000
 90
        0
280
     0
281
     0
  0
CLASS
  1
LWPOLYLINE
  2
AcDbPolyline
  3
AutoCAD 2000
 90
        0
280
     0
281
     1
  0
CLASS
  1
HATCH
  2
AcDbHatch
  3
AutoCAD 2000
 90
        0
280
     0
281
     1
  0
CLASS
  1
XRECORD
  2
AcDbXrecord
  3
AutoCAD 2000
 90
        0
280
     0
281
     0
  0
CLASS
  1
LONG_TRANSACTION
  2
AcDbLongTransaction
  3
AutoCAD 2000
 90
        0
280
     0
281
     0
  0
CLASS
  1
LWPOLYLINE
  2
AcDbPolyline
  3
AutoCAD 2000
 90
        0
280
     0
281
     1
  0
CLASS
  1
HATCH
  2
AcDbHatch
  3
AutoCAD 2000
 90
        0
280
     0
281
     1
  0
CLASS
  1
XRECORD
  2
AcDbXrecord
  3
AutoCAD 2000
 90
        0
280
     0
281
     0
  0
CLASS
  1
LONG_TRANSACTION
  2
AcDbLongTransaction
  3
AutoCAD 2000
 90
        0
280
     0
281
     0
  0
CLASS
  1
LWPOLYLINE
  2
AcDbPolyline
  3
AutoCAD 2000
 90
        0
280
     0
281
     1
  0
CLASS
  1
HATCH
  2
AcDbHatch
  3
AutoCAD 2000
 90
        0
280
     0
281
     1
  0
CLASS
  1
XRECORD
  2
AcDbXrecord
  3
AutoCAD 2000
 90
        0
280
     0
281
     0
  0
CLASS
  1
LONG_TRANSACTION
  2
AcDbLongTransaction
  3
AutoCAD 2000
 90
        0
280
     0
281
     0
  0
CLASS
  1
LWPOLYLINE
  2
AcDbPolyline
  3
AutoCAD 2000
 90
        0
280
     0
281
     1
  0
CLASS
  1
HATCH
  2
AcDbHatch
  3
AutoCAD 2000
 90
        0
280
     0
281
     1
  0
CLASS
  1
XRECORD
  2
AcDbXrecord
  3
AutoCAD 2000
 90
        0
280
     0
281
     0
  0
CLASS
  1
LONG_TRANSACTION
  2
AcDbLongTransaction
  3
AutoCAD 2000
 90
        0
280
     0
281
     0
  0
CLASS
  1
LWPOLYLINE
  2
AcDbPolyline
  3
AutoCAD 2000
 90
        0
280
     0
281
     1
  0
CLASS
  1
HATCH
  2
AcDbHatch
  3
AutoCAD 2000
 90
        0
280
     0
281
     1
  0
CLASS
  1
XRECORD
  2
AcDbXrecord
  3
AutoCAD 2000
 90
        0
280
     0
281
     0
  0
CLASS
  1
LONG_TRANSACTION
  2
AcDbLongTransaction
  3
AutoCAD 2000
 90
        0
280
     0
281
     0
  0
CLASS
  1
LWPOLYLINE
  2
AcDbPolyline
  3
AutoCAD 2000
 90
        0
280
     0
281
     1
  0
CLASS
  1
HATCH
  2
AcDbHatch
  3
AutoCAD 2000
 90
        0
280
     0
281
     1
  0
CLASS
  1
XRECORD
  2
AcDbXrecord
  3
AutoCAD 2000
 90
        0
280
     0
281
     0
  0
CLASS
  1
LONG_TRANSACTION
  2
AcDbLongTransaction
  3
AutoCAD 2000
 90
        0
280
     0
281
     0
  0
CLASS
  1
LWPOLYLINE
  2
AcDbPolyline
  3
AutoCAD 2000
 90
        0
280
     0
281
     1
  0
CLASS
  1
HATCH
  2
AcDbHatch
  3
AutoCAD 2000
 90
        0
280
     0
281
     1
  0
CLASS
  1
XRECORD
  2
AcDbXrecord
  3
AutoCAD 2000
 90
        0
280
     0
281
     0
  0
CLASS
  1
LONG_TRANSACTION
  2
AcDbLongTransaction
  3
AutoCAD 2000
 90
        0
280
     0
281
     0
  0
CLASS
  1
LWPOLYLINE
  2
AcDbPolyline
  3
AutoCAD 2000
 90
        0
280
     0
281
     1
  0
CLASS
  1
HATCH
  2
AcDbHatch
  3
AutoCAD 2000
 90
        0
280
     0
281
     1
  0
CLASS
  1
XRECORD
  2
AcDbXrecord
  3
AutoCAD 2000
 90
        0
280
     0
281
     0
  0
CLASS
  1
LONG_TRANSACTION
  2
AcDbLongTransaction
  3
AutoCAD 2000
 90
        0
280
     0
281
     0
  0
CLASS
  1
LWPOLYLINE
  2
AcDbPolyline
  3
AutoCAD 2000
 90
        0
280
     0
281
     1
  0
CLASS
  1
HATCH
  2
AcDbHatch
  3
AutoCAD 2000
 90
        0
280
     0
281
     1
  0
CLASS
  1
XRECORD
  2
AcDbXrecord
  3
AutoCAD 2000
 90
        0
280
     0
281
     0
  0
CLASS
  1
LONG_TRANSACTION
  2
AcDbLongTransaction
  3
AutoCAD 2000
 90
        0
280
     0
281
     0
  0
CLASS
  1
LWPOLYLINE
  2
AcDbPolyline
  3
AutoCAD 2000
 90
        0
280
     0
281
     1
  0
CLASS
  1
HATCH
  2
AcDbHatch
  3
AutoCAD 2000
 90
        0
280
     0
281
     1
  0
CLASS
  1
XRECORD
  2
AcDbXrecord
  3
AutoCAD 2000
 90
        0
280
     0
281
     0
  0
CLASS
  1
LONG_TRANSACTION
  2
AcDbLongTransaction
  3
AutoCAD 2000
 90
        0
280
     0
281
     0
  0
CLASS
  1
LWPOLYLINE
  2
AcDbPolyline
  3
AutoCAD 2000
 90
        0
280
     0
281
     1
  0
CLASS
  1
HATCH
  2
AcDbHatch
  3
AutoCAD 2000
 90
        0
280
     0
281
     1
  0
CLASS
  1
XRECORD
  2
AcDbXrecord
  3
AutoCAD 2000
 90
        0
280
     0
281
     0
  0
CLASS
  1
LONG_TRANSACTION
  2
AcDbLongTransaction
  3
AutoCAD 2000
 90
        0
280
     0
281
     0
  0
CLASS
  1
LWPOLYLINE
  2
AcDbPolyline
  3
AutoCAD 2000
 90
        0
280
     0
281
     1
  0
CLASS
  1
HATCH
  2
AcDbHatch
  3
AutoCAD 2000
 90
        0
280
     0
281
     1
  0
CLASS
  1
XRECORD
  2
AcDbXrecord
  3
AutoCAD 2000
 90
        0
280
     0
281
     0
  0
CLASS
  1
LONG_TRANSACTION
  2
AcDbLongTransaction
  3
AutoCAD 2000
 90
        0
280
     0
281
     0
  0
CLASS
  1
LWPOLYLINE
  2
AcDbPolyline
  3
AutoCAD 2000
 90
        0
280
     0
281
     1
  0
CLASS
  1
HATCH
  2
AcDbHatch
  3
AutoCAD 2000
 90
        0
280
     0
281
     1
  0
CLASS
  1
XRECORD
  2
AcDbXrecord
  3
AutoCAD 2000
 90
        0
280
     0
281
     0
  0
CLASS
  1
LONG_TRANSACTION
  2
AcDbLongTransaction
  3
AutoCAD 2000
 90
        0
280
     0
281
     0
  0
CLASS
  1
LWPOLYLINE
  2
AcDbPolyline
  3
AutoCAD 2000
 90
        0
280
     0
281
     1
  0
CLASS
  1
HATCH
  2
AcDbHatch
  3
AutoCAD 2000
 90
        0
280
     0
281
     1
  0
CLASS
  1
XRECORD
  2
AcDbXrecord
  3
AutoCAD 2000
 90
        0
280
     0
281
     0
  0
CLASS
  1
LONG_TRANSACTION
  2
AcDbLongTransaction
  3
AutoCAD 2000
 90
        0
280
     0
281
     0
  0
CLASS
  1
LWPOLYLINE
  2
AcDbPolyline
  3
AutoCAD 2000
 90
        0
280
     0
281
     1
  0
CLASS
  1
HATCH
  2
AcDbHatch
  3
AutoCAD 2000
 90
        0
280
     0
281
     1
  0
CLASS
  1
XRECORD
  2
AcDbXrecord
  3
AutoCAD 2000
 90
        0
280
     0
281
     0
  0
CLASS
  1
LONG_TRANSACTION
  2
AcDbLongTransaction
  3
AutoCAD 2000
 90
        0
280
     0
281
     0
  0
CLASS
  1
LWPOLYLINE
  2
AcDbPolyline
  3
AutoCAD 2000
 90
        0
280
     0
281
     1
  0
CLASS
  1
HATCH
  2
AcDbHatch
  3
AutoCAD 2000
 90
        0
280
     0
281
     1
  0
CLASS
  1
XRECORD
  2
AcDbXrecord
  3
AutoCAD 2000
 90
        0
280
     0
281
     0
  0
CLASS
  1
LONG_TRANSACTION
  2
AcDbLongTransaction
  3
AutoCAD 2000
 90
        0
280
     0
281
     0
  0
CLASS
  1
LWPOLYLINE
  2
AcDbPolyline
  3
AutoCAD 2000
 90
        0
280
     0
281
     1
  0
CLASS
  1
HATCH
  2
AcDbHatch
  3
AutoCAD 2000
 90
        0
280
     0
281
     1
  0
CLASS
  1
XRECORD
  2
AcDbXrecord
  3
AutoCAD 2000
 90
        0
280
     0
281
     0
  0
CLASS
  1
LONG_TRANSACTION
  2
AcDbLongTransaction
  3
AutoCAD 2000
 90
        0
280
     0
281
     0
  0
CLASS
  1
LWPOLYLINE
  2
AcDbPolyline
  3
AutoCAD 2000
 90
        0
280
     0
281
     1
  0
CLASS
  1
HATCH
  2
AcDbHatch
  3
AutoCAD 2000
 90
        0
280
     0
281
     1
  0
CLASS
  1
XRECORD
  2
AcDbXrecord
  3
AutoCAD 2000
 90
        0
280
     0
281
     0
  0
CLASS
  1
LONG_TRANSACTION
  2
AcDbLongTransaction
  3
AutoCAD 2000
 90
        0
280
     0
281
     0
  0
CLASS
  1
LWPOLYLINE
  2
AcDbPolyline
  3
AutoCAD 2000
 90
        0
280
     0
281
     1
  0
CLASS
  1
HATCH
  2
AcDbHatch
  3
AutoCAD 2000
 90
        0
280
     0
281
     1
  0
CLASS
  1
XRECORD
  2
AcDbXrecord
  3
AutoCAD 2000
 90
        0
280
     0
281
     0
  0
CLASS
  1
LONG_TRANSACTION
  2
AcDbLongTransaction
  3
AutoCAD 2000
 90
        0
280
     0
281
     0
  0
CLASS
  1
LWPOLYLINE
  2
AcDbPolyline
  3
AutoCAD 2000
 90
        0
280
     0
281
     1
  0
CLASS
  1
HATCH
  2
AcDbHatch
  3
AutoCAD 2000
 90
        0
280
     0
281
     1
  0
CLASS
  1
XRECORD
  2
AcDbXrecord
  3
AutoCAD 2000
 90
        0
280
     0
281
     0
  0
CLASS
  1
LONG_TRANSACTION
  2
AcDbLongTransaction
  3
AutoCAD 2000
 90
        0
280
     0
281
     0
  0
CLASS
  1
LWPOLYLINE
  2
AcDbPolyline
  3
AutoCAD 2000
 90
        0
280
     0
281
     1
  0
CLASS
  1
HATCH
  2
AcDbHatch
  3
AutoCAD 2000
 90
        0
280
     0
281
     1
  0
CLASS
  1
XRECORD
  2
AcDbXrecord
  3
AutoCAD 2000
 90
        0
280
     0
281
     0
  0
CLASS
  1
LONG_TRANSACTION
  2
AcDbLongTransaction
  3
AutoCAD 2000
 90
        0
280
     0
281
     0
  0
CLASS
  1
LWPOLYLINE
  2
AcDbPolyline
  3
AutoCAD 2000
 90
        0
280
     0
281
     1
  0
CLASS
  1
HATCH
  2
AcDbHatch
  3
AutoCAD 2000
 90
        0
280
     0
281
     1
  0
CLASS
  1
XRECORD
  2
AcDbXrecord
  3
AutoCAD 2000
 90
        0
280
     0
281
     0
  0
CLASS
  1
LONG_TRANSACTION
  2
AcDbLongTransaction
  3
AutoCAD 2000
 90
        0
280
     0
281
     0
  0
CLASS
  1
LWPOLYLINE
  2
AcDbPolyline
  3
AutoCAD 2000
 90
        0
280
     0
281
     1
  0
CLASS
  1
HATCH
  2
AcDbHatch
  3
AutoCAD 2000
 90
        0
280
     0
281
     1
  0
CLASS
  1
XRECORD
  2
AcDbXrecord
  3
AutoCAD 2000
 90
        0
280
     0
281
     0
  0
CLASS
  1
LONG_TRANSACTION
  2
AcDbLongTransaction
  3
AutoCAD 2000
 90
        0
280
     0
281
     0
  0
CLASS
  1
LWPOLYLINE
  2
AcDbPolyline
  3
AutoCAD 2000
 90
        0
280
     0
281
     1
  0
CLASS
  1
HATCH
  2
AcDbHatch
  3
AutoCAD 2000
 90
        0
280
     0
281
     1
  0
CLASS
  1
XRECORD
  2
AcDbXrecord
  3
AutoCAD 2000
 90
        0
280
     0
281
     0
  0
CLASS
  1
LONG_TRANSACTION
  2
AcDbLongTransaction
  3
AutoCAD 2000
 90
        0
280
     0
281
     0
  0
CLASS
  1
LWPOLYLINE
  2
AcDbPolyline
  3
AutoCAD 2000
 90
        0
280
     0
281
     1
  0
CLASS
  1
HATCH
  2
AcDbHatch
  3
AutoCAD 2000
 90
        0
280
     0
281
     1
  0
CLASS
  1
XRECORD
  2
AcDbXrecord
  3
AutoCAD 2000
 90
        0
280
     0
281
     0
  0
CLASS
  1
LONG_TRANSACTION
  2
AcDbLongTransaction
  3
AutoCAD 2000
 90
        0
280
     0
281
     0
  0
CLASS
  1
LWPOLYLINE
  2
AcDbPolyline
  3
AutoCAD 2000
 90
        0
280
     0
281
     1
  0
CLASS
  1
HATCH
  2
AcDbHatch
  3
AutoCAD 2000
 90
        0
280
     0
281
     1
  0
CLASS
  1
XRECORD
  2
AcDbXrecord
  3
AutoCAD 2000
 90
        0
280
     0
281
     0
  0
CLASS
  1
LONG_TRANSACTION
  2
AcDbLongTransaction
  3
AutoCAD 2000
 90
        0
280
     0
281
     0
  0
CLASS
  1
LWPOLYLINE
  2
AcDbPolyline
  3
AutoCAD 2000
 90
        0
280
     0
281
     1
  0
CLASS
  1
HATCH
  2
AcDbHatch
  3
AutoCAD 2000
 90
        0
280
     0
281
     1
  0
CLASS
  1
XRECORD
  2
AcDbXrecord
  3
AutoCAD 2000
 90
        0
280
     0
281
     0
  0
CLASS
  1
LONG_TRANSACTION
  2
AcDbLongTransaction
  3
AutoCAD 2000
 90
        0
280
     0
281
     0
  0
CLASS
  1
LWPOLYLINE
  2
AcDbPolyline
  3
AutoCAD 2000
 90
        0
280
     0
281
     1
  0
CLASS
  1
HATCH
  2
AcDbHatch
  3
AutoCAD 2000
 90
        0
280
     0
281
     1
  0
CLASS
  1
XRECORD
  2
AcDbXrecord
  3
AutoCAD 2000
 90
        0
280
     0
281
     0
  0
CLASS
  1
LONG_TRANSACTION
  2
AcDbLongTransaction
  3
AutoCAD 2000
 90
        0
280
     0
281
     0
  0
CLASS
  1
LWPOLYLINE
  2
AcDbPolyline
  3
AutoCAD 2000
 90
        0
280
     0
281
     1
  0
CLASS
  1
HATCH
  2
AcDbHatch
  3
AutoCAD 2000
 90
        0
280
     0
281
     1
  0
CLASS
  1
XRECORD
  2
AcDbXrecord
  3
AutoCAD 2000
 90
        0
280
     0
281
     0
  0
CLASS
  1
LONG_TRANSACTION
  2
AcDbLongTransaction
  3
AutoCAD 2000
 90
        0
280
     0
281
     0
  0
CLASS
  1
LWPOLYLINE
  2
AcDbPolyline
  3
AutoCAD 2000
 90
        0
280
     0
281
     1
  0
CLASS
  1
HATCH
  2
AcDbHatch
  3
AutoCAD 2000
 90
        0
280
     0
281
     1
  0
CLASS
  1
XRECORD
  2
AcDbXrecord
  3
AutoCAD 2000
 90
        0
280
     0
281
     0
  0
CLASS
  1
LONG_TRANSACTION
  2
AcDbLongTransaction
  3
AutoCAD 2000
 90
        0
280
     0
281
     0
  0
CLASS
  1
LWPOLYLINE
  2
AcDbPolyline
  3
AutoCAD 2000
 90
        0
280
     0
281
     1
  0
CLASS
  1
HATCH
  2
AcDbHatch
  3
AutoCAD 2000
 90
        0
280
     0
281
     1
  0
CLASS
  1
XRECORD
  2
AcDbXrecord
  3
AutoCAD 2000
 90
        0
280
     0
281
     0
  0
CLASS
  1
LONG_TRANSACTION
  2
AcDbLongTransaction
  3
AutoCAD 2000
 90
        0
280
     0
281
     0
  0
CLASS
  1
LWPOLYLINE
  2
AcDbPolyline
  3
AutoCAD 2000
 90
        0
280
     0
281
     1
  0
CLASS
  1
HATCH
  2
AcDbHatch
  3
AutoCAD 2000
 90
        0
280
     0
281
     1
  0
CLASS
  1
XRECORD
  2
AcDbXrecord
  3
AutoCAD 2000
 90
        0
280
     0
281
     0
  0
CLASS
  1
LONG_TRANSACTION
  2
AcDbLongTransaction
  3
AutoCAD 2000
 90
        0
280
     0
281
     0
  0
CLASS
  1
LWPOLYLINE
  2
AcDbPolyline
  3
AutoCAD 2000
 90
        0
280
     0
281
     1
  0
CLASS
  1
HATCH
  2
AcDbHatch
  3
AutoCAD 2000
 90
        0
280
     0
281
     1
  0
CLASS
  1
XRECORD
  2
AcDbXrecord
  3
AutoCAD 2000
 90
        0
280
     0
281
     0
  0
CLASS
  1
LONG_TRANSACTION
  2
AcDbLongTransaction
  3
AutoCAD 2000
 90
        0
280
     0
281
     0
  0
CLASS
  1
LWPOLYLINE
  2
AcDbPolyline
  3
AutoCAD 2000
 90
        0
280
     0
281
     1
  0
CLASS
  1
HATCH
  2
AcDbHatch
  3
AutoCAD 2000
 90
        0
280
     0
281
     1
  0
CLASS
  1
XRECORD
  2
AcDbXrecord
  3
AutoCAD 2000
 90
        0
280
     0
281
     0
  0
CLASS
  1
LONG_TRANSACTION
  2
AcDbLongTransaction
  3
AutoCAD 2000
 90
        0
280
     0
281
     0
  0
CLASS
  1
LWPOLYLINE
  2
AcDbPolyline
  3
AutoCAD 2000
 90
        0
280
     0
281
     1
  0
CLASS
  1
HATCH
  2
AcDbHatch
  3
AutoCAD 2000
 90
        0
280
     0
281
     1
  0
CLASS
  1
XRECORD
  2
AcDbXrecord
  3
AutoCAD 2000
 90
        0
280
     0
281
     0
  0
CLASS
  1
LONG_TRANSACTION
  2
AcDbLongTransaction
  3
AutoCAD 2000
 90
        0
280
     0
281
     0
  0
CLASS
  1
LWPOLYLINE
  2
AcDbPolyline
  3
AutoCAD 2000
 90
        0
280
     0
281
     1
  0
CLASS
  1
HATCH
  2
AcDbHatch
  3
AutoCAD 2000
 90
        0
280
     0
281
     1
  0
CLASS
  1
XRECORD
  2
AcDbXrecord
  3
AutoCAD 2000
 90
        0
280
     0
281
     0
  0
ENDSEC
  0
SECTION
  2
TABLES
  0
TABLE
  2
VPORT
  5
92
330
0
100
AcDbSymbolTable
 70
     2
  0
VPORT
  5
3C8
330
92
100
AcDbSymbolTableRecord
100
AcDbViewportTableRecord
  2
*ACTIVE
 70
     0
 10
0.0
 20
0.0
 11
1.0
 21
1.0
 12
175.5315542799144
 22
174.9222451449077
 13
0.0
 23
0.0
 14
10.0
 24
10.0
 15
10.0
 25
10.0
 16
0.0
 26
0.0
 36
1.0
 17
0.0
 27
0.0
 37
0.0
 40
401.7015295650144
 41
1.549367088607595
 42
50.0
 43
0.0
 44
0.0
 50
0.0
 51
0.0
 71
     0
 72
 10000
 73
     1
 74
     3
 75
     0
 76
     0
 77
     0
 78
     1
  0
ENDTAB
  0
TABLE
  2
LTYPE
  5
8D
330
0
100
AcDbSymbolTable
 70
     3
  0
LTYPE
  5
8E
330
8D
100
AcDbSymbolTableRecord
100
AcDbLinetypeTableRecord
  2
BYBLOCK
 70
     0
  3

 72
    65
 73
     0
 40
0.0
  0
LTYPE
  5
8F
330
8D
100
AcDbSymbolTableRecord
100
AcDbLinetypeTableRecord
  2
BYLAYER
 70
     0
  3

 72
    65
 73
     0
 40
0.0
  0
LTYPE
  5
A
330
8D
100
AcDbSymbolTableRecord
100
AcDbLinetypeTableRecord
  2
CONTINUOUS
 70
     0
  3
Solid line
 72
    65
 73
     0
 40
0.0
  0
LTYPE
  5
166
330
8D
100
AcDbSymbolTableRecord
100
AcDbLinetypeTableRecord
  2
CENTER
 70
     0
  3
Center ____ _ ____ _ ____ _ ____ _ ____ _ ____
 72
    65
 73
     4
 40
50.8
 49
31.75
 74
     0
 49
-6.349999999999998
 74
     0
 49
6.349999999999998
 74
     0
 49
-6.349999999999998
 74
     0
  0
LTYPE
  5
B6
330
8D
100
AcDbSymbolTableRecord
100
AcDbLinetypeTableRecord
  2
CENTERX2
 70
     0
  3
Center (2x) ________  __  ________  __  _____
 72
    65
 73
     4
 40
101.6
 49
63.5
 74
     0
 49
-12.7
 74
     0
 49
12.7
 74
     0
 49
-12.7
 74
     0
  0
ENDTAB
  0
TABLE
  2
LAYER
  5
14
102
{ACAD_XDICTIONARY
360
15
102
}
330
0
100
AcDbSymbolTable
 70
     7
  0
LAYER
  5
6
330
14
100
AcDbSymbolTableRecord
100
AcDbLayerTableRecord
  2
0
 70
     0
 62
     7
  6
CONTINUOUS
  0
LAYER
  5
1B1
330
14
100
AcDbSymbolTableRecord
100
AcDbLayerTableRecord
  2
3
 70
     0
 62
     3
  6
CONTINUOUS
  0
LAYER
  5
AC
330
14
100
AcDbSymbolTableRecord
100
AcDbLayerTableRecord
  2
DEFPOINTS
 70
     0
 62
     7
  6
CONTINUOUS
  0
LAYER
  5
12C
330
14
100
AcDbSymbolTableRecord
100
AcDbLayerTableRecord
  2
DIM
 70
     0
 62
     3
  6
CONTINUOUS
  0
LAYER
  5
B5
330
14
100
AcDbSymbolTableRecord
100
AcDbLayerTableRecord
  2
CL
 70
     0
 62
     1
  6
CENTERX2
  0
LAYER
  5
165
330
14
100
AcDbSymbolTableRecord
100
AcDbLayerTableRecord
  2
CEN
 70
     0
 62
     1
  6
CENTER
  0
LAYER
  5
283
330
14
100
AcDbSymbolTableRecord
100
AcDbLayerTableRecord
  2
2
 70
     0
 62
     2
  6
CONTINUOUS
  0
ENDTAB
  0
TABLE
  2
STYLE
  5
8A
330
0
100
AcDbSymbolTable
 70
     1
  0
STYLE
  5
8B
330
8A
100
AcDbSymbolTableRecord
100
AcDbTextStyleTableRecord
  2
STANDARD
 70
     0
 40
0.0
 41
1.0
 50
0.0
 71
     0
 42
5.777225951253058
  3
romans.shx
  4
whgtxt.shx
  0
ENDTAB
  0
TABLE
  2
VIEW
  5
90
330
0
100
AcDbSymbolTable
 70
     0
  0
ENDTAB
  0
TABLE
  2
UCS
  5
91
330
0
100
AcDbSymbolTable
 70
     0
  0
ENDTAB
  0
TABLE
  2
APPID
  5
94
330
0
100
AcDbSymbolTable
 70
     2
  0
APPID
  5
95
330
94
100
AcDbSymbolTableRecord
100
AcDbRegAppTableRecord
  2
ACAD
 70
     0
  0
APPID
  5
3EC
330
94
100
AcDbSymbolTableRecord
100
AcDbRegAppTableRecord
  2
CONTENTBLOCKICON
 70
     0
  0
ENDTAB
  0
TABLE
  2
DIMSTYLE
  5
96
330
0
100
AcDbSymbolTable
 70
     2
  0
DIMSTYLE
105
A3
102
{ACAD_REACTORS
330
C0
330
19F
330
108
330
1D0
330
1E1
330
A2
330
2C5
330
290
330
2A1
330
17B
330
2B0
330
168
330
18E
330
24D
330
1BD
330
EC
330
1F9
330
208
330
F9
330
DB
102
}
330
96
100
AcDbSymbolTableRecord
100
AcDbDimStyleTableRecord
  2
STANDARD
 70
     0
  3

  4

  5

  6

  7

 40
1.0
 41
2.5
 42
1.0
 43
10.0
 44
0.6
 45
0.0
 46
0.0
 47
0.0
 48
0.0
140
3.0
141
0.09
142
0.0
143
25.4
144
1.0
145
0.0
146
1.0
147
1.0
 71
     0
 72
     0
 73
     0
 74
     0
 75
     0
 76
     0
 77
     1
 78
     8
170
     0
171
     2
172
     1
173
     0
174
     1
175
     0
176
   123
177
   123
178
     3
270
     2
271
     2
272
     2
273
     2
274
     2
340
8B
275
     1
280
     0
281
     0
282
     0
283
     1
284
     0
285
     0
286
     0
287
     0
288
     1
  0
DIMSTYLE
105
9C
330
96
100
AcDbSymbolTableRecord
100
AcDbDimStyleTableRecord
  2
1_1_2
 70
     0
  3

  4

  5

  6

  7

 40
1.0
 41
3.0
 42
1.0
 43
10.0
 44
0.6
 45
0.0
 46
0.0
 47
0.0
 48
0.0
140
3.5
141
0.09
142
0.0
143
25.4
144
1.0
145
0.0
146
1.0
147
1.0
 71
     0
 72
     0
 73
     0
 74
     0
 75
     0
 76
     0
 77
     1
 78
     8
170
     0
171
     2
172
     1
173
     0
174
     1
175
     0
176
   123
177
   123
178
     3
270
     2
271
     2
272
     2
273
     2
274
     2
340
8B
275
     1
280
     0
281
     0
282
     0
283
     1
284
     0
285
     0
286
     0
287
     0
288
     1
  0
ENDTAB
  0
TABLE
  2
BLOCK_RECORD
  5
1
330
0
100
AcDbSymbolTable
 70
    40
  0
BLOCK_RECORD
  5
2
102
{ACAD_XDICTIONARY
360
3
102
}
330
1
100
AcDbSymbolTableRecord
100
AcDbBlockTableRecord
  2
*MODEL_SPACE
  0
BLOCK_RECORD
  5
E
102
{ACAD_XDICTIONARY
360
F
102
}
330
1
100
AcDbSymbolTableRecord
100
AcDbBlockTableRecord
  2
*PAPER_SPACE
  0
BLOCK_RECORD
  5
C3
330
1
100
AcDbSymbolTableRecord
100
AcDbBlockTableRecord
  2
*D0
  0
BLOCK_RECORD
  5
BB
330
1
100
AcDbSymbolTableRecord
100
AcDbBlockTableRecord
  2
4
1001
ACAD
1000
DesignCenter Data
1002
{
1070
     1
1070
     4
1002
}
1001
CONTENTBLOCKICON
1071
        0
1004
2800000020000000200000000100080000000000000400000000000000000000000000000000000000000000000080000080000000808000800000008000800080800000C0C0C000C0DCC000F0CAA6000020400000206000002080000020A0000020C0000020E00000400000004020000040400000406000004080000040A0
1004
000040C0000040E00000600000006020000060400000606000006080000060A0000060C0000060E00000800000008020000080400000806000008080000080A0000080C0000080E00000A0000000A0200000A0400000A0600000A0800000A0A00000A0C00000A0E00000C0000000C0200000C0400000C0600000C0800000C0
1004
A00000C0C00000C0E00000E0000000E0200000E0400000E0600000E0800000E0A00000E0C00000E0E00040000000400020004000400040006000400080004000A0004000C0004000E00040200000402020004020400040206000402080004020A0004020C0004020E000404000004040200040404000404060004040800040
1004
40A0004040C0004040E00040600000406020004060400040606000406080004060A0004060C0004060E00040800000408020004080400040806000408080004080A0004080C0004080E00040A0000040A0200040A0400040A0600040A0800040A0A00040A0C00040A0E00040C0000040C0200040C0400040C0600040C08000
1004
40C0A00040C0C00040C0E00040E0000040E0200040E0400040E0600040E0800040E0A00040E0C00040E0E00080000000800020008000400080006000800080008000A0008000C0008000E00080200000802020008020400080206000802080008020A0008020C0008020E00080400000804020008040400080406000804080
1004
008040A0008040C0008040E00080600000806020008060400080606000806080008060A0008060C0008060E00080800000808020008080400080806000808080008080A0008080C0008080E00080A0000080A0200080A0400080A0600080A0800080A0A00080A0C00080A0E00080C0000080C0200080C0400080C0600080C0
1004
800080C0A00080C0C00080C0E00080E0000080E0200080E0400080E0600080E0800080E0A00080E0C00080E0E000C0000000C0002000C0004000C0006000C0008000C000A000C000C000C000E000C0200000C0202000C0204000C0206000C0208000C020A000C020C000C020E000C0400000C0402000C0404000C0406000C0
1004
408000C040A000C040C000C040E000C0600000C0602000C0604000C0606000C0608000C060A000C060C000C060E000C0800000C0802000C0804000C0806000C0808000C080A000C080C000C080E000C0A00000C0A02000C0A04000C0A06000C0A08000C0A0A000C0A0C000C0A0E000C0C00000C0C02000C0C04000C0C06000
1004
C0C08000C0C0A000F0FBFF00A4A0A000808080000000FF0000FF000000FFFF00FF000000FF00FF00FFFF0000FFFFFF0000000000000000000000000000000000000000000000000000000000000000000000000000000000000000000000000000000000000000000000000000000000000000000000000000000000000000
1004
0000000000000000000000000000000000000000FFFFFFFFFFFFFFFFFFFFFFFFFFFFFFFFFFFFFFFFFF000000000000000000FFFFFF00F9000000000000000000000000000000F9FFF9FF0000000000000000FF00FFF90000000000000000000000000000000000FFFFFF0000000000000000F3F3F9F9000000000000000000
1004
00000000000000F9FFF9FF0000000000000000FFF9000000000000000000000000000000000000000000FF0000000000000000FF00F3F300000000000000000000000000000000000000FF0000000000000000FF000000F3000000000000000000000000000000000000FF0000000000000000FF00000000F3000000000000
1004
0000000000000000000000FF0000000000000000FF0000000000F3F3000000000000000000000000000000FF0000000000000000FF00000000000000F30000000000000000000000000000FF0000000000000000FF0000000000000000F3F3000000000000000000000000FF0000000000000000FF00000000000000000000
1004
F30000000000000000000000FF0000000000000000FF0000000000000000000000F300000000000000000000FF0000000000000000FF000000000000000000000000F3F30000000000000000FF0000000000000000FF0000000000000000000000000000F300000000000000FF0000000000000000FF000000000000000000
1004
000000000000F3F30000000000FF0000000000000000FF0000000000000000000000000000000000F300000000FF0000000000000000FF000000000000000000000000000000000000F3000000FF0000000000000000FF00000000000000000000000000000000000000F3F300FF0000000000000000FF0000000000000000
1004
00000000000000000000000000FFFF0000000000000000FF00FFF900000000000000000000000000000000F9F900F30000000000000000FF00FFFF00000000000000000000000000000000F9F9FFFFFAF300000000000000FFF900F90000000000000000000000000000F90000F9FFFAFAF300000000000000FFFFFFFFFFFF
1004
FFFFFFFFFFFFFFFFFFFFFFFFFFFFFF0000FAFAFAF30000000000000000000000000000000000000000000000000000000000FAFAFAF30000000000000000000000000000000000000000000000000000000000FAFA000000000000000000000000000000000000000000000000000000000000000000000000000000000000
1004
0000000000000000000000000000000000000000000000000000000000000000000000000000000000000000000000000000000000000000
  0
BLOCK_RECORD
  5
1A0
330
1
100
AcDbSymbolTableRecord
100
AcDbBlockTableRecord
  2
*D2
  0
BLOCK_RECORD
  5
1E2
330
1
100
AcDbSymbolTableRecord
100
AcDbBlockTableRecord
  2
*D3
  0
BLOCK_RECORD
  5
A4
330
1
100
AcDbSymbolTableRecord
100
AcDbBlockTableRecord
  2
*D4
  0
BLOCK_RECORD
  5
2C6
330
1
100
AcDbSymbolTableRecord
100
AcDbBlockTableRecord
  2
*D5
  0
BLOCK_RECORD
  5
2A2
330
1
100
AcDbSymbolTableRecord
100
AcDbBlockTableRecord
  2
*D6
  0
BLOCK_RECORD
  5
17C
330
1
100
AcDbSymbolTableRecord
100
AcDbBlockTableRecord
  2
*D7
  0
BLOCK_RECORD
  5
2B1
330
1
100
AcDbSymbolTableRecord
100
AcDbBlockTableRecord
  2
*D8
  0
BLOCK_RECORD
  5
169
330
1
100
AcDbSymbolTableRecord
100
AcDbBlockTableRecord
  2
*D9
  0
BLOCK_RECORD
  5
24E
330
1
100
AcDbSymbolTableRecord
100
AcDbBlockTableRecord
  2
*D10
  0
BLOCK_RECORD
  5
1BE
330
1
100
AcDbSymbolTableRecord
100
AcDbBlockTableRecord
  2
*D11
  0
BLOCK_RECORD
  5
ED
330
1
100
AcDbSymbolTableRecord
100
AcDbBlockTableRecord
  2
*D12
  0
BLOCK_RECORD
  5
209
330
1
100
AcDbSymbolTableRecord
100
AcDbBlockTableRecord
  2
*D13
  0
BLOCK_RECORD
  5
10B
330
1
100
AcDbSymbolTableRecord
100
AcDbBlockTableRecord
  2
*D14
  0
BLOCK_RECORD
  5
1D3
330
1
100
AcDbSymbolTableRecord
100
AcDbBlockTableRecord
  2
*D15
  0
BLOCK_RECORD
  5
293
330
1
100
AcDbSymbolTableRecord
100
AcDbBlockTableRecord
  2
*D16
  0
BLOCK_RECORD
  5
191
330
1
100
AcDbSymbolTableRecord
100
AcDbBlockTableRecord
  2
*D17
  0
BLOCK_RECORD
  5
1FC
330
1
100
AcDbSymbolTableRecord
100
AcDbBlockTableRecord
  2
*D18
  0
BLOCK_RECORD
  5
FC
330
1
100
AcDbSymbolTableRecord
100
AcDbBlockTableRecord
  2
*D19
  0
BLOCK_RECORD
  5
DE
330
1
100
AcDbSymbolTableRecord
100
AcDbBlockTableRecord
  2
*D20
  0
BLOCK_RECORD
  5
2DC
330
1
100
AcDbSymbolTableRecord
100
AcDbBlockTableRecord
  2
*D21
  0
BLOCK_RECORD
  5
2EA
330
1
100
AcDbSymbolTableRecord
100
AcDbBlockTableRecord
  2
*D22
  0
BLOCK_RECORD
  5
2F6
330
1
100
AcDbSymbolTableRecord
100
AcDbBlockTableRecord
  2
*D23
  0
BLOCK_RECORD
  5
302
330
1
100
AcDbSymbolTableRecord
100
AcDbBlockTableRecord
  2
*D24
  0
BLOCK_RECORD
  5
30E
330
1
100
AcDbSymbolTableRecord
100
AcDbBlockTableRecord
  2
*D25
  0
BLOCK_RECORD
  5
31A
330
1
100
AcDbSymbolTableRecord
100
AcDbBlockTableRecord
  2
*D26
  0
BLOCK_RECORD
  5
328
330
1
100
AcDbSymbolTableRecord
100
AcDbBlockTableRecord
  2
*D27
  0
BLOCK_RECORD
  5
334
330
1
100
AcDbSymbolTableRecord
100
AcDbBlockTableRecord
  2
*D28
  0
BLOCK_RECORD
  5
340
330
1
100
AcDbSymbolTableRecord
100
AcDbBlockTableRecord
  2
*D29
  0
BLOCK_RECORD
  5
34C
330
1
100
AcDbSymbolTableRecord
100
AcDbBlockTableRecord
  2
*D30
  0
BLOCK_RECORD
  5
358
330
1
100
AcDbSymbolTableRecord
100
AcDbBlockTableRecord
  2
*D31
  0
BLOCK_RECORD
  5
364
330
1
100
AcDbSymbolTableRecord
100
AcDbBlockTableRecord
  2
*D32
  0
BLOCK_RECORD
  5
372
330
1
100
AcDbSymbolTableRecord
100
AcDbBlockTableRecord
  2
*D33
  0
BLOCK_RECORD
  5
37E
330
1
100
AcDbSymbolTableRecord
100
AcDbBlockTableRecord
  2
*D34
  0
BLOCK_RECORD
  5
38A
330
1
100
AcDbSymbolTableRecord
100
AcDbBlockTableRecord
  2
*D35
  0
BLOCK_RECORD
  5
396
330
1
100
AcDbSymbolTableRecord
100
AcDbBlockTableRecord
  2
*D36
  0
BLOCK_RECORD
  5
3A2
330
1
100
AcDbSymbolTableRecord
100
AcDbBlockTableRecord
  2
*D37
  0
BLOCK_RECORD
  5
3AE
330
1
100
AcDbSymbolTableRecord
100
AcDbBlockTableRecord
  2
*D38
  0
BLOCK_RECORD
  5
3BC
330
1
100
AcDbSymbolTableRecord
100
AcDbBlockTableRecord
  2
*D39
  0
ENDTAB
  0
ENDSEC
  0
SECTION
  2
BLOCKS
  0
BLOCK
  5
5
330
2
100
AcDbEntity
  8
0
100
AcDbBlockBegin
  2
*MODEL_SPACE
 70
     0
 10
0.0
 20
0.0
 30
0.0
  3
*MODEL_SPACE
  1

  0
ENDBLK
  5
B
330
2
100
AcDbEntity
  8
0
100
AcDbBlockEnd
  0
BLOCK
  5
11
330
E
100
AcDbEntity
 67
     1
  8
0
100
AcDbBlockBegin
  2
*PAPER_SPACE
 70
     0
 10
0.0
 20
0.0
 30
0.0
  3
*PAPER_SPACE
  1

  0
ENDBLK
  5
12
330
E
100
AcDbEntity
 67
     1
  8
0
100
AcDbBlockEnd
  0
BLOCK
  5
CC
330
C3
100
AcDbEntity
  8
0
100
AcDbBlockBegin
  2
*D0
 70
     1
 10
0.0
 20
0.0
 30
0.0
  3
*D0
  1

  0
LINE
  5
C4
330
C3
100
AcDbEntity
  8
0
 62
   123
100
AcDbLine
 10
-474.0668181331803
 20
-2516.925402556208
 30
0.0
 11
-497.6135875546876
 21
-2534.857403328699
 31
0.0
  0
LINE
  5
C5
330
C3
100
AcDbEntity
  8
0
 62
   123
100
AcDbLine
 10
-584.3305466904876
 20
-2600.896550796242
 30
0.0
 11
-586.3194677715838
 21
-2602.411210141828
 31
0.0
  0
MTEXT
  5
C6
330
C3
100
AcDbEntity
  8
0
 62
     3
100
AcDbMText
 10
-484.8441670850144
 20
-2521.990466427412
 30
0.0
 40
3.0
 41
0.0
 71
     5
 72
     1
  1
\A1;\U+2205104%%P0.5
 11
0.7955684324385314
 21
0.6058637382343476
 31
0.0
1001
ACAD
1000
MTEXTBEGIN
1070
    73
1070
     1
1070
    44
1040
1.0
1070
    74
1070
     0
1000
MTEXTEND
  0
LINE
  5
C7
330
C3
100
AcDbEntity
  8
0
 62
   123
100
AcDbLine
 10
-582.3416256093914
 20
-2599.381891450657
 30
0.0
 11
-499.6025086357839
 21
-2536.372062674285
 31
0.0
  0
SOLID
  5
C8
330
C3
100
AcDbEntity
  8
0
 62
   123
100
AcDbTrace
 10
-584.5829899147519
 20
-2600.565063949392
 30
0.0
 11
-584.0781034662234
 21
-2601.228037643092
 31
0.0
 12
-582.3416256093914
 22
-2599.381891450657
 32
0.0
 13
-582.3416256093914
 23
-2599.381891450657
 33
0.0
  0
SOLID
  5
C9
330
C3
100
AcDbEntity
  8
0
 62
   123
100
AcDbTrace
 10
-497.8660307789517
 20
-2534.52591648185
 30
0.0
 11
-497.3611443304232
 21
-2535.188890175549
 31
0.0
 12
-499.6025086357839
 22
-2536.372062674285
 32
0.0
 13
-499.6025086357839
 23
-2536.372062674285
 33
0.0
  0
POINT
  5
CA
330
C3
100
AcDbEntity
  8
DEFPOINTS
 62
     0
100
AcDbPoint
 10
-499.6025086357839
 20
-2536.372062674285
 30
0.0
  0
POINT
  5
CB
330
C3
100
AcDbEntity
  8
DEFPOINTS
 62
     0
100
AcDbPoint
 10
-582.3416256093914
 20
-2599.381891450657
 30
0.0
  0
ENDBLK
  5
CD
330
C3
100
AcDbEntity
  8
0
100
AcDbBlockEnd
  0
BLOCK
  5
D7
330
BB
100
AcDbEntity
  8
0
100
AcDbBlockBegin
  2
4
 70
     0
 10
0.0
 20
0.0
 30
0.0
  3
4
  1

  0
LWPOLYLINE
  5
BC
330
BB
100
AcDbEntity
  8
0
100
AcDbPolyline
 90
        8
 70
     1
 43
0.0
 10
-40.0
 20
-45.00000000000045
 10
40.0
 20
-45.0
 42
0.4142135623730951
 10
45.0
 20
-40.0
 10
45.0
 20
40.0
 42
0.4142135623730951
 10
40.0
 20
45.0
 10
-40.0
 20
45.0
 42
0.4142135623730951
 10
-45.0
 20
40.0
 10
-45.0
 20
-40.00000000000045
 42
0.4142135623730951
  0
CIRCLE
  5
BD
330
BB
100
AcDbEntity
  8
0
100
AcDbCircle
 10
36.76955262170071
 20
36.76955262170031
 30
0.0
 40
3.25
  0
LINE
  5
BE
330
BB
100
AcDbEntity
  8
CL
 48
0.6
100
AcDbLine
 10
33.05724202047111
 20
33.05724202047122
 30
0.0
 11
40.48186322293008
 21
40.48186322292986
 31
0.0
  0
ARC
  5
BF
102
{ACAD_REACTORS
330
C2
102
}
330
BB
100
AcDbEntity
  8
CL
 48
0.6
100
AcDbCircle
 10
0.0
 20
0.0
 30
0.0
 40
51.9999999999996
100
AcDbArc
 50
35.90024337538245
 51
54.09975662462136
  0
DIMENSION
  5
C0
102
{ACAD_XDICTIONARY
360
C1
102
}
102
{ACAD_REACTORS
330
C2
102
}
330
BB
100
AcDbEntity
  8
0
100
AcDbDimension
  2
*D0
 10
-41.36955848680371
 20
-31.50491438818607
 30
0.0
 11
57.64255938315909
 21
43.89758955396246
 31
0.0
 12
540.9720671225876
 22
2567.87697706247
 32
0.0
 70
   131
  1
<>%%P0.5
  3
STANDARD
100
AcDbDiametricDimension
 15
41.36955848680371
 25
31.50491438818607
 35
0.0
 40
0.0
1001
ACAD
1000
DSTYLE
1002
{
1070
   287
1070
     4
1070
   287
1070
     4
1070
   287
1070
     4
1070
   287
1070
     4
1070
   287
1070
     4
1070
   279
1070
     1
1070
   289
1070
     3
1002
}
  0
ARC
  5
CE
330
BB
100
AcDbEntity
  8
CL
 48
0.6
100
AcDbCircle
 10
-0.0000000000002274
 20
0.0
 30
0.0
 40
52.0
100
AcDbArc
 50
129.2128702778055
 51
140.7871297221883
  0
LINE
  5
CF
330
BB
100
AcDbEntity
  8
CL
 48
0.6
100
AcDbLine
 10
-33.05724202047122
 20
33.05724202047122
 30
0.0
 11
-40.48186322292986
 21
40.48186322293031
 31
0.0
  0
CIRCLE
  5
D0
330
BB
100
AcDbEntity
  8
0
100
AcDbCircle
 10
-36.76955262170054
 20
36.76955262170077
 30
0.0
 40
3.25
  0
LINE
  5
D1
330
BB
100
AcDbEntity
  8
CL
 48
0.6
100
AcDbLine
 10
-33.05724202047122
 20
-33.05724202047122
 30
0.0
 11
-40.48186322293008
 21
-40.48186322292986
 31
0.0
  0
CIRCLE
  5
D2
330
BB
100
AcDbEntity
  8
0
100
AcDbCircle
 10
-36.76955262170077
 20
-36.76955262170031
 30
0.0
 40
3.25
  0
ARC
  5
D3
330
BB
100
AcDbEntity
  8
CL
 48
0.6
100
AcDbCircle
 10
0.0
 20
0.0
 30
0.0
 40
51.9999999999996
100
AcDbArc
 50
215.9002433753824
 51
234.0997566246214
  0
ARC
  5
D4
330
BB
100
AcDbEntity
  8
CL
 48
0.6
100
AcDbCircle
 10
0.0
 20
0.0000000000004547
 30
0.0
 40
52.0
100
AcDbArc
 50
309.2128702778056
 51
320.7871297221883
  0
LINE
  5
D5
330
BB
100
AcDbEntity
  8
CL
 48
0.6
100
AcDbLine
 10
33.05724202047076
 20
-33.05724202047122
 30
0.0
 11
40.48186322292941
 21
-40.48186322293031
 31
0.0
  0
CIRCLE
  5
D6
330
BB
100
AcDbEntity
  8
0
100
AcDbCircle
 10
36.76955262170025
 20
-36.76955262170077
 30
0.0
 40
3.25
  0
ENDBLK
  5
D8
330
BB
100
AcDbEntity
  8
0
100
AcDbBlockEnd
  0
BLOCK
  5
1AA
330
1A0
100
AcDbEntity
  8
0
100
AcDbBlockBegin
  2
*D2
 70
     1
 10
0.0
 20
0.0
 30
0.0
  3
*D2
  1

  0
LINE
  5
1A1
330
1A0
100
AcDbEntity
  8
0
 62
   123
100
AcDbLine
 10
7961.34195283592
 20
-3816.857468388037
 30
0.0
 11
7961.34195283592
 21
-3799.612241986384
 31
0.0
  0
LINE
  5
1A2
330
1A0
100
AcDbEntity
  8
0
 62
   123
100
AcDbLine
 10
8051.341952835921
 20
-3816.857468388037
 30
0.0
 11
8051.341952835921
 21
-3799.612241986384
 31
0.0
  0
LINE
  5
1A3
330
1A0
100
AcDbEntity
  8
0
 62
   123
100
AcDbLine
 10
7963.84195283592
 20
-3800.212241986383
 30
0.0
 11
8048.841952835919
 21
-3800.212241986383
 31
0.0
  0
SOLID
  5
1A4
330
1A0
100
AcDbEntity
  8
0
 62
   123
100
AcDbTrace
 10
7963.84195283592
 20
-3799.795575319716
 30
0.0
 11
7963.84195283592
 21
-3800.62890865305
 31
0.0
 12
7961.34195283592
 22
-3800.212241986383
 32
0.0
 13
7961.34195283592
 23
-3800.212241986383
 33
0.0
  0
SOLID
  5
1A5
330
1A0
100
AcDbEntity
  8
0
 62
   123
100
AcDbTrace
 10
8048.841952835919
 20
-3799.795575319716
 30
0.0
 11
8048.841952835919
 21
-3800.62890865305
 31
0.0
 12
8051.341952835921
 22
-3800.212241986383
 32
0.0
 13
8051.341952835921
 23
-3800.212241986383
 33
0.0
  0
MTEXT
  5
1A6
330
1A0
100
AcDbEntity
  8
0
 62
     3
100
AcDbMText
 10
8006.341952835921
 20
-3797.712241986384
 30
0.0
 40
3.0
 41
0.0
 71
     5
 72
     1
  1
\A1;90
1001
ACAD
1000
MTEXTBEGIN
1070
    73
1070
     1
1070
    44
1040
1.0
1070
    74
1070
     0
1000
MTEXTEND
  0
POINT
  5
1A7
330
1A0
100
AcDbEntity
  8
DEFPOINTS
 62
     0
100
AcDbPoint
 10
7961.34195283592
 20
-3817.857468388037
 30
0.0
  0
POINT
  5
1A8
330
1A0
100
AcDbEntity
  8
DEFPOINTS
 62
     0
100
AcDbPoint
 10
8051.341952835921
 20
-3817.857468388037
 30
0.0
  0
POINT
  5
1A9
330
1A0
100
AcDbEntity
  8
DEFPOINTS
 62
     0
100
AcDbPoint
 10
8051.341952835921
 20
-3800.212241986383
 30
0.0
  0
ENDBLK
  5
1AB
330
1A0
100
AcDbEntity
  8
0
100
AcDbBlockEnd
  0
BLOCK
  5
1EE
330
1E2
100
AcDbEntity
  8
0
100
AcDbBlockBegin
  2
*D3
 70
     1
 10
0.0
 20
0.0
 30
0.0
  3
*D3
  1

  0
LINE
  5
1E3
330
1E2
100
AcDbEntity
  8
0
 62
   123
100
AcDbLine
 10
8146.714418781341
 20
-3815.31467462924
 30
0.0
 11
8146.714418781341
 21
-3800.182929870699
 31
0.0
  0
LINE
  5
1E4
330
1E2
100
AcDbEntity
  8
0
 62
   123
100
AcDbLine
 10
8148.71441878134
 20
-3811.81467462924
 30
0.0
 11
8148.71441878134
 21
-3800.182929870699
 31
0.0
  0
LINE
  5
1E5
330
1E2
100
AcDbEntity
  8
0
 62
   123
100
AcDbLine
 10
8151.214418781341
 20
-3800.782929870699
 30
0.0
 11
8153.714418781339
 21
-3800.782929870699
 31
0.0
  0
LINE
  5
1E6
330
1E2
100
AcDbEntity
  8
0
 62
   123
100
AcDbLine
 10
8144.21441878134
 20
-3800.782929870699
 30
0.0
 11
8135.71441878134
 21
-3800.782929870699
 31
0.0
  0
LINE
  5
1E7
330
1E2
100
AcDbEntity
  8
0
 62
   123
100
AcDbLine
 10
8148.71441878134
 20
-3800.782929870699
 30
0.0
 11
8146.714418781341
 21
-3800.782929870699
 31
0.0
  0
SOLID
  5
1E8
330
1E2
100
AcDbEntity
  8
0
 62
   123
100
AcDbTrace
 10
8151.214418781341
 20
-3800.366263204031
 30
0.0
 11
8151.214418781341
 21
-3801.199596537365
 31
0.0
 12
8148.71441878134
 22
-3800.782929870699
 32
0.0
 13
8148.71441878134
 23
-3800.782929870699
 33
0.0
  0
SOLID
  5
1E9
330
1E2
100
AcDbEntity
  8
0
 62
   123
100
AcDbTrace
 10
8144.21441878134
 20
-3800.366263204031
 30
0.0
 11
8144.21441878134
 21
-3801.199596537365
 31
0.0
 12
8146.714418781341
 22
-3800.782929870699
 32
0.0
 13
8146.714418781341
 23
-3800.782929870699
 33
0.0
  0
MTEXT
  5
1EA
330
1E2
100
AcDbEntity
  8
0
 62
     3
100
AcDbMText
 10
8137.714418781341
 20
-3798.282929870698
 30
0.0
 40
3.0
 41
0.0
 71
     5
 72
     1
  1
\A1;2
1001
ACAD
1000
MTEXTBEGIN
1070
    73
1070
     1
1070
    44
1040
1.0
1070
    74
1070
     0
1000
MTEXTEND
  0
POINT
  5
1EB
330
1E2
100
AcDbEntity
  8
DEFPOINTS
 62
     0
100
AcDbPoint
 10
8146.714418781341
 20
-3816.314674629239
 30
0.0
  0
POINT
  5
1EC
330
1E2
100
AcDbEntity
  8
DEFPOINTS
 62
     0
100
AcDbPoint
 10
8148.71441878134
 20
-3812.81467462924
 30
0.0
  0
POINT
  5
1ED
330
1E2
100
AcDbEntity
  8
DEFPOINTS
 62
     0
100
AcDbPoint
 10
8148.71441878134
 20
-3800.782929870699
 30
0.0
  0
ENDBLK
  5
1EF
330
1E2
100
AcDbEntity
  8
0
100
AcDbBlockEnd
  0
BLOCK
  5
AF
330
A4
100
AcDbEntity
  8
0
100
AcDbBlockBegin
  2
*D4
 70
     1
 10
0.0
 20
0.0
 30
0.0
  3
*D4
  1

  0
LINE
  5
A5
330
A4
100
AcDbEntity
  8
0
 62
   123
100
AcDbLine
 10
8291.714418781339
 20
-3813.31467462924
 30
0.0
 11
8310.988429225721
 21
-3813.31467462924
 31
0.0
  0
LINE
  5
A6
330
A4
100
AcDbEntity
  8
0
 62
   123
100
AcDbLine
 10
8291.714418781339
 20
-3902.31467462924
 30
0.0
 11
8310.988429225721
 21
-3902.31467462924
 31
0.0
  0
LINE
  5
A7
330
A4
100
AcDbEntity
  8
0
 62
   123
100
AcDbLine
 10
8310.388429225721
 20
-3815.81467462924
 30
0.0
 11
8310.388429225721
 21
-3899.81467462924
 31
0.0
  0
SOLID
  5
A8
330
A4
100
AcDbEntity
  8
0
 62
   123
100
AcDbTrace
 10
8309.971762559055
 20
-3815.81467462924
 30
0.0
 11
8310.805095892387
 21
-3815.81467462924
 31
0.0
 12
8310.388429225721
 22
-3813.31467462924
 32
0.0
 13
8310.388429225721
 23
-3813.31467462924
 33
0.0
  0
SOLID
  5
A9
330
A4
100
AcDbEntity
  8
0
 62
   123
100
AcDbTrace
 10
8309.971762559055
 20
-3899.81467462924
 30
0.0
 11
8310.805095892387
 21
-3899.81467462924
 31
0.0
 12
8310.388429225721
 22
-3902.31467462924
 32
0.0
 13
8310.388429225721
 23
-3902.31467462924
 33
0.0
  0
MTEXT
  5
AA
330
A4
100
AcDbEntity
  8
0
 62
     3
100
AcDbMText
 10
8307.888429225721
 20
-3857.81467462924
 30
0.0
 40
3.0
 41
0.0
 71
     5
 72
     1
  1
\A1;%%C89
 11
0.0000000000000001
 21
1.0
 31
0.0
1001
ACAD
1000
MTEXTBEGIN
1070
    73
1070
     1
1070
    44
1040
1.0
1070
    74
1070
     0
1000
MTEXTEND
  0
POINT
  5
AB
330
A4
100
AcDbEntity
  8
DEFPOINTS
 62
     0
100
AcDbPoint
 10
8290.714418781339
 20
-3813.31467462924
 30
0.0
  0
POINT
  5
AD
330
A4
100
AcDbEntity
  8
DEFPOINTS
 62
     0
100
AcDbPoint
 10
8290.714418781339
 20
-3902.31467462924
 30
0.0
  0
POINT
  5
AE
330
A4
100
AcDbEntity
  8
DEFPOINTS
 62
     0
100
AcDbPoint
 10
8310.388429225721
 20
-3902.31467462924
 30
0.0
  0
ENDBLK
  5
B0
330
A4
100
AcDbEntity
  8
0
100
AcDbBlockEnd
  0
BLOCK
  5
2D0
330
2C6
100
AcDbEntity
  8
0
100
AcDbBlockBegin
  2
*D5
 70
     1
 10
0.0
 20
0.0
 30
0.0
  3
*D5
  1

  0
LINE
  5
2C7
330
2C6
100
AcDbEntity
  8
0
 62
   123
100
AcDbLine
 10
8136.235096603424
 20
-3578.293334907789
 30
0.0
 11
8136.235096603424
 21
-3567.933783103991
 31
0.0
  0
LINE
  5
2C8
330
2C6
100
AcDbEntity
  8
0
 62
   123
100
AcDbLine
 10
8284.235096603424
 20
-3599.39333490779
 30
0.0
 11
8284.235096603424
 21
-3567.933783103991
 31
0.0
  0
LINE
  5
2C9
330
2C6
100
AcDbEntity
  8
0
 62
   123
100
AcDbLine
 10
8138.735096603424
 20
-3568.533783103991
 30
0.0
 11
8281.735096603425
 21
-3568.533783103991
 31
0.0
  0
SOLID
  5
2CA
330
2C6
100
AcDbEntity
  8
0
 62
   123
100
AcDbTrace
 10
8138.735096603424
 20
-3568.117116437326
 30
0.0
 11
8138.735096603424
 21
-3568.950449770659
 31
0.0
 12
8136.235096603424
 22
-3568.533783103991
 32
0.0
 13
8136.235096603424
 23
-3568.533783103991
 33
0.0
  0
SOLID
  5
2CB
330
2C6
100
AcDbEntity
  8
0
 62
   123
100
AcDbTrace
 10
8281.735096603425
 20
-3568.117116437326
 30
0.0
 11
8281.735096603425
 21
-3568.950449770659
 31
0.0
 12
8284.235096603424
 22
-3568.533783103991
 32
0.0
 13
8284.235096603424
 23
-3568.533783103991
 33
0.0
  0
MTEXT
  5
2CC
330
2C6
100
AcDbEntity
  8
0
 62
     3
100
AcDbMText
 10
8203.735096603425
 20
-3566.033783103991
 30
0.0
 40
3.0
 41
0.0
 71
     5
 72
     1
  1
\A1;148
1001
ACAD
1000
MTEXTBEGIN
1070
    73
1070
     1
1070
    44
1040
1.0
1070
    74
1070
     0
1000
MTEXTEND
  0
POINT
  5
2CD
330
2C6
100
AcDbEntity
  8
DEFPOINTS
 62
     0
100
AcDbPoint
 10
8136.235096603424
 20
-3579.293334907789
 30
0.0
  0
POINT
  5
2CE
330
2C6
100
AcDbEntity
  8
DEFPOINTS
 62
     0
100
AcDbPoint
 10
8284.235096603424
 20
-3600.393334907789
 30
0.0
  0
POINT
  5
2CF
330
2C6
100
AcDbEntity
  8
DEFPOINTS
 62
     0
100
AcDbPoint
 10
8284.235096603424
 20
-3568.533783103991
 30
0.0
  0
ENDBLK
  5
2D1
330
2C6
100
AcDbEntity
  8
0
100
AcDbBlockEnd
  0
BLOCK
  5
2AE
330
2A2
100
AcDbEntity
  8
0
100
AcDbBlockBegin
  2
*D6
 70
     1
 10
0.0
 20
0.0
 30
0.0
  3
*D6
  1

  0
LINE
  5
2A3
330
2A2
100
AcDbEntity
  8
0
 62
   123
100
AcDbLine
 10
8134.235096603424
 20
-3596.893334907788
 30
0.0
 11
8134.235096603424
 21
-3581.761590149246
 31
0.0
  0
LINE
  5
2A4
330
2A2
100
AcDbEntity
  8
0
 62
   123
100
AcDbLine
 10
8136.235096603424
 20
-3593.393334907788
 30
0.0
 11
8136.235096603424
 21
-3581.761590149246
 31
0.0
  0
LINE
  5
2A5
330
2A2
100
AcDbEntity
  8
0
 62
   123
100
AcDbLine
 10
8138.735096603424
 20
-3582.361590149246
 30
0.0
 11
8141.235096603425
 21
-3582.361590149246
 31
0.0
  0
LINE
  5
2A6
330
2A2
100
AcDbEntity
  8
0
 62
   123
100
AcDbLine
 10
8131.735096603426
 20
-3582.361590149246
 30
0.0
 11
8123.235096603426
 21
-3582.361590149246
 31
0.0
  0
LINE
  5
2A7
330
2A2
100
AcDbEntity
  8
0
 62
   123
100
AcDbLine
 10
8136.235096603424
 20
-3582.361590149246
 30
0.0
 11
8134.235096603424
 21
-3582.361590149246
 31
0.0
  0
SOLID
  5
2A8
330
2A2
100
AcDbEntity
  8
0
 62
   123
100
AcDbTrace
 10
8138.735096603424
 20
-3581.94492348258
 30
0.0
 11
8138.735096603424
 21
-3582.778256815913
 31
0.0
 12
8136.235096603424
 22
-3582.361590149246
 32
0.0
 13
8136.235096603424
 23
-3582.361590149246
 33
0.0
  0
SOLID
  5
2A9
330
2A2
100
AcDbEntity
  8
0
 62
   123
100
AcDbTrace
 10
8131.735096603426
 20
-3581.94492348258
 30
0.0
 11
8131.735096603426
 21
-3582.778256815913
 31
0.0
 12
8134.235096603424
 22
-3582.361590149246
 32
0.0
 13
8134.235096603424
 23
-3582.361590149246
 33
0.0
  0
MTEXT
  5
2AA
330
2A2
100
AcDbEntity
  8
0
 62
     3
100
AcDbMText
 10
8125.235096603423
 20
-3579.861590149246
 30
0.0
 40
3.0
 41
0.0
 71
     5
 72
     1
  1
\A1;2
1001
ACAD
1000
MTEXTBEGIN
1070
    73
1070
     1
1070
    44
1040
1.0
1070
    74
1070
     0
1000
MTEXTEND
  0
POINT
  5
2AB
330
2A2
100
AcDbEntity
  8
DEFPOINTS
 62
     0
100
AcDbPoint
 10
8134.235096603424
 20
-3597.893334907789
 30
0.0
  0
POINT
  5
2AC
330
2A2
100
AcDbEntity
  8
DEFPOINTS
 62
     0
100
AcDbPoint
 10
8136.235096603424
 20
-3594.393334907788
 30
0.0
  0
POINT
  5
2AD
330
2A2
100
AcDbEntity
  8
DEFPOINTS
 62
     0
100
AcDbPoint
 10
8136.235096603424
 20
-3582.361590149246
 30
0.0
  0
ENDBLK
  5
2AF
330
2A2
100
AcDbEntity
  8
0
100
AcDbBlockEnd
  0
BLOCK
  5
186
330
17C
100
AcDbEntity
  8
0
100
AcDbBlockBegin
  2
*D7
 70
     1
 10
0.0
 20
0.0
 30
0.0
  3
*D7
  1

  0
LINE
  5
17D
330
17C
100
AcDbEntity
  8
0
 62
   123
100
AcDbLine
 10
8132.540033045136
 20
-3597.893334907789
 30
0.0
 11
8100.915091514494
 21
-3597.893334907789
 31
0.0
  0
LINE
  5
17E
330
17C
100
AcDbEntity
  8
0
 62
   123
100
AcDbLine
 10
8132.540033045136
 20
-3680.893334907789
 30
0.0
 11
8100.915091514494
 21
-3680.893334907789
 31
0.0
  0
LINE
  5
17F
330
17C
100
AcDbEntity
  8
0
 62
   123
100
AcDbLine
 10
8101.515091514492
 20
-3600.393334907789
 30
0.0
 11
8101.515091514492
 21
-3678.393334907789
 31
0.0
  0
SOLID
  5
180
330
17C
100
AcDbEntity
  8
0
 62
   123
100
AcDbTrace
 10
8101.098424847826
 20
-3600.393334907789
 30
0.0
 11
8101.931758181159
 21
-3600.393334907789
 31
0.0
 12
8101.515091514492
 22
-3597.893334907789
 32
0.0
 13
8101.515091514492
 23
-3597.893334907789
 33
0.0
  0
SOLID
  5
181
330
17C
100
AcDbEntity
  8
0
 62
   123
100
AcDbTrace
 10
8101.098424847826
 20
-3678.393334907789
 30
0.0
 11
8101.931758181159
 21
-3678.393334907789
 31
0.0
 12
8101.515091514492
 22
-3680.893334907789
 32
0.0
 13
8101.515091514492
 23
-3680.893334907789
 33
0.0
  0
MTEXT
  5
182
330
17C
100
AcDbEntity
  8
0
 62
     3
100
AcDbMText
 10
8097.564941514496
 20
-3635.967111054141
 30
0.0
 40
3.0
 41
0.0
 71
     5
 72
     1
  1
\A1;\A1;{\f??|b0|i0|c0|p49;%%c83\H0.7x;\S+0^ -0.035;\H1.429x;(h7)}
 11
0.0000000000000001
 21
1.0
 31
0.0
1001
ACAD
1000
MTEXTBEGIN
1070
    73
1070
     1
1070
    44
1040
1.0
1070
    74
1070
     0
1000
MTEXTEND
  0
POINT
  5
183
330
17C
100
AcDbEntity
  8
DEFPOINTS
 62
     0
100
AcDbPoint
 10
8133.540033045138
 20
-3597.893334907789
 30
0.0
  0
POINT
  5
184
330
17C
100
AcDbEntity
  8
DEFPOINTS
 62
     0
100
AcDbPoint
 10
8133.540033045138
 20
-3680.893334907789
 30
0.0
  0
POINT
  5
185
330
17C
100
AcDbEntity
  8
DEFPOINTS
 62
     0
100
AcDbPoint
 10
8101.515091514492
 20
-3680.893334907789
 30
0.0
  0
ENDBLK
  5
187
330
17C
100
AcDbEntity
  8
0
100
AcDbBlockEnd
  0
BLOCK
  5
2BB
330
2B1
100
AcDbEntity
  8
0
100
AcDbBlockBegin
  2
*D8
 70
     1
 10
0.0
 20
0.0
 30
0.0
  3
*D8
  1

  0
LINE
  5
2B2
330
2B1
100
AcDbEntity
  8
0
 62
   123
100
AcDbLine
 10
8118.235096603426
 20
-3635.158334907788
 30
0.0
 11
8118.235096603426
 21
-3567.933783103991
 31
0.0
  0
LINE
  5
2B3
330
2B1
100
AcDbEntity
  8
0
 62
   123
100
AcDbLine
 10
8136.235096603424
 20
-3593.393334907788
 30
0.0
 11
8136.235096603424
 21
-3567.933783103991
 31
0.0
  0
LINE
  5
2B4
330
2B1
100
AcDbEntity
  8
0
 62
   123
100
AcDbLine
 10
8120.735096603423
 20
-3568.533783103991
 30
0.0
 11
8133.735096603425
 21
-3568.533783103991
 31
0.0
  0
SOLID
  5
2B5
330
2B1
100
AcDbEntity
  8
0
 62
   123
100
AcDbTrace
 10
8120.735096603423
 20
-3568.117116437326
 30
0.0
 11
8120.735096603423
 21
-3568.950449770659
 31
0.0
 12
8118.235096603426
 22
-3568.533783103991
 32
0.0
 13
8118.235096603426
 23
-3568.533783103991
 33
0.0
  0
SOLID
  5
2B6
330
2B1
100
AcDbEntity
  8
0
 62
   123
100
AcDbTrace
 10
8133.735096603425
 20
-3568.117116437326
 30
0.0
 11
8133.735096603425
 21
-3568.950449770659
 31
0.0
 12
8136.235096603424
 22
-3568.533783103991
 32
0.0
 13
8136.235096603424
 23
-3568.533783103991
 33
0.0
  0
MTEXT
  5
2B7
330
2B1
100
AcDbEntity
  8
0
 62
     3
100
AcDbMText
 10
8127.285096603424
 20
-3566.033783103991
 30
0.0
 40
3.0
 41
0.0
 71
     5
 72
     1
  1
\A1;18
1001
ACAD
1000
MTEXTBEGIN
1070
    73
1070
     1
1070
    44
1040
1.0
1070
    74
1070
     0
1000
MTEXTEND
  0
POINT
  5
2B8
330
2B1
100
AcDbEntity
  8
DEFPOINTS
 62
     0
100
AcDbPoint
 10
8118.235096603426
 20
-3636.158334907788
 30
0.0
  0
POINT
  5
2B9
330
2B1
100
AcDbEntity
  8
DEFPOINTS
 62
     0
100
AcDbPoint
 10
8136.235096603424
 20
-3594.393334907788
 30
0.0
  0
POINT
  5
2BA
330
2B1
100
AcDbEntity
  8
DEFPOINTS
 62
     0
100
AcDbPoint
 10
8136.235096603424
 20
-3568.533783103991
 30
0.0
  0
ENDBLK
  5
2BC
330
2B1
100
AcDbEntity
  8
0
100
AcDbBlockEnd
  0
BLOCK
  5
173
330
169
100
AcDbEntity
  8
0
100
AcDbBlockBegin
  2
*D9
 70
     1
 10
0.0
 20
0.0
 30
0.0
  3
*D9
  1

  0
LINE
  5
16A
330
169
100
AcDbEntity
  8
0
 62
   123
100
AcDbLine
 10
8279.235096603425
 20
-3594.893334907789
 30
0.0
 11
8298.509107047806
 21
-3594.893334907789
 31
0.0
  0
LINE
  5
16B
330
169
100
AcDbEntity
  8
0
 62
   123
100
AcDbLine
 10
8279.235096603425
 20
-3683.893334907789
 30
0.0
 11
8298.509107047806
 21
-3683.893334907789
 31
0.0
  0
LINE
  5
16C
330
169
100
AcDbEntity
  8
0
 62
   123
100
AcDbLine
 10
8297.909107047805
 20
-3597.393334907788
 30
0.0
 11
8297.909107047805
 21
-3681.393334907789
 31
0.0
  0
SOLID
  5
16D
330
169
100
AcDbEntity
  8
0
 62
   123
100
AcDbTrace
 10
8297.492440381139
 20
-3597.393334907788
 30
0.0
 11
8298.325773714472
 21
-3597.393334907788
 31
0.0
 12
8297.909107047805
 22
-3594.893334907789
 32
0.0
 13
8297.909107047805
 23
-3594.893334907789
 33
0.0
  0
SOLID
  5
16E
330
169
100
AcDbEntity
  8
0
 62
   123
100
AcDbTrace
 10
8297.492440381139
 20
-3681.393334907789
 30
0.0
 11
8298.325773714472
 21
-3681.393334907789
 31
0.0
 12
8297.909107047805
 22
-3683.893334907789
 32
0.0
 13
8297.909107047805
 23
-3683.893334907789
 33
0.0
  0
MTEXT
  5
16F
330
169
100
AcDbEntity
  8
0
 62
     3
100
AcDbMText
 10
8295.409107047806
 20
-3639.393334907789
 30
0.0
 40
3.0
 41
0.0
 71
     5
 72
     1
  1
\A1;%%C89
 11
0.0000000000000001
 21
1.0
 31
0.0
1001
ACAD
1000
MTEXTBEGIN
1070
    73
1070
     1
1070
    44
1040
1.0
1070
    74
1070
     0
1000
MTEXTEND
  0
POINT
  5
170
330
169
100
AcDbEntity
  8
DEFPOINTS
 62
     0
100
AcDbPoint
 10
8278.235096603424
 20
-3594.893334907789
 30
0.0
  0
POINT
  5
171
330
169
100
AcDbEntity
  8
DEFPOINTS
 62
     0
100
AcDbPoint
 10
8278.235096603424
 20
-3683.893334907789
 30
0.0
  0
POINT
  5
172
330
169
100
AcDbEntity
  8
DEFPOINTS
 62
     0
100
AcDbPoint
 10
8297.909107047805
 20
-3683.893334907789
 30
0.0
  0
ENDBLK
  5
174
330
169
100
AcDbEntity
  8
0
100
AcDbBlockEnd
  0
BLOCK
  5
258
330
24E
100
AcDbEntity
  8
0
100
AcDbBlockBegin
  2
*D10
 70
     1
 10
0.0
 20
0.0
 30
0.0
  3
*D10
  1

  0
LINE
  5
24F
330
24E
100
AcDbEntity
  8
0
 62
   123
100
AcDbLine
 10
7989.884102299868
 20
-3598.436128666586
 30
0.0
 11
7989.884102299868
 21
-3581.190902264932
 31
0.0
  0
LINE
  5
250
330
24E
100
AcDbEntity
  8
0
 62
   123
100
AcDbLine
 10
8079.884102299867
 20
-3598.436128666585
 30
0.0
 11
8079.884102299867
 21
-3581.190902264932
 31
0.0
  0
LINE
  5
251
330
24E
100
AcDbEntity
  8
0
 62
   123
100
AcDbLine
 10
7992.384102299867
 20
-3581.790902264931
 30
0.0
 11
8077.384102299868
 21
-3581.790902264931
 31
0.0
  0
SOLID
  5
252
330
24E
100
AcDbEntity
  8
0
 62
   123
100
AcDbTrace
 10
7992.384102299867
 20
-3581.374235598264
 30
0.0
 11
7992.384102299867
 21
-3582.207568931599
 31
0.0
 12
7989.884102299868
 22
-3581.790902264931
 32
0.0
 13
7989.884102299868
 23
-3581.790902264931
 33
0.0
  0
SOLID
  5
253
330
24E
100
AcDbEntity
  8
0
 62
   123
100
AcDbTrace
 10
8077.384102299868
 20
-3581.374235598264
 30
0.0
 11
8077.384102299868
 21
-3582.207568931599
 31
0.0
 12
8079.884102299867
 22
-3581.790902264931
 32
0.0
 13
8079.884102299867
 23
-3581.790902264931
 33
0.0
  0
MTEXT
  5
254
330
24E
100
AcDbEntity
  8
0
 62
     3
100
AcDbMText
 10
8034.884102299868
 20
-3579.290902264931
 30
0.0
 40
3.0
 41
0.0
 71
     5
 72
     1
  1
\A1;90
1001
ACAD
1000
MTEXTBEGIN
1070
    73
1070
     1
1070
    44
1040
1.0
1070
    74
1070
     0
1000
MTEXTEND
  0
POINT
  5
255
330
24E
100
AcDbEntity
  8
DEFPOINTS
 62
     0
100
AcDbPoint
 10
7989.884102299868
 20
-3599.436128666585
 30
0.0
  0
POINT
  5
256
330
24E
100
AcDbEntity
  8
DEFPOINTS
 62
     0
100
AcDbPoint
 10
8079.884102299867
 20
-3599.436128666585
 30
0.0
  0
POINT
  5
257
330
24E
100
AcDbEntity
  8
DEFPOINTS
 62
     0
100
AcDbPoint
 10
8079.884102299867
 20
-3581.790902264931
 30
0.0
  0
ENDBLK
  5
259
330
24E
100
AcDbEntity
  8
0
100
AcDbBlockEnd
  0
BLOCK
  5
1C8
330
1BE
100
AcDbEntity
  8
0
100
AcDbBlockBegin
  2
*D11
 70
     1
 10
0.0
 20
0.0
 30
0.0
  3
*D11
  1

  0
LINE
  5
1BF
330
1BE
100
AcDbEntity
  8
0
 62
   123
100
AcDbLine
 10
8148.71441878134
 20
-3796.714674629241
 30
0.0
 11
8148.71441878134
 21
-3786.355122825443
 31
0.0
  0
LINE
  5
1C0
330
1BE
100
AcDbEntity
  8
0
 62
   123
100
AcDbLine
 10
8296.714418781339
 20
-3817.814674629241
 30
0.0
 11
8296.714418781339
 21
-3786.355122825443
 31
0.0
  0
LINE
  5
1C1
330
1BE
100
AcDbEntity
  8
0
 62
   123
100
AcDbLine
 10
8151.214418781341
 20
-3786.955122825443
 30
0.0
 11
8294.214418781342
 21
-3786.955122825443
 31
0.0
  0
SOLID
  5
1C2
330
1BE
100
AcDbEntity
  8
0
 62
   123
100
AcDbTrace
 10
8151.214418781341
 20
-3786.538456158777
 30
0.0
 11
8151.214418781341
 21
-3787.371789492111
 31
0.0
 12
8148.71441878134
 22
-3786.955122825443
 32
0.0
 13
8148.71441878134
 23
-3786.955122825443
 33
0.0
  0
SOLID
  5
1C3
330
1BE
100
AcDbEntity
  8
0
 62
   123
100
AcDbTrace
 10
8294.214418781342
 20
-3786.538456158777
 30
0.0
 11
8294.214418781342
 21
-3787.371789492111
 31
0.0
 12
8296.714418781339
 22
-3786.955122825443
 32
0.0
 13
8296.714418781339
 23
-3786.955122825443
 33
0.0
  0
MTEXT
  5
1C4
330
1BE
100
AcDbEntity
  8
0
 62
     3
100
AcDbMText
 10
8216.214418781339
 20
-3784.455122825443
 30
0.0
 40
3.0
 41
0.0
 71
     5
 72
     1
  1
\A1;148
1001
ACAD
1000
MTEXTBEGIN
1070
    73
1070
     1
1070
    44
1040
1.0
1070
    74
1070
     0
1000
MTEXTEND
  0
POINT
  5
1C5
330
1BE
100
AcDbEntity
  8
DEFPOINTS
 62
     0
100
AcDbPoint
 10
8148.71441878134
 20
-3797.71467462924
 30
0.0
  0
POINT
  5
1C6
330
1BE
100
AcDbEntity
  8
DEFPOINTS
 62
     0
100
AcDbPoint
 10
8296.714418781339
 20
-3818.814674629241
 30
0.0
  0
POINT
  5
1C7
330
1BE
100
AcDbEntity
  8
DEFPOINTS
 62
     0
100
AcDbPoint
 10
8296.714418781339
 20
-3786.955122825443
 30
0.0
  0
ENDBLK
  5
1C9
330
1BE
100
AcDbEntity
  8
0
100
AcDbBlockEnd
  0
BLOCK
  5
F7
330
ED
100
AcDbEntity
  8
0
100
AcDbBlockBegin
  2
*D12
 70
     1
 10
0.0
 20
0.0
 30
0.0
  3
*D12
  1

  0
LINE
  5
EE
330
ED
100
AcDbEntity
  8
0
 62
   123
100
AcDbLine
 10
8145.019355223054
 20
-3816.314674629239
 30
0.0
 11
8078.438666640293
 21
-3816.314674629239
 31
0.0
  0
LINE
  5
EF
330
ED
100
AcDbEntity
  8
0
 62
   123
100
AcDbLine
 10
8145.019355223054
 20
-3899.31467462924
 30
0.0
 11
8078.438666640293
 21
-3899.31467462924
 31
0.0
  0
LINE
  5
F0
330
ED
100
AcDbEntity
  8
0
 62
   123
100
AcDbLine
 10
8079.038666640292
 20
-3818.81467462924
 30
0.0
 11
8079.038666640292
 21
-3896.81467462924
 31
0.0
  0
SOLID
  5
F1
330
ED
100
AcDbEntity
  8
0
 62
   123
100
AcDbTrace
 10
8078.621999973625
 20
-3818.81467462924
 30
0.0
 11
8079.455333306958
 21
-3818.81467462924
 31
0.0
 12
8079.038666640292
 22
-3816.314674629239
 32
0.0
 13
8079.038666640292
 23
-3816.314674629239
 33
0.0
  0
SOLID
  5
F2
330
ED
100
AcDbEntity
  8
0
 62
   123
100
AcDbTrace
 10
8078.621999973625
 20
-3896.81467462924
 30
0.0
 11
8079.455333306958
 21
-3896.81467462924
 31
0.0
 12
8079.038666640292
 22
-3899.31467462924
 32
0.0
 13
8079.038666640292
 23
-3899.31467462924
 33
0.0
  0
MTEXT
  5
F3
330
ED
100
AcDbEntity
  8
0
 62
     3
100
AcDbMText
 10
8075.088516640294
 20
-3854.388450775593
 30
0.0
 40
3.0
 41
0.0
 71
     5
 72
     1
  1
\A1;\A1;{\f??|b0|i0|c0|p49;%%c83\H0.7x;\S+0^ -0.035;\H1.429x;(h7)}
 11
0.0000000000000001
 21
1.0
 31
0.0
1001
ACAD
1000
MTEXTBEGIN
1070
    73
1070
     1
1070
    44
1040
1.0
1070
    74
1070
     0
1000
MTEXTEND
  0
POINT
  5
F4
330
ED
100
AcDbEntity
  8
DEFPOINTS
 62
     0
100
AcDbPoint
 10
8146.019355223053
 20
-3816.314674629239
 30
0.0
  0
POINT
  5
F5
330
ED
100
AcDbEntity
  8
DEFPOINTS
 62
     0
100
AcDbPoint
 10
8146.019355223053
 20
-3899.31467462924
 30
0.0
  0
POINT
  5
F6
330
ED
100
AcDbEntity
  8
DEFPOINTS
 62
     0
100
AcDbPoint
 10
8079.038666640292
 20
-3899.31467462924
 30
0.0
  0
ENDBLK
  5
F8
330
ED
100
AcDbEntity
  8
0
100
AcDbBlockEnd
  0
BLOCK
  5
213
330
209
100
AcDbEntity
  8
0
100
AcDbBlockBegin
  2
*D13
 70
     1
 10
0.0
 20
0.0
 30
0.0
  3
*D13
  1

  0
LINE
  5
20A
330
209
100
AcDbEntity
  8
0
 62
   123
100
AcDbLine
 10
8111.714418781343
 20
-3852.814674629239
 30
0.0
 11
8111.714418781343
 21
-3786.355122825443
 31
0.0
  0
LINE
  5
20B
330
209
100
AcDbEntity
  8
0
 62
   123
100
AcDbLine
 10
8148.71441878134
 20
-3811.81467462924
 30
0.0
 11
8148.71441878134
 21
-3786.355122825443
 31
0.0
  0
LINE
  5
20C
330
209
100
AcDbEntity
  8
0
 62
   123
100
AcDbLine
 10
8114.21441878134
 20
-3786.955122825443
 30
0.0
 11
8146.21441878134
 21
-3786.955122825443
 31
0.0
  0
SOLID
  5
20D
330
209
100
AcDbEntity
  8
0
 62
   123
100
AcDbTrace
 10
8114.21441878134
 20
-3786.538456158777
 30
0.0
 11
8114.21441878134
 21
-3787.371789492111
 31
0.0
 12
8111.714418781343
 22
-3786.955122825443
 32
0.0
 13
8111.714418781343
 23
-3786.955122825443
 33
0.0
  0
SOLID
  5
20E
330
209
100
AcDbEntity
  8
0
 62
   123
100
AcDbTrace
 10
8146.21441878134
 20
-3786.538456158777
 30
0.0
 11
8146.21441878134
 21
-3787.371789492111
 31
0.0
 12
8148.71441878134
 22
-3786.955122825443
 32
0.0
 13
8148.71441878134
 23
-3786.955122825443
 33
0.0
  0
MTEXT
  5
20F
330
209
100
AcDbEntity
  8
0
 62
     3
100
AcDbMText
 10
8139.764418781339
 20
-3784.455122825443
 30
0.0
 40
3.0
 41
0.0
 71
     5
 72
     1
  1
\A1;37
1001
ACAD
1000
MTEXTBEGIN
1070
    73
1070
     1
1070
    44
1040
1.0
1070
    74
1070
     0
1000
MTEXTEND
  0
POINT
  5
210
330
209
100
AcDbEntity
  8
DEFPOINTS
 62
     0
100
AcDbPoint
 10
8111.714418781343
 20
-3853.814674629239
 30
0.0
  0
POINT
  5
211
330
209
100
AcDbEntity
  8
DEFPOINTS
 62
     0
100
AcDbPoint
 10
8148.71441878134
 20
-3812.81467462924
 30
0.0
  0
POINT
  5
212
330
209
100
AcDbEntity
  8
DEFPOINTS
 62
     0
100
AcDbPoint
 10
8148.71441878134
 20
-3786.955122825443
 30
0.0
  0
ENDBLK
  5
214
330
209
100
AcDbEntity
  8
0
100
AcDbBlockEnd
  0
BLOCK
  5
117
330
10B
100
AcDbEntity
  8
0
100
AcDbBlockBegin
  2
*D14
 70
     1
 10
0.0
 20
0.0
 30
0.0
  3
*D14
  1

  0
LINE
  5
10C
330
10B
100
AcDbEntity
  8
0
 62
   123
100
AcDbLine
 10
8006.341952835919
 20
-3912.444819392993
 30
0.0
 11
8006.341952835919
 21
-3930.863406786468
 31
0.0
  0
LINE
  5
10D
330
10B
100
AcDbEntity
  8
0
 62
   123
100
AcDbLine
 10
8025.370573196513
 20
-3903.73850902543
 30
0.0
 11
8034.304451087349
 21
-3925.29960599408
 31
0.0
  0
ARC
  5
10E
330
10B
100
AcDbEntity
  8
0
 62
   123
100
AcDbCircle
 10
8006.341952835919
 20
-3857.814674629238
 30
0.0
 40
72.44873215722972
100
AcDbArc
 50
271.9772127434104
 51
290.5295441539783
  0
SOLID
  5
10F
330
10B
100
AcDbEntity
  8
0
 62
   123
100
AcDbTrace
 10
8008.848769692383
 20
-3930.636877480465
 30
0.0
 11
8008.834391709003
 21
-3929.803668192208
 31
0.0
 12
8006.341952835919
 22
-3930.263406786469
 32
0.0
 13
8006.341952835919
 23
-3930.263406786469
 33
0.0
  0
SOLID
  5
110
330
10B
100
AcDbEntity
  8
0
 62
   123
100
AcDbTrace
 10
8031.596190464227
 20
-3925.274669645233
 30
0.0
 11
8031.901853757556
 21
-3926.049920827468
 31
0.0
 12
8034.074775657597
 22
-3924.745305356369
 32
0.0
 13
8034.074775657597
 23
-3924.745305356369
 33
0.0
  0
MTEXT
  5
111
330
10B
100
AcDbEntity
  8
0
 62
     3
100
AcDbMText
 10
8019.936562157036
 20
-3926.138335658001
 30
0.0
 40
3.0
 41
0.0
 71
     5
 72
     1
  1
\A1;22°30'
 11
0.9807737751869574
 21
0.1951481537333203
 31
0.0
1001
ACAD
1000
MTEXTBEGIN
1070
    73
1070
     1
1070
    44
1040
1.0
1070
    74
1070
     0
1000
MTEXTEND
  0
POINT
  5
112
330
10B
100
AcDbEntity
  8
DEFPOINTS
 62
     0
100
AcDbPoint
 10
8015.801233565792
 20
-3929.643226050407
 30
0.0
  0
POINT
  5
113
330
10B
100
AcDbEntity
  8
DEFPOINTS
 62
     0
100
AcDbPoint
 10
8006.341952835919
 20
-3911.444819392993
 30
0.0
  0
POINT
  5
114
330
10B
100
AcDbEntity
  8
DEFPOINTS
 62
     0
100
AcDbPoint
 10
8006.341952835919
 20
-3857.814674629238
 30
0.0
  0
POINT
  5
115
330
10B
100
AcDbEntity
  8
DEFPOINTS
 62
     0
100
AcDbPoint
 10
8024.987780813598
 20
-3902.81467462924
 30
0.0
  0
POINT
  5
116
330
10B
100
AcDbEntity
  8
DEFPOINTS
 62
     0
100
AcDbPoint
 10
8006.341952835919
 20
-3804.184529865487
 30
0.0
  0
ENDBLK
  5
118
330
10B
100
AcDbEntity
  8
0
100
AcDbBlockEnd
  0
BLOCK
  5
1DD
330
1D3
100
AcDbEntity
  8
0
100
AcDbBlockBegin
  2
*D15
 70
     1
 10
0.0
 20
0.0
 30
0.0
  3
*D15
  1

  0
LINE
  5
1D4
330
1D3
100
AcDbEntity
  8
0
 62
   123
100
AcDbLine
 10
8148.71441878134
 20
-3811.81467462924
 30
0.0
 11
8148.71441878134
 21
-3800.182929870699
 31
0.0
  0
LINE
  5
1D5
330
1D3
100
AcDbEntity
  8
0
 62
   123
100
AcDbLine
 10
8156.21441878134
 20
-3813.215937287711
 30
0.0
 11
8156.21441878134
 21
-3800.182929870699
 31
0.0
  0
LINE
  5
1D6
330
1D3
100
AcDbEntity
  8
0
 62
   123
100
AcDbLine
 10
8151.214418781341
 20
-3800.782929870699
 30
0.0
 11
8153.714418781339
 21
-3800.782929870699
 31
0.0
  0
SOLID
  5
1D7
330
1D3
100
AcDbEntity
  8
0
 62
   123
100
AcDbTrace
 10
8151.214418781341
 20
-3800.366263204031
 30
0.0
 11
8151.214418781341
 21
-3801.199596537365
 31
0.0
 12
8148.71441878134
 22
-3800.782929870699
 32
0.0
 13
8148.71441878134
 23
-3800.782929870699
 33
0.0
  0
SOLID
  5
1D8
330
1D3
100
AcDbEntity
  8
0
 62
   123
100
AcDbTrace
 10
8153.714418781339
 20
-3800.366263204031
 30
0.0
 11
8153.714418781339
 21
-3801.199596537365
 31
0.0
 12
8156.21441878134
 22
-3800.782929870699
 32
0.0
 13
8156.21441878134
 23
-3800.782929870699
 33
0.0
  0
MTEXT
  5
1D9
330
1D3
100
AcDbEntity
  8
0
 62
     3
100
AcDbMText
 10
8152.46441878134
 20
-3798.282929870698
 30
0.0
 40
3.0
 41
0.0
 71
     5
 72
     1
  1
\A1;7.5
1001
ACAD
1000
MTEXTBEGIN
1070
    73
1070
     1
1070
    44
1040
1.0
1070
    74
1070
     0
1000
MTEXTEND
  0
POINT
  5
1DA
330
1D3
100
AcDbEntity
  8
DEFPOINTS
 62
     0
100
AcDbPoint
 10
8148.71441878134
 20
-3812.81467462924
 30
0.0
  0
POINT
  5
1DB
330
1D3
100
AcDbEntity
  8
DEFPOINTS
 62
     0
100
AcDbPoint
 10
8156.21441878134
 20
-3814.215937287711
 30
0.0
  0
POINT
  5
1DC
330
1D3
100
AcDbEntity
  8
DEFPOINTS
 62
     0
100
AcDbPoint
 10
8156.21441878134
 20
-3800.782929870699
 30
0.0
  0
ENDBLK
  5
1DE
330
1D3
100
AcDbEntity
  8
0
100
AcDbBlockEnd
  0
BLOCK
  5
29D
330
293
100
AcDbEntity
  8
0
100
AcDbBlockBegin
  2
*D16
 70
     1
 10
0.0
 20
0.0
 30
0.0
  3
*D16
  1

  0
LINE
  5
294
330
293
100
AcDbEntity
  8
0
 62
   123
100
AcDbLine
 10
8136.235096603424
 20
-3593.393334907789
 30
0.0
 11
8136.235096603424
 21
-3581.761590149246
 31
0.0
  0
LINE
  5
295
330
293
100
AcDbEntity
  8
0
 62
   123
100
AcDbLine
 10
8143.735096603426
 20
-3594.794597566259
 30
0.0
 11
8143.735096603426
 21
-3581.761590149246
 31
0.0
  0
LINE
  5
296
330
293
100
AcDbEntity
  8
0
 62
   123
100
AcDbLine
 10
8138.735096603424
 20
-3582.361590149246
 30
0.0
 11
8141.235096603425
 21
-3582.361590149246
 31
0.0
  0
SOLID
  5
297
330
293
100
AcDbEntity
  8
0
 62
   123
100
AcDbTrace
 10
8138.735096603424
 20
-3581.94492348258
 30
0.0
 11
8138.735096603424
 21
-3582.778256815913
 31
0.0
 12
8136.235096603424
 22
-3582.361590149246
 32
0.0
 13
8136.235096603424
 23
-3582.361590149246
 33
0.0
  0
SOLID
  5
298
330
293
100
AcDbEntity
  8
0
 62
   123
100
AcDbTrace
 10
8141.235096603425
 20
-3581.94492348258
 30
0.0
 11
8141.235096603425
 21
-3582.778256815913
 31
0.0
 12
8143.735096603426
 22
-3582.361590149246
 32
0.0
 13
8143.735096603426
 23
-3582.361590149246
 33
0.0
  0
MTEXT
  5
299
330
293
100
AcDbEntity
  8
0
 62
     3
100
AcDbMText
 10
8139.985096603425
 20
-3579.861590149246
 30
0.0
 40
3.0
 41
0.0
 71
     5
 72
     1
  1
\A1;7.5
1001
ACAD
1000
MTEXTBEGIN
1070
    73
1070
     1
1070
    44
1040
1.0
1070
    74
1070
     0
1000
MTEXTEND
  0
POINT
  5
29A
330
293
100
AcDbEntity
  8
DEFPOINTS
 62
     0
100
AcDbPoint
 10
8136.235096603424
 20
-3594.393334907788
 30
0.0
  0
POINT
  5
29B
330
293
100
AcDbEntity
  8
DEFPOINTS
 62
     0
100
AcDbPoint
 10
8143.735096603426
 20
-3595.794597566259
 30
0.0
  0
POINT
  5
29C
330
293
100
AcDbEntity
  8
DEFPOINTS
 62
     0
100
AcDbPoint
 10
8143.735096603426
 20
-3582.361590149246
 30
0.0
  0
ENDBLK
  5
29E
330
293
100
AcDbEntity
  8
0
100
AcDbBlockEnd
  0
BLOCK
  5
19D
330
191
100
AcDbEntity
  8
0
100
AcDbBlockBegin
  2
*D17
 70
     1
 10
0.0
 20
0.0
 30
0.0
  3
*D17
  1

  0
LINE
  5
192
330
191
100
AcDbEntity
  8
0
 62
   123
100
AcDbLine
 10
8034.884102299868
 20
-3694.023479671541
 30
0.0
 11
8034.884102299868
 21
-3712.442067065011
 31
0.0
  0
LINE
  5
193
330
191
100
AcDbEntity
  8
0
 62
   123
100
AcDbLine
 10
8053.912722660461
 20
-3685.317169303977
 30
0.0
 11
8062.84660055129
 21
-3706.878266272624
 31
0.0
  0
ARC
  5
194
330
191
100
AcDbEntity
  8
0
 62
   123
100
AcDbCircle
 10
8034.884102299868
 20
-3639.393334907789
 30
0.0
 40
72.44873215722233
100
AcDbArc
 50
271.9772127434111
 51
290.5295441539795
  0
SOLID
  5
195
330
191
100
AcDbEntity
  8
0
 62
   123
100
AcDbTrace
 10
8037.390919156328
 20
-3712.215537759007
 30
0.0
 11
8037.376541172951
 21
-3711.382328470751
 31
0.0
 12
8034.884102299868
 22
-3711.842067065011
 32
0.0
 13
8034.884102299868
 23
-3711.842067065011
 33
0.0
  0
SOLID
  5
196
330
191
100
AcDbEntity
  8
0
 62
   123
100
AcDbTrace
 10
8060.138339928174
 20
-3706.853329923777
 30
0.0
 11
8060.444003221503
 21
-3707.628581106011
 31
0.0
 12
8062.616925121544
 22
-3706.323965634911
 32
0.0
 13
8062.616925121544
 23
-3706.323965634911
 33
0.0
  0
MTEXT
  5
197
330
191
100
AcDbEntity
  8
0
 62
     3
100
AcDbMText
 10
8048.478711620983
 20
-3707.716995936544
 30
0.0
 40
3.0
 41
0.0
 71
     5
 72
     1
  1
\A1;22°30'
 11
0.9807737751869574
 21
0.1951481537333203
 31
0.0
1001
ACAD
1000
MTEXTBEGIN
1070
    73
1070
     1
1070
    44
1040
1.0
1070
    74
1070
     0
1000
MTEXTEND
  0
POINT
  5
198
330
191
100
AcDbEntity
  8
DEFPOINTS
 62
     0
100
AcDbPoint
 10
8044.343383029739
 20
-3711.221886328949
 30
0.0
  0
POINT
  5
199
330
191
100
AcDbEntity
  8
DEFPOINTS
 62
     0
100
AcDbPoint
 10
8034.884102299868
 20
-3693.023479671541
 30
0.0
  0
POINT
  5
19A
330
191
100
AcDbEntity
  8
DEFPOINTS
 62
     0
100
AcDbPoint
 10
8034.884102299868
 20
-3639.393334907789
 30
0.0
  0
POINT
  5
19B
330
191
100
AcDbEntity
  8
DEFPOINTS
 62
     0
100
AcDbPoint
 10
8053.529930277544
 20
-3684.393334907788
 30
0.0
  0
POINT
  5
19C
330
191
100
AcDbEntity
  8
DEFPOINTS
 62
     0
100
AcDbPoint
 10
8034.884102299868
 20
-3585.763190144036
 30
0.0
  0
ENDBLK
  5
19E
330
191
100
AcDbEntity
  8
0
100
AcDbBlockEnd
  0
BLOCK
  5
206
330
1FC
100
AcDbEntity
  8
0
100
AcDbBlockBegin
  2
*D18
 70
     1
 10
0.0
 20
0.0
 30
0.0
  3
*D18
  1

  0
LINE
  5
1FD
330
1FC
100
AcDbEntity
  8
0
 62
   123
100
AcDbLine
 10
8111.714418781343
 20
-3852.814674629239
 30
0.0
 11
8111.714418781343
 21
-3839.173123409533
 31
0.0
  0
LINE
  5
1FE
330
1FC
100
AcDbEntity
  8
0
 62
   123
100
AcDbLine
 10
8141.71441878134
 20
-3851.81467462924
 30
0.0
 11
8141.71441878134
 21
-3839.173123409533
 31
0.0
  0
LINE
  5
1FF
330
1FC
100
AcDbEntity
  8
0
 62
   123
100
AcDbLine
 10
8114.21441878134
 20
-3839.773123409534
 30
0.0
 11
8139.214418781341
 21
-3839.773123409534
 31
0.0
  0
SOLID
  5
200
330
1FC
100
AcDbEntity
  8
0
 62
   123
100
AcDbTrace
 10
8114.21441878134
 20
-3839.356456742867
 30
0.0
 11
8114.21441878134
 21
-3840.1897900762
 31
0.0
 12
8111.714418781343
 22
-3839.773123409534
 32
0.0
 13
8111.714418781343
 23
-3839.773123409534
 33
0.0
  0
SOLID
  5
201
330
1FC
100
AcDbEntity
  8
0
 62
   123
100
AcDbTrace
 10
8139.214418781341
 20
-3839.356456742867
 30
0.0
 11
8139.214418781341
 21
-3840.1897900762
 31
0.0
 12
8141.71441878134
 22
-3839.773123409534
 32
0.0
 13
8141.71441878134
 23
-3839.773123409534
 33
0.0
  0
MTEXT
  5
202
330
1FC
100
AcDbEntity
  8
0
 62
     3
100
AcDbMText
 10
8126.71441878134
 20
-3837.273123409534
 30
0.0
 40
3.0
 41
0.0
 71
     5
 72
     1
  1
\A1;30
1001
ACAD
1000
MTEXTBEGIN
1070
    73
1070
     1
1070
    44
1040
1.0
1070
    74
1070
     0
1000
MTEXTEND
  0
POINT
  5
203
330
1FC
100
AcDbEntity
  8
DEFPOINTS
 62
     0
100
AcDbPoint
 10
8111.714418781343
 20
-3853.814674629239
 30
0.0
  0
POINT
  5
204
330
1FC
100
AcDbEntity
  8
DEFPOINTS
 62
     0
100
AcDbPoint
 10
8141.71441878134
 20
-3852.814674629239
 30
0.0
  0
POINT
  5
205
330
1FC
100
AcDbEntity
  8
DEFPOINTS
 62
     0
100
AcDbPoint
 10
8141.71441878134
 20
-3839.773123409534
 30
0.0
  0
ENDBLK
  5
207
330
1FC
100
AcDbEntity
  8
0
100
AcDbBlockEnd
  0
BLOCK
  5
106
330
FC
100
AcDbEntity
  8
0
100
AcDbBlockBegin
  2
*D19
 70
     1
 10
0.0
 20
0.0
 30
0.0
  3
*D19
  1

  0
LINE
  5
FD
330
FC
100
AcDbEntity
  8
0
 62
   123
100
AcDbLine
 10
8110.71441878134
 20
-3862.814674629241
 30
0.0
 11
8090.984460092428
 21
-3862.814674629241
 31
0.0
  0
LINE
  5
FE
330
FC
100
AcDbEntity
  8
0
 62
   123
100
AcDbLine
 10
8140.714418781341
 20
-3852.814674629239
 30
0.0
 11
8090.984460092428
 21
-3852.814674629239
 31
0.0
  0
LINE
  5
FF
330
FC
100
AcDbEntity
  8
0
 62
   123
100
AcDbLine
 10
8091.584460092429
 20
-3860.31467462924
 30
0.0
 11
8091.584460092429
 21
-3855.314674629239
 31
0.0
  0
SOLID
  5
100
330
FC
100
AcDbEntity
  8
0
 62
   123
100
AcDbTrace
 10
8091.167793425761
 20
-3860.31467462924
 30
0.0
 11
8092.001126759095
 21
-3860.31467462924
 31
0.0
 12
8091.584460092429
 22
-3862.814674629241
 32
0.0
 13
8091.584460092429
 23
-3862.814674629241
 33
0.0
  0
SOLID
  5
101
330
FC
100
AcDbEntity
  8
0
 62
   123
100
AcDbTrace
 10
8091.167793425761
 20
-3855.314674629239
 30
0.0
 11
8092.001126759095
 21
-3855.314674629239
 31
0.0
 12
8091.584460092429
 22
-3852.814674629239
 32
0.0
 13
8091.584460092429
 23
-3852.814674629239
 33
0.0
  0
MTEXT
  5
102
330
FC
100
AcDbEntity
  8
0
 62
     3
100
AcDbMText
 10
8087.634310092431
 20
-3857.814674629238
 30
0.0
 40
3.0
 41
0.0
 71
     5
 72
     1
  1
\A1;\A1;{\f??|b0|i0|c0|p49;%%c}10{\f??|b0|i0|c0|p49;\H0.7x;\S+0^ -0.015;\H1.429x;(h7)}
 11
0.0000000000000001
 21
1.0
 31
0.0
1001
ACAD
1000
MTEXTBEGIN
1070
    73
1070
     1
1070
    44
1040
1.0
1070
    74
1070
     0
1000
MTEXTEND
  0
POINT
  5
103
330
FC
100
AcDbEntity
  8
DEFPOINTS
 62
     0
100
AcDbPoint
 10
8111.714418781343
 20
-3862.814674629241
 30
0.0
  0
POINT
  5
104
330
FC
100
AcDbEntity
  8
DEFPOINTS
 62
     0
100
AcDbPoint
 10
8141.71441878134
 20
-3852.814674629239
 30
0.0
  0
POINT
  5
105
330
FC
100
AcDbEntity
  8
DEFPOINTS
 62
     0
100
AcDbPoint
 10
8091.584460092429
 20
-3852.814674629239
 30
0.0
  0
ENDBLK
  5
107
330
FC
100
AcDbEntity
  8
0
100
AcDbBlockEnd
  0
BLOCK
  5
E8
330
DE
100
AcDbEntity
  8
0
100
AcDbBlockBegin
  2
*D20
 70
     1
 10
0.0
 20
0.0
 30
0.0
  3
*D20
  1

  0
LINE
  5
DF
330
DE
100
AcDbEntity
  8
0
 62
   123
100
AcDbLine
 10
8110.71441878134
 20
-3862.814674629241
 30
0.0
 11
8101.407606970498
 21
-3862.814674629241
 31
0.0
  0
LINE
  5
E0
330
DE
100
AcDbEntity
  8
0
 62
   123
100
AcDbLine
 10
8110.71441878134
 20
-3853.814674629239
 30
0.0
 11
8101.407606970498
 21
-3853.814674629239
 31
0.0
  0
LINE
  5
E1
330
DE
100
AcDbEntity
  8
0
 62
   123
100
AcDbLine
 10
8102.0076069705
 20
-3860.31467462924
 30
0.0
 11
8102.0076069705
 21
-3856.31467462924
 31
0.0
  0
SOLID
  5
E2
330
DE
100
AcDbEntity
  8
0
 62
   123
100
AcDbTrace
 10
8101.590940303832
 20
-3860.31467462924
 30
0.0
 11
8102.424273637167
 21
-3860.31467462924
 31
0.0
 12
8102.0076069705
 22
-3862.814674629241
 32
0.0
 13
8102.0076069705
 23
-3862.814674629241
 33
0.0
  0
SOLID
  5
E3
330
DE
100
AcDbEntity
  8
0
 62
   123
100
AcDbTrace
 10
8101.590940303832
 20
-3856.31467462924
 30
0.0
 11
8102.424273637167
 21
-3856.31467462924
 31
0.0
 12
8102.0076069705
 22
-3853.814674629239
 32
0.0
 13
8102.0076069705
 23
-3853.814674629239
 33
0.0
  0
MTEXT
  5
E4
330
DE
100
AcDbEntity
  8
0
 62
     3
100
AcDbMText
 10
8099.507606970501
 20
-3858.314674629241
 30
0.0
 40
3.0
 41
0.0
 71
     5
 72
     1
  1
\A1;9
 11
0.0000000000000001
 21
1.0
 31
0.0
1001
ACAD
1000
MTEXTBEGIN
1070
    73
1070
     1
1070
    44
1040
1.0
1070
    74
1070
     0
1000
MTEXTEND
  0
POINT
  5
E5
330
DE
100
AcDbEntity
  8
DEFPOINTS
 62
     0
100
AcDbPoint
 10
8111.714418781343
 20
-3862.814674629241
 30
0.0
  0
POINT
  5
E6
330
DE
100
AcDbEntity
  8
DEFPOINTS
 62
     0
100
AcDbPoint
 10
8111.714418781343
 20
-3853.814674629239
 30
0.0
  0
POINT
  5
E7
330
DE
100
AcDbEntity
  8
DEFPOINTS
 62
     0
100
AcDbPoint
 10
8102.0076069705
 20
-3853.814674629239
 30
0.0
  0
ENDBLK
  5
E9
330
DE
100
AcDbEntity
  8
0
100
AcDbBlockEnd
  0
BLOCK
  5
2E8
330
2DC
100
AcDbEntity
  8
0
100
AcDbBlockBegin
  2
*D21
 70
     1
 10
0.0
 20
0.0
 30
0.0
  3
*D21
  1

  0
LINE
  5
3ED
330
2DC
100
AcDbEntity
  8
0
 62
   123
100
AcDbLine
 10
47.97621439481463
 20
25.40292793680419
 30
0.0
 11
47.97621439481463
 21
6.984340543328713
 31
0.0
  0
LINE
  5
3EE
330
2DC
100
AcDbEntity
  8
0
 62
   123
100
AcDbLine
 10
67.00483475540726
 20
34.10923830436814
 30
0.0
 11
75.9387126462411
 21
12.54814133571487
 31
0.0
  0
ARC
  5
3EF
330
2DC
100
AcDbEntity
  8
0
 62
   123
100
AcDbCircle
 10
47.97621439481463
 20
80.03307270055712
 30
0.0
 40
72.4487321572284
100
AcDbArc
 50
271.9772127434108
 51
290.5295441539787
  0
SOLID
  5
3F0
330
2DC
100
AcDbEntity
  8
0
 62
   123
100
AcDbTrace
 10
50.48303125127557
 20
7.210869849332048
 30
0.0
 11
50.46865326789823
 21
8.044079137589474
 31
0.0
 12
47.97621439481462
 22
7.584340543328712
 32
0.0
 13
47.97621439481462
 23
7.584340543328712
 33
0.0
  0
SOLID
  5
3F1
330
2DC
100
AcDbEntity
  8
0
 62
   123
100
AcDbTrace
 10
73.23045202312333
 20
12.57307768456283
 30
0.0
 11
73.53611531645094
 21
11.79782650232796
 31
0.0
 12
75.70903721649175
 22
13.10244197342824
 32
0.0
 13
75.70903721649175
 23
13.10244197342824
 33
0.0
  0
MTEXT
  5
3F2
330
2DC
100
AcDbEntity
  8
0
 62
     3
100
AcDbMText
 10
61.57082371593117
 20
11.70941167179558
 30
0.0
 40
3.0
 41
0.0
 71
     5
 72
     1
  1
\A1;22°30'
 11
0.9807737751869593
 21
0.1951481537333099
 31
0.0
  0
POINT
  5
3F3
330
2DC
100
AcDbEntity
  8
DEFPOINTS
 62
     0
100
AcDbPoint
 10
57.4354951246862
 20
8.204521279389634
 30
0.0
  0
POINT
  5
3F4
330
2DC
100
AcDbEntity
  8
DEFPOINTS
 62
     0
100
AcDbPoint
 10
47.97621439481463
 20
26.40292793680419
 30
0.0
  0
POINT
  5
3F5
330
2DC
100
AcDbEntity
  8
DEFPOINTS
 62
     0
100
AcDbPoint
 10
47.97621439481463
 20
80.03307270055712
 30
0.0
  0
POINT
  5
3F6
330
2DC
100
AcDbEntity
  8
DEFPOINTS
 62
     0
100
AcDbPoint
 10
66.62204237249169
 20
35.0330727005571
 30
0.0
  0
POINT
  5
3F7
330
2DC
100
AcDbEntity
  8
DEFPOINTS
 62
     0
100
AcDbPoint
 10
47.97621439481463
 20
133.6632174643086
 30
0.0
  0
ENDBLK
  5
2E9
330
2DC
100
AcDbEntity
  8
0
100
AcDbBlockEnd
  0
BLOCK
  5
2F4
330
2EA
100
AcDbEntity
  8
0
100
AcDbBlockBegin
  2
*D22
 70
     1
 10
0.0
 20
0.0
 30
0.0
  3
*D22
  1

  0
LINE
  5
2EB
330
2EA
100
AcDbEntity
  8
0
 62
   123
100
AcDbLine
 10
152.3486803402365
 20
75.0330727005562
 30
0.0
 11
132.6187216513239
 21
75.0330727005562
 31
0.0
  0
LINE
  5
2EC
330
2EA
100
AcDbEntity
  8
0
 62
   123
100
AcDbLine
 10
182.3486803402347
 20
85.03307270055712
 30
0.0
 11
132.6187216513239
 21
85.03307270055712
 31
0.0
  0
LINE
  5
2ED
330
2EA
100
AcDbEntity
  8
0
 62
   123
100
AcDbLine
 10
133.2187216513239
 20
77.5330727005562
 30
0.0
 11
133.2187216513239
 21
82.53307270055712
 31
0.0
  0
SOLID
  5
2EE
330
2EA
100
AcDbEntity
  8
0
 62
   123
100
AcDbTrace
 10
132.8020549846572
 20
77.5330727005562
 30
0.0
 11
133.6353883179905
 21
77.5330727005562
 31
0.0
 12
133.2187216513239
 22
75.0330727005562
 32
0.0
 13
133.2187216513239
 23
75.0330727005562
 33
0.0
  0
SOLID
  5
2EF
330
2EA
100
AcDbEntity
  8
0
 62
   123
100
AcDbTrace
 10
132.8020549846572
 20
82.53307270055712
 30
0.0
 11
133.6353883179905
 21
82.53307270055712
 31
0.0
 12
133.2187216513239
 22
85.03307270055712
 32
0.0
 13
133.2187216513239
 23
85.03307270055712
 33
0.0
  0
MTEXT
  5
2F0
330
2EA
100
AcDbEntity
  8
0
 62
     3
100
AcDbMText
 10
129.2685716513239
 20
80.03307270055667
 30
0.0
 40
3.0
 41
0.0
 71
     5
 72
     1
  1
\A1;\A1;{\f??|b0|i0|c0|p49;%%c}10{\f??|b0|i0|c0|p49;\H0.7x;\S+0^ -0.015;\H1.429x;(h7)}
 11
0.0000000000000001
 21
1.0
 31
0.0
1001
ACAD
1000
MTEXTBEGIN
1070
    73
1070
     1
1070
    44
1040
1.0
1070
    74
1070
     0
1000
MTEXTEND
  0
POINT
  5
2F1
330
2EA
100
AcDbEntity
  8
DEFPOINTS
 62
     0
100
AcDbPoint
 10
153.3486803402365
 20
75.0330727005562
 30
0.0
  0
POINT
  5
2F2
330
2EA
100
AcDbEntity
  8
DEFPOINTS
 62
     0
100
AcDbPoint
 10
183.3486803402347
 20
85.03307270055712
 30
0.0
  0
POINT
  5
2F3
330
2EA
100
AcDbEntity
  8
DEFPOINTS
 62
     0
100
AcDbPoint
 10
133.2187216513239
 20
85.03307270055712
 30
0.0
  0
ENDBLK
  5
2F5
330
2EA
100
AcDbEntity
  8
0
100
AcDbBlockEnd
  0
BLOCK
  5
300
330
2F6
100
AcDbEntity
  8
0
100
AcDbBlockBegin
  2
*D23
 70
     1
 10
0.0
 20
0.0
 30
0.0
  3
*D23
  1

  0
LINE
  5
2F7
330
2F6
100
AcDbEntity
  8
0
 62
   123
100
AcDbLine
 10
186.6536167819476
 20
121.5330727005571
 30
0.0
 11
120.0729281991866
 21
121.5330727005571
 31
0.0
  0
LINE
  5
2F8
330
2F6
100
AcDbEntity
  8
0
 62
   123
100
AcDbLine
 10
186.6536167819476
 20
38.53307270055711
 30
0.0
 11
120.0729281991866
 21
38.53307270055713
 31
0.0
  0
LINE
  5
2F9
330
2F6
100
AcDbEntity
  8
0
 62
   123
100
AcDbLine
 10
120.6729281991866
 20
119.0330727005571
 30
0.0
 11
120.6729281991865
 21
41.03307270055713
 31
0.0
  0
SOLID
  5
2FA
330
2F6
100
AcDbEntity
  8
0
 62
   123
100
AcDbTrace
 10
120.2562615325199
 20
119.0330727005571
 30
0.0
 11
121.0895948658532
 21
119.0330727005571
 31
0.0
 12
120.6729281991866
 22
121.5330727005571
 32
0.0
 13
120.6729281991866
 23
121.5330727005571
 33
0.0
  0
SOLID
  5
2FB
330
2F6
100
AcDbEntity
  8
0
 62
   123
100
AcDbTrace
 10
120.2562615325199
 20
41.03307270055713
 30
0.0
 11
121.0895948658532
 21
41.03307270055713
 31
0.0
 12
120.6729281991865
 22
38.53307270055713
 32
0.0
 13
120.6729281991865
 23
38.53307270055713
 33
0.0
  0
MTEXT
  5
2FC
330
2F6
100
AcDbEntity
  8
0
 62
     3
100
AcDbMText
 10
116.7227781991865
 20
83.45929655420377
 30
0.0
 40
3.0
 41
0.0
 71
     5
 72
     1
  1
\A1;\A1;{\f??|b0|i0|c0|p49;%%c83\H0.7x;\S+0^ -0.035;\H1.429x;(h7)}
 11
0.0000000000000001
 21
1.0
 31
0.0
1001
ACAD
1000
MTEXTBEGIN
1070
    73
1070
     1
1070
    44
1040
1.0
1070
    74
1070
     0
1000
MTEXTEND
  0
POINT
  5
2FD
330
2F6
100
AcDbEntity
  8
DEFPOINTS
 62
     0
100
AcDbPoint
 10
187.6536167819476
 20
121.5330727005571
 30
0.0
  0
POINT
  5
2FE
330
2F6
100
AcDbEntity
  8
DEFPOINTS
 62
     0
100
AcDbPoint
 10
187.6536167819476
 20
38.53307270055711
 30
0.0
  0
POINT
  5
2FF
330
2F6
100
AcDbEntity
  8
DEFPOINTS
 62
     0
100
AcDbPoint
 10
120.6729281991865
 20
38.53307270055713
 30
0.0
  0
ENDBLK
  5
301
330
2F6
100
AcDbEntity
  8
0
100
AcDbBlockEnd
  0
BLOCK
  5
30C
330
302
100
AcDbEntity
  8
0
100
AcDbBlockBegin
  2
*D24
 70
     1
 10
0.0
 20
0.0
 30
0.0
  3
*D24
  1

  0
LINE
  5
303
330
302
100
AcDbEntity
  8
0
 62
   123
100
AcDbLine
 10
152.3486803402365
 20
75.0330727005562
 30
0.0
 11
143.0418685293947
 21
75.0330727005562
 31
0.0
  0
LINE
  5
304
330
302
100
AcDbEntity
  8
0
 62
   123
100
AcDbLine
 10
152.3486803402365
 20
84.0330727005571
 30
0.0
 11
143.0418685293947
 21
84.0330727005571
 31
0.0
  0
LINE
  5
305
330
302
100
AcDbEntity
  8
0
 62
   123
100
AcDbLine
 10
143.6418685293947
 20
77.5330727005562
 30
0.0
 11
143.6418685293947
 21
81.5330727005571
 31
0.0
  0
SOLID
  5
306
330
302
100
AcDbEntity
  8
0
 62
   123
100
AcDbTrace
 10
143.2252018627281
 20
77.5330727005562
 30
0.0
 11
144.0585351960614
 21
77.5330727005562
 31
0.0
 12
143.6418685293947
 22
75.0330727005562
 32
0.0
 13
143.6418685293947
 23
75.0330727005562
 33
0.0
  0
SOLID
  5
307
330
302
100
AcDbEntity
  8
0
 62
   123
100
AcDbTrace
 10
143.2252018627281
 20
81.5330727005571
 30
0.0
 11
144.0585351960614
 21
81.5330727005571
 31
0.0
 12
143.6418685293947
 22
84.0330727005571
 32
0.0
 13
143.6418685293947
 23
84.0330727005571
 33
0.0
  0
MTEXT
  5
308
330
302
100
AcDbEntity
  8
0
 62
     3
100
AcDbMText
 10
141.1418685293947
 20
79.53307270055621
 30
0.0
 40
3.0
 41
0.0
 71
     5
 72
     1
  1
\A1;9
 11
0.0000000000000001
 21
1.0
 31
0.0
1001
ACAD
1000
MTEXTBEGIN
1070
    73
1070
     1
1070
    44
1040
1.0
1070
    74
1070
     0
1000
MTEXTEND
  0
POINT
  5
309
330
302
100
AcDbEntity
  8
DEFPOINTS
 62
     0
100
AcDbPoint
 10
153.3486803402365
 20
75.0330727005562
 30
0.0
  0
POINT
  5
30A
330
302
100
AcDbEntity
  8
DEFPOINTS
 62
     0
100
AcDbPoint
 10
153.3486803402365
 20
84.0330727005571
 30
0.0
  0
POINT
  5
30B
330
302
100
AcDbEntity
  8
DEFPOINTS
 62
     0
100
AcDbPoint
 10
143.6418685293947
 20
84.0330727005571
 30
0.0
  0
ENDBLK
  5
30D
330
302
100
AcDbEntity
  8
0
100
AcDbBlockEnd
  0
BLOCK
  5
318
330
30E
100
AcDbEntity
  8
0
100
AcDbBlockBegin
  2
*D25
 70
     1
 10
0.0
 20
0.0
 30
0.0
  3
*D25
  1

  0
LINE
  5
30F
330
30E
100
AcDbEntity
  8
0
 62
   123
100
AcDbLine
 10
333.3486803402338
 20
124.5330727005571
 30
0.0
 11
352.6226907846154
 21
124.5330727005571
 31
0.0
  0
LINE
  5
310
330
30E
100
AcDbEntity
  8
0
 62
   123
100
AcDbLine
 10
333.3486803402338
 20
35.53307270055711
 30
0.0
 11
352.6226907846154
 21
35.5330727005571
 31
0.0
  0
LINE
  5
311
330
30E
100
AcDbEntity
  8
0
 62
   123
100
AcDbLine
 10
352.0226907846154
 20
122.033072700557
 30
0.0
 11
352.0226907846154
 21
38.0330727005571
 31
0.0
  0
SOLID
  5
312
330
30E
100
AcDbEntity
  8
0
 62
   123
100
AcDbTrace
 10
351.6060241179487
 20
122.0330727005571
 30
0.0
 11
352.4393574512821
 21
122.033072700557
 31
0.0
 12
352.0226907846154
 22
124.5330727005571
 32
0.0
 13
352.0226907846154
 23
124.5330727005571
 33
0.0
  0
SOLID
  5
313
330
30E
100
AcDbEntity
  8
0
 62
   123
100
AcDbTrace
 10
351.6060241179487
 20
38.0330727005571
 30
0.0
 11
352.4393574512821
 21
38.0330727005571
 31
0.0
 12
352.0226907846154
 22
35.5330727005571
 32
0.0
 13
352.0226907846154
 23
35.5330727005571
 33
0.0
  0
MTEXT
  5
314
330
30E
100
AcDbEntity
  8
0
 62
     3
100
AcDbMText
 10
349.5226907846153
 20
80.03307270055712
 30
0.0
 40
3.0
 41
0.0
 71
     5
 72
     1
  1
\A1;%%C89
 11
0.0000000000000001
 21
1.0
 31
0.0
1001
ACAD
1000
MTEXTBEGIN
1070
    73
1070
     1
1070
    44
1040
1.0
1070
    74
1070
     0
1000
MTEXTEND
  0
POINT
  5
315
330
30E
100
AcDbEntity
  8
DEFPOINTS
 62
     0
100
AcDbPoint
 10
332.3486803402338
 20
124.5330727005571
 30
0.0
  0
POINT
  5
316
330
30E
100
AcDbEntity
  8
DEFPOINTS
 62
     0
100
AcDbPoint
 10
332.3486803402338
 20
35.53307270055711
 30
0.0
  0
POINT
  5
317
330
30E
100
AcDbEntity
  8
DEFPOINTS
 62
     0
100
AcDbPoint
 10
352.0226907846154
 20
35.5330727005571
 30
0.0
  0
ENDBLK
  5
319
330
30E
100
AcDbEntity
  8
0
100
AcDbBlockEnd
  0
BLOCK
  5
326
330
31A
100
AcDbEntity
  8
0
100
AcDbBlockBegin
  2
*D26
 70
     1
 10
0.0
 20
0.0
 30
0.0
  3
*D26
  1

  0
LINE
  5
3F8
330
31A
100
AcDbEntity
  8
0
 62
   123
100
AcDbLine
 10
76.51836385876322
 20
243.8242676582558
 30
0.0
 11
76.51836385876321
 21
225.4056802647872
 31
0.0
  0
LINE
  5
3F9
330
31A
100
AcDbEntity
  8
0
 62
   123
100
AcDbLine
 10
95.54698421935677
 20
252.5305780258202
 30
0.0
 11
104.4808621101885
 21
230.9694810571735
 31
0.0
  0
ARC
  5
3FA
330
31A
100
AcDbEntity
  8
0
 62
   123
100
AcDbCircle
 10
76.51836385876321
 20
298.4544124220083
 30
0.0
 40
72.44873215722112
100
AcDbArc
 50
271.977212743411
 51
290.5295441539799
  0
SOLID
  5
3FB
330
31A
100
AcDbEntity
  8
0
 62
   123
100
AcDbTrace
 10
79.02518071522417
 20
225.6322095707905
 30
0.0
 11
79.01080273184681
 21
226.465418859048
 31
0.0
 12
76.51836385876319
 22
226.0056802647872
 32
0.0
 13
76.51836385876319
 23
226.0056802647872
 33
0.0
  0
SOLID
  5
3FC
330
31A
100
AcDbEntity
  8
0
 62
   123
100
AcDbTrace
 10
101.7726014870708
 20
230.9944174060214
 30
0.0
 11
102.0782647803984
 21
230.2191662237865
 31
0.0
 12
104.2511866804392
 22
231.5237816948869
 32
0.0
 13
104.2511866804392
 23
231.5237816948869
 33
0.0
  0
MTEXT
  5
3FD
330
31A
100
AcDbEntity
  8
0
 62
     3
100
AcDbMText
 10
90.11297317987919
 20
230.1307513932541
 30
0.0
 40
3.0
 41
0.0
 71
     5
 72
     1
  1
\A1;22°30'
 11
0.980773775186957
 21
0.1951481537333221
 31
0.0
  0
POINT
  5
3FE
330
31A
100
AcDbEntity
  8
DEFPOINTS
 62
     0
100
AcDbPoint
 10
85.97764458863448
 20
226.6258610008481
 30
0.0
  0
POINT
  5
3FF
330
31A
100
AcDbEntity
  8
DEFPOINTS
 62
     0
100
AcDbPoint
 10
76.51836385876322
 20
244.8242676582558
 30
0.0
  0
POINT
  5
400
330
31A
100
AcDbEntity
  8
DEFPOINTS
 62
     0
100
AcDbPoint
 10
76.51836385876322
 20
298.4544124220082
 30
0.0
  0
POINT
  5
401
330
31A
100
AcDbEntity
  8
DEFPOINTS
 62
     0
100
AcDbPoint
 10
95.16419183644121
 20
253.4544124220092
 30
0.0
  0
POINT
  5
402
330
31A
100
AcDbEntity
  8
DEFPOINTS
 62
     0
100
AcDbPoint
 10
76.51836385876321
 20
352.0845571857607
 30
0.0
  0
ENDBLK
  5
327
330
31A
100
AcDbEntity
  8
0
100
AcDbBlockEnd
  0
BLOCK
  5
332
330
328
100
AcDbEntity
  8
0
100
AcDbBlockBegin
  2
*D27
 70
     1
 10
0.0
 20
0.0
 30
0.0
  3
*D27
  1

  0
LINE
  5
329
330
328
100
AcDbEntity
  8
0
 62
   123
100
AcDbLine
 10
174.1742946040321
 20
339.9544124220083
 30
0.0
 11
142.5493530733906
 21
339.9544124220083
 31
0.0
  0
LINE
  5
32A
330
328
100
AcDbEntity
  8
0
 62
   123
100
AcDbLine
 10
174.1742946040321
 20
256.9544124220083
 30
0.0
 11
142.5493530733905
 21
256.9544124220083
 31
0.0
  0
LINE
  5
32B
330
328
100
AcDbEntity
  8
0
 62
   123
100
AcDbLine
 10
143.1493530733906
 20
337.4544124220083
 30
0.0
 11
143.1493530733905
 21
259.4544124220083
 31
0.0
  0
SOLID
  5
32C
330
328
100
AcDbEntity
  8
0
 62
   123
100
AcDbTrace
 10
142.7326864067239
 20
337.4544124220083
 30
0.0
 11
143.5660197400572
 21
337.4544124220083
 31
0.0
 12
143.1493530733906
 22
339.9544124220083
 32
0.0
 13
143.1493530733906
 23
339.9544124220083
 33
0.0
  0
SOLID
  5
32D
330
328
100
AcDbEntity
  8
0
 62
   123
100
AcDbTrace
 10
142.7326864067239
 20
259.4544124220083
 30
0.0
 11
143.5660197400572
 21
259.4544124220083
 31
0.0
 12
143.1493530733905
 22
256.9544124220083
 32
0.0
 13
143.1493530733905
 23
256.9544124220083
 33
0.0
  0
MTEXT
  5
32E
330
328
100
AcDbEntity
  8
0
 62
     3
100
AcDbMText
 10
139.1992030733905
 20
301.8806362756559
 30
0.0
 40
3.0
 41
0.0
 71
     5
 72
     1
  1
\A1;\A1;{\f??|b0|i0|c0|p49;%%c83\H0.7x;\S+0^ -0.035;\H1.429x;(h7)}
 11
0.0000000000000001
 21
1.0
 31
0.0
1001
ACAD
1000
MTEXTBEGIN
1070
    73
1070
     1
1070
    44
1040
1.0
1070
    74
1070
     0
1000
MTEXTEND
  0
POINT
  5
32F
330
328
100
AcDbEntity
  8
DEFPOINTS
 62
     0
100
AcDbPoint
 10
175.1742946040321
 20
339.9544124220083
 30
0.0
  0
POINT
  5
330
330
328
100
AcDbEntity
  8
DEFPOINTS
 62
     0
100
AcDbPoint
 10
175.1742946040321
 20
256.9544124220083
 30
0.0
  0
POINT
  5
331
330
328
100
AcDbEntity
  8
DEFPOINTS
 62
     0
100
AcDbPoint
 10
143.1493530733905
 20
256.9544124220083
 30
0.0
  0
ENDBLK
  5
333
330
328
100
AcDbEntity
  8
0
100
AcDbBlockEnd
  0
BLOCK
  5
33E
330
334
100
AcDbEntity
  8
0
100
AcDbBlockBegin
  2
*D28
 70
     1
 10
0.0
 20
0.0
 30
0.0
  3
*D28
  1

  0
LINE
  5
335
330
334
100
AcDbEntity
  8
0
 62
   123
100
AcDbLine
 10
320.8693581623192
 20
342.9544124220083
 30
0.0
 11
340.143368606699
 21
342.9544124220083
 31
0.0
  0
LINE
  5
336
330
334
100
AcDbEntity
  8
0
 62
   123
100
AcDbLine
 10
320.8693581623192
 20
253.9544124220082
 30
0.0
 11
340.143368606699
 21
253.9544124220082
 31
0.0
  0
LINE
  5
337
330
334
100
AcDbEntity
  8
0
 62
   123
100
AcDbLine
 10
339.543368606699
 20
340.4544124220083
 30
0.0
 11
339.543368606699
 21
256.4544124220083
 31
0.0
  0
SOLID
  5
338
330
334
100
AcDbEntity
  8
0
 62
   123
100
AcDbTrace
 10
339.1267019400324
 20
340.4544124220083
 30
0.0
 11
339.9600352733657
 21
340.4544124220083
 31
0.0
 12
339.543368606699
 22
342.9544124220083
 32
0.0
 13
339.543368606699
 23
342.9544124220083
 33
0.0
  0
SOLID
  5
339
330
334
100
AcDbEntity
  8
0
 62
   123
100
AcDbTrace
 10
339.1267019400324
 20
256.4544124220083
 30
0.0
 11
339.9600352733657
 21
256.4544124220083
 31
0.0
 12
339.543368606699
 22
253.9544124220082
 32
0.0
 13
339.543368606699
 23
253.9544124220082
 33
0.0
  0
MTEXT
  5
33A
330
334
100
AcDbEntity
  8
0
 62
     3
100
AcDbMText
 10
337.043368606699
 20
298.4544124220083
 30
0.0
 40
3.0
 41
0.0
 71
     5
 72
     1
  1
\A1;%%C89
 11
0.0000000000000001
 21
1.0
 31
0.0
1001
ACAD
1000
MTEXTBEGIN
1070
    73
1070
     1
1070
    44
1040
1.0
1070
    74
1070
     0
1000
MTEXTEND
  0
POINT
  5
33B
330
334
100
AcDbEntity
  8
DEFPOINTS
 62
     0
100
AcDbPoint
 10
319.8693581623192
 20
342.9544124220083
 30
0.0
  0
POINT
  5
33C
330
334
100
AcDbEntity
  8
DEFPOINTS
 62
     0
100
AcDbPoint
 10
319.8693581623192
 20
253.9544124220083
 30
0.0
  0
POINT
  5
33D
330
334
100
AcDbEntity
  8
DEFPOINTS
 62
     0
100
AcDbPoint
 10
339.543368606699
 20
253.9544124220082
 30
0.0
  0
ENDBLK
  5
33F
330
334
100
AcDbEntity
  8
0
100
AcDbBlockEnd
  0
BLOCK
  5
34A
330
340
100
AcDbEntity
  8
0
100
AcDbBlockBegin
  2
*D29
 70
     1
 10
0.0
 20
0.0
 30
0.0
  3
*D29
  1

  0
LINE
  5
341
330
340
100
AcDbEntity
  8
0
 62
   123
100
AcDbLine
 10
2.976214394814633
 20
120.9902789417601
 30
0.0
 11
2.976214394814634
 21
138.235505343414
 31
0.0
  0
LINE
  5
342
330
340
100
AcDbEntity
  8
0
 62
   123
100
AcDbLine
 10
92.97621439481464
 20
120.9902789417601
 30
0.0
 11
92.97621439481464
 21
138.235505343414
 31
0.0
  0
LINE
  5
343
330
340
100
AcDbEntity
  8
0
 62
   123
100
AcDbLine
 10
5.476214394814634
 20
137.635505343414
 30
0.0
 11
90.47621439481464
 21
137.635505343414
 31
0.0
  0
SOLID
  5
344
330
340
100
AcDbEntity
  8
0
 62
   123
100
AcDbTrace
 10
5.476214394814634
 20
138.0521720100806
 30
0.0
 11
5.476214394814634
 21
137.2188386767473
 31
0.0
 12
2.976214394814634
 22
137.635505343414
 32
0.0
 13
2.976214394814634
 23
137.635505343414
 33
0.0
  0
SOLID
  5
345
330
340
100
AcDbEntity
  8
0
 62
   123
100
AcDbTrace
 10
90.47621439481464
 20
138.0521720100806
 30
0.0
 11
90.47621439481464
 21
137.2188386767473
 31
0.0
 12
92.97621439481464
 22
137.635505343414
 32
0.0
 13
92.97621439481464
 23
137.635505343414
 33
0.0
  0
MTEXT
  5
346
330
340
100
AcDbEntity
  8
0
 62
     3
100
AcDbMText
 10
47.97621439481463
 20
140.135505343414
 30
0.0
 40
3.0
 41
0.0
 71
     5
 72
     1
  1
\A1;90
1001
ACAD
1000
MTEXTBEGIN
1070
    73
1070
     1
1070
    44
1040
1.0
1070
    74
1070
     0
1000
MTEXTEND
  0
POINT
  5
347
330
340
100
AcDbEntity
  8
DEFPOINTS
 62
     0
100
AcDbPoint
 10
2.976214394814633
 20
119.9902789417601
 30
0.0
  0
POINT
  5
348
330
340
100
AcDbEntity
  8
DEFPOINTS
 62
     0
100
AcDbPoint
 10
92.97621439481464
 20
119.9902789417601
 30
0.0
  0
POINT
  5
349
330
340
100
AcDbEntity
  8
DEFPOINTS
 62
     0
100
AcDbPoint
 10
92.97621439481464
 20
137.635505343414
 30
0.0
  0
ENDBLK
  5
34B
330
340
100
AcDbEntity
  8
0
100
AcDbBlockEnd
  0
BLOCK
  5
356
330
34C
100
AcDbEntity
  8
0
100
AcDbBlockBegin
  2
*D30
 70
     1
 10
0.0
 20
0.0
 30
0.0
  3
*D30
  1

  0
LINE
  5
34D
330
34C
100
AcDbEntity
  8
0
 62
   123
100
AcDbLine
 10
153.3486803402365
 20
85.03307270055712
 30
0.0
 11
153.3486803402365
 21
151.4926245043535
 31
0.0
  0
LINE
  5
34E
330
34C
100
AcDbEntity
  8
0
 62
   123
100
AcDbLine
 10
190.3486803402347
 20
126.0330727005571
 30
0.0
 11
190.3486803402347
 21
151.4926245043535
 31
0.0
  0
LINE
  5
34F
330
34C
100
AcDbEntity
  8
0
 62
   123
100
AcDbLine
 10
155.8486803402365
 20
150.8926245043535
 30
0.0
 11
187.8486803402347
 21
150.8926245043535
 31
0.0
  0
SOLID
  5
350
330
34C
100
AcDbEntity
  8
0
 62
   123
100
AcDbTrace
 10
155.8486803402365
 20
151.3092911710201
 30
0.0
 11
155.8486803402365
 21
150.4759578376868
 31
0.0
 12
153.3486803402365
 22
150.8926245043535
 32
0.0
 13
153.3486803402365
 23
150.8926245043535
 33
0.0
  0
SOLID
  5
351
330
34C
100
AcDbEntity
  8
0
 62
   123
100
AcDbTrace
 10
187.8486803402347
 20
151.3092911710201
 30
0.0
 11
187.8486803402347
 21
150.4759578376868
 31
0.0
 12
190.3486803402347
 22
150.8926245043535
 32
0.0
 13
190.3486803402347
 23
150.8926245043535
 33
0.0
  0
MTEXT
  5
352
330
34C
100
AcDbEntity
  8
0
 62
     3
100
AcDbMText
 10
181.398680340234
 20
153.3926245043535
 30
0.0
 40
3.0
 41
0.0
 71
     5
 72
     1
  1
\A1;37
1001
ACAD
1000
MTEXTBEGIN
1070
    73
1070
     1
1070
    44
1040
1.0
1070
    74
1070
     0
1000
MTEXTEND
  0
POINT
  5
353
330
34C
100
AcDbEntity
  8
DEFPOINTS
 62
     0
100
AcDbPoint
 10
153.3486803402365
 20
84.0330727005571
 30
0.0
  0
POINT
  5
354
330
34C
100
AcDbEntity
  8
DEFPOINTS
 62
     0
100
AcDbPoint
 10
190.3486803402347
 20
125.0330727005571
 30
0.0
  0
POINT
  5
355
330
34C
100
AcDbEntity
  8
DEFPOINTS
 62
     0
100
AcDbPoint
 10
190.3486803402347
 20
150.8926245043535
 30
0.0
  0
ENDBLK
  5
357
330
34C
100
AcDbEntity
  8
0
100
AcDbBlockEnd
  0
BLOCK
  5
362
330
358
100
AcDbEntity
  8
0
100
AcDbBlockBegin
  2
*D31
 70
     1
 10
0.0
 20
0.0
 30
0.0
  3
*D31
  1

  0
LINE
  5
359
330
358
100
AcDbEntity
  8
0
 62
   123
100
AcDbLine
 10
153.3486803402365
 20
85.03307270055712
 30
0.0
 11
153.3486803402365
 21
98.67462392026263
 31
0.0
  0
LINE
  5
35A
330
358
100
AcDbEntity
  8
0
 62
   123
100
AcDbLine
 10
183.3486803402347
 20
86.03307270055712
 30
0.0
 11
183.3486803402347
 21
98.67462392026263
 31
0.0
  0
LINE
  5
35B
330
358
100
AcDbEntity
  8
0
 62
   123
100
AcDbLine
 10
155.8486803402365
 20
98.07462392026264
 30
0.0
 11
180.8486803402347
 21
98.07462392026264
 31
0.0
  0
SOLID
  5
35C
330
358
100
AcDbEntity
  8
0
 62
   123
100
AcDbTrace
 10
155.8486803402365
 20
98.4912905869293
 30
0.0
 11
155.8486803402365
 21
97.65795725359597
 31
0.0
 12
153.3486803402365
 22
98.07462392026264
 32
0.0
 13
153.3486803402365
 23
98.07462392026264
 33
0.0
  0
SOLID
  5
35D
330
358
100
AcDbEntity
  8
0
 62
   123
100
AcDbTrace
 10
180.8486803402347
 20
98.4912905869293
 30
0.0
 11
180.8486803402347
 21
97.65795725359597
 31
0.0
 12
183.3486803402347
 22
98.07462392026264
 32
0.0
 13
183.3486803402347
 23
98.07462392026264
 33
0.0
  0
MTEXT
  5
35E
330
358
100
AcDbEntity
  8
0
 62
     3
100
AcDbMText
 10
168.3486803402347
 20
100.5746239202626
 30
0.0
 40
3.0
 41
0.0
 71
     5
 72
     1
  1
\A1;30
1001
ACAD
1000
MTEXTBEGIN
1070
    73
1070
     1
1070
    44
1040
1.0
1070
    74
1070
     0
1000
MTEXTEND
  0
POINT
  5
35F
330
358
100
AcDbEntity
  8
DEFPOINTS
 62
     0
100
AcDbPoint
 10
153.3486803402365
 20
84.0330727005571
 30
0.0
  0
POINT
  5
360
330
358
100
AcDbEntity
  8
DEFPOINTS
 62
     0
100
AcDbPoint
 10
183.3486803402347
 20
85.03307270055712
 30
0.0
  0
POINT
  5
361
330
358
100
AcDbEntity
  8
DEFPOINTS
 62
     0
100
AcDbPoint
 10
183.3486803402347
 20
98.07462392026264
 30
0.0
  0
ENDBLK
  5
363
330
358
100
AcDbEntity
  8
0
100
AcDbBlockEnd
  0
BLOCK
  5
370
330
364
100
AcDbEntity
  8
0
100
AcDbBlockBegin
  2
*D32
 70
     1
 10
0.0
 20
0.0
 30
0.0
  3
*D32
  1

  0
LINE
  5
365
330
364
100
AcDbEntity
  8
0
 62
   123
100
AcDbLine
 10
188.3486803402365
 20
122.5330727005571
 30
0.0
 11
188.3486803402365
 21
137.6648174590983
 31
0.0
  0
LINE
  5
366
330
364
100
AcDbEntity
  8
0
 62
   123
100
AcDbLine
 10
190.3486803402347
 20
126.0330727005571
 30
0.0
 11
190.3486803402347
 21
137.6648174590983
 31
0.0
  0
LINE
  5
367
330
364
100
AcDbEntity
  8
0
 62
   123
100
AcDbLine
 10
192.8486803402347
 20
137.0648174590983
 30
0.0
 11
195.3486803402347
 21
137.0648174590983
 31
0.0
  0
LINE
  5
368
330
364
100
AcDbEntity
  8
0
 62
   123
100
AcDbLine
 10
185.8486803402365
 20
137.0648174590983
 30
0.0
 11
177.3486803402365
 21
137.0648174590983
 31
0.0
  0
LINE
  5
369
330
364
100
AcDbEntity
  8
0
 62
   123
100
AcDbLine
 10
190.3486803402347
 20
137.0648174590983
 30
0.0
 11
188.3486803402365
 21
137.0648174590983
 31
0.0
  0
SOLID
  5
36A
330
364
100
AcDbEntity
  8
0
 62
   123
100
AcDbTrace
 10
192.8486803402347
 20
137.4814841257649
 30
0.0
 11
192.8486803402347
 21
136.6481507924316
 31
0.0
 12
190.3486803402347
 22
137.0648174590983
 32
0.0
 13
190.3486803402347
 23
137.0648174590983
 33
0.0
  0
SOLID
  5
36B
330
364
100
AcDbEntity
  8
0
 62
   123
100
AcDbTrace
 10
185.8486803402365
 20
137.4814841257649
 30
0.0
 11
185.8486803402365
 21
136.6481507924316
 31
0.0
 12
188.3486803402365
 22
137.0648174590983
 32
0.0
 13
188.3486803402365
 23
137.0648174590983
 33
0.0
  0
MTEXT
  5
36C
330
364
100
AcDbEntity
  8
0
 62
     3
100
AcDbMText
 10
179.3486803402365
 20
139.5648174590983
 30
0.0
 40
3.0
 41
0.0
 71
     5
 72
     1
  1
\A1;2
1001
ACAD
1000
MTEXTBEGIN
1070
    73
1070
     1
1070
    44
1040
1.0
1070
    74
1070
     0
1000
MTEXTEND
  0
POINT
  5
36D
330
364
100
AcDbEntity
  8
DEFPOINTS
 62
     0
100
AcDbPoint
 10
188.3486803402365
 20
121.5330727005571
 30
0.0
  0
POINT
  5
36E
330
364
100
AcDbEntity
  8
DEFPOINTS
 62
     0
100
AcDbPoint
 10
190.3486803402347
 20
125.0330727005571
 30
0.0
  0
POINT
  5
36F
330
364
100
AcDbEntity
  8
DEFPOINTS
 62
     0
100
AcDbPoint
 10
190.3486803402347
 20
137.0648174590983
 30
0.0
  0
ENDBLK
  5
371
330
364
100
AcDbEntity
  8
0
100
AcDbBlockEnd
  0
BLOCK
  5
37C
330
372
100
AcDbEntity
  8
0
100
AcDbBlockBegin
  2
*D33
 70
     1
 10
0.0
 20
0.0
 30
0.0
  3
*D33
  1

  0
LINE
  5
373
330
372
100
AcDbEntity
  8
0
 62
   123
100
AcDbLine
 10
190.3486803402347
 20
126.0330727005571
 30
0.0
 11
190.3486803402347
 21
137.6648174590983
 31
0.0
  0
LINE
  5
374
330
372
100
AcDbEntity
  8
0
 62
   123
100
AcDbLine
 10
197.8486803402347
 20
124.6318100420858
 30
0.0
 11
197.8486803402347
 21
137.6648174590983
 31
0.0
  0
LINE
  5
375
330
372
100
AcDbEntity
  8
0
 62
   123
100
AcDbLine
 10
192.8486803402347
 20
137.0648174590983
 30
0.0
 11
195.3486803402347
 21
137.0648174590983
 31
0.0
  0
SOLID
  5
376
330
372
100
AcDbEntity
  8
0
 62
   123
100
AcDbTrace
 10
192.8486803402347
 20
137.4814841257649
 30
0.0
 11
192.8486803402347
 21
136.6481507924316
 31
0.0
 12
190.3486803402347
 22
137.0648174590983
 32
0.0
 13
190.3486803402347
 23
137.0648174590983
 33
0.0
  0
SOLID
  5
377
330
372
100
AcDbEntity
  8
0
 62
   123
100
AcDbTrace
 10
195.3486803402347
 20
137.4814841257649
 30
0.0
 11
195.3486803402347
 21
136.6481507924316
 31
0.0
 12
197.8486803402347
 22
137.0648174590983
 32
0.0
 13
197.8486803402347
 23
137.0648174590983
 33
0.0
  0
MTEXT
  5
378
330
372
100
AcDbEntity
  8
0
 62
     3
100
AcDbMText
 10
194.0986803402347
 20
139.5648174590983
 30
0.0
 40
3.0
 41
0.0
 71
     5
 72
     1
  1
\A1;7.5
1001
ACAD
1000
MTEXTBEGIN
1070
    73
1070
     1
1070
    44
1040
1.0
1070
    74
1070
     0
1000
MTEXTEND
  0
POINT
  5
379
330
372
100
AcDbEntity
  8
DEFPOINTS
 62
     0
100
AcDbPoint
 10
190.3486803402347
 20
125.0330727005571
 30
0.0
  0
POINT
  5
37A
330
372
100
AcDbEntity
  8
DEFPOINTS
 62
     0
100
AcDbPoint
 10
197.8486803402347
 20
123.6318100420858
 30
0.0
  0
POINT
  5
37B
330
372
100
AcDbEntity
  8
DEFPOINTS
 62
     0
100
AcDbPoint
 10
197.8486803402347
 20
137.0648174590983
 30
0.0
  0
ENDBLK
  5
37D
330
372
100
AcDbEntity
  8
0
100
AcDbBlockEnd
  0
BLOCK
  5
388
330
37E
100
AcDbEntity
  8
0
100
AcDbBlockBegin
  2
*D34
 70
     1
 10
0.0
 20
0.0
 30
0.0
  3
*D34
  1

  0
LINE
  5
37F
330
37E
100
AcDbEntity
  8
0
 62
   123
100
AcDbLine
 10
190.3486803402347
 20
141.133072700557
 30
0.0
 11
190.3486803402347
 21
151.4926245043535
 31
0.0
  0
LINE
  5
380
330
37E
100
AcDbEntity
  8
0
 62
   123
100
AcDbLine
 10
338.3486803402338
 20
120.0330727005562
 30
0.0
 11
338.3486803402338
 21
151.4926245043535
 31
0.0
  0
LINE
  5
381
330
37E
100
AcDbEntity
  8
0
 62
   123
100
AcDbLine
 10
192.8486803402347
 20
150.8926245043535
 30
0.0
 11
335.8486803402338
 21
150.8926245043535
 31
0.0
  0
SOLID
  5
382
330
37E
100
AcDbEntity
  8
0
 62
   123
100
AcDbTrace
 10
192.8486803402347
 20
151.3092911710201
 30
0.0
 11
192.8486803402347
 21
150.4759578376868
 31
0.0
 12
190.3486803402347
 22
150.8926245043535
 32
0.0
 13
190.3486803402347
 23
150.8926245043535
 33
0.0
  0
SOLID
  5
383
330
37E
100
AcDbEntity
  8
0
 62
   123
100
AcDbTrace
 10
335.8486803402338
 20
151.3092911710201
 30
0.0
 11
335.8486803402338
 21
150.4759578376868
 31
0.0
 12
338.3486803402338
 22
150.8926245043535
 32
0.0
 13
338.3486803402338
 23
150.8926245043535
 33
0.0
  0
MTEXT
  5
384
330
37E
100
AcDbEntity
  8
0
 62
     3
100
AcDbMText
 10
257.8486803402338
 20
153.3926245043535
 30
0.0
 40
3.0
 41
0.0
 71
     5
 72
     1
  1
\A1;148
1001
ACAD
1000
MTEXTBEGIN
1070
    73
1070
     1
1070
    44
1040
1.0
1070
    74
1070
     0
1000
MTEXTEND
  0
POINT
  5
385
330
37E
100
AcDbEntity
  8
DEFPOINTS
 62
     0
100
AcDbPoint
 10
190.3486803402347
 20
140.133072700557
 30
0.0
  0
POINT
  5
386
330
37E
100
AcDbEntity
  8
DEFPOINTS
 62
     0
100
AcDbPoint
 10
338.3486803402338
 20
119.0330727005562
 30
0.0
  0
POINT
  5
387
330
37E
100
AcDbEntity
  8
DEFPOINTS
 62
     0
100
AcDbPoint
 10
338.3486803402338
 20
150.8926245043535
 30
0.0
  0
ENDBLK
  5
389
330
37E
100
AcDbEntity
  8
0
100
AcDbBlockEnd
  0
BLOCK
  5
394
330
38A
100
AcDbEntity
  8
0
100
AcDbBlockBegin
  2
*D35
 70
     1
 10
0.0
 20
0.0
 30
0.0
  3
*D35
  1

  0
LINE
  5
38B
330
38A
100
AcDbEntity
  8
0
 62
   123
100
AcDbLine
 10
31.51836385876322
 20
339.4116186632122
 30
0.0
 11
31.51836385876322
 21
356.6568450648661
 31
0.0
  0
LINE
  5
38C
330
38A
100
AcDbEntity
  8
0
 62
   123
100
AcDbLine
 10
121.5183638587614
 20
339.4116186632122
 30
0.0
 11
121.5183638587614
 21
356.6568450648661
 31
0.0
  0
LINE
  5
38D
330
38A
100
AcDbEntity
  8
0
 62
   123
100
AcDbLine
 10
34.01836385876322
 20
356.0568450648661
 30
0.0
 11
119.0183638587614
 21
356.0568450648661
 31
0.0
  0
SOLID
  5
38E
330
38A
100
AcDbEntity
  8
0
 62
   123
100
AcDbTrace
 10
34.01836385876322
 20
356.4735117315328
 30
0.0
 11
34.01836385876322
 21
355.6401783981994
 31
0.0
 12
31.51836385876322
 22
356.0568450648661
 32
0.0
 13
31.51836385876322
 23
356.0568450648661
 33
0.0
  0
SOLID
  5
38F
330
38A
100
AcDbEntity
  8
0
 62
   123
100
AcDbTrace
 10
119.0183638587614
 20
356.4735117315328
 30
0.0
 11
119.0183638587614
 21
355.6401783981994
 31
0.0
 12
121.5183638587614
 22
356.0568450648661
 32
0.0
 13
121.5183638587614
 23
356.0568450648661
 33
0.0
  0
MTEXT
  5
390
330
38A
100
AcDbEntity
  8
0
 62
     3
100
AcDbMText
 10
76.51836385876322
 20
358.5568450648661
 30
0.0
 40
3.0
 41
0.0
 71
     5
 72
     1
  1
\A1;90
1001
ACAD
1000
MTEXTBEGIN
1070
    73
1070
     1
1070
    44
1040
1.0
1070
    74
1070
     0
1000
MTEXTEND
  0
POINT
  5
391
330
38A
100
AcDbEntity
  8
DEFPOINTS
 62
     0
100
AcDbPoint
 10
31.51836385876322
 20
338.4116186632122
 30
0.0
  0
POINT
  5
392
330
38A
100
AcDbEntity
  8
DEFPOINTS
 62
     0
100
AcDbPoint
 10
121.5183638587614
 20
338.4116186632122
 30
0.0
  0
POINT
  5
393
330
38A
100
AcDbEntity
  8
DEFPOINTS
 62
     0
100
AcDbPoint
 10
121.5183638587614
 20
356.0568450648661
 30
0.0
  0
ENDBLK
  5
395
330
38A
100
AcDbEntity
  8
0
100
AcDbBlockEnd
  0
BLOCK
  5
3A0
330
396
100
AcDbEntity
  8
0
100
AcDbBlockBegin
  2
*D36
 70
     1
 10
0.0
 20
0.0
 30
0.0
  3
*D36
  1

  0
LINE
  5
397
330
396
100
AcDbEntity
  8
0
 62
   123
100
AcDbLine
 10
177.8693581623183
 20
359.5544124220082
 30
0.0
 11
177.8693581623183
 21
369.9139642258056
 31
0.0
  0
LINE
  5
398
330
396
100
AcDbEntity
  8
0
 62
   123
100
AcDbLine
 10
325.8693581623192
 20
338.4544124220083
 30
0.0
 11
325.8693581623192
 21
369.9139642258056
 31
0.0
  0
LINE
  5
399
330
396
100
AcDbEntity
  8
0
 62
   123
100
AcDbLine
 10
180.3693581623183
 20
369.3139642258056
 30
0.0
 11
323.3693581623192
 21
369.3139642258056
 31
0.0
  0
SOLID
  5
39A
330
396
100
AcDbEntity
  8
0
 62
   123
100
AcDbTrace
 10
180.3693581623183
 20
369.7306308924723
 30
0.0
 11
180.3693581623183
 21
368.8972975591389
 31
0.0
 12
177.8693581623183
 22
369.3139642258056
 32
0.0
 13
177.8693581623183
 23
369.3139642258056
 33
0.0
  0
SOLID
  5
39B
330
396
100
AcDbEntity
  8
0
 62
   123
100
AcDbTrace
 10
323.3693581623192
 20
369.7306308924723
 30
0.0
 11
323.3693581623192
 21
368.8972975591389
 31
0.0
 12
325.8693581623192
 22
369.3139642258056
 32
0.0
 13
325.8693581623192
 23
369.3139642258056
 33
0.0
  0
MTEXT
  5
39C
330
396
100
AcDbEntity
  8
0
 62
     3
100
AcDbMText
 10
245.3693581623192
 20
371.8139642258056
 30
0.0
 40
3.0
 41
0.0
 71
     5
 72
     1
  1
\A1;148
1001
ACAD
1000
MTEXTBEGIN
1070
    73
1070
     1
1070
    44
1040
1.0
1070
    74
1070
     0
1000
MTEXTEND
  0
POINT
  5
39D
330
396
100
AcDbEntity
  8
DEFPOINTS
 62
     0
100
AcDbPoint
 10
177.8693581623183
 20
358.5544124220082
 30
0.0
  0
POINT
  5
39E
330
396
100
AcDbEntity
  8
DEFPOINTS
 62
     0
100
AcDbPoint
 10
325.8693581623192
 20
337.4544124220083
 30
0.0
  0
POINT
  5
39F
330
396
100
AcDbEntity
  8
DEFPOINTS
 62
     0
100
AcDbPoint
 10
325.8693581623192
 20
369.3139642258056
 30
0.0
  0
ENDBLK
  5
3A1
330
396
100
AcDbEntity
  8
0
100
AcDbBlockEnd
  0
BLOCK
  5
3AC
330
3A2
100
AcDbEntity
  8
0
100
AcDbBlockBegin
  2
*D37
 70
     1
 10
0.0
 20
0.0
 30
0.0
  3
*D37
  1

  0
LINE
  5
3A3
330
3A2
100
AcDbEntity
  8
0
 62
   123
100
AcDbLine
 10
159.869358162321
 20
302.6894124220088
 30
0.0
 11
159.869358162321
 21
369.9139642258056
 31
0.0
  0
LINE
  5
3A4
330
3A2
100
AcDbEntity
  8
0
 62
   123
100
AcDbLine
 10
177.8693581623183
 20
344.4544124220092
 30
0.0
 11
177.8693581623183
 21
369.9139642258056
 31
0.0
  0
LINE
  5
3A5
330
3A2
100
AcDbEntity
  8
0
 62
   123
100
AcDbLine
 10
162.369358162321
 20
369.3139642258056
 30
0.0
 11
175.3693581623183
 21
369.3139642258056
 31
0.0
  0
SOLID
  5
3A6
330
3A2
100
AcDbEntity
  8
0
 62
   123
100
AcDbTrace
 10
162.369358162321
 20
369.7306308924723
 30
0.0
 11
162.369358162321
 21
368.8972975591389
 31
0.0
 12
159.869358162321
 22
369.3139642258056
 32
0.0
 13
159.869358162321
 23
369.3139642258056
 33
0.0
  0
SOLID
  5
3A7
330
3A2
100
AcDbEntity
  8
0
 62
   123
100
AcDbTrace
 10
175.3693581623183
 20
369.7306308924723
 30
0.0
 11
175.3693581623183
 21
368.8972975591389
 31
0.0
 12
177.8693581623183
 22
369.3139642258056
 32
0.0
 13
177.8693581623183
 23
369.3139642258056
 33
0.0
  0
MTEXT
  5
3A8
330
3A2
100
AcDbEntity
  8
0
 62
     3
100
AcDbMText
 10
168.9193581623185
 20
371.8139642258056
 30
0.0
 40
3.0
 41
0.0
 71
     5
 72
     1
  1
\A1;18
1001
ACAD
1000
MTEXTBEGIN
1070
    73
1070
     1
1070
    44
1040
1.0
1070
    74
1070
     0
1000
MTEXTEND
  0
POINT
  5
3A9
330
3A2
100
AcDbEntity
  8
DEFPOINTS
 62
     0
100
AcDbPoint
 10
159.869358162321
 20
301.6894124220089
 30
0.0
  0
POINT
  5
3AA
330
3A2
100
AcDbEntity
  8
DEFPOINTS
 62
     0
100
AcDbPoint
 10
177.8693581623183
 20
343.4544124220092
 30
0.0
  0
POINT
  5
3AB
330
3A2
100
AcDbEntity
  8
DEFPOINTS
 62
     0
100
AcDbPoint
 10
177.8693581623183
 20
369.3139642258056
 30
0.0
  0
ENDBLK
  5
3AD
330
3A2
100
AcDbEntity
  8
0
100
AcDbBlockEnd
  0
BLOCK
  5
3BA
330
3AE
100
AcDbEntity
  8
0
100
AcDbBlockBegin
  2
*D38
 70
     1
 10
0.0
 20
0.0
 30
0.0
  3
*D38
  1

  0
LINE
  5
3AF
330
3AE
100
AcDbEntity
  8
0
 62
   123
100
AcDbLine
 10
175.8693581623183
 20
340.9544124220083
 30
0.0
 11
175.8693581623183
 21
356.0861571805509
 31
0.0
  0
LINE
  5
3B0
330
3AE
100
AcDbEntity
  8
0
 62
   123
100
AcDbLine
 10
177.8693581623183
 20
344.4544124220092
 30
0.0
 11
177.8693581623183
 21
356.0861571805509
 31
0.0
  0
LINE
  5
3B1
330
3AE
100
AcDbEntity
  8
0
 62
   123
100
AcDbLine
 10
180.3693581623183
 20
355.4861571805508
 30
0.0
 11
182.8693581623183
 21
355.4861571805508
 31
0.0
  0
LINE
  5
3B2
330
3AE
100
AcDbEntity
  8
0
 62
   123
100
AcDbLine
 10
173.3693581623183
 20
355.4861571805508
 30
0.0
 11
164.8693581623174
 21
355.4861571805508
 31
0.0
  0
LINE
  5
3B3
330
3AE
100
AcDbEntity
  8
0
 62
   123
100
AcDbLine
 10
177.8693581623183
 20
355.4861571805508
 30
0.0
 11
175.8693581623183
 21
355.4861571805508
 31
0.0
  0
SOLID
  5
3B4
330
3AE
100
AcDbEntity
  8
0
 62
   123
100
AcDbTrace
 10
180.3693581623183
 20
355.9028238472175
 30
0.0
 11
180.3693581623183
 21
355.0694905138842
 31
0.0
 12
177.8693581623183
 22
355.4861571805508
 32
0.0
 13
177.8693581623183
 23
355.4861571805508
 33
0.0
  0
SOLID
  5
3B5
330
3AE
100
AcDbEntity
  8
0
 62
   123
100
AcDbTrace
 10
173.3693581623183
 20
355.9028238472175
 30
0.0
 11
173.3693581623183
 21
355.0694905138842
 31
0.0
 12
175.8693581623183
 22
355.4861571805508
 32
0.0
 13
175.8693581623183
 23
355.4861571805508
 33
0.0
  0
MTEXT
  5
3B6
330
3AE
100
AcDbEntity
  8
0
 62
     3
100
AcDbMText
 10
166.8693581623174
 20
357.9861571805508
 30
0.0
 40
3.0
 41
0.0
 71
     5
 72
     1
  1
\A1;2
1001
ACAD
1000
MTEXTBEGIN
1070
    73
1070
     1
1070
    44
1040
1.0
1070
    74
1070
     0
1000
MTEXTEND
  0
POINT
  5
3B7
330
3AE
100
AcDbEntity
  8
DEFPOINTS
 62
     0
100
AcDbPoint
 10
175.8693581623183
 20
339.9544124220083
 30
0.0
  0
POINT
  5
3B8
330
3AE
100
AcDbEntity
  8
DEFPOINTS
 62
     0
100
AcDbPoint
 10
177.8693581623183
 20
343.4544124220092
 30
0.0
  0
POINT
  5
3B9
330
3AE
100
AcDbEntity
  8
DEFPOINTS
 62
     0
100
AcDbPoint
 10
177.8693581623183
 20
355.4861571805508
 30
0.0
  0
ENDBLK
  5
3BB
330
3AE
100
AcDbEntity
  8
0
100
AcDbBlockEnd
  0
BLOCK
  5
3C6
330
3BC
100
AcDbEntity
  8
0
100
AcDbBlockBegin
  2
*D39
 70
     1
 10
0.0
 20
0.0
 30
0.0
  3
*D39
  1

  0
LINE
  5
3BD
330
3BC
100
AcDbEntity
  8
0
 62
   123
100
AcDbLine
 10
177.8693581623183
 20
344.4544124220092
 30
0.0
 11
177.8693581623183
 21
356.0861571805509
 31
0.0
  0
LINE
  5
3BE
330
3BC
100
AcDbEntity
  8
0
 62
   123
100
AcDbLine
 10
185.3693581623201
 20
343.0531497635379
 30
0.0
 11
185.3693581623201
 21
356.0861571805509
 31
0.0
  0
LINE
  5
3BF
330
3BC
100
AcDbEntity
  8
0
 62
   123
100
AcDbLine
 10
180.3693581623183
 20
355.4861571805508
 30
0.0
 11
182.8693581623201
 21
355.4861571805508
 31
0.0
  0
SOLID
  5
3C0
330
3BC
100
AcDbEntity
  8
0
 62
   123
100
AcDbTrace
 10
180.3693581623183
 20
355.9028238472175
 30
0.0
 11
180.3693581623183
 21
355.0694905138842
 31
0.0
 12
177.8693581623183
 22
355.4861571805508
 32
0.0
 13
177.8693581623183
 23
355.4861571805508
 33
0.0
  0
SOLID
  5
3C1
330
3BC
100
AcDbEntity
  8
0
 62
   123
100
AcDbTrace
 10
182.8693581623201
 20
355.9028238472175
 30
0.0
 11
182.8693581623201
 21
355.0694905138842
 31
0.0
 12
185.3693581623201
 22
355.4861571805508
 32
0.0
 13
185.3693581623201
 23
355.4861571805508
 33
0.0
  0
MTEXT
  5
3C2
330
3BC
100
AcDbEntity
  8
0
 62
     3
100
AcDbMText
 10
181.6193581623192
 20
357.9861571805508
 30
0.0
 40
3.0
 41
0.0
 71
     5
 72
     1
  1
\A1;7.5
1001
ACAD
1000
MTEXTBEGIN
1070
    73
1070
     1
1070
    44
1040
1.0
1070
    74
1070
     0
1000
MTEXTEND
  0
POINT
  5
3C3
330
3BC
100
AcDbEntity
  8
DEFPOINTS
 62
     0
100
AcDbPoint
 10
177.8693581623183
 20
343.4544124220092
 30
0.0
  0
POINT
  5
3C4
330
3BC
100
AcDbEntity
  8
DEFPOINTS
 62
     0
100
AcDbPoint
 10
185.3693581623201
 20
342.0531497635379
 30
0.0
  0
POINT
  5
3C5
330
3BC
100
AcDbEntity
  8
DEFPOINTS
 62
     0
100
AcDbPoint
 10
185.3693581623201
 20
355.4861571805508
 30
0.0
  0
ENDBLK
  5
3C7
330
3BC
100
AcDbEntity
  8
0
100
AcDbBlockEnd
  0
ENDSEC
  0
SECTION
  2
ENTITIES
  0
LINE
  5
9D
330
2
100
AcDbEntity
  8
0
100
AcDbLine
 10
190.3486803402347
 20
125.5330727005571
 30
0.0
 11
190.3486803402347
 21
34.5330727005562
 31
0.0
  0
LINE
  5
9E
330
2
100
AcDbEntity
  8
0
100
AcDbLine
 10
196.9486803402342
 20
125.5330727005571
 30
0.0
 11
196.9486803402342
 21
34.5330727005562
 31
0.0
  0
LINE
  5
9F
102
{ACAD_REACTORS
330
1D2
102
}
330
2
100
AcDbEntity
  8
0
100
AcDbLine
 10
190.3486803402347
 20
125.0330727005571
 30
0.0
 11
190.3486803402347
 21
35.03307270055711
 31
0.0
  0
LINE
  5
A0
330
2
100
AcDbEntity
  8
0
100
AcDbLine
 10
188.3486803402365
 20
121.5330727005571
 30
0.0
 11
188.3486803402365
 21
38.53307270055711
 31
0.0
  0
LINE
  5
A1
330
2
100
AcDbEntity
  8
0
100
AcDbLine
 10
338.3486803402338
 20
107.4369973023171
 30
0.0
 11
338.3486803402338
 21
42.53307270055711
 31
0.0
  0
DIMENSION
  5
A2
330
2
100
AcDbEntity
  8
0
100
AcDbDimension
  2
*D25
 10
352.0226907846154
 20
35.5330727005571
 30
0.0
 11
352.0226907846154
 21
80.03307270055712
 31
0.0
 70
   160
  1
%%C<>
  3
STANDARD
100
AcDbAlignedDimension
 13
332.3486803402338
 23
124.5330727005571
 33
0.0
 14
332.3486803402338
 24
35.53307270055711
 34
0.0
 50
90.0
100
AcDbRotatedDimension
  0
LINE
  5
B1
330
2
100
AcDbEntity
  8
0
100
AcDbLine
 10
302.1289023773424
 20
124.5330727005571
 30
0.0
 11
302.1289023773424
 21
35.5330727005562
 31
0.0
  0
LINE
  5
B2
330
2
100
AcDbEntity
  8
0
100
AcDbLine
 10
338.3486803402338
 20
93.43699730231719
 30
0.0
 11
338.3486803402338
 21
66.62914809879612
 31
0.0
  0
CIRCLE
  5
B3
330
2
100
AcDbEntity
  8
0
100
AcDbCircle
 10
304.2767376456868
 20
80.03125330251306
 30
0.0
 40
2.147836038934201
  0
LINE
  5
B4
102
{ACAD_REACTORS
330
10A
102
}
330
2
100
AcDbEntity
  8
CL
 48
0.6
100
AcDbLine
 10
47.97621439481463
 20
26.40292793680419
 30
0.0
 11
47.97621439481463
 21
133.6632174643086
 31
0.0
  0
CIRCLE
  5
B7
330
2
100
AcDbEntity
  8
0
 48
0.6
100
AcDbCircle
 10
47.97621439481463
 20
80.03307270055712
 30
0.0
 40
42.00000000000005
  0
CIRCLE
  5
B8
330
2
100
AcDbEntity
  8
0
 48
0.6
100
AcDbCircle
 10
47.97621439481463
 20
80.03307270055712
 30
0.0
 40
43.5
  0
CIRCLE
  5
B9
330
2
100
AcDbEntity
  8
0
 48
0.6
100
AcDbCircle
 10
47.97621439481463
 20
80.03307270055712
 30
0.0
 40
20.0
  0
INSERT
  5
BA
330
2
100
AcDbEntity
  8
0
100
AcDbBlockReference
  2
4
 10
47.9824320657035
 20
80.03307270055712
 30
0.0
  0
CIRCLE
  5
D9
330
2
100
AcDbEntity
  8
0
 48
0.6
100
AcDbCircle
 10
47.97621439481463
 20
80.03307270055712
 30
0.0
 40
6.0
  0
ARC
  5
DA
330
2
100
AcDbEntity
  8
0
 48
0.6
100
AcDbCircle
 10
47.90075008063922
 20
80.03307270055712
 30
0.0
 40
33.74764799999999
100
AcDbArc
 50
162.2801918472015
 51
197.7198081527984
  0
DIMENSION
  5
DB
102
{ACAD_XDICTIONARY
360
DC
102
}
102
{ACAD_REACTORS
330
DD
102
}
330
2
100
AcDbEntity
  8
0
100
AcDbDimension
  2
*D24
 10
143.6418685293947
 20
84.0330727005571
 30
0.0
 11
143.6418685293947
 21
79.53307270055621
 31
0.0
 70
   160
  3
STANDARD
100
AcDbAlignedDimension
 13
153.3486803402365
 23
75.0330727005562
 33
0.0
 14
153.3486803402365
 24
84.0330727005571
 34
0.0
 50
90.0
100
AcDbRotatedDimension
  0
LINE
  5
EA
330
2
100
AcDbEntity
  8
0
100
AcDbLine
 10
153.3486803402365
 20
84.0330727005571
 30
0.0
 11
153.3486803402365
 21
75.0330727005562
 31
0.0
  0
ARC
  5
EB
330
2
100
AcDbEntity
  8
0
 48
0.6
100
AcDbCircle
 10
47.90075008063922
 20
80.03307270055712
 30
0.0
 40
33.74764799999999
100
AcDbArc
 50
342.2801918472014
 51
17.71980815279839
  0
DIMENSION
  5
EC
330
2
100
AcDbEntity
  8
0
100
AcDbDimension
  2
*D23
 10
120.6729281991865
 20
38.53307270055713
 30
0.0
 11
120.6729281991865
 21
83.45929655420377
 31
0.0
 70
   160
  1
\A1;{\f??|b0|i0|c0|p49;%%c83\H0.7x;\S+0^ -0.035;\H1.429x;(h7)}
  3
STANDARD
100
AcDbAlignedDimension
 13
187.6536167819476
 23
121.5330727005571
 33
0.0
 14
187.6536167819476
 24
38.53307270055711
 34
0.0
 50
90.0
100
AcDbRotatedDimension
  0
DIMENSION
  5
F9
102
{ACAD_XDICTIONARY
360
FA
102
}
102
{ACAD_REACTORS
330
FB
102
}
330
2
100
AcDbEntity
  8
0
100
AcDbDimension
  2
*D22
 10
133.2187216513239
 20
85.03307270055712
 30
0.0
 11
133.2187216513239
 21
80.03307270055667
 31
0.0
 70
   160
  1
\A1;{\f??|b0|i0|c0|p49;%%c}<>{\f??|b0|i0|c0|p49;\H0.7x;\S+0^ -0.015;\H1.429x;(h7)}
  3
STANDARD
100
AcDbAlignedDimension
 13
153.3486803402365
 23
75.0330727005562
 33
0.0
 14
183.3486803402347
 24
85.03307270055712
 34
0.0
 50
90.0
100
AcDbRotatedDimension
  0
DIMENSION
  5
108
102
{ACAD_XDICTIONARY
360
109
102
}
102
{ACAD_REACTORS
330
10A
102
}
330
2
100
AcDbEntity
  8
0
100
AcDbDimension
  2
*D21
 10
47.97621439481463
 20
133.6632174643086
 30
0.0
 11
61.57082371593117
 21
11.70941167179558
 31
0.0
 70
    34
  1
<>
  3
STANDARD
100
AcDb2LineAngularDimension
 13
47.97621439481463
 23
80.03307270055712
 33
0.0
 14
66.6220423724917
 24
35.03307270055711
 34
0.0
 15
47.97621439481463
 25
26.40292793680419
 35
0.0
 16
57.4354951246862
 26
8.204521279389634
 36
0.0
1001
ACAD
1000
DSTYLE
1002
{
1070
   271
1070
     1
1070
   271
1070
     1
1070
   271
1070
     1
1070
   271
1070
     1
1070
   271
1070
     1
1070
   271
1070
     1
1070
   271
1070
     1
1002
}
  0
ARC
  5
119
330
2
100
AcDbEntity
  8
0
 48
0.6
100
AcDbCircle
 10
47.90075008063922
 20
80.03307270055712
 30
0.0
 40
36.81561599999999
100
AcDbArc
 50
296.3656725032108
 51
333.6343274967831
  0
ARC
  5
11A
330
2
100
AcDbEntity
  8
0
100
AcDbCircle
 10
78.03783574563386
 20
17.91914934909573
 30
0.0
 40
0.7499080000000001
100
AcDbArc
 50
265.1628950000044
 51
25.33442299999946
  0
ARC
  5
11B
330
2
100
AcDbEntity
  8
0
 48
0.6
100
AcDbCircle
 10
100.2940297456352
 20
49.34362534909723
 30
0.0
 40
33.95579199999999
100
AcDbArc
 50
204.9259499999998
 51
236.3981230000006
  0
ARC
  5
11C
330
2
100
AcDbEntity
  8
0
 48
0.6
100
AcDbCircle
 10
100.5465870972502
 20
49.62411630168299
 30
0.0
 40
36.92930121396881
100
AcDbArc
 50
203.2726782588581
 51
236.2329275593634
  0
LINE
  5
11D
330
2
100
AcDbEntity
  8
CL
 48
0.6
100
AcDbLine
 10
-1.277061819581831
 20
80.03307270055712
 30
0.0
 11
97.22949060921473
 21
80.03307270055712
 31
0.0
  0
LINE
  5
11E
330
2
100
AcDbEntity
  8
CL
 48
0.6
100
AcDbLine
 10
66.6220423724917
 20
35.03307270055711
 30
0.0
 11
47.9824320657035
 21
80.03307270055712
 31
0.0
  0
ARC
  5
11F
330
2
100
AcDbEntity
  8
0
 48
0.6
100
AcDbCircle
 10
47.90075008063922
 20
80.03307270055712
 30
0.0
 40
36.81561599999999
100
AcDbArc
 50
206.3656725032168
 51
243.634327496789
  0
ARC
  5
120
330
2
100
AcDbEntity
  8
0
 48
0.6
100
AcDbCircle
 10
47.90075008063922
 20
80.03307270055712
 30
0.0
 40
33.74764799999999
100
AcDbArc
 50
252.2801918471949
 51
287.7198081528051
  0
ARC
  5
121
330
2
100
AcDbEntity
  8
0
 48
0.6
100
AcDbCircle
 10
32.91347179253079
 20
49.79592278448717
 30
0.0
 40
3.067967999999998
100
AcDbArc
 50
243.634327496789
 51
308.0513255193868
  0
ARC
  5
122
330
2
100
AcDbEntity
  8
0
 48
0.6
100
AcDbCircle
 10
36.69546104057189
 20
44.96412519727345
 30
0.0
 40
3.067967999999998
100
AcDbArc
 50
72.28019184719491
 51
128.0513255193868
  0
ARC
  5
123
330
2
100
AcDbEntity
  8
0
 48
0.6
100
AcDbCircle
 10
59.10603912069655
 20
44.96412519727345
 30
0.0
 40
3.067967999999998
100
AcDbArc
 50
51.94867448061305
 51
107.719808152805
  0
ARC
  5
124
330
2
100
AcDbEntity
  8
0
 48
0.6
100
AcDbCircle
 10
62.88802836873674
 20
49.79592278448717
 30
0.0
 40
3.067967999999998
100
AcDbArc
 50
231.948674480613
 51
296.3656725032108
  0
ARC
  5
125
330
2
100
AcDbEntity
  8
0
100
AcDbCircle
 10
100.2940297456352
 20
49.34362534909723
 30
0.0
 40
39.15579199999999
100
AcDbArc
 50
201.4369589999971
 51
235.2486590000054
  0
ARC
  5
126
330
2
100
AcDbEntity
  8
0
 48
0.6
100
AcDbCircle
 10
12.8318025773533
 20
68.82778366049297
 30
0.0
 40
3.067967999999998
100
AcDbArc
 50
321.9486744806221
 51
17.71980815279839
  0
ARC
  5
127
330
2
100
AcDbEntity
  8
0
 48
0.6
100
AcDbCircle
 10
17.66360016456474
 20
65.04579441245323
 30
0.0
 40
3.067967999999998
100
AcDbArc
 50
141.9486744806222
 51
206.3656725032168
  0
LEADER
  5
128
330
2
100
AcDbEntity
  8
0
 48
0.6
100
AcDbLeader
  3
STANDARD
 76
     2
 10
316.6660424823603
 20
26.35505240365683
 30
0.0
 10
329.8387135221783
 20
-0.3053646966595807
 30
0.0
1001
ACAD
1000
DSTYLE
1002
{
1070
     5
1000

1070
   342
1005
0
1002
}
  0
LINE
  5
129
330
2
100
AcDbEntity
  8
0
 62
   123
100
AcDbLine
 10
176.980568067167
 20
-17.44756839180672
 30
0.0
 11
268.3679198667196
 21
-17.44756839180672
 31
0.0
  0
LEADER
  5
12A
330
2
100
AcDbEntity
  8
0
100
AcDbLeader
  3
STANDARD
 76
     2
 10
203.8180890768708
 20
20.38038432475923
 30
0.0
 10
176.980568067167
 20
-17.44756839180672
 30
0.0
1001
ACAD
1000
DSTYLE
1002
{
1070
     5
1000

1070
   342
1005
0
1002
}
  0
MTEXT
  5
12B
330
2
100
AcDbEntity
  8
DIM
100
AcDbMText
 10
225.5692532041084
 20
-13.88977347976151
 30
0.0
 40
3.5
 41
0.0
 71
     5
 72
     1
  1
MOTOR LEAD WIRE 300mm
1001
ACAD
1000
MTEXTBEGIN
1070
    73
1070
     1
1070
    44
1040
1.0
1070
    74
1070
     0
1000
MTEXTEND
  0
MTEXT
  5
12D
330
2
100
AcDbEntity
  8
DIM
100
AcDbMText
 10
222.7362412826787
 20
-21.89232245684297
 30
0.0
 40
3.5
 41
0.0
 71
     5
 72
     1
  1
UL Style 3271 , AWG20
1001
ACAD
1000
MTEXTBEGIN
1070
    73
1070
     1
1070
    44
1040
1.0
1070
    74
1070
     0
1000
MTEXTEND
  0
MTEXT
  5
12E
330
2
100
AcDbEntity
  8
DIM
100
AcDbMText
 10
276.1537520441561
 20
3.653318919472894
 30
0.0
 40
3.5
 41
0.0
 71
     5
 72
     1
  1
BRAKE LEAD WIRE 300mm
1001
ACAD
1000
MTEXTBEGIN
1070
    73
1070
     1
1070
    44
1040
1.0
1070
    74
1070
     0
1000
MTEXTEND
  0
MTEXT
  5
12F
330
2
100
AcDbEntity
  8
DIM
100
AcDbMText
 10
275.2603163154126
 20
-5.076560347765735
 30
0.0
 40
3.5
 41
0.0
 71
     5
 72
     1
  1
UL Style 3266 , AWG22
1001
ACAD
1000
MTEXTBEGIN
1070
    73
1070
     1
1070
    44
1040
1.0
1070
    74
1070
     0
1000
MTEXTEND
  0
LINE
  5
130
330
2
100
AcDbEntity
  8
0
 62
   123
 48
0.6
100
AcDbLine
 10
239.3041976572567
 20
-0.3053646966595807
 30
0.0
 11
329.8387135221783
 21
-0.3053646966595807
 31
0.0
  0
LINE
  5
131
330
2
100
AcDbEntity
  8
0
100
AcDbLine
 10
331.3486803402356
 20
35.5330727005562
 30
0.0
 11
196.9486803402342
 21
35.53307270055711
 31
0.0
  0
ARC
  5
132
330
2
100
AcDbEntity
  8
0
100
AcDbCircle
 10
238.6514023402341
 20
34.44442670055696
 30
0.0
 40
33.95579199999999
100
AcDbArc
 50
179.8504230000004
 51
213.8981229999992
  0
ARC
  5
133
330
2
100
AcDbEntity
  8
0
100
AcDbCircle
 10
238.6514023402341
 20
34.44442670055696
 30
0.0
 40
36.555792
100
AcDbArc
 50
179.8610604128478
 51
213.8176429999978
  0
ARC
  5
134
330
2
100
AcDbEntity
  8
0
100
AcDbCircle
 10
238.6514023402341
 20
34.44442670055696
 30
0.0
 40
39.15579199999999
100
AcDbArc
 50
179.8702869999971
 51
212.7486590000019
  0
ARC
  5
135
330
2
100
AcDbEntity
  8
0
100
AcDbCircle
 10
207.5617153402308
 20
14.00323870055717
 30
0.0
 40
0.7499080000000001
100
AcDbArc
 50
62.66289500000094
 51
182.8344229999968
  0
ARC
  5
136
330
2
100
AcDbEntity
  8
0
100
AcDbCircle
 10
238.6514023402341
 20
34.44442670055696
 30
0.0
 40
37.855792
100
AcDbArc
 50
212.7486590000019
 51
219.5987459999966
  0
ARC
  5
137
330
2
100
AcDbEntity
  8
0
100
AcDbCircle
 10
206.0637343402358
 20
13.92907270055684
 30
0.0
 40
0.7499080000000001
100
AcDbArc
 50
242.6628950000009
 51
2.834422999996808
  0
ARC
  5
138
330
2
100
AcDbEntity
  8
0
100
AcDbCircle
 10
238.6514023402341
 20
34.44442670055696
 30
0.0
 40
35.255792
100
AcDbArc
 50
213.8564239999994
 51
219.5987459999966
  0
ARC
  5
139
330
2
100
AcDbEntity
  8
0
100
AcDbCircle
 10
210.1227283402322
 20
14.83957170055691
 30
0.0
 40
0.7499080000000001
100
AcDbArc
 50
62.66289500000094
 51
182.8344229999968
  0
ARC
  5
13A
330
2
100
AcDbEntity
  8
0
100
AcDbCircle
 10
209.7449493402364
 20
11.01735370055712
 30
0.0
 40
0.7499080000000001
100
AcDbArc
 50
249.5129820000002
 51
9.684509999999278
  0
ARC
  5
13B
330
2
100
AcDbEntity
  8
0
100
AcDbCircle
 10
208.6247463402323
 20
14.76540570055658
 30
0.0
 40
0.7499080000000001
100
AcDbArc
 50
242.6628950000009
 51
2.834422999996808
  0
ARC
  5
13C
330
2
100
AcDbEntity
  8
0
100
AcDbCircle
 10
211.223391340236
 20
11.26965670055688
 30
0.0
 40
0.7499080000000001
100
AcDbArc
 50
69.51298200000024
 51
189.6845099999992
  0
LINE
  5
13D
330
2
100
AcDbEntity
  8
0
100
AcDbLine
 10
197.8486803402347
 20
44.13433535902686
 30
0.0
 11
197.8486803402347
 21
36.43433535902704
 31
0.0
  0
ARC
  5
13E
330
2
100
AcDbEntity
  8
0
100
AcDbCircle
 10
206.8486803402347
 20
35.03307270055711
 30
0.0
 40
0.5
100
AcDbArc
 50
270.0
 51
0.0
  0
LINE
  5
13F
330
2
100
AcDbEntity
  8
0
100
AcDbLine
 10
196.9486803402342
 20
36.43433535902704
 30
0.0
 11
197.8486803402347
 21
36.43433535902704
 31
0.0
  0
LINE
  5
140
330
2
100
AcDbEntity
  8
0
100
AcDbLine
 10
206.8486803402347
 20
34.53307270055711
 30
0.0
 11
197.8486803402347
 21
34.53307270055711
 31
0.0
  0
LINE
  5
141
330
2
100
AcDbEntity
  8
0
100
AcDbLine
 10
197.3486803402365
 20
35.53307270055711
 30
0.0
 11
197.3486803402365
 21
35.03307270055711
 31
0.0
  0
ARC
  5
142
330
2
100
AcDbEntity
  8
0
100
AcDbCircle
 10
197.8486803402347
 20
35.03307270055711
 30
0.0
 40
0.5
100
AcDbArc
 50
180.0
 51
270.0
  0
LINE
  5
143
330
2
100
AcDbEntity
  8
0
100
AcDbLine
 10
190.3486803402347
 20
34.5330727005562
 30
0.0
 11
196.9486803402342
 21
34.5330727005562
 31
0.0
  0
LINE
  5
144
330
2
100
AcDbEntity
  8
0
100
AcDbLine
 10
207.3486803402338
 20
35.53307270055711
 30
0.0
 11
207.3486803402338
 21
35.03307270055711
 31
0.0
  0
LINE
  5
145
330
2
100
AcDbEntity
  8
0
100
AcDbLine
 10
196.9486803402342
 20
44.13433535902686
 30
0.0
 11
197.8486803402347
 21
44.13433535902686
 31
0.0
  0
LINE
  5
146
330
2
100
AcDbEntity
  8
0
100
AcDbLine
 10
190.3486803402347
 20
38.53307270055711
 30
0.0
 11
188.3486803402365
 21
38.53307270055711
 31
0.0
  0
ARC
  5
147
330
2
100
AcDbEntity
  8
0
 48
0.6
100
AcDbCircle
 10
352.8466440650336
 20
34.44442670055696
 30
0.0
 40
33.95579199999999
100
AcDbArc
 50
179.8504230000004
 51
213.8981229999992
  0
ARC
  5
148
330
2
100
AcDbEntity
  8
0
 48
0.6
100
AcDbCircle
 10
352.8466440650336
 20
34.44442670055696
 30
0.0
 40
36.555792
100
AcDbArc
 50
179.8610604128478
 51
213.8176429999978
  0
ARC
  5
149
330
2
100
AcDbEntity
  8
0
 48
0.6
100
AcDbCircle
 10
352.8466440650336
 20
34.44442670055696
 30
0.0
 40
39.15579199999999
100
AcDbArc
 50
179.8702869999971
 51
212.7486590000019
  0
ARC
  5
14A
330
2
100
AcDbEntity
  8
0
 48
0.6
100
AcDbCircle
 10
320.2589760650353
 20
13.92907270055639
 30
0.0
 40
0.7499080000000001
100
AcDbArc
 50
242.6628950000009
 51
2.834422999996808
  0
ARC
  5
14B
330
2
100
AcDbEntity
  8
0
 48
0.6
100
AcDbCircle
 10
321.7569570650339
 20
14.00323870055626
 30
0.0
 40
0.7499080000000001
100
AcDbArc
 50
62.66289500000094
 51
182.8344229999968
  0
ARC
  5
14C
330
2
100
AcDbEntity
  8
0
 48
0.6
100
AcDbCircle
 10
322.8199880650318
 20
14.76540570055658
 30
0.0
 40
0.7499080000000001
100
AcDbArc
 50
242.6628950000009
 51
2.834422999996808
  0
ARC
  5
14D
330
2
100
AcDbEntity
  8
0
 48
0.6
100
AcDbCircle
 10
324.3179700650343
 20
14.83957170055646
 30
0.0
 40
0.7499080000000001
100
AcDbArc
 50
62.66289500000094
 51
182.8344229999968
  0
ARC
  5
14E
330
2
100
AcDbEntity
  8
0
100
AcDbCircle
 10
331.3486803402356
 20
42.53307270055711
 30
0.0
 40
7.0
100
AcDbArc
 50
269.9999999999998
 51
359.9999999999997
  0
ARC
  5
14F
330
2
100
AcDbEntity
  8
0
 48
0.6
100
AcDbCircle
 10
321.0439220650314
 20
35.0330727005562
 30
0.0
 40
0.5
100
AcDbArc
 50
270.0
 51
0.0
  0
LINE
  5
150
330
2
100
AcDbEntity
  8
0
 48
0.6
100
AcDbLine
 10
321.0439220650314
 20
34.5330727005562
 30
0.0
 11
312.0439220650332
 21
34.5330727005562
 31
0.0
  0
ARC
  5
151
330
2
100
AcDbEntity
  8
0
 48
0.6
100
AcDbCircle
 10
312.0439220650332
 20
35.0330727005562
 30
0.0
 40
0.5
100
AcDbArc
 50
180.0
 51
270.0
  0
LINE
  5
152
330
2
100
AcDbEntity
  8
0
 48
0.6
100
AcDbLine
 10
311.5439220650314
 20
35.5330727005562
 30
0.0
 11
311.5439220650314
 21
35.0330727005562
 31
0.0
  0
LINE
  5
153
330
2
100
AcDbEntity
  8
0
 48
0.6
100
AcDbLine
 10
321.543922065035
 20
35.5330727005562
 30
0.0
 11
321.543922065035
 21
35.0330727005562
 31
0.0
  0
LINE
  5
154
330
2
100
AcDbEntity
  8
0
100
AcDbLine
 10
306.5904194562353
 20
34.6441373149114
 30
0.0
 11
306.5904194562353
 21
35.53307270055711
 31
0.0
  0
ARC
  5
155
330
2
100
AcDbEntity
  8
0
100
AcDbCircle
 10
303.1570999837167
 20
34.6441373149114
 30
0.0
 40
1.0
100
AcDbArc
 50
180.0
 51
270.0
  0
LINE
  5
156
330
2
100
AcDbEntity
  8
0
100
AcDbLine
 10
303.1570999837167
 20
33.64413731491004
 30
0.0
 11
305.5904194562354
 21
33.64413731491004
 31
0.0
  0
LINE
  5
157
330
2
100
AcDbEntity
  8
0
100
AcDbLine
 10
302.1570999837167
 20
35.53307270055711
 30
0.0
 11
302.1570999837167
 21
34.6441373149114
 31
0.0
  0
ARC
  5
158
330
2
100
AcDbEntity
  8
0
100
AcDbCircle
 10
305.5904194562354
 20
34.6441373149114
 30
0.0
 40
1.0
100
AcDbArc
 50
269.9999999999998
 51
0.0
  0
LINE
  5
159
330
2
100
AcDbEntity
  8
0
100
AcDbLine
 10
303.4217146339797
 20
80.88627631422104
 30
0.0
 11
305.1281218613075
 21
79.17986908689136
 31
0.0
  0
LINE
  5
15A
330
2
100
AcDbEntity
  8
0
100
AcDbLine
 10
305.1317606573939
 20
80.88627631422104
 30
0.0
 11
303.4253534300623
 21
79.17986908689136
 31
0.0
  0
ARC
  5
15B
330
2
100
AcDbEntity
  8
0
 48
0.6
100
AcDbCircle
 10
81.43942474563392
 20
20.31364934909697
 30
0.0
 40
0.7499080000000001
100
AcDbArc
 50
85.16289500000455
 51
205.3344229999993
  0
ARC
  5
15C
330
2
100
AcDbEntity
  8
0
100
AcDbCircle
 10
83.82245274563866
 20
17.43668434909705
 30
0.0
 40
0.7499080000000001
100
AcDbArc
 50
92.01298199999559
 51
212.184510000001
  0
ARC
  5
15D
330
2
100
AcDbEntity
  8
0
100
AcDbCircle
 10
82.5531017456351
 20
16.63781134909686
 30
0.0
 40
0.7499080000000001
100
AcDbArc
 50
272.0129819999954
 51
32.18451000000101
  0
ARC
  5
15E
330
2
100
AcDbEntity
  8
0
 48
0.6
100
AcDbCircle
 10
100.2940297456352
 20
49.34362534909723
 30
0.0
 40
35.255792
100
AcDbArc
 50
236.3564240000014
 51
242.0987460000029
  0
ARC
  5
15F
330
2
100
AcDbEntity
  8
0
 48
0.6
100
AcDbCircle
 10
80.08385274563261
 20
19.67187734909703
 30
0.0
 40
0.7499080000000001
100
AcDbArc
 50
265.1628950000044
 51
25.33442299999946
  0
ARC
  5
160
330
2
100
AcDbEntity
  8
0
 48
0.6
100
AcDbCircle
 10
79.39340874563277
 20
18.56092234909692
 30
0.0
 40
0.7499080000000001
100
AcDbArc
 50
85.16289500000455
 51
205.3344229999993
  0
ARC
  5
161
330
2
100
AcDbEntity
  8
0
100
AcDbCircle
 10
100.2940297456352
 20
49.34362534909723
 30
0.0
 40
37.855792
100
AcDbArc
 50
235.2486590000054
 51
242.0987460000029
  0
ARC
  5
162
330
2
100
AcDbEntity
  8
0
 48
0.6
100
AcDbCircle
 10
82.96969758392151
 20
68.82778366049297
 30
0.0
 40
3.067967999999998
100
AcDbArc
 50
162.2801918472015
 51
218.0513255193776
  0
ARC
  5
163
330
2
100
AcDbEntity
  8
0
 48
0.6
100
AcDbCircle
 10
78.13789999670371
 20
65.04579441245323
 30
0.0
 40
3.067967999999998
100
AcDbArc
 50
333.6343274967831
 51
38.05132551937779
  0
LINE
  5
164
330
2
100
AcDbEntity
  8
CEN
100
AcDbLine
 10
150.7746599067586
 20
80.03307270055712
 30
0.0
 11
343.1078402457969
 21
80.03307270055712
 31
0.0
  0
LINE
  5
167
102
{ACAD_REACTORS
330
DD
330
FB
102
}
330
2
100
AcDbEntity
  8
CL
  6
BYBLOCK
 62
     0
100
AcDbLine
 10
188.3486803402365
 20
75.0330727005562
 30
0.0
 11
153.3486803402365
 21
75.0330727005562
 31
0.0
  0
DIMENSION
  5
168
330
2
100
AcDbEntity
  8
0
100
AcDbDimension
  2
*D28
 10
339.543368606699
 20
253.9544124220082
 30
0.0
 11
339.543368606699
 21
298.4544124220083
 31
0.0
 70
   160
  1
%%C<>
  3
STANDARD
100
AcDbAlignedDimension
 13
319.8693581623192
 23
342.9544124220083
 33
0.0
 14
319.8693581623192
 24
253.9544124220083
 34
0.0
 50
90.0
100
AcDbRotatedDimension
  0
LINE
  5
175
330
2
100
AcDbEntity
  8
0
100
AcDbLine
 10
289.6495801994278
 20
342.9544124220083
 30
0.0
 11
289.6495801994278
 21
253.9544124220083
 31
0.0
  0
ARC
  5
176
330
2
100
AcDbEntity
  8
0
100
AcDbCircle
 10
318.8693581623192
 20
260.9544124220083
 30
0.0
 40
7.0
100
AcDbArc
 50
269.9999999999998
 51
359.9999999999997
  0
LINE
  5
177
330
2
100
AcDbEntity
  8
0
100
AcDbLine
 10
177.8693581623183
 20
343.9544124220092
 30
0.0
 11
177.8693581623183
 21
252.9544124220083
 31
0.0
  0
LINE
  5
178
330
2
100
AcDbEntity
  8
0
100
AcDbLine
 10
184.4693581623177
 20
343.9544124220092
 30
0.0
 11
184.4693581623177
 21
252.9544124220083
 31
0.0
  0
LINE
  5
179
102
{ACAD_REACTORS
330
292
102
}
330
2
100
AcDbEntity
  8
0
100
AcDbLine
 10
177.8693581623183
 20
343.4544124220092
 30
0.0
 11
177.8693581623183
 21
253.4544124220092
 31
0.0
  0
LINE
  5
17A
330
2
100
AcDbEntity
  8
0
100
AcDbLine
 10
175.8693581623183
 20
339.9544124220083
 30
0.0
 11
175.8693581623183
 21
256.9544124220083
 31
0.0
  0
DIMENSION
  5
17B
330
2
100
AcDbEntity
  8
0
100
AcDbDimension
  2
*D27
 10
143.1493530733905
 20
256.9544124220083
 30
0.0
 11
143.1493530733905
 21
301.8806362756559
 31
0.0
 70
   160
  1
\A1;{\f??|b0|i0|c0|p49;%%c83\H0.7x;\S+0^ -0.035;\H1.429x;(h7)}
  3
STANDARD
100
AcDbAlignedDimension
 13
175.1742946040321
 23
339.9544124220083
 33
0.0
 14
175.1742946040321
 24
256.9544124220083
 34
0.0
 50
90.0
100
AcDbRotatedDimension
  0
LINE
  5
188
330
2
100
AcDbEntity
  8
CL
 48
0.6
100
AcDbLine
 10
95.16419183644121
 20
253.4544124220092
 30
0.0
 11
76.51836385876322
 21
298.4544124220083
 31
0.0
  0
LINE
  5
189
102
{ACAD_REACTORS
330
190
102
}
330
2
100
AcDbEntity
  8
CL
 48
0.6
100
AcDbLine
 10
76.51836385876322
 20
244.8242676582558
 30
0.0
 11
76.51836385876322
 21
352.0845571857607
 31
0.0
  0
CIRCLE
  5
18A
330
2
100
AcDbEntity
  8
0
 48
0.6
100
AcDbCircle
 10
76.51836385876322
 20
298.4544124220083
 30
0.0
 40
42.00000000000005
  0
CIRCLE
  5
18B
330
2
100
AcDbEntity
  8
0
 48
0.6
100
AcDbCircle
 10
76.51836385876322
 20
298.4544124220083
 30
0.0
 40
43.5
  0
INSERT
  5
18C
330
2
100
AcDbEntity
  8
0
100
AcDbBlockReference
  2
4
 10
76.51836385876322
 20
298.4544124220083
 30
0.0
  0
LINE
  5
18D
330
2
100
AcDbEntity
  8
0
100
AcDbLine
 10
185.3693581623201
 20
262.5556750804789
 30
0.0
 11
185.3693581623201
 21
254.8556750804787
 31
0.0
  0
DIMENSION
  5
18E
102
{ACAD_XDICTIONARY
360
18F
102
}
102
{ACAD_REACTORS
330
190
102
}
330
2
100
AcDbEntity
  8
0
100
AcDbDimension
  2
*D26
 10
76.51836385876322
 20
352.0845571857607
 30
0.0
 11
90.11297317987915
 21
230.1307513932541
 31
0.0
 70
    34
  1
<>
  3
STANDARD
100
AcDb2LineAngularDimension
 13
76.51836385876322
 23
298.4544124220083
 33
0.0
 14
95.16419183644121
 24
253.4544124220092
 34
0.0
 15
76.51836385876322
 25
244.8242676582558
 35
0.0
 16
85.97764458863448
 26
226.6258610008481
 36
0.0
1001
ACAD
1000
DSTYLE
1002
{
1070
   271
1070
     1
1070
   271
1070
     1
1070
   271
1070
     1
1070
   271
1070
     1
1070
   271
1070
     1
1070
   271
1070
     1
1070
   271
1070
     1
1002
}
  0
DIMENSION
  5
19F
330
2
100
AcDbEntity
  8
0
100
AcDbDimension
  2
*D29
 10
92.97621439481464
 20
137.635505343414
 30
0.0
 11
47.97621439481463
 21
137.635505343414
 31
0.0
 70
   160
  3
STANDARD
100
AcDbAlignedDimension
 13
2.976214394814633
 23
119.9902789417601
 33
0.0
 14
92.97621439481464
 24
119.9902789417601
 34
0.0
100
AcDbRotatedDimension
  0
ARC
  5
1AC
330
2
100
AcDbEntity
  8
0
 48
0.6
100
AcDbCircle
 10
47.90075008063922
 20
80.03307270055712
 30
0.0
 40
36.81561599999999
100
AcDbArc
 50
26.36567250321681
 51
63.63432749678904
  0
LEADER
  5
1AD
330
2
100
AcDbEntity
  8
0
100
AcDbLeader
  3
STANDARD
 73
     0
 75
     1
 40
3.0
 41
26.65178571428571
 76
     3
 10
84.7704075912461
 20
119.9522471533623
 30
0.0
 10
77.48042464830632
 20
151.4812780059373
 30
0.0
 10
74.98042464830632
 20
151.4812780059373
 30
0.0
340
1AE
1001
ACAD
1000
DSTYLE
1002
{
1070
     5
1000

1070
   342
1005
0
1002
}
  0
MTEXT
  5
1AE
102
{ACAD_REACTORS
330
1AD
102
}
330
2
100
AcDbEntity
  8
0
 62
     3
100
AcDbMText
 10
73.98042464830632
 20
152.4812780059373
 30
0.0
 40
3.0
 41
0.0
 71
     9
 72
     1
  1
4-%%C6.5 hole
1001
ACAD
1000
MTEXTBEGIN
1070
    73
1070
     1
1070
    44
1040
1.0
1070
    74
1070
     0
1000
MTEXTEND
  0
ARC
  5
1AF
330
2
100
AcDbEntity
  8
0
 48
0.6
100
AcDbCircle
 10
47.90075008063922
 20
80.03307270055712
 30
0.0
 40
33.74764799999999
100
AcDbArc
 50
72.28019184719491
 51
107.719808152805
  0
LWPOLYLINE
  5
1B0
330
2
100
AcDbEntity
  8
3
100
AcDbPolyline
 90
        4
 70
     1
 43
0.0
 10
41.68071915068503
 20
138.4114568706227
 10
44.98071915068158
 20
138.4114568706227
 10
44.98071915068158
 20
141.911456870624
 10
41.68071915068503
 20
141.911456870624
  0
ARC
  5
1B2
330
2
100
AcDbEntity
  8
0
 48
0.6
100
AcDbCircle
 10
47.90075008063922
 20
80.03307270055712
 30
0.0
 40
36.81561599999999
100
AcDbArc
 50
116.3656725032109
 51
153.634327496783
  0
ARC
  5
1B3
330
2
100
AcDbEntity
  8
0
 48
0.6
100
AcDbCircle
 10
12.8318025773533
 20
91.2383617406199
 30
0.0
 40
3.067967999999998
100
AcDbArc
 50
342.2801918472014
 51
38.05132551937779
  0
ARC
  5
1B4
330
2
100
AcDbEntity
  8
0
 48
0.6
100
AcDbCircle
 10
17.66360016456474
 20
95.02035098866008
 30
0.0
 40
3.067967999999998
100
AcDbArc
 50
153.634327496783
 51
218.0513255193776
  0
ARC
  5
1B5
330
2
100
AcDbEntity
  8
0
 48
0.6
100
AcDbCircle
 10
32.91347179253079
 20
110.2702226166261
 30
0.0
 40
3.067967999999998
100
AcDbArc
 50
51.94867448061305
 51
116.3656725032109
  0
ARC
  5
1B6
330
2
100
AcDbEntity
  8
0
 48
0.6
100
AcDbCircle
 10
36.69546104057189
 20
115.1020202038403
 30
0.0
 40
3.067967999999998
100
AcDbArc
 50
231.948674480613
 51
287.7198081528051
  0
ARC
  5
1B7
330
2
100
AcDbEntity
  8
0
 48
0.6
100
AcDbCircle
 10
59.10603912069655
 20
115.1020202038403
 30
0.0
 40
3.067967999999998
100
AcDbArc
 50
252.2801918471949
 51
308.0513255193868
  0
ARC
  5
1B8
330
2
100
AcDbEntity
  8
0
 48
0.6
100
AcDbCircle
 10
62.88802836873674
 20
110.2702226166261
 30
0.0
 40
3.067967999999998
100
AcDbArc
 50
63.63432749678904
 51
128.0513255193868
  0
MTEXT
  5
1B9
330
2
100
AcDbEntity
  8
DIM
100
AcDbMText
 10
214.2822251929428
 20
202.0311212334358
 30
0.0
 40
3.5
 41
0.0
 71
     5
 72
     1
  1
MOTOR LEAD WIRE 300mm
1001
ACAD
1000
MTEXTBEGIN
1070
    73
1070
     1
1070
    44
1040
1.0
1070
    74
1070
     0
1000
MTEXTEND
  0
MTEXT
  5
1BA
330
2
100
AcDbEntity
  8
DIM
100
AcDbMText
 10
211.4492132715131
 20
194.0285722563553
 30
0.0
 40
3.5
 41
0.0
 71
     5
 72
     1
  1
UL Style 3271 , AWG20
1001
ACAD
1000
MTEXTBEGIN
1070
    73
1070
     1
1070
    44
1040
1.0
1070
    74
1070
     0
1000
MTEXTEND
  0
LEADER
  5
1BB
330
2
100
AcDbEntity
  8
0
100
AcDbLeader
  3
STANDARD
 76
     2
 10
192.5310610657025
 20
236.3012790379562
 30
0.0
 10
165.6935400559987
 20
198.4733263213902
 30
0.0
1001
ACAD
1000
DSTYLE
1002
{
1070
     5
1000

1070
   342
1005
0
1002
}
  0
LINE
  5
1BC
330
2
100
AcDbEntity
  8
0
 62
   123
100
AcDbLine
 10
165.6935400559987
 20
198.4733263213902
 30
0.0
 11
257.080891855554
 21
198.4733263213902
 31
0.0
  0
DIMENSION
  5
1BD
330
2
100
AcDbEntity
  8
0
100
AcDbDimension
  2
*D34
 10
338.3486803402338
 20
150.8926245043535
 30
0.0
 11
257.8486803402338
 21
150.8926245043535
 31
0.0
 70
   160
  1
<>
  3
STANDARD
100
AcDbAlignedDimension
 13
190.3486803402347
 23
140.133072700557
 33
0.0
 14
338.3486803402338
 24
119.0330727005562
 34
0.0
100
AcDbRotatedDimension
  0
LINE
  5
1CA
330
2
100
AcDbEntity
  8
0
100
AcDbLine
 10
331.3486803402356
 20
124.5330727005571
 30
0.0
 11
196.9486803402342
 21
124.5330727005571
 31
0.0
  0
LINE
  5
1CB
330
2
100
AcDbEntity
  8
0
100
AcDbLine
 10
183.3486803402347
 20
85.03307270055712
 30
0.0
 11
183.3486803402347
 21
84.0330727005571
 31
0.0
  0
LINE
  5
1CC
102
{ACAD_REACTORS
330
1FB
330
FB
102
}
330
2
100
AcDbEntity
  8
CL
  6
BYBLOCK
 62
     0
100
AcDbLine
 10
188.3486803402365
 20
85.03307270055712
 30
0.0
 11
183.3486803402347
 21
85.03307270055712
 31
0.0
  0
LINE
  5
1CD
102
{ACAD_REACTORS
330
1D2
102
}
330
2
100
AcDbEntity
  8
0
100
AcDbLine
 10
196.9486803402342
 20
123.6318100420858
 30
0.0
 11
197.8486803402347
 21
123.6318100420858
 31
0.0
  0
LINE
  5
1CE
330
2
100
AcDbEntity
  8
0
100
AcDbLine
 10
196.9486803402342
 20
115.9318100420859
 30
0.0
 11
197.8486803402347
 21
115.9318100420859
 31
0.0
  0
LINE
  5
1CF
330
2
100
AcDbEntity
  8
0
100
AcDbLine
 10
197.8486803402347
 20
115.9318100420859
 30
0.0
 11
197.8486803402347
 21
123.6318100420858
 31
0.0
  0
DIMENSION
  5
1D0
102
{ACAD_XDICTIONARY
360
1D1
102
}
102
{ACAD_REACTORS
330
1D2
102
}
330
2
100
AcDbEntity
  8
0
100
AcDbDimension
  2
*D33
 10
197.8486803402347
 20
137.0648174590983
 30
0.0
 11
194.0986803402347
 21
137.0648174590983
 31
0.0
 70
   160
  3
STANDARD
100
AcDbAlignedDimension
 13
190.3486803402347
 23
125.0330727005571
 33
0.0
 14
197.8486803402347
 24
123.6318100420858
 34
0.0
100
AcDbRotatedDimension
  0
LINE
  5
1DF
330
2
100
AcDbEntity
  8
0
100
AcDbLine
 10
190.3486803402347
 20
125.5330727005571
 30
0.0
 11
196.9486803402342
 21
125.5330727005571
 31
0.0
  0
LINE
  5
1E0
330
2
100
AcDbEntity
  8
0
100
AcDbLine
 10
190.3486803402347
 20
121.5330727005571
 30
0.0
 11
188.3486803402365
 21
121.5330727005571
 31
0.0
  0
DIMENSION
  5
1E1
330
2
100
AcDbEntity
  8
0
100
AcDbDimension
  2
*D32
 10
190.3486803402347
 20
137.0648174590983
 30
0.0
 11
179.3486803402365
 21
137.0648174590983
 31
0.0
 70
   160
  3
STANDARD
100
AcDbAlignedDimension
 13
188.3486803402365
 23
121.5330727005571
 33
0.0
 14
190.3486803402347
 24
125.0330727005571
 34
0.0
100
AcDbRotatedDimension
  0
ARC
  5
1F0
330
2
100
AcDbEntity
  8
0
100
AcDbCircle
 10
331.3486803402356
 20
117.5330727005571
 30
0.0
 40
7.0
100
AcDbArc
 50
359.9999999999998
 51
90.0000000000001
  0
LINE
  5
1F1
330
2
100
AcDbEntity
  8
0
100
AcDbLine
 10
306.5904194562353
 20
125.4220080862032
 30
0.0
 11
306.5904194562353
 21
124.5330727005571
 31
0.0
  0
ARC
  5
1F2
330
2
100
AcDbEntity
  8
0
100
AcDbCircle
 10
303.1570999837167
 20
125.4220080862032
 30
0.0
 40
1.0
100
AcDbArc
 50
89.99999999999991
 51
179.9999999999998
  0
LINE
  5
1F3
330
2
100
AcDbEntity
  8
0
100
AcDbLine
 10
302.1570999837167
 20
124.5330727005571
 30
0.0
 11
302.1570999837167
 21
125.4220080862032
 31
0.0
  0
LINE
  5
1F4
330
2
100
AcDbEntity
  8
0
100
AcDbLine
 10
303.1570999837167
 20
126.4220080862032
 30
0.0
 11
305.5904194562354
 21
126.4220080862032
 31
0.0
  0
ARC
  5
1F5
330
2
100
AcDbEntity
  8
0
100
AcDbCircle
 10
305.5904194562354
 20
125.4220080862032
 30
0.0
 40
1.0
100
AcDbArc
 50
359.9999999999998
 51
90.00000000000005
  0
LINE
  5
1F6
330
2
100
AcDbEntity
  8
0
100
AcDbLine
 10
338.3486803402338
 20
117.5330727005571
 30
0.0
 11
338.3486803402338
 21
106.9369973023181
 31
0.0
  0
ARC
  5
1F7
330
2
100
AcDbEntity
  8
0
 48
0.6
100
AcDbCircle
 10
82.96969758392151
 20
91.2383617406199
 30
0.0
 40
3.067967999999998
100
AcDbArc
 50
141.9486744806222
 51
197.7198081527984
  0
ARC
  5
1F8
330
2
100
AcDbEntity
  8
0
 48
0.6
100
AcDbCircle
 10
78.13789999670371
 20
95.02035098866008
 30
0.0
 40
3.067967999999998
100
AcDbArc
 50
321.9486744806221
 51
26.36567250321681
  0
DIMENSION
  5
1F9
102
{ACAD_XDICTIONARY
360
1FA
102
}
102
{ACAD_REACTORS
330
1FB
102
}
330
2
100
AcDbEntity
  8
0
100
AcDbDimension
  2
*D31
 10
183.3486803402347
 20
98.07462392026264
 30
0.0
 11
168.3486803402347
 21
98.07462392026264
 31
0.0
 70
   160
  3
STANDARD
100
AcDbAlignedDimension
 13
153.3486803402365
 23
84.0330727005571
 33
0.0
 14
183.3486803402347
 24
85.03307270055712
 34
0.0
100
AcDbRotatedDimension
  0
DIMENSION
  5
208
330
2
100
AcDbEntity
  8
0
100
AcDbDimension
  2
*D30
 10
190.3486803402347
 20
150.8926245043535
 30
0.0
 11
181.398680340234
 21
150.8926245043535
 31
0.0
 70
   160
  3
STANDARD
100
AcDbAlignedDimension
 13
153.3486803402365
 23
84.0330727005571
 33
0.0
 14
190.3486803402347
 24
125.0330727005571
 34
0.0
100
AcDbRotatedDimension
  0
LINE
  5
215
102
{ACAD_REACTORS
330
1FB
330
DD
102
}
330
2
100
AcDbEntity
  8
CL
  6
BYBLOCK
 62
     0
100
AcDbLine
 10
183.3486803402347
 20
84.0330727005571
 30
0.0
 11
153.3486803402365
 21
84.0330727005571
 31
0.0
  0
ARC
  5
216
330
2
100
AcDbEntity
  8
0
 48
0.6
100
AcDbCircle
 10
308.5645998871186
 20
253.4544124220074
 30
0.0
 40
0.5
100
AcDbArc
 50
270.0
 51
0.0
  0
ARC
  5
217
330
2
100
AcDbEntity
  8
0
 48
0.6
100
AcDbCircle
 10
307.7796538871189
 20
232.3504124220085
 30
0.0
 40
0.7499080000000001
100
AcDbArc
 50
242.6628950000009
 51
2.834422999996808
  0
ARC
  5
218
330
2
100
AcDbEntity
  8
0
 48
0.6
100
AcDbCircle
 10
309.2776348871193
 20
232.4245784220083
 30
0.0
 40
0.7499080000000001
100
AcDbArc
 50
62.66289500000094
 51
182.8344229999968
  0
ARC
  5
219
330
2
100
AcDbEntity
  8
0
 48
0.6
100
AcDbCircle
 10
340.367321887119
 20
252.8657664220086
 30
0.0
 40
33.95579199999999
100
AcDbArc
 50
179.8504230000004
 51
213.8981229999992
  0
ARC
  5
21A
330
2
100
AcDbEntity
  8
0
 48
0.6
100
AcDbCircle
 10
340.367321887119
 20
252.8657664220086
 30
0.0
 40
36.555792
100
AcDbArc
 50
179.8610604128478
 51
213.8176429999978
  0
LINE
  5
21B
330
2
100
AcDbEntity
  8
0
 48
0.6
100
AcDbLine
 10
308.5645998871186
 20
252.9544124220083
 30
0.0
 11
299.5645998871186
 21
252.9544124220083
 31
0.0
  0
ARC
  5
21C
330
2
100
AcDbEntity
  8
0
 48
0.6
100
AcDbCircle
 10
299.5645998871186
 20
253.4544124220074
 30
0.0
 40
0.5
100
AcDbArc
 50
180.0
 51
270.0
  0
LINE
  5
21D
330
2
100
AcDbEntity
  8
0
 48
0.6
100
AcDbLine
 10
299.0645998871205
 20
253.9544124220083
 30
0.0
 11
299.0645998871205
 21
253.4544124220074
 31
0.0
  0
ARC
  5
21E
330
2
100
AcDbEntity
  8
0
 48
0.6
100
AcDbCircle
 10
340.367321887119
 20
252.8657664220086
 30
0.0
 40
39.15579199999999
100
AcDbArc
 50
179.8702869999971
 51
212.7486590000019
  0
LINE
  5
21F
330
2
100
AcDbEntity
  8
0
 48
0.6
100
AcDbLine
 10
309.0645998871168
 20
253.9544124220083
 30
0.0
 11
309.0645998871168
 21
253.4544124220074
 31
0.0
  0
ARC
  5
220
330
2
100
AcDbEntity
  8
0
 48
0.6
100
AcDbCircle
 10
310.340665887119
 20
233.1867454220082
 30
0.0
 40
0.7499080000000001
100
AcDbArc
 50
242.6628950000009
 51
2.834422999996808
  0
ARC
  5
221
330
2
100
AcDbEntity
  8
0
 48
0.6
100
AcDbCircle
 10
311.838647887118
 20
233.2609114220085
 30
0.0
 40
0.7499080000000001
100
AcDbArc
 50
62.66289500000094
 51
182.8344229999968
  0
LINE
  5
222
330
2
100
AcDbEntity
  8
0
100
AcDbLine
 10
294.111097278319
 20
253.0654770363621
 30
0.0
 11
294.111097278319
 21
253.9544124220083
 31
0.0
  0
ARC
  5
223
330
2
100
AcDbEntity
  8
0
100
AcDbCircle
 10
290.6777778058021
 20
253.0654770363621
 30
0.0
 40
1.0
100
AcDbArc
 50
180.0
 51
270.0
  0
LINE
  5
224
330
2
100
AcDbEntity
  8
0
100
AcDbLine
 10
290.6777778058021
 20
252.0654770363621
 30
0.0
 11
293.1110972783208
 21
252.0654770363621
 31
0.0
  0
LINE
  5
225
330
2
100
AcDbEntity
  8
0
100
AcDbLine
 10
289.6777778058021
 20
253.9544124220083
 30
0.0
 11
289.6777778058021
 21
253.0654770363621
 31
0.0
  0
ARC
  5
226
330
2
100
AcDbEntity
  8
0
100
AcDbCircle
 10
293.1110972783208
 20
253.0654770363621
 30
0.0
 40
1.0
100
AcDbArc
 50
269.9999999999998
 51
0.0
  0
LEADER
  5
227
330
2
100
AcDbEntity
  8
0
 48
0.6
100
AcDbLeader
  3
STANDARD
 76
     2
 10
305.3790144711929
 20
242.2759471168542
 30
0.0
 10
318.5516855110108
 20
215.6155300165392
 30
0.0
1001
ACAD
1000
DSTYLE
1002
{
1070
     5
1000

1070
   342
1005
0
1002
}
  0
ARC
  5
228
330
2
100
AcDbEntity
  8
0
100
AcDbCircle
 10
194.3693581623201
 20
253.4544124220092
 30
0.0
 40
0.5
100
AcDbArc
 50
270.0
 51
0.0
  0
ARC
  5
229
330
2
100
AcDbEntity
  8
0
100
AcDbCircle
 10
195.0823931623163
 20
232.4245784220088
 30
0.0
 40
0.7499080000000001
100
AcDbArc
 50
62.66289500000094
 51
182.8344229999968
  0
ARC
  5
22A
330
2
100
AcDbEntity
  8
0
100
AcDbCircle
 10
226.1720801623196
 20
252.8657664220086
 30
0.0
 40
37.855792
100
AcDbArc
 50
212.7486590000019
 51
219.5987459999966
  0
ARC
  5
22B
330
2
100
AcDbEntity
  8
0
100
AcDbCircle
 10
226.1720801623196
 20
252.8657664220086
 30
0.0
 40
33.95579199999999
100
AcDbArc
 50
179.8504230000004
 51
213.8981229999992
  0
ARC
  5
22C
330
2
100
AcDbEntity
  8
0
100
AcDbCircle
 10
226.1720801623196
 20
252.8657664220086
 30
0.0
 40
36.555792
100
AcDbArc
 50
179.8610604128478
 51
213.8176429999978
  0
LINE
  5
22D
330
2
100
AcDbEntity
  8
0
100
AcDbLine
 10
184.4693581623177
 20
254.8556750804787
 30
0.0
 11
185.3693581623201
 21
254.8556750804787
 31
0.0
  0
LINE
  5
22E
330
2
100
AcDbEntity
  8
0
100
AcDbLine
 10
194.3693581623201
 20
252.9544124220083
 30
0.0
 11
185.3693581623201
 21
252.9544124220083
 31
0.0
  0
LINE
  5
22F
330
2
100
AcDbEntity
  8
0
100
AcDbLine
 10
184.8693581623183
 20
253.9544124220083
 30
0.0
 11
184.8693581623183
 21
253.4544124220092
 31
0.0
  0
ARC
  5
230
330
2
100
AcDbEntity
  8
0
100
AcDbCircle
 10
185.3693581623201
 20
253.4544124220092
 30
0.0
 40
0.5
100
AcDbArc
 50
180.0
 51
270.0
  0
ARC
  5
231
330
2
100
AcDbEntity
  8
0
100
AcDbCircle
 10
193.5844121623185
 20
232.3504124220085
 30
0.0
 40
0.7499080000000001
100
AcDbArc
 50
242.6628950000009
 51
2.834422999996808
  0
ARC
  5
232
330
2
100
AcDbEntity
  8
0
100
AcDbCircle
 10
226.1720801623196
 20
252.8657664220086
 30
0.0
 40
39.15579199999999
100
AcDbArc
 50
179.8702869999971
 51
212.7486590000019
  0
LINE
  5
233
330
2
100
AcDbEntity
  8
0
100
AcDbLine
 10
177.8693581623183
 20
252.9544124220083
 30
0.0
 11
184.4693581623177
 21
252.9544124220083
 31
0.0
  0
LINE
  5
234
330
2
100
AcDbEntity
  8
0
100
AcDbLine
 10
194.8693581623183
 20
253.9544124220083
 30
0.0
 11
194.8693581623183
 21
253.4544124220092
 31
0.0
  0
ARC
  5
235
330
2
100
AcDbEntity
  8
0
100
AcDbCircle
 10
226.1720801623196
 20
252.8657664220086
 30
0.0
 40
35.255792
100
AcDbArc
 50
213.8564239999994
 51
219.5987459999966
  0
ARC
  5
236
330
2
100
AcDbEntity
  8
0
100
AcDbCircle
 10
197.6434061623176
 20
233.260911422009
 30
0.0
 40
0.7499080000000001
100
AcDbArc
 50
62.66289500000094
 51
182.8344229999968
  0
ARC
  5
237
330
2
100
AcDbEntity
  8
0
100
AcDbCircle
 10
197.2656271623191
 20
229.4386934220083
 30
0.0
 40
0.7499080000000001
100
AcDbArc
 50
249.5129820000002
 51
9.684509999999278
  0
ARC
  5
238
330
2
100
AcDbEntity
  8
0
100
AcDbCircle
 10
196.1454241623177
 20
233.1867454220082
 30
0.0
 40
0.7499080000000001
100
AcDbArc
 50
242.6628950000009
 51
2.834422999996808
  0
ARC
  5
239
330
2
100
AcDbEntity
  8
0
100
AcDbCircle
 10
198.7440691623187
 20
229.6909964220089
 30
0.0
 40
0.7499080000000001
100
AcDbArc
 50
69.51298200000024
 51
189.6845099999992
  0
LINE
  5
23A
330
2
100
AcDbEntity
  8
0
100
AcDbLine
 10
177.8693581623183
 20
256.9544124220083
 30
0.0
 11
175.8693581623183
 21
256.9544124220083
 31
0.0
  0
ARC
  5
23B
330
2
100
AcDbEntity
  8
0
100
AcDbCircle
 10
128.8361792095829
 20
267.7649650705489
 30
0.0
 40
39.15579199999999
100
AcDbArc
 50
201.4369589999971
 51
235.2486590000054
  0
ARC
  5
23C
330
2
100
AcDbEntity
  8
0
 48
0.6
100
AcDbCircle
 10
128.8361792095829
 20
267.7649650705489
 30
0.0
 40
33.95579199999999
100
AcDbArc
 50
204.9259499999998
 51
236.3981230000006
  0
ARC
  5
23D
330
2
100
AcDbEntity
  8
0
 48
0.6
100
AcDbCircle
 10
109.9815742095806
 20
238.7349890705477
 30
0.0
 40
0.7499080000000001
100
AcDbArc
 50
85.16289500000455
 51
205.3344229999993
  0
ARC
  5
23E
330
2
100
AcDbEntity
  8
0
100
AcDbCircle
 10
112.3646022095854
 20
235.8580240705478
 30
0.0
 40
0.7499080000000001
100
AcDbArc
 50
92.01298199999559
 51
212.184510000001
  0
ARC
  5
23F
330
2
100
AcDbEntity
  8
0
100
AcDbCircle
 10
111.0952512095827
 20
235.0591510705489
 30
0.0
 40
0.7499080000000001
100
AcDbArc
 50
272.0129819999954
 51
32.18451000000101
  0
ARC
  5
240
330
2
100
AcDbEntity
  8
0
 48
0.6
100
AcDbCircle
 10
128.8361792095829
 20
267.7649650705489
 30
0.0
 40
35.255792
100
AcDbArc
 50
236.3564240000014
 51
242.0987460000029
  0
ARC
  5
241
330
2
100
AcDbEntity
  8
0
 48
0.6
100
AcDbCircle
 10
108.6260022095821
 20
238.0932170705477
 30
0.0
 40
0.7499080000000001
100
AcDbArc
 50
265.1628950000044
 51
25.33442299999946
  0
ARC
  5
242
330
2
100
AcDbEntity
  8
0
100
AcDbCircle
 10
106.5799852095797
 20
236.3404890705492
 30
0.0
 40
0.7499080000000001
100
AcDbArc
 50
265.1628950000044
 51
25.33442299999946
  0
ARC
  5
243
330
2
100
AcDbEntity
  8
0
 48
0.6
100
AcDbCircle
 10
107.9355582095822
 20
236.9822620705476
 30
0.0
 40
0.7499080000000001
100
AcDbArc
 50
85.16289500000455
 51
205.3344229999993
  0
ARC
  5
244
330
2
100
AcDbEntity
  8
0
 48
0.6
100
AcDbCircle
 10
129.0887365611997
 20
268.0454560231351
 30
0.0
 40
36.92930121396881
100
AcDbArc
 50
203.2726782588581
 51
236.2329275593634
  0
ARC
  5
245
330
2
100
AcDbEntity
  8
0
100
AcDbCircle
 10
128.8361792095829
 20
267.7649650705489
 30
0.0
 40
37.855792
100
AcDbArc
 50
235.2486590000054
 51
242.0987460000029
  0
LINE
  5
246
330
2
100
AcDbEntity
  8
0
100
AcDbLine
 10
318.8693581623192
 20
253.9544124220083
 30
0.0
 11
184.4693581623177
 21
253.9544124220083
 31
0.0
  0
LINE
  5
247
330
2
100
AcDbEntity
  8
0
 62
   123
 48
0.6
100
AcDbLine
 10
228.0171696460884
 20
215.6155300165392
 30
0.0
 11
318.5516855110108
 21
215.6155300165392
 31
0.0
  0
MTEXT
  5
248
330
2
100
AcDbEntity
  8
DIM
100
AcDbMText
 10
263.9732883042452
 20
210.8443343654316
 30
0.0
 40
3.5
 41
0.0
 71
     5
 72
     1
  1
UL Style 3266 , AWG22
1001
ACAD
1000
MTEXTBEGIN
1070
    73
1070
     1
1070
    44
1040
1.0
1070
    74
1070
     0
1000
MTEXTEND
  0
MTEXT
  5
249
330
2
100
AcDbEntity
  8
DIM
100
AcDbMText
 10
264.8667240329887
 20
219.5742136326712
 30
0.0
 40
3.5
 41
0.0
 71
     5
 72
     1
  1
BRAKE LEAD WIRE 300mm
1001
ACAD
1000
MTEXTBEGIN
1070
    73
1070
     1
1070
    44
1040
1.0
1070
    74
1070
     0
1000
MTEXTEND
  0
CIRCLE
  5
24A
330
2
100
AcDbEntity
  8
0
 48
0.6
100
AcDbCircle
 10
76.51836385876322
 20
298.4544124220083
 30
0.0
 40
20.0
  0
ARC
  5
24B
330
2
100
AcDbEntity
  8
0
 48
0.6
100
AcDbCircle
 10
76.44289954458599
 20
298.4544124220083
 30
0.0
 40
33.74764799999999
100
AcDbArc
 50
252.2801918471949
 51
287.7198081528051
  0
LINE
  5
24C
330
2
100
AcDbEntity
  8
CL
 48
0.6
100
AcDbLine
 10
27.26508764436676
 20
298.4544124220083
 30
0.0
 11
125.7716400731624
 21
298.4544124220083
 31
0.0
  0
DIMENSION
  5
24D
330
2
100
AcDbEntity
  8
0
100
AcDbDimension
  2
*D35
 10
121.5183638587614
 20
356.0568450648661
 30
0.0
 11
76.51836385876322
 21
356.0568450648661
 31
0.0
 70
   160
  3
STANDARD
100
AcDbAlignedDimension
 13
31.51836385876322
 23
338.4116186632122
 33
0.0
 14
121.5183638587614
 24
338.4116186632122
 34
0.0
100
AcDbRotatedDimension
  0
CIRCLE
  5
25A
330
2
100
AcDbEntity
  8
0
 48
0.6
100
AcDbCircle
 10
76.51836385876322
 20
298.4544124220083
 30
0.0
 40
6.0
  0
ARC
  5
25B
330
2
100
AcDbEntity
  8
0
 48
0.6
100
AcDbCircle
 10
76.44289954458599
 20
298.4544124220083
 30
0.0
 40
33.74764799999999
100
AcDbArc
 50
72.28019184719491
 51
107.719808152805
  0
LEADER
  5
25C
330
2
100
AcDbEntity
  8
0
100
AcDbLeader
  3
STANDARD
 73
     0
 75
     1
 40
3.0
 41
26.65178571428571
 76
     3
 10
113.3125570551919
 20
338.373586874814
 30
0.0
 10
106.0225741122549
 20
369.9026177273895
 30
0.0
 10
103.5225741122549
 20
369.9026177273895
 30
0.0
340
25D
1001
ACAD
1000
DSTYLE
1002
{
1070
     5
1000

1070
   342
1005
0
1002
}
  0
MTEXT
  5
25D
102
{ACAD_REACTORS
330
25C
102
}
330
2
100
AcDbEntity
  8
0
 62
     3
100
AcDbMText
 10
102.5225741122549
 20
370.9026177273894
 30
0.0
 40
3.0
 41
0.0
 71
     9
 72
     1
  1
4-%%C6.5 hole
1001
ACAD
1000
MTEXTBEGIN
1070
    73
1070
     1
1070
    44
1040
1.0
1070
    74
1070
     0
1000
MTEXTEND
  0
ARC
  5
25E
330
2
100
AcDbEntity
  8
0
 48
0.6
100
AcDbCircle
 10
76.44289954458599
 20
298.4544124220083
 30
0.0
 40
36.81561599999999
100
AcDbArc
 50
206.3656725032168
 51
243.634327496789
  0
ARC
  5
25F
330
2
100
AcDbEntity
  8
0
 48
0.6
100
AcDbCircle
 10
61.45562125647848
 20
268.2172625059393
 30
0.0
 40
3.067967999999998
100
AcDbArc
 50
243.634327496789
 51
308.0513255193868
  0
ARC
  5
260
330
2
100
AcDbEntity
  8
0
 48
0.6
100
AcDbCircle
 10
65.23761050451958
 20
263.3854649187255
 30
0.0
 40
3.067967999999998
100
AcDbArc
 50
72.28019184719491
 51
128.0513255193868
  0
LWPOLYLINE
  5
261
330
2
100
AcDbEntity
  8
3
100
AcDbPolyline
 90
        4
 70
     1
 43
0.0
 10
70.22286861463363
 20
356.8327965920748
 10
73.52286861462926
 20
356.8327965920748
 10
73.52286861462926
 20
360.3327965920748
 10
70.22286861463363
 20
360.3327965920748
  0
ARC
  5
262
330
2
100
AcDbEntity
  8
0
 48
0.6
100
AcDbCircle
 10
76.44289954458599
 20
298.4544124220083
 30
0.0
 40
33.74764799999999
100
AcDbArc
 50
162.2801918472015
 51
197.7198081527984
  0
ARC
  5
263
330
2
100
AcDbEntity
  8
0
 48
0.6
100
AcDbCircle
 10
41.37395204130098
 20
287.2491233819451
 30
0.0
 40
3.067967999999998
100
AcDbArc
 50
321.9486744806221
 51
17.71980815279839
  0
ARC
  5
264
330
2
100
AcDbEntity
  8
0
 48
0.6
100
AcDbCircle
 10
46.20574962851242
 20
283.4671341339053
 30
0.0
 40
3.067967999999998
100
AcDbArc
 50
141.9486744806222
 51
206.3656725032168
  0
ARC
  5
265
330
2
100
AcDbEntity
  8
0
 48
0.6
100
AcDbCircle
 10
76.44289954458599
 20
298.4544124220083
 30
0.0
 40
36.81561599999999
100
AcDbArc
 50
116.3656725032109
 51
153.634327496783
  0
ARC
  5
266
330
2
100
AcDbEntity
  8
0
 48
0.6
100
AcDbCircle
 10
41.37395204130098
 20
309.659701462072
 30
0.0
 40
3.067967999999998
100
AcDbArc
 50
342.2801918472014
 51
38.05132551937779
  0
ARC
  5
267
330
2
100
AcDbEntity
  8
0
 48
0.6
100
AcDbCircle
 10
46.20574962851242
 20
313.4416907101122
 30
0.0
 40
3.067967999999998
100
AcDbArc
 50
153.634327496783
 51
218.0513255193776
  0
ARC
  5
268
330
2
100
AcDbEntity
  8
0
 48
0.6
100
AcDbCircle
 10
61.45562125647848
 20
328.6915623380782
 30
0.0
 40
3.067967999999998
100
AcDbArc
 50
51.94867448061305
 51
116.3656725032109
  0
ARC
  5
269
330
2
100
AcDbEntity
  8
0
 48
0.6
100
AcDbCircle
 10
65.23761050451958
 20
333.5233599252919
 30
0.0
 40
3.067967999999998
100
AcDbArc
 50
231.948674480613
 51
287.7198081528051
  0
LINE
  5
26A
330
2
100
AcDbEntity
  8
0
100
AcDbLine
 10
325.8693581623192
 20
325.8583370237693
 30
0.0
 11
325.8693581623192
 21
260.9544124220083
 31
0.0
  0
ARC
  5
26B
330
2
100
AcDbEntity
  8
0
100
AcDbCircle
 10
318.8693581623192
 20
335.9544124220083
 30
0.0
 40
7.0
100
AcDbArc
 50
359.9999999999998
 51
90.0000000000001
  0
LINE
  5
26C
330
2
100
AcDbEntity
  8
0
100
AcDbLine
 10
294.111097278319
 20
343.843347807654
 30
0.0
 11
294.111097278319
 21
342.9544124220083
 31
0.0
  0
ARC
  5
26D
330
2
100
AcDbEntity
  8
0
100
AcDbCircle
 10
290.6777778058021
 20
343.843347807654
 30
0.0
 40
1.0
100
AcDbArc
 50
89.99999999999991
 51
179.9999999999998
  0
LINE
  5
26E
330
2
100
AcDbEntity
  8
0
100
AcDbLine
 10
289.6777778058021
 20
342.9544124220083
 30
0.0
 11
289.6777778058021
 21
343.843347807654
 31
0.0
  0
LINE
  5
26F
330
2
100
AcDbEntity
  8
0
100
AcDbLine
 10
290.6777778058021
 20
344.8433478076553
 30
0.0
 11
293.1110972783208
 21
344.8433478076553
 31
0.0
  0
ARC
  5
270
330
2
100
AcDbEntity
  8
0
100
AcDbCircle
 10
293.1110972783208
 20
343.843347807654
 30
0.0
 40
1.0
100
AcDbArc
 50
359.9999999999998
 51
90.00000000000005
  0
LINE
  5
271
330
2
100
AcDbEntity
  8
0
100
AcDbLine
 10
325.8693581623192
 20
311.8583370237693
 30
0.0
 11
325.8693581623192
 21
285.0504878202482
 31
0.0
  0
LINE
  5
272
330
2
100
AcDbEntity
  8
0
100
AcDbLine
 10
290.9423924560651
 20
299.3076160356722
 30
0.0
 11
292.6487996833948
 21
297.6012088083434
 31
0.0
  0
LINE
  5
273
330
2
100
AcDbEntity
  8
0
100
AcDbLine
 10
292.6524384794793
 20
299.3076160356722
 30
0.0
 11
290.9460312521478
 21
297.6012088083434
 31
0.0
  0
CIRCLE
  5
274
330
2
100
AcDbEntity
  8
0
100
AcDbCircle
 10
291.7974154677722
 20
298.4525930239651
 30
0.0
 40
2.147836038934201
  0
LINE
  5
275
330
2
100
AcDbEntity
  8
0
100
AcDbLine
 10
325.8693581623192
 20
335.9544124220083
 30
0.0
 11
325.8693581623192
 21
325.3583370237693
 31
0.0
  0
ARC
  5
276
330
2
100
AcDbEntity
  8
0
 48
0.6
100
AcDbCircle
 10
76.44289954458599
 20
298.4544124220083
 30
0.0
 40
36.81561599999999
100
AcDbArc
 50
296.3656725032108
 51
333.6343274967831
  0
LINE
  5
277
330
2
100
AcDbEntity
  8
0
100
AcDbLine
 10
184.4693581623177
 20
262.5556750804789
 30
0.0
 11
185.3693581623201
 21
262.5556750804789
 31
0.0
  0
ARC
  5
278
330
2
100
AcDbEntity
  8
0
 48
0.6
100
AcDbCircle
 10
87.64818858464423
 20
263.3854649187255
 30
0.0
 40
3.067967999999998
100
AcDbArc
 50
51.94867448061305
 51
107.719808152805
  0
ARC
  5
279
330
2
100
AcDbEntity
  8
0
 48
0.6
100
AcDbCircle
 10
91.43017783268533
 20
268.2172625059393
 30
0.0
 40
3.067967999999998
100
AcDbArc
 50
231.948674480613
 51
296.3656725032108
  0
LINE
  5
27A
330
2
100
AcDbEntity
  8
0
100
AcDbLine
 10
160.8693581623201
 20
294.2194124220072
 30
0.0
 11
175.8693581623183
 21
294.2194124220072
 31
0.0
  0
LINE
  5
27B
330
2
100
AcDbEntity
  8
0
100
AcDbLine
 10
160.8693581623201
 20
302.6894124220088
 30
0.0
 11
175.8693581623183
 21
302.6894124220088
 31
0.0
  0
ARC
  5
27C
330
2
100
AcDbEntity
  8
0
100
AcDbCircle
 10
170.9125450731526
 20
328.6056433110284
 30
0.0
 40
26.81626566475105
100
AcDbArc
 50
269.907726570802
 51
280.6520097393286
  0
ARC
  5
27D
330
2
100
AcDbEntity
  8
0
100
AcDbCircle
 10
170.9125450731471
 20
268.3031815329582
 30
0.0
 40
26.81626566478071
100
AcDbArc
 50
79.34799026067249
 51
90.09227342919791
  0
LINE
  5
27E
330
2
100
AcDbEntity
  8
0
100
AcDbLine
 10
164.8693581623201
 20
294.2194124220072
 30
0.0
 11
175.8693581623183
 21
294.2194124220072
 31
0.0
  0
LINE
  5
27F
330
2
100
AcDbEntity
  8
0
100
AcDbLine
 10
164.8693581623201
 20
302.6894124220088
 30
0.0
 11
175.8693581623183
 21
302.6894124220088
 31
0.0
  0
LINE
  5
280
330
2
100
AcDbEntity
  8
CEN
100
AcDbLine
 10
157.9505463506357
 20
302.178912422009
 30
0.0
 11
178.8693581623183
 21
302.178912422009
 31
0.0
  0
LINE
  5
281
330
2
100
AcDbEntity
  8
CEN
100
AcDbLine
 10
157.9505463506357
 20
294.7299124220084
 30
0.0
 11
178.8693581623183
 21
294.7299124220084
 31
0.0
  0
LINE
  5
282
330
2
100
AcDbEntity
  8
2
100
AcDbLine
 10
160.8693581623201
 20
302.6894124220088
 30
0.0
 11
160.8693581623201
 21
294.2194124220072
 31
0.0
  0
LINE
  5
284
330
2
100
AcDbEntity
  8
0
100
AcDbLine
 10
159.869358162321
 20
295.2194124220086
 30
0.0
 11
160.8693581623201
 21
294.2194124220072
 31
0.0
  0
LINE
  5
285
330
2
100
AcDbEntity
  8
0
100
AcDbLine
 10
159.869358162321
 20
301.6894124220089
 30
0.0
 11
160.8693581623201
 21
302.6894124220088
 31
0.0
  0
LINE
  5
286
330
2
100
AcDbEntity
  8
2
100
AcDbLine
 10
170.8693581623201
 20
301.0745017990188
 30
0.0
 11
160.8693581623201
 21
295.7821243314492
 31
0.0
  0
LINE
  5
287
330
2
100
AcDbEntity
  8
0
100
AcDbLine
 10
159.869358162321
 20
301.6894124220089
 30
0.0
 11
159.869358162321
 21
295.2194124220086
 31
0.0
  0
LINE
  5
288
330
2
100
AcDbEntity
  8
2
100
AcDbLine
 10
170.8693581620718
 20
301.7894124220069
 30
0.0
 11
170.8693581621555
 21
295.1194124220082
 31
0.0
  0
LINE
  5
289
330
2
100
AcDbEntity
  8
2
100
AcDbLine
 10
170.8693581623201
 20
299.9093123063603
 30
0.0
 11
161.6811337636972
 21
295.1194124220082
 31
0.0
  0
LINE
  5
28A
330
2
100
AcDbEntity
  8
0
100
AcDbLine
 10
159.9693581623187
 20
295.1194124220082
 30
0.0
 11
170.8693581623201
 21
295.1194124220082
 31
0.0
  0
LINE
  5
28B
330
2
100
AcDbEntity
  8
2
100
AcDbLine
 10
170.3475058949079
 20
301.7894124220101
 30
0.0
 11
160.8693581623201
 21
297.0012276702841
 31
0.0
  0
LINE
  5
28C
330
2
100
AcDbEntity
  8
0
100
AcDbLine
 10
159.9693581623196
 20
301.7894124220101
 30
0.0
 11
170.8693581623201
 21
301.7894124220101
 31
0.0
  0
LINE
  5
28D
102
{ACAD_REACTORS
330
292
102
}
330
2
100
AcDbEntity
  8
0
100
AcDbLine
 10
184.4693581623177
 20
342.0531497635379
 30
0.0
 11
185.3693581623201
 21
342.0531497635379
 31
0.0
  0
LINE
  5
28E
330
2
100
AcDbEntity
  8
0
100
AcDbLine
 10
184.4693581623177
 20
334.3531497635381
 30
0.0
 11
185.3693581623201
 21
334.3531497635381
 31
0.0
  0
LINE
  5
28F
330
2
100
AcDbEntity
  8
0
100
AcDbLine
 10
185.3693581623201
 20
334.3531497635381
 30
0.0
 11
185.3693581623201
 21
342.0531497635379
 31
0.0
  0
DIMENSION
  5
290
102
{ACAD_XDICTIONARY
360
291
102
}
102
{ACAD_REACTORS
330
292
102
}
330
2
100
AcDbEntity
  8
0
100
AcDbDimension
  2
*D39
 10
185.3693581623201
 20
355.4861571805508
 30
0.0
 11
181.6193581623192
 21
355.4861571805508
 31
0.0
 70
   160
  3
STANDARD
100
AcDbAlignedDimension
 13
177.8693581623183
 23
343.4544124220092
 33
0.0
 14
185.3693581623201
 24
342.0531497635379
 34
0.0
100
AcDbRotatedDimension
  0
LINE
  5
29F
330
2
100
AcDbEntity
  8
0
100
AcDbLine
 10
177.8693581623183
 20
343.9544124220092
 30
0.0
 11
184.4693581623177
 21
343.9544124220092
 31
0.0
  0
LINE
  5
2A0
330
2
100
AcDbEntity
  8
0
100
AcDbLine
 10
177.8693581623183
 20
339.9544124220083
 30
0.0
 11
175.8693581623183
 21
339.9544124220083
 31
0.0
  0
DIMENSION
  5
2A1
330
2
100
AcDbEntity
  8
0
100
AcDbDimension
  2
*D38
 10
177.8693581623183
 20
355.4861571805508
 30
0.0
 11
166.8693581623174
 21
355.4861571805508
 31
0.0
 70
   160
  3
STANDARD
100
AcDbAlignedDimension
 13
175.8693581623183
 23
339.9544124220083
 33
0.0
 14
177.8693581623183
 24
343.4544124220092
 34
0.0
100
AcDbRotatedDimension
  0
DIMENSION
  5
2B0
330
2
100
AcDbEntity
  8
0
100
AcDbDimension
  2
*D37
 10
177.8693581623183
 20
369.3139642258056
 30
0.0
 11
168.9193581623185
 21
369.3139642258056
 31
0.0
 70
   160
  3
STANDARD
100
AcDbAlignedDimension
 13
159.869358162321
 23
301.6894124220089
 33
0.0
 14
177.8693581623183
 24
343.4544124220092
 34
0.0
100
AcDbRotatedDimension
  0
ARC
  5
2BD
330
2
100
AcDbEntity
  8
0
 48
0.6
100
AcDbCircle
 10
76.44289954458599
 20
298.4544124220083
 30
0.0
 40
33.74764799999999
100
AcDbArc
 50
342.2801918472014
 51
17.71980815279839
  0
ARC
  5
2BE
330
2
100
AcDbEntity
  8
0
 48
0.6
100
AcDbCircle
 10
111.5118470478701
 20
287.2491233819451
 30
0.0
 40
3.067967999999998
100
AcDbArc
 50
162.2801918472015
 51
218.0513255193776
  0
ARC
  5
2BF
330
2
100
AcDbEntity
  8
0
 48
0.6
100
AcDbCircle
 10
106.6800494606513
 20
283.4671341339053
 30
0.0
 40
3.067967999999998
100
AcDbArc
 50
333.6343274967831
 51
38.05132551937779
  0
ARC
  5
2C0
330
2
100
AcDbEntity
  8
0
 48
0.6
100
AcDbCircle
 10
76.44289954458599
 20
298.4544124220083
 30
0.0
 40
36.81561599999999
100
AcDbArc
 50
26.36567250321681
 51
63.63432749678904
  0
ARC
  5
2C1
330
2
100
AcDbEntity
  8
0
 48
0.6
100
AcDbCircle
 10
111.5118470478701
 20
309.659701462072
 30
0.0
 40
3.067967999999998
100
AcDbArc
 50
141.9486744806222
 51
197.7198081527984
  0
ARC
  5
2C2
330
2
100
AcDbEntity
  8
0
 48
0.6
100
AcDbCircle
 10
106.6800494606513
 20
313.4416907101122
 30
0.0
 40
3.067967999999998
100
AcDbArc
 50
321.9486744806221
 51
26.36567250321681
  0
ARC
  5
2C3
330
2
100
AcDbEntity
  8
0
 48
0.6
100
AcDbCircle
 10
87.64818858464423
 20
333.5233599252919
 30
0.0
 40
3.067967999999998
100
AcDbArc
 50
252.2801918471949
 51
308.0513255193868
  0
ARC
  5
2C4
330
2
100
AcDbEntity
  8
0
 48
0.6
100
AcDbCircle
 10
91.43017783268533
 20
328.6915623380782
 30
0.0
 40
3.067967999999998
100
AcDbArc
 50
63.63432749678904
 51
128.0513255193868
  0
DIMENSION
  5
2C5
330
2
100
AcDbEntity
  8
0
100
AcDbDimension
  2
*D36
 10
325.8693581623192
 20
369.3139642258056
 30
0.0
 11
245.3693581623192
 21
369.3139642258056
 31
0.0
 70
   160
  1
<>
  3
STANDARD
100
AcDbAlignedDimension
 13
177.8693581623183
 23
358.5544124220082
 33
0.0
 14
325.8693581623192
 24
337.4544124220083
 34
0.0
100
AcDbRotatedDimension
  0
LINE
  5
2D2
330
2
100
AcDbEntity
  8
0
100
AcDbLine
 10
318.8693581623192
 20
342.9544124220083
 30
0.0
 11
184.4693581623177
 21
342.9544124220083
 31
0.0
  0
LINE
  5
2D3
330
2
100
AcDbEntity
  8
CEN
100
AcDbLine
 10
154.0652226072134
 20
298.4544124220083
 30
0.0
 11
330.6285180678823
 21
298.4544124220083
 31
0.0
  0
ENDSEC
  0
SECTION
  2
OBJECTS
  0
DICTIONARY
  5
9
330
0
100
AcDbDictionary
  3
ACAD_GROUP
350
98
  3
ACAD_LAYOUT
350
D
  3
ACAD_MLINESTYLE
350
99
  3
ACAD_PLOTSETTINGS
350
9A
  3
ACAD_PLOTSTYLENAME
350
8
  3
ACDBHEADERROUNDTRIPXREC
350
3C9
  3
ACDBVARIABLEDICTIONARY
350
2D4
  0
DICTIONARY
  5
15
330
14
100
AcDbDictionary
280
     1
  3
ACAD_LAYERFILTERS
360
16
  3
ACAD_LAYERSTATES
360
89
  0
DICTIONARY
  5
3
330
2
100
AcDbDictionary
280
     1
  3
ACAD_LAYOUTSELFREF
360
3EA
  0
DICTIONARY
  5
F
330
E
100
AcDbDictionary
280
     1
  3
ACAD_LAYOUTSELFREF
360
3EB
  0
DICTIONARY
  5
C1
330
C0
100
AcDbDictionary
280
     1
  3
ACAD_DIMASSOC
360
C2
  0
DICTIONARY
  5
DC
330
DB
100
AcDbDictionary
280
     1
  3
ACAD_DIMASSOC
360
DD
  0
DICTIONARY
  5
FA
330
F9
100
AcDbDictionary
280
     1
  3
ACAD_DIMASSOC
360
FB
  0
DICTIONARY
  5
109
330
108
100
AcDbDictionary
280
     1
  3
ACAD_DIMASSOC
360
10A
  0
DICTIONARY
  5
18F
330
18E
100
AcDbDictionary
280
     1
  3
ACAD_DIMASSOC
360
190
  0
DICTIONARY
  5
1D1
330
1D0
100
AcDbDictionary
280
     1
  3
ACAD_DIMASSOC
360
1D2
  0
DICTIONARY
  5
1FA
330
1F9
100
AcDbDictionary
280
     1
  3
ACAD_DIMASSOC
360
1FB
  0
DICTIONARY
  5
291
330
290
100
AcDbDictionary
280
     1
  3
ACAD_DIMASSOC
360
292
  0
DICTIONARY
  5
98
102
{ACAD_REACTORS
330
9
102
}
330
9
100
AcDbDictionary
  0
DICTIONARY
  5
D
102
{ACAD_REACTORS
330
9
102
}
330
9
100
AcDbDictionary
  0
DICTIONARY
  5
99
102
{ACAD_REACTORS
330
9
102
}
330
9
100
AcDbDictionary
  3
STANDARD
350
9B
  0
DICTIONARY
  5
9A
102
{ACAD_REACTORS
330
9
102
}
330
9
100
AcDbDictionary
  0
ACDBDICTIONARYWDFLT
  5
8
102
{ACAD_REACTORS
330
9
102
}
330
9
100
AcDbDictionary
281
     1
  3
Normal
350
7
100
AcDbDictionaryWithDefault
340
7
  0
DICTIONARY
  5
3C9
102
{ACAD_REACTORS
330
9
102
}
330
9
100
AcDbDictionary
  3
CEPSNTYPE
350
3D3
  3
DIMSTYLEDATA
350
3D7
  3
FINGERPRINTGUID
350
3D4
  3
HYPERLINKBASE
350
3CC
  3
INSUNITS
350
3D2
  3
LAYOUTDICT
350
3CE
  3
LWETCUNION
350
3D1
  3
PLOTSETDICT
350
3CF
  3
PLOTSTYLNAMDICT
350
3D0
  3
PSVPSCALE
350
3D6
  3
PUCSBASE
350
3DA
  3
PUCSORGBACK
350
3E0
  3
PUCSORGBOTTOM
350
3DC
  3
PUCSORGFRONT
350
3DF
  3
PUCSORGLEFT
350
3DD
  3
PUCSORGRIGHT
350
3DE
  3
PUCSORGTOP
350
3DB
  3
PUCSORTHOREF
350
3D8
  3
PUCSORTHOVIEW
350
3D9
  3
STYLESHEET
350
3CD
  3
TSTACKALIGN
350
3CA
  3
TSTACKSIZE
350
3CB
  3
UCSBASE
350
3E3
  3
UCSORGBACK
350
3E9
  3
UCSORGBOTTOM
350
3E5
  3
UCSORGFRONT
350
3E8
  3
UCSORGLEFT
350
3E6
  3
UCSORGRIGHT
350
3E7
  3
UCSORGTOP
350
3E4
  3
UCSORTHOREF
350
3E1
  3
UCSORTHOVIEW
350
3E2
  3
VERSIONGUID
350
3D5
  0
DICTIONARY
  5
2D4
102
{ACAD_REACTORS
330
9
102
}
330
9
100
AcDbDictionary
  3
DIMASSOC
350
2D6
  3
HIDETEXT
350
2D5
  0
DICTIONARY
  5
16
102
{ACAD_REACTORS
330
15
102
}
330
15
100
AcDbDictionary
280
     1
  3
$LAYERS
360
17
  3
-_UND_0
360
18
  3
-PEGC
360
19
  3
101
360
1A
  3
102
360
1B
  3
1DUC
360
1C
  3
1EQ
360
1D
  3
1TUB
360
1E
  3
2
360
1F
  3
2000
360
20
  3
50
360
21
  3
58J
360
22
  3
65
360
23
  3
AA
360
24
  3
ACABADOS
360
25
  3
AGUA_Y_DREN
360
26
  3
AIRE
360
27
  3
ALLE_AUS
360
28
  3
ALLES_MIT_S
360
29
  3
AMARILLO
360
2A
  3
APAGADOS
360
2B
  3
ARR
360
2C
  3
BA
360
2D
  3
BACKS
360
2E
  3
BASE
360
2F
  3
BLOQ_INUTIL
360
30
  3
CADKON
360
31
  3
CARPINTERIA
360
32
  3
CERRADOS
360
33
  3
COL
360
34
  3
COLOR
360
35
  3
COLOR_250
360
36
  3
COLORES
360
37
  3
CONGELADOS
360
38
  3
CONJUNTO
360
39
  3
D1
360
3A
  3
DA_
360
3B
  3
DET-
360
3C
  3
DOR-H
360
3D
  3
EJES
360
3E
  3
ELECTRICO
360
3F
  3
F1
360
40
  3
FROZEN
360
41
  3
GRID
360
42
  3
GRIDTXT
360
43
  3
HATCH
360
44
  3
HCAD
360
45
  3
INSTALACIONES
360
46
  3
JIZNI
360
47
  3
KCK
360
48
  3
KKK
360
49
  3
LAY
360
4A
  3
LAYER-0
360
4E
  3
LAYER-1
360
4F
  3
LAYER_1_UND_0
360
4B
  3
LAYER_2_UND_0
360
4C
  3
LAYER_9_UND_0_SCHRAFFUR
360
4D
  3
LOCK
360
50
  3
LOCKED
360
51
  3
LOTES
360
52
  3
LUNAR
360
53
  3
LUNAR2
360
54
  3
M
360
55
  3
MIS_LAYERS
360
56
  3
MRKCK
360
57
  3
NECADKON
360
58
  3
NI_LH
360
59
  3
NI_RH
360
5A
  3
NUM
360
5B
  3
OFF
360
5C
  3
ON
360
5D
  3
PBASE
360
5E
  3
PEGC
360
5F
  3
PEGCT
360
60
  3
PFRAME
360
61
  3
PGRID
360
62
  3
PGRIDT
360
63
  3
PLAFONES
360
64
  3
PLANTAS
360
65
  3
PLOT
360
66
  3
PRENDIDAS
360
67
  3
PRENDIDOS
360
68
  3
PRINT
360
69
  3
PT
360
6A
  3
PTH
360
6B
  3
PVGRID
360
6C
  3
RED_DE_AGUA_POTABLE
360
6D
  3
RED_DE_ENERGIA_ELECTRICA
360
6E
  3
SEVERNI
360
6F
  3
SHIN
360
70
  3
SHOW_ALL_LAYER
360
71
  3
SIN
360
72
  3
STORAGE-CART
360
73
  3
T
360
74
  3
TEXTOS
360
75
  3
TEXTURAS
360
76
  3
TUBERIAS
360
77
  3
UNFRZ
360
78
  3
V\U+0160ECHNY_NEPOU\U+017D\U+00CDVAN\U+00C9
360
79
  3
VA
360
7A
  3
VENTILACI\U+00D3N
360
7B
  3
VYHODNI
360
7C
  3
YO
360
7D
  3
ZAPADNI
360
7E
  3
사용
360
7F
  3
신규
360
80
  3
실박스
360
81
  3
우리토목
360
82
  3
주차
360
83
  3
지상정밀
360
84
  3
쩜선
360
85
  3
플로터_작업층
360
86
  3
현재_작업층
360
87
  3
현재_잠금
360
88
  0
DICTIONARY
  5
89
102
{ACAD_REACTORS
330
15
102
}
330
15
100
AcDbDictionary
  0
XRECORD
  5
3EA
102
{ACAD_REACTORS
330
3
102
}
330
3
100
AcDbXrecord
340
2
  0
XRECORD
  5
3EB
102
{ACAD_REACTORS
330
F
102
}
330
F
100
AcDbXrecord
340
E
  0
DIMASSOC
  5
C2
102
{ACAD_REACTORS
330
C1
102
}
330
C1
100
AcDbDimAssoc
330
C0
 90
        2
 70
     0
 71
     0
  1
AcDbOsnapPointRef
 72
     3
331
BF
 73
     2
 91
        0
 40
0.0
 10
0.0
 20
0.0
 30
0.0
 75
     0
  0
DIMASSOC
  5
DD
102
{ACAD_REACTORS
330
DC
102
}
330
DC
100
AcDbDimAssoc
330
DB
 90
        3
 70
     0
 71
     0
  1
AcDbOsnapPointRef
 72
     1
331
167
 73
     2
 91
        0
 40
1.0
 10
153.3486803402365
 20
75.0330727005562
 30
0.0
 75
     0
  1
AcDbOsnapPointRef
 72
     1
331
215
 73
     2
 91
        0
 40
1.0
 10
153.3486803402365
 20
84.0330727005571
 30
0.0
 75
     0
  0
DIMASSOC
  5
FB
102
{ACAD_REACTORS
330
FA
102
}
330
FA
100
AcDbDimAssoc
330
F9
 90
        3
 70
     0
 71
     0
  1
AcDbOsnapPointRef
 72
     1
331
167
 73
     2
 91
        0
 40
1.0
 10
153.3486803402365
 20
75.0330727005562
 30
0.0
 75
     0
  1
AcDbOsnapPointRef
 72
     1
331
1CC
 73
     2
 91
        0
 40
1.0
 10
183.3486803402347
 20
85.03307270055712
 30
0.0
 75
     0
  0
DIMASSOC
  5
10A
102
{ACAD_REACTORS
330
109
102
}
330
109
100
AcDbDimAssoc
330
108
 90
       12
 70
     0
 71
     0
  1
AcDbOsnapPointRef
 72
    13
331
B4
 73
     2
 91
        0
 40
0.0
 10
47.97621439481463
 20
26.40292793680419
 30
0.0
 75
     0
  1
AcDbOsnapPointRef
 72
     1
331
B4
 73
     2
 91
        0
 40
0.9999999999999998
 10
47.97621439481463
 20
133.6632174643086
 30
0.0
 75
     0
  0
DIMASSOC
  5
190
102
{ACAD_REACTORS
330
18F
102
}
330
18F
100
AcDbDimAssoc
330
18E
 90
       12
 70
     0
 71
     0
  1
AcDbOsnapPointRef
 72
    13
331
189
 73
     2
 91
        0
 40
0.0
 10
76.51836385876322
 20
244.8242676582558
 30
0.0
 75
     0
  1
AcDbOsnapPointRef
 72
     1
331
189
 73
     2
 91
        0
 40
0.9999999999999998
 10
76.51836385876322
 20
352.0845571857607
 30
0.0
 75
     0
  0
DIMASSOC
  5
1D2
102
{ACAD_REACTORS
330
1D1
102
}
330
1D1
100
AcDbDimAssoc
330
1D0
 90
        3
 70
     0
 71
     0
  1
AcDbOsnapPointRef
 72
    13
331
9F
 73
     2
 91
        0
 40
0.0
 10
190.3486803402347
 20
125.0330727005571
 30
0.0
 75
     0
  1
AcDbOsnapPointRef
 72
     1
331
1CD
 73
     2
 91
        0
 40
1.0
 10
197.8486803402347
 20
123.6318100420858
 30
0.0
 75
     0
  0
DIMASSOC
  5
1FB
102
{ACAD_REACTORS
330
1FA
102
}
330
1FA
100
AcDbDimAssoc
330
1F9
 90
        3
 70
     0
 71
     0
  1
AcDbOsnapPointRef
 72
     1
331
215
 73
     2
 91
        0
 40
1.0
 10
153.3486803402365
 20
84.0330727005571
 30
0.0
 75
     0
  1
AcDbOsnapPointRef
 72
     1
331
1CC
 73
     2
 91
        0
 40
1.0
 10
183.3486803402347
 20
85.03307270055712
 30
0.0
 75
     0
  0
DIMASSOC
  5
292
102
{ACAD_REACTORS
330
291
102
}
330
291
100
AcDbDimAssoc
330
290
 90
        3
 70
     0
 71
     0
  1
AcDbOsnapPointRef
 72
    13
331
179
 73
     2
 91
        0
 40
0.0
 10
177.8693581623183
 20
343.4544124220092
 30
0.0
 75
     0
  1
AcDbOsnapPointRef
 72
     1
331
28D
 73
     2
 91
        0
 40
1.0
 10
185.3693581623201
 20
342.0531497635379
 30
0.0
 75
     0
  0
MLINESTYLE
  5
9B
102
{ACAD_REACTORS
330
99
102
}
330
99
100
AcDbMlineStyle
  2
STANDARD
 70
     0
  3

 62
   256
 51
90.0
 52
90.0
 71
     2
 49
0.5
 62
   256
  6
BYLAYER
 49
-0.5
 62
   256
  6
BYLAYER
  0
ACDBPLACEHOLDER
  5
7
102
{ACAD_REACTORS
330
8
102
}
330
8
100
AcDbPlaceHolder
280
     0
  0
XRECORD
  5
3D3
102
{ACAD_REACTORS
330
3C9
102
}
330
3C9
100
AcDbXrecord
 90
        0
  0
XRECORD
  5
3D7
102
{ACAD_REACTORS
330
3C9
102
}
330
3C9
100
AcDbXrecord
1000
DSTYLE
1002
{
1070
    79
 70
     2
1070
   179
 70
     1
1070
   289
 70
     0
1002
}
  0
XRECORD
  5
3D4
102
{ACAD_REACTORS
330
3C9
102
}
330
3C9
100
AcDbXrecord
  1
{FDEAD578-A652-11D2-9A35-0060089B3A3F}
  0
XRECORD
  5
3CC
102
{ACAD_REACTORS
330
3C9
102
}
330
3C9
100
AcDbXrecord
  1

  0
XRECORD
  5
3D2
102
{ACAD_REACTORS
330
3C9
102
}
330
3C9
100
AcDbXrecord
 90
        4
  0
XRECORD
  5
3CE
102
{ACAD_REACTORS
330
3C9
102
}
330
3C9
100
AcDbXrecord
340
D
  0
XRECORD
  5
3D1
102
{ACAD_REACTORS
330
3C9
102
}
330
3C9
100
AcDbXrecord
 90
    10781
  0
XRECORD
  5
3CF
102
{ACAD_REACTORS
330
3C9
102
}
330
3C9
100
AcDbXrecord
340
9A
  0
XRECORD
  5
3D0
102
{ACAD_REACTORS
330
3C9
102
}
330
3C9
100
AcDbXrecord
340
8
  0
XRECORD
  5
3D6
102
{ACAD_REACTORS
330
3C9
102
}
330
3C9
100
AcDbXrecord
 40
0.0
  0
XRECORD
  5
3DA
102
{ACAD_REACTORS
330
3C9
102
}
330
3C9
100
AcDbXrecord
340
0
  0
XRECORD
  5
3E0
102
{ACAD_REACTORS
330
3C9
102
}
330
3C9
100
AcDbXrecord
 10
0.0
 20
0.0
 30
0.0
  0
XRECORD
  5
3DC
102
{ACAD_REACTORS
330
3C9
102
}
330
3C9
100
AcDbXrecord
 10
0.0
 20
0.0
 30
0.0
  0
XRECORD
  5
3DF
102
{ACAD_REACTORS
330
3C9
102
}
330
3C9
100
AcDbXrecord
 10
0.0
 20
0.0
 30
0.0
  0
XRECORD
  5
3DD
102
{ACAD_REACTORS
330
3C9
102
}
330
3C9
100
AcDbXrecord
 10
0.0
 20
0.0
 30
0.0
  0
XRECORD
  5
3DE
102
{ACAD_REACTORS
330
3C9
102
}
330
3C9
100
AcDbXrecord
 10
0.0
 20
0.0
 30
0.0
  0
XRECORD
  5
3DB
102
{ACAD_REACTORS
330
3C9
102
}
330
3C9
100
AcDbXrecord
 10
0.0
 20
0.0
 30
0.0
  0
XRECORD
  5
3D8
102
{ACAD_REACTORS
330
3C9
102
}
330
3C9
100
AcDbXrecord
340
0
  0
XRECORD
  5
3D9
102
{ACAD_REACTORS
330
3C9
102
}
330
3C9
100
AcDbXrecord
 70
     0
  0
XRECORD
  5
3CD
102
{ACAD_REACTORS
330
3C9
102
}
330
3C9
100
AcDbXrecord
  1

  0
XRECORD
  5
3CA
102
{ACAD_REACTORS
330
3C9
102
}
330
3C9
100
AcDbXrecord
 90
        1
  0
XRECORD
  5
3CB
102
{ACAD_REACTORS
330
3C9
102
}
330
3C9
100
AcDbXrecord
 90
       70
  0
XRECORD
  5
3E3
102
{ACAD_REACTORS
330
3C9
102
}
330
3C9
100
AcDbXrecord
340
0
  0
XRECORD
  5
3E9
102
{ACAD_REACTORS
330
3C9
102
}
330
3C9
100
AcDbXrecord
 10
0.0
 20
0.0
 30
0.0
  0
XRECORD
  5
3E5
102
{ACAD_REACTORS
330
3C9
102
}
330
3C9
100
AcDbXrecord
 10
0.0
 20
0.0
 30
0.0
  0
XRECORD
  5
3E8
102
{ACAD_REACTORS
330
3C9
102
}
330
3C9
100
AcDbXrecord
 10
0.0
 20
0.0
 30
0.0
  0
XRECORD
  5
3E6
102
{ACAD_REACTORS
330
3C9
102
}
330
3C9
100
AcDbXrecord
 10
0.0
 20
0.0
 30
0.0
  0
XRECORD
  5
3E7
102
{ACAD_REACTORS
330
3C9
102
}
330
3C9
100
AcDbXrecord
 10
0.0
 20
0.0
 30
0.0
  0
XRECORD
  5
3E4
102
{ACAD_REACTORS
330
3C9
102
}
330
3C9
100
AcDbXrecord
 10
0.0
 20
0.0
 30
0.0
  0
XRECORD
  5
3E1
102
{ACAD_REACTORS
330
3C9
102
}
330
3C9
100
AcDbXrecord
340
0
  0
XRECORD
  5
3E2
102
{ACAD_REACTORS
330
3C9
102
}
330
3C9
100
AcDbXrecord
 70
     0
  0
XRECORD
  5
3D5
102
{ACAD_REACTORS
330
3C9
102
}
330
3C9
100
AcDbXrecord
  1
{8E5FB359-A3B2-447A-8DEB-030ABDE42F95}
  0
DICTIONARYVAR
  5
2D6
102
{ACAD_REACTORS
330
2D4
102
}
330
2D4
100
DictionaryVariables
280
     0
  1
2
  0
DICTIONARYVAR
  5
2D5
102
{ACAD_REACTORS
330
2D4
102
}
330
2D4
100
DictionaryVariables
280
     0
  1
1
  0
XRECORD
  5
17
102
{ACAD_REACTORS
330
16
102
}
330
16
100
AcDbXrecord
  1
$layers
  1
*
  1
*
  1
*
 70
     0
  1
*
  1
*
  0
XRECORD
  5
18
102
{ACAD_REACTORS
330
16
102
}
330
16
100
AcDbXrecord
  1
- und 0
  1
-*,0
  1
*
  1
*
 70
     0
  1
*
  1
*
  0
XRECORD
  5
19
102
{ACAD_REACTORS
330
16
102
}
330
16
100
AcDbXrecord
  1
-pegc
  1
*-pegc
  1
*
  1
*
 70
     0
  1
*
  1
*
  0
XRECORD
  5
1A
102
{ACAD_REACTORS
330
16
102
}
330
16
100
AcDbXrecord
  1
101
  1
*101
  1
*
  1
*
 70
   256
  1
*
  1
*
  0
XRECORD
  5
1B
102
{ACAD_REACTORS
330
16
102
}
330
16
100
AcDbXrecord
  1
102
  1
102*
  1
*
  1
*
 70
     0
  1
*
  1
*
  0
XRECORD
  5
1C
102
{ACAD_REACTORS
330
16
102
}
330
16
100
AcDbXrecord
  1
1duc
  1
*1duc*
  1
*
  1
*
 70
     0
  1
*
  1
*
  0
XRECORD
  5
1D
102
{ACAD_REACTORS
330
16
102
}
330
16
100
AcDbXrecord
  1
1eq
  1
*1eq*
  1
*
  1
*
 70
     0
  1
*
  1
*
  0
XRECORD
  5
1E
102
{ACAD_REACTORS
330
16
102
}
330
16
100
AcDbXrecord
  1
1tub
  1
*1t*
  1
*
  1
*
 70
     0
  1
*
  1
*
  0
XRECORD
  5
1F
102
{ACAD_REACTORS
330
16
102
}
330
16
100
AcDbXrecord
  1
2
  1
*
  1
2
  1
*
 70
     0
  1
*
  1
*
  0
XRECORD
  5
20
102
{ACAD_REACTORS
330
16
102
}
330
16
100
AcDbXrecord
  1
2000
  1
2000*
  1
*
  1
*
 70
     0
  1
*
  1
*
  0
XRECORD
  5
21
102
{ACAD_REACTORS
330
16
102
}
330
16
100
AcDbXrecord
  1
50
  1
*-50
  1
*
  1
*
 70
     0
  1
*
  1
*
  0
XRECORD
  5
22
102
{ACAD_REACTORS
330
16
102
}
330
16
100
AcDbXrecord
  1
58J
  1
*58*
  1
*
  1
*
 70
     0
  1
*
  1
*
  0
XRECORD
  5
23
102
{ACAD_REACTORS
330
16
102
}
330
16
100
AcDbXrecord
  1
65
  1
*65
  1
*
  1
*
 70
     0
  1
*
  1
*
  0
XRECORD
  5
24
102
{ACAD_REACTORS
330
16
102
}
330
16
100
AcDbXrecord
  1
aa
  1
aa*
  1
*
  1
*
 70
     0
  1
*
  1
*
  0
XRECORD
  5
25
102
{ACAD_REACTORS
330
16
102
}
330
16
100
AcDbXrecord
  1
acabados
  1
a-*
  1
*
  1
*
 70
     5
  1
*
  1
*
  0
XRECORD
  5
26
102
{ACAD_REACTORS
330
16
102
}
330
16
100
AcDbXrecord
  1
AGUA Y DREN
  1
A-DS-*
  1
*
  1
*
 70
     0
  1
*
  1
*
  0
XRECORD
  5
27
102
{ACAD_REACTORS
330
16
102
}
330
16
100
AcDbXrecord
  1
Aire
  1
*
  1
*
  1
*
 70
     0
  1
*
  1
*
  0
XRECORD
  5
28
102
{ACAD_REACTORS
330
16
102
}
330
16
100
AcDbXrecord
  1
alle aus
  1
99999999999
  1
*
  1
*
 70
     0
  1
*
  1
*
  0
XRECORD
  5
29
102
{ACAD_REACTORS
330
16
102
}
330
16
100
AcDbXrecord
  1
Alles mit S
  1
s*
  1
*
  1
*
 70
     0
  1
*
  1
*
  0
XRECORD
  5
2A
102
{ACAD_REACTORS
330
16
102
}
330
16
100
AcDbXrecord
  1
amarillo
  1
*
  1
yellow
  1
*
 70
     0
  1
*
  1
*
  0
XRECORD
  5
2B
102
{ACAD_REACTORS
330
16
102
}
330
16
100
AcDbXrecord
  1
APAGADOS
  1
*
  1
*
  1
*
 70
     4
  1
*
  1
*
  0
XRECORD
  5
2C
102
{ACAD_REACTORS
330
16
102
}
330
16
100
AcDbXrecord
  1
ARR
  1
ARR*
  1
*
  1
*
 70
     0
  1
*
  1
*
  0
XRECORD
  5
2D
102
{ACAD_REACTORS
330
16
102
}
330
16
100
AcDbXrecord
  1
ba
  1
*
  1
*
  1
*
 70
     0
  1
*
  1
*
  0
XRECORD
  5
2E
102
{ACAD_REACTORS
330
16
102
}
330
16
100
AcDbXrecord
  1
BACKS
  1
*-H
  1
*
  1
*
 70
     0
  1
*
  1
*
  0
XRECORD
  5
2F
102
{ACAD_REACTORS
330
16
102
}
330
16
100
AcDbXrecord
  1
BASE
  1
*-PBASE
  1
*
  1
*
 70
     0
  1
*
  1
*
  0
XRECORD
  5
30
102
{ACAD_REACTORS
330
16
102
}
330
16
100
AcDbXrecord
  1
BLOQ_INUTIL
  1
*
  1
*
  1
*
 70
     0
  1
*
  1
*
  0
XRECORD
  5
31
102
{ACAD_REACTORS
330
16
102
}
330
16
100
AcDbXrecord
  1
CADKON
  1
?[KAHBSM]?????[23M],?[KAHBSM]?????[23M][1456A-DGHILN-SU-Z]
  1
*
  1
*
 70
     0
  1
*
  1
*
  0
XRECORD
  5
32
102
{ACAD_REACTORS
330
16
102
}
330
16
100
AcDbXrecord
  1
carpinteria
  1
carp*
  1
*
  1
*
 70
     0
  1
*
  1
*
  0
XRECORD
  5
33
102
{ACAD_REACTORS
330
16
102
}
330
16
100
AcDbXrecord
  1
cerrados
  1
*
  1
*
  1
*
 70
   256
  1
*
  1
*
  0
XRECORD
  5
34
102
{ACAD_REACTORS
330
16
102
}
330
16
100
AcDbXrecord
  1
COL
  1
*
  1
*
  1
*
 70
     1
  1
*
  1
*
  0
XRECORD
  5
35
102
{ACAD_REACTORS
330
16
102
}
330
16
100
AcDbXrecord
  1
COLOR
  1
*
  1
253
  1
*
 70
     0
  1
*
  1
*
  0
XRECORD
  5
36
102
{ACAD_REACTORS
330
16
102
}
330
16
100
AcDbXrecord
  1
color 250
  1
*
  1
250
  1
*
 70
     0
  1
*
  1
*
  0
XRECORD
  5
37
102
{ACAD_REACTORS
330
16
102
}
330
16
100
AcDbXrecord
  1
COLORES
  1
*
  1
6
  1
*
 70
     0
  1
*
  1
*
  0
XRECORD
  5
38
102
{ACAD_REACTORS
330
16
102
}
330
16
100
AcDbXrecord
  1
Congelados
  1
*
  1
*
  1
*
 70
     4
  1
*
  1
*
  0
XRECORD
  5
39
102
{ACAD_REACTORS
330
16
102
}
330
16
100
AcDbXrecord
  1
CONJUNTO
  1
CON-*
  1
*
  1
*
 70
     0
  1
*
  1
*
  0
XRECORD
  5
3A
102
{ACAD_REACTORS
330
16
102
}
330
16
100
AcDbXrecord
  1
d1
  1
achurados
  1
*
  1
*
 70
     0
  1
*
  1
*
  0
XRECORD
  5
3B
102
{ACAD_REACTORS
330
16
102
}
330
16
100
AcDbXrecord
  1
DA_
  1
DA*
  1
*
  1
*
 70
     0
  1
*
  1
*
  0
XRECORD
  5
3C
102
{ACAD_REACTORS
330
16
102
}
330
16
100
AcDbXrecord
  1
DET-
  1
*
  1
*
  1
*
 70
     0
  1
*
  1
*
  0
XRECORD
  5
3D
102
{ACAD_REACTORS
330
16
102
}
330
16
100
AcDbXrecord
  1
DOR-H
  1
*
  1
7
  1
*
 70
     0
  1
*
  1
*
  0
XRECORD
  5
3E
102
{ACAD_REACTORS
330
16
102
}
330
16
100
AcDbXrecord
  1
ejes
  1
eje*
  1
*
  1
*
 70
     0
  1
*
  1
*
  0
XRECORD
  5
3F
102
{ACAD_REACTORS
330
16
102
}
330
16
100
AcDbXrecord
  1
ELECTRICO
  1
ELEC-*
  1
*
  1
*
 70
     0
  1
*
  1
*
  0
XRECORD
  5
40
102
{ACAD_REACTORS
330
16
102
}
330
16
100
AcDbXrecord
  1
F1
  1
Halaxref*
  1
*
  1
*
 70
     0
  1
*
  1
*
  0
XRECORD
  5
41
102
{ACAD_REACTORS
330
16
102
}
330
16
100
AcDbXrecord
  1
frozen
  1
*
  1
*
  1
*
 70
     4
  1
*
  1
*
  0
XRECORD
  5
42
102
{ACAD_REACTORS
330
16
102
}
330
16
100
AcDbXrecord
  1
grid
  1
*-PGRID
  1
*
  1
*
 70
     1
  1
*
  1
*
  0
XRECORD
  5
43
102
{ACAD_REACTORS
330
16
102
}
330
16
100
AcDbXrecord
  1
GRIDTXT
  1
*-PGRIDT
  1
*
  1
*
 70
     0
  1
*
  1
*
  0
XRECORD
  5
44
102
{ACAD_REACTORS
330
16
102
}
330
16
100
AcDbXrecord
  1
HATCH
  1
HAT*
  1
*
  1
*
 70
     0
  1
*
  1
*
  0
XRECORD
  5
45
102
{ACAD_REACTORS
330
16
102
}
330
16
100
AcDbXrecord
  1
HCAD
  1
1HCAD-*
  1
*
  1
*
 70
    13
  1
*
  1
*
  0
XRECORD
  5
46
102
{ACAD_REACTORS
330
16
102
}
330
16
100
AcDbXrecord
  1
INSTALACIONES
  1
I-*
  1
*
  1
*
 70
     0
  1
*
  1
*
  0
XRECORD
  5
47
102
{ACAD_REACTORS
330
16
102
}
330
16
100
AcDbXrecord
  1
JIZNI
  1
*-J
  1
*
  1
*
 70
     0
  1
*
  1
*
  0
XRECORD
  5
48
102
{ACAD_REACTORS
330
16
102
}
330
16
100
AcDbXrecord
  1
kck
  1
*
  1
*
  1
*
 70
     0
  1
*
  1
*
  0
XRECORD
  5
49
102
{ACAD_REACTORS
330
16
102
}
330
16
100
AcDbXrecord
  1
kkk
  1
k
  1
*
  1
*
 70
     0
  1
*
  1
*
  0
XRECORD
  5
4A
102
{ACAD_REACTORS
330
16
102
}
330
16
100
AcDbXrecord
  1
lay
  1
??-*
  1
*
  1
*
 70
     0
  1
*
  1
*
  0
XRECORD
  5
4E
102
{ACAD_REACTORS
330
16
102
}
330
16
100
AcDbXrecord
  1
Layer-0
  1
0*
  1
*
  1
*
 70
     0
  1
*
  1
*
  0
XRECORD
  5
4F
102
{ACAD_REACTORS
330
16
102
}
330
16
100
AcDbXrecord
  1
Layer-1
  1
1*
  1
*
  1
*
 70
     0
  1
*
  1
*
  0
XRECORD
  5
4B
102
{ACAD_REACTORS
330
16
102
}
330
16
100
AcDbXrecord
  1
Layer 1 und 0
  1
1*,0
  1
*
  1
*
 70
     0
  1
*
  1
*
  0
XRECORD
  5
4C
102
{ACAD_REACTORS
330
16
102
}
330
16
100
AcDbXrecord
  1
Layer 2 und 0
  1
2*,0
  1
*
  1
*
 70
     0
  1
*
  1
*
  0
XRECORD
  5
4D
102
{ACAD_REACTORS
330
16
102
}
330
16
100
AcDbXrecord
  1
Layer 9 und 0 Schraffur
  1
9*,0
  1
*
  1
*
 70
     0
  1
*
  1
*
  0
XRECORD
  5
50
102
{ACAD_REACTORS
330
16
102
}
330
16
100
AcDbXrecord
  1
LOCK
  1
*
  1
*
  1
*
 70
   256
  1
*
  1
*
  0
XRECORD
  5
51
102
{ACAD_REACTORS
330
16
102
}
330
16
100
AcDbXrecord
  1
locked
  1
*
  1
*
  1
*
 70
   256
  1
*
  1
*
  0
XRECORD
  5
52
102
{ACAD_REACTORS
330
16
102
}
330
16
100
AcDbXrecord
  1
Lotes
  1
*
  1
*
  1
*
 70
     1
  1
*
  1
*
  0
XRECORD
  5
53
102
{ACAD_REACTORS
330
16
102
}
330
16
100
AcDbXrecord
  1
LUNAR
  1
*
  1
*
  1
*
 70
    48
  1
*
  1
*
  0
XRECORD
  5
54
102
{ACAD_REACTORS
330
16
102
}
330
16
100
AcDbXrecord
  1
LUNAR2
  1
*
  1
*
  1
*
 70
    12
  1
*
  1
*
  0
XRECORD
  5
55
102
{ACAD_REACTORS
330
16
102
}
330
16
100
AcDbXrecord
  1
M
  1
M*
  1
*
  1
*
 70
     0
  1
*
  1
*
  0
XRECORD
  5
56
102
{ACAD_REACTORS
330
16
102
}
330
16
100
AcDbXrecord
  1
mis_layers
  1
mis_*
  1
*
  1
*
 70
     0
  1
*
  1
*
  0
XRECORD
  5
57
102
{ACAD_REACTORS
330
16
102
}
330
16
100
AcDbXrecord
  1
MRKCK
  1
*
  1
*
  1
*
 70
     0
  1
*
  1
*
  0
XRECORD
  5
58
102
{ACAD_REACTORS
330
16
102
}
330
16
100
AcDbXrecord
  1
NECADKON
  1
~*?[KAHBSM]?????[23M]*
  1
*
  1
*
 70
     0
  1
*
  1
*
  0
XRECORD
  5
59
102
{ACAD_REACTORS
330
16
102
}
330
16
100
AcDbXrecord
  1
NI_LH
  1
NI_LH*
  1
*
  1
*
 70
     0
  1
*
  1
*
  0
XRECORD
  5
5A
102
{ACAD_REACTORS
330
16
102
}
330
16
100
AcDbXrecord
  1
NI_RH
  1
NI_RH*
  1
*
  1
*
 70
     0
  1
*
  1
*
  0
XRECORD
  5
5B
102
{ACAD_REACTORS
330
16
102
}
330
16
100
AcDbXrecord
  1
NUM
  1
NUM*
  1
*
  1
*
 70
     0
  1
*
  1
*
  0
XRECORD
  5
5C
102
{ACAD_REACTORS
330
16
102
}
330
16
100
AcDbXrecord
  1
off
  1
*
  1
*
  1
*
 70
     3
  1
*
  1
*
  0
XRECORD
  5
5D
102
{ACAD_REACTORS
330
16
102
}
330
16
100
AcDbXrecord
  1
on
  1
*
  1
*
  1
*
 70
     0
  1
*
  1
*
  0
XRECORD
  5
5E
102
{ACAD_REACTORS
330
16
102
}
330
16
100
AcDbXrecord
  1
PBASE
  1
*PBASE
  1
*
  1
*
 70
     0
  1
*
  1
*
  0
XRECORD
  5
5F
102
{ACAD_REACTORS
330
16
102
}
330
16
100
AcDbXrecord
  1
PEGC
  1
*PEGC
  1
*
  1
*
 70
     0
  1
*
  1
*
  0
XRECORD
  5
60
102
{ACAD_REACTORS
330
16
102
}
330
16
100
AcDbXrecord
  1
PEGCT
  1
*PEGCT
  1
*
  1
*
 70
     0
  1
*
  1
*
  0
XRECORD
  5
61
102
{ACAD_REACTORS
330
16
102
}
330
16
100
AcDbXrecord
  1
PFRAME
  1
PFRAME*
  1
*
  1
*
 70
     0
  1
*
  1
*
  0
XRECORD
  5
62
102
{ACAD_REACTORS
330
16
102
}
330
16
100
AcDbXrecord
  1
PGRID
  1
*PGRID
  1
*
  1
*
 70
     0
  1
*
  1
*
  0
XRECORD
  5
63
102
{ACAD_REACTORS
330
16
102
}
330
16
100
AcDbXrecord
  1
PGRIDT
  1
*PGRIDT
  1
*
  1
*
 70
     0
  1
*
  1
*
  0
XRECORD
  5
64
102
{ACAD_REACTORS
330
16
102
}
330
16
100
AcDbXrecord
  1
PLAFONES
  1
0-*
  1
*
  1
*
 70
     0
  1
*
  1
*
  0
XRECORD
  5
65
102
{ACAD_REACTORS
330
16
102
}
330
16
100
AcDbXrecord
  1
PLANTAS
  1
P-*
  1
*
  1
*
 70
     0
  1
*
  1
*
  0
XRECORD
  5
66
102
{ACAD_REACTORS
330
16
102
}
330
16
100
AcDbXrecord
  1
Plot
  1
*
  1
*
  1
*
 70
  1024
  1
*
  1
*
  0
XRECORD
  5
67
102
{ACAD_REACTORS
330
16
102
}
330
16
100
AcDbXrecord
  1
PRENDIDAS
  1
*
  1
*
  1
*
 70
    13
  1
*
  1
*
  0
XRECORD
  5
68
102
{ACAD_REACTORS
330
16
102
}
330
16
100
AcDbXrecord
  1
PRENDIDOS
  1
*
  1
*
  1
*
 70
    12
  1
*
  1
*
  0
XRECORD
  5
69
102
{ACAD_REACTORS
330
16
102
}
330
16
100
AcDbXrecord
  1
print
  1
*
  1
7
  1
*
 70
  1280
  1
*
  1
*
  0
XRECORD
  5
6A
102
{ACAD_REACTORS
330
16
102
}
330
16
100
AcDbXrecord
  1
PT
  1
PT-*
  1
*
  1
*
 70
     0
  1
*
  1
*
  0
XRECORD
  5
6B
102
{ACAD_REACTORS
330
16
102
}
330
16
100
AcDbXrecord
  1
PTH
  1
PTH*
  1
*
  1
*
 70
     0
  1
*
  1
*
  0
XRECORD
  5
6C
102
{ACAD_REACTORS
330
16
102
}
330
16
100
AcDbXrecord
  1
PVGRID
  1
*PVGRID
  1
*
  1
*
 70
     0
  1
*
  1
*
  0
XRECORD
  5
6D
102
{ACAD_REACTORS
330
16
102
}
330
16
100
AcDbXrecord
  1
Red de Agua Potable
  1
Red de Agua Potable
  1
*
  1
*
 70
     1
  1
*
  1
*
  0
XRECORD
  5
6E
102
{ACAD_REACTORS
330
16
102
}
330
16
100
AcDbXrecord
  1
Red de Energia Electrica
  1
Lotes
  1
*
  1
*
 70
     1
  1
*
  1
*
  0
XRECORD
  5
6F
102
{ACAD_REACTORS
330
16
102
}
330
16
100
AcDbXrecord
  1
SEVERNI
  1
*-S
  1
*
  1
*
 70
     0
  1
*
  1
*
  0
XRECORD
  5
70
102
{ACAD_REACTORS
330
16
102
}
330
16
100
AcDbXrecord
  1
shin
  1
일*
  1
*
  1
*
 70
     0
  1
*
  1
*
  0
XRECORD
  5
71
102
{ACAD_REACTORS
330
16
102
}
330
16
100
AcDbXrecord
  1
SHOW ALL LAYER
  1
*
  1
*
  1
*
 70
     0
  1
*
  1
*
  0
XRECORD
  5
72
102
{ACAD_REACTORS
330
16
102
}
330
16
100
AcDbXrecord
  1
sin
  1
sin
  1
*
  1
*
 70
     0
  1
*
  1
*
  0
XRECORD
  5
73
102
{ACAD_REACTORS
330
16
102
}
330
16
100
AcDbXrecord
  1
STORAGE-CART
  1
STORAGE-CART*
  1
*
  1
*
 70
     0
  1
*
  1
*
  0
XRECORD
  5
74
102
{ACAD_REACTORS
330
16
102
}
330
16
100
AcDbXrecord
  1
T
  1
T*
  1
*
  1
*
 70
     0
  1
*
  1
*
  0
XRECORD
  5
75
102
{ACAD_REACTORS
330
16
102
}
330
16
100
AcDbXrecord
  1
TEXTOS
  1
TXT*
  1
*
  1
*
 70
     0
  1
*
  1
*
  0
XRECORD
  5
76
102
{ACAD_REACTORS
330
16
102
}
330
16
100
AcDbXrecord
  1
TEXTURAS
  1
*TEXTURAS
  1
*
  1
*
 70
     0
  1
*
  1
*
  0
XRECORD
  5
77
102
{ACAD_REACTORS
330
16
102
}
330
16
100
AcDbXrecord
  1
TUBERIAS
  1
T*
  1
*
  1
*
 70
     0
  1
*
  1
*
  0
XRECORD
  5
78
102
{ACAD_REACTORS
330
16
102
}
330
16
100
AcDbXrecord
  1
UNFRZ
  1
*
  1
*
  1
*
 70
    12
  1
*
  1
*
  0
XRECORD
  5
79
102
{ACAD_REACTORS
330
16
102
}
330
16
100
AcDbXrecord
  1
v\U+0161echny nepou\U+017E\U+00EDvan\U+00E9
  1
*
  1
*
  1
*
 70
     0
  1
*
  1
*
  0
XRECORD
  5
7A
102
{ACAD_REACTORS
330
16
102
}
330
16
100
AcDbXrecord
  1
VA
  1
VA*
  1
*
  1
*
 70
     0
  1
*
  1
*
  0
XRECORD
  5
7B
102
{ACAD_REACTORS
330
16
102
}
330
16
100
AcDbXrecord
  1
Ventilaci\U+00F3n
  1
*
  1
*
  1
*
 70
     0
  1
*
  1
*
  0
XRECORD
  5
7C
102
{ACAD_REACTORS
330
16
102
}
330
16
100
AcDbXrecord
  1
VYHODNI
  1
*-V
  1
*
  1
*
 70
     0
  1
*
  1
*
  0
XRECORD
  5
7D
102
{ACAD_REACTORS
330
16
102
}
330
16
100
AcDbXrecord
  1
Yo
  1
Muros
  1
*
  1
*
 70
     0
  1
*
  1
*
  0
XRECORD
  5
7E
102
{ACAD_REACTORS
330
16
102
}
330
16
100
AcDbXrecord
  1
ZAPADNI
  1
*-Z
  1
*
  1
*
 70
     0
  1
*
  1
*
  0
XRECORD
  5
7F
102
{ACAD_REACTORS
330
16
102
}
330
16
100
AcDbXrecord
  1
사용
  1
*
  1
*
  1
*
 70
   256
  1
*
  1
*
  0
XRECORD
  5
80
102
{ACAD_REACTORS
330
16
102
}
330
16
100
AcDbXrecord
  1
신규
  1
신규
  1
*
  1
*
 70
     0
  1
*
  1
*
  0
XRECORD
  5
81
102
{ACAD_REACTORS
330
16
102
}
330
16
100
AcDbXrecord
  1
실박스
  1
BLO,SYM,SYM1,SYM2
  1
*
  1
*
 70
     0
  1
*
  1
*
  0
XRECORD
  5
82
102
{ACAD_REACTORS
330
16
102
}
330
16
100
AcDbXrecord
  1
우리토목
  1
w-*
  1
*
  1
*
 70
     0
  1
*
  1
*
  0
XRECORD
  5
83
102
{ACAD_REACTORS
330
16
102
}
330
16
100
AcDbXrecord
  1
주차
  1
car*
  1
*
  1
*
 70
     0
  1
*
  1
*
  0
XRECORD
  5
84
102
{ACAD_REACTORS
330
16
102
}
330
16
100
AcDbXrecord
  1
지상정밀
  1
*
  1
*
  1
*
 70
     0
  1
*
  1
*
  0
XRECORD
  5
85
102
{ACAD_REACTORS
330
16
102
}
330
16
100
AcDbXrecord
  1
쩜선
  1
*
  1
*
  1
*
 70
     0
  1
*
  1
*
  0
XRECORD
  5
86
102
{ACAD_REACTORS
330
16
102
}
330
16
100
AcDbXrecord
  1
플로터 작업층
  1
*
  1
*
  1
*
 70
  1025
  1
*
  1
*
  0
XRECORD
  5
87
102
{ACAD_REACTORS
330
16
102
}
330
16
100
AcDbXrecord
  1
현재 작업층
  1
*
  1
*
  1
*
 70
     1
  1
*
  1
*
  0
XRECORD
  5
88
102
{ACAD_REACTORS
330
16
102
}
330
16
100
AcDbXrecord
  1
현재 잠금
  1
*
  1
*
  1
*
 70
   257
  1
*
  1
*
  0
ENDSEC
  0
EOF
