  0
SECTION
  2
HEADER
  9
$ACADVER
  1
AC1014
  9
$ACADMAINTVER
 70
     9
  9
$DWGCODEPAGE
  3
ANSI_949
  9
$INSBASE
 10
0.0
 20
0.0
 30
0.0
  9
$EXTMIN
 10
-7.741385258836089
 20
-17.5427197762765
 30
-0.0015258207003583
  9
$EXTMAX
 10
323.4138534938101
 20
357.0765866643705
 30
0.0000000349246037
  9
$LIMMIN
 10
0.0
 20
0.0
  9
$LIMMAX
 10
420.0
 20
297.0
  9
$ORTHOMODE
 70
     0
  9
$REGENMODE
 70
     1
  9
$FILLMODE
 70
     1
  9
$QTEXTMODE
 70
     0
  9
$MIRRTEXT
 70
     0
  9
$DRAGMODE
 70
     2
  9
$LTSCALE
 40
0.2
  9
$OSMODE
 70
   567
  9
$ATTMODE
 70
     1
  9
$TEXTSIZE
 40
5.777225951253058
  9
$TRACEWID
 40
1.0
  9
$TEXTSTYLE
  7
STANDARD
  9
$CLAYER
  8
0
  9
$CELTYPE
  6
BYLAYER
  9
$CECOLOR
 62
   256
  9
$CELTSCALE
 40
1.0
  9
$DELOBJ
 70
     1
  9
$DISPSILH
 70
     0
  9
$DIMSCALE
 40
1.0
  9
$DIMASZ
 40
3.0
  9
$DIMEXO
 40
1.0
  9
$DIMDLI
 40
10.0
  9
$DIMRND
 40
0.0
  9
$DIMDLE
 40
0.0
  9
$DIMEXE
 40
0.6
  9
$DIMTP
 40
0.0
  9
$DIMTM
 40
0.0
  9
$DIMTXT
 40
3.5
  9
$DIMCEN
 40
0.09
  9
$DIMTSZ
 40
0.0
  9
$DIMTOL
 70
     0
  9
$DIMLIM
 70
     0
  9
$DIMTIH
 70
     0
  9
$DIMTOH
 70
     0
  9
$DIMSE1
 70
     0
  9
$DIMSE2
 70
     0
  9
$DIMTAD
 70
     1
  9
$DIMZIN
 70
     8
  9
$DIMBLK
  1

  9
$DIMASO
 70
     1
  9
$DIMSHO
 70
     1
  9
$DIMPOST
  1

  9
$DIMAPOST
  1

  9
$DIMALT
 70
     0
  9
$DIMALTD
 70
     2
  9
$DIMALTF
 40
25.4
  9
$DIMLFAC
 40
1.0
  9
$DIMTOFL
 70
     1
  9
$DIMTVP
 40
0.0
  9
$DIMTIX
 70
     1
  9
$DIMSOXD
 70
     0
  9
$DIMSAH
 70
     0
  9
$DIMBLK1
  1

  9
$DIMBLK2
  1

  9
$DIMSTYLE
  2
1_1_2
  9
$DIMCLRD
 70
   123
  9
$DIMCLRE
 70
   123
  9
$DIMCLRT
 70
     3
  9
$DIMTFAC
 40
1.0
  9
$DIMGAP
 40
1.0
  9
$DIMJUST
 70
     0
  9
$DIMSD1
 70
     0
  9
$DIMSD2
 70
     0
  9
$DIMTOLJ
 70
     1
  9
$DIMTZIN
 70
     0
  9
$DIMALTZ
 70
     0
  9
$DIMALTTZ
 70
     0
  9
$DIMFIT
 70
     0
  9
$DIMUPT
 70
     1
  9
$DIMUNIT
 70
     2
  9
$DIMDEC
 70
     2
  9
$DIMTDEC
 70
     2
  9
$DIMALTU
 70
     2
  9
$DIMALTTD
 70
     2
  9
$DIMTXSTY
  7
STANDARD
  9
$DIMAUNIT
 70
     1
  9
$LUNITS
 70
     2
  9
$LUPREC
 70
     4
  9
$SKETCHINC
 40
1.0
  9
$FILLETRAD
 40
0.5
  9
$AUNITS
 70
     0
  9
$AUPREC
 70
     0
  9
$MENU
  1
.
  9
$ELEVATION
 40
0.0
  9
$PELEVATION
 40
0.0
  9
$THICKNESS
 40
0.0
  9
$LIMCHECK
 70
     0
  9
$BLIPMODE
 70
     1
  9
$CHAMFERA
 40
1.0
  9
$CHAMFERB
 40
1.0
  9
$CHAMFERC
 40
20.0
  9
$CHAMFERD
 40
0.0
  9
$SKPOLY
 70
     0
  9
$TDCREATE
 40
2452839.586179271
  9
$TDUPDATE
 40
2453376.728527731
  9
$TDINDWG
 40
11.1163975116
  9
$TDUSRTIMER
 40
11.1163975116
  9
$USRTIMER
 70
     1
  9
$ANGBASE
 50
0.0
  9
$ANGDIR
 70
     0
  9
$PDMODE
 70
     0
  9
$PDSIZE
 40
0.0
  9
$PLINEWID
 40
0.0
  9
$COORDS
 70
     2
  9
$SPLFRAME
 70
     0
  9
$SPLINETYPE
 70
     6
  9
$SPLINESEGS
 70
   800
  9
$ATTDIA
 70
     0
  9
$ATTREQ
 70
     1
  9
$HANDLING
 70
 22529
  9
$HANDSEED
  5
430
  9
$SURFTAB1
 70
     6
  9
$SURFTAB2
 70
     6
  9
$SURFTYPE
 70
     6
  9
$SURFU
 70
     6
  9
$SURFV
 70
     6
  9
$UCSNAME
  2

  9
$UCSORG
 10
0.0
 20
0.0
 30
0.0
  9
$UCSXDIR
 10
1.0
 20
0.0
 30
0.0
  9
$UCSYDIR
 10
0.0
 20
1.0
 30
0.0
  9
$PUCSNAME
  2

  9
$PUCSORG
 10
0.0
 20
0.0
 30
0.0
  9
$PUCSXDIR
 10
1.0
 20
0.0
 30
0.0
  9
$PUCSYDIR
 10
0.0
 20
1.0
 30
0.0
  9
$USERI1
 70
     0
  9
$USERI2
 70
     0
  9
$USERI3
 70
     0
  9
$USERI4
 70
     0
  9
$USERI5
 70
     0
  9
$USERR1
 40
0.0
  9
$USERR2
 40
0.0
  9
$USERR3
 40
0.0
  9
$USERR4
 40
0.0
  9
$USERR5
 40
0.0
  9
$WORLDVIEW
 70
     1
  9
$SHADEDGE
 70
     3
  9
$SHADEDIF
 70
    70
  9
$TILEMODE
 70
     1
  9
$MAXACTVP
 70
    48
  9
$PINSBASE
 10
0.0
 20
0.0
 30
0.0
  9
$PLIMCHECK
 70
     0
  9
$PEXTMIN
 10
0.0
 20
0.0
 30
0.0
  9
$PEXTMAX
 10
0.0
 20
0.0
 30
0.0
  9
$PLIMMIN
 10
0.0
 20
0.0
  9
$PLIMMAX
 10
12.0
 20
9.0
  9
$UNITMODE
 70
     0
  9
$VISRETAIN
 70
     1
  9
$PLINEGEN
 70
     0
  9
$PSLTSCALE
 70
     1
  9
$TREEDEPTH
 70
  3020
  9
$PICKSTYLE
 70
     0
  9
$CMLSTYLE
  2
STANDARD
  9
$CMLJUST
 70
     0
  9
$CMLSCALE
 40
20.0
  9
$PROXYGRAPHICS
 70
     1
  9
$MEASUREMENT
 70
     1
  0
ENDSEC
  0
SECTION
  2
CLASSES
  0
CLASS
  1
ACDBDICTIONARYWDFLT
  2
AcDbDictionaryWithDefault
  3
AutoCAD 2000
 90
        0
280
     0
281
     0
  0
CLASS
  1
ACDBPLACEHOLDER
  2
AcDbPlaceHolder
  3
AutoCAD 2000
 90
        0
280
     0
281
     0
  0
CLASS
  1
LAYOUT
  2
AcDbLayout
  3
AutoCAD 2000
 90
        0
280
     0
281
     0
  0
CLASS
  1
DICTIONARYVAR
  2
AcDbDictionaryVar
  3
AutoCAD 2000
 90
        0
280
     0
281
     0
  0
CLASS
  1
DIMASSOC
  2
AcDbDimAssoc
  3
"AcDbDimAssoc|Product Desc:     AcDim ARX App For Dimension|Company:          Autodesk, Inc.|WEB Address:      www.autodesk.com"
 90
        0
280
     0
281
     0
  0
CLASS
  1
LONG_TRANSACTION
  2
AcDbLongTransaction
  3
AutoCAD 2000
 90
        0
280
     0
281
     0
  0
CLASS
  1
LWPOLYLINE
  2
AcDbPolyline
  3
AutoCAD 2000
 90
        0
280
     0
281
     1
  0
CLASS
  1
HATCH
  2
AcDbHatch
  3
AutoCAD 2000
 90
        0
280
     0
281
     1
  0
CLASS
  1
XRECORD
  2
AcDbXrecord
  3
AutoCAD 2000
 90
        0
280
     0
281
     0
  0
CLASS
  1
LONG_TRANSACTION
  2
AcDbLongTransaction
  3
AutoCAD 2000
 90
        0
280
     0
281
     0
  0
CLASS
  1
LWPOLYLINE
  2
AcDbPolyline
  3
AutoCAD 2000
 90
        0
280
     0
281
     1
  0
CLASS
  1
HATCH
  2
AcDbHatch
  3
AutoCAD 2000
 90
        0
280
     0
281
     1
  0
CLASS
  1
XRECORD
  2
AcDbXrecord
  3
AutoCAD 2000
 90
        0
280
     0
281
     0
  0
CLASS
  1
LONG_TRANSACTION
  2
AcDbLongTransaction
  3
AutoCAD 2000
 90
        0
280
     0
281
     0
  0
CLASS
  1
LWPOLYLINE
  2
AcDbPolyline
  3
AutoCAD 2000
 90
        0
280
     0
281
     1
  0
CLASS
  1
HATCH
  2
AcDbHatch
  3
AutoCAD 2000
 90
        0
280
     0
281
     1
  0
CLASS
  1
XRECORD
  2
AcDbXrecord
  3
AutoCAD 2000
 90
        0
280
     0
281
     0
  0
CLASS
  1
LONG_TRANSACTION
  2
AcDbLongTransaction
  3
AutoCAD 2000
 90
        0
280
     0
281
     0
  0
CLASS
  1
LWPOLYLINE
  2
AcDbPolyline
  3
AutoCAD 2000
 90
        0
280
     0
281
     1
  0
CLASS
  1
HATCH
  2
AcDbHatch
  3
AutoCAD 2000
 90
        0
280
     0
281
     1
  0
CLASS
  1
XRECORD
  2
AcDbXrecord
  3
AutoCAD 2000
 90
        0
280
     0
281
     0
  0
CLASS
  1
LONG_TRANSACTION
  2
AcDbLongTransaction
  3
AutoCAD 2000
 90
        0
280
     0
281
     0
  0
CLASS
  1
LWPOLYLINE
  2
AcDbPolyline
  3
AutoCAD 2000
 90
        0
280
     0
281
     1
  0
CLASS
  1
HATCH
  2
AcDbHatch
  3
AutoCAD 2000
 90
        0
280
     0
281
     1
  0
CLASS
  1
XRECORD
  2
AcDbXrecord
  3
AutoCAD 2000
 90
        0
280
     0
281
     0
  0
CLASS
  1
LONG_TRANSACTION
  2
AcDbLongTransaction
  3
AutoCAD 2000
 90
        0
280
     0
281
     0
  0
CLASS
  1
LWPOLYLINE
  2
AcDbPolyline
  3
AutoCAD 2000
 90
        0
280
     0
281
     1
  0
CLASS
  1
HATCH
  2
AcDbHatch
  3
AutoCAD 2000
 90
        0
280
     0
281
     1
  0
CLASS
  1
XRECORD
  2
AcDbXrecord
  3
AutoCAD 2000
 90
        0
280
     0
281
     0
  0
CLASS
  1
LONG_TRANSACTION
  2
AcDbLongTransaction
  3
AutoCAD 2000
 90
        0
280
     0
281
     0
  0
CLASS
  1
LWPOLYLINE
  2
AcDbPolyline
  3
AutoCAD 2000
 90
        0
280
     0
281
     1
  0
CLASS
  1
HATCH
  2
AcDbHatch
  3
AutoCAD 2000
 90
        0
280
     0
281
     1
  0
CLASS
  1
XRECORD
  2
AcDbXrecord
  3
AutoCAD 2000
 90
        0
280
     0
281
     0
  0
CLASS
  1
LONG_TRANSACTION
  2
AcDbLongTransaction
  3
AutoCAD 2000
 90
        0
280
     0
281
     0
  0
CLASS
  1
LWPOLYLINE
  2
AcDbPolyline
  3
AutoCAD 2000
 90
        0
280
     0
281
     1
  0
CLASS
  1
HATCH
  2
AcDbHatch
  3
AutoCAD 2000
 90
        0
280
     0
281
     1
  0
CLASS
  1
XRECORD
  2
AcDbXrecord
  3
AutoCAD 2000
 90
        0
280
     0
281
     0
  0
CLASS
  1
LONG_TRANSACTION
  2
AcDbLongTransaction
  3
AutoCAD 2000
 90
        0
280
     0
281
     0
  0
CLASS
  1
LWPOLYLINE
  2
AcDbPolyline
  3
AutoCAD 2000
 90
        0
280
     0
281
     1
  0
CLASS
  1
HATCH
  2
AcDbHatch
  3
AutoCAD 2000
 90
        0
280
     0
281
     1
  0
CLASS
  1
XRECORD
  2
AcDbXrecord
  3
AutoCAD 2000
 90
        0
280
     0
281
     0
  0
CLASS
  1
LONG_TRANSACTION
  2
AcDbLongTransaction
  3
AutoCAD 2000
 90
        0
280
     0
281
     0
  0
CLASS
  1
LWPOLYLINE
  2
AcDbPolyline
  3
AutoCAD 2000
 90
        0
280
     0
281
     1
  0
CLASS
  1
HATCH
  2
AcDbHatch
  3
AutoCAD 2000
 90
        0
280
     0
281
     1
  0
CLASS
  1
XRECORD
  2
AcDbXrecord
  3
AutoCAD 2000
 90
        0
280
     0
281
     0
  0
CLASS
  1
LONG_TRANSACTION
  2
AcDbLongTransaction
  3
AutoCAD 2000
 90
        0
280
     0
281
     0
  0
CLASS
  1
LWPOLYLINE
  2
AcDbPolyline
  3
AutoCAD 2000
 90
        0
280
     0
281
     1
  0
CLASS
  1
HATCH
  2
AcDbHatch
  3
AutoCAD 2000
 90
        0
280
     0
281
     1
  0
CLASS
  1
XRECORD
  2
AcDbXrecord
  3
AutoCAD 2000
 90
        0
280
     0
281
     0
  0
CLASS
  1
LONG_TRANSACTION
  2
AcDbLongTransaction
  3
AutoCAD 2000
 90
        0
280
     0
281
     0
  0
CLASS
  1
LWPOLYLINE
  2
AcDbPolyline
  3
AutoCAD 2000
 90
        0
280
     0
281
     1
  0
CLASS
  1
HATCH
  2
AcDbHatch
  3
AutoCAD 2000
 90
        0
280
     0
281
     1
  0
CLASS
  1
XRECORD
  2
AcDbXrecord
  3
AutoCAD 2000
 90
        0
280
     0
281
     0
  0
CLASS
  1
LONG_TRANSACTION
  2
AcDbLongTransaction
  3
AutoCAD 2000
 90
        0
280
     0
281
     0
  0
CLASS
  1
LWPOLYLINE
  2
AcDbPolyline
  3
AutoCAD 2000
 90
        0
280
     0
281
     1
  0
CLASS
  1
HATCH
  2
AcDbHatch
  3
AutoCAD 2000
 90
        0
280
     0
281
     1
  0
CLASS
  1
XRECORD
  2
AcDbXrecord
  3
AutoCAD 2000
 90
        0
280
     0
281
     0
  0
CLASS
  1
LONG_TRANSACTION
  2
AcDbLongTransaction
  3
AutoCAD 2000
 90
        0
280
     0
281
     0
  0
CLASS
  1
LWPOLYLINE
  2
AcDbPolyline
  3
AutoCAD 2000
 90
        0
280
     0
281
     1
  0
CLASS
  1
HATCH
  2
AcDbHatch
  3
AutoCAD 2000
 90
        0
280
     0
281
     1
  0
CLASS
  1
XRECORD
  2
AcDbXrecord
  3
AutoCAD 2000
 90
        0
280
     0
281
     0
  0
CLASS
  1
LONG_TRANSACTION
  2
AcDbLongTransaction
  3
AutoCAD 2000
 90
        0
280
     0
281
     0
  0
CLASS
  1
LWPOLYLINE
  2
AcDbPolyline
  3
AutoCAD 2000
 90
        0
280
     0
281
     1
  0
CLASS
  1
HATCH
  2
AcDbHatch
  3
AutoCAD 2000
 90
        0
280
     0
281
     1
  0
CLASS
  1
XRECORD
  2
AcDbXrecord
  3
AutoCAD 2000
 90
        0
280
     0
281
     0
  0
CLASS
  1
LONG_TRANSACTION
  2
AcDbLongTransaction
  3
AutoCAD 2000
 90
        0
280
     0
281
     0
  0
CLASS
  1
LWPOLYLINE
  2
AcDbPolyline
  3
AutoCAD 2000
 90
        0
280
     0
281
     1
  0
CLASS
  1
HATCH
  2
AcDbHatch
  3
AutoCAD 2000
 90
        0
280
     0
281
     1
  0
CLASS
  1
XRECORD
  2
AcDbXrecord
  3
AutoCAD 2000
 90
        0
280
     0
281
     0
  0
CLASS
  1
LONG_TRANSACTION
  2
AcDbLongTransaction
  3
AutoCAD 2000
 90
        0
280
     0
281
     0
  0
CLASS
  1
LWPOLYLINE
  2
AcDbPolyline
  3
AutoCAD 2000
 90
        0
280
     0
281
     1
  0
CLASS
  1
HATCH
  2
AcDbHatch
  3
AutoCAD 2000
 90
        0
280
     0
281
     1
  0
CLASS
  1
XRECORD
  2
AcDbXrecord
  3
AutoCAD 2000
 90
        0
280
     0
281
     0
  0
CLASS
  1
LONG_TRANSACTION
  2
AcDbLongTransaction
  3
AutoCAD 2000
 90
        0
280
     0
281
     0
  0
CLASS
  1
LWPOLYLINE
  2
AcDbPolyline
  3
AutoCAD 2000
 90
        0
280
     0
281
     1
  0
CLASS
  1
HATCH
  2
AcDbHatch
  3
AutoCAD 2000
 90
        0
280
     0
281
     1
  0
CLASS
  1
XRECORD
  2
AcDbXrecord
  3
AutoCAD 2000
 90
        0
280
     0
281
     0
  0
CLASS
  1
LONG_TRANSACTION
  2
AcDbLongTransaction
  3
AutoCAD 2000
 90
        0
280
     0
281
     0
  0
CLASS
  1
LWPOLYLINE
  2
AcDbPolyline
  3
AutoCAD 2000
 90
        0
280
     0
281
     1
  0
CLASS
  1
HATCH
  2
AcDbHatch
  3
AutoCAD 2000
 90
        0
280
     0
281
     1
  0
CLASS
  1
XRECORD
  2
AcDbXrecord
  3
AutoCAD 2000
 90
        0
280
     0
281
     0
  0
CLASS
  1
LONG_TRANSACTION
  2
AcDbLongTransaction
  3
AutoCAD 2000
 90
        0
280
     0
281
     0
  0
CLASS
  1
LWPOLYLINE
  2
AcDbPolyline
  3
AutoCAD 2000
 90
        0
280
     0
281
     1
  0
CLASS
  1
HATCH
  2
AcDbHatch
  3
AutoCAD 2000
 90
        0
280
     0
281
     1
  0
CLASS
  1
XRECORD
  2
AcDbXrecord
  3
AutoCAD 2000
 90
        0
280
     0
281
     0
  0
CLASS
  1
LONG_TRANSACTION
  2
AcDbLongTransaction
  3
AutoCAD 2000
 90
        0
280
     0
281
     0
  0
CLASS
  1
LWPOLYLINE
  2
AcDbPolyline
  3
AutoCAD 2000
 90
        0
280
     0
281
     1
  0
CLASS
  1
HATCH
  2
AcDbHatch
  3
AutoCAD 2000
 90
        0
280
     0
281
     1
  0
CLASS
  1
XRECORD
  2
AcDbXrecord
  3
AutoCAD 2000
 90
        0
280
     0
281
     0
  0
CLASS
  1
LONG_TRANSACTION
  2
AcDbLongTransaction
  3
AutoCAD 2000
 90
        0
280
     0
281
     0
  0
CLASS
  1
LWPOLYLINE
  2
AcDbPolyline
  3
AutoCAD 2000
 90
        0
280
     0
281
     1
  0
CLASS
  1
HATCH
  2
AcDbHatch
  3
AutoCAD 2000
 90
        0
280
     0
281
     1
  0
CLASS
  1
XRECORD
  2
AcDbXrecord
  3
AutoCAD 2000
 90
        0
280
     0
281
     0
  0
CLASS
  1
LONG_TRANSACTION
  2
AcDbLongTransaction
  3
AutoCAD 2000
 90
        0
280
     0
281
     0
  0
CLASS
  1
LWPOLYLINE
  2
AcDbPolyline
  3
AutoCAD 2000
 90
        0
280
     0
281
     1
  0
CLASS
  1
HATCH
  2
AcDbHatch
  3
AutoCAD 2000
 90
        0
280
     0
281
     1
  0
CLASS
  1
XRECORD
  2
AcDbXrecord
  3
AutoCAD 2000
 90
        0
280
     0
281
     0
  0
CLASS
  1
LONG_TRANSACTION
  2
AcDbLongTransaction
  3
AutoCAD 2000
 90
        0
280
     0
281
     0
  0
CLASS
  1
LWPOLYLINE
  2
AcDbPolyline
  3
AutoCAD 2000
 90
        0
280
     0
281
     1
  0
CLASS
  1
HATCH
  2
AcDbHatch
  3
AutoCAD 2000
 90
        0
280
     0
281
     1
  0
CLASS
  1
XRECORD
  2
AcDbXrecord
  3
AutoCAD 2000
 90
        0
280
     0
281
     0
  0
CLASS
  1
LONG_TRANSACTION
  2
AcDbLongTransaction
  3
AutoCAD 2000
 90
        0
280
     0
281
     0
  0
CLASS
  1
LWPOLYLINE
  2
AcDbPolyline
  3
AutoCAD 2000
 90
        0
280
     0
281
     1
  0
CLASS
  1
HATCH
  2
AcDbHatch
  3
AutoCAD 2000
 90
        0
280
     0
281
     1
  0
CLASS
  1
XRECORD
  2
AcDbXrecord
  3
AutoCAD 2000
 90
        0
280
     0
281
     0
  0
CLASS
  1
LONG_TRANSACTION
  2
AcDbLongTransaction
  3
AutoCAD 2000
 90
        0
280
     0
281
     0
  0
CLASS
  1
LWPOLYLINE
  2
AcDbPolyline
  3
AutoCAD 2000
 90
        0
280
     0
281
     1
  0
CLASS
  1
HATCH
  2
AcDbHatch
  3
AutoCAD 2000
 90
        0
280
     0
281
     1
  0
CLASS
  1
XRECORD
  2
AcDbXrecord
  3
AutoCAD 2000
 90
        0
280
     0
281
     0
  0
CLASS
  1
LONG_TRANSACTION
  2
AcDbLongTransaction
  3
AutoCAD 2000
 90
        0
280
     0
281
     0
  0
CLASS
  1
LWPOLYLINE
  2
AcDbPolyline
  3
AutoCAD 2000
 90
        0
280
     0
281
     1
  0
CLASS
  1
HATCH
  2
AcDbHatch
  3
AutoCAD 2000
 90
        0
280
     0
281
     1
  0
CLASS
  1
XRECORD
  2
AcDbXrecord
  3
AutoCAD 2000
 90
        0
280
     0
281
     0
  0
CLASS
  1
LONG_TRANSACTION
  2
AcDbLongTransaction
  3
AutoCAD 2000
 90
        0
280
     0
281
     0
  0
CLASS
  1
LWPOLYLINE
  2
AcDbPolyline
  3
AutoCAD 2000
 90
        0
280
     0
281
     1
  0
CLASS
  1
HATCH
  2
AcDbHatch
  3
AutoCAD 2000
 90
        0
280
     0
281
     1
  0
CLASS
  1
XRECORD
  2
AcDbXrecord
  3
AutoCAD 2000
 90
        0
280
     0
281
     0
  0
CLASS
  1
LONG_TRANSACTION
  2
AcDbLongTransaction
  3
AutoCAD 2000
 90
        0
280
     0
281
     0
  0
CLASS
  1
LWPOLYLINE
  2
AcDbPolyline
  3
AutoCAD 2000
 90
        0
280
     0
281
     1
  0
CLASS
  1
HATCH
  2
AcDbHatch
  3
AutoCAD 2000
 90
        0
280
     0
281
     1
  0
CLASS
  1
XRECORD
  2
AcDbXrecord
  3
AutoCAD 2000
 90
        0
280
     0
281
     0
  0
CLASS
  1
LONG_TRANSACTION
  2
AcDbLongTransaction
  3
AutoCAD 2000
 90
        0
280
     0
281
     0
  0
CLASS
  1
LWPOLYLINE
  2
AcDbPolyline
  3
AutoCAD 2000
 90
        0
280
     0
281
     1
  0
CLASS
  1
HATCH
  2
AcDbHatch
  3
AutoCAD 2000
 90
        0
280
     0
281
     1
  0
CLASS
  1
XRECORD
  2
AcDbXrecord
  3
AutoCAD 2000
 90
        0
280
     0
281
     0
  0
CLASS
  1
LONG_TRANSACTION
  2
AcDbLongTransaction
  3
AutoCAD 2000
 90
        0
280
     0
281
     0
  0
CLASS
  1
LWPOLYLINE
  2
AcDbPolyline
  3
AutoCAD 2000
 90
        0
280
     0
281
     1
  0
CLASS
  1
HATCH
  2
AcDbHatch
  3
AutoCAD 2000
 90
        0
280
     0
281
     1
  0
CLASS
  1
XRECORD
  2
AcDbXrecord
  3
AutoCAD 2000
 90
        0
280
     0
281
     0
  0
CLASS
  1
LONG_TRANSACTION
  2
AcDbLongTransaction
  3
AutoCAD 2000
 90
        0
280
     0
281
     0
  0
CLASS
  1
LWPOLYLINE
  2
AcDbPolyline
  3
AutoCAD 2000
 90
        0
280
     0
281
     1
  0
CLASS
  1
HATCH
  2
AcDbHatch
  3
AutoCAD 2000
 90
        0
280
     0
281
     1
  0
CLASS
  1
XRECORD
  2
AcDbXrecord
  3
AutoCAD 2000
 90
        0
280
     0
281
     0
  0
CLASS
  1
LONG_TRANSACTION
  2
AcDbLongTransaction
  3
AutoCAD 2000
 90
        0
280
     0
281
     0
  0
CLASS
  1
LWPOLYLINE
  2
AcDbPolyline
  3
AutoCAD 2000
 90
        0
280
     0
281
     1
  0
CLASS
  1
HATCH
  2
AcDbHatch
  3
AutoCAD 2000
 90
        0
280
     0
281
     1
  0
CLASS
  1
XRECORD
  2
AcDbXrecord
  3
AutoCAD 2000
 90
        0
280
     0
281
     0
  0
CLASS
  1
LONG_TRANSACTION
  2
AcDbLongTransaction
  3
AutoCAD 2000
 90
        0
280
     0
281
     0
  0
CLASS
  1
LWPOLYLINE
  2
AcDbPolyline
  3
AutoCAD 2000
 90
        0
280
     0
281
     1
  0
CLASS
  1
HATCH
  2
AcDbHatch
  3
AutoCAD 2000
 90
        0
280
     0
281
     1
  0
CLASS
  1
XRECORD
  2
AcDbXrecord
  3
AutoCAD 2000
 90
        0
280
     0
281
     0
  0
CLASS
  1
LONG_TRANSACTION
  2
AcDbLongTransaction
  3
AutoCAD 2000
 90
        0
280
     0
281
     0
  0
CLASS
  1
LWPOLYLINE
  2
AcDbPolyline
  3
AutoCAD 2000
 90
        0
280
     0
281
     1
  0
CLASS
  1
HATCH
  2
AcDbHatch
  3
AutoCAD 2000
 90
        0
280
     0
281
     1
  0
CLASS
  1
XRECORD
  2
AcDbXrecord
  3
AutoCAD 2000
 90
        0
280
     0
281
     0
  0
CLASS
  1
LONG_TRANSACTION
  2
AcDbLongTransaction
  3
AutoCAD 2000
 90
        0
280
     0
281
     0
  0
CLASS
  1
LWPOLYLINE
  2
AcDbPolyline
  3
AutoCAD 2000
 90
        0
280
     0
281
     1
  0
CLASS
  1
HATCH
  2
AcDbHatch
  3
AutoCAD 2000
 90
        0
280
     0
281
     1
  0
CLASS
  1
XRECORD
  2
AcDbXrecord
  3
AutoCAD 2000
 90
        0
280
     0
281
     0
  0
CLASS
  1
LONG_TRANSACTION
  2
AcDbLongTransaction
  3
AutoCAD 2000
 90
        0
280
     0
281
     0
  0
CLASS
  1
LWPOLYLINE
  2
AcDbPolyline
  3
AutoCAD 2000
 90
        0
280
     0
281
     1
  0
CLASS
  1
HATCH
  2
AcDbHatch
  3
AutoCAD 2000
 90
        0
280
     0
281
     1
  0
CLASS
  1
XRECORD
  2
AcDbXrecord
  3
AutoCAD 2000
 90
        0
280
     0
281
     0
  0
CLASS
  1
LONG_TRANSACTION
  2
AcDbLongTransaction
  3
AutoCAD 2000
 90
        0
280
     0
281
     0
  0
CLASS
  1
LWPOLYLINE
  2
AcDbPolyline
  3
AutoCAD 2000
 90
        0
280
     0
281
     1
  0
CLASS
  1
HATCH
  2
AcDbHatch
  3
AutoCAD 2000
 90
        0
280
     0
281
     1
  0
CLASS
  1
XRECORD
  2
AcDbXrecord
  3
AutoCAD 2000
 90
        0
280
     0
281
     0
  0
CLASS
  1
LONG_TRANSACTION
  2
AcDbLongTransaction
  3
AutoCAD 2000
 90
        0
280
     0
281
     0
  0
CLASS
  1
LWPOLYLINE
  2
AcDbPolyline
  3
AutoCAD 2000
 90
        0
280
     0
281
     1
  0
CLASS
  1
HATCH
  2
AcDbHatch
  3
AutoCAD 2000
 90
        0
280
     0
281
     1
  0
CLASS
  1
XRECORD
  2
AcDbXrecord
  3
AutoCAD 2000
 90
        0
280
     0
281
     0
  0
CLASS
  1
LONG_TRANSACTION
  2
AcDbLongTransaction
  3
AutoCAD 2000
 90
        0
280
     0
281
     0
  0
CLASS
  1
LWPOLYLINE
  2
AcDbPolyline
  3
AutoCAD 2000
 90
        0
280
     0
281
     1
  0
CLASS
  1
HATCH
  2
AcDbHatch
  3
AutoCAD 2000
 90
        0
280
     0
281
     1
  0
CLASS
  1
XRECORD
  2
AcDbXrecord
  3
AutoCAD 2000
 90
        0
280
     0
281
     0
  0
CLASS
  1
LONG_TRANSACTION
  2
AcDbLongTransaction
  3
AutoCAD 2000
 90
        0
280
     0
281
     0
  0
CLASS
  1
LWPOLYLINE
  2
AcDbPolyline
  3
AutoCAD 2000
 90
        0
280
     0
281
     1
  0
CLASS
  1
HATCH
  2
AcDbHatch
  3
AutoCAD 2000
 90
        0
280
     0
281
     1
  0
CLASS
  1
XRECORD
  2
AcDbXrecord
  3
AutoCAD 2000
 90
        0
280
     0
281
     0
  0
CLASS
  1
LONG_TRANSACTION
  2
AcDbLongTransaction
  3
AutoCAD 2000
 90
        0
280
     0
281
     0
  0
CLASS
  1
LWPOLYLINE
  2
AcDbPolyline
  3
AutoCAD 2000
 90
        0
280
     0
281
     1
  0
CLASS
  1
HATCH
  2
AcDbHatch
  3
AutoCAD 2000
 90
        0
280
     0
281
     1
  0
CLASS
  1
XRECORD
  2
AcDbXrecord
  3
AutoCAD 2000
 90
        0
280
     0
281
     0
  0
CLASS
  1
LONG_TRANSACTION
  2
AcDbLongTransaction
  3
AutoCAD 2000
 90
        0
280
     0
281
     0
  0
CLASS
  1
LWPOLYLINE
  2
AcDbPolyline
  3
AutoCAD 2000
 90
        0
280
     0
281
     1
  0
CLASS
  1
HATCH
  2
AcDbHatch
  3
AutoCAD 2000
 90
        0
280
     0
281
     1
  0
CLASS
  1
XRECORD
  2
AcDbXrecord
  3
AutoCAD 2000
 90
        0
280
     0
281
     0
  0
CLASS
  1
LONG_TRANSACTION
  2
AcDbLongTransaction
  3
AutoCAD 2000
 90
        0
280
     0
281
     0
  0
CLASS
  1
LWPOLYLINE
  2
AcDbPolyline
  3
AutoCAD 2000
 90
        0
280
     0
281
     1
  0
CLASS
  1
HATCH
  2
AcDbHatch
  3
AutoCAD 2000
 90
        0
280
     0
281
     1
  0
CLASS
  1
XRECORD
  2
AcDbXrecord
  3
AutoCAD 2000
 90
        0
280
     0
281
     0
  0
CLASS
  1
LONG_TRANSACTION
  2
AcDbLongTransaction
  3
AutoCAD 2000
 90
        0
280
     0
281
     0
  0
CLASS
  1
LWPOLYLINE
  2
AcDbPolyline
  3
AutoCAD 2000
 90
        0
280
     0
281
     1
  0
CLASS
  1
HATCH
  2
AcDbHatch
  3
AutoCAD 2000
 90
        0
280
     0
281
     1
  0
CLASS
  1
XRECORD
  2
AcDbXrecord
  3
AutoCAD 2000
 90
        0
280
     0
281
     0
  0
CLASS
  1
LONG_TRANSACTION
  2
AcDbLongTransaction
  3
AutoCAD 2000
 90
        0
280
     0
281
     0
  0
CLASS
  1
LWPOLYLINE
  2
AcDbPolyline
  3
AutoCAD 2000
 90
        0
280
     0
281
     1
  0
CLASS
  1
HATCH
  2
AcDbHatch
  3
AutoCAD 2000
 90
        0
280
     0
281
     1
  0
CLASS
  1
XRECORD
  2
AcDbXrecord
  3
AutoCAD 2000
 90
        0
280
     0
281
     0
  0
CLASS
  1
LONG_TRANSACTION
  2
AcDbLongTransaction
  3
AutoCAD 2000
 90
        0
280
     0
281
     0
  0
CLASS
  1
LWPOLYLINE
  2
AcDbPolyline
  3
AutoCAD 2000
 90
        0
280
     0
281
     1
  0
CLASS
  1
HATCH
  2
AcDbHatch
  3
AutoCAD 2000
 90
        0
280
     0
281
     1
  0
CLASS
  1
XRECORD
  2
AcDbXrecord
  3
AutoCAD 2000
 90
        0
280
     0
281
     0
  0
CLASS
  1
LONG_TRANSACTION
  2
AcDbLongTransaction
  3
AutoCAD 2000
 90
        0
280
     0
281
     0
  0
CLASS
  1
LWPOLYLINE
  2
AcDbPolyline
  3
AutoCAD 2000
 90
        0
280
     0
281
     1
  0
CLASS
  1
HATCH
  2
AcDbHatch
  3
AutoCAD 2000
 90
        0
280
     0
281
     1
  0
CLASS
  1
XRECORD
  2
AcDbXrecord
  3
AutoCAD 2000
 90
        0
280
     0
281
     0
  0
CLASS
  1
LONG_TRANSACTION
  2
AcDbLongTransaction
  3
AutoCAD 2000
 90
        0
280
     0
281
     0
  0
CLASS
  1
LWPOLYLINE
  2
AcDbPolyline
  3
AutoCAD 2000
 90
        0
280
     0
281
     1
  0
CLASS
  1
HATCH
  2
AcDbHatch
  3
AutoCAD 2000
 90
        0
280
     0
281
     1
  0
CLASS
  1
XRECORD
  2
AcDbXrecord
  3
AutoCAD 2000
 90
        0
280
     0
281
     0
  0
CLASS
  1
LONG_TRANSACTION
  2
AcDbLongTransaction
  3
AutoCAD 2000
 90
        0
280
     0
281
     0
  0
CLASS
  1
LWPOLYLINE
  2
AcDbPolyline
  3
AutoCAD 2000
 90
        0
280
     0
281
     1
  0
CLASS
  1
HATCH
  2
AcDbHatch
  3
AutoCAD 2000
 90
        0
280
     0
281
     1
  0
CLASS
  1
XRECORD
  2
AcDbXrecord
  3
AutoCAD 2000
 90
        0
280
     0
281
     0
  0
CLASS
  1
LONG_TRANSACTION
  2
AcDbLongTransaction
  3
AutoCAD 2000
 90
        0
280
     0
281
     0
  0
CLASS
  1
LWPOLYLINE
  2
AcDbPolyline
  3
AutoCAD 2000
 90
        0
280
     0
281
     1
  0
CLASS
  1
HATCH
  2
AcDbHatch
  3
AutoCAD 2000
 90
        0
280
     0
281
     1
  0
CLASS
  1
XRECORD
  2
AcDbXrecord
  3
AutoCAD 2000
 90
        0
280
     0
281
     0
  0
CLASS
  1
LONG_TRANSACTION
  2
AcDbLongTransaction
  3
AutoCAD 2000
 90
        0
280
     0
281
     0
  0
CLASS
  1
LWPOLYLINE
  2
AcDbPolyline
  3
AutoCAD 2000
 90
        0
280
     0
281
     1
  0
CLASS
  1
HATCH
  2
AcDbHatch
  3
AutoCAD 2000
 90
        0
280
     0
281
     1
  0
CLASS
  1
XRECORD
  2
AcDbXrecord
  3
AutoCAD 2000
 90
        0
280
     0
281
     0
  0
CLASS
  1
LONG_TRANSACTION
  2
AcDbLongTransaction
  3
AutoCAD 2000
 90
        0
280
     0
281
     0
  0
CLASS
  1
LWPOLYLINE
  2
AcDbPolyline
  3
AutoCAD 2000
 90
        0
280
     0
281
     1
  0
CLASS
  1
HATCH
  2
AcDbHatch
  3
AutoCAD 2000
 90
        0
280
     0
281
     1
  0
CLASS
  1
XRECORD
  2
AcDbXrecord
  3
AutoCAD 2000
 90
        0
280
     0
281
     0
  0
CLASS
  1
LONG_TRANSACTION
  2
AcDbLongTransaction
  3
AutoCAD 2000
 90
        0
280
     0
281
     0
  0
CLASS
  1
LWPOLYLINE
  2
AcDbPolyline
  3
AutoCAD 2000
 90
        0
280
     0
281
     1
  0
CLASS
  1
HATCH
  2
AcDbHatch
  3
AutoCAD 2000
 90
        0
280
     0
281
     1
  0
CLASS
  1
XRECORD
  2
AcDbXrecord
  3
AutoCAD 2000
 90
        0
280
     0
281
     0
  0
CLASS
  1
LONG_TRANSACTION
  2
AcDbLongTransaction
  3
AutoCAD 2000
 90
        0
280
     0
281
     0
  0
CLASS
  1
LWPOLYLINE
  2
AcDbPolyline
  3
AutoCAD 2000
 90
        0
280
     0
281
     1
  0
CLASS
  1
HATCH
  2
AcDbHatch
  3
AutoCAD 2000
 90
        0
280
     0
281
     1
  0
CLASS
  1
XRECORD
  2
AcDbXrecord
  3
AutoCAD 2000
 90
        0
280
     0
281
     0
  0
CLASS
  1
LONG_TRANSACTION
  2
AcDbLongTransaction
  3
AutoCAD 2000
 90
        0
280
     0
281
     0
  0
CLASS
  1
LWPOLYLINE
  2
AcDbPolyline
  3
AutoCAD 2000
 90
        0
280
     0
281
     1
  0
CLASS
  1
HATCH
  2
AcDbHatch
  3
AutoCAD 2000
 90
        0
280
     0
281
     1
  0
CLASS
  1
XRECORD
  2
AcDbXrecord
  3
AutoCAD 2000
 90
        0
280
     0
281
     0
  0
CLASS
  1
LONG_TRANSACTION
  2
AcDbLongTransaction
  3
AutoCAD 2000
 90
        0
280
     0
281
     0
  0
CLASS
  1
LWPOLYLINE
  2
AcDbPolyline
  3
AutoCAD 2000
 90
        0
280
     0
281
     1
  0
CLASS
  1
HATCH
  2
AcDbHatch
  3
AutoCAD 2000
 90
        0
280
     0
281
     1
  0
CLASS
  1
XRECORD
  2
AcDbXrecord
  3
AutoCAD 2000
 90
        0
280
     0
281
     0
  0
CLASS
  1
LONG_TRANSACTION
  2
AcDbLongTransaction
  3
AutoCAD 2000
 90
        0
280
     0
281
     0
  0
CLASS
  1
LWPOLYLINE
  2
AcDbPolyline
  3
AutoCAD 2000
 90
        0
280
     0
281
     1
  0
CLASS
  1
HATCH
  2
AcDbHatch
  3
AutoCAD 2000
 90
        0
280
     0
281
     1
  0
CLASS
  1
XRECORD
  2
AcDbXrecord
  3
AutoCAD 2000
 90
        0
280
     0
281
     0
  0
CLASS
  1
LONG_TRANSACTION
  2
AcDbLongTransaction
  3
AutoCAD 2000
 90
        0
280
     0
281
     0
  0
CLASS
  1
LWPOLYLINE
  2
AcDbPolyline
  3
AutoCAD 2000
 90
        0
280
     0
281
     1
  0
CLASS
  1
HATCH
  2
AcDbHatch
  3
AutoCAD 2000
 90
        0
280
     0
281
     1
  0
CLASS
  1
XRECORD
  2
AcDbXrecord
  3
AutoCAD 2000
 90
        0
280
     0
281
     0
  0
CLASS
  1
LONG_TRANSACTION
  2
AcDbLongTransaction
  3
AutoCAD 2000
 90
        0
280
     0
281
     0
  0
CLASS
  1
LWPOLYLINE
  2
AcDbPolyline
  3
AutoCAD 2000
 90
        0
280
     0
281
     1
  0
CLASS
  1
HATCH
  2
AcDbHatch
  3
AutoCAD 2000
 90
        0
280
     0
281
     1
  0
CLASS
  1
XRECORD
  2
AcDbXrecord
  3
AutoCAD 2000
 90
        0
280
     0
281
     0
  0
CLASS
  1
LONG_TRANSACTION
  2
AcDbLongTransaction
  3
AutoCAD 2000
 90
        0
280
     0
281
     0
  0
CLASS
  1
LWPOLYLINE
  2
AcDbPolyline
  3
AutoCAD 2000
 90
        0
280
     0
281
     1
  0
CLASS
  1
HATCH
  2
AcDbHatch
  3
AutoCAD 2000
 90
        0
280
     0
281
     1
  0
CLASS
  1
XRECORD
  2
AcDbXrecord
  3
AutoCAD 2000
 90
        0
280
     0
281
     0
  0
CLASS
  1
LONG_TRANSACTION
  2
AcDbLongTransaction
  3
AutoCAD 2000
 90
        0
280
     0
281
     0
  0
CLASS
  1
LWPOLYLINE
  2
AcDbPolyline
  3
AutoCAD 2000
 90
        0
280
     0
281
     1
  0
CLASS
  1
HATCH
  2
AcDbHatch
  3
AutoCAD 2000
 90
        0
280
     0
281
     1
  0
CLASS
  1
XRECORD
  2
AcDbXrecord
  3
AutoCAD 2000
 90
        0
280
     0
281
     0
  0
CLASS
  1
LONG_TRANSACTION
  2
AcDbLongTransaction
  3
AutoCAD 2000
 90
        0
280
     0
281
     0
  0
CLASS
  1
LWPOLYLINE
  2
AcDbPolyline
  3
AutoCAD 2000
 90
        0
280
     0
281
     1
  0
CLASS
  1
HATCH
  2
AcDbHatch
  3
AutoCAD 2000
 90
        0
280
     0
281
     1
  0
CLASS
  1
XRECORD
  2
AcDbXrecord
  3
AutoCAD 2000
 90
        0
280
     0
281
     0
  0
CLASS
  1
LONG_TRANSACTION
  2
AcDbLongTransaction
  3
AutoCAD 2000
 90
        0
280
     0
281
     0
  0
CLASS
  1
LWPOLYLINE
  2
AcDbPolyline
  3
AutoCAD 2000
 90
        0
280
     0
281
     1
  0
CLASS
  1
HATCH
  2
AcDbHatch
  3
AutoCAD 2000
 90
        0
280
     0
281
     1
  0
CLASS
  1
XRECORD
  2
AcDbXrecord
  3
AutoCAD 2000
 90
        0
280
     0
281
     0
  0
CLASS
  1
LONG_TRANSACTION
  2
AcDbLongTransaction
  3
AutoCAD 2000
 90
        0
280
     0
281
     0
  0
CLASS
  1
LWPOLYLINE
  2
AcDbPolyline
  3
AutoCAD 2000
 90
        0
280
     0
281
     1
  0
CLASS
  1
HATCH
  2
AcDbHatch
  3
AutoCAD 2000
 90
        0
280
     0
281
     1
  0
CLASS
  1
XRECORD
  2
AcDbXrecord
  3
AutoCAD 2000
 90
        0
280
     0
281
     0
  0
CLASS
  1
LONG_TRANSACTION
  2
AcDbLongTransaction
  3
AutoCAD 2000
 90
        0
280
     0
281
     0
  0
CLASS
  1
LWPOLYLINE
  2
AcDbPolyline
  3
AutoCAD 2000
 90
        0
280
     0
281
     1
  0
CLASS
  1
HATCH
  2
AcDbHatch
  3
AutoCAD 2000
 90
        0
280
     0
281
     1
  0
CLASS
  1
XRECORD
  2
AcDbXrecord
  3
AutoCAD 2000
 90
        0
280
     0
281
     0
  0
CLASS
  1
LONG_TRANSACTION
  2
AcDbLongTransaction
  3
AutoCAD 2000
 90
        0
280
     0
281
     0
  0
CLASS
  1
LWPOLYLINE
  2
AcDbPolyline
  3
AutoCAD 2000
 90
        0
280
     0
281
     1
  0
CLASS
  1
HATCH
  2
AcDbHatch
  3
AutoCAD 2000
 90
        0
280
     0
281
     1
  0
CLASS
  1
XRECORD
  2
AcDbXrecord
  3
AutoCAD 2000
 90
        0
280
     0
281
     0
  0
CLASS
  1
LONG_TRANSACTION
  2
AcDbLongTransaction
  3
AutoCAD 2000
 90
        0
280
     0
281
     0
  0
CLASS
  1
LWPOLYLINE
  2
AcDbPolyline
  3
AutoCAD 2000
 90
        0
280
     0
281
     1
  0
CLASS
  1
HATCH
  2
AcDbHatch
  3
AutoCAD 2000
 90
        0
280
     0
281
     1
  0
CLASS
  1
XRECORD
  2
AcDbXrecord
  3
AutoCAD 2000
 90
        0
280
     0
281
     0
  0
CLASS
  1
LONG_TRANSACTION
  2
AcDbLongTransaction
  3
AutoCAD 2000
 90
        0
280
     0
281
     0
  0
CLASS
  1
LWPOLYLINE
  2
AcDbPolyline
  3
AutoCAD 2000
 90
        0
280
     0
281
     1
  0
CLASS
  1
HATCH
  2
AcDbHatch
  3
AutoCAD 2000
 90
        0
280
     0
281
     1
  0
CLASS
  1
XRECORD
  2
AcDbXrecord
  3
AutoCAD 2000
 90
        0
280
     0
281
     0
  0
CLASS
  1
LONG_TRANSACTION
  2
AcDbLongTransaction
  3
AutoCAD 2000
 90
        0
280
     0
281
     0
  0
CLASS
  1
LWPOLYLINE
  2
AcDbPolyline
  3
AutoCAD 2000
 90
        0
280
     0
281
     1
  0
CLASS
  1
HATCH
  2
AcDbHatch
  3
AutoCAD 2000
 90
        0
280
     0
281
     1
  0
CLASS
  1
XRECORD
  2
AcDbXrecord
  3
AutoCAD 2000
 90
        0
280
     0
281
     0
  0
CLASS
  1
LONG_TRANSACTION
  2
AcDbLongTransaction
  3
AutoCAD 2000
 90
        0
280
     0
281
     0
  0
CLASS
  1
LWPOLYLINE
  2
AcDbPolyline
  3
AutoCAD 2000
 90
        0
280
     0
281
     1
  0
CLASS
  1
HATCH
  2
AcDbHatch
  3
AutoCAD 2000
 90
        0
280
     0
281
     1
  0
CLASS
  1
XRECORD
  2
AcDbXrecord
  3
AutoCAD 2000
 90
        0
280
     0
281
     0
  0
CLASS
  1
LONG_TRANSACTION
  2
AcDbLongTransaction
  3
AutoCAD 2000
 90
        0
280
     0
281
     0
  0
CLASS
  1
LWPOLYLINE
  2
AcDbPolyline
  3
AutoCAD 2000
 90
        0
280
     0
281
     1
  0
CLASS
  1
HATCH
  2
AcDbHatch
  3
AutoCAD 2000
 90
        0
280
     0
281
     1
  0
CLASS
  1
XRECORD
  2
AcDbXrecord
  3
AutoCAD 2000
 90
        0
280
     0
281
     0
  0
CLASS
  1
LONG_TRANSACTION
  2
AcDbLongTransaction
  3
AutoCAD 2000
 90
        0
280
     0
281
     0
  0
CLASS
  1
LWPOLYLINE
  2
AcDbPolyline
  3
AutoCAD 2000
 90
        0
280
     0
281
     1
  0
CLASS
  1
HATCH
  2
AcDbHatch
  3
AutoCAD 2000
 90
        0
280
     0
281
     1
  0
CLASS
  1
XRECORD
  2
AcDbXrecord
  3
AutoCAD 2000
 90
        0
280
     0
281
     0
  0
CLASS
  1
LONG_TRANSACTION
  2
AcDbLongTransaction
  3
AutoCAD 2000
 90
        0
280
     0
281
     0
  0
CLASS
  1
LWPOLYLINE
  2
AcDbPolyline
  3
AutoCAD 2000
 90
        0
280
     0
281
     1
  0
CLASS
  1
HATCH
  2
AcDbHatch
  3
AutoCAD 2000
 90
        0
280
     0
281
     1
  0
CLASS
  1
XRECORD
  2
AcDbXrecord
  3
AutoCAD 2000
 90
        0
280
     0
281
     0
  0
CLASS
  1
LONG_TRANSACTION
  2
AcDbLongTransaction
  3
AutoCAD 2000
 90
        0
280
     0
281
     0
  0
CLASS
  1
LWPOLYLINE
  2
AcDbPolyline
  3
AutoCAD 2000
 90
        0
280
     0
281
     1
  0
CLASS
  1
HATCH
  2
AcDbHatch
  3
AutoCAD 2000
 90
        0
280
     0
281
     1
  0
CLASS
  1
XRECORD
  2
AcDbXrecord
  3
AutoCAD 2000
 90
        0
280
     0
281
     0
  0
CLASS
  1
LONG_TRANSACTION
  2
AcDbLongTransaction
  3
AutoCAD 2000
 90
        0
280
     0
281
     0
  0
CLASS
  1
LWPOLYLINE
  2
AcDbPolyline
  3
AutoCAD 2000
 90
        0
280
     0
281
     1
  0
CLASS
  1
HATCH
  2
AcDbHatch
  3
AutoCAD 2000
 90
        0
280
     0
281
     1
  0
CLASS
  1
XRECORD
  2
AcDbXrecord
  3
AutoCAD 2000
 90
        0
280
     0
281
     0
  0
CLASS
  1
LONG_TRANSACTION
  2
AcDbLongTransaction
  3
AutoCAD 2000
 90
        0
280
     0
281
     0
  0
CLASS
  1
LWPOLYLINE
  2
AcDbPolyline
  3
AutoCAD 2000
 90
        0
280
     0
281
     1
  0
CLASS
  1
HATCH
  2
AcDbHatch
  3
AutoCAD 2000
 90
        0
280
     0
281
     1
  0
CLASS
  1
XRECORD
  2
AcDbXrecord
  3
AutoCAD 2000
 90
        0
280
     0
281
     0
  0
CLASS
  1
LONG_TRANSACTION
  2
AcDbLongTransaction
  3
AutoCAD 2000
 90
        0
280
     0
281
     0
  0
CLASS
  1
LWPOLYLINE
  2
AcDbPolyline
  3
AutoCAD 2000
 90
        0
280
     0
281
     1
  0
CLASS
  1
HATCH
  2
AcDbHatch
  3
AutoCAD 2000
 90
        0
280
     0
281
     1
  0
CLASS
  1
XRECORD
  2
AcDbXrecord
  3
AutoCAD 2000
 90
        0
280
     0
281
     0
  0
CLASS
  1
LONG_TRANSACTION
  2
AcDbLongTransaction
  3
AutoCAD 2000
 90
        0
280
     0
281
     0
  0
CLASS
  1
LWPOLYLINE
  2
AcDbPolyline
  3
AutoCAD 2000
 90
        0
280
     0
281
     1
  0
CLASS
  1
HATCH
  2
AcDbHatch
  3
AutoCAD 2000
 90
        0
280
     0
281
     1
  0
CLASS
  1
XRECORD
  2
AcDbXrecord
  3
AutoCAD 2000
 90
        0
280
     0
281
     0
  0
CLASS
  1
LONG_TRANSACTION
  2
AcDbLongTransaction
  3
AutoCAD 2000
 90
        0
280
     0
281
     0
  0
CLASS
  1
LWPOLYLINE
  2
AcDbPolyline
  3
AutoCAD 2000
 90
        0
280
     0
281
     1
  0
CLASS
  1
HATCH
  2
AcDbHatch
  3
AutoCAD 2000
 90
        0
280
     0
281
     1
  0
CLASS
  1
XRECORD
  2
AcDbXrecord
  3
AutoCAD 2000
 90
        0
280
     0
281
     0
  0
CLASS
  1
LONG_TRANSACTION
  2
AcDbLongTransaction
  3
AutoCAD 2000
 90
        0
280
     0
281
     0
  0
CLASS
  1
LWPOLYLINE
  2
AcDbPolyline
  3
AutoCAD 2000
 90
        0
280
     0
281
     1
  0
CLASS
  1
HATCH
  2
AcDbHatch
  3
AutoCAD 2000
 90
        0
280
     0
281
     1
  0
CLASS
  1
XRECORD
  2
AcDbXrecord
  3
AutoCAD 2000
 90
        0
280
     0
281
     0
  0
CLASS
  1
LONG_TRANSACTION
  2
AcDbLongTransaction
  3
AutoCAD 2000
 90
        0
280
     0
281
     0
  0
CLASS
  1
LWPOLYLINE
  2
AcDbPolyline
  3
AutoCAD 2000
 90
        0
280
     0
281
     1
  0
CLASS
  1
HATCH
  2
AcDbHatch
  3
AutoCAD 2000
 90
        0
280
     0
281
     1
  0
CLASS
  1
XRECORD
  2
AcDbXrecord
  3
AutoCAD 2000
 90
        0
280
     0
281
     0
  0
CLASS
  1
LONG_TRANSACTION
  2
AcDbLongTransaction
  3
AutoCAD 2000
 90
        0
280
     0
281
     0
  0
CLASS
  1
LWPOLYLINE
  2
AcDbPolyline
  3
AutoCAD 2000
 90
        0
280
     0
281
     1
  0
CLASS
  1
HATCH
  2
AcDbHatch
  3
AutoCAD 2000
 90
        0
280
     0
281
     1
  0
CLASS
  1
XRECORD
  2
AcDbXrecord
  3
AutoCAD 2000
 90
        0
280
     0
281
     0
  0
CLASS
  1
LONG_TRANSACTION
  2
AcDbLongTransaction
  3
AutoCAD 2000
 90
        0
280
     0
281
     0
  0
CLASS
  1
LWPOLYLINE
  2
AcDbPolyline
  3
AutoCAD 2000
 90
        0
280
     0
281
     1
  0
CLASS
  1
HATCH
  2
AcDbHatch
  3
AutoCAD 2000
 90
        0
280
     0
281
     1
  0
CLASS
  1
XRECORD
  2
AcDbXrecord
  3
AutoCAD 2000
 90
        0
280
     0
281
     0
  0
CLASS
  1
LONG_TRANSACTION
  2
AcDbLongTransaction
  3
AutoCAD 2000
 90
        0
280
     0
281
     0
  0
CLASS
  1
LWPOLYLINE
  2
AcDbPolyline
  3
AutoCAD 2000
 90
        0
280
     0
281
     1
  0
CLASS
  1
HATCH
  2
AcDbHatch
  3
AutoCAD 2000
 90
        0
280
     0
281
     1
  0
CLASS
  1
XRECORD
  2
AcDbXrecord
  3
AutoCAD 2000
 90
        0
280
     0
281
     0
  0
CLASS
  1
LONG_TRANSACTION
  2
AcDbLongTransaction
  3
AutoCAD 2000
 90
        0
280
     0
281
     0
  0
CLASS
  1
LWPOLYLINE
  2
AcDbPolyline
  3
AutoCAD 2000
 90
        0
280
     0
281
     1
  0
CLASS
  1
HATCH
  2
AcDbHatch
  3
AutoCAD 2000
 90
        0
280
     0
281
     1
  0
CLASS
  1
XRECORD
  2
AcDbXrecord
  3
AutoCAD 2000
 90
        0
280
     0
281
     0
  0
CLASS
  1
LONG_TRANSACTION
  2
AcDbLongTransaction
  3
AutoCAD 2000
 90
        0
280
     0
281
     0
  0
CLASS
  1
LWPOLYLINE
  2
AcDbPolyline
  3
AutoCAD 2000
 90
        0
280
     0
281
     1
  0
CLASS
  1
HATCH
  2
AcDbHatch
  3
AutoCAD 2000
 90
        0
280
     0
281
     1
  0
CLASS
  1
XRECORD
  2
AcDbXrecord
  3
AutoCAD 2000
 90
        0
280
     0
281
     0
  0
CLASS
  1
LONG_TRANSACTION
  2
AcDbLongTransaction
  3
AutoCAD 2000
 90
        0
280
     0
281
     0
  0
CLASS
  1
LWPOLYLINE
  2
AcDbPolyline
  3
AutoCAD 2000
 90
        0
280
     0
281
     1
  0
CLASS
  1
HATCH
  2
AcDbHatch
  3
AutoCAD 2000
 90
        0
280
     0
281
     1
  0
CLASS
  1
XRECORD
  2
AcDbXrecord
  3
AutoCAD 2000
 90
        0
280
     0
281
     0
  0
CLASS
  1
LONG_TRANSACTION
  2
AcDbLongTransaction
  3
AutoCAD 2000
 90
        0
280
     0
281
     0
  0
CLASS
  1
LWPOLYLINE
  2
AcDbPolyline
  3
AutoCAD 2000
 90
        0
280
     0
281
     1
  0
CLASS
  1
HATCH
  2
AcDbHatch
  3
AutoCAD 2000
 90
        0
280
     0
281
     1
  0
CLASS
  1
XRECORD
  2
AcDbXrecord
  3
AutoCAD 2000
 90
        0
280
     0
281
     0
  0
CLASS
  1
LONG_TRANSACTION
  2
AcDbLongTransaction
  3
AutoCAD 2000
 90
        0
280
     0
281
     0
  0
CLASS
  1
LWPOLYLINE
  2
AcDbPolyline
  3
AutoCAD 2000
 90
        0
280
     0
281
     1
  0
CLASS
  1
HATCH
  2
AcDbHatch
  3
AutoCAD 2000
 90
        0
280
     0
281
     1
  0
CLASS
  1
XRECORD
  2
AcDbXrecord
  3
AutoCAD 2000
 90
        0
280
     0
281
     0
  0
CLASS
  1
LONG_TRANSACTION
  2
AcDbLongTransaction
  3
AutoCAD 2000
 90
        0
280
     0
281
     0
  0
CLASS
  1
LWPOLYLINE
  2
AcDbPolyline
  3
AutoCAD 2000
 90
        0
280
     0
281
     1
  0
CLASS
  1
HATCH
  2
AcDbHatch
  3
AutoCAD 2000
 90
        0
280
     0
281
     1
  0
CLASS
  1
XRECORD
  2
AcDbXrecord
  3
AutoCAD 2000
 90
        0
280
     0
281
     0
  0
CLASS
  1
LONG_TRANSACTION
  2
AcDbLongTransaction
  3
AutoCAD 2000
 90
        0
280
     0
281
     0
  0
CLASS
  1
LWPOLYLINE
  2
AcDbPolyline
  3
AutoCAD 2000
 90
        0
280
     0
281
     1
  0
CLASS
  1
HATCH
  2
AcDbHatch
  3
AutoCAD 2000
 90
        0
280
     0
281
     1
  0
CLASS
  1
XRECORD
  2
AcDbXrecord
  3
AutoCAD 2000
 90
        0
280
     0
281
     0
  0
CLASS
  1
LONG_TRANSACTION
  2
AcDbLongTransaction
  3
AutoCAD 2000
 90
        0
280
     0
281
     0
  0
CLASS
  1
LWPOLYLINE
  2
AcDbPolyline
  3
AutoCAD 2000
 90
        0
280
     0
281
     1
  0
CLASS
  1
HATCH
  2
AcDbHatch
  3
AutoCAD 2000
 90
        0
280
     0
281
     1
  0
CLASS
  1
XRECORD
  2
AcDbXrecord
  3
AutoCAD 2000
 90
        0
280
     0
281
     0
  0
CLASS
  1
LONG_TRANSACTION
  2
AcDbLongTransaction
  3
AutoCAD 2000
 90
        0
280
     0
281
     0
  0
CLASS
  1
LWPOLYLINE
  2
AcDbPolyline
  3
AutoCAD 2000
 90
        0
280
     0
281
     1
  0
CLASS
  1
HATCH
  2
AcDbHatch
  3
AutoCAD 2000
 90
        0
280
     0
281
     1
  0
CLASS
  1
XRECORD
  2
AcDbXrecord
  3
AutoCAD 2000
 90
        0
280
     0
281
     0
  0
CLASS
  1
LONG_TRANSACTION
  2
AcDbLongTransaction
  3
AutoCAD 2000
 90
        0
280
     0
281
     0
  0
CLASS
  1
LWPOLYLINE
  2
AcDbPolyline
  3
AutoCAD 2000
 90
        0
280
     0
281
     1
  0
CLASS
  1
HATCH
  2
AcDbHatch
  3
AutoCAD 2000
 90
        0
280
     0
281
     1
  0
CLASS
  1
XRECORD
  2
AcDbXrecord
  3
AutoCAD 2000
 90
        0
280
     0
281
     0
  0
CLASS
  1
LONG_TRANSACTION
  2
AcDbLongTransaction
  3
AutoCAD 2000
 90
        0
280
     0
281
     0
  0
CLASS
  1
LWPOLYLINE
  2
AcDbPolyline
  3
AutoCAD 2000
 90
        0
280
     0
281
     1
  0
CLASS
  1
HATCH
  2
AcDbHatch
  3
AutoCAD 2000
 90
        0
280
     0
281
     1
  0
CLASS
  1
XRECORD
  2
AcDbXrecord
  3
AutoCAD 2000
 90
        0
280
     0
281
     0
  0
CLASS
  1
LONG_TRANSACTION
  2
AcDbLongTransaction
  3
AutoCAD 2000
 90
        0
280
     0
281
     0
  0
CLASS
  1
LWPOLYLINE
  2
AcDbPolyline
  3
AutoCAD 2000
 90
        0
280
     0
281
     1
  0
CLASS
  1
HATCH
  2
AcDbHatch
  3
AutoCAD 2000
 90
        0
280
     0
281
     1
  0
CLASS
  1
XRECORD
  2
AcDbXrecord
  3
AutoCAD 2000
 90
        0
280
     0
281
     0
  0
CLASS
  1
LONG_TRANSACTION
  2
AcDbLongTransaction
  3
AutoCAD 2000
 90
        0
280
     0
281
     0
  0
CLASS
  1
LWPOLYLINE
  2
AcDbPolyline
  3
AutoCAD 2000
 90
        0
280
     0
281
     1
  0
CLASS
  1
HATCH
  2
AcDbHatch
  3
AutoCAD 2000
 90
        0
280
     0
281
     1
  0
CLASS
  1
XRECORD
  2
AcDbXrecord
  3
AutoCAD 2000
 90
        0
280
     0
281
     0
  0
CLASS
  1
LONG_TRANSACTION
  2
AcDbLongTransaction
  3
AutoCAD 2000
 90
        0
280
     0
281
     0
  0
CLASS
  1
LWPOLYLINE
  2
AcDbPolyline
  3
AutoCAD 2000
 90
        0
280
     0
281
     1
  0
CLASS
  1
HATCH
  2
AcDbHatch
  3
AutoCAD 2000
 90
        0
280
     0
281
     1
  0
CLASS
  1
XRECORD
  2
AcDbXrecord
  3
AutoCAD 2000
 90
        0
280
     0
281
     0
  0
CLASS
  1
LONG_TRANSACTION
  2
AcDbLongTransaction
  3
AutoCAD 2000
 90
        0
280
     0
281
     0
  0
CLASS
  1
LWPOLYLINE
  2
AcDbPolyline
  3
AutoCAD 2000
 90
        0
280
     0
281
     1
  0
CLASS
  1
HATCH
  2
AcDbHatch
  3
AutoCAD 2000
 90
        0
280
     0
281
     1
  0
CLASS
  1
XRECORD
  2
AcDbXrecord
  3
AutoCAD 2000
 90
        0
280
     0
281
     0
  0
ENDSEC
  0
SECTION
  2
TABLES
  0
TABLE
  2
VPORT
  5
92
330
0
100
AcDbSymbolTable
 70
     2
  0
VPORT
  5
3F5
330
92
100
AcDbSymbolTableRecord
100
AcDbViewportTableRecord
  2
*ACTIVE
 70
     0
 10
0.0
 20
0.0
 11
1.0
 21
1.0
 12
157.836234117487
 22
169.766933444047
 13
0.0
 23
0.0
 14
10.0
 24
10.0
 15
10.0
 25
10.0
 16
0.0
 26
0.0
 36
1.0
 17
0.0
 27
0.0
 37
0.0
 40
377.460919384571
 41
1.549367088607595
 42
50.0
 43
0.0
 44
0.0
 50
0.0
 51
0.0
 71
     0
 72
 10000
 73
     1
 74
     3
 75
     0
 76
     0
 77
     0
 78
     1
  0
ENDTAB
  0
TABLE
  2
LTYPE
  5
8D
330
0
100
AcDbSymbolTable
 70
     3
  0
LTYPE
  5
8E
330
8D
100
AcDbSymbolTableRecord
100
AcDbLinetypeTableRecord
  2
BYBLOCK
 70
     0
  3

 72
    65
 73
     0
 40
0.0
  0
LTYPE
  5
8F
330
8D
100
AcDbSymbolTableRecord
100
AcDbLinetypeTableRecord
  2
BYLAYER
 70
     0
  3

 72
    65
 73
     0
 40
0.0
  0
LTYPE
  5
A
330
8D
100
AcDbSymbolTableRecord
100
AcDbLinetypeTableRecord
  2
CONTINUOUS
 70
     0
  3
Solid line
 72
    65
 73
     0
 40
0.0
  0
LTYPE
  5
CB
330
8D
100
AcDbSymbolTableRecord
100
AcDbLinetypeTableRecord
  2
CENTER
 70
     0
  3
Center ____ _ ____ _ ____ _ ____ _ ____ _ ____
 72
    65
 73
     4
 40
50.8
 49
31.75
 74
     0
 49
-6.349999999999998
 74
     0
 49
6.349999999999998
 74
     0
 49
-6.349999999999998
 74
     0
  0
LTYPE
  5
1AA
330
8D
100
AcDbSymbolTableRecord
100
AcDbLinetypeTableRecord
  2
CENTERX2
 70
     0
  3
Center (2x) ________  __  ________  __  _____
 72
    65
 73
     4
 40
101.6
 49
63.5
 74
     0
 49
-12.7
 74
     0
 49
12.7
 74
     0
 49
-12.7
 74
     0
  0
ENDTAB
  0
TABLE
  2
LAYER
  5
14
102
{ACAD_XDICTIONARY
360
15
102
}
330
0
100
AcDbSymbolTable
 70
     7
  0
LAYER
  5
6
330
14
100
AcDbSymbolTableRecord
100
AcDbLayerTableRecord
  2
0
 70
     0
 62
     7
  6
CONTINUOUS
  0
LAYER
  5
1CE
330
14
100
AcDbSymbolTableRecord
100
AcDbLayerTableRecord
  2
3
 70
     0
 62
     3
  6
CONTINUOUS
  0
LAYER
  5
AA
330
14
100
AcDbSymbolTableRecord
100
AcDbLayerTableRecord
  2
DEFPOINTS
 70
     0
 62
     7
  6
CONTINUOUS
  0
LAYER
  5
16E
330
14
100
AcDbSymbolTableRecord
100
AcDbLayerTableRecord
  2
DIM
 70
     0
 62
     3
  6
CONTINUOUS
  0
LAYER
  5
1A9
330
14
100
AcDbSymbolTableRecord
100
AcDbLayerTableRecord
  2
CL
 70
     0
 62
     1
  6
CENTERX2
  0
LAYER
  5
CA
330
14
100
AcDbSymbolTableRecord
100
AcDbLayerTableRecord
  2
CEN
 70
     0
 62
     1
  6
CENTER
  0
LAYER
  5
2BD
330
14
100
AcDbSymbolTableRecord
100
AcDbLayerTableRecord
  2
2
 70
     0
 62
     2
  6
CONTINUOUS
  0
ENDTAB
  0
TABLE
  2
STYLE
  5
8A
330
0
100
AcDbSymbolTable
 70
     1
  0
STYLE
  5
8B
330
8A
100
AcDbSymbolTableRecord
100
AcDbTextStyleTableRecord
  2
STANDARD
 70
     0
 40
0.0
 41
1.0
 50
0.0
 71
     0
 42
5.777225951253058
  3
romans.shx
  4
whgtxt.shx
  0
ENDTAB
  0
TABLE
  2
VIEW
  5
90
330
0
100
AcDbSymbolTable
 70
     0
  0
ENDTAB
  0
TABLE
  2
UCS
  5
91
330
0
100
AcDbSymbolTable
 70
     0
  0
ENDTAB
  0
TABLE
  2
APPID
  5
94
330
0
100
AcDbSymbolTable
 70
     2
  0
APPID
  5
95
330
94
100
AcDbSymbolTableRecord
100
AcDbRegAppTableRecord
  2
ACAD
 70
     0
  0
APPID
  5
419
330
94
100
AcDbSymbolTableRecord
100
AcDbRegAppTableRecord
  2
CONTENTBLOCKICON
 70
     0
  0
ENDTAB
  0
TABLE
  2
DIMSTYLE
  5
96
330
0
100
AcDbSymbolTable
 70
     2
  0
DIMSTYLE
105
A1
102
{ACAD_REACTORS
330
D2
330
13D
330
26E
330
9E
330
B7
330
2CD
330
2A0
330
2AD
330
2E0
330
21E
330
1D8
330
1E7
330
20D
330
1AF
330
111
330
12D
330
1F8
330
FC
330
14A
330
EB
102
}
330
96
100
AcDbSymbolTableRecord
100
AcDbDimStyleTableRecord
  2
STANDARD
 70
     0
  3

  4

  5

  6

  7

 40
1.0
 41
2.5
 42
1.0
 43
10.0
 44
0.6
 45
0.0
 46
0.0
 47
0.0
 48
0.0
140
3.0
141
0.09
142
0.0
143
25.4
144
1.0
145
0.0
146
1.0
147
1.0
 71
     0
 72
     0
 73
     0
 74
     0
 75
     0
 76
     0
 77
     1
 78
     8
170
     0
171
     2
172
     1
173
     0
174
     1
175
     0
176
   123
177
   123
178
     3
270
     2
271
     2
272
     2
273
     2
274
     2
340
8B
275
     1
280
     0
281
     0
282
     0
283
     1
284
     0
285
     0
286
     0
287
     0
288
     1
  0
DIMSTYLE
105
9C
330
96
100
AcDbSymbolTableRecord
100
AcDbDimStyleTableRecord
  2
1_1_2
 70
     0
  3

  4

  5

  6

  7

 40
1.0
 41
3.0
 42
1.0
 43
10.0
 44
0.6
 45
0.0
 46
0.0
 47
0.0
 48
0.0
140
3.5
141
0.09
142
0.0
143
25.4
144
1.0
145
0.0
146
1.0
147
1.0
 71
     0
 72
     0
 73
     0
 74
     0
 75
     0
 76
     0
 77
     1
 78
     8
170
     0
171
     2
172
     1
173
     0
174
     1
175
     0
176
   123
177
   123
178
     3
270
     2
271
     2
272
     2
273
     2
274
     2
340
8B
275
     1
280
     0
281
     0
282
     0
283
     1
284
     0
285
     0
286
     0
287
     0
288
     1
  0
ENDTAB
  0
TABLE
  2
BLOCK_RECORD
  5
1
330
0
100
AcDbSymbolTable
 70
    40
  0
BLOCK_RECORD
  5
2
102
{ACAD_XDICTIONARY
360
3
102
}
330
1
100
AcDbSymbolTableRecord
100
AcDbBlockTableRecord
  2
*MODEL_SPACE
  0
BLOCK_RECORD
  5
E
102
{ACAD_XDICTIONARY
360
F
102
}
330
1
100
AcDbSymbolTableRecord
100
AcDbBlockTableRecord
  2
*PAPER_SPACE
  0
BLOCK_RECORD
  5
CE
330
1
100
AcDbSymbolTableRecord
100
AcDbBlockTableRecord
  2
5
1001
ACAD
1000
DesignCenter Data
1002
{
1070
     1
1070
     4
1002
}
1001
CONTENTBLOCKICON
1071
        0
1004
2800000020000000200000000100080000000000000400000000000000000000000000000000000000000000000080000080000000808000800000008000800080800000C0C0C000C0DCC000F0CAA6000020400000206000002080000020A0000020C0000020E00000400000004020000040400000406000004080000040A0
1004
000040C0000040E00000600000006020000060400000606000006080000060A0000060C0000060E00000800000008020000080400000806000008080000080A0000080C0000080E00000A0000000A0200000A0400000A0600000A0800000A0A00000A0C00000A0E00000C0000000C0200000C0400000C0600000C0800000C0
1004
A00000C0C00000C0E00000E0000000E0200000E0400000E0600000E0800000E0A00000E0C00000E0E00040000000400020004000400040006000400080004000A0004000C0004000E00040200000402020004020400040206000402080004020A0004020C0004020E000404000004040200040404000404060004040800040
1004
40A0004040C0004040E00040600000406020004060400040606000406080004060A0004060C0004060E00040800000408020004080400040806000408080004080A0004080C0004080E00040A0000040A0200040A0400040A0600040A0800040A0A00040A0C00040A0E00040C0000040C0200040C0400040C0600040C08000
1004
40C0A00040C0C00040C0E00040E0000040E0200040E0400040E0600040E0800040E0A00040E0C00040E0E00080000000800020008000400080006000800080008000A0008000C0008000E00080200000802020008020400080206000802080008020A0008020C0008020E00080400000804020008040400080406000804080
1004
008040A0008040C0008040E00080600000806020008060400080606000806080008060A0008060C0008060E00080800000808020008080400080806000808080008080A0008080C0008080E00080A0000080A0200080A0400080A0600080A0800080A0A00080A0C00080A0E00080C0000080C0200080C0400080C0600080C0
1004
800080C0A00080C0C00080C0E00080E0000080E0200080E0400080E0600080E0800080E0A00080E0C00080E0E000C0000000C0002000C0004000C0006000C0008000C000A000C000C000C000E000C0200000C0202000C0204000C0206000C0208000C020A000C020C000C020E000C0400000C0402000C0404000C0406000C0
1004
408000C040A000C040C000C040E000C0600000C0602000C0604000C0606000C0608000C060A000C060C000C060E000C0800000C0802000C0804000C0806000C0808000C080A000C080C000C080E000C0A00000C0A02000C0A04000C0A06000C0A08000C0A0A000C0A0C000C0A0E000C0C00000C0C02000C0C04000C0C06000
1004
C0C08000C0C0A000F0FBFF00A4A0A000808080000000FF0000FF000000FFFF00FF000000FF00FF00FFFF0000FFFFFF0000000000000000000000000000000000000000000000000000000000000000000000000000000000000000000000000000000000000000000000000000000000000000000000000000000000000000
1004
00000000000000000000000000000000000000000000F9000000000000000000000000000000F900000000000000000000000000FFF90000000000000000000000000000000000FFF9000000000000000000F3F3F9FF0000000000000000000000000000000000FFFF00000000000000000000F9FF00F90000000000000000
1004
00000000000000F900F9000000000000000000000000F30000000000000000000000000000000000000000000000000000000000000000F3F30000000000000000000000000000000000000000000000000000000000000000F30000000000000000000000000000000000000000000000000000000000000000F300000000
1004
00000000000000000000000000000000000000000000000000000000F30000000000000000000000000000000000000000000000000000000000000000F3F30000000000000000000000000000000000000000000000000000000000000000F300000000000000000000000000000000000000000000000000000000000000
1004
00F30000000000000000000000000000000000000000000000000000000000000000F30000000000000000000000000000000000000000000000000000000000000000F3F30000000000000000000000000000000000000000000000000000000000000000F300000000000000000000000000000000000000000000000000
1004
00000000000000F30000000000000000000000000000000000000000000000000000000000000000F30000000000000000000000000000000000000000000000000000000000000000F3F30000000000000000000000000000000000000000000000000000000000000000F3F900000000000000000000F9FF00F900000000
1004
0000000000000000000000F9F9FFF300000000000000000000FFFF00000000000000000000000000000000F9F9FF00F3000000000000000000FF00F90000000000000000000000000000F900FFF900FAFA000000000000000000000000000000000000000000000000000000000000FAFAFAF3000000000000000000000000
1004
0000000000000000000000000000000000FAFAFAFA0000000000000000000000000000000000000000000000000000000000FAFAFAF3000000000000000000000000000000000000000000000000000000000000FA000000000000000000000000000000000000000000000000000000000000000000000000000000000000
1004
0000000000000000000000000000000000000000000000000000000000000000000000000000000000000000000000000000000000000000
  0
BLOCK_RECORD
  5
D5
330
1
100
AcDbSymbolTableRecord
100
AcDbBlockTableRecord
  2
*D1
  0
BLOCK_RECORD
  5
13E
330
1
100
AcDbSymbolTableRecord
100
AcDbBlockTableRecord
  2
*D2
  0
BLOCK_RECORD
  5
2A1
330
1
100
AcDbSymbolTableRecord
100
AcDbBlockTableRecord
  2
*D3
  0
BLOCK_RECORD
  5
2E1
330
1
100
AcDbSymbolTableRecord
100
AcDbBlockTableRecord
  2
*D4
  0
BLOCK_RECORD
  5
21F
330
1
100
AcDbSymbolTableRecord
100
AcDbBlockTableRecord
  2
*D5
  0
BLOCK_RECORD
  5
271
330
1
100
AcDbSymbolTableRecord
100
AcDbBlockTableRecord
  2
*D6
  0
BLOCK_RECORD
  5
A2
330
1
100
AcDbSymbolTableRecord
100
AcDbBlockTableRecord
  2
*D7
  0
BLOCK_RECORD
  5
BA
330
1
100
AcDbSymbolTableRecord
100
AcDbBlockTableRecord
  2
*D8
  0
BLOCK_RECORD
  5
2D0
330
1
100
AcDbSymbolTableRecord
100
AcDbBlockTableRecord
  2
*D9
  0
BLOCK_RECORD
  5
2B0
330
1
100
AcDbSymbolTableRecord
100
AcDbBlockTableRecord
  2
*D10
  0
BLOCK_RECORD
  5
1DB
330
1
100
AcDbSymbolTableRecord
100
AcDbBlockTableRecord
  2
*D11
  0
BLOCK_RECORD
  5
1EA
330
1
100
AcDbSymbolTableRecord
100
AcDbBlockTableRecord
  2
*D12
  0
BLOCK_RECORD
  5
210
330
1
100
AcDbSymbolTableRecord
100
AcDbBlockTableRecord
  2
*D13
  0
BLOCK_RECORD
  5
1B2
330
1
100
AcDbSymbolTableRecord
100
AcDbBlockTableRecord
  2
*D14
  0
BLOCK_RECORD
  5
114
330
1
100
AcDbSymbolTableRecord
100
AcDbBlockTableRecord
  2
*D15
  0
BLOCK_RECORD
  5
130
330
1
100
AcDbSymbolTableRecord
100
AcDbBlockTableRecord
  2
*D16
  0
BLOCK_RECORD
  5
1FB
330
1
100
AcDbSymbolTableRecord
100
AcDbBlockTableRecord
  2
*D17
  0
BLOCK_RECORD
  5
FF
330
1
100
AcDbSymbolTableRecord
100
AcDbBlockTableRecord
  2
*D18
  0
BLOCK_RECORD
  5
14D
330
1
100
AcDbSymbolTableRecord
100
AcDbBlockTableRecord
  2
*D19
  0
BLOCK_RECORD
  5
EE
330
1
100
AcDbSymbolTableRecord
100
AcDbBlockTableRecord
  2
*D20
  0
BLOCK_RECORD
  5
2F5
330
1
100
AcDbSymbolTableRecord
100
AcDbBlockTableRecord
  2
*D21
  0
BLOCK_RECORD
  5
303
330
1
100
AcDbSymbolTableRecord
100
AcDbBlockTableRecord
  2
*D22
  0
BLOCK_RECORD
  5
30F
330
1
100
AcDbSymbolTableRecord
100
AcDbBlockTableRecord
  2
*D23
  0
BLOCK_RECORD
  5
31B
330
1
100
AcDbSymbolTableRecord
100
AcDbBlockTableRecord
  2
*D24
  0
BLOCK_RECORD
  5
329
330
1
100
AcDbSymbolTableRecord
100
AcDbBlockTableRecord
  2
*D25
  0
BLOCK_RECORD
  5
335
330
1
100
AcDbSymbolTableRecord
100
AcDbBlockTableRecord
  2
*D26
  0
BLOCK_RECORD
  5
341
330
1
100
AcDbSymbolTableRecord
100
AcDbBlockTableRecord
  2
*D27
  0
BLOCK_RECORD
  5
34D
330
1
100
AcDbSymbolTableRecord
100
AcDbBlockTableRecord
  2
*D28
  0
BLOCK_RECORD
  5
359
330
1
100
AcDbSymbolTableRecord
100
AcDbBlockTableRecord
  2
*D29
  0
BLOCK_RECORD
  5
365
330
1
100
AcDbSymbolTableRecord
100
AcDbBlockTableRecord
  2
*D30
  0
BLOCK_RECORD
  5
371
330
1
100
AcDbSymbolTableRecord
100
AcDbBlockTableRecord
  2
*D31
  0
BLOCK_RECORD
  5
37F
330
1
100
AcDbSymbolTableRecord
100
AcDbBlockTableRecord
  2
*D32
  0
BLOCK_RECORD
  5
38B
330
1
100
AcDbSymbolTableRecord
100
AcDbBlockTableRecord
  2
*D33
  0
BLOCK_RECORD
  5
397
330
1
100
AcDbSymbolTableRecord
100
AcDbBlockTableRecord
  2
*D34
  0
BLOCK_RECORD
  5
3A3
330
1
100
AcDbSymbolTableRecord
100
AcDbBlockTableRecord
  2
*D35
  0
BLOCK_RECORD
  5
3AF
330
1
100
AcDbSymbolTableRecord
100
AcDbBlockTableRecord
  2
*D36
  0
BLOCK_RECORD
  5
3BB
330
1
100
AcDbSymbolTableRecord
100
AcDbBlockTableRecord
  2
*D37
  0
BLOCK_RECORD
  5
3C9
330
1
100
AcDbSymbolTableRecord
100
AcDbBlockTableRecord
  2
*D38
  0
BLOCK_RECORD
  5
3D7
330
1
100
AcDbSymbolTableRecord
100
AcDbBlockTableRecord
  2
*D39
  0
ENDTAB
  0
ENDSEC
  0
SECTION
  2
BLOCKS
  0
BLOCK
  5
5
330
2
100
AcDbEntity
  8
0
100
AcDbBlockBegin
  2
*MODEL_SPACE
 70
     0
 10
0.0
 20
0.0
 30
0.0
  3
*MODEL_SPACE
  1

  0
ENDBLK
  5
B
330
2
100
AcDbEntity
  8
0
100
AcDbBlockEnd
  0
BLOCK
  5
11
330
E
100
AcDbEntity
 67
     1
  8
0
100
AcDbBlockBegin
  2
*PAPER_SPACE
 70
     0
 10
0.0
 20
0.0
 30
0.0
  3
*PAPER_SPACE
  1

  0
ENDBLK
  5
12
330
E
100
AcDbEntity
 67
     1
  8
0
100
AcDbBlockEnd
  0
BLOCK
  5
E9
330
CE
100
AcDbEntity
  8
0
100
AcDbBlockBegin
  2
5
 70
     0
 10
0.0
 20
0.0
 30
0.0
  3
5
  1

  0
CIRCLE
  5
CF
330
CE
100
AcDbEntity
  8
0
100
AcDbCircle
 10
33.23401871576971
 20
33.2340187157647
 30
0.0
 40
2.75
  0
LINE
  5
D0
330
CE
100
AcDbEntity
  8
CEN
 48
0.6
100
AcDbLine
 10
29.87526150513349
 20
29.87526150512849
 30
0.0
 11
36.59277592640592
 21
36.59277592640092
 31
0.0
  0
ARC
  5
D1
102
{ACAD_REACTORS
330
D4
102
}
330
CE
100
AcDbEntity
  8
CEN
 48
0.6
100
AcDbCircle
 10
-0.0000000000009095
 20
0.0
 30
0.0
 40
47.0
100
AcDbArc
 50
35.54155537381702
 51
54.45844462620417
  0
DIMENSION
  5
D2
102
{ACAD_XDICTIONARY
360
D3
102
}
102
{ACAD_REACTORS
330
D4
102
}
330
CE
100
AcDbEntity
  8
0
100
AcDbDimension
  2
*D1
 10
-37.12703852731556
 20
-28.81983709515498
 30
0.0
 11
52.82902883363476
 21
41.00849583681338
 31
0.0
 12
-5558.635528985877
 22
2192.234809732951
 32
0.0
 70
   131
  1
<>%%P0.5
  3
STANDARD
100
AcDbDiametricDimension
 15
37.12703852731374
 25
28.81983709515407
 35
0.0
 40
0.0
  0
ARC
  5
E0
330
CE
100
AcDbEntity
  8
CEN
 48
0.6
100
AcDbCircle
 10
-0.0000000000009095
 20
0.0000000000004547
 30
0.0
 40
47.0
100
AcDbArc
 50
126.7642625682232
 51
143.2357374317767
  0
LINE
  5
E1
330
CE
100
AcDbEntity
  8
CEN
 48
0.6
100
AcDbLine
 10
-29.87526150512985
 20
29.87526150513439
 30
0.0
 11
-36.59277592640228
 21
36.59277592640683
 31
0.0
  0
CIRCLE
  5
E2
330
CE
100
AcDbEntity
  8
0
100
AcDbCircle
 10
-33.23401871576605
 20
33.23401871577107
 30
0.0
 40
2.75
  0
LINE
  5
E3
330
CE
100
AcDbEntity
  8
CEN
 48
0.6
100
AcDbLine
 10
-29.87526150513439
 20
-29.87526150512895
 30
0.0
 11
-36.59277592640683
 21
-36.59277592640136
 31
0.0
  0
CIRCLE
  5
E4
330
CE
100
AcDbEntity
  8
0
100
AcDbCircle
 10
-33.23401871577061
 20
-33.23401871576516
 30
0.0
 40
2.75
  0
ARC
  5
E5
330
CE
100
AcDbEntity
  8
CEN
 48
0.6
100
AcDbCircle
 10
0.0
 20
-0.0000000000004547
 30
0.0
 40
47.0
100
AcDbArc
 50
215.5415553738169
 51
234.4584446262041
  0
ARC
  5
E6
330
CE
100
AcDbEntity
  8
CEN
 48
0.6
100
AcDbCircle
 10
-0.000000000001819
 20
-0.0000000000004547
 30
0.0
 40
47.0
100
AcDbArc
 50
306.7642625682233
 51
323.2357374317766
  0
LINE
  5
E7
330
CE
100
AcDbEntity
  8
CEN
 48
0.6
100
AcDbLine
 10
29.87526150512712
 20
-29.87526150513439
 30
0.0
 11
36.59277592639954
 21
-36.59277592640683
 31
0.0
  0
CIRCLE
  5
E8
330
CE
100
AcDbEntity
  8
0
100
AcDbCircle
 10
33.23401871576243
 20
-33.23401871577107
 30
0.0
 40
2.75
  0
ENDBLK
  5
EA
330
CE
100
AcDbEntity
  8
0
100
AcDbBlockEnd
  0
BLOCK
  5
DE
330
D5
100
AcDbEntity
  8
0
100
AcDbBlockBegin
  2
*D1
 70
     1
 10
0.0
 20
0.0
 30
0.0
  3
*D1
  1

  0
LINE
  5
D6
330
D5
100
AcDbEntity
  8
0
 62
   123
100
AcDbLine
 10
5519.533647983703
 20
-2222.58761688636
 30
0.0
 11
5517.558805508848
 21
-2224.120586944613
 31
0.0
  0
LINE
  5
D7
330
D5
100
AcDbEntity
  8
0
 62
   123
100
AcDbLine
 10
5597.737409988048
 20
-2161.882002579545
 30
0.0
 11
5619.53319993107
 21
-2144.963036229563
 31
0.0
  0
LINE
  5
D8
330
D5
100
AcDbEntity
  8
0
 62
   123
100
AcDbLine
 10
5521.508490458562
 20
-2221.054646828107
 30
0.0
 11
5595.762567513191
 21
-2163.414972637797
 31
0.0
  0
SOLID
  5
D9
330
D5
100
AcDbEntity
  8
0
 62
   123
100
AcDbTrace
 10
5519.278152973996
 20
-2222.258476473883
 30
0.0
 11
5519.789142993413
 21
-2222.916757298836
 31
0.0
 12
5521.508490458562
 22
-2221.054646828107
 32
0.0
 13
5521.508490458562
 23
-2221.054646828107
 33
0.0
  0
SOLID
  5
DA
330
D5
100
AcDbEntity
  8
0
 62
   123
100
AcDbTrace
 10
5597.481914978339
 20
-2161.552862167069
 30
0.0
 11
5597.992904997757
 21
-2162.21114299202
 31
0.0
 12
5595.762567513191
 22
-2163.414972637797
 32
0.0
 13
5595.762567513191
 23
-2163.414972637797
 33
0.0
  0
MTEXT
  5
DB
330
D5
100
AcDbEntity
  8
0
 62
     3
100
AcDbMText
 10
5609.931587761259
 20
-2149.251471421281
 30
0.0
 40
3.0
 41
0.0
 71
     5
 72
     1
  1
\A1;\U+220594%%P0.5
 11
0.7899369899428739
 21
0.6131880233011666
 31
0.0
1001
ACAD
1000
MTEXTBEGIN
1070
    73
1070
     1
1070
    44
1040
1.0
1070
    74
1070
     0
1000
MTEXTEND
  0
POINT
  5
DC
330
D5
100
AcDbEntity
  8
DEFPOINTS
 62
     0
100
AcDbPoint
 10
5595.762567513191
 20
-2163.414972637797
 30
0.0
  0
POINT
  5
DD
330
D5
100
AcDbEntity
  8
DEFPOINTS
 62
     0
100
AcDbPoint
 10
5521.508490458562
 20
-2221.054646828107
 30
0.0
  0
ENDBLK
  5
DF
330
D5
100
AcDbEntity
  8
0
100
AcDbBlockEnd
  0
BLOCK
  5
148
330
13E
100
AcDbEntity
  8
0
100
AcDbBlockBegin
  2
*D2
 70
     1
 10
0.0
 20
0.0
 30
0.0
  3
*D2
  1

  0
LINE
  5
13F
330
13E
100
AcDbEntity
  8
0
 62
   123
100
AcDbLine
 10
8142.005090334736
 20
-2972.464224493814
 30
0.0
 11
8095.378258439287
 21
-2972.464224493814
 31
0.0
  0
LINE
  5
140
330
13E
100
AcDbEntity
  8
0
 62
   123
100
AcDbLine
 10
8117.005090334735
 20
-2980.464224493815
 30
0.0
 11
8095.378258439287
 21
-2980.464224493815
 31
0.0
  0
LINE
  5
141
330
13E
100
AcDbEntity
  8
0
 62
   123
100
AcDbLine
 10
8095.978258439286
 20
-2974.964224493814
 30
0.0
 11
8095.978258439286
 21
-2977.964224493814
 31
0.0
  0
SOLID
  5
142
330
13E
100
AcDbEntity
  8
0
 62
   123
100
AcDbTrace
 10
8095.56159177262
 20
-2974.964224493814
 30
0.0
 11
8096.394925105954
 21
-2974.964224493814
 31
0.0
 12
8095.978258439286
 22
-2972.464224493814
 32
0.0
 13
8095.978258439286
 23
-2972.464224493814
 33
0.0
  0
SOLID
  5
143
330
13E
100
AcDbEntity
  8
0
 62
   123
100
AcDbTrace
 10
8095.56159177262
 20
-2977.964224493814
 30
0.0
 11
8096.394925105954
 21
-2977.964224493814
 31
0.0
 12
8095.978258439286
 22
-2980.464224493815
 32
0.0
 13
8095.978258439286
 23
-2980.464224493815
 33
0.0
  0
MTEXT
  5
144
330
13E
100
AcDbEntity
  8
0
 62
     3
100
AcDbMText
 10
8092.028258439288
 20
-2976.464224493814
 30
0.0
 40
3.0
 41
0.0
 71
     5
 72
     1
  1
\A1;\A1;%%c8{\H0.7x;\S+0^ -0.015;}(h7)
 11
0.0000000000000001
 21
1.0
 31
0.0
1001
ACAD
1000
MTEXTBEGIN
1070
    73
1070
     1
1070
    44
1040
1.0
1070
    74
1070
     0
1000
MTEXTEND
  0
POINT
  5
145
330
13E
100
AcDbEntity
  8
DEFPOINTS
 62
     0
100
AcDbPoint
 10
8143.005090334735
 20
-2972.464224493814
 30
0.0
  0
POINT
  5
146
330
13E
100
AcDbEntity
  8
DEFPOINTS
 62
     0
100
AcDbPoint
 10
8118.005090334735
 20
-2980.464224493815
 30
0.0
  0
POINT
  5
147
330
13E
100
AcDbEntity
  8
DEFPOINTS
 62
     0
100
AcDbPoint
 10
8095.978258439286
 20
-2980.464224493815
 30
0.0
  0
ENDBLK
  5
149
330
13E
100
AcDbEntity
  8
0
100
AcDbBlockEnd
  0
BLOCK
  5
2AB
330
2A1
100
AcDbEntity
  8
0
100
AcDbBlockBegin
  2
*D3
 70
     1
 10
0.0
 20
0.0
 30
0.0
  3
*D3
  1

  0
LINE
  5
2A2
330
2A1
100
AcDbEntity
  8
0
 62
   123
100
AcDbLine
 10
8119.949905866631
 20
-2768.954724132473
 30
0.0
 11
8119.949905866631
 21
-2707.18881067666
 31
0.0
  0
LINE
  5
2A3
330
2A1
100
AcDbEntity
  8
0
 62
   123
100
AcDbLine
 10
8133.449905866632
 20
-2731.559724132471
 30
0.0
 11
8133.449905866632
 21
-2707.18881067666
 31
0.0
  0
LINE
  5
2A4
330
2A1
100
AcDbEntity
  8
0
 62
   123
100
AcDbLine
 10
8122.449905866631
 20
-2707.78881067666
 30
0.0
 11
8130.949905866634
 21
-2707.78881067666
 31
0.0
  0
SOLID
  5
2A5
330
2A1
100
AcDbEntity
  8
0
 62
   123
100
AcDbTrace
 10
8122.449905866631
 20
-2707.372144009994
 30
0.0
 11
8122.449905866631
 21
-2708.205477343327
 31
0.0
 12
8119.949905866631
 22
-2707.78881067666
 32
0.0
 13
8119.949905866631
 23
-2707.78881067666
 33
0.0
  0
SOLID
  5
2A6
330
2A1
100
AcDbEntity
  8
0
 62
   123
100
AcDbTrace
 10
8130.949905866634
 20
-2707.372144009994
 30
0.0
 11
8130.949905866634
 21
-2708.205477343327
 31
0.0
 12
8133.449905866632
 22
-2707.78881067666
 32
0.0
 13
8133.449905866632
 23
-2707.78881067666
 33
0.0
  0
MTEXT
  5
2A7
330
2A1
100
AcDbEntity
  8
0
 62
     3
100
AcDbMText
 10
8126.699905866631
 20
-2705.28881067666
 30
0.0
 40
3.0
 41
0.0
 71
     5
 72
     1
  1
\A1;13.5
1001
ACAD
1000
MTEXTBEGIN
1070
    73
1070
     1
1070
    44
1040
1.0
1070
    74
1070
     0
1000
MTEXTEND
  0
POINT
  5
2A8
330
2A1
100
AcDbEntity
  8
DEFPOINTS
 62
     0
100
AcDbPoint
 10
8119.949905866631
 20
-2769.954724132472
 30
0.0
  0
POINT
  5
2A9
330
2A1
100
AcDbEntity
  8
DEFPOINTS
 62
     0
100
AcDbPoint
 10
8133.449905866632
 20
-2732.559724132471
 30
0.0
  0
POINT
  5
2AA
330
2A1
100
AcDbEntity
  8
DEFPOINTS
 62
     0
100
AcDbPoint
 10
8133.449905866632
 20
-2707.78881067666
 30
0.0
  0
ENDBLK
  5
2AC
330
2A1
100
AcDbEntity
  8
0
100
AcDbBlockEnd
  0
BLOCK
  5
2EB
330
2E1
100
AcDbEntity
  8
0
100
AcDbBlockBegin
  2
*D4
 70
     1
 10
0.0
 20
0.0
 30
0.0
  3
*D4
  1

  0
LINE
  5
2E2
330
2E1
100
AcDbEntity
  8
0
 62
   123
100
AcDbLine
 10
8133.449905866632
 20
-2732.05972413247
 30
0.0
 11
8133.449905866632
 21
-2707.18881067666
 31
0.0
  0
LINE
  5
2E3
330
2E1
100
AcDbEntity
  8
0
 62
   123
100
AcDbLine
 10
8263.449905866632
 20
-2736.05972413247
 30
0.0
 11
8263.449905866632
 21
-2707.18881067666
 31
0.0
  0
LINE
  5
2E4
330
2E1
100
AcDbEntity
  8
0
 62
   123
100
AcDbLine
 10
8135.949905866629
 20
-2707.78881067666
 30
0.0
 11
8260.949905866631
 21
-2707.78881067666
 31
0.0
  0
SOLID
  5
2E5
330
2E1
100
AcDbEntity
  8
0
 62
   123
100
AcDbTrace
 10
8135.949905866629
 20
-2707.372144009994
 30
0.0
 11
8135.949905866629
 21
-2708.205477343327
 31
0.0
 12
8133.449905866632
 22
-2707.78881067666
 32
0.0
 13
8133.449905866632
 23
-2707.78881067666
 33
0.0
  0
SOLID
  5
2E6
330
2E1
100
AcDbEntity
  8
0
 62
   123
100
AcDbTrace
 10
8260.949905866631
 20
-2707.372144009994
 30
0.0
 11
8260.949905866631
 21
-2708.205477343327
 31
0.0
 12
8263.449905866632
 22
-2707.78881067666
 32
0.0
 13
8263.449905866632
 23
-2707.78881067666
 33
0.0
  0
MTEXT
  5
2E7
330
2E1
100
AcDbEntity
  8
0
 62
     3
100
AcDbMText
 10
8198.449905866631
 20
-2705.28881067666
 30
0.0
 40
3.0
 41
0.0
 71
     5
 72
     1
  1
\A1;130
1001
ACAD
1000
MTEXTBEGIN
1070
    73
1070
     1
1070
    44
1040
1.0
1070
    74
1070
     0
1000
MTEXTEND
  0
POINT
  5
2E8
330
2E1
100
AcDbEntity
  8
DEFPOINTS
 62
     0
100
AcDbPoint
 10
8133.449905866632
 20
-2733.059724132471
 30
0.0
  0
POINT
  5
2E9
330
2E1
100
AcDbEntity
  8
DEFPOINTS
 62
     0
100
AcDbPoint
 10
8263.449905866632
 20
-2737.059724132471
 30
0.0
  0
POINT
  5
2EA
330
2E1
100
AcDbEntity
  8
DEFPOINTS
 62
     0
100
AcDbPoint
 10
8263.449905866632
 20
-2707.78881067666
 30
0.0
  0
ENDBLK
  5
2EC
330
2E1
100
AcDbEntity
  8
0
100
AcDbBlockEnd
  0
BLOCK
  5
229
330
21F
100
AcDbEntity
  8
0
100
AcDbBlockBegin
  2
*D5
 70
     1
 10
0.0
 20
0.0
 30
0.0
  3
*D5
  1

  0
LINE
  5
220
330
21F
100
AcDbEntity
  8
0
 62
   123
100
AcDbLine
 10
8150.005090334735
 20
-2935.464224493814
 30
0.0
 11
8150.005090334735
 21
-2910.211810587241
 31
0.0
  0
LINE
  5
221
330
21F
100
AcDbEntity
  8
0
 62
   123
100
AcDbLine
 10
8280.005090334737
 20
-2939.464224493814
 30
0.0
 11
8280.005090334737
 21
-2910.211810587241
 31
0.0
  0
LINE
  5
222
330
21F
100
AcDbEntity
  8
0
 62
   123
100
AcDbLine
 10
8152.505090334736
 20
-2910.811810587241
 30
0.0
 11
8277.505090334736
 21
-2910.811810587241
 31
0.0
  0
SOLID
  5
223
330
21F
100
AcDbEntity
  8
0
 62
   123
100
AcDbTrace
 10
8152.505090334736
 20
-2910.395143920574
 30
0.0
 11
8152.505090334736
 21
-2911.228477253906
 31
0.0
 12
8150.005090334735
 22
-2910.811810587241
 32
0.0
 13
8150.005090334735
 23
-2910.811810587241
 33
0.0
  0
SOLID
  5
224
330
21F
100
AcDbEntity
  8
0
 62
   123
100
AcDbTrace
 10
8277.505090334736
 20
-2910.395143920574
 30
0.0
 11
8277.505090334736
 21
-2911.228477253906
 31
0.0
 12
8280.005090334737
 22
-2910.811810587241
 32
0.0
 13
8280.005090334737
 23
-2910.811810587241
 33
0.0
  0
MTEXT
  5
225
330
21F
100
AcDbEntity
  8
0
 62
     3
100
AcDbMText
 10
8215.005090334736
 20
-2908.311810587241
 30
0.0
 40
3.0
 41
0.0
 71
     5
 72
     1
  1
\A1;130
1001
ACAD
1000
MTEXTBEGIN
1070
    73
1070
     1
1070
    44
1040
1.0
1070
    74
1070
     0
1000
MTEXTEND
  0
POINT
  5
226
330
21F
100
AcDbEntity
  8
DEFPOINTS
 62
     0
100
AcDbPoint
 10
8150.005090334735
 20
-2936.464224493814
 30
0.0
  0
POINT
  5
227
330
21F
100
AcDbEntity
  8
DEFPOINTS
 62
     0
100
AcDbPoint
 10
8280.005090334737
 20
-2940.464224493814
 30
0.0
  0
POINT
  5
228
330
21F
100
AcDbEntity
  8
DEFPOINTS
 62
     0
100
AcDbPoint
 10
8280.005090334737
 20
-2910.811810587241
 30
0.0
  0
ENDBLK
  5
22A
330
21F
100
AcDbEntity
  8
0
100
AcDbBlockEnd
  0
BLOCK
  5
27B
330
271
100
AcDbEntity
  8
0
100
AcDbBlockBegin
  2
*D6
 70
     1
 10
0.0
 20
0.0
 30
0.0
  3
*D6
  1

  0
LINE
  5
272
330
271
100
AcDbEntity
  8
0
 62
   123
100
AcDbLine
 10
7998.335213542033
 20
-2737.059724132471
 30
0.0
 11
7998.335213542033
 21
-2715.264155801857
 31
0.0
  0
LINE
  5
273
330
271
100
AcDbEntity
  8
0
 62
   123
100
AcDbLine
 10
8078.335213542034
 20
-2737.059724132471
 30
0.0
 11
8078.335213542034
 21
-2715.264155801857
 31
0.0
  0
LINE
  5
274
330
271
100
AcDbEntity
  8
0
 62
   123
100
AcDbLine
 10
8000.835213542034
 20
-2715.864155801857
 30
0.0
 11
8075.835213542033
 21
-2715.864155801857
 31
0.0
  0
SOLID
  5
275
330
271
100
AcDbEntity
  8
0
 62
   123
100
AcDbTrace
 10
8000.835213542034
 20
-2715.447489135189
 30
0.0
 11
8000.835213542034
 21
-2716.280822468522
 31
0.0
 12
7998.335213542033
 22
-2715.864155801857
 32
0.0
 13
7998.335213542033
 23
-2715.864155801857
 33
0.0
  0
SOLID
  5
276
330
271
100
AcDbEntity
  8
0
 62
   123
100
AcDbTrace
 10
8075.835213542033
 20
-2715.447489135189
 30
0.0
 11
8075.835213542033
 21
-2716.280822468522
 31
0.0
 12
8078.335213542034
 22
-2715.864155801857
 32
0.0
 13
8078.335213542034
 23
-2715.864155801857
 33
0.0
  0
MTEXT
  5
277
330
271
100
AcDbEntity
  8
0
 62
     3
100
AcDbMText
 10
8039.093841296873
 20
-2713.364155801857
 30
0.0
 40
3.0
 41
0.0
 71
     5
 72
     1
  1
\A1;80
1001
ACAD
1000
MTEXTBEGIN
1070
    73
1070
     1
1070
    44
1040
1.0
1070
    74
1070
     0
1000
MTEXTEND
  0
POINT
  5
278
330
271
100
AcDbEntity
  8
DEFPOINTS
 62
     0
100
AcDbPoint
 10
7998.335213542033
 20
-2738.059724132471
 30
0.0
  0
POINT
  5
279
330
271
100
AcDbEntity
  8
DEFPOINTS
 62
     0
100
AcDbPoint
 10
8078.335213542034
 20
-2738.059724132471
 30
0.0
  0
POINT
  5
27A
330
271
100
AcDbEntity
  8
DEFPOINTS
 62
     0
100
AcDbPoint
 10
8078.335213542034
 20
-2715.864155801857
 30
0.0
  0
ENDBLK
  5
27C
330
271
100
AcDbEntity
  8
0
100
AcDbBlockEnd
  0
BLOCK
  5
AD
330
A2
100
AcDbEntity
  8
0
100
AcDbBlockBegin
  2
*D7
 70
     1
 10
0.0
 20
0.0
 30
0.0
  3
*D7
  1

  0
LINE
  5
A3
330
A2
100
AcDbEntity
  8
0
 62
   123
100
AcDbLine
 10
8259.449905866631
 20
-2733.059724132471
 30
0.0
 11
8284.844995363885
 21
-2733.059724132471
 31
0.0
  0
LINE
  5
A4
330
A2
100
AcDbEntity
  8
0
 62
   123
100
AcDbLine
 10
8259.449905866631
 20
-2813.059724132472
 30
0.0
 11
8284.844995363885
 21
-2813.059724132472
 31
0.0
  0
LINE
  5
A5
330
A2
100
AcDbEntity
  8
0
 62
   123
100
AcDbLine
 10
8284.244995363884
 20
-2735.559724132471
 30
0.0
 11
8284.244995363884
 21
-2810.559724132471
 31
0.0
  0
SOLID
  5
A6
330
A2
100
AcDbEntity
  8
0
 62
   123
100
AcDbTrace
 10
8283.828328697218
 20
-2735.559724132471
 30
0.0
 11
8284.661662030551
 21
-2735.559724132471
 31
0.0
 12
8284.244995363884
 22
-2733.059724132471
 32
0.0
 13
8284.244995363884
 23
-2733.059724132471
 33
0.0
  0
SOLID
  5
A7
330
A2
100
AcDbEntity
  8
0
 62
   123
100
AcDbTrace
 10
8283.828328697218
 20
-2810.559724132471
 30
0.0
 11
8284.661662030551
 21
-2810.559724132471
 31
0.0
 12
8284.244995363884
 22
-2813.059724132472
 32
0.0
 13
8284.244995363884
 23
-2813.059724132472
 33
0.0
  0
MTEXT
  5
A8
330
A2
100
AcDbEntity
  8
0
 62
     3
100
AcDbMText
 10
8281.744995363885
 20
-2773.165504979428
 30
0.0
 40
3.0
 41
0.0
 71
     5
 72
     1
  1
\A1;%%C80
 11
0.0000000000000001
 21
1.0
 31
0.0
1001
ACAD
1000
MTEXTBEGIN
1070
    73
1070
     1
1070
    44
1040
1.0
1070
    74
1070
     0
1000
MTEXTEND
  0
POINT
  5
A9
330
A2
100
AcDbEntity
  8
DEFPOINTS
 62
     0
100
AcDbPoint
 10
8258.449905866632
 20
-2733.059724132471
 30
0.0
  0
POINT
  5
AB
330
A2
100
AcDbEntity
  8
DEFPOINTS
 62
     0
100
AcDbPoint
 10
8258.449905866632
 20
-2813.059724132472
 30
0.0
  0
POINT
  5
AC
330
A2
100
AcDbEntity
  8
DEFPOINTS
 62
     0
100
AcDbPoint
 10
8284.244995363884
 20
-2813.059724132472
 30
0.0
  0
ENDBLK
  5
AE
330
A2
100
AcDbEntity
  8
0
100
AcDbBlockEnd
  0
BLOCK
  5
C4
330
BA
100
AcDbEntity
  8
0
100
AcDbBlockBegin
  2
*D8
 70
     1
 10
0.0
 20
0.0
 30
0.0
  3
*D8
  1

  0
LINE
  5
BB
330
BA
100
AcDbEntity
  8
0
 62
   123
100
AcDbLine
 10
8130.449905866631
 20
-2736.559724132471
 30
0.0
 11
8107.301257517054
 21
-2736.559724132471
 31
0.0
  0
LINE
  5
BC
330
BA
100
AcDbEntity
  8
0
 62
   123
100
AcDbLine
 10
8130.449905866631
 20
-2809.559724132471
 30
0.0
 11
8107.301257517054
 21
-2809.559724132471
 31
0.0
  0
LINE
  5
BD
330
BA
100
AcDbEntity
  8
0
 62
   123
100
AcDbLine
 10
8107.901257517054
 20
-2739.059724132471
 30
0.0
 11
8107.901257517054
 21
-2807.059724132471
 31
0.0
  0
SOLID
  5
BE
330
BA
100
AcDbEntity
  8
0
 62
   123
100
AcDbTrace
 10
8107.484590850388
 20
-2739.059724132471
 30
0.0
 11
8108.317924183721
 21
-2739.059724132471
 31
0.0
 12
8107.901257517054
 22
-2736.559724132471
 32
0.0
 13
8107.901257517054
 23
-2736.559724132471
 33
0.0
  0
SOLID
  5
BF
330
BA
100
AcDbEntity
  8
0
 62
   123
100
AcDbTrace
 10
8107.484590850388
 20
-2807.059724132471
 30
0.0
 11
8108.317924183721
 21
-2807.059724132471
 31
0.0
 12
8107.901257517054
 22
-2809.559724132471
 32
0.0
 13
8107.901257517054
 23
-2809.559724132471
 33
0.0
  0
MTEXT
  5
C0
330
BA
100
AcDbEntity
  8
0
 62
     3
100
AcDbMText
 10
8103.951107517055
 20
-2773.059724132471
 30
0.0
 40
3.0
 41
0.0
 71
     5
 72
     1
  1
\A1;\A1;{\f??|b0|i0|c0|p49;%%C73\H0.7x;\S+0^ -0.030;\H1.429x;(h7)}
 11
0.0000000000000001
 21
1.0
 31
0.0
1001
ACAD
1000
MTEXTBEGIN
1070
    73
1070
     1
1070
    44
1040
1.0
1070
    74
1070
     0
1000
MTEXTEND
  0
POINT
  5
C1
330
BA
100
AcDbEntity
  8
DEFPOINTS
 62
     0
100
AcDbPoint
 10
8131.449905866631
 20
-2736.559724132471
 30
0.0
  0
POINT
  5
C2
330
BA
100
AcDbEntity
  8
DEFPOINTS
 62
     0
100
AcDbPoint
 10
8131.449905866631
 20
-2809.559724132471
 30
0.0
  0
POINT
  5
C3
330
BA
100
AcDbEntity
  8
DEFPOINTS
 62
     0
100
AcDbPoint
 10
8107.901257517054
 20
-2809.559724132471
 30
0.0
  0
ENDBLK
  5
C5
330
BA
100
AcDbEntity
  8
0
100
AcDbBlockEnd
  0
BLOCK
  5
2DC
330
2D0
100
AcDbEntity
  8
0
100
AcDbBlockBegin
  2
*D9
 70
     1
 10
0.0
 20
0.0
 30
0.0
  3
*D9
  1

  0
LINE
  5
2D1
330
2D0
100
AcDbEntity
  8
0
 62
   123
100
AcDbLine
 10
8131.449905866631
 20
-2735.559724132471
 30
0.0
 11
8131.449905866631
 21
-2720.53104206906
 31
0.0
  0
LINE
  5
2D2
330
2D0
100
AcDbEntity
  8
0
 62
   123
100
AcDbLine
 10
8133.449905866632
 20
-2730.55972413247
 30
0.0
 11
8133.449905866632
 21
-2720.53104206906
 31
0.0
  0
LINE
  5
2D3
330
2D0
100
AcDbEntity
  8
0
 62
   123
100
AcDbLine
 10
8135.949905866629
 20
-2721.131042069059
 30
0.0
 11
8138.449905866632
 21
-2721.131042069059
 31
0.0
  0
LINE
  5
2D4
330
2D0
100
AcDbEntity
  8
0
 62
   123
100
AcDbLine
 10
8128.949905866631
 20
-2721.131042069059
 30
0.0
 11
8122.449905866631
 21
-2721.131042069059
 31
0.0
  0
LINE
  5
2D5
330
2D0
100
AcDbEntity
  8
0
 62
   123
100
AcDbLine
 10
8133.449905866632
 20
-2721.131042069059
 30
0.0
 11
8131.449905866631
 21
-2721.131042069059
 31
0.0
  0
SOLID
  5
2D6
330
2D0
100
AcDbEntity
  8
0
 62
   123
100
AcDbTrace
 10
8135.949905866629
 20
-2720.714375402392
 30
0.0
 11
8135.949905866629
 21
-2721.547708735725
 31
0.0
 12
8133.449905866632
 22
-2721.131042069059
 32
0.0
 13
8133.449905866632
 23
-2721.131042069059
 33
0.0
  0
SOLID
  5
2D7
330
2D0
100
AcDbEntity
  8
0
 62
   123
100
AcDbTrace
 10
8128.949905866631
 20
-2720.714375402392
 30
0.0
 11
8128.949905866631
 21
-2721.547708735725
 31
0.0
 12
8131.449905866631
 22
-2721.131042069059
 32
0.0
 13
8131.449905866631
 23
-2721.131042069059
 33
0.0
  0
MTEXT
  5
2D8
330
2D0
100
AcDbEntity
  8
0
 62
     3
100
AcDbMText
 10
8124.449905866631
 20
-2718.63104206906
 30
0.0
 40
3.0
 41
0.0
 71
     5
 72
     1
  1
\A1;2
1001
ACAD
1000
MTEXTBEGIN
1070
    73
1070
     1
1070
    44
1040
1.0
1070
    74
1070
     0
1000
MTEXTEND
  0
POINT
  5
2D9
330
2D0
100
AcDbEntity
  8
DEFPOINTS
 62
     0
100
AcDbPoint
 10
8131.449905866631
 20
-2736.559724132471
 30
0.0
  0
POINT
  5
2DA
330
2D0
100
AcDbEntity
  8
DEFPOINTS
 62
     0
100
AcDbPoint
 10
8133.449905866632
 20
-2731.559724132471
 30
0.0
  0
POINT
  5
2DB
330
2D0
100
AcDbEntity
  8
DEFPOINTS
 62
     0
100
AcDbPoint
 10
8133.449905866632
 20
-2721.131042069059
 30
0.0
  0
ENDBLK
  5
2DD
330
2D0
100
AcDbEntity
  8
0
100
AcDbBlockEnd
  0
BLOCK
  5
2BA
330
2B0
100
AcDbEntity
  8
0
100
AcDbBlockBegin
  2
*D10
 70
     1
 10
0.0
 20
0.0
 30
0.0
  3
*D10
  1

  0
LINE
  5
2B1
330
2B0
100
AcDbEntity
  8
0
 62
   123
100
AcDbLine
 10
8133.449905866632
 20
-2732.559724132471
 30
0.0
 11
8133.449905866632
 21
-2720.53104206906
 31
0.0
  0
LINE
  5
2B2
330
2B0
100
AcDbEntity
  8
0
 62
   123
100
AcDbLine
 10
8140.449905866629
 20
-2733.460986790942
 30
0.0
 11
8140.449905866629
 21
-2720.53104206906
 31
0.0
  0
LINE
  5
2B3
330
2B0
100
AcDbEntity
  8
0
 62
   123
100
AcDbLine
 10
8135.949905866629
 20
-2721.131042069059
 30
0.0
 11
8137.949905866632
 21
-2721.131042069059
 31
0.0
  0
SOLID
  5
2B4
330
2B0
100
AcDbEntity
  8
0
 62
   123
100
AcDbTrace
 10
8135.949905866629
 20
-2720.714375402392
 30
0.0
 11
8135.949905866629
 21
-2721.547708735725
 31
0.0
 12
8133.449905866632
 22
-2721.131042069059
 32
0.0
 13
8133.449905866632
 23
-2721.131042069059
 33
0.0
  0
SOLID
  5
2B5
330
2B0
100
AcDbEntity
  8
0
 62
   123
100
AcDbTrace
 10
8137.949905866632
 20
-2720.714375402392
 30
0.0
 11
8137.949905866632
 21
-2721.547708735725
 31
0.0
 12
8140.449905866629
 22
-2721.131042069059
 32
0.0
 13
8140.449905866629
 23
-2721.131042069059
 33
0.0
  0
MTEXT
  5
2B6
330
2B0
100
AcDbEntity
  8
0
 62
     3
100
AcDbMText
 10
8136.949905866632
 20
-2718.63104206906
 30
0.0
 40
3.0
 41
0.0
 71
     5
 72
     1
  1
\A1;7
1001
ACAD
1000
MTEXTBEGIN
1070
    73
1070
     1
1070
    44
1040
1.0
1070
    74
1070
     0
1000
MTEXTEND
  0
POINT
  5
2B7
330
2B0
100
AcDbEntity
  8
DEFPOINTS
 62
     0
100
AcDbPoint
 10
8133.449905866632
 20
-2733.55972413247
 30
0.0
  0
POINT
  5
2B8
330
2B0
100
AcDbEntity
  8
DEFPOINTS
 62
     0
100
AcDbPoint
 10
8140.449905866629
 20
-2734.460986790942
 30
0.0
  0
POINT
  5
2B9
330
2B0
100
AcDbEntity
  8
DEFPOINTS
 62
     0
100
AcDbPoint
 10
8140.449905866629
 20
-2721.131042069059
 30
0.0
  0
ENDBLK
  5
2BB
330
2B0
100
AcDbEntity
  8
0
100
AcDbBlockEnd
  0
BLOCK
  5
1E5
330
1DB
100
AcDbEntity
  8
0
100
AcDbBlockBegin
  2
*D11
 70
     1
 10
0.0
 20
0.0
 30
0.0
  3
*D11
  1

  0
LINE
  5
1DC
330
1DB
100
AcDbEntity
  8
0
 62
   123
100
AcDbLine
 10
8150.005090334735
 20
-2935.964224493814
 30
0.0
 11
8150.005090334735
 21
-2922.890126524852
 31
0.0
  0
LINE
  5
1DD
330
1DB
100
AcDbEntity
  8
0
 62
   123
100
AcDbLine
 10
8157.005090334735
 20
-2936.865487152286
 30
0.0
 11
8157.005090334735
 21
-2922.890126524852
 31
0.0
  0
LINE
  5
1DE
330
1DB
100
AcDbEntity
  8
0
 62
   123
100
AcDbLine
 10
8152.505090334736
 20
-2923.490126524852
 30
0.0
 11
8154.505090334735
 21
-2923.490126524852
 31
0.0
  0
SOLID
  5
1DF
330
1DB
100
AcDbEntity
  8
0
 62
   123
100
AcDbTrace
 10
8152.505090334736
 20
-2923.073459858184
 30
0.0
 11
8152.505090334736
 21
-2923.906793191518
 31
0.0
 12
8150.005090334735
 22
-2923.490126524852
 32
0.0
 13
8150.005090334735
 23
-2923.490126524852
 33
0.0
  0
SOLID
  5
1E0
330
1DB
100
AcDbEntity
  8
0
 62
   123
100
AcDbTrace
 10
8154.505090334735
 20
-2923.073459858184
 30
0.0
 11
8154.505090334735
 21
-2923.906793191518
 31
0.0
 12
8157.005090334735
 22
-2923.490126524852
 32
0.0
 13
8157.005090334735
 23
-2923.490126524852
 33
0.0
  0
MTEXT
  5
1E1
330
1DB
100
AcDbEntity
  8
0
 62
     3
100
AcDbMText
 10
8153.505090334737
 20
-2920.990126524852
 30
0.0
 40
3.0
 41
0.0
 71
     5
 72
     1
  1
\A1;7
1001
ACAD
1000
MTEXTBEGIN
1070
    73
1070
     1
1070
    44
1040
1.0
1070
    74
1070
     0
1000
MTEXTEND
  0
POINT
  5
1E2
330
1DB
100
AcDbEntity
  8
DEFPOINTS
 62
     0
100
AcDbPoint
 10
8150.005090334735
 20
-2936.964224493814
 30
0.0
  0
POINT
  5
1E3
330
1DB
100
AcDbEntity
  8
DEFPOINTS
 62
     0
100
AcDbPoint
 10
8157.005090334735
 20
-2937.865487152286
 30
0.0
  0
POINT
  5
1E4
330
1DB
100
AcDbEntity
  8
DEFPOINTS
 62
     0
100
AcDbPoint
 10
8157.005090334735
 20
-2923.490126524852
 30
0.0
  0
ENDBLK
  5
1E6
330
1DB
100
AcDbEntity
  8
0
100
AcDbBlockEnd
  0
BLOCK
  5
1F4
330
1EA
100
AcDbEntity
  8
0
100
AcDbBlockBegin
  2
*D12
 70
     1
 10
0.0
 20
0.0
 30
0.0
  3
*D12
  1

  0
LINE
  5
1EB
330
1EA
100
AcDbEntity
  8
0
 62
   123
100
AcDbLine
 10
8118.005090334735
 20
-2972.464224493814
 30
0.0
 11
8118.005090334735
 21
-2910.211810587241
 31
0.0
  0
LINE
  5
1EC
330
1EA
100
AcDbEntity
  8
0
 62
   123
100
AcDbLine
 10
8150.005090334735
 20
-2934.964224493814
 30
0.0
 11
8150.005090334735
 21
-2910.211810587241
 31
0.0
  0
LINE
  5
1ED
330
1EA
100
AcDbEntity
  8
0
 62
   123
100
AcDbLine
 10
8120.505090334736
 20
-2910.811810587241
 30
0.0
 11
8147.505090334735
 21
-2910.811810587241
 31
0.0
  0
SOLID
  5
1EE
330
1EA
100
AcDbEntity
  8
0
 62
   123
100
AcDbTrace
 10
8120.505090334736
 20
-2910.395143920574
 30
0.0
 11
8120.505090334736
 21
-2911.228477253906
 31
0.0
 12
8118.005090334735
 22
-2910.811810587241
 32
0.0
 13
8118.005090334735
 23
-2910.811810587241
 33
0.0
  0
SOLID
  5
1EF
330
1EA
100
AcDbEntity
  8
0
 62
   123
100
AcDbTrace
 10
8147.505090334735
 20
-2910.395143920574
 30
0.0
 11
8147.505090334735
 21
-2911.228477253906
 31
0.0
 12
8150.005090334735
 22
-2910.811810587241
 32
0.0
 13
8150.005090334735
 23
-2910.811810587241
 33
0.0
  0
MTEXT
  5
1F0
330
1EA
100
AcDbEntity
  8
0
 62
     3
100
AcDbMText
 10
8134.005090334737
 20
-2908.311810587241
 30
0.0
 40
3.0
 41
0.0
 71
     5
 72
     1
  1
\A1;32
1001
ACAD
1000
MTEXTBEGIN
1070
    73
1070
     1
1070
    44
1040
1.0
1070
    74
1070
     0
1000
MTEXTEND
  0
POINT
  5
1F1
330
1EA
100
AcDbEntity
  8
DEFPOINTS
 62
     0
100
AcDbPoint
 10
8118.005090334735
 20
-2973.464224493815
 30
0.0
  0
POINT
  5
1F2
330
1EA
100
AcDbEntity
  8
DEFPOINTS
 62
     0
100
AcDbPoint
 10
8150.005090334735
 20
-2935.964224493814
 30
0.0
  0
POINT
  5
1F3
330
1EA
100
AcDbEntity
  8
DEFPOINTS
 62
     0
100
AcDbPoint
 10
8150.005090334735
 20
-2910.811810587241
 30
0.0
  0
ENDBLK
  5
1F5
330
1EA
100
AcDbEntity
  8
0
100
AcDbBlockEnd
  0
BLOCK
  5
21C
330
210
100
AcDbEntity
  8
0
100
AcDbBlockBegin
  2
*D13
 70
     1
 10
0.0
 20
0.0
 30
0.0
  3
*D13
  1

  0
LINE
  5
211
330
210
100
AcDbEntity
  8
0
 62
   123
100
AcDbLine
 10
8148.005090334736
 20
-2938.964224493814
 30
0.0
 11
8148.005090334736
 21
-2922.890126524852
 31
0.0
  0
LINE
  5
212
330
210
100
AcDbEntity
  8
0
 62
   123
100
AcDbLine
 10
8150.005090334735
 20
-2933.964224493815
 30
0.0
 11
8150.005090334735
 21
-2922.890126524852
 31
0.0
  0
LINE
  5
213
330
210
100
AcDbEntity
  8
0
 62
   123
100
AcDbLine
 10
8152.505090334736
 20
-2923.490126524852
 30
0.0
 11
8155.005090334737
 21
-2923.490126524852
 31
0.0
  0
LINE
  5
214
330
210
100
AcDbEntity
  8
0
 62
   123
100
AcDbLine
 10
8145.505090334735
 20
-2923.490126524852
 30
0.0
 11
8139.005090334737
 21
-2923.490126524852
 31
0.0
  0
LINE
  5
215
330
210
100
AcDbEntity
  8
0
 62
   123
100
AcDbLine
 10
8150.005090334735
 20
-2923.490126524852
 30
0.0
 11
8148.005090334736
 21
-2923.490126524852
 31
0.0
  0
SOLID
  5
216
330
210
100
AcDbEntity
  8
0
 62
   123
100
AcDbTrace
 10
8152.505090334736
 20
-2923.073459858184
 30
0.0
 11
8152.505090334736
 21
-2923.906793191518
 31
0.0
 12
8150.005090334735
 22
-2923.490126524852
 32
0.0
 13
8150.005090334735
 23
-2923.490126524852
 33
0.0
  0
SOLID
  5
217
330
210
100
AcDbEntity
  8
0
 62
   123
100
AcDbTrace
 10
8145.505090334735
 20
-2923.073459858184
 30
0.0
 11
8145.505090334735
 21
-2923.906793191518
 31
0.0
 12
8148.005090334736
 22
-2923.490126524852
 32
0.0
 13
8148.005090334736
 23
-2923.490126524852
 33
0.0
  0
MTEXT
  5
218
330
210
100
AcDbEntity
  8
0
 62
     3
100
AcDbMText
 10
8141.005090334735
 20
-2920.990126524852
 30
0.0
 40
3.0
 41
0.0
 71
     5
 72
     1
  1
\A1;2
1001
ACAD
1000
MTEXTBEGIN
1070
    73
1070
     1
1070
    44
1040
1.0
1070
    74
1070
     0
1000
MTEXTEND
  0
POINT
  5
219
330
210
100
AcDbEntity
  8
DEFPOINTS
 62
     0
100
AcDbPoint
 10
8148.005090334736
 20
-2939.964224493814
 30
0.0
  0
POINT
  5
21A
330
210
100
AcDbEntity
  8
DEFPOINTS
 62
     0
100
AcDbPoint
 10
8150.005090334735
 20
-2934.964224493814
 30
0.0
  0
POINT
  5
21B
330
210
100
AcDbEntity
  8
DEFPOINTS
 62
     0
100
AcDbPoint
 10
8150.005090334735
 20
-2923.490126524852
 30
0.0
  0
ENDBLK
  5
21D
330
210
100
AcDbEntity
  8
0
100
AcDbBlockEnd
  0
BLOCK
  5
1BC
330
1B2
100
AcDbEntity
  8
0
100
AcDbBlockBegin
  2
*D14
 70
     1
 10
0.0
 20
0.0
 30
0.0
  3
*D14
  1

  0
LINE
  5
1B3
330
1B2
100
AcDbEntity
  8
0
 62
   123
100
AcDbLine
 10
7974.610635111144
 20
-2940.464224493814
 30
0.0
 11
7974.610635111144
 21
-2921.404304972877
 31
0.0
  0
LINE
  5
1B4
330
1B2
100
AcDbEntity
  8
0
 62
   123
100
AcDbLine
 10
8054.610635111144
 20
-2940.464224493814
 30
0.0
 11
8054.610635111144
 21
-2921.404304972877
 31
0.0
  0
LINE
  5
1B5
330
1B2
100
AcDbEntity
  8
0
 62
   123
100
AcDbLine
 10
7977.110635111144
 20
-2922.004304972878
 30
0.0
 11
8052.110635111144
 21
-2922.004304972878
 31
0.0
  0
SOLID
  5
1B6
330
1B2
100
AcDbEntity
  8
0
 62
   123
100
AcDbTrace
 10
7977.110635111144
 20
-2921.587638306212
 30
0.0
 11
7977.110635111144
 21
-2922.420971639544
 31
0.0
 12
7974.610635111144
 22
-2922.004304972878
 32
0.0
 13
7974.610635111144
 23
-2922.004304972878
 33
0.0
  0
SOLID
  5
1B7
330
1B2
100
AcDbEntity
  8
0
 62
   123
100
AcDbTrace
 10
8052.110635111144
 20
-2921.587638306212
 30
0.0
 11
8052.110635111144
 21
-2922.420971639544
 31
0.0
 12
8054.610635111144
 22
-2922.004304972878
 32
0.0
 13
8054.610635111144
 23
-2922.004304972878
 33
0.0
  0
MTEXT
  5
1B8
330
1B2
100
AcDbEntity
  8
0
 62
     3
100
AcDbMText
 10
8016.40375178751
 20
-2919.504304972878
 30
0.0
 40
3.0
 41
0.0
 71
     5
 72
     1
  1
\A1;80
1001
ACAD
1000
MTEXTBEGIN
1070
    73
1070
     1
1070
    44
1040
1.0
1070
    74
1070
     0
1000
MTEXTEND
  0
POINT
  5
1B9
330
1B2
100
AcDbEntity
  8
DEFPOINTS
 62
     0
100
AcDbPoint
 10
7974.610635111144
 20
-2941.464224493815
 30
0.0
  0
POINT
  5
1BA
330
1B2
100
AcDbEntity
  8
DEFPOINTS
 62
     0
100
AcDbPoint
 10
8054.610635111144
 20
-2941.464224493815
 30
0.0
  0
POINT
  5
1BB
330
1B2
100
AcDbEntity
  8
DEFPOINTS
 62
     0
100
AcDbPoint
 10
8054.610635111144
 20
-2922.004304972878
 30
0.0
  0
ENDBLK
  5
1BD
330
1B2
100
AcDbEntity
  8
0
100
AcDbBlockEnd
  0
BLOCK
  5
11E
330
114
100
AcDbEntity
  8
0
100
AcDbBlockBegin
  2
*D15
 70
     1
 10
0.0
 20
0.0
 30
0.0
  3
*D15
  1

  0
LINE
  5
115
330
114
100
AcDbEntity
  8
0
 62
   123
100
AcDbLine
 10
8147.005090334735
 20
-2939.964224493814
 30
0.0
 11
8082.807007112128
 21
-2939.964224493814
 31
0.0
  0
LINE
  5
116
330
114
100
AcDbEntity
  8
0
 62
   123
100
AcDbLine
 10
8147.005090334735
 20
-3012.964224493814
 30
0.0
 11
8082.807007112128
 21
-3012.964224493814
 31
0.0
  0
LINE
  5
117
330
114
100
AcDbEntity
  8
0
 62
   123
100
AcDbLine
 10
8083.40700711213
 20
-2942.464224493814
 30
0.0
 11
8083.40700711213
 21
-3010.464224493814
 31
0.0
  0
SOLID
  5
118
330
114
100
AcDbEntity
  8
0
 62
   123
100
AcDbTrace
 10
8082.99034044546
 20
-2942.464224493814
 30
0.0
 11
8083.823673778796
 21
-2942.464224493814
 31
0.0
 12
8083.40700711213
 22
-2939.964224493814
 32
0.0
 13
8083.40700711213
 23
-2939.964224493814
 33
0.0
  0
SOLID
  5
119
330
114
100
AcDbEntity
  8
0
 62
   123
100
AcDbTrace
 10
8082.99034044546
 20
-3010.464224493814
 30
0.0
 11
8083.823673778796
 21
-3010.464224493814
 31
0.0
 12
8083.40700711213
 22
-3012.964224493814
 32
0.0
 13
8083.40700711213
 23
-3012.964224493814
 33
0.0
  0
MTEXT
  5
11A
330
114
100
AcDbEntity
  8
0
 62
     3
100
AcDbMText
 10
8079.456857112132
 20
-2976.464224493814
 30
0.0
 40
3.0
 41
0.0
 71
     5
 72
     1
  1
\A1;\A1;{\f??|b0|i0|c0|p49;%%C73\H0.7x;\S+0^ -0.030;\H1.429x;(h7)}
 11
0.0000000000000001
 21
1.0
 31
0.0
1001
ACAD
1000
MTEXTBEGIN
1070
    73
1070
     1
1070
    44
1040
1.0
1070
    74
1070
     0
1000
MTEXTEND
  0
POINT
  5
11B
330
114
100
AcDbEntity
  8
DEFPOINTS
 62
     0
100
AcDbPoint
 10
8148.005090334736
 20
-2939.964224493814
 30
0.0
  0
POINT
  5
11C
330
114
100
AcDbEntity
  8
DEFPOINTS
 62
     0
100
AcDbPoint
 10
8148.005090334736
 20
-3012.964224493814
 30
0.0
  0
POINT
  5
11D
330
114
100
AcDbEntity
  8
DEFPOINTS
 62
     0
100
AcDbPoint
 10
8083.40700711213
 20
-3012.964224493814
 30
0.0
  0
ENDBLK
  5
11F
330
114
100
AcDbEntity
  8
0
100
AcDbBlockEnd
  0
BLOCK
  5
13A
330
130
100
AcDbEntity
  8
0
100
AcDbBlockBegin
  2
*D16
 70
     1
 10
0.0
 20
0.0
 30
0.0
  3
*D16
  1

  0
LINE
  5
131
330
130
100
AcDbEntity
  8
0
 62
   123
100
AcDbLine
 10
8117.005090334735
 20
-2980.464224493815
 30
0.0
 11
8104.415162295758
 21
-2980.464224493815
 31
0.0
  0
LINE
  5
132
330
130
100
AcDbEntity
  8
0
 62
   123
100
AcDbLine
 10
8117.005090334735
 20
-2973.464224493815
 30
0.0
 11
8104.415162295758
 21
-2973.464224493815
 31
0.0
  0
LINE
  5
133
330
130
100
AcDbEntity
  8
0
 62
   123
100
AcDbLine
 10
8105.015162295758
 20
-2977.964224493814
 30
0.0
 11
8105.015162295758
 21
-2975.964224493814
 31
0.0
  0
SOLID
  5
134
330
130
100
AcDbEntity
  8
0
 62
   123
100
AcDbTrace
 10
8104.59849562909
 20
-2977.964224493814
 30
0.0
 11
8105.431828962425
 21
-2977.964224493814
 31
0.0
 12
8105.015162295758
 22
-2980.464224493815
 32
0.0
 13
8105.015162295758
 23
-2980.464224493815
 33
0.0
  0
SOLID
  5
135
330
130
100
AcDbEntity
  8
0
 62
   123
100
AcDbTrace
 10
8104.59849562909
 20
-2975.964224493814
 30
0.0
 11
8105.431828962425
 21
-2975.964224493814
 31
0.0
 12
8105.015162295758
 22
-2973.464224493815
 32
0.0
 13
8105.015162295758
 23
-2973.464224493815
 33
0.0
  0
MTEXT
  5
136
330
130
100
AcDbEntity
  8
0
 62
     3
100
AcDbMText
 10
8102.515162295759
 20
-2976.964224493814
 30
0.0
 40
3.0
 41
0.0
 71
     5
 72
     1
  1
\A1;7
 11
0.0000000000000001
 21
1.0
 31
0.0
1001
ACAD
1000
MTEXTBEGIN
1070
    73
1070
     1
1070
    44
1040
1.0
1070
    74
1070
     0
1000
MTEXTEND
  0
POINT
  5
137
330
130
100
AcDbEntity
  8
DEFPOINTS
 62
     0
100
AcDbPoint
 10
8118.005090334735
 20
-2980.464224493815
 30
0.0
  0
POINT
  5
138
330
130
100
AcDbEntity
  8
DEFPOINTS
 62
     0
100
AcDbPoint
 10
8118.005090334735
 20
-2973.464224493815
 30
0.0
  0
POINT
  5
139
330
130
100
AcDbEntity
  8
DEFPOINTS
 62
     0
100
AcDbPoint
 10
8105.015162295758
 20
-2973.464224493815
 30
0.0
  0
ENDBLK
  5
13B
330
130
100
AcDbEntity
  8
0
100
AcDbBlockEnd
  0
BLOCK
  5
205
330
1FB
100
AcDbEntity
  8
0
100
AcDbBlockBegin
  2
*D17
 70
     1
 10
0.0
 20
0.0
 30
0.0
  3
*D17
  1

  0
LINE
  5
1FC
330
1FB
100
AcDbEntity
  8
0
 62
   123
100
AcDbLine
 10
8118.005090334735
 20
-2972.464224493814
 30
0.0
 11
8118.005090334735
 21
-2957.83583841993
 31
0.0
  0
LINE
  5
1FD
330
1FB
100
AcDbEntity
  8
0
 62
   123
100
AcDbLine
 10
8143.005090334735
 20
-2971.464224493814
 30
0.0
 11
8143.005090334735
 21
-2957.83583841993
 31
0.0
  0
LINE
  5
1FE
330
1FB
100
AcDbEntity
  8
0
 62
   123
100
AcDbLine
 10
8120.505090334736
 20
-2958.435838419929
 30
0.0
 11
8140.505090334738
 21
-2958.435838419929
 31
0.0
  0
SOLID
  5
1FF
330
1FB
100
AcDbEntity
  8
0
 62
   123
100
AcDbTrace
 10
8120.505090334736
 20
-2958.019171753263
 30
0.0
 11
8120.505090334736
 21
-2958.852505086596
 31
0.0
 12
8118.005090334735
 22
-2958.435838419929
 32
0.0
 13
8118.005090334735
 23
-2958.435838419929
 33
0.0
  0
SOLID
  5
200
330
1FB
100
AcDbEntity
  8
0
 62
   123
100
AcDbTrace
 10
8140.505090334738
 20
-2958.019171753263
 30
0.0
 11
8140.505090334738
 21
-2958.852505086596
 31
0.0
 12
8143.005090334735
 22
-2958.435838419929
 32
0.0
 13
8143.005090334735
 23
-2958.435838419929
 33
0.0
  0
MTEXT
  5
201
330
1FB
100
AcDbEntity
  8
0
 62
     3
100
AcDbMText
 10
8130.505090334734
 20
-2955.935838419929
 30
0.0
 40
3.0
 41
0.0
 71
     5
 72
     1
  1
\A1;25
1001
ACAD
1000
MTEXTBEGIN
1070
    73
1070
     1
1070
    44
1040
1.0
1070
    74
1070
     0
1000
MTEXTEND
  0
POINT
  5
202
330
1FB
100
AcDbEntity
  8
DEFPOINTS
 62
     0
100
AcDbPoint
 10
8118.005090334735
 20
-2973.464224493815
 30
0.0
  0
POINT
  5
203
330
1FB
100
AcDbEntity
  8
DEFPOINTS
 62
     0
100
AcDbPoint
 10
8143.005090334735
 20
-2972.464224493814
 30
0.0
  0
POINT
  5
204
330
1FB
100
AcDbEntity
  8
DEFPOINTS
 62
     0
100
AcDbPoint
 10
8143.005090334735
 20
-2958.435838419929
 30
0.0
  0
ENDBLK
  5
206
330
1FB
100
AcDbEntity
  8
0
100
AcDbBlockEnd
  0
BLOCK
  5
109
330
FF
100
AcDbEntity
  8
0
100
AcDbBlockBegin
  2
*D18
 70
     1
 10
0.0
 20
0.0
 30
0.0
  3
*D18
  1

  0
LINE
  5
100
330
FF
100
AcDbEntity
  8
0
 62
   123
100
AcDbLine
 10
8276.005090334736
 20
-2936.464224493814
 30
0.0
 11
8297.771821737692
 21
-2936.464224493814
 31
0.0
  0
LINE
  5
101
330
FF
100
AcDbEntity
  8
0
 62
   123
100
AcDbLine
 10
8276.005090334736
 20
-3016.464224493816
 30
0.0
 11
8297.771821737692
 21
-3016.464224493816
 31
0.0
  0
LINE
  5
102
330
FF
100
AcDbEntity
  8
0
 62
   123
100
AcDbLine
 10
8297.171821737691
 20
-2938.964224493814
 30
0.0
 11
8297.171821737691
 21
-3013.964224493816
 31
0.0
  0
SOLID
  5
103
330
FF
100
AcDbEntity
  8
0
 62
   123
100
AcDbTrace
 10
8296.755155071025
 20
-2938.964224493814
 30
0.0
 11
8297.588488404356
 21
-2938.964224493814
 31
0.0
 12
8297.171821737691
 22
-2936.464224493814
 32
0.0
 13
8297.171821737691
 23
-2936.464224493814
 33
0.0
  0
SOLID
  5
104
330
FF
100
AcDbEntity
  8
0
 62
   123
100
AcDbTrace
 10
8296.755155071025
 20
-3013.964224493816
 30
0.0
 11
8297.588488404356
 21
-3013.964224493816
 31
0.0
 12
8297.171821737691
 22
-3016.464224493816
 32
0.0
 13
8297.171821737691
 23
-3016.464224493816
 33
0.0
  0
MTEXT
  5
105
330
FF
100
AcDbEntity
  8
0
 62
     3
100
AcDbMText
 10
8294.671821737692
 20
-2976.570005340772
 30
0.0
 40
3.0
 41
0.0
 71
     5
 72
     1
  1
\A1;%%C80
 11
0.0000000000000001
 21
1.0
 31
0.0
1001
ACAD
1000
MTEXTBEGIN
1070
    73
1070
     1
1070
    44
1040
1.0
1070
    74
1070
     0
1000
MTEXTEND
  0
POINT
  5
106
330
FF
100
AcDbEntity
  8
DEFPOINTS
 62
     0
100
AcDbPoint
 10
8275.005090334738
 20
-2936.464224493814
 30
0.0
  0
POINT
  5
107
330
FF
100
AcDbEntity
  8
DEFPOINTS
 62
     0
100
AcDbPoint
 10
8275.005090334738
 20
-3016.464224493816
 30
0.0
  0
POINT
  5
108
330
FF
100
AcDbEntity
  8
DEFPOINTS
 62
     0
100
AcDbPoint
 10
8297.171821737691
 20
-3016.464224493816
 30
0.0
  0
ENDBLK
  5
10A
330
FF
100
AcDbEntity
  8
0
100
AcDbBlockEnd
  0
BLOCK
  5
159
330
14D
100
AcDbEntity
  8
0
100
AcDbBlockBegin
  2
*D19
 70
     1
 10
0.0
 20
0.0
 30
0.0
  3
*D19
  1

  0
LINE
  5
14E
330
14D
100
AcDbEntity
  8
0
 62
   123
100
AcDbLine
 10
8014.610635111141
 20
-3024.636347702212
 30
0.0
 11
8014.610635111141
 21
-3049.934224193696
 31
0.0
  0
LINE
  5
14F
330
14D
100
AcDbEntity
  8
0
 62
   123
100
AcDbLine
 10
8031.561861038428
 20
-3017.388104026326
 30
0.0
 11
8042.726386772152
 21
-3044.341653470147
 31
0.0
  0
ARC
  5
150
330
14D
100
AcDbEntity
  8
0
 62
   123
100
AcDbCircle
 10
8014.610635111141
 20
-2976.464224493811
 30
0.0
 40
72.86999969988563
100
AcDbArc
 50
271.9657811870683
 51
290.5342188129285
  0
SOLID
  5
151
330
14D
100
AcDbEntity
  8
0
 62
   123
100
AcDbTrace
 10
8017.117414698011
 20
-3049.707944963748
 30
0.0
 11
8017.103119834954
 21
-3048.874734245302
 31
0.0
 12
8014.610635111141
 22
-3049.334224193696
 32
0.0
 13
8014.610635111141
 23
-3049.334224193696
 33
0.0
  0
SOLID
  5
152
330
14D
100
AcDbEntity
  8
0
 62
   123
100
AcDbTrace
 10
8040.018181900718
 20
-3044.31664500115
 30
0.0
 11
8040.323831106938
 21
-3045.091901737452
 31
0.0
 12
8042.496776712733
 22
-3043.78732575064
 32
0.0
 13
8042.496776712733
 23
-3043.78732575064
 33
0.0
  0
MTEXT
  5
153
330
14D
100
AcDbEntity
  8
0
 62
     3
100
AcDbMText
 10
8028.977248733104
 20
-3045.060197225831
 30
0.0
 40
3.0
 41
0.0
 71
     5
 72
     1
  1
\A1;22°30'
 11
0.9787639600895687
 21
0.2049905130238602
 31
0.0
1001
ACAD
1000
MTEXTBEGIN
1070
    73
1070
     1
1070
    44
1040
1.0
1070
    74
1070
     0
1000
MTEXTEND
  0
POINT
  5
154
330
14D
100
AcDbEntity
  8
DEFPOINTS
 62
     0
100
AcDbPoint
 10
8024.122078699042
 20
-3048.710811244572
 30
0.0
  0
POINT
  5
155
330
14D
100
AcDbEntity
  8
DEFPOINTS
 62
     0
100
AcDbPoint
 10
8014.610635111141
 20
-3023.636347702212
 30
0.0
  0
POINT
  5
156
330
14D
100
AcDbEntity
  8
DEFPOINTS
 62
     0
100
AcDbPoint
 10
8031.179177606064
 20
-3016.464224493814
 30
0.0
  0
POINT
  5
157
330
14D
100
AcDbEntity
  8
DEFPOINTS
 62
     0
100
AcDbPoint
 10
8014.610635111143
 20
-2976.464224493814
 30
0.0
  0
POINT
  5
158
330
14D
100
AcDbEntity
  8
DEFPOINTS
 62
     0
100
AcDbPoint
 10
8014.610635111141
 20
-2929.292101285417
 30
0.0
  0
ENDBLK
  5
15A
330
14D
100
AcDbEntity
  8
0
100
AcDbBlockEnd
  0
BLOCK
  5
FA
330
EE
100
AcDbEntity
  8
0
100
AcDbBlockBegin
  2
*D20
 70
     1
 10
0.0
 20
0.0
 30
0.0
  3
*D20
  1

  0
LINE
  5
EF
330
EE
100
AcDbEntity
  8
0
 62
   123
100
AcDbLine
 10
8038.335213542032
 20
-2821.231847340868
 30
0.0
 11
8038.335213542032
 21
-2846.529723832352
 31
0.0
  0
LINE
  5
F0
330
EE
100
AcDbEntity
  8
0
 62
   123
100
AcDbLine
 10
8055.28643946932
 20
-2813.983603664983
 30
0.0
 11
8066.450965203042
 21
-2840.937153108804
 31
0.0
  0
ARC
  5
F1
330
EE
100
AcDbEntity
  8
0
 62
   123
100
AcDbCircle
 10
8038.335213542032
 20
-2773.059724132467
 30
0.0
 40
72.86999969988577
100
AcDbArc
 50
271.9657811870681
 51
290.5342188129268
  0
SOLID
  5
F2
330
EE
100
AcDbEntity
  8
0
 62
   123
100
AcDbTrace
 10
8040.8419931289
 20
-2846.303444602405
 30
0.0
 11
8040.827698265845
 21
-2845.470233883959
 31
0.0
 12
8038.335213542032
 22
-2845.929723832352
 32
0.0
 13
8038.335213542032
 23
-2845.929723832352
 33
0.0
  0
SOLID
  5
F3
330
EE
100
AcDbEntity
  8
0
 62
   123
100
AcDbTrace
 10
8063.742760331606
 20
-2840.912144639807
 30
0.0
 11
8064.04840953783
 21
-2841.687401376109
 31
0.0
 12
8066.221355143623
 22
-2840.382825389297
 32
0.0
 13
8066.221355143623
 23
-2840.382825389297
 33
0.0
  0
MTEXT
  5
F4
330
EE
100
AcDbEntity
  8
0
 62
     3
100
AcDbMText
 10
8052.701827163994
 20
-2841.655696864489
 30
0.0
 40
3.0
 41
0.0
 71
     5
 72
     1
  1
\A1;22°30'
 11
0.978763960089566
 21
0.2049905130238732
 31
0.0
1001
ACAD
1000
MTEXTBEGIN
1070
    73
1070
     1
1070
    44
1040
1.0
1070
    74
1070
     0
1000
MTEXTEND
  0
POINT
  5
F5
330
EE
100
AcDbEntity
  8
DEFPOINTS
 62
     0
100
AcDbPoint
 10
8047.846657129932
 20
-2845.30631088323
 30
0.0
  0
POINT
  5
F6
330
EE
100
AcDbEntity
  8
DEFPOINTS
 62
     0
100
AcDbPoint
 10
8038.335213542032
 20
-2820.231847340867
 30
0.0
  0
POINT
  5
F7
330
EE
100
AcDbEntity
  8
DEFPOINTS
 62
     0
100
AcDbPoint
 10
8054.903756036955
 20
-2813.059724132472
 30
0.0
  0
POINT
  5
F8
330
EE
100
AcDbEntity
  8
DEFPOINTS
 62
     0
100
AcDbPoint
 10
8038.335213542035
 20
-2773.059724132471
 30
0.0
  0
POINT
  5
F9
330
EE
100
AcDbEntity
  8
DEFPOINTS
 62
     0
100
AcDbPoint
 10
8038.335213542032
 20
-2725.887600924074
 30
0.0
  0
ENDBLK
  5
FB
330
EE
100
AcDbEntity
  8
0
100
AcDbBlockEnd
  0
BLOCK
  5
301
330
2F5
100
AcDbEntity
  8
0
100
AcDbBlockBegin
  2
*D21
 70
     1
 10
0.0
 20
0.0
 30
0.0
  3
*D21
  1

  0
LINE
  5
41A
330
2F5
100
AcDbEntity
  8
0
 62
   123
100
AcDbLine
 10
62.50960292813125
 20
239.1551801775703
 30
0.0
 11
62.50960292813123
 21
213.8573036860863
 31
0.0
  0
LINE
  5
41B
330
2F5
100
AcDbEntity
  8
0
 62
   123
100
AcDbLine
 10
79.46082885541874
 20
246.4034238534559
 30
0.0
 11
90.62535458914181
 21
219.4498744096361
 31
0.0
  0
ARC
  5
41C
330
2F5
100
AcDbEntity
  8
0
 62
   123
100
AcDbCircle
 10
62.50960292813125
 20
287.3273033859673
 30
0.0
 40
72.86999969988091
100
AcDbArc
 50
271.9657811870685
 51
290.5342188129298
  0
SOLID
  5
41D
330
2F5
100
AcDbEntity
  8
0
 62
   123
100
AcDbTrace
 10
65.01638251500008
 20
214.0835829160336
 30
0.0
 11
65.00208765194317
 21
214.9167936344805
 31
0.0
 12
62.50960292813122
 22
214.4573036860863
 32
0.0
 13
62.50960292813122
 23
214.4573036860863
 33
0.0
  0
SOLID
  5
41E
330
2F5
100
AcDbEntity
  8
0
 62
   123
100
AcDbTrace
 10
87.91714971770714
 20
219.474882878633
 30
0.0
 11
88.22279892392741
 21
218.6996261423312
 31
0.0
 12
90.39574452972278
 22
220.0042021291428
 32
0.0
 13
90.39574452972278
 23
220.0042021291428
 33
0.0
  0
MTEXT
  5
41F
330
2F5
100
AcDbEntity
  8
0
 62
     3
100
AcDbMText
 10
76.87621655009102
 20
218.7313306539497
 30
0.0
 40
3.0
 41
0.0
 71
     5
 72
     1
  1
\A1;22°30'
 11
0.978763960089571
 21
0.204990513023848
 31
0.0
  0
POINT
  5
420
330
2F5
100
AcDbEntity
  8
DEFPOINTS
 62
     0
100
AcDbPoint
 10
72.02104651603227
 20
215.0807166352091
 30
0.0
  0
POINT
  5
421
330
2F5
100
AcDbEntity
  8
DEFPOINTS
 62
     0
100
AcDbPoint
 10
62.50960292813124
 20
240.1551801775703
 30
0.0
  0
POINT
  5
422
330
2F5
100
AcDbEntity
  8
DEFPOINTS
 62
     0
100
AcDbPoint
 10
79.07814542305368
 20
247.3273033859673
 30
0.0
  0
POINT
  5
423
330
2F5
100
AcDbEntity
  8
DEFPOINTS
 62
     0
100
AcDbPoint
 10
62.50960292813124
 20
287.3273033859673
 30
0.0
  0
POINT
  5
424
330
2F5
100
AcDbEntity
  8
DEFPOINTS
 62
     0
100
AcDbPoint
 10
62.50960292813125
 20
334.4994265943642
 30
0.0
  0
ENDBLK
  5
302
330
2F5
100
AcDbEntity
  8
0
100
AcDbBlockEnd
  0
BLOCK
  5
30D
330
303
100
AcDbEntity
  8
0
100
AcDbBlockBegin
  2
*D22
 70
     1
 10
0.0
 20
0.0
 30
0.0
  3
*D22
  1

  0
LINE
  5
304
330
303
100
AcDbEntity
  8
0
 62
   123
100
AcDbLine
 10
154.624295252729
 20
323.8273033859673
 30
0.0
 11
131.475646903153
 21
323.8273033859673
 31
0.0
  0
LINE
  5
305
330
303
100
AcDbEntity
  8
0
 62
   123
100
AcDbLine
 10
154.624295252729
 20
250.8273033859672
 30
0.0
 11
131.475646903153
 21
250.8273033859672
 31
0.0
  0
LINE
  5
306
330
303
100
AcDbEntity
  8
0
 62
   123
100
AcDbLine
 10
132.075646903153
 20
321.3273033859672
 30
0.0
 11
132.075646903153
 21
253.3273033859673
 31
0.0
  0
SOLID
  5
307
330
303
100
AcDbEntity
  8
0
 62
   123
100
AcDbTrace
 10
131.6589802364864
 20
321.3273033859672
 30
0.0
 11
132.4923135698197
 21
321.3273033859672
 31
0.0
 12
132.075646903153
 22
323.8273033859673
 32
0.0
 13
132.075646903153
 23
323.8273033859673
 33
0.0
  0
SOLID
  5
308
330
303
100
AcDbEntity
  8
0
 62
   123
100
AcDbTrace
 10
131.6589802364864
 20
253.3273033859673
 30
0.0
 11
132.4923135698197
 21
253.3273033859673
 31
0.0
 12
132.075646903153
 22
250.8273033859672
 32
0.0
 13
132.075646903153
 23
250.8273033859672
 33
0.0
  0
MTEXT
  5
309
330
303
100
AcDbEntity
  8
0
 62
     3
100
AcDbMText
 10
128.125496903153
 20
287.3273033859673
 30
0.0
 40
3.0
 41
0.0
 71
     5
 72
     1
  1
\A1;\A1;{\f??|b0|i0|c0|p49;%%C73\H0.7x;\S+0^ -0.030;\H1.429x;(h7)}
 11
0.0000000000000001
 21
1.0
 31
0.0
1001
ACAD
1000
MTEXTBEGIN
1070
    73
1070
     1
1070
    44
1040
1.0
1070
    74
1070
     0
1000
MTEXTEND
  0
POINT
  5
30A
330
303
100
AcDbEntity
  8
DEFPOINTS
 62
     0
100
AcDbPoint
 10
155.624295252729
 20
323.8273033859673
 30
0.0
  0
POINT
  5
30B
330
303
100
AcDbEntity
  8
DEFPOINTS
 62
     0
100
AcDbPoint
 10
155.624295252729
 20
250.8273033859672
 30
0.0
  0
POINT
  5
30C
330
303
100
AcDbEntity
  8
DEFPOINTS
 62
     0
100
AcDbPoint
 10
132.075646903153
 20
250.8273033859672
 30
0.0
  0
ENDBLK
  5
30E
330
303
100
AcDbEntity
  8
0
100
AcDbBlockEnd
  0
BLOCK
  5
319
330
30F
100
AcDbEntity
  8
0
100
AcDbBlockBegin
  2
*D23
 70
     1
 10
0.0
 20
0.0
 30
0.0
  3
*D23
  1

  0
LINE
  5
310
330
30F
100
AcDbEntity
  8
0
 62
   123
100
AcDbLine
 10
283.62429525273
 20
327.3273033859672
 30
0.0
 11
309.0193847499828
 21
327.3273033859672
 31
0.0
  0
LINE
  5
311
330
30F
100
AcDbEntity
  8
0
 62
   123
100
AcDbLine
 10
283.62429525273
 20
247.3273033859663
 30
0.0
 11
309.0193847499828
 21
247.3273033859663
 31
0.0
  0
LINE
  5
312
330
30F
100
AcDbEntity
  8
0
 62
   123
100
AcDbLine
 10
308.4193847499828
 20
324.8273033859673
 30
0.0
 11
308.4193847499828
 21
249.8273033859664
 31
0.0
  0
SOLID
  5
313
330
30F
100
AcDbEntity
  8
0
 62
   123
100
AcDbTrace
 10
308.0027180833161
 20
324.8273033859673
 30
0.0
 11
308.8360514166495
 21
324.8273033859673
 31
0.0
 12
308.4193847499828
 22
327.3273033859672
 32
0.0
 13
308.4193847499828
 23
327.3273033859672
 33
0.0
  0
SOLID
  5
314
330
30F
100
AcDbEntity
  8
0
 62
   123
100
AcDbTrace
 10
308.0027180833161
 20
249.8273033859664
 30
0.0
 11
308.8360514166495
 21
249.8273033859664
 31
0.0
 12
308.4193847499828
 22
247.3273033859663
 32
0.0
 13
308.4193847499828
 23
247.3273033859663
 33
0.0
  0
MTEXT
  5
315
330
30F
100
AcDbEntity
  8
0
 62
     3
100
AcDbMText
 10
305.9193847499827
 20
287.2215225390096
 30
0.0
 40
3.0
 41
0.0
 71
     5
 72
     1
  1
\A1;%%C80
 11
0.0000000000000001
 21
1.0
 31
0.0
1001
ACAD
1000
MTEXTBEGIN
1070
    73
1070
     1
1070
    44
1040
1.0
1070
    74
1070
     0
1000
MTEXTEND
  0
POINT
  5
316
330
30F
100
AcDbEntity
  8
DEFPOINTS
 62
     0
100
AcDbPoint
 10
282.62429525273
 20
327.3273033859672
 30
0.0
  0
POINT
  5
317
330
30F
100
AcDbEntity
  8
DEFPOINTS
 62
     0
100
AcDbPoint
 10
282.62429525273
 20
247.3273033859663
 30
0.0
  0
POINT
  5
318
330
30F
100
AcDbEntity
  8
DEFPOINTS
 62
     0
100
AcDbPoint
 10
308.4193847499828
 20
247.3273033859663
 30
0.0
  0
ENDBLK
  5
31A
330
30F
100
AcDbEntity
  8
0
100
AcDbBlockEnd
  0
BLOCK
  5
327
330
31B
100
AcDbEntity
  8
0
100
AcDbBlockBegin
  2
*D24
 70
     1
 10
0.0
 20
0.0
 30
0.0
  3
*D24
  1

  0
LINE
  5
425
330
31B
100
AcDbEntity
  8
0
 62
   123
100
AcDbLine
 10
38.78502449724147
 20
35.75067981622623
 30
0.0
 11
38.78502449724146
 21
10.45280332474193
 31
0.0
  0
LINE
  5
426
330
31B
100
AcDbEntity
  8
0
 62
   123
100
AcDbLine
 10
55.736250424528
 20
42.99892349211227
 30
0.0
 11
66.9007761582501
 21
16.04537404829044
 31
0.0
  0
ARC
  5
427
330
31B
100
AcDbEntity
  8
0
 62
   123
100
AcDbCircle
 10
38.78502449724148
 20
83.92280302462797
 30
0.0
 40
72.86999969988603
100
AcDbArc
 50
271.9657811870683
 51
290.5342188129267
  0
SOLID
  5
428
330
31B
100
AcDbEntity
  8
0
 62
   123
100
AcDbTrace
 10
41.29180408411031
 20
10.67908255468925
 30
0.0
 11
41.27750922105341
 21
11.51229327313605
 31
0.0
 12
38.78502449724146
 22
11.05280332474193
 32
0.0
 13
38.78502449724146
 23
11.05280332474193
 33
0.0
  0
SOLID
  5
429
330
31B
100
AcDbEntity
  8
0
 62
   123
100
AcDbTrace
 10
64.19257128681542
 20
16.07038251728753
 30
0.0
 11
64.49822049303564
 21
15.29512578098568
 31
0.0
 12
66.67116609883108
 22
16.59970176779723
 32
0.0
 13
66.67116609883108
 23
16.59970176779723
 33
0.0
  0
MTEXT
  5
42A
330
31B
100
AcDbEntity
  8
0
 62
     3
100
AcDbMText
 10
53.15163811920306
 20
15.3268302926056
 30
0.0
 40
3.0
 41
0.0
 71
     5
 72
     1
  1
\A1;22°30'
 11
0.978763960089569
 21
0.2049905130238584
 31
0.0
  0
POINT
  5
42B
330
31B
100
AcDbEntity
  8
DEFPOINTS
 62
     0
100
AcDbPoint
 10
48.29646808514183
 20
11.67621627386457
 30
0.0
  0
POINT
  5
42C
330
31B
100
AcDbEntity
  8
DEFPOINTS
 62
     0
100
AcDbPoint
 10
38.78502449724147
 20
36.75067981622624
 30
0.0
  0
POINT
  5
42D
330
31B
100
AcDbEntity
  8
DEFPOINTS
 62
     0
100
AcDbPoint
 10
55.353566992163
 20
43.92280302462359
 30
0.0
  0
POINT
  5
42E
330
31B
100
AcDbEntity
  8
DEFPOINTS
 62
     0
100
AcDbPoint
 10
38.78502449724328
 20
83.9228030246236
 30
0.0
  0
POINT
  5
42F
330
31B
100
AcDbEntity
  8
DEFPOINTS
 62
     0
100
AcDbPoint
 10
38.78502449724148
 20
131.0949262330213
 30
0.0
  0
ENDBLK
  5
328
330
31B
100
AcDbEntity
  8
0
100
AcDbBlockEnd
  0
BLOCK
  5
333
330
329
100
AcDbEntity
  8
0
100
AcDbBlockBegin
  2
*D25
 70
     1
 10
0.0
 20
0.0
 30
0.0
  3
*D25
  1

  0
LINE
  5
32A
330
329
100
AcDbEntity
  8
0
 62
   123
100
AcDbLine
 10
166.179479720834
 20
87.92280302462359
 30
0.0
 11
119.5526478253872
 21
87.9228030246236
 31
0.0
  0
LINE
  5
32B
330
329
100
AcDbEntity
  8
0
 62
   123
100
AcDbLine
 10
141.179479720834
 20
79.92280302462359
 30
0.0
 11
119.5526478253872
 21
79.92280302462359
 31
0.0
  0
LINE
  5
32C
330
329
100
AcDbEntity
  8
0
 62
   123
100
AcDbLine
 10
120.1526478253872
 20
85.4228030246236
 30
0.0
 11
120.1526478253872
 21
82.4228030246236
 31
0.0
  0
SOLID
  5
32D
330
329
100
AcDbEntity
  8
0
 62
   123
100
AcDbTrace
 10
119.7359811587205
 20
85.4228030246236
 30
0.0
 11
120.5693144920539
 21
85.4228030246236
 31
0.0
 12
120.1526478253872
 22
87.9228030246236
 32
0.0
 13
120.1526478253872
 23
87.9228030246236
 33
0.0
  0
SOLID
  5
32E
330
329
100
AcDbEntity
  8
0
 62
   123
100
AcDbTrace
 10
119.7359811587205
 20
82.4228030246236
 30
0.0
 11
120.5693144920539
 21
82.4228030246236
 31
0.0
 12
120.1526478253872
 22
79.92280302462359
 32
0.0
 13
120.1526478253872
 23
79.92280302462359
 33
0.0
  0
MTEXT
  5
32F
330
329
100
AcDbEntity
  8
0
 62
     3
100
AcDbMText
 10
116.2026478253872
 20
83.9228030246236
 30
0.0
 40
3.0
 41
0.0
 71
     5
 72
     1
  1
\A1;\A1;%%c8{\H0.7x;\S+0^ -0.015;}(h7)
 11
0.0000000000000001
 21
1.0
 31
0.0
1001
ACAD
1000
MTEXTBEGIN
1070
    73
1070
     1
1070
    44
1040
1.0
1070
    74
1070
     0
1000
MTEXTEND
  0
POINT
  5
330
330
329
100
AcDbEntity
  8
DEFPOINTS
 62
     0
100
AcDbPoint
 10
167.179479720834
 20
87.92280302462359
 30
0.0
  0
POINT
  5
331
330
329
100
AcDbEntity
  8
DEFPOINTS
 62
     0
100
AcDbPoint
 10
142.179479720834
 20
79.92280302462359
 30
0.0
  0
POINT
  5
332
330
329
100
AcDbEntity
  8
DEFPOINTS
 62
     0
100
AcDbPoint
 10
120.1526478253872
 20
79.92280302462359
 30
0.0
  0
ENDBLK
  5
334
330
329
100
AcDbEntity
  8
0
100
AcDbBlockEnd
  0
BLOCK
  5
33F
330
335
100
AcDbEntity
  8
0
100
AcDbBlockBegin
  2
*D26
 70
     1
 10
0.0
 20
0.0
 30
0.0
  3
*D26
  1

  0
LINE
  5
336
330
335
100
AcDbEntity
  8
0
 62
   123
100
AcDbLine
 10
141.179479720834
 20
79.92280302462359
 30
0.0
 11
128.5895516818577
 21
79.92280302462359
 31
0.0
  0
LINE
  5
337
330
335
100
AcDbEntity
  8
0
 62
   123
100
AcDbLine
 10
141.179479720834
 20
86.92280302462359
 30
0.0
 11
128.5895516818577
 21
86.92280302462359
 31
0.0
  0
LINE
  5
338
330
335
100
AcDbEntity
  8
0
 62
   123
100
AcDbLine
 10
129.1895516818577
 20
82.4228030246236
 30
0.0
 11
129.1895516818577
 21
84.42280302462359
 31
0.0
  0
SOLID
  5
339
330
335
100
AcDbEntity
  8
0
 62
   123
100
AcDbTrace
 10
128.772885015191
 20
82.4228030246236
 30
0.0
 11
129.6062183485243
 21
82.4228030246236
 31
0.0
 12
129.1895516818577
 22
79.92280302462359
 32
0.0
 13
129.1895516818577
 23
79.92280302462359
 33
0.0
  0
SOLID
  5
33A
330
335
100
AcDbEntity
  8
0
 62
   123
100
AcDbTrace
 10
128.772885015191
 20
84.42280302462359
 30
0.0
 11
129.6062183485243
 21
84.42280302462359
 31
0.0
 12
129.1895516818577
 22
86.92280302462359
 32
0.0
 13
129.1895516818577
 23
86.92280302462359
 33
0.0
  0
MTEXT
  5
33B
330
335
100
AcDbEntity
  8
0
 62
     3
100
AcDbMText
 10
126.6895516818576
 20
83.42280302462359
 30
0.0
 40
3.0
 41
0.0
 71
     5
 72
     1
  1
\A1;7
 11
0.0000000000000001
 21
1.0
 31
0.0
1001
ACAD
1000
MTEXTBEGIN
1070
    73
1070
     1
1070
    44
1040
1.0
1070
    74
1070
     0
1000
MTEXTEND
  0
POINT
  5
33C
330
335
100
AcDbEntity
  8
DEFPOINTS
 62
     0
100
AcDbPoint
 10
142.179479720834
 20
79.92280302462359
 30
0.0
  0
POINT
  5
33D
330
335
100
AcDbEntity
  8
DEFPOINTS
 62
     0
100
AcDbPoint
 10
142.179479720834
 20
86.92280302462359
 30
0.0
  0
POINT
  5
33E
330
335
100
AcDbEntity
  8
DEFPOINTS
 62
     0
100
AcDbPoint
 10
129.1895516818577
 20
86.92280302462359
 30
0.0
  0
ENDBLK
  5
340
330
335
100
AcDbEntity
  8
0
100
AcDbBlockEnd
  0
BLOCK
  5
34B
330
341
100
AcDbEntity
  8
0
100
AcDbBlockBegin
  2
*D27
 70
     1
 10
0.0
 20
0.0
 30
0.0
  3
*D27
  1

  0
LINE
  5
342
330
341
100
AcDbEntity
  8
0
 62
   123
100
AcDbLine
 10
171.1794797208349
 20
120.4228030246236
 30
0.0
 11
106.9813964982289
 21
120.4228030246236
 31
0.0
  0
LINE
  5
343
330
341
100
AcDbEntity
  8
0
 62
   123
100
AcDbLine
 10
171.1794797208349
 20
47.42280302462359
 30
0.0
 11
106.9813964982289
 21
47.4228030246236
 31
0.0
  0
LINE
  5
344
330
341
100
AcDbEntity
  8
0
 62
   123
100
AcDbLine
 10
107.5813964982289
 20
117.9228030246236
 30
0.0
 11
107.5813964982289
 21
49.92280302462361
 31
0.0
  0
SOLID
  5
345
330
341
100
AcDbEntity
  8
0
 62
   123
100
AcDbTrace
 10
107.1647298315623
 20
117.9228030246236
 30
0.0
 11
107.9980631648956
 21
117.9228030246236
 31
0.0
 12
107.5813964982289
 22
120.4228030246236
 32
0.0
 13
107.5813964982289
 23
120.4228030246236
 33
0.0
  0
SOLID
  5
346
330
341
100
AcDbEntity
  8
0
 62
   123
100
AcDbTrace
 10
107.1647298315623
 20
49.92280302462361
 30
0.0
 11
107.9980631648956
 21
49.92280302462361
 31
0.0
 12
107.5813964982289
 22
47.4228030246236
 32
0.0
 13
107.5813964982289
 23
47.4228030246236
 33
0.0
  0
MTEXT
  5
347
330
341
100
AcDbEntity
  8
0
 62
     3
100
AcDbMText
 10
103.6312464982289
 20
83.92280302462358
 30
0.0
 40
3.0
 41
0.0
 71
     5
 72
     1
  1
\A1;\A1;{\f??|b0|i0|c0|p49;%%C73\H0.7x;\S+0^ -0.030;\H1.429x;(h7)}
 11
0.0000000000000001
 21
1.0
 31
0.0
1001
ACAD
1000
MTEXTBEGIN
1070
    73
1070
     1
1070
    44
1040
1.0
1070
    74
1070
     0
1000
MTEXTEND
  0
POINT
  5
348
330
341
100
AcDbEntity
  8
DEFPOINTS
 62
     0
100
AcDbPoint
 10
172.1794797208349
 20
120.4228030246236
 30
0.0
  0
POINT
  5
349
330
341
100
AcDbEntity
  8
DEFPOINTS
 62
     0
100
AcDbPoint
 10
172.1794797208349
 20
47.42280302462359
 30
0.0
  0
POINT
  5
34A
330
341
100
AcDbEntity
  8
DEFPOINTS
 62
     0
100
AcDbPoint
 10
107.5813964982289
 20
47.4228030246236
 30
0.0
  0
ENDBLK
  5
34C
330
341
100
AcDbEntity
  8
0
100
AcDbBlockEnd
  0
BLOCK
  5
357
330
34D
100
AcDbEntity
  8
0
100
AcDbBlockBegin
  2
*D28
 70
     1
 10
0.0
 20
0.0
 30
0.0
  3
*D28
  1

  0
LINE
  5
34E
330
34D
100
AcDbEntity
  8
0
 62
   123
100
AcDbLine
 10
300.1794797208367
 20
123.922803024624
 30
0.0
 11
321.9462111237895
 21
123.922803024624
 31
0.0
  0
LINE
  5
34F
330
34D
100
AcDbEntity
  8
0
 62
   123
100
AcDbLine
 10
300.1794797208367
 20
43.92280302462222
 30
0.0
 11
321.9462111237895
 21
43.92280302462221
 31
0.0
  0
LINE
  5
350
330
34D
100
AcDbEntity
  8
0
 62
   123
100
AcDbLine
 10
321.3462111237895
 20
121.422803024624
 30
0.0
 11
321.3462111237895
 21
46.42280302462221
 31
0.0
  0
SOLID
  5
351
330
34D
100
AcDbEntity
  8
0
 62
   123
100
AcDbTrace
 10
320.9295444571228
 20
121.422803024624
 30
0.0
 11
321.7628777904562
 21
121.422803024624
 31
0.0
 12
321.3462111237895
 22
123.922803024624
 32
0.0
 13
321.3462111237895
 23
123.922803024624
 33
0.0
  0
SOLID
  5
352
330
34D
100
AcDbEntity
  8
0
 62
   123
100
AcDbTrace
 10
320.9295444571228
 20
46.42280302462221
 30
0.0
 11
321.7628777904562
 21
46.42280302462221
 31
0.0
 12
321.3462111237895
 22
43.92280302462221
 32
0.0
 13
321.3462111237895
 23
43.92280302462221
 33
0.0
  0
MTEXT
  5
353
330
34D
100
AcDbEntity
  8
0
 62
     3
100
AcDbMText
 10
318.8462111237895
 20
83.81702217766587
 30
0.0
 40
3.0
 41
0.0
 71
     5
 72
     1
  1
\A1;%%C80
 11
0.0000000000000001
 21
1.0
 31
0.0
1001
ACAD
1000
MTEXTBEGIN
1070
    73
1070
     1
1070
    44
1040
1.0
1070
    74
1070
     0
1000
MTEXTEND
  0
POINT
  5
354
330
34D
100
AcDbEntity
  8
DEFPOINTS
 62
     0
100
AcDbPoint
 10
299.1794797208367
 20
123.922803024624
 30
0.0
  0
POINT
  5
355
330
34D
100
AcDbEntity
  8
DEFPOINTS
 62
     0
100
AcDbPoint
 10
299.1794797208367
 20
43.92280302462222
 30
0.0
  0
POINT
  5
356
330
34D
100
AcDbEntity
  8
DEFPOINTS
 62
     0
100
AcDbPoint
 10
321.3462111237895
 20
43.92280302462221
 30
0.0
  0
ENDBLK
  5
358
330
34D
100
AcDbEntity
  8
0
100
AcDbBlockEnd
  0
BLOCK
  5
363
330
359
100
AcDbEntity
  8
0
100
AcDbBlockBegin
  2
*D29
 70
     1
 10
0.0
 20
0.0
 30
0.0
  3
*D29
  1

  0
LINE
  5
3EC
330
359
100
AcDbEntity
  8
0
 62
   123
100
AcDbLine
 10
-1.214975502756715
 20
119.9228030246235
 30
0.0
 11
-1.214975502756713
 21
138.9827225455602
 31
0.0
  0
LINE
  5
3ED
330
359
100
AcDbEntity
  8
0
 62
   123
100
AcDbLine
 10
78.78502449724329
 20
119.9228030246235
 30
0.0
 11
78.78502449724329
 21
138.9827225455602
 31
0.0
  0
LINE
  5
3EE
330
359
100
AcDbEntity
  8
0
 62
   123
100
AcDbLine
 10
1.285024497243285
 20
138.3827225455602
 30
0.0
 11
76.28502449724329
 21
138.3827225455602
 31
0.0
  0
SOLID
  5
3EF
330
359
100
AcDbEntity
  8
0
 62
   123
100
AcDbTrace
 10
1.285024497243285
 20
138.7993892122268
 30
0.0
 11
1.285024497243285
 21
137.9660558788935
 31
0.0
 12
-1.214975502756714
 22
138.3827225455602
 32
0.0
 13
-1.214975502756714
 23
138.3827225455602
 33
0.0
  0
SOLID
  5
3F0
330
359
100
AcDbEntity
  8
0
 62
   123
100
AcDbTrace
 10
76.28502449724329
 20
138.7993892122268
 30
0.0
 11
76.28502449724329
 21
137.9660558788935
 31
0.0
 12
78.78502449724329
 22
138.3827225455602
 32
0.0
 13
78.78502449724329
 23
138.3827225455602
 33
0.0
  0
MTEXT
  5
3F1
330
359
100
AcDbEntity
  8
0
 62
     3
100
AcDbMText
 10
40.57814117360885
 20
140.8827225455602
 30
0.0
 40
3.0
 41
0.0
 71
     5
 72
     1
  1
\A1;80
1001
ACAD
1000
MTEXTBEGIN
1070
    73
1070
     1
1070
    44
1040
1.0
1070
    74
1070
     0
1000
MTEXTEND
  0
POINT
  5
3F2
330
359
100
AcDbEntity
  8
DEFPOINTS
 62
     0
100
AcDbPoint
 10
-1.214975502756715
 20
118.9228030246235
 30
0.0
  0
POINT
  5
3F3
330
359
100
AcDbEntity
  8
DEFPOINTS
 62
     0
100
AcDbPoint
 10
78.78502449724329
 20
118.9228030246235
 30
0.0
  0
POINT
  5
3F4
330
359
100
AcDbEntity
  8
DEFPOINTS
 62
     0
100
AcDbPoint
 10
78.78502449724329
 20
138.3827225455602
 30
0.0
  0
ENDBLK
  5
364
330
359
100
AcDbEntity
  8
0
100
AcDbBlockEnd
  0
BLOCK
  5
36F
330
365
100
AcDbEntity
  8
0
100
AcDbBlockBegin
  2
*D30
 70
     1
 10
0.0
 20
0.0
 30
0.0
  3
*D30
  1

  0
LINE
  5
366
330
365
100
AcDbEntity
  8
0
 62
   123
100
AcDbLine
 10
174.179479720834
 20
124.922803024624
 30
0.0
 11
174.179479720834
 21
150.1752169311967
 31
0.0
  0
LINE
  5
367
330
365
100
AcDbEntity
  8
0
 62
   123
100
AcDbLine
 10
304.1794797208367
 20
120.9228030246235
 30
0.0
 11
304.1794797208367
 21
150.1752169311967
 31
0.0
  0
LINE
  5
368
330
365
100
AcDbEntity
  8
0
 62
   123
100
AcDbLine
 10
176.679479720834
 20
149.5752169311967
 30
0.0
 11
301.6794797208367
 21
149.5752169311967
 31
0.0
  0
SOLID
  5
369
330
365
100
AcDbEntity
  8
0
 62
   123
100
AcDbTrace
 10
176.679479720834
 20
149.9918835978634
 30
0.0
 11
176.679479720834
 21
149.1585502645301
 31
0.0
 12
174.179479720834
 22
149.5752169311967
 32
0.0
 13
174.179479720834
 23
149.5752169311967
 33
0.0
  0
SOLID
  5
36A
330
365
100
AcDbEntity
  8
0
 62
   123
100
AcDbTrace
 10
301.6794797208367
 20
149.9918835978634
 30
0.0
 11
301.6794797208367
 21
149.1585502645301
 31
0.0
 12
304.1794797208367
 22
149.5752169311967
 32
0.0
 13
304.1794797208367
 23
149.5752169311967
 33
0.0
  0
MTEXT
  5
36B
330
365
100
AcDbEntity
  8
0
 62
     3
100
AcDbMText
 10
239.1794797208349
 20
152.0752169311967
 30
0.0
 40
3.0
 41
0.0
 71
     5
 72
     1
  1
\A1;130
1001
ACAD
1000
MTEXTBEGIN
1070
    73
1070
     1
1070
    44
1040
1.0
1070
    74
1070
     0
1000
MTEXTEND
  0
POINT
  5
36C
330
365
100
AcDbEntity
  8
DEFPOINTS
 62
     0
100
AcDbPoint
 10
174.179479720834
 20
123.922803024624
 30
0.0
  0
POINT
  5
36D
330
365
100
AcDbEntity
  8
DEFPOINTS
 62
     0
100
AcDbPoint
 10
304.1794797208367
 20
119.9228030246235
 30
0.0
  0
POINT
  5
36E
330
365
100
AcDbEntity
  8
DEFPOINTS
 62
     0
100
AcDbPoint
 10
304.1794797208367
 20
149.5752169311967
 30
0.0
  0
ENDBLK
  5
370
330
365
100
AcDbEntity
  8
0
100
AcDbBlockEnd
  0
BLOCK
  5
37D
330
371
100
AcDbEntity
  8
0
100
AcDbBlockBegin
  2
*D31
 70
     1
 10
0.0
 20
0.0
 30
0.0
  3
*D31
  1

  0
LINE
  5
372
330
371
100
AcDbEntity
  8
0
 62
   123
100
AcDbLine
 10
172.1794797208349
 20
121.4228030246235
 30
0.0
 11
172.1794797208349
 21
137.4969009935858
 31
0.0
  0
LINE
  5
373
330
371
100
AcDbEntity
  8
0
 62
   123
100
AcDbLine
 10
174.179479720834
 20
126.422803024624
 30
0.0
 11
174.179479720834
 21
137.4969009935858
 31
0.0
  0
LINE
  5
374
330
371
100
AcDbEntity
  8
0
 62
   123
100
AcDbLine
 10
176.679479720834
 20
136.8969009935858
 30
0.0
 11
179.179479720834
 21
136.8969009935858
 31
0.0
  0
LINE
  5
375
330
371
100
AcDbEntity
  8
0
 62
   123
100
AcDbLine
 10
169.6794797208349
 20
136.8969009935858
 30
0.0
 11
163.179479720834
 21
136.8969009935858
 31
0.0
  0
LINE
  5
376
330
371
100
AcDbEntity
  8
0
 62
   123
100
AcDbLine
 10
174.179479720834
 20
136.8969009935858
 30
0.0
 11
172.1794797208349
 21
136.8969009935858
 31
0.0
  0
SOLID
  5
377
330
371
100
AcDbEntity
  8
0
 62
   123
100
AcDbTrace
 10
176.679479720834
 20
137.3135676602525
 30
0.0
 11
176.679479720834
 21
136.4802343269192
 31
0.0
 12
174.179479720834
 22
136.8969009935858
 32
0.0
 13
174.179479720834
 23
136.8969009935858
 33
0.0
  0
SOLID
  5
378
330
371
100
AcDbEntity
  8
0
 62
   123
100
AcDbTrace
 10
169.6794797208349
 20
137.3135676602525
 30
0.0
 11
169.6794797208349
 21
136.4802343269192
 31
0.0
 12
172.1794797208349
 22
136.8969009935858
 32
0.0
 13
172.1794797208349
 23
136.8969009935858
 33
0.0
  0
MTEXT
  5
379
330
371
100
AcDbEntity
  8
0
 62
     3
100
AcDbMText
 10
165.179479720834
 20
139.3969009935858
 30
0.0
 40
3.0
 41
0.0
 71
     5
 72
     1
  1
\A1;2
1001
ACAD
1000
MTEXTBEGIN
1070
    73
1070
     1
1070
    44
1040
1.0
1070
    74
1070
     0
1000
MTEXTEND
  0
POINT
  5
37A
330
371
100
AcDbEntity
  8
DEFPOINTS
 62
     0
100
AcDbPoint
 10
172.1794797208349
 20
120.4228030246236
 30
0.0
  0
POINT
  5
37B
330
371
100
AcDbEntity
  8
DEFPOINTS
 62
     0
100
AcDbPoint
 10
174.179479720834
 20
125.422803024624
 30
0.0
  0
POINT
  5
37C
330
371
100
AcDbEntity
  8
DEFPOINTS
 62
     0
100
AcDbPoint
 10
174.179479720834
 20
136.8969009935858
 30
0.0
  0
ENDBLK
  5
37E
330
371
100
AcDbEntity
  8
0
100
AcDbBlockEnd
  0
BLOCK
  5
389
330
37F
100
AcDbEntity
  8
0
100
AcDbBlockBegin
  2
*D32
 70
     1
 10
0.0
 20
0.0
 30
0.0
  3
*D32
  1

  0
LINE
  5
380
330
37F
100
AcDbEntity
  8
0
 62
   123
100
AcDbLine
 10
142.179479720834
 20
87.92280302462359
 30
0.0
 11
142.179479720834
 21
102.551189098509
 31
0.0
  0
LINE
  5
381
330
37F
100
AcDbEntity
  8
0
 62
   123
100
AcDbLine
 10
167.179479720834
 20
88.92280302462358
 30
0.0
 11
167.179479720834
 21
102.551189098509
 31
0.0
  0
LINE
  5
382
330
37F
100
AcDbEntity
  8
0
 62
   123
100
AcDbLine
 10
144.679479720834
 20
101.951189098509
 30
0.0
 11
164.679479720834
 21
101.951189098509
 31
0.0
  0
SOLID
  5
383
330
37F
100
AcDbEntity
  8
0
 62
   123
100
AcDbTrace
 10
144.679479720834
 20
102.3678557651757
 30
0.0
 11
144.679479720834
 21
101.5345224318424
 31
0.0
 12
142.179479720834
 22
101.951189098509
 32
0.0
 13
142.179479720834
 23
101.951189098509
 33
0.0
  0
SOLID
  5
384
330
37F
100
AcDbEntity
  8
0
 62
   123
100
AcDbTrace
 10
164.679479720834
 20
102.3678557651757
 30
0.0
 11
164.679479720834
 21
101.5345224318424
 31
0.0
 12
167.179479720834
 22
101.951189098509
 32
0.0
 13
167.179479720834
 23
101.951189098509
 33
0.0
  0
MTEXT
  5
385
330
37F
100
AcDbEntity
  8
0
 62
     3
100
AcDbMText
 10
154.6794797208321
 20
104.451189098509
 30
0.0
 40
3.0
 41
0.0
 71
     5
 72
     1
  1
\A1;25
1001
ACAD
1000
MTEXTBEGIN
1070
    73
1070
     1
1070
    44
1040
1.0
1070
    74
1070
     0
1000
MTEXTEND
  0
POINT
  5
386
330
37F
100
AcDbEntity
  8
DEFPOINTS
 62
     0
100
AcDbPoint
 10
142.179479720834
 20
86.92280302462359
 30
0.0
  0
POINT
  5
387
330
37F
100
AcDbEntity
  8
DEFPOINTS
 62
     0
100
AcDbPoint
 10
167.179479720834
 20
87.92280302462359
 30
0.0
  0
POINT
  5
388
330
37F
100
AcDbEntity
  8
DEFPOINTS
 62
     0
100
AcDbPoint
 10
167.179479720834
 20
101.951189098509
 30
0.0
  0
ENDBLK
  5
38A
330
37F
100
AcDbEntity
  8
0
100
AcDbBlockEnd
  0
BLOCK
  5
395
330
38B
100
AcDbEntity
  8
0
100
AcDbBlockBegin
  2
*D33
 70
     1
 10
0.0
 20
0.0
 30
0.0
  3
*D33
  1

  0
LINE
  5
38C
330
38B
100
AcDbEntity
  8
0
 62
   123
100
AcDbLine
 10
142.179479720834
 20
87.92280302462359
 30
0.0
 11
142.179479720834
 21
150.1752169311967
 31
0.0
  0
LINE
  5
38D
330
38B
100
AcDbEntity
  8
0
 62
   123
100
AcDbLine
 10
174.179479720834
 20
125.4228030246235
 30
0.0
 11
174.179479720834
 21
150.1752169311967
 31
0.0
  0
LINE
  5
38E
330
38B
100
AcDbEntity
  8
0
 62
   123
100
AcDbLine
 10
144.679479720834
 20
149.5752169311967
 30
0.0
 11
171.679479720834
 21
149.5752169311967
 31
0.0
  0
SOLID
  5
38F
330
38B
100
AcDbEntity
  8
0
 62
   123
100
AcDbTrace
 10
144.679479720834
 20
149.9918835978634
 30
0.0
 11
144.679479720834
 21
149.1585502645301
 31
0.0
 12
142.179479720834
 22
149.5752169311967
 32
0.0
 13
142.179479720834
 23
149.5752169311967
 33
0.0
  0
SOLID
  5
390
330
38B
100
AcDbEntity
  8
0
 62
   123
100
AcDbTrace
 10
171.679479720834
 20
149.9918835978634
 30
0.0
 11
171.679479720834
 21
149.1585502645301
 31
0.0
 12
174.179479720834
 22
149.5752169311967
 32
0.0
 13
174.179479720834
 23
149.5752169311967
 33
0.0
  0
MTEXT
  5
391
330
38B
100
AcDbEntity
  8
0
 62
     3
100
AcDbMText
 10
158.1794797208358
 20
152.0752169311967
 30
0.0
 40
3.0
 41
0.0
 71
     5
 72
     1
  1
\A1;32
1001
ACAD
1000
MTEXTBEGIN
1070
    73
1070
     1
1070
    44
1040
1.0
1070
    74
1070
     0
1000
MTEXTEND
  0
POINT
  5
392
330
38B
100
AcDbEntity
  8
DEFPOINTS
 62
     0
100
AcDbPoint
 10
142.179479720834
 20
86.92280302462359
 30
0.0
  0
POINT
  5
393
330
38B
100
AcDbEntity
  8
DEFPOINTS
 62
     0
100
AcDbPoint
 10
174.179479720834
 20
124.4228030246235
 30
0.0
  0
POINT
  5
394
330
38B
100
AcDbEntity
  8
DEFPOINTS
 62
     0
100
AcDbPoint
 10
174.179479720834
 20
149.5752169311967
 30
0.0
  0
ENDBLK
  5
396
330
38B
100
AcDbEntity
  8
0
100
AcDbBlockEnd
  0
BLOCK
  5
3A1
330
397
100
AcDbEntity
  8
0
100
AcDbBlockBegin
  2
*D34
 70
     1
 10
0.0
 20
0.0
 30
0.0
  3
*D34
  1

  0
LINE
  5
398
330
397
100
AcDbEntity
  8
0
 62
   123
100
AcDbLine
 10
174.179479720834
 20
124.4228030246235
 30
0.0
 11
174.179479720834
 21
137.4969009935858
 31
0.0
  0
LINE
  5
399
330
397
100
AcDbEntity
  8
0
 62
   123
100
AcDbLine
 10
181.179479720834
 20
123.5215403661523
 30
0.0
 11
181.179479720834
 21
137.4969009935858
 31
0.0
  0
LINE
  5
39A
330
397
100
AcDbEntity
  8
0
 62
   123
100
AcDbLine
 10
176.679479720834
 20
136.8969009935858
 30
0.0
 11
178.679479720834
 21
136.8969009935858
 31
0.0
  0
SOLID
  5
39B
330
397
100
AcDbEntity
  8
0
 62
   123
100
AcDbTrace
 10
176.679479720834
 20
137.3135676602525
 30
0.0
 11
176.679479720834
 21
136.4802343269192
 31
0.0
 12
174.179479720834
 22
136.8969009935858
 32
0.0
 13
174.179479720834
 23
136.8969009935858
 33
0.0
  0
SOLID
  5
39C
330
397
100
AcDbEntity
  8
0
 62
   123
100
AcDbTrace
 10
178.679479720834
 20
137.3135676602525
 30
0.0
 11
178.679479720834
 21
136.4802343269192
 31
0.0
 12
181.179479720834
 22
136.8969009935858
 32
0.0
 13
181.179479720834
 23
136.8969009935858
 33
0.0
  0
MTEXT
  5
39D
330
397
100
AcDbEntity
  8
0
 62
     3
100
AcDbMText
 10
177.6794797208349
 20
139.3969009935858
 30
0.0
 40
3.0
 41
0.0
 71
     5
 72
     1
  1
\A1;7
1001
ACAD
1000
MTEXTBEGIN
1070
    73
1070
     1
1070
    44
1040
1.0
1070
    74
1070
     0
1000
MTEXTEND
  0
POINT
  5
39E
330
397
100
AcDbEntity
  8
DEFPOINTS
 62
     0
100
AcDbPoint
 10
174.179479720834
 20
123.4228030246235
 30
0.0
  0
POINT
  5
39F
330
397
100
AcDbEntity
  8
DEFPOINTS
 62
     0
100
AcDbPoint
 10
181.179479720834
 20
122.5215403661523
 30
0.0
  0
POINT
  5
3A0
330
397
100
AcDbEntity
  8
DEFPOINTS
 62
     0
100
AcDbPoint
 10
181.179479720834
 20
136.8969009935858
 30
0.0
  0
ENDBLK
  5
3A2
330
397
100
AcDbEntity
  8
0
100
AcDbBlockEnd
  0
BLOCK
  5
3AD
330
3A3
100
AcDbEntity
  8
0
100
AcDbBlockBegin
  2
*D35
 70
     1
 10
0.0
 20
0.0
 30
0.0
  3
*D35
  1

  0
LINE
  5
3E3
330
3A3
100
AcDbEntity
  8
0
 62
   123
100
AcDbLine
 10
22.50960292813306
 20
323.3273033859672
 30
0.0
 11
22.50960292813306
 21
345.122871716581
 31
0.0
  0
LINE
  5
3E4
330
3A3
100
AcDbEntity
  8
0
 62
   123
100
AcDbLine
 10
102.5096029281339
 20
323.3273033859672
 30
0.0
 11
102.5096029281339
 21
345.122871716581
 31
0.0
  0
LINE
  5
3E5
330
3A3
100
AcDbEntity
  8
0
 62
   123
100
AcDbLine
 10
25.00960292813306
 20
344.522871716581
 30
0.0
 11
100.0096029281339
 21
344.522871716581
 31
0.0
  0
SOLID
  5
3E6
330
3A3
100
AcDbEntity
  8
0
 62
   123
100
AcDbTrace
 10
25.00960292813306
 20
344.9395383832476
 30
0.0
 11
25.00960292813306
 21
344.1062050499143
 31
0.0
 12
22.50960292813306
 22
344.522871716581
 32
0.0
 13
22.50960292813306
 23
344.522871716581
 33
0.0
  0
SOLID
  5
3E7
330
3A3
100
AcDbEntity
  8
0
 62
   123
100
AcDbTrace
 10
100.0096029281339
 20
344.9395383832476
 30
0.0
 11
100.0096029281339
 21
344.1062050499143
 31
0.0
 12
102.5096029281339
 22
344.522871716581
 32
0.0
 13
102.5096029281339
 23
344.522871716581
 33
0.0
  0
MTEXT
  5
3E8
330
3A3
100
AcDbEntity
  8
0
 62
     3
100
AcDbMText
 10
63.2682306829729
 20
347.0228717165809
 30
0.0
 40
3.0
 41
0.0
 71
     5
 72
     1
  1
\A1;80
1001
ACAD
1000
MTEXTBEGIN
1070
    73
1070
     1
1070
    44
1040
1.0
1070
    74
1070
     0
1000
MTEXTEND
  0
POINT
  5
3E9
330
3A3
100
AcDbEntity
  8
DEFPOINTS
 62
     0
100
AcDbPoint
 10
22.50960292813306
 20
322.3273033859673
 30
0.0
  0
POINT
  5
3EA
330
3A3
100
AcDbEntity
  8
DEFPOINTS
 62
     0
100
AcDbPoint
 10
102.5096029281339
 20
322.3273033859673
 30
0.0
  0
POINT
  5
3EB
330
3A3
100
AcDbEntity
  8
DEFPOINTS
 62
     0
100
AcDbPoint
 10
102.5096029281339
 20
344.522871716581
 30
0.0
  0
ENDBLK
  5
3AE
330
3A3
100
AcDbEntity
  8
0
100
AcDbBlockEnd
  0
BLOCK
  5
3B9
330
3AF
100
AcDbEntity
  8
0
100
AcDbBlockBegin
  2
*D36
 70
     1
 10
0.0
 20
0.0
 30
0.0
  3
*D36
  1

  0
LINE
  5
3B0
330
3AF
100
AcDbEntity
  8
0
 62
   123
100
AcDbLine
 10
157.6242952527309
 20
328.3273033859673
 30
0.0
 11
157.6242952527309
 21
353.1982168417781
 31
0.0
  0
LINE
  5
3B1
330
3AF
100
AcDbEntity
  8
0
 62
   123
100
AcDbLine
 10
287.62429525273
 20
324.3273033859673
 30
0.0
 11
287.62429525273
 21
353.1982168417781
 31
0.0
  0
LINE
  5
3B2
330
3AF
100
AcDbEntity
  8
0
 62
   123
100
AcDbLine
 10
160.1242952527309
 20
352.5982168417781
 30
0.0
 11
285.12429525273
 21
352.5982168417781
 31
0.0
  0
SOLID
  5
3B3
330
3AF
100
AcDbEntity
  8
0
 62
   123
100
AcDbTrace
 10
160.1242952527309
 20
353.0148835084448
 30
0.0
 11
160.1242952527309
 21
352.1815501751114
 31
0.0
 12
157.6242952527309
 22
352.5982168417781
 32
0.0
 13
157.6242952527309
 23
352.5982168417781
 33
0.0
  0
SOLID
  5
3B4
330
3AF
100
AcDbEntity
  8
0
 62
   123
100
AcDbTrace
 10
285.12429525273
 20
353.0148835084448
 30
0.0
 11
285.12429525273
 21
352.1815501751114
 31
0.0
 12
287.62429525273
 22
352.5982168417781
 32
0.0
 13
287.62429525273
 23
352.5982168417781
 33
0.0
  0
MTEXT
  5
3B5
330
3AF
100
AcDbEntity
  8
0
 62
     3
100
AcDbMText
 10
222.62429525273
 20
355.0982168417781
 30
0.0
 40
3.0
 41
0.0
 71
     5
 72
     1
  1
\A1;130
1001
ACAD
1000
MTEXTBEGIN
1070
    73
1070
     1
1070
    44
1040
1.0
1070
    74
1070
     0
1000
MTEXTEND
  0
POINT
  5
3B6
330
3AF
100
AcDbEntity
  8
DEFPOINTS
 62
     0
100
AcDbPoint
 10
157.6242952527309
 20
327.3273033859672
 30
0.0
  0
POINT
  5
3B7
330
3AF
100
AcDbEntity
  8
DEFPOINTS
 62
     0
100
AcDbPoint
 10
287.62429525273
 20
323.3273033859672
 30
0.0
  0
POINT
  5
3B8
330
3AF
100
AcDbEntity
  8
DEFPOINTS
 62
     0
100
AcDbPoint
 10
287.62429525273
 20
352.5982168417781
 30
0.0
  0
ENDBLK
  5
3BA
330
3AF
100
AcDbEntity
  8
0
100
AcDbBlockEnd
  0
BLOCK
  5
3C7
330
3BB
100
AcDbEntity
  8
0
100
AcDbBlockBegin
  2
*D37
 70
     1
 10
0.0
 20
0.0
 30
0.0
  3
*D37
  1

  0
LINE
  5
3BC
330
3BB
100
AcDbEntity
  8
0
 62
   123
100
AcDbLine
 10
155.624295252729
 20
324.8273033859673
 30
0.0
 11
155.624295252729
 21
339.8559854493788
 31
0.0
  0
LINE
  5
3BD
330
3BB
100
AcDbEntity
  8
0
 62
   123
100
AcDbLine
 10
157.6242952527309
 20
329.8273033859672
 30
0.0
 11
157.6242952527309
 21
339.8559854493788
 31
0.0
  0
LINE
  5
3BE
330
3BB
100
AcDbEntity
  8
0
 62
   123
100
AcDbLine
 10
160.1242952527309
 20
339.2559854493788
 30
0.0
 11
162.6242952527309
 21
339.2559854493788
 31
0.0
  0
LINE
  5
3BF
330
3BB
100
AcDbEntity
  8
0
 62
   123
100
AcDbLine
 10
153.1242952527291
 20
339.2559854493788
 30
0.0
 11
146.6242952527291
 21
339.2559854493788
 31
0.0
  0
LINE
  5
3C0
330
3BB
100
AcDbEntity
  8
0
 62
   123
100
AcDbLine
 10
157.6242952527309
 20
339.2559854493788
 30
0.0
 11
155.624295252729
 21
339.2559854493788
 31
0.0
  0
SOLID
  5
3C1
330
3BB
100
AcDbEntity
  8
0
 62
   123
100
AcDbTrace
 10
160.1242952527309
 20
339.6726521160455
 30
0.0
 11
160.1242952527309
 21
338.8393187827121
 31
0.0
 12
157.6242952527309
 22
339.2559854493788
 32
0.0
 13
157.6242952527309
 23
339.2559854493788
 33
0.0
  0
SOLID
  5
3C2
330
3BB
100
AcDbEntity
  8
0
 62
   123
100
AcDbTrace
 10
153.1242952527291
 20
339.6726521160455
 30
0.0
 11
153.1242952527291
 21
338.8393187827121
 31
0.0
 12
155.624295252729
 22
339.2559854493788
 32
0.0
 13
155.624295252729
 23
339.2559854493788
 33
0.0
  0
MTEXT
  5
3C3
330
3BB
100
AcDbEntity
  8
0
 62
     3
100
AcDbMText
 10
148.6242952527291
 20
341.7559854493788
 30
0.0
 40
3.0
 41
0.0
 71
     5
 72
     1
  1
\A1;2
1001
ACAD
1000
MTEXTBEGIN
1070
    73
1070
     1
1070
    44
1040
1.0
1070
    74
1070
     0
1000
MTEXTEND
  0
POINT
  5
3C4
330
3BB
100
AcDbEntity
  8
DEFPOINTS
 62
     0
100
AcDbPoint
 10
155.624295252729
 20
323.8273033859673
 30
0.0
  0
POINT
  5
3C5
330
3BB
100
AcDbEntity
  8
DEFPOINTS
 62
     0
100
AcDbPoint
 10
157.6242952527309
 20
328.8273033859673
 30
0.0
  0
POINT
  5
3C6
330
3BB
100
AcDbEntity
  8
DEFPOINTS
 62
     0
100
AcDbPoint
 10
157.6242952527309
 20
339.2559854493788
 30
0.0
  0
ENDBLK
  5
3C8
330
3BB
100
AcDbEntity
  8
0
100
AcDbBlockEnd
  0
BLOCK
  5
3D5
330
3C9
100
AcDbEntity
  8
0
100
AcDbBlockBegin
  2
*D38
 70
     1
 10
0.0
 20
0.0
 30
0.0
  3
*D38
  1

  0
LINE
  5
3CA
330
3C9
100
AcDbEntity
  8
0
 62
   123
100
AcDbLine
 10
157.6242952527309
 20
327.8273033859672
 30
0.0
 11
157.6242952527309
 21
339.8559854493788
 31
0.0
  0
LINE
  5
3CB
330
3C9
100
AcDbEntity
  8
0
 62
   123
100
AcDbLine
 10
164.624295252729
 20
326.926040727496
 30
0.0
 11
164.624295252729
 21
339.8559854493788
 31
0.0
  0
LINE
  5
3CC
330
3C9
100
AcDbEntity
  8
0
 62
   123
100
AcDbLine
 10
155.1242952527309
 20
339.2559854493788
 30
0.0
 11
152.6242952527309
 21
339.2559854493788
 31
0.0
  0
LINE
  5
3CD
330
3C9
100
AcDbEntity
  8
0
 62
   123
100
AcDbLine
 10
167.124295252729
 20
339.2559854493788
 30
0.0
 11
169.6242952527291
 21
339.2559854493788
 31
0.0
  0
LINE
  5
3CE
330
3C9
100
AcDbEntity
  8
0
 62
   123
100
AcDbLine
 10
157.6242952527309
 20
339.2559854493788
 30
0.0
 11
164.624295252729
 21
339.2559854493788
 31
0.0
  0
SOLID
  5
3CF
330
3C9
100
AcDbEntity
  8
0
 62
   123
100
AcDbTrace
 10
155.1242952527309
 20
339.6726521160455
 30
0.0
 11
155.1242952527309
 21
338.8393187827121
 31
0.0
 12
157.6242952527309
 22
339.2559854493788
 32
0.0
 13
157.6242952527309
 23
339.2559854493788
 33
0.0
  0
SOLID
  5
3D0
330
3C9
100
AcDbEntity
  8
0
 62
   123
100
AcDbTrace
 10
167.124295252729
 20
339.6726521160455
 30
0.0
 11
167.124295252729
 21
338.8393187827121
 31
0.0
 12
164.624295252729
 22
339.2559854493788
 32
0.0
 13
164.624295252729
 23
339.2559854493788
 33
0.0
  0
MTEXT
  5
3D1
330
3C9
100
AcDbEntity
  8
0
 62
     3
100
AcDbMText
 10
161.12429525273
 20
341.7559854493788
 30
0.0
 40
3.0
 41
0.0
 71
     5
 72
     1
  1
\A1;7
1001
ACAD
1000
MTEXTBEGIN
1070
    73
1070
     1
1070
    44
1040
1.0
1070
    74
1070
     0
1000
MTEXTEND
  0
POINT
  5
3D2
330
3C9
100
AcDbEntity
  8
DEFPOINTS
 62
     0
100
AcDbPoint
 10
157.6242952527309
 20
326.8273033859673
 30
0.0
  0
POINT
  5
3D3
330
3C9
100
AcDbEntity
  8
DEFPOINTS
 62
     0
100
AcDbPoint
 10
164.624295252729
 20
325.926040727496
 30
0.0
  0
POINT
  5
3D4
330
3C9
100
AcDbEntity
  8
DEFPOINTS
 62
     0
100
AcDbPoint
 10
164.624295252729
 20
339.2559854493788
 30
0.0
  0
ENDBLK
  5
3D6
330
3C9
100
AcDbEntity
  8
0
100
AcDbBlockEnd
  0
BLOCK
  5
3E1
330
3D7
100
AcDbEntity
  8
0
100
AcDbBlockBegin
  2
*D39
 70
     1
 10
0.0
 20
0.0
 30
0.0
  3
*D39
  1

  0
LINE
  5
3D8
330
3D7
100
AcDbEntity
  8
0
 62
   123
100
AcDbLine
 10
144.124295252729
 20
291.4323033859663
 30
0.0
 11
144.124295252729
 21
353.1982168417781
 31
0.0
  0
LINE
  5
3D9
330
3D7
100
AcDbEntity
  8
0
 62
   123
100
AcDbLine
 10
157.6242952527309
 20
328.8273033859673
 30
0.0
 11
157.6242952527309
 21
353.1982168417781
 31
0.0
  0
LINE
  5
3DA
330
3D7
100
AcDbEntity
  8
0
 62
   123
100
AcDbLine
 10
146.6242952527291
 20
352.5982168417781
 30
0.0
 11
155.1242952527309
 21
352.5982168417781
 31
0.0
  0
SOLID
  5
3DB
330
3D7
100
AcDbEntity
  8
0
 62
   123
100
AcDbTrace
 10
146.6242952527291
 20
353.0148835084448
 30
0.0
 11
146.6242952527291
 21
352.1815501751114
 31
0.0
 12
144.124295252729
 22
352.5982168417781
 32
0.0
 13
144.124295252729
 23
352.5982168417781
 33
0.0
  0
SOLID
  5
3DC
330
3D7
100
AcDbEntity
  8
0
 62
   123
100
AcDbTrace
 10
155.1242952527309
 20
353.0148835084448
 30
0.0
 11
155.1242952527309
 21
352.1815501751114
 31
0.0
 12
157.6242952527309
 22
352.5982168417781
 32
0.0
 13
157.6242952527309
 23
352.5982168417781
 33
0.0
  0
MTEXT
  5
3DD
330
3D7
100
AcDbEntity
  8
0
 62
     3
100
AcDbMText
 10
150.8742952527291
 20
355.0982168417781
 30
0.0
 40
3.0
 41
0.0
 71
     5
 72
     1
  1
\A1;13.5
1001
ACAD
1000
MTEXTBEGIN
1070
    73
1070
     1
1070
    44
1040
1.0
1070
    74
1070
     0
1000
MTEXTEND
  0
POINT
  5
3DE
330
3D7
100
AcDbEntity
  8
DEFPOINTS
 62
     0
100
AcDbPoint
 10
144.124295252729
 20
290.4323033859664
 30
0.0
  0
POINT
  5
3DF
330
3D7
100
AcDbEntity
  8
DEFPOINTS
 62
     0
100
AcDbPoint
 10
157.6242952527309
 20
327.8273033859672
 30
0.0
  0
POINT
  5
3E0
330
3D7
100
AcDbEntity
  8
DEFPOINTS
 62
     0
100
AcDbPoint
 10
157.6242952527309
 20
352.5982168417781
 30
0.0
  0
ENDBLK
  5
3E2
330
3D7
100
AcDbEntity
  8
0
100
AcDbBlockEnd
  0
ENDSEC
  0
SECTION
  2
ENTITIES
  0
LINE
  5
9D
330
2
100
AcDbEntity
  8
0
100
AcDbLine
 10
287.62429525273
 20
322.3273033859673
 30
0.0
 11
287.62429525273
 21
252.3273033859664
 31
0.0
  0
DIMENSION
  5
9E
102
{ACAD_XDICTIONARY
360
9F
102
}
102
{ACAD_REACTORS
330
A0
102
}
330
2
100
AcDbEntity
  8
0
100
AcDbDimension
  2
*D23
 10
308.4193847499828
 20
247.3273033859663
 30
0.0
 11
308.4193847499828
 21
287.2215225390096
 31
0.0
 70
   160
  1
%%C<>
  3
STANDARD
100
AcDbAlignedDimension
 13
282.62429525273
 23
327.3273033859672
 33
0.0
 14
282.62429525273
 24
247.3273033859663
 34
0.0
 50
90.0
100
AcDbRotatedDimension
  0
LINE
  5
AF
330
2
100
AcDbEntity
  8
0
100
AcDbLine
 10
251.4045172898404
 20
326.8273033859673
 30
0.0
 11
251.4045172898404
 21
247.3273033859663
 31
0.0
  0
ARC
  5
B0
330
2
100
AcDbEntity
  8
0
 48
0.6
100
AcDbCircle
 10
62.47683306465297
 20
287.3273033859673
 30
0.0
 40
31.73759999999999
100
AcDbArc
 50
296.3656725032108
 51
333.6343274967831
  0
LINE
  5
B1
330
2
100
AcDbEntity
  8
0
 48
0.6
100
AcDbLine
 10
102.5096029281321
 20
322.3273033859673
 30
0.0
 11
102.5096029281321
 21
252.3273033859672
 31
0.0
  0
ARC
  5
B2
330
2
100
AcDbEntity
  8
0
 48
0.6
100
AcDbCircle
 10
62.47683306465297
 20
287.3273033859673
 30
0.0
 40
31.73759999999999
100
AcDbArc
 50
206.3656725032168
 51
243.634327496789
  0
LINE
  5
B3
330
2
100
AcDbEntity
  8
0
 48
0.6
100
AcDbLine
 10
22.50960292813124
 20
322.3273033859673
 30
0.0
 11
22.50960292813124
 21
252.3273033859672
 31
0.0
  0
CIRCLE
  5
B4
330
2
100
AcDbEntity
  8
0
 48
0.6
100
AcDbCircle
 10
62.50960292813124
 20
287.3273033859673
 30
0.0
 40
38.5
  0
CIRCLE
  5
B5
330
2
100
AcDbEntity
  8
0
 48
0.6
100
AcDbCircle
 10
62.50960292813124
 20
287.3273033859673
 30
0.0
 40
37.00000000000005
  0
LINE
  5
B6
102
{ACAD_REACTORS
330
B9
330
2CF
102
}
330
2
100
AcDbEntity
  8
0
100
AcDbLine
 10
155.624295252729
 20
323.8273033859673
 30
0.0
 11
155.624295252729
 21
250.8273033859672
 31
0.0
  0
DIMENSION
  5
B7
102
{ACAD_XDICTIONARY
360
B8
102
}
102
{ACAD_REACTORS
330
B9
102
}
330
2
100
AcDbEntity
  8
0
100
AcDbDimension
  2
*D22
 10
132.075646903153
 20
250.8273033859672
 30
0.0
 11
132.075646903153
 21
287.3273033859673
 31
0.0
 70
   160
  1
\A1;{\f??|b0|i0|c0|p49;%%C73\H0.7x;\S+0^ -0.030;\H1.429x;(h7)}
  3
STANDARD
100
AcDbAlignedDimension
 13
155.624295252729
 23
323.8273033859673
 33
0.0
 14
155.624295252729
 24
250.8273033859672
 34
0.0
 50
90.0
100
AcDbRotatedDimension
  0
LINE
  5
C6
330
2
100
AcDbEntity
  8
0
100
AcDbLine
 10
163.7242952527303
 20
327.3273033859672
 30
0.0
 11
163.7242952527303
 21
247.3273033859663
 31
0.0
  0
LINE
  5
C7
330
2
100
AcDbEntity
  8
0
100
AcDbLine
 10
157.6242952527309
 20
327.3273033859672
 30
0.0
 11
157.6242952527309
 21
247.3273033859673
 31
0.0
  0
LINE
  5
C8
102
{ACAD_REACTORS
330
2AF
102
}
330
2
100
AcDbEntity
  8
0
100
AcDbLine
 10
157.6242952527309
 20
326.8273033859673
 30
0.0
 11
157.6242952527309
 21
247.3273033859673
 31
0.0
  0
LINE
  5
C9
102
{ACAD_REACTORS
330
ED
102
}
330
2
100
AcDbEntity
  8
CEN
 48
0.6
100
AcDbLine
 10
79.07814542305368
 20
247.3273033859673
 30
0.0
 11
62.50960292813124
 21
287.3273033859673
 31
0.0
  0
LINE
  5
CC
102
{ACAD_REACTORS
330
ED
102
}
330
2
100
AcDbEntity
  8
CEN
 48
0.6
100
AcDbLine
 10
62.50960292813124
 20
240.1551801775713
 30
0.0
 11
62.50960292813124
 21
334.4994265943642
 31
0.0
  0
INSERT
  5
CD
330
2
100
AcDbEntity
  8
0
100
AcDbBlockReference
  2
5
 10
62.4793512025044
 20
287.3273033859673
 30
0.0
  0
DIMENSION
  5
EB
102
{ACAD_XDICTIONARY
360
EC
102
}
102
{ACAD_REACTORS
330
ED
102
}
330
2
100
AcDbEntity
  8
0
100
AcDbDimension
  2
*D21
 10
62.50960292813124
 20
334.4994265943642
 30
0.0
 11
77.44726155065746
 21
216.0047739079859
 31
0.0
 70
   162
  3
STANDARD
100
AcDb2LineAngularDimension
 13
79.07814542305368
 23
247.3273033859673
 33
0.0
 14
62.50960292813124
 24
287.3273033859673
 34
0.0
 15
62.50960292813124
 25
240.1551801775704
 35
0.0
 16
72.02104651603227
 26
215.0807166352091
 36
0.0
1001
ACAD
1000
DSTYLE
1002
{
1070
   271
1070
     1
1070
   271
1070
     1
1070
   271
1070
     1
1070
   271
1070
     1
1070
   271
1070
     1
1070
   271
1070
     1
1002
}
  0
DIMENSION
  5
FC
102
{ACAD_XDICTIONARY
360
FD
102
}
102
{ACAD_REACTORS
330
FE
102
}
330
2
100
AcDbEntity
  8
0
100
AcDbDimension
  2
*D28
 10
321.3462111237895
 20
43.92280302462221
 30
0.0
 11
321.3462111237895
 21
83.81702217766587
 31
0.0
 70
   160
  1
%%C<>
  3
STANDARD
100
AcDbAlignedDimension
 13
299.1794797208367
 23
123.922803024624
 33
0.0
 14
299.1794797208367
 24
43.92280302462222
 34
0.0
 50
90.0
100
AcDbRotatedDimension
  0
LINE
  5
10B
330
2
100
AcDbEntity
  8
0
100
AcDbLine
 10
267.9597017579435
 20
123.4228030246235
 30
0.0
 11
267.9597017579435
 21
43.92280302462222
 31
0.0
  0
LINE
  5
10C
330
2
100
AcDbEntity
  8
0
100
AcDbLine
 10
304.1794797208367
 20
118.9228030246235
 30
0.0
 11
304.1794797208367
 21
48.92280302462222
 31
0.0
  0
CIRCLE
  5
10D
330
2
100
AcDbEntity
  8
0
100
AcDbCircle
 10
270.1075370262842
 20
83.92098362411434
 30
0.0
 40
2.147836038934201
  0
LINE
  5
10E
330
2
100
AcDbEntity
  8
0
100
AcDbLine
 10
270.9625600379913
 20
84.77600663582098
 30
0.0
 11
269.2561528106634
 21
83.0695994084931
 31
0.0
  0
LINE
  5
10F
330
2
100
AcDbEntity
  8
0
100
AcDbLine
 10
269.2525140145771
 20
84.77600663582098
 30
0.0
 11
270.9589212419087
 21
83.0695994084931
 31
0.0
  0
LINE
  5
110
330
2
100
AcDbEntity
  8
0
 48
0.6
100
AcDbLine
 10
-1.214975502757624
 20
118.9228030246235
 30
0.0
 11
-1.214975502757624
 21
48.92280302462359
 31
0.0
  0
DIMENSION
  5
111
102
{ACAD_XDICTIONARY
360
112
102
}
102
{ACAD_REACTORS
330
113
102
}
330
2
100
AcDbEntity
  8
0
100
AcDbDimension
  2
*D27
 10
107.5813964982289
 20
47.4228030246236
 30
0.0
 11
107.5813964982289
 21
83.92280302462358
 31
0.0
 70
   160
  1
\A1;{\f??|b0|i0|c0|p49;%%C73\H0.7x;\S+0^ -0.030;\H1.429x;(h7)}
  3
STANDARD
100
AcDbAlignedDimension
 13
172.1794797208349
 23
120.4228030246236
 33
0.0
 14
172.1794797208349
 24
47.42280302462359
 34
0.0
 50
90.0
100
AcDbRotatedDimension
  0
CIRCLE
  5
120
330
2
100
AcDbEntity
  8
0
 48
0.6
100
AcDbCircle
 10
38.78502449724328
 20
83.92280302462358
 30
0.0
 40
37.00000000000005
  0
CIRCLE
  5
121
330
2
100
AcDbEntity
  8
0
 48
0.6
100
AcDbCircle
 10
38.78502449724328
 20
83.92280302462358
 30
0.0
 40
38.5
  0
LINE
  5
122
330
2
100
AcDbEntity
  8
0
 48
0.6
100
AcDbLine
 10
78.78502449724237
 20
118.9228030246235
 30
0.0
 11
78.78502449724237
 21
48.92280302462359
 31
0.0
  0
LINE
  5
123
102
{ACAD_REACTORS
330
113
330
20F
102
}
330
2
100
AcDbEntity
  8
0
100
AcDbLine
 10
172.1794797208349
 20
120.4228030246236
 30
0.0
 11
172.1794797208349
 21
47.42280302462359
 31
0.0
  0
LINE
  5
124
330
2
100
AcDbEntity
  8
0
100
AcDbLine
 10
174.179479720834
 20
123.922803024624
 30
0.0
 11
174.179479720834
 21
43.92280302462359
 31
0.0
  0
LINE
  5
125
330
2
100
AcDbEntity
  8
0
100
AcDbLine
 10
180.2794797208361
 20
123.922803024624
 30
0.0
 11
180.2794797208361
 21
43.92280302462222
 31
0.0
  0
LINE
  5
126
102
{ACAD_REACTORS
330
1DA
102
}
330
2
100
AcDbEntity
  8
0
100
AcDbLine
 10
174.179479720834
 20
123.4228030246235
 30
0.0
 11
174.179479720834
 21
43.92280302462359
 31
0.0
  0
LINE
  5
127
102
{ACAD_REACTORS
330
14C
102
}
330
2
100
AcDbEntity
  8
CEN
 48
0.6
100
AcDbLine
 10
38.78502449724146
 20
36.75067981622669
 30
0.0
 11
38.78502449724146
 21
131.0949262330213
 31
0.0
  0
INSERT
  5
128
330
2
100
AcDbEntity
  8
0
100
AcDbBlockReference
  2
5
 10
38.79201953940264
 20
83.90591549896772
 30
0.0
  0
CIRCLE
  5
129
330
2
100
AcDbEntity
  8
0
 48
0.6
100
AcDbCircle
 10
38.78502449724328
 20
83.92280302462358
 30
0.0
 40
13.0
  0
ARC
  5
12A
330
2
100
AcDbEntity
  8
0
 48
0.6
100
AcDbCircle
 10
38.75225463376228
 20
83.92280302462358
 30
0.0
 40
29.09279999999998
100
AcDbArc
 50
162.2801918472015
 51
197.7198081527984
  0
ARC
  5
12B
330
2
100
AcDbEntity
  8
0
 48
0.6
100
AcDbCircle
 10
38.75225463376228
 20
83.92280302462358
 30
0.0
 40
29.09279999999998
100
AcDbArc
 50
342.2801918472014
 51
17.71980815279839
  0
CIRCLE
  5
12C
330
2
100
AcDbEntity
  8
0
 48
0.6
100
AcDbCircle
 10
38.79201953940264
 20
83.90591549896772
 30
0.0
 40
4.0
  0
DIMENSION
  5
12D
102
{ACAD_XDICTIONARY
360
12E
102
}
102
{ACAD_REACTORS
330
12F
102
}
330
2
100
AcDbEntity
  8
0
100
AcDbDimension
  2
*D26
 10
129.1895516818577
 20
86.92280302462359
 30
0.0
 11
129.1895516818576
 21
83.42280302462359
 31
0.0
 70
   160
  3
STANDARD
100
AcDbAlignedDimension
 13
142.179479720834
 23
79.92280302462359
 33
0.0
 14
142.179479720834
 24
86.92280302462359
 34
0.0
 50
90.0
100
AcDbRotatedDimension
  0
LINE
  5
13C
102
{ACAD_REACTORS
330
1FA
330
12F
102
}
330
2
100
AcDbEntity
  8
0
100
AcDbLine
 10
142.179479720834
 20
86.92280302462359
 30
0.0
 11
142.179479720834
 21
79.92280302462359
 31
0.0
  0
DIMENSION
  5
13D
330
2
100
AcDbEntity
  8
0
100
AcDbDimension
  2
*D25
 10
120.1526478253872
 20
79.92280302462359
 30
0.0
 11
120.1526478253872
 21
83.9228030246236
 31
0.0
 70
   160
  1
\A1;%%c<>{\H0.7x;\S+0^ -0.015;}(h7)
  3
STANDARD
100
AcDbAlignedDimension
 13
167.179479720834
 23
87.92280302462359
 33
0.0
 14
142.179479720834
 24
79.92280302462359
 34
0.0
 50
90.0
100
AcDbRotatedDimension
  0
DIMENSION
  5
14A
102
{ACAD_XDICTIONARY
360
14B
102
}
102
{ACAD_REACTORS
330
14C
102
}
330
2
100
AcDbEntity
  8
0
100
AcDbDimension
  2
*D24
 10
38.78502449724146
 20
131.0949262330213
 30
0.0
 11
53.72268311976952
 21
12.6002735466418
 31
0.0
 70
   162
  3
STANDARD
100
AcDb2LineAngularDimension
 13
55.353566992163
 23
43.92280302462359
 33
0.0
 14
38.78502449724328
 24
83.92280302462358
 34
0.0
 15
38.78502449724146
 25
36.75067981622623
 35
0.0
 16
48.29646808514183
 26
11.67621627386457
 36
0.0
1001
ACAD
1000
DSTYLE
1002
{
1070
   271
1070
     1
1070
   271
1070
     1
1070
   271
1070
     1
1070
   271
1070
     1
1070
   271
1070
     1
1070
   271
1070
     1
1002
}
  0
ARC
  5
15B
330
2
100
AcDbEntity
  8
0
 48
0.6
100
AcDbCircle
 10
38.75225463376228
 20
83.92280302462358
 30
0.0
 40
31.73759999999999
100
AcDbArc
 50
296.3656725032108
 51
333.6343274967831
  0
LINE
  5
15C
330
2
100
AcDbEntity
  8
0
 48
0.6
100
AcDbLine
 10
3.785024497243284
 20
43.92280302462359
 30
0.0
 11
73.78502449724146
 21
43.92280302462359
 31
0.0
  0
ARC
  5
15D
330
2
100
AcDbEntity
  8
0
100
AcDbCircle
 10
89.03013199177257
 20
58.23335567316281
 30
0.0
 40
33.95579199999999
100
AcDbArc
 50
204.9259499999998
 51
236.3981230000006
  0
ARC
  5
15E
330
2
100
AcDbEntity
  8
0
100
AcDbCircle
 10
89.03013199177257
 20
58.23335567316281
 30
0.0
 40
37.855792
100
AcDbArc
 50
202.2115912309427
 51
227.7470409999976
  0
ARC
  5
15F
330
2
100
AcDbEntity
  8
0
100
AcDbCircle
 10
89.03013199177257
 20
58.23335567316281
 30
0.0
 40
39.15579199999999
100
AcDbArc
 50
201.4369589999971
 51
235.2486590000054
  0
ARC
  5
160
330
2
100
AcDbEntity
  8
0
100
AcDbCircle
 10
89.03013199177257
 20
58.23335567316281
 30
0.0
 40
35.255792
100
AcDbArc
 50
203.947941
 51
227.7470409999976
  0
LINE
  5
161
330
2
100
AcDbEntity
  8
CEN
 48
0.6
100
AcDbLine
 10
-5.291965228354456
 20
83.92280302462358
 30
0.0
 11
82.86201422283557
 21
83.92280302462358
 31
0.0
  0
ARC
  5
162
330
2
100
AcDbEntity
  8
0
 48
0.6
100
AcDbCircle
 10
38.75225463376228
 20
83.92280302462358
 30
0.0
 40
31.73759999999999
100
AcDbArc
 50
206.3656725032168
 51
243.634327496789
  0
LINE
  5
163
102
{ACAD_REACTORS
330
14C
102
}
330
2
100
AcDbEntity
  8
CEN
 48
0.6
100
AcDbLine
 10
55.353566992163
 20
43.92280302462359
 30
0.0
 11
38.78502449724328
 21
83.92280302462358
 31
0.0
  0
ARC
  5
164
330
2
100
AcDbEntity
  8
0
 48
0.6
100
AcDbCircle
 10
51.672322123507
 20
57.85629447628707
 30
0.0
 40
2.644799999999999
100
AcDbArc
 50
231.948674480613
 51
296.3656725032108
  0
ARC
  5
165
330
2
100
AcDbEntity
  8
0
 48
0.6
100
AcDbCircle
 10
38.75225463376228
 20
83.92280302462358
 30
0.0
 40
29.09279999999998
100
AcDbArc
 50
252.2801918471949
 51
287.7198081528051
  0
ARC
  5
166
330
2
100
AcDbEntity
  8
0
 48
0.6
100
AcDbCircle
 10
29.09252270267825
 20
53.69095172868902
 30
0.0
 40
2.644799999999999
100
AcDbArc
 50
72.28019184719491
 51
128.0513255193868
  0
ARC
  5
167
330
2
100
AcDbEntity
  8
0
 48
0.6
100
AcDbCircle
 10
25.83218714401937
 20
57.85629447628707
 30
0.0
 40
2.644799999999999
100
AcDbArc
 50
243.634327496789
 51
308.0513255193868
  0
ARC
  5
168
330
2
100
AcDbEntity
  8
0
 48
0.6
100
AcDbCircle
 10
3.785024497243284
 20
48.92280302462359
 30
0.0
 40
5.0
100
AcDbArc
 50
180.0
 51
270.0
  0
ARC
  5
169
330
2
100
AcDbEntity
  8
0
 48
0.6
100
AcDbCircle
 10
48.41198656485085
 20
53.69095172868902
 30
0.0
 40
2.644799999999999
100
AcDbArc
 50
51.94867448061305
 51
107.719808152805
  0
LINE
  5
16A
330
2
100
AcDbEntity
  8
0
 48
0.6
100
AcDbLine
 10
58.23721246080822
 20
43.92280302462359
 30
0.0
 11
52.49616223428166
 21
43.92280302462359
 31
0.0
  0
ARC
  5
16B
330
2
100
AcDbEntity
  8
0
 48
0.6
100
AcDbCircle
 10
8.520403337832249
 20
74.26307109353411
 30
0.0
 40
2.644799999999999
100
AcDbArc
 50
321.9486744806221
 51
17.71980815279839
  0
ARC
  5
16C
330
2
100
AcDbEntity
  8
0
 48
0.6
100
AcDbCircle
 10
12.68574608542985
 20
71.00273553488023
 30
0.0
 40
2.644799999999999
100
AcDbArc
 50
141.9486744806222
 51
206.3656725032168
  0
MTEXT
  5
16D
330
2
100
AcDbEntity
  8
DIM
100
AcDbMText
 10
126.914489765686
 20
-5.689921773405785
 30
0.0
 40
3.5
 41
0.0
 71
     5
 72
     1
  1
MOTOR LEAD WIRE 300mm
1001
ACAD
1000
MTEXTBEGIN
1070
    73
1070
     1
1070
    44
1040
1.0
1070
    74
1070
     0
1000
MTEXTEND
  0
MTEXT
  5
16F
330
2
100
AcDbEntity
  8
DIM
100
AcDbMText
 10
127.3153336225377
 20
-14.87676513985479
 30
0.0
 40
3.5
 41
0.0
 71
     5
 72
     1
  1
UL Style 3271 , AWG20
1001
ACAD
1000
MTEXTBEGIN
1070
    73
1070
     1
1070
    44
1040
1.0
1070
    74
1070
     0
1000
MTEXTEND
  0
MTEXT
  5
170
330
2
100
AcDbEntity
  8
DIM
100
AcDbMText
 10
238.8705642954046
 20
-11.92664595537462
 30
0.0
 40
3.5
 41
0.0
 71
     5
 72
     1
  1
UL Style 3266 , AWG22
1001
ACAD
1000
MTEXTBEGIN
1070
    73
1070
     1
1070
    44
1040
1.0
1070
    74
1070
     0
1000
MTEXTEND
  0
MTEXT
  5
171
330
2
100
AcDbEntity
  8
DIM
100
AcDbMText
 10
237.7308269353761
 20
-4.014481301087016
 30
0.0
 40
3.5
 41
0.0
 71
     5
 72
     1
  1
BRAKE LEAD WIRE 300mm
1001
ACAD
1000
MTEXTBEGIN
1070
    73
1070
     1
1070
    44
1040
1.0
1070
    74
1070
     0
1000
MTEXTEND
  0
LINE
  5
172
330
2
100
AcDbEntity
  8
0
 62
   123
 48
0.6
100
AcDbLine
 10
202.7278017611715
 20
-7.444897710487111
 30
0.0
 11
275.5458615370971
 21
-7.444897710487111
 31
0.0
  0
LINE
  5
173
330
2
100
AcDbEntity
  8
0
 62
   123
100
AcDbLine
 10
172.6097364026709
 20
-9.774896567149426
 30
0.0
 11
89.55238910261687
 21
-9.774896567149426
 31
0.0
  0
LEADER
  5
174
330
2
100
AcDbEntity
  8
0
100
AcDbLeader
  3
STANDARD
 76
     2
 10
191.1353130948818
 20
24.99874040376607
 30
0.0
 10
172.6097364026709
 20
-9.774896567149426
 30
0.0
1001
ACAD
1000
DSTYLE
1002
{
1070
     5
1000

1070
    77
1070
     1
1070
   147
1040
1.0
1070
   342
1005
0
1002
}
  0
LEADER
  5
175
330
2
100
AcDbEntity
  8
0
 48
0.6
100
AcDbLeader
  3
STANDARD
 76
     2
 10
286.0391963002803
 20
23.80820078022225
 30
0.0
 10
275.5458615370971
 20
-7.444897710487111
 30
0.0
1001
ACAD
1000
DSTYLE
1002
{
1070
     5
1000

1070
    77
1070
     1
1070
   147
1040
1.0
1070
   342
1005
0
1002
}
  0
ARC
  5
176
330
2
100
AcDbEntity
  8
0
 48
0.6
100
AcDbCircle
 10
286.8747214456343
 20
42.92280302462404
 30
0.0
 40
0.5
100
AcDbArc
 50
270.0
 51
0.0
  0
LINE
  5
177
330
2
100
AcDbEntity
  8
0
 48
0.6
100
AcDbLine
 10
287.3747214456343
 20
43.42280302462405
 30
0.0
 11
287.3747214456343
 21
42.92280302462404
 31
0.0
  0
ARC
  5
178
330
2
100
AcDbEntity
  8
0
 48
0.6
100
AcDbCircle
 10
277.8747214456325
 20
42.92280302462404
 30
0.0
 40
0.5
100
AcDbArc
 50
180.0
 51
270.0
  0
LINE
  5
179
330
2
100
AcDbEntity
  8
0
 48
0.6
100
AcDbLine
 10
277.3747214456343
 20
43.42280302462405
 30
0.0
 11
277.3747214456343
 21
42.92280302462404
 31
0.0
  0
LINE
  5
17A
330
2
100
AcDbEntity
  8
0
 48
0.6
100
AcDbLine
 10
286.8747214456343
 20
42.42280302462404
 30
0.0
 11
277.8747214456325
 21
42.42280302462404
 31
0.0
  0
ARC
  5
17B
330
2
100
AcDbEntity
  8
0
 48
0.6
100
AcDbCircle
 10
317.0359461864645
 20
42.34617699387399
 30
0.0
 40
37.51427265423034
100
AcDbArc
 50
179.8829693302432
 51
213.4780580786824
  0
ARC
  5
17C
330
2
100
AcDbEntity
  8
0
 48
0.6
100
AcDbCircle
 10
317.099984655706
 20
42.347102843637
 30
0.0
 40
32.37830599241412
100
AcDbArc
 50
179.8660441688514
 51
214.7395979650275
  0
ARC
  5
17D
330
2
100
AcDbEntity
  8
0
 48
0.6
100
AcDbCircle
 10
317.093943755568
 20
42.34690894621098
 30
0.0
 40
34.97226717846828
100
AcDbArc
 50
179.8756610838514
 51
214.5983055095793
  0
ARC
  5
17E
330
2
100
AcDbEntity
  8
0
100
AcDbCircle
 10
220.3248899728787
 20
42.8429548183094
 30
0.0
 40
33.09846512244591
100
AcDbArc
 50
179.861777803627
 51
206.070816287308
  0
ARC
  5
17F
330
2
100
AcDbEntity
  8
0
100
AcDbCircle
 10
220.3216050447954
 20
42.84276663561604
 30
0.0
 40
35.69518126343886
100
AcDbArc
 50
179.8715315986486
 51
206.0128613674916
  0
ARC
  5
180
330
2
100
AcDbEntity
  8
0
100
AcDbCircle
 10
190.6794797208349
 20
43.42280302462358
 30
0.0
 40
0.5
100
AcDbArc
 50
270.0
 51
0.0
  0
LINE
  5
181
330
2
100
AcDbEntity
  8
0
100
AcDbLine
 10
191.1794797208349
 20
43.92280302462359
 30
0.0
 11
191.1794797208349
 21
43.42280302462358
 31
0.0
  0
ARC
  5
182
330
2
100
AcDbEntity
  8
0
100
AcDbCircle
 10
220.9047429309048
 20
42.84710284363518
 30
0.0
 40
32.37830599241412
100
AcDbArc
 50
179.8660441688514
 51
214.7395979650275
  0
ARC
  5
183
330
2
100
AcDbEntity
  8
0
100
AcDbCircle
 10
222.4822017208353
 20
43.33415702462343
 30
0.0
 40
36.555792
100
AcDbArc
 50
205.2470409999969
 51
213.8176429999978
  0
ARC
  5
184
330
2
100
AcDbEntity
  8
0
100
AcDbCircle
 10
222.4822017208353
 20
43.33415702462343
 30
0.0
 40
35.255792
100
AcDbArc
 50
213.8564239999994
 51
219.5987459999966
  0
ARC
  5
185
330
2
100
AcDbEntity
  8
0
100
AcDbCircle
 10
195.0541907208344
 20
20.15938702462335
 30
0.0
 40
0.7499080000000001
100
AcDbArc
 50
69.51298200000024
 51
189.6845099999992
  0
ARC
  5
186
330
2
100
AcDbEntity
  8
0
100
AcDbCircle
 10
193.5757487208347
 20
19.9070840246236
 30
0.0
 40
0.7499080000000001
100
AcDbArc
 50
249.5129820000002
 51
9.684509999999278
  0
ARC
  5
187
330
2
100
AcDbEntity
  8
0
100
AcDbCircle
 10
193.9535277208333
 20
23.72930202462384
 30
0.0
 40
0.7499080000000001
100
AcDbArc
 50
62.66289500000094
 51
182.8344229999968
  0
ARC
  5
188
330
2
100
AcDbEntity
  8
0
100
AcDbCircle
 10
189.8945337208351
 20
22.81880302462332
 30
0.0
 40
0.7499080000000001
100
AcDbArc
 50
242.6628950000009
 51
2.834422999996808
  0
ARC
  5
189
330
2
100
AcDbEntity
  8
0
100
AcDbCircle
 10
191.3925147208346
 20
22.8929690246241
 30
0.0
 40
0.7499080000000001
100
AcDbArc
 50
62.66289500000094
 51
182.8344229999968
  0
ARC
  5
18A
330
2
100
AcDbEntity
  8
0
100
AcDbCircle
 10
192.4555457208334
 20
23.65513602462351
 30
0.0
 40
0.7499080000000001
100
AcDbArc
 50
242.6628950000009
 51
2.834422999996808
  0
ARC
  5
18B
330
2
100
AcDbEntity
  8
0
100
AcDbCircle
 10
222.4822017208353
 20
43.33415702462343
 30
0.0
 40
37.855792
100
AcDbArc
 50
212.7486590000019
 51
219.5987459999966
  0
ARC
  5
18C
330
2
100
AcDbEntity
  8
0
100
AcDbCircle
 10
188.6709007208364
 20
27.80332502462352
 30
0.0
 40
0.7499080000000001
100
AcDbArc
 50
235.1612770000011
 51
355.3328050000017
  0
ARC
  5
18D
330
2
100
AcDbEntity
  8
0
100
AcDbCircle
 10
190.1657437208314
 20
27.68128802462342
 30
0.0
 40
0.7499080000000001
100
AcDbArc
 50
55.16127700000105
 51
175.3328050000016
  0
ARC
  5
18E
330
2
100
AcDbEntity
  8
0
 48
0.6
100
AcDbCircle
 10
286.0897754456345
 20
22.31880302462514
 30
0.0
 40
0.7499080000000001
100
AcDbArc
 50
242.6628950000009
 51
2.834422999996808
  0
ARC
  5
18F
330
2
100
AcDbEntity
  8
0
 48
0.6
100
AcDbCircle
 10
290.1487694456373
 20
23.22930202462385
 30
0.0
 40
0.7499080000000001
100
AcDbArc
 50
62.66289500000094
 51
182.8344229999968
  0
ARC
  5
190
330
2
100
AcDbEntity
  8
0
 48
0.6
100
AcDbCircle
 10
288.6507874456365
 20
23.15513602462533
 30
0.0
 40
0.7499080000000001
100
AcDbArc
 50
242.6628950000009
 51
2.834422999996808
  0
ARC
  5
191
330
2
100
AcDbEntity
  8
0
 48
0.6
100
AcDbCircle
 10
287.587756445635
 20
22.3929690246241
 30
0.0
 40
0.7499080000000001
100
AcDbArc
 50
62.66289500000094
 51
182.8344229999968
  0
ARC
  5
192
330
2
100
AcDbEntity
  8
0
100
AcDbCircle
 10
299.1794797208367
 20
48.92280302462222
 30
0.0
 40
5.0
100
AcDbArc
 50
270.0
 51
0.0
  0
ARC
  5
193
330
2
100
AcDbEntity
  8
0
 48
0.6
100
AcDbCircle
 10
73.78502449724146
 20
48.92280302462359
 30
0.0
 40
5.0
100
AcDbArc
 50
270.0
 51
0.0
  0
ARC
  5
194
330
2
100
AcDbEntity
  8
0
100
AcDbCircle
 10
65.16371099177376
 20
31.40501767316391
 30
0.0
 40
0.7499080000000001
100
AcDbArc
 50
77.66127699999917
 51
197.832805000001
  0
ARC
  5
195
330
2
100
AcDbEntity
  8
0
100
AcDbCircle
 10
89.03013199177257
 20
58.23335567316281
 30
0.0
 40
37.855792
100
AcDbArc
 50
235.2486590000054
 51
242.0987460000029
  0
ARC
  5
196
330
2
100
AcDbEntity
  8
0
100
AcDbCircle
 10
66.77393799177389
 20
26.80887967316266
 30
0.0
 40
0.7499080000000001
100
AcDbArc
 50
265.1628950000044
 51
25.33442299999946
  0
ARC
  5
197
330
2
100
AcDbEntity
  8
0
100
AcDbCircle
 10
72.55855499177141
 20
26.32641467316307
 30
0.0
 40
0.7499080000000001
100
AcDbArc
 50
92.01298199999559
 51
212.184510000001
  0
ARC
  5
198
330
2
100
AcDbEntity
  8
0
100
AcDbCircle
 10
71.28920399177241
 20
25.52754167316425
 30
0.0
 40
0.7499080000000001
100
AcDbArc
 50
272.0129819999954
 51
32.18451000000101
  0
ARC
  5
199
330
2
100
AcDbEntity
  8
0
100
AcDbCircle
 10
68.12951099177098
 20
27.45065267316386
 30
0.0
 40
0.7499080000000001
100
AcDbArc
 50
85.16289500000455
 51
205.3344229999993
  0
ARC
  5
19A
330
2
100
AcDbEntity
  8
0
100
AcDbCircle
 10
89.03013199177257
 20
58.23335567316281
 30
0.0
 40
36.555792
100
AcDbArc
 50
227.7470409999976
 51
236.3176429999981
  0
ARC
  5
19B
330
2
100
AcDbEntity
  8
0
100
AcDbCircle
 10
63.73595499177099
 20
30.94571367316393
 30
0.0
 40
0.7499080000000001
100
AcDbArc
 50
257.6612769999992
 51
17.83280500000109
  0
ARC
  5
19C
330
2
100
AcDbEntity
  8
0
100
AcDbCircle
 10
89.03013199177257
 20
58.23335567316281
 30
0.0
 40
35.255792
100
AcDbArc
 50
236.3564240000014
 51
242.0987460000029
  0
ARC
  5
19D
330
2
100
AcDbEntity
  8
0
100
AcDbCircle
 10
68.81995499177356
 20
28.56160767316396
 30
0.0
 40
0.7499080000000001
100
AcDbArc
 50
265.1628950000044
 51
25.33442299999946
  0
ARC
  5
19E
330
2
100
AcDbEntity
  8
0
100
AcDbCircle
 10
70.17552699177122
 20
29.20337967316299
 30
0.0
 40
0.7499080000000001
100
AcDbArc
 50
85.16289500000455
 51
205.3344229999993
  0
LINE
  5
19F
330
2
100
AcDbEntity
  8
0
100
AcDbLine
 10
174.179479720834
 20
47.42280302462359
 30
0.0
 11
172.1794797208349
 21
47.42280302462359
 31
0.0
  0
ARC
  5
1A0
330
2
100
AcDbEntity
  8
0
100
AcDbCircle
 10
181.679479720834
 20
43.42280302462358
 30
0.0
 40
0.5
100
AcDbArc
 50
180.0
 51
270.0
  0
LINE
  5
1A1
330
2
100
AcDbEntity
  8
0
100
AcDbLine
 10
181.179479720834
 20
43.92280302462359
 30
0.0
 11
181.179479720834
 21
43.42280302462358
 31
0.0
  0
LINE
  5
1A2
330
2
100
AcDbEntity
  8
0
100
AcDbLine
 10
174.179479720834
 20
43.92280302462359
 30
0.0
 11
180.2794797208361
 21
43.92280302462222
 31
0.0
  0
LINE
  5
1A3
330
2
100
AcDbEntity
  8
0
100
AcDbLine
 10
181.179479720834
 20
53.02406568309379
 30
0.0
 11
181.179479720834
 21
45.32406568309397
 31
0.0
  0
LINE
  5
1A4
330
2
100
AcDbEntity
  8
0
100
AcDbLine
 10
180.2794797208361
 20
45.32406568309397
 30
0.0
 11
181.179479720834
 21
45.32406568309397
 31
0.0
  0
LINE
  5
1A5
330
2
100
AcDbEntity
  8
0
100
AcDbLine
 10
180.2794797208361
 20
53.02406568309379
 30
0.0
 11
181.179479720834
 21
53.02406568309379
 31
0.0
  0
ARC
  5
1A6
330
2
100
AcDbEntity
  8
0
 48
0.6
100
AcDbCircle
 10
68.98410592970231
 20
74.26307109353411
 30
0.0
 40
2.644799999999999
100
AcDbArc
 50
162.2801918472015
 51
218.0513255193776
  0
ARC
  5
1A7
330
2
100
AcDbEntity
  8
0
 48
0.6
100
AcDbCircle
 10
64.81876318210197
 20
71.00273553488023
 30
0.0
 40
2.644799999999999
100
AcDbArc
 50
333.6343274967831
 51
38.05132551937779
  0
LINE
  5
1A8
102
{ACAD_REACTORS
330
12F
102
}
330
2
100
AcDbEntity
  8
CL
  6
BYBLOCK
 62
     0
100
AcDbLine
 10
172.1794797208349
 20
79.92280302462359
 30
0.0
 11
142.179479720834
 21
79.92280302462359
 31
0.0
  0
LINE
  5
1AB
102
{ACAD_REACTORS
330
FE
102
}
330
2
100
AcDbEntity
  8
0
100
AcDbLine
 10
299.1794797208367
 20
43.92280302462222
 30
0.0
 11
180.2794797208361
 21
43.92280302462222
 31
0.0
  0
LINE
  5
1AC
330
2
100
AcDbEntity
  8
0
100
AcDbLine
 10
190.6794797208349
 20
42.92280302462359
 30
0.0
 11
181.679479720834
 21
42.92280302462359
 31
0.0
  0
ARC
  5
1AD
330
2
100
AcDbEntity
  8
0
100
AcDbCircle
 10
220.8407044616651
 20
42.84617699387218
 30
0.0
 40
37.51427265423034
100
AcDbArc
 50
179.8829693302432
 51
213.4780580786824
  0
LINE
  5
1AE
330
2
100
AcDbEntity
  8
CEN
 48
0.6
100
AcDbLine
 10
135.6442351816804
 20
83.92280302462358
 30
0.0
 11
314.1689420595976
 21
83.92280302462358
 31
0.0
  0
DIMENSION
  5
1AF
102
{ACAD_XDICTIONARY
360
1B0
102
}
102
{ACAD_REACTORS
330
1B1
102
}
330
2
100
AcDbEntity
  8
0
100
AcDbDimension
  2
*D29
 10
78.78502449724329
 20
138.3827225455602
 30
0.0
 11
40.57814117360885
 21
138.3827225455602
 31
0.0
 70
   160
  3
STANDARD
100
AcDbAlignedDimension
 13
-1.214975502756715
 23
118.9228030246235
 33
0.0
 14
78.78502449724329
 24
118.9228030246235
 34
0.0
100
AcDbRotatedDimension
  0
ARC
  5
1BE
330
2
100
AcDbEntity
  8
0
 48
0.6
100
AcDbCircle
 10
38.75225463376228
 20
83.92280302462358
 30
0.0
 40
31.73759999999999
100
AcDbArc
 50
26.36567250321681
 51
63.63432749678904
  0
LINE
  5
1BF
330
2
100
AcDbEntity
  8
0
 48
0.6
100
AcDbLine
 10
3.785024497243284
 20
123.922803024624
 30
0.0
 11
73.78502449724146
 21
123.922803024624
 31
0.0
  0
LEADER
  5
1C0
330
2
100
AcDbEntity
  8
0
100
AcDbLeader
  3
STANDARD
 73
     0
 75
     1
 40
3.0
 41
26.65178571428571
 76
     3
 10
72.01904321301026
 20
119.906821740391
 30
0.0
 10
62.47247092693124
 20
148.681639731084
 30
0.0
 10
59.97247092693124
 20
148.681639731084
 30
0.0
340
1C1
1001
ACAD
1000
DSTYLE
1002
{
1070
     5
1000

1070
    77
1070
     1
1070
   147
1040
1.0
1070
   342
1005
0
1002
}
  0
MTEXT
  5
1C1
102
{ACAD_REACTORS
330
1C0
102
}
330
2
100
AcDbEntity
  8
0
 62
     3
100
AcDbMText
 10
58.97247092693124
 20
149.681639731084
 30
0.0
 40
3.0
 41
0.0
 71
     9
 72
     1
  1
4-%%C5.5 hole
1001
ACAD
1000
MTEXTBEGIN
1070
    73
1070
     1
1070
    44
1040
1.0
1070
    74
1070
     0
1000
MTEXTEND
  0
LINE
  5
1C2
330
2
100
AcDbEntity
  8
0
 48
0.6
100
AcDbLine
 10
27.50960292813306
 20
247.3273033859673
 30
0.0
 11
97.50960292813125
 21
247.3273033859673
 31
0.0
  0
ARC
  5
1C3
330
2
100
AcDbEntity
  8
0
 48
0.6
100
AcDbCircle
 10
62.47683306465297
 20
287.3273033859673
 30
0.0
 40
29.09279999999998
100
AcDbArc
 50
252.2801918471949
 51
287.7198081528051
  0
ARC
  5
1C4
330
2
100
AcDbEntity
  8
0
 48
0.6
100
AcDbCircle
 10
38.75225463376228
 20
83.92280302462358
 30
0.0
 40
29.09279999999998
100
AcDbArc
 50
72.28019184719491
 51
107.719808152805
  0
ARC
  5
1C5
330
2
100
AcDbEntity
  8
0
 48
0.6
100
AcDbCircle
 10
29.09252270267825
 20
114.1546543205577
 30
0.0
 40
2.644799999999999
100
AcDbArc
 50
231.948674480613
 51
287.7198081528051
  0
ARC
  5
1C6
330
2
100
AcDbEntity
  8
0
 48
0.6
100
AcDbCircle
 10
25.83218714401937
 20
109.9893115729591
 30
0.0
 40
2.644799999999999
100
AcDbArc
 50
51.94867448061305
 51
116.3656725032109
  0
ARC
  5
1C7
102
{ACAD_REACTORS
330
1B1
102
}
330
2
100
AcDbEntity
  8
0
 48
0.6
100
AcDbCircle
 10
3.785024497243284
 20
118.9228030246235
 30
0.0
 40
5.0
100
AcDbArc
 50
90.0
 51
180.0
  0
ARC
  5
1C8
330
2
100
AcDbEntity
  8
0
 48
0.6
100
AcDbCircle
 10
8.520403337832249
 20
93.58253495571217
 30
0.0
 40
2.644799999999999
100
AcDbArc
 50
342.2801918472014
 51
38.05132551937779
  0
ARC
  5
1C9
330
2
100
AcDbEntity
  8
0
 48
0.6
100
AcDbCircle
 10
12.68574608542985
 20
96.84287051436696
 30
0.0
 40
2.644799999999999
100
AcDbArc
 50
153.634327496783
 51
218.0513255193776
  0
ARC
  5
1CA
330
2
100
AcDbEntity
  8
0
 48
0.6
100
AcDbCircle
 10
38.75225463376228
 20
83.92280302462358
 30
0.0
 40
31.73759999999999
100
AcDbArc
 50
116.3656725032109
 51
153.634327496783
  0
ARC
  5
1CB
330
2
100
AcDbEntity
  8
0
 48
0.6
100
AcDbCircle
 10
48.41198656485085
 20
114.1546543205577
 30
0.0
 40
2.644799999999999
100
AcDbArc
 50
252.2801918471949
 51
308.0513255193868
  0
ARC
  5
1CC
330
2
100
AcDbEntity
  8
0
 48
0.6
100
AcDbCircle
 10
51.672322123507
 20
109.9893115729591
 30
0.0
 40
2.644799999999999
100
AcDbArc
 50
63.63432749678904
 51
128.0513255193868
  0
LWPOLYLINE
  5
1CD
330
2
100
AcDbEntity
  8
3
100
AcDbPolyline
 90
        4
 70
     1
 43
0.0
 10
32.87125000584819
 20
139.6601721063079
 10
36.17125000584929
 20
139.6601721063079
 10
36.17125000584929
 20
143.1601721063075
 10
32.87125000584819
 20
143.1601721063075
  0
LINE
  5
1CF
330
2
100
AcDbEntity
  8
0
100
AcDbLine
 10
41.41849810538042
 20
86.92280302462359
 30
0.0
 11
36.16554097342486
 21
86.92280302462359
 31
0.0
  0
ARC
  5
1D0
330
2
100
AcDbEntity
  8
0
 48
0.6
100
AcDbCircle
 10
27.50960292813306
 20
252.3273033859672
 30
0.0
 40
5.0
100
AcDbArc
 50
180.0
 51
270.0
  0
ARC
  5
1D1
330
2
100
AcDbEntity
  8
0
 48
0.6
100
AcDbCircle
 10
49.55676557491097
 20
261.2607948376312
 30
0.0
 40
2.644799999999999
100
AcDbArc
 50
243.634327496789
 51
308.0513255193868
  0
ARC
  5
1D2
330
2
100
AcDbEntity
  8
0
 48
0.6
100
AcDbCircle
 10
52.81710113356803
 20
257.0954520900322
 30
0.0
 40
2.644799999999999
100
AcDbArc
 50
72.28019184719491
 51
128.0513255193868
  0
MTEXT
  5
1D3
330
2
100
AcDbEntity
  8
DIM
100
AcDbMText
 10
108.4415801134873
 20
192.7109145166919
 30
0.0
 40
3.5
 41
0.0
 71
     5
 72
     1
  1
UL Style 3271 , AWG20
1001
ACAD
1000
MTEXTBEGIN
1070
    73
1070
     1
1070
    44
1040
1.0
1070
    74
1070
     0
1000
MTEXTEND
  0
ARC
  5
1D4
330
2
100
AcDbEntity
  8
0
100
AcDbCircle
 10
299.1794797208367
 20
118.9228030246235
 30
0.0
 40
5.0
100
AcDbArc
 50
0.0
 51
90.00000000000019
  0
ARC
  5
1D5
102
{ACAD_REACTORS
330
1B1
102
}
330
2
100
AcDbEntity
  8
0
 48
0.6
100
AcDbCircle
 10
73.78502449724146
 20
118.9228030246235
 30
0.0
 40
5.0
100
AcDbArc
 50
0.0
 51
90.0
  0
ARC
  5
1D6
330
2
100
AcDbEntity
  8
0
 48
0.6
100
AcDbCircle
 10
68.98410592970231
 20
93.58253495571217
 30
0.0
 40
2.644799999999999
100
AcDbArc
 50
141.9486744806222
 51
197.7198081527984
  0
ARC
  5
1D7
330
2
100
AcDbEntity
  8
0
 48
0.6
100
AcDbCircle
 10
64.81876318210197
 20
96.84287051436696
 30
0.0
 40
2.644799999999999
100
AcDbArc
 50
321.9486744806221
 51
26.36567250321681
  0
DIMENSION
  5
1D8
102
{ACAD_XDICTIONARY
360
1D9
102
}
102
{ACAD_REACTORS
330
1DA
102
}
330
2
100
AcDbEntity
  8
0
100
AcDbDimension
  2
*D34
 10
181.179479720834
 20
136.8969009935858
 30
0.0
 11
177.6794797208349
 21
136.8969009935858
 31
0.0
 70
   160
  3
STANDARD
100
AcDbAlignedDimension
 13
174.179479720834
 23
123.4228030246235
 33
0.0
 14
181.179479720834
 24
122.5215403661523
 34
0.0
100
AcDbRotatedDimension
  0
DIMENSION
  5
1E7
102
{ACAD_XDICTIONARY
360
1E8
102
}
102
{ACAD_REACTORS
330
1E9
102
}
330
2
100
AcDbEntity
  8
0
100
AcDbDimension
  2
*D33
 10
174.179479720834
 20
149.5752169311967
 30
0.0
 11
158.1794797208358
 21
149.5752169311967
 31
0.0
 70
   160
  3
STANDARD
100
AcDbAlignedDimension
 13
142.179479720834
 23
86.92280302462359
 33
0.0
 14
174.179479720834
 24
124.4228030246235
 34
0.0
100
AcDbRotatedDimension
  0
LINE
  5
1F6
330
2
100
AcDbEntity
  8
0
100
AcDbLine
 10
174.179479720834
 20
120.4228030246236
 30
0.0
 11
172.1794797208349
 21
120.4228030246236
 31
0.0
  0
LINE
  5
1F7
102
{ACAD_REACTORS
330
1FA
102
}
330
2
100
AcDbEntity
  8
CL
  6
BYBLOCK
 62
     0
100
AcDbLine
 10
172.1794797208349
 20
87.92280302462359
 30
0.0
 11
167.179479720834
 21
87.92280302462359
 31
0.0
  0
DIMENSION
  5
1F8
102
{ACAD_XDICTIONARY
360
1F9
102
}
102
{ACAD_REACTORS
330
1FA
102
}
330
2
100
AcDbEntity
  8
0
100
AcDbDimension
  2
*D32
 10
167.179479720834
 20
101.951189098509
 30
0.0
 11
154.6794797208321
 21
101.951189098509
 31
0.0
 70
   160
  3
STANDARD
100
AcDbAlignedDimension
 13
142.179479720834
 23
86.92280302462359
 33
0.0
 14
167.179479720834
 24
87.92280302462359
 34
0.0
100
AcDbRotatedDimension
  0
LINE
  5
207
330
2
100
AcDbEntity
  8
0
100
AcDbLine
 10
167.179479720834
 20
87.92280302462359
 30
0.0
 11
167.179479720834
 21
86.92280302462359
 31
0.0
  0
LINE
  5
208
102
{ACAD_REACTORS
330
1E9
102
}
330
2
100
AcDbEntity
  8
CL
  6
BYBLOCK
 62
     0
100
AcDbLine
 10
167.179479720834
 20
86.92280302462359
 30
0.0
 11
142.179479720834
 21
86.92280302462359
 31
0.0
  0
LINE
  5
209
330
2
100
AcDbEntity
  8
0
100
AcDbLine
 10
174.179479720834
 20
123.922803024624
 30
0.0
 11
180.2794797208361
 21
123.922803024624
 31
0.0
  0
LINE
  5
20A
330
2
100
AcDbEntity
  8
0
100
AcDbLine
 10
180.2794797208361
 20
122.5215403661523
 30
0.0
 11
181.179479720834
 21
122.5215403661523
 31
0.0
  0
LINE
  5
20B
330
2
100
AcDbEntity
  8
0
100
AcDbLine
 10
180.2794797208361
 20
114.8215403661529
 30
0.0
 11
181.179479720834
 21
114.8215403661529
 31
0.0
  0
LINE
  5
20C
102
{ACAD_REACTORS
330
1DA
102
}
330
2
100
AcDbEntity
  8
0
100
AcDbLine
 10
181.179479720834
 20
114.8215403661529
 30
0.0
 11
181.179479720834
 21
122.5215403661523
 31
0.0
  0
DIMENSION
  5
20D
102
{ACAD_XDICTIONARY
360
20E
102
}
102
{ACAD_REACTORS
330
20F
102
}
330
2
100
AcDbEntity
  8
0
100
AcDbDimension
  2
*D31
 10
174.179479720834
 20
136.8969009935858
 30
0.0
 11
165.179479720834
 21
136.8969009935858
 31
0.0
 70
   160
  3
STANDARD
100
AcDbAlignedDimension
 13
172.1794797208349
 23
120.4228030246236
 33
0.0
 14
174.179479720834
 24
125.422803024624
 34
0.0
100
AcDbRotatedDimension
  0
DIMENSION
  5
21E
330
2
100
AcDbEntity
  8
0
100
AcDbDimension
  2
*D30
 10
304.1794797208367
 20
149.5752169311967
 30
0.0
 11
239.1794797208349
 21
149.5752169311967
 31
0.0
 70
   160
  3
STANDARD
100
AcDbAlignedDimension
 13
174.179479720834
 23
123.922803024624
 33
0.0
 14
304.1794797208367
 24
119.9228030246235
 34
0.0
100
AcDbRotatedDimension
  0
LINE
  5
22B
102
{ACAD_REACTORS
330
FE
102
}
330
2
100
AcDbEntity
  8
0
100
AcDbLine
 10
299.1794797208367
 20
123.922803024624
 30
0.0
 11
180.2794797208361
 21
123.922803024624
 31
0.0
  0
ARC
  5
22C
330
2
100
AcDbEntity
  8
0
 48
0.6
100
AcDbCircle
 10
270.3195369775312
 20
246.3273033859682
 30
0.0
 40
0.5
100
AcDbArc
 50
270.0
 51
0.0
  0
LINE
  5
22D
330
2
100
AcDbEntity
  8
0
 48
0.6
100
AcDbLine
 10
270.8195369775312
 20
246.8273033859682
 30
0.0
 11
270.8195369775312
 21
246.3273033859682
 31
0.0
  0
ARC
  5
22E
330
2
100
AcDbEntity
  8
0
100
AcDbCircle
 10
282.62429525273
 20
252.3273033859664
 30
0.0
 40
5.0
100
AcDbArc
 50
270.0
 51
0.0
  0
ARC
  5
22F
330
2
100
AcDbEntity
  8
0
 48
0.6
100
AcDbCircle
 10
271.0325719775318
 20
225.7974693859678
 30
0.0
 40
0.7499080000000001
100
AcDbArc
 50
62.66289500000094
 51
182.8344229999968
  0
ARC
  5
230
330
2
100
AcDbEntity
  8
0
 48
0.6
100
AcDbCircle
 10
272.0956029775334
 20
226.559636385969
 30
0.0
 40
0.7499080000000001
100
AcDbArc
 50
242.6628950000009
 51
2.834422999996808
  0
ARC
  5
231
330
2
100
AcDbEntity
  8
0
 48
0.6
100
AcDbCircle
 10
273.5935849775323
 20
226.633802385968
 30
0.0
 40
0.7499080000000001
100
AcDbArc
 50
62.66289500000094
 51
182.8344229999968
  0
ARC
  5
232
330
2
100
AcDbEntity
  8
0
 48
0.6
100
AcDbCircle
 10
269.5345909775314
 20
225.7233033859679
 30
0.0
 40
0.7499080000000001
100
AcDbArc
 50
242.6628950000009
 51
2.834422999996808
  0
ARC
  5
233
330
2
100
AcDbEntity
  8
0
 48
0.6
100
AcDbCircle
 10
261.3195369775312
 20
246.3273033859682
 30
0.0
 40
0.5
100
AcDbArc
 50
180.0
 51
270.0
  0
LINE
  5
234
330
2
100
AcDbEntity
  8
0
 48
0.6
100
AcDbLine
 10
260.8195369775312
 20
246.8273033859682
 30
0.0
 11
260.8195369775312
 21
246.3273033859682
 31
0.0
  0
LINE
  5
235
330
2
100
AcDbEntity
  8
0
 48
0.6
100
AcDbLine
 10
270.3195369775312
 20
245.8273033859682
 30
0.0
 11
261.3195369775312
 21
245.8273033859682
 31
0.0
  0
ARC
  5
236
330
2
100
AcDbEntity
  8
0
 48
0.6
100
AcDbCircle
 10
300.4807617183596
 20
245.7506773552176
 30
0.0
 40
37.51427265423034
100
AcDbArc
 50
179.8829693302432
 51
213.4780580786824
  0
ARC
  5
237
330
2
100
AcDbEntity
  8
0
 48
0.6
100
AcDbCircle
 10
300.5448001876011
 20
245.7516032049811
 30
0.0
 40
32.37830599241412
100
AcDbArc
 50
179.8660441688514
 51
214.7395979650275
  0
ARC
  5
238
330
2
100
AcDbEntity
  8
0
 48
0.6
100
AcDbCircle
 10
300.5387592874612
 20
245.7514093075542
 30
0.0
 40
34.97226717846828
100
AcDbArc
 50
179.8756610838514
 51
214.5983055095793
  0
LEADER
  5
239
330
2
100
AcDbEntity
  8
0
 48
0.6
100
AcDbLeader
  3
STANDARD
 76
     2
 10
267.1654427912308
 20
231.395880436768
 30
0.0
 10
256.6721080280458
 20
200.14278194606
 30
0.0
1001
ACAD
1000
DSTYLE
1002
{
1070
     5
1000

1070
    77
1070
     1
1070
   147
1040
1.0
1070
   342
1005
0
1002
}
  0
LINE
  5
23A
330
2
100
AcDbEntity
  8
0
 48
0.6
100
AcDbLine
 10
81.96179089169527
 20
247.3273033859673
 30
0.0
 11
76.22074066517052
 21
247.3273033859673
 31
0.0
  0
ARC
  5
23B
330
2
100
AcDbEntity
  8
0
 48
0.6
100
AcDbCircle
 10
97.50960292813125
 20
252.3273033859672
 30
0.0
 40
5.0
100
AcDbArc
 50
270.0
 51
0.0
  0
ARC
  5
23C
330
2
100
AcDbEntity
  8
0
 48
0.6
100
AcDbCircle
 10
72.13656499574245
 20
257.0954520900322
 30
0.0
 40
2.644799999999999
100
AcDbArc
 50
51.94867448061305
 51
107.719808152805
  0
ARC
  5
23D
330
2
100
AcDbEntity
  8
0
 48
0.6
100
AcDbCircle
 10
75.39690055439677
 20
261.2607948376312
 30
0.0
 40
2.644799999999999
100
AcDbArc
 50
231.948674480613
 51
296.3656725032108
  0
LINE
  5
23E
330
2
100
AcDbEntity
  8
0
100
AcDbLine
 10
157.6242952527309
 20
247.3273033859673
 30
0.0
 11
163.7242952527303
 21
247.3273033859663
 31
0.0
  0
LINE
  5
23F
330
2
100
AcDbEntity
  8
0
100
AcDbLine
 10
157.6242952527309
 20
250.8273033859672
 30
0.0
 11
155.624295252729
 21
250.8273033859672
 31
0.0
  0
ARC
  5
240
330
2
100
AcDbEntity
  8
0
100
AcDbCircle
 10
174.1242952527309
 20
246.8273033859673
 30
0.0
 40
0.5
100
AcDbArc
 50
270.0
 51
0.0
  0
LINE
  5
241
330
2
100
AcDbEntity
  8
0
100
AcDbLine
 10
174.6242952527291
 20
247.3273033859673
 30
0.0
 11
174.6242952527291
 21
246.8273033859673
 31
0.0
  0
ARC
  5
242
330
2
100
AcDbEntity
  8
0
100
AcDbCircle
 10
173.6105592527283
 20
231.0857883859676
 30
0.0
 40
0.7499080000000001
100
AcDbArc
 50
55.16127700000105
 51
175.3328050000016
  0
ARC
  5
243
330
2
100
AcDbEntity
  8
0
100
AcDbCircle
 10
172.1157162527306
 20
231.2078253859663
 30
0.0
 40
0.7499080000000001
100
AcDbArc
 50
235.1612770000011
 51
355.3328050000017
  0
ARC
  5
244
330
2
100
AcDbEntity
  8
0
100
AcDbCircle
 10
203.7697055047738
 20
246.2474551796522
 30
0.0
 40
33.09846512244591
100
AcDbArc
 50
179.861777803627
 51
206.070816287308
  0
ARC
  5
245
330
2
100
AcDbEntity
  8
0
100
AcDbCircle
 10
205.9270172527303
 20
246.7386573859676
 30
0.0
 40
37.855792
100
AcDbArc
 50
212.7486590000019
 51
219.5987459999966
  0
ARC
  5
246
330
2
100
AcDbEntity
  8
0
100
AcDbCircle
 10
175.9003612527303
 20
227.0596363859672
 30
0.0
 40
0.7499080000000001
100
AcDbArc
 50
242.6628950000009
 51
2.834422999996808
  0
ARC
  5
247
330
2
100
AcDbEntity
  8
0
100
AcDbCircle
 10
174.8373302527316
 20
226.2974693859673
 30
0.0
 40
0.7499080000000001
100
AcDbArc
 50
62.66289500000094
 51
182.8344229999968
  0
ARC
  5
248
330
2
100
AcDbEntity
  8
0
100
AcDbCircle
 10
173.3393492527293
 20
226.2233033859674
 30
0.0
 40
0.7499080000000001
100
AcDbArc
 50
242.6628950000009
 51
2.834422999996808
  0
ARC
  5
249
330
2
100
AcDbEntity
  8
0
100
AcDbCircle
 10
177.3983432527284
 20
227.1338023859675
 30
0.0
 40
0.7499080000000001
100
AcDbArc
 50
62.66289500000094
 51
182.8344229999968
  0
ARC
  5
24A
330
2
100
AcDbEntity
  8
0
100
AcDbCircle
 10
177.0205642527316
 20
223.3115843859672
 30
0.0
 40
0.7499080000000001
100
AcDbArc
 50
249.5129820000002
 51
9.684509999999278
  0
ARC
  5
24B
330
2
100
AcDbEntity
  8
0
100
AcDbCircle
 10
178.4990062527294
 20
223.5638873859675
 30
0.0
 40
0.7499080000000001
100
AcDbArc
 50
69.51298200000024
 51
189.6845099999992
  0
ARC
  5
24C
330
2
100
AcDbEntity
  8
0
100
AcDbCircle
 10
205.9270172527303
 20
246.7386573859676
 30
0.0
 40
35.255792
100
AcDbArc
 50
213.8564239999994
 51
219.5987459999966
  0
LINE
  5
24D
330
2
100
AcDbEntity
  8
0
 62
   123
100
AcDbLine
 10
153.7359828936205
 20
197.8127830893968
 30
0.0
 11
70.67863559356829
 21
197.8127830893968
 31
0.0
  0
ARC
  5
24E
330
2
100
AcDbEntity
  8
0
100
AcDbCircle
 10
204.3495584628017
 20
246.2516032049793
 30
0.0
 40
32.37830599241412
100
AcDbArc
 50
179.8660441688514
 51
214.7395979650275
  0
ARC
  5
24F
330
2
100
AcDbEntity
  8
0
100
AcDbCircle
 10
205.9270172527303
 20
246.7386573859676
 30
0.0
 40
36.555792
100
AcDbArc
 50
205.2470409999969
 51
213.8176429999978
  0
LINE
  5
250
330
2
100
AcDbEntity
  8
0
100
AcDbLine
 10
163.7242952527303
 20
256.4285660444379
 30
0.0
 11
164.624295252729
 21
256.4285660444379
 31
0.0
  0
ARC
  5
251
330
2
100
AcDbEntity
  8
0
100
AcDbCircle
 10
165.1242952527309
 20
246.8273033859673
 30
0.0
 40
0.5
100
AcDbArc
 50
180.0
 51
270.0
  0
LINE
  5
252
330
2
100
AcDbEntity
  8
0
100
AcDbLine
 10
164.624295252729
 20
247.3273033859673
 30
0.0
 11
164.624295252729
 21
246.8273033859673
 31
0.0
  0
LINE
  5
253
330
2
100
AcDbEntity
  8
0
100
AcDbLine
 10
163.7242952527303
 20
248.7285660444376
 30
0.0
 11
164.624295252729
 21
248.7285660444376
 31
0.0
  0
LINE
  5
254
330
2
100
AcDbEntity
  8
0
100
AcDbLine
 10
164.624295252729
 20
256.4285660444379
 30
0.0
 11
164.624295252729
 21
248.7285660444376
 31
0.0
  0
LINE
  5
255
330
2
100
AcDbEntity
  8
0
100
AcDbLine
 10
174.1242952527309
 20
246.3273033859672
 30
0.0
 11
165.1242952527309
 21
246.3273033859672
 31
0.0
  0
ARC
  5
256
330
2
100
AcDbEntity
  8
0
100
AcDbCircle
 10
204.2855199935602
 20
246.2506773552159
 30
0.0
 40
37.51427265423034
100
AcDbArc
 50
179.8829693302432
 51
213.4780580786824
  0
ARC
  5
257
330
2
100
AcDbEntity
  8
0
100
AcDbCircle
 10
203.7664205766932
 20
246.2472669969597
 30
0.0
 40
35.69518126343886
100
AcDbArc
 50
179.8715315986486
 51
206.0128613674916
  0
ARC
  5
258
330
2
100
AcDbEntity
  8
0
100
AcDbCircle
 10
112.7547104226623
 20
261.6378560345069
 30
0.0
 40
33.95579199999999
100
AcDbArc
 50
204.9259499999998
 51
236.3981230000006
  0
ARC
  5
259
330
2
100
AcDbEntity
  8
0
100
AcDbCircle
 10
112.7547104226623
 20
261.6378560345069
 30
0.0
 40
37.855792
100
AcDbArc
 50
202.2115912309427
 51
227.7470409999976
  0
ARC
  5
25A
330
2
100
AcDbEntity
  8
0
100
AcDbCircle
 10
88.88828942266082
 20
234.8095180345067
 30
0.0
 40
0.7499080000000001
100
AcDbArc
 50
77.66127699999917
 51
197.832805000001
  0
ARC
  5
25B
330
2
100
AcDbEntity
  8
0
100
AcDbCircle
 10
112.7547104226623
 20
261.6378560345069
 30
0.0
 40
39.15579199999999
100
AcDbArc
 50
201.4369589999971
 51
235.2486590000054
  0
ARC
  5
25C
330
2
100
AcDbEntity
  8
0
100
AcDbCircle
 10
112.7547104226623
 20
261.6378560345069
 30
0.0
 40
37.855792
100
AcDbArc
 50
235.2486590000054
 51
242.0987460000029
  0
ARC
  5
25D
330
2
100
AcDbEntity
  8
0
100
AcDbCircle
 10
90.49851642266366
 20
230.2133800345068
 30
0.0
 40
0.7499080000000001
100
AcDbArc
 50
265.1628950000044
 51
25.33442299999946
  0
ARC
  5
25E
330
2
100
AcDbEntity
  8
0
100
AcDbCircle
 10
96.28313342266119
 20
229.7309150345081
 30
0.0
 40
0.7499080000000001
100
AcDbArc
 50
92.01298199999559
 51
212.184510000001
  0
ARC
  5
25F
330
2
100
AcDbEntity
  8
0
100
AcDbCircle
 10
95.01378242266218
 20
228.9320420345079
 30
0.0
 40
0.7499080000000001
100
AcDbArc
 50
272.0129819999954
 51
32.18451000000101
  0
ARC
  5
260
330
2
100
AcDbEntity
  8
0
100
AcDbCircle
 10
91.85408942266077
 20
230.855153034508
 30
0.0
 40
0.7499080000000001
100
AcDbArc
 50
85.16289500000455
 51
205.3344229999993
  0
ARC
  5
261
330
2
100
AcDbEntity
  8
0
100
AcDbCircle
 10
112.7547104226623
 20
261.6378560345069
 30
0.0
 40
36.555792
100
AcDbArc
 50
227.7470409999976
 51
236.3176429999981
  0
ARC
  5
262
330
2
100
AcDbEntity
  8
0
100
AcDbCircle
 10
87.46053342266078
 20
234.3502140345067
 30
0.0
 40
0.7499080000000001
100
AcDbArc
 50
257.6612769999992
 51
17.83280500000109
  0
ARC
  5
263
330
2
100
AcDbEntity
  8
0
100
AcDbCircle
 10
112.7547104226623
 20
261.6378560345069
 30
0.0
 40
35.255792
100
AcDbArc
 50
236.3564240000014
 51
242.0987460000029
  0
ARC
  5
264
330
2
100
AcDbEntity
  8
0
100
AcDbCircle
 10
92.54453342266334
 20
231.9661080345081
 30
0.0
 40
0.7499080000000001
100
AcDbArc
 50
265.1628950000044
 51
25.33442299999946
  0
ARC
  5
265
330
2
100
AcDbEntity
  8
0
100
AcDbCircle
 10
93.900105422661
 20
232.6078800345066
 30
0.0
 40
0.7499080000000001
100
AcDbArc
 50
85.16289500000455
 51
205.3344229999993
  0
ARC
  5
266
330
2
100
AcDbEntity
  8
0
100
AcDbCircle
 10
112.7547104226623
 20
261.6378560345069
 30
0.0
 40
35.255792
100
AcDbArc
 50
203.947941
 51
227.7470409999976
  0
LEADER
  5
267
330
2
100
AcDbEntity
  8
0
100
AcDbLeader
  3
STANDARD
 76
     2
 10
172.2615595858314
 20
232.5864200603118
 30
0.0
 10
153.7359828936205
 20
197.8127830893968
 30
0.0
1001
ACAD
1000
DSTYLE
1002
{
1070
     5
1000

1070
    77
1070
     1
1070
   147
1040
1.0
1070
   342
1005
0
1002
}
  0
LINE
  5
268
330
2
100
AcDbEntity
  8
0
 62
   123
 48
0.6
100
AcDbLine
 10
183.8540482521211
 20
200.14278194606
 30
0.0
 11
256.6721080280458
 21
200.14278194606
 31
0.0
  0
LINE
  5
269
102
{ACAD_REACTORS
330
A0
102
}
330
2
100
AcDbEntity
  8
0
100
AcDbLine
 10
282.62429525273
 20
247.3273033859663
 30
0.0
 11
163.7242952527303
 21
247.3273033859663
 31
0.0
  0
MTEXT
  5
26A
330
2
100
AcDbEntity
  8
DIM
100
AcDbMText
 10
108.0407362566347
 20
201.8977578831404
 30
0.0
 40
3.5
 41
0.0
 71
     5
 72
     1
  1
MOTOR LEAD WIRE 300mm
1001
ACAD
1000
MTEXTBEGIN
1070
    73
1070
     1
1070
    44
1040
1.0
1070
    74
1070
     0
1000
MTEXTEND
  0
MTEXT
  5
26B
330
2
100
AcDbEntity
  8
DIM
100
AcDbMText
 10
219.9968107863551
 20
195.6610337011711
 30
0.0
 40
3.5
 41
0.0
 71
     5
 72
     1
  1
UL Style 3266 , AWG22
1001
ACAD
1000
MTEXTBEGIN
1070
    73
1070
     1
1070
    44
1040
1.0
1070
    74
1070
     0
1000
MTEXTEND
  0
MTEXT
  5
26C
330
2
100
AcDbEntity
  8
DIM
100
AcDbMText
 10
218.857073426323
 20
203.5731983554587
 30
0.0
 40
3.5
 41
0.0
 71
     5
 72
     1
  1
BRAKE LEAD WIRE 300mm
1001
ACAD
1000
MTEXTBEGIN
1070
    73
1070
     1
1070
    44
1040
1.0
1070
    74
1070
     0
1000
MTEXTEND
  0
LINE
  5
26D
330
2
100
AcDbEntity
  8
0
 48
0.6
100
AcDbLine
 10
27.50960292813306
 20
327.3273033859672
 30
0.0
 11
97.50960292813125
 21
327.3273033859672
 31
0.0
  0
DIMENSION
  5
26E
102
{ACAD_XDICTIONARY
360
26F
102
}
102
{ACAD_REACTORS
330
270
102
}
330
2
100
AcDbEntity
  8
0
100
AcDbDimension
  2
*D35
 10
102.5096029281339
 20
344.522871716581
 30
0.0
 11
63.2682306829729
 21
344.522871716581
 31
0.0
 70
   160
  3
STANDARD
100
AcDbAlignedDimension
 13
22.50960292813306
 23
322.3273033859673
 33
0.0
 14
102.5096029281339
 24
322.3273033859673
 34
0.0
100
AcDbRotatedDimension
  0
LINE
  5
27D
330
2
100
AcDbEntity
  8
CEN
 48
0.6
100
AcDbLine
 10
18.43261320253441
 20
287.3273033859673
 30
0.0
 11
106.5865926537262
 21
287.3273033859673
 31
0.0
  0
CIRCLE
  5
27E
330
2
100
AcDbEntity
  8
0
 48
0.6
100
AcDbCircle
 10
62.50960292813124
 20
287.3273033859673
 30
0.0
 40
13.0
  0
ARC
  5
27F
330
2
100
AcDbEntity
  8
0
 48
0.6
100
AcDbCircle
 10
62.47683306465297
 20
287.3273033859673
 30
0.0
 40
29.09279999999998
100
AcDbArc
 50
72.28019184719491
 51
107.719808152805
  0
CIRCLE
  5
280
330
2
100
AcDbEntity
  8
0
 48
0.6
100
AcDbCircle
 10
62.50960292813124
 20
287.3273033859673
 30
0.0
 40
4.0
  0
CIRCLE
  5
281
330
2
100
AcDbEntity
  8
0
100
AcDbCircle
 10
62.47935120250258
 20
287.3273033859673
 30
0.0
 40
3.604999999999998
  0
LEADER
  5
282
330
2
100
AcDbEntity
  8
0
100
AcDbLeader
  3
STANDARD
 73
     0
 75
     1
 40
3.0
 41
26.65178571428571
 76
     3
 10
95.74362164390004
 20
323.3113221017338
 30
0.0
 10
86.19704935782101
 20
352.0861400924282
 30
0.0
 10
83.69704935782101
 20
352.0861400924282
 30
0.0
340
283
1001
ACAD
1000
DSTYLE
1002
{
1070
     5
1000

1070
    77
1070
     1
1070
   147
1040
1.0
1070
   342
1005
0
1002
}
  0
MTEXT
  5
283
102
{ACAD_REACTORS
330
282
102
}
330
2
100
AcDbEntity
  8
0
 62
     3
100
AcDbMText
 10
82.69704935782101
 20
353.0861400924282
 30
0.0
 40
3.0
 41
0.0
 71
     9
 72
     1
  1
4-%%C5.5 hole
1001
ACAD
1000
MTEXTBEGIN
1070
    73
1070
     1
1070
    44
1040
1.0
1070
    74
1070
     0
1000
MTEXTEND
  0
ARC
  5
284
330
2
100
AcDbEntity
  8
0
 48
0.6
100
AcDbCircle
 10
62.47683306465297
 20
287.3273033859673
 30
0.0
 40
31.73759999999999
100
AcDbArc
 50
116.3656725032109
 51
153.634327496783
  0
ARC
  5
285
330
2
100
AcDbEntity
  8
0
 48
0.6
100
AcDbCircle
 10
62.47683306465297
 20
287.3273033859673
 30
0.0
 40
29.09279999999998
100
AcDbArc
 50
162.2801918472015
 51
197.7198081527984
  0
ARC
  5
286
330
2
100
AcDbEntity
  8
0
 48
0.6
100
AcDbCircle
 10
36.41032451631781
 20
300.2473708757111
 30
0.0
 40
2.644799999999999
100
AcDbArc
 50
153.634327496783
 51
218.0513255193776
  0
ARC
  5
287
330
2
100
AcDbEntity
  8
0
 48
0.6
100
AcDbCircle
 10
32.24498176872021
 20
296.9870353170563
 30
0.0
 40
2.644799999999999
100
AcDbArc
 50
342.2801918472014
 51
38.05132551937779
  0
ARC
  5
288
102
{ACAD_REACTORS
330
270
102
}
330
2
100
AcDbEntity
  8
0
 48
0.6
100
AcDbCircle
 10
27.50960292813306
 20
322.3273033859673
 30
0.0
 40
5.0
100
AcDbArc
 50
90.0
 51
180.0
  0
ARC
  5
289
330
2
100
AcDbEntity
  8
0
 48
0.6
100
AcDbCircle
 10
36.41032451631781
 20
274.407235896223
 30
0.0
 40
2.644799999999999
100
AcDbArc
 50
141.9486744806222
 51
206.3656725032168
  0
ARC
  5
28A
330
2
100
AcDbEntity
  8
0
 48
0.6
100
AcDbCircle
 10
32.24498176872021
 20
277.6675714548778
 30
0.0
 40
2.644799999999999
100
AcDbArc
 50
321.9486744806221
 51
17.71980815279839
  0
LWPOLYLINE
  5
28B
330
2
100
AcDbEntity
  8
3
100
AcDbPolyline
 90
        4
 70
     1
 43
0.0
 10
55.56133951521224
 20
345.8003212773278
 10
58.8613395152106
 20
345.8003212773278
 10
58.8613395152106
 20
349.3003212773292
 10
55.56133951521224
 20
349.3003212773292
  0
ARC
  5
28C
330
2
100
AcDbEntity
  8
0
 48
0.6
100
AcDbCircle
 10
49.55676557491097
 20
313.393811934302
 30
0.0
 40
2.644799999999999
100
AcDbArc
 50
51.94867448061305
 51
116.3656725032109
  0
ARC
  5
28D
330
2
100
AcDbEntity
  8
0
 48
0.6
100
AcDbCircle
 10
52.81710113356803
 20
317.5591546819023
 30
0.0
 40
2.644799999999999
100
AcDbArc
 50
231.948674480613
 51
287.7198081528051
  0
ARC
  5
28E
330
2
100
AcDbEntity
  8
0
100
AcDbCircle
 10
282.62429525273
 20
322.3273033859673
 30
0.0
 40
5.0
100
AcDbArc
 50
0.0
 51
90.00000000000019
  0
LINE
  5
28F
330
2
100
AcDbEntity
  8
0
100
AcDbLine
 10
252.6973295464722
 20
288.1841457988939
 30
0.0
 11
254.4037367738037
 21
286.4777385715651
 31
0.0
  0
LINE
  5
290
330
2
100
AcDbEntity
  8
0
100
AcDbLine
 10
254.4073755698846
 20
288.1841457988939
 30
0.0
 11
252.7009683425585
 21
286.4777385715651
 31
0.0
  0
CIRCLE
  5
291
330
2
100
AcDbEntity
  8
0
100
AcDbCircle
 10
253.5523525581811
 20
287.3291227871868
 30
0.0
 40
2.147836038934201
  0
ARC
  5
292
330
2
100
AcDbEntity
  8
0
 48
0.6
100
AcDbCircle
 10
62.47683306465297
 20
287.3273033859673
 30
0.0
 40
31.73759999999999
100
AcDbArc
 50
26.36567250321681
 51
63.63432749678904
  0
ARC
  5
293
330
2
100
AcDbEntity
  8
0
 48
0.6
100
AcDbCircle
 10
62.47683306465297
 20
287.3273033859673
 30
0.0
 40
29.09279999999998
100
AcDbArc
 50
342.2801918472014
 51
17.71980815279839
  0
ARC
  5
294
330
2
100
AcDbEntity
  8
0
 48
0.6
100
AcDbCircle
 10
88.54334161299084
 20
300.2473708757111
 30
0.0
 40
2.644799999999999
100
AcDbArc
 50
321.9486744806221
 51
26.36567250321681
  0
ARC
  5
295
330
2
100
AcDbEntity
  8
0
 48
0.6
100
AcDbCircle
 10
92.70868436059208
 20
296.9870353170563
 30
0.0
 40
2.644799999999999
100
AcDbArc
 50
141.9486744806222
 51
197.7198081527984
  0
ARC
  5
296
102
{ACAD_REACTORS
330
270
102
}
330
2
100
AcDbEntity
  8
0
 48
0.6
100
AcDbCircle
 10
97.50960292813125
 20
322.3273033859673
 30
0.0
 40
5.0
100
AcDbArc
 50
0.0
 51
90.0
  0
ARC
  5
297
330
2
100
AcDbEntity
  8
0
 48
0.6
100
AcDbCircle
 10
88.54334161299084
 20
274.407235896223
 30
0.0
 40
2.644799999999999
100
AcDbArc
 50
333.6343274967831
 51
38.05132551937779
  0
ARC
  5
298
330
2
100
AcDbEntity
  8
0
 48
0.6
100
AcDbCircle
 10
92.70868436059208
 20
277.6675714548778
 30
0.0
 40
2.644799999999999
100
AcDbArc
 50
162.2801918472015
 51
218.0513255193776
  0
ARC
  5
299
330
2
100
AcDbEntity
  8
0
 48
0.6
100
AcDbCircle
 10
72.13656499574245
 20
317.5591546819023
 30
0.0
 40
2.644799999999999
100
AcDbArc
 50
252.2801918471949
 51
308.0513255193868
  0
ARC
  5
29A
330
2
100
AcDbEntity
  8
0
 48
0.6
100
AcDbCircle
 10
75.39690055439677
 20
313.393811934302
 30
0.0
 40
2.644799999999999
100
AcDbArc
 50
63.63432749678904
 51
128.0513255193868
  0
LINE
  5
29B
330
2
100
AcDbEntity
  8
0
100
AcDbLine
 10
157.6242952527309
 20
327.3273033859672
 30
0.0
 11
163.7242952527303
 21
327.3273033859672
 31
0.0
  0
LINE
  5
29C
330
2
100
AcDbEntity
  8
0
100
AcDbLine
 10
157.6242952527309
 20
323.8273033859673
 30
0.0
 11
155.624295252729
 21
323.8273033859673
 31
0.0
  0
LINE
  5
29D
102
{ACAD_REACTORS
330
2AF
102
}
330
2
100
AcDbEntity
  8
0
100
AcDbLine
 10
164.624295252729
 20
318.2260407274962
 30
0.0
 11
164.624295252729
 21
325.926040727496
 31
0.0
  0
LINE
  5
29E
330
2
100
AcDbEntity
  8
0
100
AcDbLine
 10
163.7242952527303
 20
318.2260407274962
 30
0.0
 11
164.624295252729
 21
318.2260407274962
 31
0.0
  0
LINE
  5
29F
330
2
100
AcDbEntity
  8
0
100
AcDbLine
 10
163.7242952527303
 20
325.926040727496
 30
0.0
 11
164.624295252729
 21
325.926040727496
 31
0.0
  0
DIMENSION
  5
2A0
330
2
100
AcDbEntity
  8
0
100
AcDbDimension
  2
*D39
 10
157.6242952527309
 20
352.5982168417781
 30
0.0
 11
150.8742952527291
 21
352.5982168417781
 31
0.0
 70
   160
  3
STANDARD
100
AcDbAlignedDimension
 13
144.124295252729
 23
290.4323033859664
 33
0.0
 14
157.6242952527309
 24
327.8273033859672
 34
0.0
100
AcDbRotatedDimension
  0
DIMENSION
  5
2AD
102
{ACAD_XDICTIONARY
360
2AE
102
}
102
{ACAD_REACTORS
330
2AF
102
}
330
2
100
AcDbEntity
  8
0
100
AcDbDimension
  2
*D38
 10
164.624295252729
 20
339.2559854493788
 30
0.0
 11
161.12429525273
 21
339.2559854493788
 31
0.0
 70
   160
  3
STANDARD
100
AcDbAlignedDimension
 13
157.6242952527309
 23
326.8273033859673
 33
0.0
 14
164.624295252729
 24
325.926040727496
 34
0.0
100
AcDbRotatedDimension
  0
LINE
  5
2BC
330
2
100
AcDbEntity
  8
2
100
AcDbLine
 10
150.6242952527309
 20
289.2473033859642
 30
0.0
 11
144.6242952527309
 21
286.0718769054224
 31
0.0
  0
LINE
  5
2BE
330
2
100
AcDbEntity
  8
2
100
AcDbLine
 10
150.1781922629488
 20
290.0323033859645
 30
0.0
 11
144.6242952527309
 21
287.2265774438019
 31
0.0
  0
LINE
  5
2BF
330
2
100
AcDbEntity
  8
2
100
AcDbLine
 10
144.6242952527309
 20
290.9323033859664
 30
0.0
 11
144.6242952527309
 21
283.722303385965
 31
0.0
  0
LINE
  5
2C0
330
2
100
AcDbEntity
  8
0
100
AcDbLine
 10
144.124295252729
 20
290.4323033859664
 30
0.0
 11
144.124295252729
 21
284.2223033859645
 31
0.0
  0
LINE
  5
2C1
330
2
100
AcDbEntity
  8
2
100
AcDbLine
 10
150.6242952527309
 20
290.0323033859645
 30
0.0
 11
150.6242952527309
 21
284.6223033859642
 31
0.0
  0
LINE
  5
2C2
330
2
100
AcDbEntity
  8
2
100
AcDbLine
 10
150.6242952527309
 20
288.092602847586
 30
0.0
 11
144.6242952527309
 21
284.9647515828292
 31
0.0
  0
LINE
  5
2C3
330
2
100
AcDbEntity
  8
0
100
AcDbLine
 10
144.124295252729
 20
284.6223033859642
 30
0.0
 11
150.6242952527309
 21
284.6223033859642
 31
0.0
  0
LINE
  5
2C4
330
2
100
AcDbEntity
  8
0
100
AcDbLine
 10
144.124295252729
 20
284.2223033859645
 30
0.0
 11
144.6242952527309
 21
283.722303385965
 31
0.0
  0
LINE
  5
2C5
330
2
100
AcDbEntity
  8
0
100
AcDbLine
 10
144.124295252729
 20
290.0323033859645
 30
0.0
 11
150.6242952527309
 21
290.0323033859645
 31
0.0
  0
LINE
  5
2C6
330
2
100
AcDbEntity
  8
0
100
AcDbLine
 10
144.6242952527309
 20
290.9323033859664
 30
0.0
 11
144.124295252729
 21
290.4323033859664
 31
0.0
  0
LINE
  5
2C7
330
2
100
AcDbEntity
  8
CEN
 48
0.6
100
AcDbLine
 10
141.7538191094199
 20
284.2328033859648
 30
0.0
 11
158.6242952527291
 21
284.2328033859648
 31
0.0
  0
LINE
  5
2C8
330
2
100
AcDbEntity
  8
0
100
AcDbLine
 10
144.6242952527309
 20
283.722303385965
 30
0.0
 11
155.624295252729
 21
283.722303385965
 31
0.0
  0
LINE
  5
2C9
330
2
100
AcDbEntity
  8
CEN
 48
0.6
100
AcDbLine
 10
141.7538191094199
 20
290.4218033859651
 30
0.0
 11
158.6242952527291
 21
290.4218033859651
 31
0.0
  0
LINE
  5
2CA
330
2
100
AcDbEntity
  8
0
100
AcDbLine
 10
144.6242952527309
 20
290.9323033859664
 30
0.0
 11
155.624295252729
 21
290.9323033859664
 31
0.0
  0
ARC
  5
2CB
330
2
100
AcDbEntity
  8
0
100
AcDbCircle
 10
150.6674821635579
 20
257.8060724969154
 30
0.0
 40
26.81626566478071
100
AcDbArc
 50
79.34799026067249
 51
90.09227342919791
  0
ARC
  5
2CC
330
2
100
AcDbEntity
  8
0
100
AcDbCircle
 10
150.6674821635615
 20
316.848534274984
 30
0.0
 40
26.81626566475105
100
AcDbArc
 50
269.907726570802
 51
280.6520097393286
  0
DIMENSION
  5
2CD
102
{ACAD_XDICTIONARY
360
2CE
102
}
102
{ACAD_REACTORS
330
2CF
102
}
330
2
100
AcDbEntity
  8
0
100
AcDbDimension
  2
*D37
 10
157.6242952527309
 20
339.2559854493788
 30
0.0
 11
148.6242952527291
 21
339.2559854493788
 31
0.0
 70
   160
  3
STANDARD
100
AcDbAlignedDimension
 13
155.624295252729
 23
323.8273033859673
 33
0.0
 14
157.6242952527309
 24
328.8273033859673
 34
0.0
100
AcDbRotatedDimension
  0
LINE
  5
2DE
330
2
100
AcDbEntity
  8
CEN
 48
0.6
100
AcDbLine
 10
138.0601558284906
 20
287.3273033859664
 30
0.0
 11
297.6137575914926
 21
287.3273033859673
 31
0.0
  0
LINE
  5
2DF
102
{ACAD_REACTORS
330
A0
102
}
330
2
100
AcDbEntity
  8
0
100
AcDbLine
 10
282.62429525273
 20
327.3273033859672
 30
0.0
 11
163.7242952527303
 21
327.3273033859672
 31
0.0
  0
DIMENSION
  5
2E0
330
2
100
AcDbEntity
  8
0
100
AcDbDimension
  2
*D36
 10
287.62429525273
 20
352.5982168417781
 30
0.0
 11
222.62429525273
 21
352.5982168417781
 31
0.0
 70
   160
  3
STANDARD
100
AcDbAlignedDimension
 13
157.6242952527309
 23
327.3273033859672
 33
0.0
 14
287.62429525273
 24
323.3273033859672
 34
0.0
100
AcDbRotatedDimension
  0
ENDSEC
  0
SECTION
  2
OBJECTS
  0
DICTIONARY
  5
9
330
0
100
AcDbDictionary
  3
ACAD_GROUP
350
98
  3
ACAD_LAYOUT
350
D
  3
ACAD_MLINESTYLE
350
99
  3
ACAD_PLOTSETTINGS
350
9A
  3
ACAD_PLOTSTYLENAME
350
8
  3
ACDBHEADERROUNDTRIPXREC
350
3F6
  3
ACDBVARIABLEDICTIONARY
350
2ED
  0
DICTIONARY
  5
15
330
14
100
AcDbDictionary
280
     1
  3
ACAD_LAYERFILTERS
360
16
  3
ACAD_LAYERSTATES
360
89
  0
DICTIONARY
  5
3
330
2
100
AcDbDictionary
280
     1
  3
ACAD_LAYOUTSELFREF
360
417
  0
DICTIONARY
  5
F
330
E
100
AcDbDictionary
280
     1
  3
ACAD_LAYOUTSELFREF
360
418
  0
DICTIONARY
  5
D3
330
D2
100
AcDbDictionary
280
     1
  3
ACAD_DIMASSOC
360
D4
  0
DICTIONARY
  5
9F
330
9E
100
AcDbDictionary
280
     1
  3
ACAD_DIMASSOC
360
A0
  0
DICTIONARY
  5
B8
330
B7
100
AcDbDictionary
280
     1
  3
ACAD_DIMASSOC
360
B9
  0
DICTIONARY
  5
EC
330
EB
100
AcDbDictionary
280
     1
  3
ACAD_DIMASSOC
360
ED
  0
DICTIONARY
  5
FD
330
FC
100
AcDbDictionary
280
     1
  3
ACAD_DIMASSOC
360
FE
  0
DICTIONARY
  5
112
330
111
100
AcDbDictionary
280
     1
  3
ACAD_DIMASSOC
360
113
  0
DICTIONARY
  5
12E
330
12D
100
AcDbDictionary
280
     1
  3
ACAD_DIMASSOC
360
12F
  0
DICTIONARY
  5
14B
330
14A
100
AcDbDictionary
280
     1
  3
ACAD_DIMASSOC
360
14C
  0
DICTIONARY
  5
1B0
330
1AF
100
AcDbDictionary
280
     1
  3
ACAD_DIMASSOC
360
1B1
  0
DICTIONARY
  5
1D9
330
1D8
100
AcDbDictionary
280
     1
  3
ACAD_DIMASSOC
360
1DA
  0
DICTIONARY
  5
1E8
330
1E7
100
AcDbDictionary
280
     1
  3
ACAD_DIMASSOC
360
1E9
  0
DICTIONARY
  5
1F9
330
1F8
100
AcDbDictionary
280
     1
  3
ACAD_DIMASSOC
360
1FA
  0
DICTIONARY
  5
20E
330
20D
100
AcDbDictionary
280
     1
  3
ACAD_DIMASSOC
360
20F
  0
DICTIONARY
  5
26F
330
26E
100
AcDbDictionary
280
     1
  3
ACAD_DIMASSOC
360
270
  0
DICTIONARY
  5
2AE
330
2AD
100
AcDbDictionary
280
     1
  3
ACAD_DIMASSOC
360
2AF
  0
DICTIONARY
  5
2CE
330
2CD
100
AcDbDictionary
280
     1
  3
ACAD_DIMASSOC
360
2CF
  0
DICTIONARY
  5
98
102
{ACAD_REACTORS
330
9
102
}
330
9
100
AcDbDictionary
  0
DICTIONARY
  5
D
102
{ACAD_REACTORS
330
9
102
}
330
9
100
AcDbDictionary
  0
DICTIONARY
  5
99
102
{ACAD_REACTORS
330
9
102
}
330
9
100
AcDbDictionary
  3
STANDARD
350
9B
  0
DICTIONARY
  5
9A
102
{ACAD_REACTORS
330
9
102
}
330
9
100
AcDbDictionary
  0
ACDBDICTIONARYWDFLT
  5
8
102
{ACAD_REACTORS
330
9
102
}
330
9
100
AcDbDictionary
281
     1
  3
Normal
350
7
100
AcDbDictionaryWithDefault
340
7
  0
DICTIONARY
  5
3F6
102
{ACAD_REACTORS
330
9
102
}
330
9
100
AcDbDictionary
  3
CEPSNTYPE
350
400
  3
DIMSTYLEDATA
350
404
  3
FINGERPRINTGUID
350
401
  3
HYPERLINKBASE
350
3F9
  3
INSUNITS
350
3FF
  3
LAYOUTDICT
350
3FB
  3
LWETCUNION
350
3FE
  3
PLOTSETDICT
350
3FC
  3
PLOTSTYLNAMDICT
350
3FD
  3
PSVPSCALE
350
403
  3
PUCSBASE
350
407
  3
PUCSORGBACK
350
40D
  3
PUCSORGBOTTOM
350
409
  3
PUCSORGFRONT
350
40C
  3
PUCSORGLEFT
350
40A
  3
PUCSORGRIGHT
350
40B
  3
PUCSORGTOP
350
408
  3
PUCSORTHOREF
350
405
  3
PUCSORTHOVIEW
350
406
  3
STYLESHEET
350
3FA
  3
TSTACKALIGN
350
3F7
  3
TSTACKSIZE
350
3F8
  3
UCSBASE
350
410
  3
UCSORGBACK
350
416
  3
UCSORGBOTTOM
350
412
  3
UCSORGFRONT
350
415
  3
UCSORGLEFT
350
413
  3
UCSORGRIGHT
350
414
  3
UCSORGTOP
350
411
  3
UCSORTHOREF
350
40E
  3
UCSORTHOVIEW
350
40F
  3
VERSIONGUID
350
402
  0
DICTIONARY
  5
2ED
102
{ACAD_REACTORS
330
9
102
}
330
9
100
AcDbDictionary
  3
DIMASSOC
350
2EF
  3
HIDETEXT
350
2EE
  0
DICTIONARY
  5
16
102
{ACAD_REACTORS
330
15
102
}
330
15
100
AcDbDictionary
280
     1
  3
$LAYERS
360
17
  3
-_UND_0
360
18
  3
-PEGC
360
19
  3
101
360
1A
  3
102
360
1B
  3
1DUC
360
1C
  3
1EQ
360
1D
  3
1TUB
360
1E
  3
2
360
1F
  3
2000
360
20
  3
50
360
21
  3
58J
360
22
  3
65
360
23
  3
AA
360
24
  3
ACABADOS
360
25
  3
AGUA_Y_DREN
360
26
  3
AIRE
360
27
  3
ALLE_AUS
360
28
  3
ALLES_MIT_S
360
29
  3
AMARILLO
360
2A
  3
APAGADOS
360
2B
  3
ARR
360
2C
  3
BA
360
2D
  3
BACKS
360
2E
  3
BASE
360
2F
  3
BLOQ_INUTIL
360
30
  3
CADKON
360
31
  3
CARPINTERIA
360
32
  3
CERRADOS
360
33
  3
COL
360
34
  3
COLOR
360
35
  3
COLOR_250
360
36
  3
COLORES
360
37
  3
CONGELADOS
360
38
  3
CONJUNTO
360
39
  3
D1
360
3A
  3
DA_
360
3B
  3
DET-
360
3C
  3
DOR-H
360
3D
  3
EJES
360
3E
  3
ELECTRICO
360
3F
  3
F1
360
40
  3
FROZEN
360
41
  3
GRID
360
42
  3
GRIDTXT
360
43
  3
HATCH
360
44
  3
HCAD
360
45
  3
INSTALACIONES
360
46
  3
JIZNI
360
47
  3
KCK
360
48
  3
KKK
360
49
  3
LAY
360
4A
  3
LAYER-0
360
4E
  3
LAYER-1
360
4F
  3
LAYER_1_UND_0
360
4B
  3
LAYER_2_UND_0
360
4C
  3
LAYER_9_UND_0_SCHRAFFUR
360
4D
  3
LOCK
360
50
  3
LOCKED
360
51
  3
LOTES
360
52
  3
LUNAR
360
53
  3
LUNAR2
360
54
  3
M
360
55
  3
MIS_LAYERS
360
56
  3
MRKCK
360
57
  3
NECADKON
360
58
  3
NI_LH
360
59
  3
NI_RH
360
5A
  3
NUM
360
5B
  3
OFF
360
5C
  3
ON
360
5D
  3
PBASE
360
5E
  3
PEGC
360
5F
  3
PEGCT
360
60
  3
PFRAME
360
61
  3
PGRID
360
62
  3
PGRIDT
360
63
  3
PLAFONES
360
64
  3
PLANTAS
360
65
  3
PLOT
360
66
  3
PRENDIDAS
360
67
  3
PRENDIDOS
360
68
  3
PRINT
360
69
  3
PT
360
6A
  3
PTH
360
6B
  3
PVGRID
360
6C
  3
RED_DE_AGUA_POTABLE
360
6D
  3
RED_DE_ENERGIA_ELECTRICA
360
6E
  3
SEVERNI
360
6F
  3
SHIN
360
70
  3
SHOW_ALL_LAYER
360
71
  3
SIN
360
72
  3
STORAGE-CART
360
73
  3
T
360
74
  3
TEXTOS
360
75
  3
TEXTURAS
360
76
  3
TUBERIAS
360
77
  3
UNFRZ
360
78
  3
V\U+0160ECHNY_NEPOU\U+017D\U+00CDVAN\U+00C9
360
79
  3
VA
360
7A
  3
VENTILACI\U+00D3N
360
7B
  3
VYHODNI
360
7C
  3
YO
360
7D
  3
ZAPADNI
360
7E
  3
사용
360
7F
  3
신규
360
80
  3
실박스
360
81
  3
우리토목
360
82
  3
주차
360
83
  3
지상정밀
360
84
  3
쩜선
360
85
  3
플로터_작업층
360
86
  3
현재_작업층
360
87
  3
현재_잠금
360
88
  0
DICTIONARY
  5
89
102
{ACAD_REACTORS
330
15
102
}
330
15
100
AcDbDictionary
  0
XRECORD
  5
417
102
{ACAD_REACTORS
330
3
102
}
330
3
100
AcDbXrecord
340
2
  0
XRECORD
  5
418
102
{ACAD_REACTORS
330
F
102
}
330
F
100
AcDbXrecord
340
E
  0
DIMASSOC
  5
D4
102
{ACAD_REACTORS
330
D3
102
}
330
D3
100
AcDbDimAssoc
330
D2
 90
        2
 70
     0
 71
     0
  1
AcDbOsnapPointRef
 72
     3
331
D1
 73
     2
 91
        0
 40
0.0
 10
-0.0000000000009095
 20
0.0
 30
0.0
 75
     0
  0
DIMASSOC
  5
A0
102
{ACAD_REACTORS
330
9F
102
}
330
9F
100
AcDbDimAssoc
330
9E
 90
        3
 70
     0
 71
     0
  1
AcDbOsnapPointRef
 72
    13
331
2DF
 73
     2
 91
        0
 40
0.0
 10
282.62429525273
 20
327.3273033859672
 30
0.0
 75
     0
  1
AcDbOsnapPointRef
 72
    13
331
269
 73
     2
 91
        0
 40
0.0
 10
282.62429525273
 20
247.3273033859663
 30
0.0
 75
     0
  0
DIMASSOC
  5
B9
102
{ACAD_REACTORS
330
B8
102
}
330
B8
100
AcDbDimAssoc
330
B7
 90
        3
 70
     0
 71
     0
  1
AcDbOsnapPointRef
 72
    13
331
B6
 73
     2
 91
        0
 40
0.0
 10
155.624295252729
 20
323.8273033859673
 30
0.0
 75
     0
  1
AcDbOsnapPointRef
 72
     1
331
B6
 73
     2
 91
        0
 40
1.0
 10
155.624295252729
 20
250.8273033859672
 30
0.0
 75
     0
  0
DIMASSOC
  5
ED
102
{ACAD_REACTORS
330
EC
102
}
330
EC
100
AcDbDimAssoc
330
EB
 90
       15
 70
     0
 71
     0
  1
AcDbOsnapPointRef
 72
    13
331
C9
 73
     2
 91
        0
 40
0.0
 10
79.07814542305368
 20
247.3273033859673
 30
0.0
 75
     0
  1
AcDbOsnapPointRef
 72
     1
331
C9
 73
     2
 91
        0
 40
1.0
 10
62.50960292813124
 20
287.3273033859673
 30
0.0
 75
     0
  1
AcDbOsnapPointRef
 72
    13
331
CC
 73
     2
 91
        0
 40
0.0
 10
62.50960292813124
 20
240.1551801775713
 30
0.0
 75
     0
  1
AcDbOsnapPointRef
 72
     1
331
CC
 73
     2
 91
        0
 40
1.0
 10
62.50960292813124
 20
334.4994265943642
 30
0.0
 75
     0
  0
DIMASSOC
  5
FE
102
{ACAD_REACTORS
330
FD
102
}
330
FD
100
AcDbDimAssoc
330
FC
 90
        3
 70
     0
 71
     0
  1
AcDbOsnapPointRef
 72
    13
331
22B
 73
     2
 91
        0
 40
0.0
 10
299.1794797208367
 20
123.922803024624
 30
0.0
 75
     0
  1
AcDbOsnapPointRef
 72
    13
331
1AB
 73
     2
 91
        0
 40
0.0
 10
299.1794797208367
 20
43.92280302462222
 30
0.0
 75
     0
  0
DIMASSOC
  5
113
102
{ACAD_REACTORS
330
112
102
}
330
112
100
AcDbDimAssoc
330
111
 90
        3
 70
     0
 71
     0
  1
AcDbOsnapPointRef
 72
    13
331
123
 73
     2
 91
        0
 40
0.0
 10
172.1794797208349
 20
120.4228030246236
 30
0.0
 75
     0
  1
AcDbOsnapPointRef
 72
     1
331
123
 73
     2
 91
        0
 40
1.0
 10
172.1794797208349
 20
47.42280302462359
 30
0.0
 75
     0
  0
DIMASSOC
  5
12F
102
{ACAD_REACTORS
330
12E
102
}
330
12E
100
AcDbDimAssoc
330
12D
 90
        3
 70
     0
 71
     0
  1
AcDbOsnapPointRef
 72
     1
331
1A8
 73
     2
 91
        0
 40
1.0
 10
142.179479720834
 20
79.92280302462359
 30
0.0
 75
     0
  1
AcDbOsnapPointRef
 72
    13
331
13C
 73
     2
 91
        0
 40
0.0
 10
142.179479720834
 20
86.92280302462359
 30
0.0
 75
     0
  0
DIMASSOC
  5
14C
102
{ACAD_REACTORS
330
14B
102
}
330
14B
100
AcDbDimAssoc
330
14A
 90
       15
 70
     0
 71
     0
  1
AcDbOsnapPointRef
 72
    13
331
163
 73
     2
 91
        0
 40
0.0
 10
55.353566992163
 20
43.92280302462359
 30
0.0
 75
     0
  1
AcDbOsnapPointRef
 72
     1
331
163
 73
     2
 91
        0
 40
1.0
 10
38.78502449724328
 20
83.92280302462358
 30
0.0
 75
     0
  1
AcDbOsnapPointRef
 72
    13
331
127
 73
     2
 91
        0
 40
0.0
 10
38.78502449724146
 20
36.75067981622669
 30
0.0
 75
     0
  1
AcDbOsnapPointRef
 72
     1
331
127
 73
     2
 91
        0
 40
1.0
 10
38.78502449724146
 20
131.0949262330213
 30
0.0
 75
     0
  0
DIMASSOC
  5
1B1
102
{ACAD_REACTORS
330
1B0
102
}
330
1B0
100
AcDbDimAssoc
330
1AF
 90
        3
 70
     0
 71
     0
  1
AcDbOsnapPointRef
 72
     1
331
1C7
 73
     2
 91
        0
 40
3.141592653589792
 10
-1.214975502756715
 20
118.9228030246235
 30
0.0
 75
     0
  1
AcDbOsnapPointRef
 72
    13
331
1D5
 73
     2
 91
        0
 40
0.0
 10
78.78502449724146
 20
118.9228030246235
 30
0.0
 75
     0
  0
DIMASSOC
  5
1DA
102
{ACAD_REACTORS
330
1D9
102
}
330
1D9
100
AcDbDimAssoc
330
1D8
 90
        3
 70
     0
 71
     0
  1
AcDbOsnapPointRef
 72
    13
331
126
 73
     2
 91
        0
 40
0.0
 10
174.179479720834
 20
123.4228030246235
 30
0.0
 75
     0
  1
AcDbOsnapPointRef
 72
     1
331
20C
 73
     2
 91
        0
 40
1.0
 10
181.179479720834
 20
122.5215403661523
 30
0.0
 75
     0
  0
DIMASSOC
  5
1E9
102
{ACAD_REACTORS
330
1E8
102
}
330
1E8
100
AcDbDimAssoc
330
1E7
 90
        1
 70
     0
 71
     0
  1
AcDbOsnapPointRef
 72
     1
331
208
 73
     2
 91
        0
 40
1.0
 10
142.179479720834
 20
86.92280302462359
 30
0.0
 75
     0
  0
DIMASSOC
  5
1FA
102
{ACAD_REACTORS
330
1F9
102
}
330
1F9
100
AcDbDimAssoc
330
1F8
 90
        3
 70
     0
 71
     0
  1
AcDbOsnapPointRef
 72
    13
331
13C
 73
     2
 91
        0
 40
0.0
 10
142.179479720834
 20
86.92280302462359
 30
0.0
 75
     0
  1
AcDbOsnapPointRef
 72
     1
331
1F7
 73
     2
 91
        0
 40
1.0
 10
167.179479720834
 20
87.92280302462359
 30
0.0
 75
     0
  0
DIMASSOC
  5
20F
102
{ACAD_REACTORS
330
20E
102
}
330
20E
100
AcDbDimAssoc
330
20D
 90
        1
 70
     0
 71
     0
  1
AcDbOsnapPointRef
 72
    13
331
123
 73
     2
 91
        0
 40
0.0
 10
172.1794797208349
 20
120.4228030246236
 30
0.0
 75
     0
  0
DIMASSOC
  5
270
102
{ACAD_REACTORS
330
26F
102
}
330
26F
100
AcDbDimAssoc
330
26E
 90
        3
 70
     0
 71
     0
  1
AcDbOsnapPointRef
 72
     1
331
288
 73
     2
 91
        0
 40
3.141592653589792
 10
22.50960292813306
 20
322.3273033859673
 30
0.0
 75
     0
  1
AcDbOsnapPointRef
 72
    13
331
296
 73
     2
 91
        0
 40
0.0
 10
102.5096029281312
 20
322.3273033859673
 30
0.0
 75
     0
  0
DIMASSOC
  5
2AF
102
{ACAD_REACTORS
330
2AE
102
}
330
2AE
100
AcDbDimAssoc
330
2AD
 90
        3
 70
     0
 71
     0
  1
AcDbOsnapPointRef
 72
    13
331
C8
 73
     2
 91
        0
 40
0.0
 10
157.6242952527309
 20
326.8273033859673
 30
0.0
 75
     0
  1
AcDbOsnapPointRef
 72
     1
331
29D
 73
     2
 91
        0
 40
1.0
 10
164.624295252729
 20
325.926040727496
 30
0.0
 75
     0
  0
DIMASSOC
  5
2CF
102
{ACAD_REACTORS
330
2CE
102
}
330
2CE
100
AcDbDimAssoc
330
2CD
 90
        1
 70
     0
 71
     0
  1
AcDbOsnapPointRef
 72
    13
331
B6
 73
     2
 91
        0
 40
0.0
 10
155.624295252729
 20
323.8273033859673
 30
0.0
 75
     0
  0
MLINESTYLE
  5
9B
102
{ACAD_REACTORS
330
99
102
}
330
99
100
AcDbMlineStyle
  2
STANDARD
 70
     0
  3

 62
   256
 51
90.0
 52
90.0
 71
     2
 49
0.5
 62
   256
  6
BYLAYER
 49
-0.5
 62
   256
  6
BYLAYER
  0
ACDBPLACEHOLDER
  5
7
102
{ACAD_REACTORS
330
8
102
}
330
8
100
AcDbPlaceHolder
280
     0
  0
XRECORD
  5
400
102
{ACAD_REACTORS
330
3F6
102
}
330
3F6
100
AcDbXrecord
 90
        0
  0
XRECORD
  5
404
102
{ACAD_REACTORS
330
3F6
102
}
330
3F6
100
AcDbXrecord
1000
DSTYLE
1002
{
1070
    79
 70
     2
1070
   179
 70
     1
1070
   289
 70
     0
1002
}
  0
XRECORD
  5
401
102
{ACAD_REACTORS
330
3F6
102
}
330
3F6
100
AcDbXrecord
  1
{FDEAD578-A652-11D2-9A35-0060089B3A3F}
  0
XRECORD
  5
3F9
102
{ACAD_REACTORS
330
3F6
102
}
330
3F6
100
AcDbXrecord
  1

  0
XRECORD
  5
3FF
102
{ACAD_REACTORS
330
3F6
102
}
330
3F6
100
AcDbXrecord
 90
        4
  0
XRECORD
  5
3FB
102
{ACAD_REACTORS
330
3F6
102
}
330
3F6
100
AcDbXrecord
340
D
  0
XRECORD
  5
3FE
102
{ACAD_REACTORS
330
3F6
102
}
330
3F6
100
AcDbXrecord
 90
    10781
  0
XRECORD
  5
3FC
102
{ACAD_REACTORS
330
3F6
102
}
330
3F6
100
AcDbXrecord
340
9A
  0
XRECORD
  5
3FD
102
{ACAD_REACTORS
330
3F6
102
}
330
3F6
100
AcDbXrecord
340
8
  0
XRECORD
  5
403
102
{ACAD_REACTORS
330
3F6
102
}
330
3F6
100
AcDbXrecord
 40
0.0
  0
XRECORD
  5
407
102
{ACAD_REACTORS
330
3F6
102
}
330
3F6
100
AcDbXrecord
340
0
  0
XRECORD
  5
40D
102
{ACAD_REACTORS
330
3F6
102
}
330
3F6
100
AcDbXrecord
 10
0.0
 20
0.0
 30
0.0
  0
XRECORD
  5
409
102
{ACAD_REACTORS
330
3F6
102
}
330
3F6
100
AcDbXrecord
 10
0.0
 20
0.0
 30
0.0
  0
XRECORD
  5
40C
102
{ACAD_REACTORS
330
3F6
102
}
330
3F6
100
AcDbXrecord
 10
0.0
 20
0.0
 30
0.0
  0
XRECORD
  5
40A
102
{ACAD_REACTORS
330
3F6
102
}
330
3F6
100
AcDbXrecord
 10
0.0
 20
0.0
 30
0.0
  0
XRECORD
  5
40B
102
{ACAD_REACTORS
330
3F6
102
}
330
3F6
100
AcDbXrecord
 10
0.0
 20
0.0
 30
0.0
  0
XRECORD
  5
408
102
{ACAD_REACTORS
330
3F6
102
}
330
3F6
100
AcDbXrecord
 10
0.0
 20
0.0
 30
0.0
  0
XRECORD
  5
405
102
{ACAD_REACTORS
330
3F6
102
}
330
3F6
100
AcDbXrecord
340
0
  0
XRECORD
  5
406
102
{ACAD_REACTORS
330
3F6
102
}
330
3F6
100
AcDbXrecord
 70
     0
  0
XRECORD
  5
3FA
102
{ACAD_REACTORS
330
3F6
102
}
330
3F6
100
AcDbXrecord
  1

  0
XRECORD
  5
3F7
102
{ACAD_REACTORS
330
3F6
102
}
330
3F6
100
AcDbXrecord
 90
        1
  0
XRECORD
  5
3F8
102
{ACAD_REACTORS
330
3F6
102
}
330
3F6
100
AcDbXrecord
 90
       70
  0
XRECORD
  5
410
102
{ACAD_REACTORS
330
3F6
102
}
330
3F6
100
AcDbXrecord
340
0
  0
XRECORD
  5
416
102
{ACAD_REACTORS
330
3F6
102
}
330
3F6
100
AcDbXrecord
 10
0.0
 20
0.0
 30
0.0
  0
XRECORD
  5
412
102
{ACAD_REACTORS
330
3F6
102
}
330
3F6
100
AcDbXrecord
 10
0.0
 20
0.0
 30
0.0
  0
XRECORD
  5
415
102
{ACAD_REACTORS
330
3F6
102
}
330
3F6
100
AcDbXrecord
 10
0.0
 20
0.0
 30
0.0
  0
XRECORD
  5
413
102
{ACAD_REACTORS
330
3F6
102
}
330
3F6
100
AcDbXrecord
 10
0.0
 20
0.0
 30
0.0
  0
XRECORD
  5
414
102
{ACAD_REACTORS
330
3F6
102
}
330
3F6
100
AcDbXrecord
 10
0.0
 20
0.0
 30
0.0
  0
XRECORD
  5
411
102
{ACAD_REACTORS
330
3F6
102
}
330
3F6
100
AcDbXrecord
 10
0.0
 20
0.0
 30
0.0
  0
XRECORD
  5
40E
102
{ACAD_REACTORS
330
3F6
102
}
330
3F6
100
AcDbXrecord
340
0
  0
XRECORD
  5
40F
102
{ACAD_REACTORS
330
3F6
102
}
330
3F6
100
AcDbXrecord
 70
     0
  0
XRECORD
  5
402
102
{ACAD_REACTORS
330
3F6
102
}
330
3F6
100
AcDbXrecord
  1
{05ADF578-FC82-421B-B742-3231D2E6400C}
  0
DICTIONARYVAR
  5
2EF
102
{ACAD_REACTORS
330
2ED
102
}
330
2ED
100
DictionaryVariables
280
     0
  1
2
  0
DICTIONARYVAR
  5
2EE
102
{ACAD_REACTORS
330
2ED
102
}
330
2ED
100
DictionaryVariables
280
     0
  1
1
  0
XRECORD
  5
17
102
{ACAD_REACTORS
330
16
102
}
330
16
100
AcDbXrecord
  1
$layers
  1
*
  1
*
  1
*
 70
     0
  1
*
  1
*
  0
XRECORD
  5
18
102
{ACAD_REACTORS
330
16
102
}
330
16
100
AcDbXrecord
  1
- und 0
  1
-*,0
  1
*
  1
*
 70
     0
  1
*
  1
*
  0
XRECORD
  5
19
102
{ACAD_REACTORS
330
16
102
}
330
16
100
AcDbXrecord
  1
-pegc
  1
*-pegc
  1
*
  1
*
 70
     0
  1
*
  1
*
  0
XRECORD
  5
1A
102
{ACAD_REACTORS
330
16
102
}
330
16
100
AcDbXrecord
  1
101
  1
*101
  1
*
  1
*
 70
   256
  1
*
  1
*
  0
XRECORD
  5
1B
102
{ACAD_REACTORS
330
16
102
}
330
16
100
AcDbXrecord
  1
102
  1
102*
  1
*
  1
*
 70
     0
  1
*
  1
*
  0
XRECORD
  5
1C
102
{ACAD_REACTORS
330
16
102
}
330
16
100
AcDbXrecord
  1
1duc
  1
*1duc*
  1
*
  1
*
 70
     0
  1
*
  1
*
  0
XRECORD
  5
1D
102
{ACAD_REACTORS
330
16
102
}
330
16
100
AcDbXrecord
  1
1eq
  1
*1eq*
  1
*
  1
*
 70
     0
  1
*
  1
*
  0
XRECORD
  5
1E
102
{ACAD_REACTORS
330
16
102
}
330
16
100
AcDbXrecord
  1
1tub
  1
*1t*
  1
*
  1
*
 70
     0
  1
*
  1
*
  0
XRECORD
  5
1F
102
{ACAD_REACTORS
330
16
102
}
330
16
100
AcDbXrecord
  1
2
  1
*
  1
2
  1
*
 70
     0
  1
*
  1
*
  0
XRECORD
  5
20
102
{ACAD_REACTORS
330
16
102
}
330
16
100
AcDbXrecord
  1
2000
  1
2000*
  1
*
  1
*
 70
     0
  1
*
  1
*
  0
XRECORD
  5
21
102
{ACAD_REACTORS
330
16
102
}
330
16
100
AcDbXrecord
  1
50
  1
*-50
  1
*
  1
*
 70
     0
  1
*
  1
*
  0
XRECORD
  5
22
102
{ACAD_REACTORS
330
16
102
}
330
16
100
AcDbXrecord
  1
58J
  1
*58*
  1
*
  1
*
 70
     0
  1
*
  1
*
  0
XRECORD
  5
23
102
{ACAD_REACTORS
330
16
102
}
330
16
100
AcDbXrecord
  1
65
  1
*65
  1
*
  1
*
 70
     0
  1
*
  1
*
  0
XRECORD
  5
24
102
{ACAD_REACTORS
330
16
102
}
330
16
100
AcDbXrecord
  1
aa
  1
aa*
  1
*
  1
*
 70
     0
  1
*
  1
*
  0
XRECORD
  5
25
102
{ACAD_REACTORS
330
16
102
}
330
16
100
AcDbXrecord
  1
acabados
  1
a-*
  1
*
  1
*
 70
     5
  1
*
  1
*
  0
XRECORD
  5
26
102
{ACAD_REACTORS
330
16
102
}
330
16
100
AcDbXrecord
  1
AGUA Y DREN
  1
A-DS-*
  1
*
  1
*
 70
     0
  1
*
  1
*
  0
XRECORD
  5
27
102
{ACAD_REACTORS
330
16
102
}
330
16
100
AcDbXrecord
  1
Aire
  1
*
  1
*
  1
*
 70
     0
  1
*
  1
*
  0
XRECORD
  5
28
102
{ACAD_REACTORS
330
16
102
}
330
16
100
AcDbXrecord
  1
alle aus
  1
99999999999
  1
*
  1
*
 70
     0
  1
*
  1
*
  0
XRECORD
  5
29
102
{ACAD_REACTORS
330
16
102
}
330
16
100
AcDbXrecord
  1
Alles mit S
  1
s*
  1
*
  1
*
 70
     0
  1
*
  1
*
  0
XRECORD
  5
2A
102
{ACAD_REACTORS
330
16
102
}
330
16
100
AcDbXrecord
  1
amarillo
  1
*
  1
yellow
  1
*
 70
     0
  1
*
  1
*
  0
XRECORD
  5
2B
102
{ACAD_REACTORS
330
16
102
}
330
16
100
AcDbXrecord
  1
APAGADOS
  1
*
  1
*
  1
*
 70
     4
  1
*
  1
*
  0
XRECORD
  5
2C
102
{ACAD_REACTORS
330
16
102
}
330
16
100
AcDbXrecord
  1
ARR
  1
ARR*
  1
*
  1
*
 70
     0
  1
*
  1
*
  0
XRECORD
  5
2D
102
{ACAD_REACTORS
330
16
102
}
330
16
100
AcDbXrecord
  1
ba
  1
*
  1
*
  1
*
 70
     0
  1
*
  1
*
  0
XRECORD
  5
2E
102
{ACAD_REACTORS
330
16
102
}
330
16
100
AcDbXrecord
  1
BACKS
  1
*-H
  1
*
  1
*
 70
     0
  1
*
  1
*
  0
XRECORD
  5
2F
102
{ACAD_REACTORS
330
16
102
}
330
16
100
AcDbXrecord
  1
BASE
  1
*-PBASE
  1
*
  1
*
 70
     0
  1
*
  1
*
  0
XRECORD
  5
30
102
{ACAD_REACTORS
330
16
102
}
330
16
100
AcDbXrecord
  1
BLOQ_INUTIL
  1
*
  1
*
  1
*
 70
     0
  1
*
  1
*
  0
XRECORD
  5
31
102
{ACAD_REACTORS
330
16
102
}
330
16
100
AcDbXrecord
  1
CADKON
  1
?[KAHBSM]?????[23M],?[KAHBSM]?????[23M][1456A-DGHILN-SU-Z]
  1
*
  1
*
 70
     0
  1
*
  1
*
  0
XRECORD
  5
32
102
{ACAD_REACTORS
330
16
102
}
330
16
100
AcDbXrecord
  1
carpinteria
  1
carp*
  1
*
  1
*
 70
     0
  1
*
  1
*
  0
XRECORD
  5
33
102
{ACAD_REACTORS
330
16
102
}
330
16
100
AcDbXrecord
  1
cerrados
  1
*
  1
*
  1
*
 70
   256
  1
*
  1
*
  0
XRECORD
  5
34
102
{ACAD_REACTORS
330
16
102
}
330
16
100
AcDbXrecord
  1
COL
  1
*
  1
*
  1
*
 70
     1
  1
*
  1
*
  0
XRECORD
  5
35
102
{ACAD_REACTORS
330
16
102
}
330
16
100
AcDbXrecord
  1
COLOR
  1
*
  1
253
  1
*
 70
     0
  1
*
  1
*
  0
XRECORD
  5
36
102
{ACAD_REACTORS
330
16
102
}
330
16
100
AcDbXrecord
  1
color 250
  1
*
  1
250
  1
*
 70
     0
  1
*
  1
*
  0
XRECORD
  5
37
102
{ACAD_REACTORS
330
16
102
}
330
16
100
AcDbXrecord
  1
COLORES
  1
*
  1
6
  1
*
 70
     0
  1
*
  1
*
  0
XRECORD
  5
38
102
{ACAD_REACTORS
330
16
102
}
330
16
100
AcDbXrecord
  1
Congelados
  1
*
  1
*
  1
*
 70
     4
  1
*
  1
*
  0
XRECORD
  5
39
102
{ACAD_REACTORS
330
16
102
}
330
16
100
AcDbXrecord
  1
CONJUNTO
  1
CON-*
  1
*
  1
*
 70
     0
  1
*
  1
*
  0
XRECORD
  5
3A
102
{ACAD_REACTORS
330
16
102
}
330
16
100
AcDbXrecord
  1
d1
  1
achurados
  1
*
  1
*
 70
     0
  1
*
  1
*
  0
XRECORD
  5
3B
102
{ACAD_REACTORS
330
16
102
}
330
16
100
AcDbXrecord
  1
DA_
  1
DA*
  1
*
  1
*
 70
     0
  1
*
  1
*
  0
XRECORD
  5
3C
102
{ACAD_REACTORS
330
16
102
}
330
16
100
AcDbXrecord
  1
DET-
  1
*
  1
*
  1
*
 70
     0
  1
*
  1
*
  0
XRECORD
  5
3D
102
{ACAD_REACTORS
330
16
102
}
330
16
100
AcDbXrecord
  1
DOR-H
  1
*
  1
7
  1
*
 70
     0
  1
*
  1
*
  0
XRECORD
  5
3E
102
{ACAD_REACTORS
330
16
102
}
330
16
100
AcDbXrecord
  1
ejes
  1
eje*
  1
*
  1
*
 70
     0
  1
*
  1
*
  0
XRECORD
  5
3F
102
{ACAD_REACTORS
330
16
102
}
330
16
100
AcDbXrecord
  1
ELECTRICO
  1
ELEC-*
  1
*
  1
*
 70
     0
  1
*
  1
*
  0
XRECORD
  5
40
102
{ACAD_REACTORS
330
16
102
}
330
16
100
AcDbXrecord
  1
F1
  1
Halaxref*
  1
*
  1
*
 70
     0
  1
*
  1
*
  0
XRECORD
  5
41
102
{ACAD_REACTORS
330
16
102
}
330
16
100
AcDbXrecord
  1
frozen
  1
*
  1
*
  1
*
 70
     4
  1
*
  1
*
  0
XRECORD
  5
42
102
{ACAD_REACTORS
330
16
102
}
330
16
100
AcDbXrecord
  1
grid
  1
*-PGRID
  1
*
  1
*
 70
     1
  1
*
  1
*
  0
XRECORD
  5
43
102
{ACAD_REACTORS
330
16
102
}
330
16
100
AcDbXrecord
  1
GRIDTXT
  1
*-PGRIDT
  1
*
  1
*
 70
     0
  1
*
  1
*
  0
XRECORD
  5
44
102
{ACAD_REACTORS
330
16
102
}
330
16
100
AcDbXrecord
  1
HATCH
  1
HAT*
  1
*
  1
*
 70
     0
  1
*
  1
*
  0
XRECORD
  5
45
102
{ACAD_REACTORS
330
16
102
}
330
16
100
AcDbXrecord
  1
HCAD
  1
1HCAD-*
  1
*
  1
*
 70
    13
  1
*
  1
*
  0
XRECORD
  5
46
102
{ACAD_REACTORS
330
16
102
}
330
16
100
AcDbXrecord
  1
INSTALACIONES
  1
I-*
  1
*
  1
*
 70
     0
  1
*
  1
*
  0
XRECORD
  5
47
102
{ACAD_REACTORS
330
16
102
}
330
16
100
AcDbXrecord
  1
JIZNI
  1
*-J
  1
*
  1
*
 70
     0
  1
*
  1
*
  0
XRECORD
  5
48
102
{ACAD_REACTORS
330
16
102
}
330
16
100
AcDbXrecord
  1
kck
  1
*
  1
*
  1
*
 70
     0
  1
*
  1
*
  0
XRECORD
  5
49
102
{ACAD_REACTORS
330
16
102
}
330
16
100
AcDbXrecord
  1
kkk
  1
k
  1
*
  1
*
 70
     0
  1
*
  1
*
  0
XRECORD
  5
4A
102
{ACAD_REACTORS
330
16
102
}
330
16
100
AcDbXrecord
  1
lay
  1
??-*
  1
*
  1
*
 70
     0
  1
*
  1
*
  0
XRECORD
  5
4E
102
{ACAD_REACTORS
330
16
102
}
330
16
100
AcDbXrecord
  1
Layer-0
  1
0*
  1
*
  1
*
 70
     0
  1
*
  1
*
  0
XRECORD
  5
4F
102
{ACAD_REACTORS
330
16
102
}
330
16
100
AcDbXrecord
  1
Layer-1
  1
1*
  1
*
  1
*
 70
     0
  1
*
  1
*
  0
XRECORD
  5
4B
102
{ACAD_REACTORS
330
16
102
}
330
16
100
AcDbXrecord
  1
Layer 1 und 0
  1
1*,0
  1
*
  1
*
 70
     0
  1
*
  1
*
  0
XRECORD
  5
4C
102
{ACAD_REACTORS
330
16
102
}
330
16
100
AcDbXrecord
  1
Layer 2 und 0
  1
2*,0
  1
*
  1
*
 70
     0
  1
*
  1
*
  0
XRECORD
  5
4D
102
{ACAD_REACTORS
330
16
102
}
330
16
100
AcDbXrecord
  1
Layer 9 und 0 Schraffur
  1
9*,0
  1
*
  1
*
 70
     0
  1
*
  1
*
  0
XRECORD
  5
50
102
{ACAD_REACTORS
330
16
102
}
330
16
100
AcDbXrecord
  1
LOCK
  1
*
  1
*
  1
*
 70
   256
  1
*
  1
*
  0
XRECORD
  5
51
102
{ACAD_REACTORS
330
16
102
}
330
16
100
AcDbXrecord
  1
locked
  1
*
  1
*
  1
*
 70
   256
  1
*
  1
*
  0
XRECORD
  5
52
102
{ACAD_REACTORS
330
16
102
}
330
16
100
AcDbXrecord
  1
Lotes
  1
*
  1
*
  1
*
 70
     1
  1
*
  1
*
  0
XRECORD
  5
53
102
{ACAD_REACTORS
330
16
102
}
330
16
100
AcDbXrecord
  1
LUNAR
  1
*
  1
*
  1
*
 70
    48
  1
*
  1
*
  0
XRECORD
  5
54
102
{ACAD_REACTORS
330
16
102
}
330
16
100
AcDbXrecord
  1
LUNAR2
  1
*
  1
*
  1
*
 70
    12
  1
*
  1
*
  0
XRECORD
  5
55
102
{ACAD_REACTORS
330
16
102
}
330
16
100
AcDbXrecord
  1
M
  1
M*
  1
*
  1
*
 70
     0
  1
*
  1
*
  0
XRECORD
  5
56
102
{ACAD_REACTORS
330
16
102
}
330
16
100
AcDbXrecord
  1
mis_layers
  1
mis_*
  1
*
  1
*
 70
     0
  1
*
  1
*
  0
XRECORD
  5
57
102
{ACAD_REACTORS
330
16
102
}
330
16
100
AcDbXrecord
  1
MRKCK
  1
*
  1
*
  1
*
 70
     0
  1
*
  1
*
  0
XRECORD
  5
58
102
{ACAD_REACTORS
330
16
102
}
330
16
100
AcDbXrecord
  1
NECADKON
  1
~*?[KAHBSM]?????[23M]*
  1
*
  1
*
 70
     0
  1
*
  1
*
  0
XRECORD
  5
59
102
{ACAD_REACTORS
330
16
102
}
330
16
100
AcDbXrecord
  1
NI_LH
  1
NI_LH*
  1
*
  1
*
 70
     0
  1
*
  1
*
  0
XRECORD
  5
5A
102
{ACAD_REACTORS
330
16
102
}
330
16
100
AcDbXrecord
  1
NI_RH
  1
NI_RH*
  1
*
  1
*
 70
     0
  1
*
  1
*
  0
XRECORD
  5
5B
102
{ACAD_REACTORS
330
16
102
}
330
16
100
AcDbXrecord
  1
NUM
  1
NUM*
  1
*
  1
*
 70
     0
  1
*
  1
*
  0
XRECORD
  5
5C
102
{ACAD_REACTORS
330
16
102
}
330
16
100
AcDbXrecord
  1
off
  1
*
  1
*
  1
*
 70
     3
  1
*
  1
*
  0
XRECORD
  5
5D
102
{ACAD_REACTORS
330
16
102
}
330
16
100
AcDbXrecord
  1
on
  1
*
  1
*
  1
*
 70
     0
  1
*
  1
*
  0
XRECORD
  5
5E
102
{ACAD_REACTORS
330
16
102
}
330
16
100
AcDbXrecord
  1
PBASE
  1
*PBASE
  1
*
  1
*
 70
     0
  1
*
  1
*
  0
XRECORD
  5
5F
102
{ACAD_REACTORS
330
16
102
}
330
16
100
AcDbXrecord
  1
PEGC
  1
*PEGC
  1
*
  1
*
 70
     0
  1
*
  1
*
  0
XRECORD
  5
60
102
{ACAD_REACTORS
330
16
102
}
330
16
100
AcDbXrecord
  1
PEGCT
  1
*PEGCT
  1
*
  1
*
 70
     0
  1
*
  1
*
  0
XRECORD
  5
61
102
{ACAD_REACTORS
330
16
102
}
330
16
100
AcDbXrecord
  1
PFRAME
  1
PFRAME*
  1
*
  1
*
 70
     0
  1
*
  1
*
  0
XRECORD
  5
62
102
{ACAD_REACTORS
330
16
102
}
330
16
100
AcDbXrecord
  1
PGRID
  1
*PGRID
  1
*
  1
*
 70
     0
  1
*
  1
*
  0
XRECORD
  5
63
102
{ACAD_REACTORS
330
16
102
}
330
16
100
AcDbXrecord
  1
PGRIDT
  1
*PGRIDT
  1
*
  1
*
 70
     0
  1
*
  1
*
  0
XRECORD
  5
64
102
{ACAD_REACTORS
330
16
102
}
330
16
100
AcDbXrecord
  1
PLAFONES
  1
0-*
  1
*
  1
*
 70
     0
  1
*
  1
*
  0
XRECORD
  5
65
102
{ACAD_REACTORS
330
16
102
}
330
16
100
AcDbXrecord
  1
PLANTAS
  1
P-*
  1
*
  1
*
 70
     0
  1
*
  1
*
  0
XRECORD
  5
66
102
{ACAD_REACTORS
330
16
102
}
330
16
100
AcDbXrecord
  1
Plot
  1
*
  1
*
  1
*
 70
  1024
  1
*
  1
*
  0
XRECORD
  5
67
102
{ACAD_REACTORS
330
16
102
}
330
16
100
AcDbXrecord
  1
PRENDIDAS
  1
*
  1
*
  1
*
 70
    13
  1
*
  1
*
  0
XRECORD
  5
68
102
{ACAD_REACTORS
330
16
102
}
330
16
100
AcDbXrecord
  1
PRENDIDOS
  1
*
  1
*
  1
*
 70
    12
  1
*
  1
*
  0
XRECORD
  5
69
102
{ACAD_REACTORS
330
16
102
}
330
16
100
AcDbXrecord
  1
print
  1
*
  1
7
  1
*
 70
  1280
  1
*
  1
*
  0
XRECORD
  5
6A
102
{ACAD_REACTORS
330
16
102
}
330
16
100
AcDbXrecord
  1
PT
  1
PT-*
  1
*
  1
*
 70
     0
  1
*
  1
*
  0
XRECORD
  5
6B
102
{ACAD_REACTORS
330
16
102
}
330
16
100
AcDbXrecord
  1
PTH
  1
PTH*
  1
*
  1
*
 70
     0
  1
*
  1
*
  0
XRECORD
  5
6C
102
{ACAD_REACTORS
330
16
102
}
330
16
100
AcDbXrecord
  1
PVGRID
  1
*PVGRID
  1
*
  1
*
 70
     0
  1
*
  1
*
  0
XRECORD
  5
6D
102
{ACAD_REACTORS
330
16
102
}
330
16
100
AcDbXrecord
  1
Red de Agua Potable
  1
Red de Agua Potable
  1
*
  1
*
 70
     1
  1
*
  1
*
  0
XRECORD
  5
6E
102
{ACAD_REACTORS
330
16
102
}
330
16
100
AcDbXrecord
  1
Red de Energia Electrica
  1
Lotes
  1
*
  1
*
 70
     1
  1
*
  1
*
  0
XRECORD
  5
6F
102
{ACAD_REACTORS
330
16
102
}
330
16
100
AcDbXrecord
  1
SEVERNI
  1
*-S
  1
*
  1
*
 70
     0
  1
*
  1
*
  0
XRECORD
  5
70
102
{ACAD_REACTORS
330
16
102
}
330
16
100
AcDbXrecord
  1
shin
  1
일*
  1
*
  1
*
 70
     0
  1
*
  1
*
  0
XRECORD
  5
71
102
{ACAD_REACTORS
330
16
102
}
330
16
100
AcDbXrecord
  1
SHOW ALL LAYER
  1
*
  1
*
  1
*
 70
     0
  1
*
  1
*
  0
XRECORD
  5
72
102
{ACAD_REACTORS
330
16
102
}
330
16
100
AcDbXrecord
  1
sin
  1
sin
  1
*
  1
*
 70
     0
  1
*
  1
*
  0
XRECORD
  5
73
102
{ACAD_REACTORS
330
16
102
}
330
16
100
AcDbXrecord
  1
STORAGE-CART
  1
STORAGE-CART*
  1
*
  1
*
 70
     0
  1
*
  1
*
  0
XRECORD
  5
74
102
{ACAD_REACTORS
330
16
102
}
330
16
100
AcDbXrecord
  1
T
  1
T*
  1
*
  1
*
 70
     0
  1
*
  1
*
  0
XRECORD
  5
75
102
{ACAD_REACTORS
330
16
102
}
330
16
100
AcDbXrecord
  1
TEXTOS
  1
TXT*
  1
*
  1
*
 70
     0
  1
*
  1
*
  0
XRECORD
  5
76
102
{ACAD_REACTORS
330
16
102
}
330
16
100
AcDbXrecord
  1
TEXTURAS
  1
*TEXTURAS
  1
*
  1
*
 70
     0
  1
*
  1
*
  0
XRECORD
  5
77
102
{ACAD_REACTORS
330
16
102
}
330
16
100
AcDbXrecord
  1
TUBERIAS
  1
T*
  1
*
  1
*
 70
     0
  1
*
  1
*
  0
XRECORD
  5
78
102
{ACAD_REACTORS
330
16
102
}
330
16
100
AcDbXrecord
  1
UNFRZ
  1
*
  1
*
  1
*
 70
    12
  1
*
  1
*
  0
XRECORD
  5
79
102
{ACAD_REACTORS
330
16
102
}
330
16
100
AcDbXrecord
  1
v\U+0161echny nepou\U+017E\U+00EDvan\U+00E9
  1
*
  1
*
  1
*
 70
     0
  1
*
  1
*
  0
XRECORD
  5
7A
102
{ACAD_REACTORS
330
16
102
}
330
16
100
AcDbXrecord
  1
VA
  1
VA*
  1
*
  1
*
 70
     0
  1
*
  1
*
  0
XRECORD
  5
7B
102
{ACAD_REACTORS
330
16
102
}
330
16
100
AcDbXrecord
  1
Ventilaci\U+00F3n
  1
*
  1
*
  1
*
 70
     0
  1
*
  1
*
  0
XRECORD
  5
7C
102
{ACAD_REACTORS
330
16
102
}
330
16
100
AcDbXrecord
  1
VYHODNI
  1
*-V
  1
*
  1
*
 70
     0
  1
*
  1
*
  0
XRECORD
  5
7D
102
{ACAD_REACTORS
330
16
102
}
330
16
100
AcDbXrecord
  1
Yo
  1
Muros
  1
*
  1
*
 70
     0
  1
*
  1
*
  0
XRECORD
  5
7E
102
{ACAD_REACTORS
330
16
102
}
330
16
100
AcDbXrecord
  1
ZAPADNI
  1
*-Z
  1
*
  1
*
 70
     0
  1
*
  1
*
  0
XRECORD
  5
7F
102
{ACAD_REACTORS
330
16
102
}
330
16
100
AcDbXrecord
  1
사용
  1
*
  1
*
  1
*
 70
   256
  1
*
  1
*
  0
XRECORD
  5
80
102
{ACAD_REACTORS
330
16
102
}
330
16
100
AcDbXrecord
  1
신규
  1
신규
  1
*
  1
*
 70
     0
  1
*
  1
*
  0
XRECORD
  5
81
102
{ACAD_REACTORS
330
16
102
}
330
16
100
AcDbXrecord
  1
실박스
  1
BLO,SYM,SYM1,SYM2
  1
*
  1
*
 70
     0
  1
*
  1
*
  0
XRECORD
  5
82
102
{ACAD_REACTORS
330
16
102
}
330
16
100
AcDbXrecord
  1
우리토목
  1
w-*
  1
*
  1
*
 70
     0
  1
*
  1
*
  0
XRECORD
  5
83
102
{ACAD_REACTORS
330
16
102
}
330
16
100
AcDbXrecord
  1
주차
  1
car*
  1
*
  1
*
 70
     0
  1
*
  1
*
  0
XRECORD
  5
84
102
{ACAD_REACTORS
330
16
102
}
330
16
100
AcDbXrecord
  1
지상정밀
  1
*
  1
*
  1
*
 70
     0
  1
*
  1
*
  0
XRECORD
  5
85
102
{ACAD_REACTORS
330
16
102
}
330
16
100
AcDbXrecord
  1
쩜선
  1
*
  1
*
  1
*
 70
     0
  1
*
  1
*
  0
XRECORD
  5
86
102
{ACAD_REACTORS
330
16
102
}
330
16
100
AcDbXrecord
  1
플로터 작업층
  1
*
  1
*
  1
*
 70
  1025
  1
*
  1
*
  0
XRECORD
  5
87
102
{ACAD_REACTORS
330
16
102
}
330
16
100
AcDbXrecord
  1
현재 작업층
  1
*
  1
*
  1
*
 70
     1
  1
*
  1
*
  0
XRECORD
  5
88
102
{ACAD_REACTORS
330
16
102
}
330
16
100
AcDbXrecord
  1
현재 잠금
  1
*
  1
*
  1
*
 70
   257
  1
*
  1
*
  0
ENDSEC
  0
EOF
