  0
SECTION
  2
HEADER
  9
$ACADVER
  1
AC1014
  9
$ACADMAINTVER
 70
     9
  9
$DWGCODEPAGE
  3
ANSI_949
  9
$INSBASE
 10
0.0
 20
0.0
 30
0.0
  9
$EXTMIN
 10
-10.26928813918493
 20
-1.73309722697013
 30
-0.0015258207003583
  9
$EXTMAX
 10
288.0232131689554
 20
338.5174645412735
 30
0.0000000349246037
  9
$LIMMIN
 10
0.0
 20
0.0
  9
$LIMMAX
 10
420.0
 20
297.0
  9
$ORTHOMODE
 70
     0
  9
$REGENMODE
 70
     1
  9
$FILLMODE
 70
     1
  9
$QTEXTMODE
 70
     0
  9
$MIRRTEXT
 70
     0
  9
$DRAGMODE
 70
     2
  9
$LTSCALE
 40
0.2
  9
$OSMODE
 70
   567
  9
$ATTMODE
 70
     1
  9
$TEXTSIZE
 40
5.777225951253058
  9
$TRACEWID
 40
1.0
  9
$TEXTSTYLE
  7
STANDARD
  9
$CLAYER
  8
0
  9
$CELTYPE
  6
BYLAYER
  9
$CECOLOR
 62
   256
  9
$CELTSCALE
 40
1.0
  9
$DELOBJ
 70
     1
  9
$DISPSILH
 70
     0
  9
$DIMSCALE
 40
1.0
  9
$DIMASZ
 40
3.0
  9
$DIMEXO
 40
1.0
  9
$DIMDLI
 40
10.0
  9
$DIMRND
 40
0.0
  9
$DIMDLE
 40
0.0
  9
$DIMEXE
 40
0.6
  9
$DIMTP
 40
0.0
  9
$DIMTM
 40
0.0
  9
$DIMTXT
 40
3.5
  9
$DIMCEN
 40
0.09
  9
$DIMTSZ
 40
0.0
  9
$DIMTOL
 70
     0
  9
$DIMLIM
 70
     0
  9
$DIMTIH
 70
     0
  9
$DIMTOH
 70
     0
  9
$DIMSE1
 70
     0
  9
$DIMSE2
 70
     0
  9
$DIMTAD
 70
     1
  9
$DIMZIN
 70
     8
  9
$DIMBLK
  1

  9
$DIMASO
 70
     1
  9
$DIMSHO
 70
     1
  9
$DIMPOST
  1

  9
$DIMAPOST
  1

  9
$DIMALT
 70
     0
  9
$DIMALTD
 70
     2
  9
$DIMALTF
 40
25.4
  9
$DIMLFAC
 40
1.0
  9
$DIMTOFL
 70
     1
  9
$DIMTVP
 40
0.0
  9
$DIMTIX
 70
     1
  9
$DIMSOXD
 70
     0
  9
$DIMSAH
 70
     0
  9
$DIMBLK1
  1

  9
$DIMBLK2
  1

  9
$DIMSTYLE
  2
1_1_2
  9
$DIMCLRD
 70
   123
  9
$DIMCLRE
 70
   123
  9
$DIMCLRT
 70
     3
  9
$DIMTFAC
 40
1.0
  9
$DIMGAP
 40
1.0
  9
$DIMJUST
 70
     0
  9
$DIMSD1
 70
     0
  9
$DIMSD2
 70
     0
  9
$DIMTOLJ
 70
     1
  9
$DIMTZIN
 70
     0
  9
$DIMALTZ
 70
     0
  9
$DIMALTTZ
 70
     0
  9
$DIMFIT
 70
     0
  9
$DIMUPT
 70
     1
  9
$DIMUNIT
 70
     2
  9
$DIMDEC
 70
     2
  9
$DIMTDEC
 70
     2
  9
$DIMALTU
 70
     2
  9
$DIMALTTD
 70
     2
  9
$DIMTXSTY
  7
STANDARD
  9
$DIMAUNIT
 70
     1
  9
$LUNITS
 70
     2
  9
$LUPREC
 70
     4
  9
$SKETCHINC
 40
1.0
  9
$FILLETRAD
 40
0.5
  9
$AUNITS
 70
     0
  9
$AUPREC
 70
     0
  9
$MENU
  1
.
  9
$ELEVATION
 40
0.0
  9
$PELEVATION
 40
0.0
  9
$THICKNESS
 40
0.0
  9
$LIMCHECK
 70
     0
  9
$BLIPMODE
 70
     1
  9
$CHAMFERA
 40
1.0
  9
$CHAMFERB
 40
1.0
  9
$CHAMFERC
 40
20.0
  9
$CHAMFERD
 40
0.0
  9
$SKPOLY
 70
     0
  9
$TDCREATE
 40
2452839.586179271
  9
$TDUPDATE
 40
2453376.728368946
  9
$TDINDWG
 40
11.1160329167
  9
$TDUSRTIMER
 40
11.1160329167
  9
$USRTIMER
 70
     1
  9
$ANGBASE
 50
0.0
  9
$ANGDIR
 70
     0
  9
$PDMODE
 70
     0
  9
$PDSIZE
 40
0.0
  9
$PLINEWID
 40
0.0
  9
$COORDS
 70
     2
  9
$SPLFRAME
 70
     0
  9
$SPLINETYPE
 70
     6
  9
$SPLINESEGS
 70
   800
  9
$ATTDIA
 70
     0
  9
$ATTREQ
 70
     1
  9
$HANDLING
 70
 22529
  9
$HANDSEED
  5
3D1
  9
$SURFTAB1
 70
     6
  9
$SURFTAB2
 70
     6
  9
$SURFTYPE
 70
     6
  9
$SURFU
 70
     6
  9
$SURFV
 70
     6
  9
$UCSNAME
  2

  9
$UCSORG
 10
0.0
 20
0.0
 30
0.0
  9
$UCSXDIR
 10
1.0
 20
0.0
 30
0.0
  9
$UCSYDIR
 10
0.0
 20
1.0
 30
0.0
  9
$PUCSNAME
  2

  9
$PUCSORG
 10
0.0
 20
0.0
 30
0.0
  9
$PUCSXDIR
 10
1.0
 20
0.0
 30
0.0
  9
$PUCSYDIR
 10
0.0
 20
1.0
 30
0.0
  9
$USERI1
 70
     0
  9
$USERI2
 70
     0
  9
$USERI3
 70
     0
  9
$USERI4
 70
     0
  9
$USERI5
 70
     0
  9
$USERR1
 40
0.0
  9
$USERR2
 40
0.0
  9
$USERR3
 40
0.0
  9
$USERR4
 40
0.0
  9
$USERR5
 40
0.0
  9
$WORLDVIEW
 70
     1
  9
$SHADEDGE
 70
     3
  9
$SHADEDIF
 70
    70
  9
$TILEMODE
 70
     1
  9
$MAXACTVP
 70
    48
  9
$PINSBASE
 10
0.0
 20
0.0
 30
0.0
  9
$PLIMCHECK
 70
     0
  9
$PEXTMIN
 10
0.0
 20
0.0
 30
0.0
  9
$PEXTMAX
 10
0.0
 20
0.0
 30
0.0
  9
$PLIMMIN
 10
0.0
 20
0.0
  9
$PLIMMAX
 10
12.0
 20
9.0
  9
$UNITMODE
 70
     0
  9
$VISRETAIN
 70
     1
  9
$PLINEGEN
 70
     0
  9
$PSLTSCALE
 70
     1
  9
$TREEDEPTH
 70
  3020
  9
$PICKSTYLE
 70
     0
  9
$CMLSTYLE
  2
STANDARD
  9
$CMLJUST
 70
     0
  9
$CMLSCALE
 40
20.0
  9
$PROXYGRAPHICS
 70
     1
  9
$MEASUREMENT
 70
     1
  0
ENDSEC
  0
SECTION
  2
CLASSES
  0
CLASS
  1
ACDBDICTIONARYWDFLT
  2
AcDbDictionaryWithDefault
  3
AutoCAD 2000
 90
        0
280
     0
281
     0
  0
CLASS
  1
ACDBPLACEHOLDER
  2
AcDbPlaceHolder
  3
AutoCAD 2000
 90
        0
280
     0
281
     0
  0
CLASS
  1
LAYOUT
  2
AcDbLayout
  3
AutoCAD 2000
 90
        0
280
     0
281
     0
  0
CLASS
  1
DICTIONARYVAR
  2
AcDbDictionaryVar
  3
AutoCAD 2000
 90
        0
280
     0
281
     0
  0
CLASS
  1
DIMASSOC
  2
AcDbDimAssoc
  3
"AcDbDimAssoc|Product Desc:     AcDim ARX App For Dimension|Company:          Autodesk, Inc.|WEB Address:      www.autodesk.com"
 90
        0
280
     0
281
     0
  0
CLASS
  1
LONG_TRANSACTION
  2
AcDbLongTransaction
  3
AutoCAD 2000
 90
        0
280
     0
281
     0
  0
CLASS
  1
LWPOLYLINE
  2
AcDbPolyline
  3
AutoCAD 2000
 90
        0
280
     0
281
     1
  0
CLASS
  1
HATCH
  2
AcDbHatch
  3
AutoCAD 2000
 90
        0
280
     0
281
     1
  0
CLASS
  1
XRECORD
  2
AcDbXrecord
  3
AutoCAD 2000
 90
        0
280
     0
281
     0
  0
CLASS
  1
LONG_TRANSACTION
  2
AcDbLongTransaction
  3
AutoCAD 2000
 90
        0
280
     0
281
     0
  0
CLASS
  1
LWPOLYLINE
  2
AcDbPolyline
  3
AutoCAD 2000
 90
        0
280
     0
281
     1
  0
CLASS
  1
HATCH
  2
AcDbHatch
  3
AutoCAD 2000
 90
        0
280
     0
281
     1
  0
CLASS
  1
XRECORD
  2
AcDbXrecord
  3
AutoCAD 2000
 90
        0
280
     0
281
     0
  0
CLASS
  1
LONG_TRANSACTION
  2
AcDbLongTransaction
  3
AutoCAD 2000
 90
        0
280
     0
281
     0
  0
CLASS
  1
LWPOLYLINE
  2
AcDbPolyline
  3
AutoCAD 2000
 90
        0
280
     0
281
     1
  0
CLASS
  1
HATCH
  2
AcDbHatch
  3
AutoCAD 2000
 90
        0
280
     0
281
     1
  0
CLASS
  1
XRECORD
  2
AcDbXrecord
  3
AutoCAD 2000
 90
        0
280
     0
281
     0
  0
CLASS
  1
LONG_TRANSACTION
  2
AcDbLongTransaction
  3
AutoCAD 2000
 90
        0
280
     0
281
     0
  0
CLASS
  1
LWPOLYLINE
  2
AcDbPolyline
  3
AutoCAD 2000
 90
        0
280
     0
281
     1
  0
CLASS
  1
HATCH
  2
AcDbHatch
  3
AutoCAD 2000
 90
        0
280
     0
281
     1
  0
CLASS
  1
XRECORD
  2
AcDbXrecord
  3
AutoCAD 2000
 90
        0
280
     0
281
     0
  0
CLASS
  1
LONG_TRANSACTION
  2
AcDbLongTransaction
  3
AutoCAD 2000
 90
        0
280
     0
281
     0
  0
CLASS
  1
LWPOLYLINE
  2
AcDbPolyline
  3
AutoCAD 2000
 90
        0
280
     0
281
     1
  0
CLASS
  1
HATCH
  2
AcDbHatch
  3
AutoCAD 2000
 90
        0
280
     0
281
     1
  0
CLASS
  1
XRECORD
  2
AcDbXrecord
  3
AutoCAD 2000
 90
        0
280
     0
281
     0
  0
CLASS
  1
LONG_TRANSACTION
  2
AcDbLongTransaction
  3
AutoCAD 2000
 90
        0
280
     0
281
     0
  0
CLASS
  1
LWPOLYLINE
  2
AcDbPolyline
  3
AutoCAD 2000
 90
        0
280
     0
281
     1
  0
CLASS
  1
HATCH
  2
AcDbHatch
  3
AutoCAD 2000
 90
        0
280
     0
281
     1
  0
CLASS
  1
XRECORD
  2
AcDbXrecord
  3
AutoCAD 2000
 90
        0
280
     0
281
     0
  0
CLASS
  1
LONG_TRANSACTION
  2
AcDbLongTransaction
  3
AutoCAD 2000
 90
        0
280
     0
281
     0
  0
CLASS
  1
LWPOLYLINE
  2
AcDbPolyline
  3
AutoCAD 2000
 90
        0
280
     0
281
     1
  0
CLASS
  1
HATCH
  2
AcDbHatch
  3
AutoCAD 2000
 90
        0
280
     0
281
     1
  0
CLASS
  1
XRECORD
  2
AcDbXrecord
  3
AutoCAD 2000
 90
        0
280
     0
281
     0
  0
CLASS
  1
LONG_TRANSACTION
  2
AcDbLongTransaction
  3
AutoCAD 2000
 90
        0
280
     0
281
     0
  0
CLASS
  1
LWPOLYLINE
  2
AcDbPolyline
  3
AutoCAD 2000
 90
        0
280
     0
281
     1
  0
CLASS
  1
HATCH
  2
AcDbHatch
  3
AutoCAD 2000
 90
        0
280
     0
281
     1
  0
CLASS
  1
XRECORD
  2
AcDbXrecord
  3
AutoCAD 2000
 90
        0
280
     0
281
     0
  0
CLASS
  1
LONG_TRANSACTION
  2
AcDbLongTransaction
  3
AutoCAD 2000
 90
        0
280
     0
281
     0
  0
CLASS
  1
LWPOLYLINE
  2
AcDbPolyline
  3
AutoCAD 2000
 90
        0
280
     0
281
     1
  0
CLASS
  1
HATCH
  2
AcDbHatch
  3
AutoCAD 2000
 90
        0
280
     0
281
     1
  0
CLASS
  1
XRECORD
  2
AcDbXrecord
  3
AutoCAD 2000
 90
        0
280
     0
281
     0
  0
CLASS
  1
LONG_TRANSACTION
  2
AcDbLongTransaction
  3
AutoCAD 2000
 90
        0
280
     0
281
     0
  0
CLASS
  1
LWPOLYLINE
  2
AcDbPolyline
  3
AutoCAD 2000
 90
        0
280
     0
281
     1
  0
CLASS
  1
HATCH
  2
AcDbHatch
  3
AutoCAD 2000
 90
        0
280
     0
281
     1
  0
CLASS
  1
XRECORD
  2
AcDbXrecord
  3
AutoCAD 2000
 90
        0
280
     0
281
     0
  0
CLASS
  1
LONG_TRANSACTION
  2
AcDbLongTransaction
  3
AutoCAD 2000
 90
        0
280
     0
281
     0
  0
CLASS
  1
LWPOLYLINE
  2
AcDbPolyline
  3
AutoCAD 2000
 90
        0
280
     0
281
     1
  0
CLASS
  1
HATCH
  2
AcDbHatch
  3
AutoCAD 2000
 90
        0
280
     0
281
     1
  0
CLASS
  1
XRECORD
  2
AcDbXrecord
  3
AutoCAD 2000
 90
        0
280
     0
281
     0
  0
CLASS
  1
LONG_TRANSACTION
  2
AcDbLongTransaction
  3
AutoCAD 2000
 90
        0
280
     0
281
     0
  0
CLASS
  1
LWPOLYLINE
  2
AcDbPolyline
  3
AutoCAD 2000
 90
        0
280
     0
281
     1
  0
CLASS
  1
HATCH
  2
AcDbHatch
  3
AutoCAD 2000
 90
        0
280
     0
281
     1
  0
CLASS
  1
XRECORD
  2
AcDbXrecord
  3
AutoCAD 2000
 90
        0
280
     0
281
     0
  0
CLASS
  1
LONG_TRANSACTION
  2
AcDbLongTransaction
  3
AutoCAD 2000
 90
        0
280
     0
281
     0
  0
CLASS
  1
LWPOLYLINE
  2
AcDbPolyline
  3
AutoCAD 2000
 90
        0
280
     0
281
     1
  0
CLASS
  1
HATCH
  2
AcDbHatch
  3
AutoCAD 2000
 90
        0
280
     0
281
     1
  0
CLASS
  1
XRECORD
  2
AcDbXrecord
  3
AutoCAD 2000
 90
        0
280
     0
281
     0
  0
CLASS
  1
LONG_TRANSACTION
  2
AcDbLongTransaction
  3
AutoCAD 2000
 90
        0
280
     0
281
     0
  0
CLASS
  1
LWPOLYLINE
  2
AcDbPolyline
  3
AutoCAD 2000
 90
        0
280
     0
281
     1
  0
CLASS
  1
HATCH
  2
AcDbHatch
  3
AutoCAD 2000
 90
        0
280
     0
281
     1
  0
CLASS
  1
XRECORD
  2
AcDbXrecord
  3
AutoCAD 2000
 90
        0
280
     0
281
     0
  0
CLASS
  1
LONG_TRANSACTION
  2
AcDbLongTransaction
  3
AutoCAD 2000
 90
        0
280
     0
281
     0
  0
CLASS
  1
LWPOLYLINE
  2
AcDbPolyline
  3
AutoCAD 2000
 90
        0
280
     0
281
     1
  0
CLASS
  1
HATCH
  2
AcDbHatch
  3
AutoCAD 2000
 90
        0
280
     0
281
     1
  0
CLASS
  1
XRECORD
  2
AcDbXrecord
  3
AutoCAD 2000
 90
        0
280
     0
281
     0
  0
CLASS
  1
LONG_TRANSACTION
  2
AcDbLongTransaction
  3
AutoCAD 2000
 90
        0
280
     0
281
     0
  0
CLASS
  1
LWPOLYLINE
  2
AcDbPolyline
  3
AutoCAD 2000
 90
        0
280
     0
281
     1
  0
CLASS
  1
HATCH
  2
AcDbHatch
  3
AutoCAD 2000
 90
        0
280
     0
281
     1
  0
CLASS
  1
XRECORD
  2
AcDbXrecord
  3
AutoCAD 2000
 90
        0
280
     0
281
     0
  0
CLASS
  1
LONG_TRANSACTION
  2
AcDbLongTransaction
  3
AutoCAD 2000
 90
        0
280
     0
281
     0
  0
CLASS
  1
LWPOLYLINE
  2
AcDbPolyline
  3
AutoCAD 2000
 90
        0
280
     0
281
     1
  0
CLASS
  1
HATCH
  2
AcDbHatch
  3
AutoCAD 2000
 90
        0
280
     0
281
     1
  0
CLASS
  1
XRECORD
  2
AcDbXrecord
  3
AutoCAD 2000
 90
        0
280
     0
281
     0
  0
CLASS
  1
LONG_TRANSACTION
  2
AcDbLongTransaction
  3
AutoCAD 2000
 90
        0
280
     0
281
     0
  0
CLASS
  1
LWPOLYLINE
  2
AcDbPolyline
  3
AutoCAD 2000
 90
        0
280
     0
281
     1
  0
CLASS
  1
HATCH
  2
AcDbHatch
  3
AutoCAD 2000
 90
        0
280
     0
281
     1
  0
CLASS
  1
XRECORD
  2
AcDbXrecord
  3
AutoCAD 2000
 90
        0
280
     0
281
     0
  0
CLASS
  1
LONG_TRANSACTION
  2
AcDbLongTransaction
  3
AutoCAD 2000
 90
        0
280
     0
281
     0
  0
CLASS
  1
LWPOLYLINE
  2
AcDbPolyline
  3
AutoCAD 2000
 90
        0
280
     0
281
     1
  0
CLASS
  1
HATCH
  2
AcDbHatch
  3
AutoCAD 2000
 90
        0
280
     0
281
     1
  0
CLASS
  1
XRECORD
  2
AcDbXrecord
  3
AutoCAD 2000
 90
        0
280
     0
281
     0
  0
CLASS
  1
LONG_TRANSACTION
  2
AcDbLongTransaction
  3
AutoCAD 2000
 90
        0
280
     0
281
     0
  0
CLASS
  1
LWPOLYLINE
  2
AcDbPolyline
  3
AutoCAD 2000
 90
        0
280
     0
281
     1
  0
CLASS
  1
HATCH
  2
AcDbHatch
  3
AutoCAD 2000
 90
        0
280
     0
281
     1
  0
CLASS
  1
XRECORD
  2
AcDbXrecord
  3
AutoCAD 2000
 90
        0
280
     0
281
     0
  0
CLASS
  1
LONG_TRANSACTION
  2
AcDbLongTransaction
  3
AutoCAD 2000
 90
        0
280
     0
281
     0
  0
CLASS
  1
LWPOLYLINE
  2
AcDbPolyline
  3
AutoCAD 2000
 90
        0
280
     0
281
     1
  0
CLASS
  1
HATCH
  2
AcDbHatch
  3
AutoCAD 2000
 90
        0
280
     0
281
     1
  0
CLASS
  1
XRECORD
  2
AcDbXrecord
  3
AutoCAD 2000
 90
        0
280
     0
281
     0
  0
CLASS
  1
LONG_TRANSACTION
  2
AcDbLongTransaction
  3
AutoCAD 2000
 90
        0
280
     0
281
     0
  0
CLASS
  1
LWPOLYLINE
  2
AcDbPolyline
  3
AutoCAD 2000
 90
        0
280
     0
281
     1
  0
CLASS
  1
HATCH
  2
AcDbHatch
  3
AutoCAD 2000
 90
        0
280
     0
281
     1
  0
CLASS
  1
XRECORD
  2
AcDbXrecord
  3
AutoCAD 2000
 90
        0
280
     0
281
     0
  0
CLASS
  1
LONG_TRANSACTION
  2
AcDbLongTransaction
  3
AutoCAD 2000
 90
        0
280
     0
281
     0
  0
CLASS
  1
LWPOLYLINE
  2
AcDbPolyline
  3
AutoCAD 2000
 90
        0
280
     0
281
     1
  0
CLASS
  1
HATCH
  2
AcDbHatch
  3
AutoCAD 2000
 90
        0
280
     0
281
     1
  0
CLASS
  1
XRECORD
  2
AcDbXrecord
  3
AutoCAD 2000
 90
        0
280
     0
281
     0
  0
CLASS
  1
LONG_TRANSACTION
  2
AcDbLongTransaction
  3
AutoCAD 2000
 90
        0
280
     0
281
     0
  0
CLASS
  1
LWPOLYLINE
  2
AcDbPolyline
  3
AutoCAD 2000
 90
        0
280
     0
281
     1
  0
CLASS
  1
HATCH
  2
AcDbHatch
  3
AutoCAD 2000
 90
        0
280
     0
281
     1
  0
CLASS
  1
XRECORD
  2
AcDbXrecord
  3
AutoCAD 2000
 90
        0
280
     0
281
     0
  0
CLASS
  1
LONG_TRANSACTION
  2
AcDbLongTransaction
  3
AutoCAD 2000
 90
        0
280
     0
281
     0
  0
CLASS
  1
LWPOLYLINE
  2
AcDbPolyline
  3
AutoCAD 2000
 90
        0
280
     0
281
     1
  0
CLASS
  1
HATCH
  2
AcDbHatch
  3
AutoCAD 2000
 90
        0
280
     0
281
     1
  0
CLASS
  1
XRECORD
  2
AcDbXrecord
  3
AutoCAD 2000
 90
        0
280
     0
281
     0
  0
CLASS
  1
LONG_TRANSACTION
  2
AcDbLongTransaction
  3
AutoCAD 2000
 90
        0
280
     0
281
     0
  0
CLASS
  1
LWPOLYLINE
  2
AcDbPolyline
  3
AutoCAD 2000
 90
        0
280
     0
281
     1
  0
CLASS
  1
HATCH
  2
AcDbHatch
  3
AutoCAD 2000
 90
        0
280
     0
281
     1
  0
CLASS
  1
XRECORD
  2
AcDbXrecord
  3
AutoCAD 2000
 90
        0
280
     0
281
     0
  0
CLASS
  1
LONG_TRANSACTION
  2
AcDbLongTransaction
  3
AutoCAD 2000
 90
        0
280
     0
281
     0
  0
CLASS
  1
LWPOLYLINE
  2
AcDbPolyline
  3
AutoCAD 2000
 90
        0
280
     0
281
     1
  0
CLASS
  1
HATCH
  2
AcDbHatch
  3
AutoCAD 2000
 90
        0
280
     0
281
     1
  0
CLASS
  1
XRECORD
  2
AcDbXrecord
  3
AutoCAD 2000
 90
        0
280
     0
281
     0
  0
CLASS
  1
LONG_TRANSACTION
  2
AcDbLongTransaction
  3
AutoCAD 2000
 90
        0
280
     0
281
     0
  0
CLASS
  1
LWPOLYLINE
  2
AcDbPolyline
  3
AutoCAD 2000
 90
        0
280
     0
281
     1
  0
CLASS
  1
HATCH
  2
AcDbHatch
  3
AutoCAD 2000
 90
        0
280
     0
281
     1
  0
CLASS
  1
XRECORD
  2
AcDbXrecord
  3
AutoCAD 2000
 90
        0
280
     0
281
     0
  0
CLASS
  1
LONG_TRANSACTION
  2
AcDbLongTransaction
  3
AutoCAD 2000
 90
        0
280
     0
281
     0
  0
CLASS
  1
LWPOLYLINE
  2
AcDbPolyline
  3
AutoCAD 2000
 90
        0
280
     0
281
     1
  0
CLASS
  1
HATCH
  2
AcDbHatch
  3
AutoCAD 2000
 90
        0
280
     0
281
     1
  0
CLASS
  1
XRECORD
  2
AcDbXrecord
  3
AutoCAD 2000
 90
        0
280
     0
281
     0
  0
CLASS
  1
LONG_TRANSACTION
  2
AcDbLongTransaction
  3
AutoCAD 2000
 90
        0
280
     0
281
     0
  0
CLASS
  1
LWPOLYLINE
  2
AcDbPolyline
  3
AutoCAD 2000
 90
        0
280
     0
281
     1
  0
CLASS
  1
HATCH
  2
AcDbHatch
  3
AutoCAD 2000
 90
        0
280
     0
281
     1
  0
CLASS
  1
XRECORD
  2
AcDbXrecord
  3
AutoCAD 2000
 90
        0
280
     0
281
     0
  0
CLASS
  1
LONG_TRANSACTION
  2
AcDbLongTransaction
  3
AutoCAD 2000
 90
        0
280
     0
281
     0
  0
CLASS
  1
LWPOLYLINE
  2
AcDbPolyline
  3
AutoCAD 2000
 90
        0
280
     0
281
     1
  0
CLASS
  1
HATCH
  2
AcDbHatch
  3
AutoCAD 2000
 90
        0
280
     0
281
     1
  0
CLASS
  1
XRECORD
  2
AcDbXrecord
  3
AutoCAD 2000
 90
        0
280
     0
281
     0
  0
CLASS
  1
LONG_TRANSACTION
  2
AcDbLongTransaction
  3
AutoCAD 2000
 90
        0
280
     0
281
     0
  0
CLASS
  1
LWPOLYLINE
  2
AcDbPolyline
  3
AutoCAD 2000
 90
        0
280
     0
281
     1
  0
CLASS
  1
HATCH
  2
AcDbHatch
  3
AutoCAD 2000
 90
        0
280
     0
281
     1
  0
CLASS
  1
XRECORD
  2
AcDbXrecord
  3
AutoCAD 2000
 90
        0
280
     0
281
     0
  0
CLASS
  1
LONG_TRANSACTION
  2
AcDbLongTransaction
  3
AutoCAD 2000
 90
        0
280
     0
281
     0
  0
CLASS
  1
LWPOLYLINE
  2
AcDbPolyline
  3
AutoCAD 2000
 90
        0
280
     0
281
     1
  0
CLASS
  1
HATCH
  2
AcDbHatch
  3
AutoCAD 2000
 90
        0
280
     0
281
     1
  0
CLASS
  1
XRECORD
  2
AcDbXrecord
  3
AutoCAD 2000
 90
        0
280
     0
281
     0
  0
CLASS
  1
LONG_TRANSACTION
  2
AcDbLongTransaction
  3
AutoCAD 2000
 90
        0
280
     0
281
     0
  0
CLASS
  1
LWPOLYLINE
  2
AcDbPolyline
  3
AutoCAD 2000
 90
        0
280
     0
281
     1
  0
CLASS
  1
HATCH
  2
AcDbHatch
  3
AutoCAD 2000
 90
        0
280
     0
281
     1
  0
CLASS
  1
XRECORD
  2
AcDbXrecord
  3
AutoCAD 2000
 90
        0
280
     0
281
     0
  0
CLASS
  1
LONG_TRANSACTION
  2
AcDbLongTransaction
  3
AutoCAD 2000
 90
        0
280
     0
281
     0
  0
CLASS
  1
LWPOLYLINE
  2
AcDbPolyline
  3
AutoCAD 2000
 90
        0
280
     0
281
     1
  0
CLASS
  1
HATCH
  2
AcDbHatch
  3
AutoCAD 2000
 90
        0
280
     0
281
     1
  0
CLASS
  1
XRECORD
  2
AcDbXrecord
  3
AutoCAD 2000
 90
        0
280
     0
281
     0
  0
CLASS
  1
LONG_TRANSACTION
  2
AcDbLongTransaction
  3
AutoCAD 2000
 90
        0
280
     0
281
     0
  0
CLASS
  1
LWPOLYLINE
  2
AcDbPolyline
  3
AutoCAD 2000
 90
        0
280
     0
281
     1
  0
CLASS
  1
HATCH
  2
AcDbHatch
  3
AutoCAD 2000
 90
        0
280
     0
281
     1
  0
CLASS
  1
XRECORD
  2
AcDbXrecord
  3
AutoCAD 2000
 90
        0
280
     0
281
     0
  0
CLASS
  1
LONG_TRANSACTION
  2
AcDbLongTransaction
  3
AutoCAD 2000
 90
        0
280
     0
281
     0
  0
CLASS
  1
LWPOLYLINE
  2
AcDbPolyline
  3
AutoCAD 2000
 90
        0
280
     0
281
     1
  0
CLASS
  1
HATCH
  2
AcDbHatch
  3
AutoCAD 2000
 90
        0
280
     0
281
     1
  0
CLASS
  1
XRECORD
  2
AcDbXrecord
  3
AutoCAD 2000
 90
        0
280
     0
281
     0
  0
CLASS
  1
LONG_TRANSACTION
  2
AcDbLongTransaction
  3
AutoCAD 2000
 90
        0
280
     0
281
     0
  0
CLASS
  1
LWPOLYLINE
  2
AcDbPolyline
  3
AutoCAD 2000
 90
        0
280
     0
281
     1
  0
CLASS
  1
HATCH
  2
AcDbHatch
  3
AutoCAD 2000
 90
        0
280
     0
281
     1
  0
CLASS
  1
XRECORD
  2
AcDbXrecord
  3
AutoCAD 2000
 90
        0
280
     0
281
     0
  0
CLASS
  1
LONG_TRANSACTION
  2
AcDbLongTransaction
  3
AutoCAD 2000
 90
        0
280
     0
281
     0
  0
CLASS
  1
LWPOLYLINE
  2
AcDbPolyline
  3
AutoCAD 2000
 90
        0
280
     0
281
     1
  0
CLASS
  1
HATCH
  2
AcDbHatch
  3
AutoCAD 2000
 90
        0
280
     0
281
     1
  0
CLASS
  1
XRECORD
  2
AcDbXrecord
  3
AutoCAD 2000
 90
        0
280
     0
281
     0
  0
CLASS
  1
LONG_TRANSACTION
  2
AcDbLongTransaction
  3
AutoCAD 2000
 90
        0
280
     0
281
     0
  0
CLASS
  1
LWPOLYLINE
  2
AcDbPolyline
  3
AutoCAD 2000
 90
        0
280
     0
281
     1
  0
CLASS
  1
HATCH
  2
AcDbHatch
  3
AutoCAD 2000
 90
        0
280
     0
281
     1
  0
CLASS
  1
XRECORD
  2
AcDbXrecord
  3
AutoCAD 2000
 90
        0
280
     0
281
     0
  0
CLASS
  1
LONG_TRANSACTION
  2
AcDbLongTransaction
  3
AutoCAD 2000
 90
        0
280
     0
281
     0
  0
CLASS
  1
LWPOLYLINE
  2
AcDbPolyline
  3
AutoCAD 2000
 90
        0
280
     0
281
     1
  0
CLASS
  1
HATCH
  2
AcDbHatch
  3
AutoCAD 2000
 90
        0
280
     0
281
     1
  0
CLASS
  1
XRECORD
  2
AcDbXrecord
  3
AutoCAD 2000
 90
        0
280
     0
281
     0
  0
CLASS
  1
LONG_TRANSACTION
  2
AcDbLongTransaction
  3
AutoCAD 2000
 90
        0
280
     0
281
     0
  0
CLASS
  1
LWPOLYLINE
  2
AcDbPolyline
  3
AutoCAD 2000
 90
        0
280
     0
281
     1
  0
CLASS
  1
HATCH
  2
AcDbHatch
  3
AutoCAD 2000
 90
        0
280
     0
281
     1
  0
CLASS
  1
XRECORD
  2
AcDbXrecord
  3
AutoCAD 2000
 90
        0
280
     0
281
     0
  0
CLASS
  1
LONG_TRANSACTION
  2
AcDbLongTransaction
  3
AutoCAD 2000
 90
        0
280
     0
281
     0
  0
CLASS
  1
LWPOLYLINE
  2
AcDbPolyline
  3
AutoCAD 2000
 90
        0
280
     0
281
     1
  0
CLASS
  1
HATCH
  2
AcDbHatch
  3
AutoCAD 2000
 90
        0
280
     0
281
     1
  0
CLASS
  1
XRECORD
  2
AcDbXrecord
  3
AutoCAD 2000
 90
        0
280
     0
281
     0
  0
CLASS
  1
LONG_TRANSACTION
  2
AcDbLongTransaction
  3
AutoCAD 2000
 90
        0
280
     0
281
     0
  0
CLASS
  1
LWPOLYLINE
  2
AcDbPolyline
  3
AutoCAD 2000
 90
        0
280
     0
281
     1
  0
CLASS
  1
HATCH
  2
AcDbHatch
  3
AutoCAD 2000
 90
        0
280
     0
281
     1
  0
CLASS
  1
XRECORD
  2
AcDbXrecord
  3
AutoCAD 2000
 90
        0
280
     0
281
     0
  0
CLASS
  1
LONG_TRANSACTION
  2
AcDbLongTransaction
  3
AutoCAD 2000
 90
        0
280
     0
281
     0
  0
CLASS
  1
LWPOLYLINE
  2
AcDbPolyline
  3
AutoCAD 2000
 90
        0
280
     0
281
     1
  0
CLASS
  1
HATCH
  2
AcDbHatch
  3
AutoCAD 2000
 90
        0
280
     0
281
     1
  0
CLASS
  1
XRECORD
  2
AcDbXrecord
  3
AutoCAD 2000
 90
        0
280
     0
281
     0
  0
CLASS
  1
LONG_TRANSACTION
  2
AcDbLongTransaction
  3
AutoCAD 2000
 90
        0
280
     0
281
     0
  0
CLASS
  1
LWPOLYLINE
  2
AcDbPolyline
  3
AutoCAD 2000
 90
        0
280
     0
281
     1
  0
CLASS
  1
HATCH
  2
AcDbHatch
  3
AutoCAD 2000
 90
        0
280
     0
281
     1
  0
CLASS
  1
XRECORD
  2
AcDbXrecord
  3
AutoCAD 2000
 90
        0
280
     0
281
     0
  0
CLASS
  1
LONG_TRANSACTION
  2
AcDbLongTransaction
  3
AutoCAD 2000
 90
        0
280
     0
281
     0
  0
CLASS
  1
LWPOLYLINE
  2
AcDbPolyline
  3
AutoCAD 2000
 90
        0
280
     0
281
     1
  0
CLASS
  1
HATCH
  2
AcDbHatch
  3
AutoCAD 2000
 90
        0
280
     0
281
     1
  0
CLASS
  1
XRECORD
  2
AcDbXrecord
  3
AutoCAD 2000
 90
        0
280
     0
281
     0
  0
CLASS
  1
LONG_TRANSACTION
  2
AcDbLongTransaction
  3
AutoCAD 2000
 90
        0
280
     0
281
     0
  0
CLASS
  1
LWPOLYLINE
  2
AcDbPolyline
  3
AutoCAD 2000
 90
        0
280
     0
281
     1
  0
CLASS
  1
HATCH
  2
AcDbHatch
  3
AutoCAD 2000
 90
        0
280
     0
281
     1
  0
CLASS
  1
XRECORD
  2
AcDbXrecord
  3
AutoCAD 2000
 90
        0
280
     0
281
     0
  0
CLASS
  1
LONG_TRANSACTION
  2
AcDbLongTransaction
  3
AutoCAD 2000
 90
        0
280
     0
281
     0
  0
CLASS
  1
LWPOLYLINE
  2
AcDbPolyline
  3
AutoCAD 2000
 90
        0
280
     0
281
     1
  0
CLASS
  1
HATCH
  2
AcDbHatch
  3
AutoCAD 2000
 90
        0
280
     0
281
     1
  0
CLASS
  1
XRECORD
  2
AcDbXrecord
  3
AutoCAD 2000
 90
        0
280
     0
281
     0
  0
CLASS
  1
LONG_TRANSACTION
  2
AcDbLongTransaction
  3
AutoCAD 2000
 90
        0
280
     0
281
     0
  0
CLASS
  1
LWPOLYLINE
  2
AcDbPolyline
  3
AutoCAD 2000
 90
        0
280
     0
281
     1
  0
CLASS
  1
HATCH
  2
AcDbHatch
  3
AutoCAD 2000
 90
        0
280
     0
281
     1
  0
CLASS
  1
XRECORD
  2
AcDbXrecord
  3
AutoCAD 2000
 90
        0
280
     0
281
     0
  0
CLASS
  1
LONG_TRANSACTION
  2
AcDbLongTransaction
  3
AutoCAD 2000
 90
        0
280
     0
281
     0
  0
CLASS
  1
LWPOLYLINE
  2
AcDbPolyline
  3
AutoCAD 2000
 90
        0
280
     0
281
     1
  0
CLASS
  1
HATCH
  2
AcDbHatch
  3
AutoCAD 2000
 90
        0
280
     0
281
     1
  0
CLASS
  1
XRECORD
  2
AcDbXrecord
  3
AutoCAD 2000
 90
        0
280
     0
281
     0
  0
CLASS
  1
LONG_TRANSACTION
  2
AcDbLongTransaction
  3
AutoCAD 2000
 90
        0
280
     0
281
     0
  0
CLASS
  1
LWPOLYLINE
  2
AcDbPolyline
  3
AutoCAD 2000
 90
        0
280
     0
281
     1
  0
CLASS
  1
HATCH
  2
AcDbHatch
  3
AutoCAD 2000
 90
        0
280
     0
281
     1
  0
CLASS
  1
XRECORD
  2
AcDbXrecord
  3
AutoCAD 2000
 90
        0
280
     0
281
     0
  0
CLASS
  1
LONG_TRANSACTION
  2
AcDbLongTransaction
  3
AutoCAD 2000
 90
        0
280
     0
281
     0
  0
CLASS
  1
LWPOLYLINE
  2
AcDbPolyline
  3
AutoCAD 2000
 90
        0
280
     0
281
     1
  0
CLASS
  1
HATCH
  2
AcDbHatch
  3
AutoCAD 2000
 90
        0
280
     0
281
     1
  0
CLASS
  1
XRECORD
  2
AcDbXrecord
  3
AutoCAD 2000
 90
        0
280
     0
281
     0
  0
CLASS
  1
LONG_TRANSACTION
  2
AcDbLongTransaction
  3
AutoCAD 2000
 90
        0
280
     0
281
     0
  0
CLASS
  1
LWPOLYLINE
  2
AcDbPolyline
  3
AutoCAD 2000
 90
        0
280
     0
281
     1
  0
CLASS
  1
HATCH
  2
AcDbHatch
  3
AutoCAD 2000
 90
        0
280
     0
281
     1
  0
CLASS
  1
XRECORD
  2
AcDbXrecord
  3
AutoCAD 2000
 90
        0
280
     0
281
     0
  0
CLASS
  1
LONG_TRANSACTION
  2
AcDbLongTransaction
  3
AutoCAD 2000
 90
        0
280
     0
281
     0
  0
CLASS
  1
LWPOLYLINE
  2
AcDbPolyline
  3
AutoCAD 2000
 90
        0
280
     0
281
     1
  0
CLASS
  1
HATCH
  2
AcDbHatch
  3
AutoCAD 2000
 90
        0
280
     0
281
     1
  0
CLASS
  1
XRECORD
  2
AcDbXrecord
  3
AutoCAD 2000
 90
        0
280
     0
281
     0
  0
CLASS
  1
LONG_TRANSACTION
  2
AcDbLongTransaction
  3
AutoCAD 2000
 90
        0
280
     0
281
     0
  0
CLASS
  1
LWPOLYLINE
  2
AcDbPolyline
  3
AutoCAD 2000
 90
        0
280
     0
281
     1
  0
CLASS
  1
HATCH
  2
AcDbHatch
  3
AutoCAD 2000
 90
        0
280
     0
281
     1
  0
CLASS
  1
XRECORD
  2
AcDbXrecord
  3
AutoCAD 2000
 90
        0
280
     0
281
     0
  0
CLASS
  1
LONG_TRANSACTION
  2
AcDbLongTransaction
  3
AutoCAD 2000
 90
        0
280
     0
281
     0
  0
CLASS
  1
LWPOLYLINE
  2
AcDbPolyline
  3
AutoCAD 2000
 90
        0
280
     0
281
     1
  0
CLASS
  1
HATCH
  2
AcDbHatch
  3
AutoCAD 2000
 90
        0
280
     0
281
     1
  0
CLASS
  1
XRECORD
  2
AcDbXrecord
  3
AutoCAD 2000
 90
        0
280
     0
281
     0
  0
CLASS
  1
LONG_TRANSACTION
  2
AcDbLongTransaction
  3
AutoCAD 2000
 90
        0
280
     0
281
     0
  0
CLASS
  1
LWPOLYLINE
  2
AcDbPolyline
  3
AutoCAD 2000
 90
        0
280
     0
281
     1
  0
CLASS
  1
HATCH
  2
AcDbHatch
  3
AutoCAD 2000
 90
        0
280
     0
281
     1
  0
CLASS
  1
XRECORD
  2
AcDbXrecord
  3
AutoCAD 2000
 90
        0
280
     0
281
     0
  0
CLASS
  1
LONG_TRANSACTION
  2
AcDbLongTransaction
  3
AutoCAD 2000
 90
        0
280
     0
281
     0
  0
CLASS
  1
LWPOLYLINE
  2
AcDbPolyline
  3
AutoCAD 2000
 90
        0
280
     0
281
     1
  0
CLASS
  1
HATCH
  2
AcDbHatch
  3
AutoCAD 2000
 90
        0
280
     0
281
     1
  0
CLASS
  1
XRECORD
  2
AcDbXrecord
  3
AutoCAD 2000
 90
        0
280
     0
281
     0
  0
CLASS
  1
LONG_TRANSACTION
  2
AcDbLongTransaction
  3
AutoCAD 2000
 90
        0
280
     0
281
     0
  0
CLASS
  1
LWPOLYLINE
  2
AcDbPolyline
  3
AutoCAD 2000
 90
        0
280
     0
281
     1
  0
CLASS
  1
HATCH
  2
AcDbHatch
  3
AutoCAD 2000
 90
        0
280
     0
281
     1
  0
CLASS
  1
XRECORD
  2
AcDbXrecord
  3
AutoCAD 2000
 90
        0
280
     0
281
     0
  0
CLASS
  1
LONG_TRANSACTION
  2
AcDbLongTransaction
  3
AutoCAD 2000
 90
        0
280
     0
281
     0
  0
CLASS
  1
LWPOLYLINE
  2
AcDbPolyline
  3
AutoCAD 2000
 90
        0
280
     0
281
     1
  0
CLASS
  1
HATCH
  2
AcDbHatch
  3
AutoCAD 2000
 90
        0
280
     0
281
     1
  0
CLASS
  1
XRECORD
  2
AcDbXrecord
  3
AutoCAD 2000
 90
        0
280
     0
281
     0
  0
CLASS
  1
LONG_TRANSACTION
  2
AcDbLongTransaction
  3
AutoCAD 2000
 90
        0
280
     0
281
     0
  0
CLASS
  1
LWPOLYLINE
  2
AcDbPolyline
  3
AutoCAD 2000
 90
        0
280
     0
281
     1
  0
CLASS
  1
HATCH
  2
AcDbHatch
  3
AutoCAD 2000
 90
        0
280
     0
281
     1
  0
CLASS
  1
XRECORD
  2
AcDbXrecord
  3
AutoCAD 2000
 90
        0
280
     0
281
     0
  0
CLASS
  1
LONG_TRANSACTION
  2
AcDbLongTransaction
  3
AutoCAD 2000
 90
        0
280
     0
281
     0
  0
CLASS
  1
LWPOLYLINE
  2
AcDbPolyline
  3
AutoCAD 2000
 90
        0
280
     0
281
     1
  0
CLASS
  1
HATCH
  2
AcDbHatch
  3
AutoCAD 2000
 90
        0
280
     0
281
     1
  0
CLASS
  1
XRECORD
  2
AcDbXrecord
  3
AutoCAD 2000
 90
        0
280
     0
281
     0
  0
CLASS
  1
LONG_TRANSACTION
  2
AcDbLongTransaction
  3
AutoCAD 2000
 90
        0
280
     0
281
     0
  0
CLASS
  1
LWPOLYLINE
  2
AcDbPolyline
  3
AutoCAD 2000
 90
        0
280
     0
281
     1
  0
CLASS
  1
HATCH
  2
AcDbHatch
  3
AutoCAD 2000
 90
        0
280
     0
281
     1
  0
CLASS
  1
XRECORD
  2
AcDbXrecord
  3
AutoCAD 2000
 90
        0
280
     0
281
     0
  0
CLASS
  1
LONG_TRANSACTION
  2
AcDbLongTransaction
  3
AutoCAD 2000
 90
        0
280
     0
281
     0
  0
CLASS
  1
LWPOLYLINE
  2
AcDbPolyline
  3
AutoCAD 2000
 90
        0
280
     0
281
     1
  0
CLASS
  1
HATCH
  2
AcDbHatch
  3
AutoCAD 2000
 90
        0
280
     0
281
     1
  0
CLASS
  1
XRECORD
  2
AcDbXrecord
  3
AutoCAD 2000
 90
        0
280
     0
281
     0
  0
CLASS
  1
LONG_TRANSACTION
  2
AcDbLongTransaction
  3
AutoCAD 2000
 90
        0
280
     0
281
     0
  0
CLASS
  1
LWPOLYLINE
  2
AcDbPolyline
  3
AutoCAD 2000
 90
        0
280
     0
281
     1
  0
CLASS
  1
HATCH
  2
AcDbHatch
  3
AutoCAD 2000
 90
        0
280
     0
281
     1
  0
CLASS
  1
XRECORD
  2
AcDbXrecord
  3
AutoCAD 2000
 90
        0
280
     0
281
     0
  0
CLASS
  1
LONG_TRANSACTION
  2
AcDbLongTransaction
  3
AutoCAD 2000
 90
        0
280
     0
281
     0
  0
CLASS
  1
LWPOLYLINE
  2
AcDbPolyline
  3
AutoCAD 2000
 90
        0
280
     0
281
     1
  0
CLASS
  1
HATCH
  2
AcDbHatch
  3
AutoCAD 2000
 90
        0
280
     0
281
     1
  0
CLASS
  1
XRECORD
  2
AcDbXrecord
  3
AutoCAD 2000
 90
        0
280
     0
281
     0
  0
CLASS
  1
LONG_TRANSACTION
  2
AcDbLongTransaction
  3
AutoCAD 2000
 90
        0
280
     0
281
     0
  0
CLASS
  1
LWPOLYLINE
  2
AcDbPolyline
  3
AutoCAD 2000
 90
        0
280
     0
281
     1
  0
CLASS
  1
HATCH
  2
AcDbHatch
  3
AutoCAD 2000
 90
        0
280
     0
281
     1
  0
CLASS
  1
XRECORD
  2
AcDbXrecord
  3
AutoCAD 2000
 90
        0
280
     0
281
     0
  0
CLASS
  1
LONG_TRANSACTION
  2
AcDbLongTransaction
  3
AutoCAD 2000
 90
        0
280
     0
281
     0
  0
CLASS
  1
LWPOLYLINE
  2
AcDbPolyline
  3
AutoCAD 2000
 90
        0
280
     0
281
     1
  0
CLASS
  1
HATCH
  2
AcDbHatch
  3
AutoCAD 2000
 90
        0
280
     0
281
     1
  0
CLASS
  1
XRECORD
  2
AcDbXrecord
  3
AutoCAD 2000
 90
        0
280
     0
281
     0
  0
CLASS
  1
LONG_TRANSACTION
  2
AcDbLongTransaction
  3
AutoCAD 2000
 90
        0
280
     0
281
     0
  0
CLASS
  1
LWPOLYLINE
  2
AcDbPolyline
  3
AutoCAD 2000
 90
        0
280
     0
281
     1
  0
CLASS
  1
HATCH
  2
AcDbHatch
  3
AutoCAD 2000
 90
        0
280
     0
281
     1
  0
CLASS
  1
XRECORD
  2
AcDbXrecord
  3
AutoCAD 2000
 90
        0
280
     0
281
     0
  0
CLASS
  1
LONG_TRANSACTION
  2
AcDbLongTransaction
  3
AutoCAD 2000
 90
        0
280
     0
281
     0
  0
CLASS
  1
LWPOLYLINE
  2
AcDbPolyline
  3
AutoCAD 2000
 90
        0
280
     0
281
     1
  0
CLASS
  1
HATCH
  2
AcDbHatch
  3
AutoCAD 2000
 90
        0
280
     0
281
     1
  0
CLASS
  1
XRECORD
  2
AcDbXrecord
  3
AutoCAD 2000
 90
        0
280
     0
281
     0
  0
CLASS
  1
LONG_TRANSACTION
  2
AcDbLongTransaction
  3
AutoCAD 2000
 90
        0
280
     0
281
     0
  0
CLASS
  1
LWPOLYLINE
  2
AcDbPolyline
  3
AutoCAD 2000
 90
        0
280
     0
281
     1
  0
CLASS
  1
HATCH
  2
AcDbHatch
  3
AutoCAD 2000
 90
        0
280
     0
281
     1
  0
CLASS
  1
XRECORD
  2
AcDbXrecord
  3
AutoCAD 2000
 90
        0
280
     0
281
     0
  0
CLASS
  1
LONG_TRANSACTION
  2
AcDbLongTransaction
  3
AutoCAD 2000
 90
        0
280
     0
281
     0
  0
CLASS
  1
LWPOLYLINE
  2
AcDbPolyline
  3
AutoCAD 2000
 90
        0
280
     0
281
     1
  0
CLASS
  1
HATCH
  2
AcDbHatch
  3
AutoCAD 2000
 90
        0
280
     0
281
     1
  0
CLASS
  1
XRECORD
  2
AcDbXrecord
  3
AutoCAD 2000
 90
        0
280
     0
281
     0
  0
CLASS
  1
LONG_TRANSACTION
  2
AcDbLongTransaction
  3
AutoCAD 2000
 90
        0
280
     0
281
     0
  0
CLASS
  1
LWPOLYLINE
  2
AcDbPolyline
  3
AutoCAD 2000
 90
        0
280
     0
281
     1
  0
CLASS
  1
HATCH
  2
AcDbHatch
  3
AutoCAD 2000
 90
        0
280
     0
281
     1
  0
CLASS
  1
XRECORD
  2
AcDbXrecord
  3
AutoCAD 2000
 90
        0
280
     0
281
     0
  0
CLASS
  1
LONG_TRANSACTION
  2
AcDbLongTransaction
  3
AutoCAD 2000
 90
        0
280
     0
281
     0
  0
CLASS
  1
LWPOLYLINE
  2
AcDbPolyline
  3
AutoCAD 2000
 90
        0
280
     0
281
     1
  0
CLASS
  1
HATCH
  2
AcDbHatch
  3
AutoCAD 2000
 90
        0
280
     0
281
     1
  0
CLASS
  1
XRECORD
  2
AcDbXrecord
  3
AutoCAD 2000
 90
        0
280
     0
281
     0
  0
CLASS
  1
LONG_TRANSACTION
  2
AcDbLongTransaction
  3
AutoCAD 2000
 90
        0
280
     0
281
     0
  0
CLASS
  1
LWPOLYLINE
  2
AcDbPolyline
  3
AutoCAD 2000
 90
        0
280
     0
281
     1
  0
CLASS
  1
HATCH
  2
AcDbHatch
  3
AutoCAD 2000
 90
        0
280
     0
281
     1
  0
CLASS
  1
XRECORD
  2
AcDbXrecord
  3
AutoCAD 2000
 90
        0
280
     0
281
     0
  0
CLASS
  1
LONG_TRANSACTION
  2
AcDbLongTransaction
  3
AutoCAD 2000
 90
        0
280
     0
281
     0
  0
CLASS
  1
LWPOLYLINE
  2
AcDbPolyline
  3
AutoCAD 2000
 90
        0
280
     0
281
     1
  0
CLASS
  1
HATCH
  2
AcDbHatch
  3
AutoCAD 2000
 90
        0
280
     0
281
     1
  0
CLASS
  1
XRECORD
  2
AcDbXrecord
  3
AutoCAD 2000
 90
        0
280
     0
281
     0
  0
CLASS
  1
LONG_TRANSACTION
  2
AcDbLongTransaction
  3
AutoCAD 2000
 90
        0
280
     0
281
     0
  0
CLASS
  1
LWPOLYLINE
  2
AcDbPolyline
  3
AutoCAD 2000
 90
        0
280
     0
281
     1
  0
CLASS
  1
HATCH
  2
AcDbHatch
  3
AutoCAD 2000
 90
        0
280
     0
281
     1
  0
CLASS
  1
XRECORD
  2
AcDbXrecord
  3
AutoCAD 2000
 90
        0
280
     0
281
     0
  0
CLASS
  1
LONG_TRANSACTION
  2
AcDbLongTransaction
  3
AutoCAD 2000
 90
        0
280
     0
281
     0
  0
CLASS
  1
LWPOLYLINE
  2
AcDbPolyline
  3
AutoCAD 2000
 90
        0
280
     0
281
     1
  0
CLASS
  1
HATCH
  2
AcDbHatch
  3
AutoCAD 2000
 90
        0
280
     0
281
     1
  0
CLASS
  1
XRECORD
  2
AcDbXrecord
  3
AutoCAD 2000
 90
        0
280
     0
281
     0
  0
CLASS
  1
LONG_TRANSACTION
  2
AcDbLongTransaction
  3
AutoCAD 2000
 90
        0
280
     0
281
     0
  0
CLASS
  1
LWPOLYLINE
  2
AcDbPolyline
  3
AutoCAD 2000
 90
        0
280
     0
281
     1
  0
CLASS
  1
HATCH
  2
AcDbHatch
  3
AutoCAD 2000
 90
        0
280
     0
281
     1
  0
CLASS
  1
XRECORD
  2
AcDbXrecord
  3
AutoCAD 2000
 90
        0
280
     0
281
     0
  0
CLASS
  1
LONG_TRANSACTION
  2
AcDbLongTransaction
  3
AutoCAD 2000
 90
        0
280
     0
281
     0
  0
CLASS
  1
LWPOLYLINE
  2
AcDbPolyline
  3
AutoCAD 2000
 90
        0
280
     0
281
     1
  0
CLASS
  1
HATCH
  2
AcDbHatch
  3
AutoCAD 2000
 90
        0
280
     0
281
     1
  0
CLASS
  1
XRECORD
  2
AcDbXrecord
  3
AutoCAD 2000
 90
        0
280
     0
281
     0
  0
CLASS
  1
LONG_TRANSACTION
  2
AcDbLongTransaction
  3
AutoCAD 2000
 90
        0
280
     0
281
     0
  0
CLASS
  1
LWPOLYLINE
  2
AcDbPolyline
  3
AutoCAD 2000
 90
        0
280
     0
281
     1
  0
CLASS
  1
HATCH
  2
AcDbHatch
  3
AutoCAD 2000
 90
        0
280
     0
281
     1
  0
CLASS
  1
XRECORD
  2
AcDbXrecord
  3
AutoCAD 2000
 90
        0
280
     0
281
     0
  0
CLASS
  1
LONG_TRANSACTION
  2
AcDbLongTransaction
  3
AutoCAD 2000
 90
        0
280
     0
281
     0
  0
CLASS
  1
LWPOLYLINE
  2
AcDbPolyline
  3
AutoCAD 2000
 90
        0
280
     0
281
     1
  0
CLASS
  1
HATCH
  2
AcDbHatch
  3
AutoCAD 2000
 90
        0
280
     0
281
     1
  0
CLASS
  1
XRECORD
  2
AcDbXrecord
  3
AutoCAD 2000
 90
        0
280
     0
281
     0
  0
CLASS
  1
LONG_TRANSACTION
  2
AcDbLongTransaction
  3
AutoCAD 2000
 90
        0
280
     0
281
     0
  0
CLASS
  1
LWPOLYLINE
  2
AcDbPolyline
  3
AutoCAD 2000
 90
        0
280
     0
281
     1
  0
CLASS
  1
HATCH
  2
AcDbHatch
  3
AutoCAD 2000
 90
        0
280
     0
281
     1
  0
CLASS
  1
XRECORD
  2
AcDbXrecord
  3
AutoCAD 2000
 90
        0
280
     0
281
     0
  0
CLASS
  1
LONG_TRANSACTION
  2
AcDbLongTransaction
  3
AutoCAD 2000
 90
        0
280
     0
281
     0
  0
CLASS
  1
LWPOLYLINE
  2
AcDbPolyline
  3
AutoCAD 2000
 90
        0
280
     0
281
     1
  0
CLASS
  1
HATCH
  2
AcDbHatch
  3
AutoCAD 2000
 90
        0
280
     0
281
     1
  0
CLASS
  1
XRECORD
  2
AcDbXrecord
  3
AutoCAD 2000
 90
        0
280
     0
281
     0
  0
CLASS
  1
LONG_TRANSACTION
  2
AcDbLongTransaction
  3
AutoCAD 2000
 90
        0
280
     0
281
     0
  0
CLASS
  1
LWPOLYLINE
  2
AcDbPolyline
  3
AutoCAD 2000
 90
        0
280
     0
281
     1
  0
CLASS
  1
HATCH
  2
AcDbHatch
  3
AutoCAD 2000
 90
        0
280
     0
281
     1
  0
CLASS
  1
XRECORD
  2
AcDbXrecord
  3
AutoCAD 2000
 90
        0
280
     0
281
     0
  0
CLASS
  1
LONG_TRANSACTION
  2
AcDbLongTransaction
  3
AutoCAD 2000
 90
        0
280
     0
281
     0
  0
CLASS
  1
LWPOLYLINE
  2
AcDbPolyline
  3
AutoCAD 2000
 90
        0
280
     0
281
     1
  0
CLASS
  1
HATCH
  2
AcDbHatch
  3
AutoCAD 2000
 90
        0
280
     0
281
     1
  0
CLASS
  1
XRECORD
  2
AcDbXrecord
  3
AutoCAD 2000
 90
        0
280
     0
281
     0
  0
CLASS
  1
LONG_TRANSACTION
  2
AcDbLongTransaction
  3
AutoCAD 2000
 90
        0
280
     0
281
     0
  0
CLASS
  1
LWPOLYLINE
  2
AcDbPolyline
  3
AutoCAD 2000
 90
        0
280
     0
281
     1
  0
CLASS
  1
HATCH
  2
AcDbHatch
  3
AutoCAD 2000
 90
        0
280
     0
281
     1
  0
CLASS
  1
XRECORD
  2
AcDbXrecord
  3
AutoCAD 2000
 90
        0
280
     0
281
     0
  0
CLASS
  1
LONG_TRANSACTION
  2
AcDbLongTransaction
  3
AutoCAD 2000
 90
        0
280
     0
281
     0
  0
CLASS
  1
LWPOLYLINE
  2
AcDbPolyline
  3
AutoCAD 2000
 90
        0
280
     0
281
     1
  0
CLASS
  1
HATCH
  2
AcDbHatch
  3
AutoCAD 2000
 90
        0
280
     0
281
     1
  0
CLASS
  1
XRECORD
  2
AcDbXrecord
  3
AutoCAD 2000
 90
        0
280
     0
281
     0
  0
CLASS
  1
LONG_TRANSACTION
  2
AcDbLongTransaction
  3
AutoCAD 2000
 90
        0
280
     0
281
     0
  0
CLASS
  1
LWPOLYLINE
  2
AcDbPolyline
  3
AutoCAD 2000
 90
        0
280
     0
281
     1
  0
CLASS
  1
HATCH
  2
AcDbHatch
  3
AutoCAD 2000
 90
        0
280
     0
281
     1
  0
CLASS
  1
XRECORD
  2
AcDbXrecord
  3
AutoCAD 2000
 90
        0
280
     0
281
     0
  0
CLASS
  1
LONG_TRANSACTION
  2
AcDbLongTransaction
  3
AutoCAD 2000
 90
        0
280
     0
281
     0
  0
CLASS
  1
LWPOLYLINE
  2
AcDbPolyline
  3
AutoCAD 2000
 90
        0
280
     0
281
     1
  0
CLASS
  1
HATCH
  2
AcDbHatch
  3
AutoCAD 2000
 90
        0
280
     0
281
     1
  0
CLASS
  1
XRECORD
  2
AcDbXrecord
  3
AutoCAD 2000
 90
        0
280
     0
281
     0
  0
CLASS
  1
LONG_TRANSACTION
  2
AcDbLongTransaction
  3
AutoCAD 2000
 90
        0
280
     0
281
     0
  0
CLASS
  1
LWPOLYLINE
  2
AcDbPolyline
  3
AutoCAD 2000
 90
        0
280
     0
281
     1
  0
CLASS
  1
HATCH
  2
AcDbHatch
  3
AutoCAD 2000
 90
        0
280
     0
281
     1
  0
CLASS
  1
XRECORD
  2
AcDbXrecord
  3
AutoCAD 2000
 90
        0
280
     0
281
     0
  0
CLASS
  1
LONG_TRANSACTION
  2
AcDbLongTransaction
  3
AutoCAD 2000
 90
        0
280
     0
281
     0
  0
CLASS
  1
LWPOLYLINE
  2
AcDbPolyline
  3
AutoCAD 2000
 90
        0
280
     0
281
     1
  0
CLASS
  1
HATCH
  2
AcDbHatch
  3
AutoCAD 2000
 90
        0
280
     0
281
     1
  0
CLASS
  1
XRECORD
  2
AcDbXrecord
  3
AutoCAD 2000
 90
        0
280
     0
281
     0
  0
CLASS
  1
LONG_TRANSACTION
  2
AcDbLongTransaction
  3
AutoCAD 2000
 90
        0
280
     0
281
     0
  0
CLASS
  1
LWPOLYLINE
  2
AcDbPolyline
  3
AutoCAD 2000
 90
        0
280
     0
281
     1
  0
CLASS
  1
HATCH
  2
AcDbHatch
  3
AutoCAD 2000
 90
        0
280
     0
281
     1
  0
CLASS
  1
XRECORD
  2
AcDbXrecord
  3
AutoCAD 2000
 90
        0
280
     0
281
     0
  0
CLASS
  1
LONG_TRANSACTION
  2
AcDbLongTransaction
  3
AutoCAD 2000
 90
        0
280
     0
281
     0
  0
CLASS
  1
LWPOLYLINE
  2
AcDbPolyline
  3
AutoCAD 2000
 90
        0
280
     0
281
     1
  0
CLASS
  1
HATCH
  2
AcDbHatch
  3
AutoCAD 2000
 90
        0
280
     0
281
     1
  0
CLASS
  1
XRECORD
  2
AcDbXrecord
  3
AutoCAD 2000
 90
        0
280
     0
281
     0
  0
CLASS
  1
LONG_TRANSACTION
  2
AcDbLongTransaction
  3
AutoCAD 2000
 90
        0
280
     0
281
     0
  0
CLASS
  1
LWPOLYLINE
  2
AcDbPolyline
  3
AutoCAD 2000
 90
        0
280
     0
281
     1
  0
CLASS
  1
HATCH
  2
AcDbHatch
  3
AutoCAD 2000
 90
        0
280
     0
281
     1
  0
CLASS
  1
XRECORD
  2
AcDbXrecord
  3
AutoCAD 2000
 90
        0
280
     0
281
     0
  0
CLASS
  1
LONG_TRANSACTION
  2
AcDbLongTransaction
  3
AutoCAD 2000
 90
        0
280
     0
281
     0
  0
CLASS
  1
LWPOLYLINE
  2
AcDbPolyline
  3
AutoCAD 2000
 90
        0
280
     0
281
     1
  0
CLASS
  1
HATCH
  2
AcDbHatch
  3
AutoCAD 2000
 90
        0
280
     0
281
     1
  0
CLASS
  1
XRECORD
  2
AcDbXrecord
  3
AutoCAD 2000
 90
        0
280
     0
281
     0
  0
CLASS
  1
LONG_TRANSACTION
  2
AcDbLongTransaction
  3
AutoCAD 2000
 90
        0
280
     0
281
     0
  0
CLASS
  1
LWPOLYLINE
  2
AcDbPolyline
  3
AutoCAD 2000
 90
        0
280
     0
281
     1
  0
CLASS
  1
HATCH
  2
AcDbHatch
  3
AutoCAD 2000
 90
        0
280
     0
281
     1
  0
CLASS
  1
XRECORD
  2
AcDbXrecord
  3
AutoCAD 2000
 90
        0
280
     0
281
     0
  0
CLASS
  1
LONG_TRANSACTION
  2
AcDbLongTransaction
  3
AutoCAD 2000
 90
        0
280
     0
281
     0
  0
CLASS
  1
LWPOLYLINE
  2
AcDbPolyline
  3
AutoCAD 2000
 90
        0
280
     0
281
     1
  0
CLASS
  1
HATCH
  2
AcDbHatch
  3
AutoCAD 2000
 90
        0
280
     0
281
     1
  0
CLASS
  1
XRECORD
  2
AcDbXrecord
  3
AutoCAD 2000
 90
        0
280
     0
281
     0
  0
CLASS
  1
LONG_TRANSACTION
  2
AcDbLongTransaction
  3
AutoCAD 2000
 90
        0
280
     0
281
     0
  0
CLASS
  1
LWPOLYLINE
  2
AcDbPolyline
  3
AutoCAD 2000
 90
        0
280
     0
281
     1
  0
CLASS
  1
HATCH
  2
AcDbHatch
  3
AutoCAD 2000
 90
        0
280
     0
281
     1
  0
CLASS
  1
XRECORD
  2
AcDbXrecord
  3
AutoCAD 2000
 90
        0
280
     0
281
     0
  0
ENDSEC
  0
SECTION
  2
TABLES
  0
TABLE
  2
VPORT
  5
92
330
0
100
AcDbSymbolTable
 70
     2
  0
VPORT
  5
396
330
92
100
AcDbSymbolTableRecord
100
AcDbViewportTableRecord
  2
*ACTIVE
 70
     0
 10
0.0
 20
0.0
 11
1.0
 21
1.0
 12
138.8769625148852
 22
168.3921836571516
 13
0.0
 23
0.0
 14
10.0
 24
10.0
 15
10.0
 25
10.0
 16
0.0
 26
0.0
 36
1.0
 17
0.0
 27
0.0
 37
0.0
 40
342.8314762696462
 41
1.549367088607595
 42
50.0
 43
0.0
 44
0.0
 50
0.0
 51
0.0
 71
     0
 72
 10000
 73
     1
 74
     3
 75
     0
 76
     0
 77
     0
 78
     1
  0
ENDTAB
  0
TABLE
  2
LTYPE
  5
8D
330
0
100
AcDbSymbolTable
 70
     2
  0
LTYPE
  5
8E
330
8D
100
AcDbSymbolTableRecord
100
AcDbLinetypeTableRecord
  2
BYBLOCK
 70
     0
  3

 72
    65
 73
     0
 40
0.0
  0
LTYPE
  5
8F
330
8D
100
AcDbSymbolTableRecord
100
AcDbLinetypeTableRecord
  2
BYLAYER
 70
     0
  3

 72
    65
 73
     0
 40
0.0
  0
LTYPE
  5
A
330
8D
100
AcDbSymbolTableRecord
100
AcDbLinetypeTableRecord
  2
CONTINUOUS
 70
     0
  3
Solid line
 72
    65
 73
     0
 40
0.0
  0
LTYPE
  5
B5
330
8D
100
AcDbSymbolTableRecord
100
AcDbLinetypeTableRecord
  2
CENTER
 70
     0
  3
Center ____ _ ____ _ ____ _ ____ _ ____ _ ____
 72
    65
 73
     4
 40
50.8
 49
31.75
 74
     0
 49
-6.349999999999998
 74
     0
 49
6.349999999999998
 74
     0
 49
-6.349999999999998
 74
     0
  0
ENDTAB
  0
TABLE
  2
LAYER
  5
14
102
{ACAD_XDICTIONARY
360
15
102
}
330
0
100
AcDbSymbolTable
 70
     6
  0
LAYER
  5
6
330
14
100
AcDbSymbolTableRecord
100
AcDbLayerTableRecord
  2
0
 70
     0
 62
     7
  6
CONTINUOUS
  0
LAYER
  5
1A7
330
14
100
AcDbSymbolTableRecord
100
AcDbLayerTableRecord
  2
3
 70
     0
 62
     3
  6
CONTINUOUS
  0
LAYER
  5
AF
330
14
100
AcDbSymbolTableRecord
100
AcDbLayerTableRecord
  2
DEFPOINTS
 70
     0
 62
     7
  6
CONTINUOUS
  0
LAYER
  5
154
330
14
100
AcDbSymbolTableRecord
100
AcDbLayerTableRecord
  2
DIM
 70
     0
 62
     3
  6
CONTINUOUS
  0
LAYER
  5
B4
330
14
100
AcDbSymbolTableRecord
100
AcDbLayerTableRecord
  2
CEN
 70
     0
 62
     1
  6
CENTER
  0
LAYER
  5
1E8
330
14
100
AcDbSymbolTableRecord
100
AcDbLayerTableRecord
  2
2
 70
     0
 62
     2
  6
CONTINUOUS
  0
ENDTAB
  0
TABLE
  2
STYLE
  5
8A
330
0
100
AcDbSymbolTable
 70
     1
  0
STYLE
  5
8B
330
8A
100
AcDbSymbolTableRecord
100
AcDbTextStyleTableRecord
  2
STANDARD
 70
     0
 40
0.0
 41
1.0
 50
0.0
 71
     0
 42
5.777225951253058
  3
romans.shx
  4
whgtxt.shx
  0
ENDTAB
  0
TABLE
  2
VIEW
  5
90
330
0
100
AcDbSymbolTable
 70
     0
  0
ENDTAB
  0
TABLE
  2
UCS
  5
91
330
0
100
AcDbSymbolTable
 70
     0
  0
ENDTAB
  0
TABLE
  2
APPID
  5
94
330
0
100
AcDbSymbolTable
 70
     2
  0
APPID
  5
95
330
94
100
AcDbSymbolTableRecord
100
AcDbRegAppTableRecord
  2
ACAD
 70
     0
  0
APPID
  5
3BA
330
94
100
AcDbSymbolTableRecord
100
AcDbRegAppTableRecord
  2
CONTENTBLOCKICON
 70
     0
  0
ENDTAB
  0
TABLE
  2
DIMSTYLE
  5
96
330
0
100
AcDbSymbolTable
 70
     2
  0
DIMSTYLE
105
A6
102
{ACAD_REACTORS
330
A3
330
2A8
330
E8
330
269
330
278
330
C9
330
28A
330
23A
330
DB
330
188
330
135
330
1D0
330
1ED
330
1C0
330
10E
330
126
330
FD
330
1FE
102
}
330
96
100
AcDbSymbolTableRecord
100
AcDbDimStyleTableRecord
  2
STANDARD
 70
     0
  3

  4

  5

  6

  7

 40
1.0
 41
2.5
 42
1.0
 43
10.0
 44
0.6
 45
0.0
 46
0.0
 47
0.0
 48
0.0
140
3.0
141
0.09
142
0.0
143
25.4
144
1.0
145
0.0
146
1.0
147
1.0
 71
     0
 72
     0
 73
     0
 74
     0
 75
     0
 76
     0
 77
     1
 78
     8
170
     0
171
     2
172
     1
173
     0
174
     1
175
     0
176
   123
177
   123
178
     3
270
     2
271
     2
272
     2
273
     2
274
     2
340
8B
275
     1
280
     0
281
     0
282
     0
283
     1
284
     0
285
     0
286
     0
287
     0
288
     1
  0
DIMSTYLE
105
9C
330
96
100
AcDbSymbolTableRecord
100
AcDbDimStyleTableRecord
  2
1_1_2
 70
     0
  3

  4

  5

  6

  7

 40
1.0
 41
3.0
 42
1.0
 43
10.0
 44
0.6
 45
0.0
 46
0.0
 47
0.0
 48
0.0
140
3.5
141
0.09
142
0.0
143
25.4
144
1.0
145
0.0
146
1.0
147
1.0
 71
     0
 72
     0
 73
     0
 74
     0
 75
     0
 76
     0
 77
     1
 78
     8
170
     0
171
     2
172
     1
173
     0
174
     1
175
     0
176
   123
177
   123
178
     3
270
     2
271
     2
272
     2
273
     2
274
     2
340
8B
275
     1
280
     0
281
     0
282
     0
283
     1
284
     0
285
     0
286
     0
287
     0
288
     1
  0
ENDTAB
  0
TABLE
  2
BLOCK_RECORD
  5
1
330
0
100
AcDbSymbolTable
 70
    36
  0
BLOCK_RECORD
  5
2
102
{ACAD_XDICTIONARY
360
3
102
}
330
1
100
AcDbSymbolTableRecord
100
AcDbBlockTableRecord
  2
*MODEL_SPACE
  0
BLOCK_RECORD
  5
E
102
{ACAD_XDICTIONARY
360
F
102
}
330
1
100
AcDbSymbolTableRecord
100
AcDbBlockTableRecord
  2
*PAPER_SPACE
  0
BLOCK_RECORD
  5
A7
330
1
100
AcDbSymbolTableRecord
100
AcDbBlockTableRecord
  2
*D0
  0
BLOCK_RECORD
  5
A2
330
1
100
AcDbSymbolTableRecord
100
AcDbBlockTableRecord
  2
3
1001
ACAD
1000
DesignCenter Data
1002
{
1070
     1
1070
     4
1002
}
1001
CONTENTBLOCKICON
1071
        0
1004
2800000020000000200000000100080000000000000400000000000000000000000000000000000000000000000080000080000000808000800000008000800080800000C0C0C000C0DCC000F0CAA6000020400000206000002080000020A0000020C0000020E00000400000004020000040400000406000004080000040A0
1004
000040C0000040E00000600000006020000060400000606000006080000060A0000060C0000060E00000800000008020000080400000806000008080000080A0000080C0000080E00000A0000000A0200000A0400000A0600000A0800000A0A00000A0C00000A0E00000C0000000C0200000C0400000C0600000C0800000C0
1004
A00000C0C00000C0E00000E0000000E0200000E0400000E0600000E0800000E0A00000E0C00000E0E00040000000400020004000400040006000400080004000A0004000C0004000E00040200000402020004020400040206000402080004020A0004020C0004020E000404000004040200040404000404060004040800040
1004
40A0004040C0004040E00040600000406020004060400040606000406080004060A0004060C0004060E00040800000408020004080400040806000408080004080A0004080C0004080E00040A0000040A0200040A0400040A0600040A0800040A0A00040A0C00040A0E00040C0000040C0200040C0400040C0600040C08000
1004
40C0A00040C0C00040C0E00040E0000040E0200040E0400040E0600040E0800040E0A00040E0C00040E0E00080000000800020008000400080006000800080008000A0008000C0008000E00080200000802020008020400080206000802080008020A0008020C0008020E00080400000804020008040400080406000804080
1004
008040A0008040C0008040E00080600000806020008060400080606000806080008060A0008060C0008060E00080800000808020008080400080806000808080008080A0008080C0008080E00080A0000080A0200080A0400080A0600080A0800080A0A00080A0C00080A0E00080C0000080C0200080C0400080C0600080C0
1004
800080C0A00080C0C00080C0E00080E0000080E0200080E0400080E0600080E0800080E0A00080E0C00080E0E000C0000000C0002000C0004000C0006000C0008000C000A000C000C000C000E000C0200000C0202000C0204000C0206000C0208000C020A000C020C000C020E000C0400000C0402000C0404000C0406000C0
1004
408000C040A000C040C000C040E000C0600000C0602000C0604000C0606000C0608000C060A000C060C000C060E000C0800000C0802000C0804000C0806000C0808000C080A000C080C000C080E000C0A00000C0A02000C0A04000C0A06000C0A08000C0A0A000C0A0C000C0A0E000C0C00000C0C02000C0C04000C0C06000
1004
C0C08000C0C0A000F0FBFF00A4A0A000808080000000FF0000FF000000FFFF00FF000000FF00FF00FFFF0000FFFFFF0000000000000000000000000000000000000000000000000000000000000000000000000000000000000000000000000000000000000000000000000000000000000000000000000000000000000000
1004
00000000000000000000000000000000000000000000000000000000000000000000000000000000000000000000000000000000F90000F90000000000000000000000000000F9FFF9000000000000000000F300FFF9FF00000000000000000000000000000000F9FF00000000000000000000F3FFFFF90000000000000000
1004
00000000000000F9FFF900000000000000000000F900F30000000000000000000000000000000000000000000000000000000000000000F3F30000000000000000000000000000000000000000000000000000000000000000F30000000000000000000000000000000000000000000000000000000000000000F300000000
1004
00000000000000000000000000000000000000000000000000000000F30000000000000000000000000000000000000000000000000000000000000000F3F30000000000000000000000000000000000000000000000000000000000000000F300000000000000000000000000000000000000000000000000000000000000
1004
00F30000000000000000000000000000000000000000000000000000000000000000F30000000000000000000000000000000000000000000000000000000000000000F3F30000000000000000000000000000000000000000000000000000000000000000F300000000000000000000000000000000000000000000000000
1004
00000000000000F30000000000000000000000000000000000000000000000000000000000000000F30000000000000000000000000000000000000000000000000000000000000000F3F30000000000000000000000000000000000000000000000000000000000000000F300F900000000000000000000F900F900000000
1004
0000000000000000000000F9FFF9F300000000000000000000FFF9FF00000000000000000000000000000000FFFF00FA000000000000000000F9FFF9000000000000000000000000000000F9FFF9FAFAFA00000000000000000000000000000000000000000000000000F900000000FAFAFAF3000000000000000000000000
1004
0000000000000000000000000000000000FAFAFAFA0000000000000000000000000000000000000000000000000000000000FAFAFAF300000000000000000000000000000000000000000000000000000000000000000000000000000000000000000000000000000000000000000000000000000000000000000000000000
1004
0000000000000000000000000000000000000000000000000000000000000000000000000000000000000000000000000000000000000000
  0
BLOCK_RECORD
  5
2A9
330
1
100
AcDbSymbolTableRecord
100
AcDbBlockTableRecord
  2
*D2
  0
BLOCK_RECORD
  5
26A
330
1
100
AcDbSymbolTableRecord
100
AcDbBlockTableRecord
  2
*D3
  0
BLOCK_RECORD
  5
28B
330
1
100
AcDbSymbolTableRecord
100
AcDbBlockTableRecord
  2
*D4
  0
BLOCK_RECORD
  5
DC
330
1
100
AcDbSymbolTableRecord
100
AcDbBlockTableRecord
  2
*D5
  0
BLOCK_RECORD
  5
1EE
330
1
100
AcDbSymbolTableRecord
100
AcDbBlockTableRecord
  2
*D6
  0
BLOCK_RECORD
  5
1C1
330
1
100
AcDbSymbolTableRecord
100
AcDbBlockTableRecord
  2
*D7
  0
BLOCK_RECORD
  5
FE
330
1
100
AcDbSymbolTableRecord
100
AcDbBlockTableRecord
  2
*D8
  0
BLOCK_RECORD
  5
1FF
330
1
100
AcDbSymbolTableRecord
100
AcDbBlockTableRecord
  2
*D9
  0
BLOCK_RECORD
  5
EB
330
1
100
AcDbSymbolTableRecord
100
AcDbBlockTableRecord
  2
*D10
  0
BLOCK_RECORD
  5
27B
330
1
100
AcDbSymbolTableRecord
100
AcDbBlockTableRecord
  2
*D11
  0
BLOCK_RECORD
  5
CC
330
1
100
AcDbSymbolTableRecord
100
AcDbBlockTableRecord
  2
*D12
  0
BLOCK_RECORD
  5
23D
330
1
100
AcDbSymbolTableRecord
100
AcDbBlockTableRecord
  2
*D13
  0
BLOCK_RECORD
  5
18B
330
1
100
AcDbSymbolTableRecord
100
AcDbBlockTableRecord
  2
*D14
  0
BLOCK_RECORD
  5
138
330
1
100
AcDbSymbolTableRecord
100
AcDbBlockTableRecord
  2
*D15
  0
BLOCK_RECORD
  5
1D3
330
1
100
AcDbSymbolTableRecord
100
AcDbBlockTableRecord
  2
*D16
  0
BLOCK_RECORD
  5
111
330
1
100
AcDbSymbolTableRecord
100
AcDbBlockTableRecord
  2
*D17
  0
BLOCK_RECORD
  5
129
330
1
100
AcDbSymbolTableRecord
100
AcDbBlockTableRecord
  2
*D18
  0
BLOCK_RECORD
  5
2BE
330
1
100
AcDbSymbolTableRecord
100
AcDbBlockTableRecord
  2
*D19
  0
BLOCK_RECORD
  5
2CC
330
1
100
AcDbSymbolTableRecord
100
AcDbBlockTableRecord
  2
*D20
  0
BLOCK_RECORD
  5
2D8
330
1
100
AcDbSymbolTableRecord
100
AcDbBlockTableRecord
  2
*D21
  0
BLOCK_RECORD
  5
2E4
330
1
100
AcDbSymbolTableRecord
100
AcDbBlockTableRecord
  2
*D22
  0
BLOCK_RECORD
  5
2F2
330
1
100
AcDbSymbolTableRecord
100
AcDbBlockTableRecord
  2
*D23
  0
BLOCK_RECORD
  5
2FE
330
1
100
AcDbSymbolTableRecord
100
AcDbBlockTableRecord
  2
*D24
  0
BLOCK_RECORD
  5
30C
330
1
100
AcDbSymbolTableRecord
100
AcDbBlockTableRecord
  2
*D25
  0
BLOCK_RECORD
  5
318
330
1
100
AcDbSymbolTableRecord
100
AcDbBlockTableRecord
  2
*D26
  0
BLOCK_RECORD
  5
324
330
1
100
AcDbSymbolTableRecord
100
AcDbBlockTableRecord
  2
*D27
  0
BLOCK_RECORD
  5
330
330
1
100
AcDbSymbolTableRecord
100
AcDbBlockTableRecord
  2
*D28
  0
BLOCK_RECORD
  5
33E
330
1
100
AcDbSymbolTableRecord
100
AcDbBlockTableRecord
  2
*D29
  0
BLOCK_RECORD
  5
34C
330
1
100
AcDbSymbolTableRecord
100
AcDbBlockTableRecord
  2
*D30
  0
BLOCK_RECORD
  5
358
330
1
100
AcDbSymbolTableRecord
100
AcDbBlockTableRecord
  2
*D31
  0
BLOCK_RECORD
  5
364
330
1
100
AcDbSymbolTableRecord
100
AcDbBlockTableRecord
  2
*D32
  0
BLOCK_RECORD
  5
370
330
1
100
AcDbSymbolTableRecord
100
AcDbBlockTableRecord
  2
*D33
  0
BLOCK_RECORD
  5
37C
330
1
100
AcDbSymbolTableRecord
100
AcDbBlockTableRecord
  2
*D34
  0
BLOCK_RECORD
  5
388
330
1
100
AcDbSymbolTableRecord
100
AcDbBlockTableRecord
  2
*D35
  0
ENDTAB
  0
ENDSEC
  0
SECTION
  2
BLOCKS
  0
BLOCK
  5
5
330
2
100
AcDbEntity
  8
0
100
AcDbBlockBegin
  2
*MODEL_SPACE
 70
     0
 10
0.0
 20
0.0
 30
0.0
  3
*MODEL_SPACE
  1

  0
ENDBLK
  5
B
330
2
100
AcDbEntity
  8
0
100
AcDbBlockEnd
  0
BLOCK
  5
11
330
E
100
AcDbEntity
 67
     1
  8
0
100
AcDbBlockBegin
  2
*PAPER_SPACE
 70
     0
 10
0.0
 20
0.0
 30
0.0
  3
*PAPER_SPACE
  1

  0
ENDBLK
  5
12
330
E
100
AcDbEntity
 67
     1
  8
0
100
AcDbBlockEnd
  0
BLOCK
  5
B1
330
A7
100
AcDbEntity
  8
0
100
AcDbBlockBegin
  2
*D0
 70
     1
 10
0.0
 20
0.0
 30
0.0
  3
*D0
  1

  0
LINE
  5
A8
330
A7
100
AcDbEntity
  8
0
 62
   123
100
AcDbLine
 10
15629.80488223125
 20
-1733.340049768652
 30
0.0
 11
15627.80633318254
 21
-1734.841982423581
 31
0.0
  0
LINE
  5
A9
330
A7
100
AcDbEntity
  8
0
 62
   123
100
AcDbLine
 10
15699.35438912599
 20
-1681.072793377123
 30
0.0
 11
15717.68393897264
 21
-1667.297925313345
 31
0.0
  0
LINE
  5
AA
330
A7
100
AcDbEntity
  8
0
 62
   123
100
AcDbLine
 10
15631.80343127995
 20
-1731.838117113723
 30
0.0
 11
15697.35584007729
 21
-1682.574726032052
 31
0.0
  0
SOLID
  5
AB
330
A7
100
AcDbEntity
  8
0
 62
   123
100
AcDbTrace
 10
15629.55456012208
 20
-1733.006958260537
 30
0.0
 11
15630.0552043404
 21
-1733.673141276769
 31
0.0
 12
15631.80343127995
 22
-1731.838117113723
 32
0.0
 13
15631.80343127995
 23
-1731.838117113723
 33
0.0
  0
SOLID
  5
AC
330
A7
100
AcDbEntity
  8
0
 62
   123
100
AcDbTrace
 10
15699.10406701684
 20
-1680.739701869008
 30
0.0
 11
15699.60471123515
 21
-1681.40588488524
 31
0.0
 12
15697.35584007729
 22
-1682.574726032052
 32
0.0
 13
15697.35584007729
 23
-1682.574726032052
 33
0.0
  0
MTEXT
  5
AD
330
A7
100
AcDbEntity
  8
0
 62
     3
100
AcDbMText
 10
15708.01650591874
 20
-1671.435843969068
 30
0.0
 40
3.0
 41
0.0
 71
     5
 72
     1
  1
\A1;\U+220582%%P0.5
 11
0.7994196194798298
 21
0.6007730619715935
 31
0.0
1001
ACAD
1000
MTEXTBEGIN
1070
    73
1070
     1
1070
    44
1040
1.0
1070
    74
1070
     0
1000
MTEXTEND
  0
POINT
  5
AE
330
A7
100
AcDbEntity
  8
DEFPOINTS
 62
     0
100
AcDbPoint
 10
15697.35584007729
 20
-1682.574726032052
 30
0.0
  0
POINT
  5
B0
330
A7
100
AcDbEntity
  8
DEFPOINTS
 62
     0
100
AcDbPoint
 10
15631.80343127995
 20
-1731.838117113723
 30
0.0
  0
ENDBLK
  5
B2
330
A7
100
AcDbEntity
  8
0
100
AcDbBlockEnd
  0
BLOCK
  5
C1
330
A2
100
AcDbEntity
  8
0
100
AcDbBlockBegin
  2
3
 70
     0
 10
0.0
 20
0.0
 30
0.0
  3
3
  1

  0
DIMENSION
  5
A3
102
{ACAD_XDICTIONARY
360
A4
102
}
102
{ACAD_REACTORS
330
A5
102
}
330
A2
100
AcDbEntity
  8
0
100
AcDbDimension
  2
*D0
 10
-32.77620439867496
 20
-24.63169554083719
 30
0.0
 11
44.93880289504522
 21
33.772028555117
 31
0.0
 12
-15664.57963567861
 22
1707.206421572886
 32
0.0
 70
   131
  1
<>%%P0.5
  3
STANDARD
100
AcDbDiametricDimension
 15
32.77620439867132
 25
24.63169554083401
 35
0.0
 40
0.0
  0
ARC
  5
B3
102
{ACAD_REACTORS
330
A5
102
}
330
A2
100
AcDbEntity
  8
CEN
 48
0.6
100
AcDbCircle
 10
-0.000000000003638
 20
0.0000000000020464
 30
0.0
 40
41.0
100
AcDbArc
 50
34.15351134749203
 51
55.84648865250797
  0
LINE
  5
B6
330
A2
100
AcDbEntity
  8
CEN
 48
0.6
100
AcDbLine
 10
25.63262081800167
 20
25.63262081802145
 30
0.0
 11
32.35013523927227
 21
32.35013523929547
 31
0.0
  0
CIRCLE
  5
B7
330
A2
100
AcDbEntity
  8
0
100
AcDbCircle
 10
28.99137802863515
 20
28.99137802865948
 30
0.0
 40
2.75
  0
CIRCLE
  5
B8
330
A2
100
AcDbEntity
  8
0
100
AcDbCircle
 10
-28.99137802866608
 20
28.99137802864379
 30
0.0
 40
2.75
  0
LINE
  5
B9
330
A2
100
AcDbEntity
  8
CEN
 48
0.6
100
AcDbLine
 10
-25.63262081802895
 20
25.63262081801099
 30
0.0
 11
-32.35013523930319
 21
32.35013523928158
 31
0.0
  0
ARC
  5
BA
330
A2
100
AcDbEntity
  8
CEN
 48
0.6
100
AcDbCircle
 10
-0.0000000000090949
 20
0.0000000000047748
 30
0.0
 40
41.0
100
AcDbArc
 50
128.358356428657
 51
141.641643571353
  0
ARC
  5
BB
330
A2
100
AcDbEntity
  8
CEN
 48
0.6
100
AcDbCircle
 10
-0.0000000000127329
 20
-0.0000000000009095
 30
0.0
 40
41.0
100
AcDbArc
 50
214.1535113474919
 51
235.8464886525078
  0
CIRCLE
  5
BC
330
A2
100
AcDbEntity
  8
0
100
AcDbCircle
 10
-28.99137802865151
 20
-28.99137802865833
 30
0.0
 40
2.75
  0
LINE
  5
BD
330
A2
100
AcDbEntity
  8
CEN
 48
0.6
100
AcDbLine
 10
-25.63262081801804
 20
-25.63262081802031
 30
0.0
 11
-32.35013523928865
 21
-32.35013523929433
 31
0.0
  0
CIRCLE
  5
BE
330
A2
100
AcDbEntity
  8
0
100
AcDbCircle
 10
28.99137802865151
 20
-28.99137802864446
 30
0.0
 40
2.75
  0
LINE
  5
BF
330
A2
100
AcDbEntity
  8
CEN
 48
0.6
100
AcDbLine
 10
25.63262081801257
 20
-25.63262081801052
 30
0.0
 11
32.35013523928683
 21
-32.35013523928113
 31
0.0
  0
ARC
  5
C0
330
A2
100
AcDbEntity
  8
CEN
 48
0.6
100
AcDbCircle
 10
-0.000000000005457
 20
-0.0000000000056843
 30
0.0
 40
41.0
100
AcDbArc
 50
308.3583564286569
 51
321.6416435713529
  0
ENDBLK
  5
C2
330
A2
100
AcDbEntity
  8
0
100
AcDbBlockEnd
  0
BLOCK
  5
2B3
330
2A9
100
AcDbEntity
  8
0
100
AcDbBlockBegin
  2
*D2
 70
     1
 10
0.0
 20
0.0
 30
0.0
  3
*D2
  1

  0
LINE
  5
2AA
330
2A9
100
AcDbEntity
  8
0
 62
   123
100
AcDbLine
 10
8098.884612968362
 20
-2018.082660258869
 30
0.0
 11
8098.884612968362
 21
-2018.482660258868
 31
0.0
  0
LINE
  5
2AB
330
2A9
100
AcDbEntity
  8
0
 62
   123
100
AcDbLine
 10
8218.884612968363
 20
-2046.227746152041
 30
0.0
 11
8218.884612968363
 21
-2018.482660258868
 31
0.0
  0
LINE
  5
2AC
330
2A9
100
AcDbEntity
  8
0
 62
   123
100
AcDbLine
 10
8101.384612968365
 20
-2019.082660258868
 30
0.0
 11
8216.38461296836
 21
-2019.082660258868
 31
0.0
  0
SOLID
  5
2AD
330
2A9
100
AcDbEntity
  8
0
 62
   123
100
AcDbTrace
 10
8101.384612968365
 20
-2018.665993592202
 30
0.0
 11
8101.384612968365
 21
-2019.499326925534
 31
0.0
 12
8098.884612968362
 22
-2019.082660258868
 32
0.0
 13
8098.884612968362
 23
-2019.082660258868
 33
0.0
  0
SOLID
  5
2AE
330
2A9
100
AcDbEntity
  8
0
 62
   123
100
AcDbTrace
 10
8216.38461296836
 20
-2018.665993592202
 30
0.0
 11
8216.38461296836
 21
-2019.499326925534
 31
0.0
 12
8218.884612968363
 22
-2019.082660258868
 32
0.0
 13
8218.884612968363
 23
-2019.082660258868
 33
0.0
  0
MTEXT
  5
2AF
330
2A9
100
AcDbEntity
  8
0
 62
     3
100
AcDbMText
 10
8158.884612968362
 20
-2016.582660258869
 30
0.0
 40
3.0
 41
0.0
 71
     5
 72
     1
  1
\A1;120
1001
ACAD
1000
MTEXTBEGIN
1070
    73
1070
     1
1070
    44
1040
1.0
1070
    74
1070
     0
1000
MTEXTEND
  0
POINT
  5
2B0
330
2A9
100
AcDbEntity
  8
DEFPOINTS
 62
     0
100
AcDbPoint
 10
8098.884612968362
 20
-2019.082660258868
 30
0.0
  0
POINT
  5
2B1
330
2A9
100
AcDbEntity
  8
DEFPOINTS
 62
     0
100
AcDbPoint
 10
8218.884612968363
 20
-2047.22774615204
 30
0.0
  0
POINT
  5
2B2
330
2A9
100
AcDbEntity
  8
DEFPOINTS
 62
     0
100
AcDbPoint
 10
8218.884612968363
 20
-2019.082660258868
 30
0.0
  0
ENDBLK
  5
2B4
330
2A9
100
AcDbEntity
  8
0
100
AcDbBlockEnd
  0
BLOCK
  5
276
330
26A
100
AcDbEntity
  8
0
100
AcDbBlockBegin
  2
*D3
 70
     1
 10
0.0
 20
0.0
 30
0.0
  3
*D3
  1

  0
LINE
  5
26B
330
26A
100
AcDbEntity
  8
0
 62
   123
100
AcDbLine
 10
8096.884612968365
 20
-2044.727746152041
 30
0.0
 11
8096.884612968365
 21
-2029.103503625504
 31
0.0
  0
LINE
  5
26C
330
26A
100
AcDbEntity
  8
0
 62
   123
100
AcDbLine
 10
8098.884612968362
 20
-2041.72774615204
 30
0.0
 11
8098.884612968362
 21
-2029.103503625504
 31
0.0
  0
LINE
  5
26D
330
26A
100
AcDbEntity
  8
0
 62
   123
100
AcDbLine
 10
8101.384612968365
 20
-2029.703503625504
 30
0.0
 11
8103.884612968363
 21
-2029.703503625504
 31
0.0
  0
LINE
  5
26E
330
26A
100
AcDbEntity
  8
0
 62
   123
100
AcDbLine
 10
8094.384612968362
 20
-2029.703503625504
 30
0.0
 11
8087.884612968364
 21
-2029.703503625504
 31
0.0
  0
LINE
  5
26F
330
26A
100
AcDbEntity
  8
0
 62
   123
100
AcDbLine
 10
8098.884612968362
 20
-2029.703503625504
 30
0.0
 11
8096.884612968365
 21
-2029.703503625504
 31
0.0
  0
SOLID
  5
270
330
26A
100
AcDbEntity
  8
0
 62
   123
100
AcDbTrace
 10
8101.384612968365
 20
-2029.286836958837
 30
0.0
 11
8101.384612968365
 21
-2030.120170292171
 31
0.0
 12
8098.884612968362
 22
-2029.703503625504
 32
0.0
 13
8098.884612968362
 23
-2029.703503625504
 33
0.0
  0
SOLID
  5
271
330
26A
100
AcDbEntity
  8
0
 62
   123
100
AcDbTrace
 10
8094.384612968362
 20
-2029.286836958837
 30
0.0
 11
8094.384612968362
 21
-2030.120170292171
 31
0.0
 12
8096.884612968365
 22
-2029.703503625504
 32
0.0
 13
8096.884612968365
 23
-2029.703503625504
 33
0.0
  0
MTEXT
  5
272
330
26A
100
AcDbEntity
  8
0
 62
     3
100
AcDbMText
 10
8089.884612968363
 20
-2027.203503625504
 30
0.0
 40
3.0
 41
0.0
 71
     5
 72
     1
  1
\A1;2
1001
ACAD
1000
MTEXTBEGIN
1070
    73
1070
     1
1070
    44
1040
1.0
1070
    74
1070
     0
1000
MTEXTEND
  0
POINT
  5
273
330
26A
100
AcDbEntity
  8
DEFPOINTS
 62
     0
100
AcDbPoint
 10
8096.884612968365
 20
-2045.72774615204
 30
0.0
  0
POINT
  5
274
330
26A
100
AcDbEntity
  8
DEFPOINTS
 62
     0
100
AcDbPoint
 10
8098.884612968362
 20
-2042.727746152039
 30
0.0
  0
POINT
  5
275
330
26A
100
AcDbEntity
  8
DEFPOINTS
 62
     0
100
AcDbPoint
 10
8098.884612968362
 20
-2029.703503625504
 30
0.0
  0
ENDBLK
  5
277
330
26A
100
AcDbEntity
  8
0
100
AcDbBlockEnd
  0
BLOCK
  5
295
330
28B
100
AcDbEntity
  8
0
100
AcDbBlockBegin
  2
*D4
 70
     1
 10
0.0
 20
0.0
 30
0.0
  3
*D4
  1

  0
LINE
  5
28C
330
28B
100
AcDbEntity
  8
0
 62
   123
100
AcDbLine
 10
8085.884612968362
 20
-2074.27774615204
 30
0.0
 11
8085.884612968362
 21
-2018.482660258868
 31
0.0
  0
LINE
  5
28D
330
28B
100
AcDbEntity
  8
0
 62
   123
100
AcDbLine
 10
8098.884612968362
 20
-2041.72774615204
 30
0.0
 11
8098.884612968362
 21
-2018.482660258868
 31
0.0
  0
LINE
  5
28E
330
28B
100
AcDbEntity
  8
0
 62
   123
100
AcDbLine
 10
8088.384612968363
 20
-2019.082660258868
 30
0.0
 11
8096.384612968362
 21
-2019.082660258868
 31
0.0
  0
SOLID
  5
28F
330
28B
100
AcDbEntity
  8
0
 62
   123
100
AcDbTrace
 10
8088.384612968363
 20
-2018.665993592202
 30
0.0
 11
8088.384612968363
 21
-2019.499326925534
 31
0.0
 12
8085.884612968362
 22
-2019.082660258868
 32
0.0
 13
8085.884612968362
 23
-2019.082660258868
 33
0.0
  0
SOLID
  5
290
330
28B
100
AcDbEntity
  8
0
 62
   123
100
AcDbTrace
 10
8096.384612968362
 20
-2018.665993592202
 30
0.0
 11
8096.384612968362
 21
-2019.499326925534
 31
0.0
 12
8098.884612968362
 22
-2019.082660258868
 32
0.0
 13
8098.884612968362
 23
-2019.082660258868
 33
0.0
  0
MTEXT
  5
291
330
28B
100
AcDbEntity
  8
0
 62
     3
100
AcDbMText
 10
8092.384612968364
 20
-2016.582660258869
 30
0.0
 40
3.0
 41
0.0
 71
     5
 72
     1
  1
\A1;13
1001
ACAD
1000
MTEXTBEGIN
1070
    73
1070
     1
1070
    44
1040
1.0
1070
    74
1070
     0
1000
MTEXTEND
  0
POINT
  5
292
330
28B
100
AcDbEntity
  8
DEFPOINTS
 62
     0
100
AcDbPoint
 10
8085.884612968362
 20
-2075.277746152039
 30
0.0
  0
POINT
  5
293
330
28B
100
AcDbEntity
  8
DEFPOINTS
 62
     0
100
AcDbPoint
 10
8098.884612968362
 20
-2042.727746152039
 30
0.0
  0
POINT
  5
294
330
28B
100
AcDbEntity
  8
DEFPOINTS
 62
     0
100
AcDbPoint
 10
8098.884612968362
 20
-2019.082660258868
 30
0.0
  0
ENDBLK
  5
296
330
28B
100
AcDbEntity
  8
0
100
AcDbBlockEnd
  0
BLOCK
  5
E6
330
DC
100
AcDbEntity
  8
0
100
AcDbBlockBegin
  2
*D5
 70
     1
 10
0.0
 20
0.0
 30
0.0
  3
*D5
  1

  0
LINE
  5
DD
330
DC
100
AcDbEntity
  8
0
 62
   123
100
AcDbLine
 10
8215.884612968363
 20
-2042.727746152039
 30
0.0
 11
8233.640832908609
 21
-2042.727746152039
 31
0.0
  0
LINE
  5
DE
330
DC
100
AcDbEntity
  8
0
 62
   123
100
AcDbLine
 10
8215.884612968363
 20
-2112.727746152038
 30
0.0
 11
8233.640832908609
 21
-2112.727746152038
 31
0.0
  0
LINE
  5
DF
330
DC
100
AcDbEntity
  8
0
 62
   123
100
AcDbLine
 10
8233.040832908605
 20
-2045.227746152038
 30
0.0
 11
8233.040832908605
 21
-2110.227746152039
 31
0.0
  0
SOLID
  5
E0
330
DC
100
AcDbEntity
  8
0
 62
   123
100
AcDbTrace
 10
8232.624166241942
 20
-2045.227746152038
 30
0.0
 11
8233.457499575271
 21
-2045.227746152038
 31
0.0
 12
8233.040832908605
 22
-2042.727746152039
 32
0.0
 13
8233.040832908605
 23
-2042.727746152039
 33
0.0
  0
SOLID
  5
E1
330
DC
100
AcDbEntity
  8
0
 62
   123
100
AcDbTrace
 10
8232.624166241942
 20
-2110.227746152039
 30
0.0
 11
8233.457499575271
 21
-2110.227746152039
 31
0.0
 12
8233.040832908605
 22
-2112.727746152038
 32
0.0
 13
8233.040832908605
 23
-2112.727746152038
 33
0.0
  0
MTEXT
  5
E2
330
DC
100
AcDbEntity
  8
0
 62
     3
100
AcDbMText
 10
8230.540832908607
 20
-2077.72774615204
 30
0.0
 40
3.0
 41
0.0
 71
     5
 72
     1
  1
\A1;%%C70
 11
0.0000000000000001
 21
1.0
 31
0.0
1001
ACAD
1000
MTEXTBEGIN
1070
    73
1070
     1
1070
    44
1040
1.0
1070
    74
1070
     0
1000
MTEXTEND
  0
POINT
  5
E3
330
DC
100
AcDbEntity
  8
DEFPOINTS
 62
     0
100
AcDbPoint
 10
8214.884612968363
 20
-2042.727746152039
 30
0.0
  0
POINT
  5
E4
330
DC
100
AcDbEntity
  8
DEFPOINTS
 62
     0
100
AcDbPoint
 10
8214.884612968363
 20
-2112.727746152038
 30
0.0
  0
POINT
  5
E5
330
DC
100
AcDbEntity
  8
DEFPOINTS
 62
     0
100
AcDbPoint
 10
8233.040832908605
 20
-2112.727746152038
 30
0.0
  0
ENDBLK
  5
E7
330
DC
100
AcDbEntity
  8
0
100
AcDbBlockEnd
  0
BLOCK
  5
1FA
330
1EE
100
AcDbEntity
  8
0
100
AcDbBlockBegin
  2
*D6
 70
     1
 10
0.0
 20
0.0
 30
0.0
  3
*D6
  1

  0
LINE
  5
1EF
330
1EE
100
AcDbEntity
  8
0
 62
   123
100
AcDbLine
 10
8119.526198773817
 20
-2227.064357611706
 30
0.0
 11
8119.526198773817
 21
-2213.179754016136
 31
0.0
  0
LINE
  5
1F0
330
1EE
100
AcDbEntity
  8
0
 62
   123
100
AcDbLine
 10
8121.526198773819
 20
-2224.064357611707
 30
0.0
 11
8121.526198773819
 21
-2213.179754016136
 31
0.0
  0
LINE
  5
1F1
330
1EE
100
AcDbEntity
  8
0
 62
   123
100
AcDbLine
 10
8124.026198773817
 20
-2213.779754016135
 30
0.0
 11
8126.526198773817
 21
-2213.779754016135
 31
0.0
  0
LINE
  5
1F2
330
1EE
100
AcDbEntity
  8
0
 62
   123
100
AcDbLine
 10
8117.026198773817
 20
-2213.779754016135
 30
0.0
 11
8110.526198773817
 21
-2213.779754016135
 31
0.0
  0
LINE
  5
1F3
330
1EE
100
AcDbEntity
  8
0
 62
   123
100
AcDbLine
 10
8121.526198773819
 20
-2213.779754016135
 30
0.0
 11
8119.526198773817
 21
-2213.779754016135
 31
0.0
  0
SOLID
  5
1F4
330
1EE
100
AcDbEntity
  8
0
 62
   123
100
AcDbTrace
 10
8124.026198773817
 20
-2213.363087349469
 30
0.0
 11
8124.026198773817
 21
-2214.196420682802
 31
0.0
 12
8121.526198773819
 22
-2213.779754016135
 32
0.0
 13
8121.526198773819
 23
-2213.779754016135
 33
0.0
  0
SOLID
  5
1F5
330
1EE
100
AcDbEntity
  8
0
 62
   123
100
AcDbTrace
 10
8117.026198773817
 20
-2213.363087349469
 30
0.0
 11
8117.026198773817
 21
-2214.196420682802
 31
0.0
 12
8119.526198773817
 22
-2213.779754016135
 32
0.0
 13
8119.526198773817
 23
-2213.779754016135
 33
0.0
  0
MTEXT
  5
1F6
330
1EE
100
AcDbEntity
  8
0
 62
     3
100
AcDbMText
 10
8112.526198773817
 20
-2211.279754016135
 30
0.0
 40
3.0
 41
0.0
 71
     5
 72
     1
  1
\A1;2
1001
ACAD
1000
MTEXTBEGIN
1070
    73
1070
     1
1070
    44
1040
1.0
1070
    74
1070
     0
1000
MTEXTEND
  0
POINT
  5
1F7
330
1EE
100
AcDbEntity
  8
DEFPOINTS
 62
     0
100
AcDbPoint
 10
8119.526198773817
 20
-2228.064357611706
 30
0.0
  0
POINT
  5
1F8
330
1EE
100
AcDbEntity
  8
DEFPOINTS
 62
     0
100
AcDbPoint
 10
8121.526198773819
 20
-2225.064357611706
 30
0.0
  0
POINT
  5
1F9
330
1EE
100
AcDbEntity
  8
DEFPOINTS
 62
     0
100
AcDbPoint
 10
8121.526198773819
 20
-2213.779754016135
 30
0.0
  0
ENDBLK
  5
1FB
330
1EE
100
AcDbEntity
  8
0
100
AcDbBlockEnd
  0
BLOCK
  5
1CB
330
1C1
100
AcDbEntity
  8
0
100
AcDbBlockBegin
  2
*D7
 70
     1
 10
0.0
 20
0.0
 30
0.0
  3
*D7
  1

  0
LINE
  5
1C2
330
1C1
100
AcDbEntity
  8
0
 62
   123
100
AcDbLine
 10
8121.526198773819
 20
-2202.514243481294
 30
0.0
 11
8121.526198773819
 21
-2202.914243481294
 31
0.0
  0
LINE
  5
1C3
330
1C1
100
AcDbEntity
  8
0
 62
   123
100
AcDbLine
 10
8241.526198773817
 20
-2228.564357611706
 30
0.0
 11
8241.526198773817
 21
-2202.914243481294
 31
0.0
  0
LINE
  5
1C4
330
1C1
100
AcDbEntity
  8
0
 62
   123
100
AcDbLine
 10
8124.026198773817
 20
-2203.514243481293
 30
0.0
 11
8239.026198773816
 21
-2203.514243481293
 31
0.0
  0
SOLID
  5
1C5
330
1C1
100
AcDbEntity
  8
0
 62
   123
100
AcDbTrace
 10
8124.026198773817
 20
-2203.097576814627
 30
0.0
 11
8124.026198773817
 21
-2203.93091014796
 31
0.0
 12
8121.526198773819
 22
-2203.514243481293
 32
0.0
 13
8121.526198773819
 23
-2203.514243481293
 33
0.0
  0
SOLID
  5
1C6
330
1C1
100
AcDbEntity
  8
0
 62
   123
100
AcDbTrace
 10
8239.026198773816
 20
-2203.097576814627
 30
0.0
 11
8239.026198773816
 21
-2203.93091014796
 31
0.0
 12
8241.526198773817
 22
-2203.514243481293
 32
0.0
 13
8241.526198773817
 23
-2203.514243481293
 33
0.0
  0
MTEXT
  5
1C7
330
1C1
100
AcDbEntity
  8
0
 62
     3
100
AcDbMText
 10
8181.526198773815
 20
-2201.014243481294
 30
0.0
 40
3.0
 41
0.0
 71
     5
 72
     1
  1
\A1;120
1001
ACAD
1000
MTEXTBEGIN
1070
    73
1070
     1
1070
    44
1040
1.0
1070
    74
1070
     0
1000
MTEXTEND
  0
POINT
  5
1C8
330
1C1
100
AcDbEntity
  8
DEFPOINTS
 62
     0
100
AcDbPoint
 10
8121.526198773819
 20
-2203.514243481293
 30
0.0
  0
POINT
  5
1C9
330
1C1
100
AcDbEntity
  8
DEFPOINTS
 62
     0
100
AcDbPoint
 10
8241.526198773817
 20
-2229.564357611706
 30
0.0
  0
POINT
  5
1CA
330
1C1
100
AcDbEntity
  8
DEFPOINTS
 62
     0
100
AcDbPoint
 10
8241.526198773817
 20
-2203.514243481293
 30
0.0
  0
ENDBLK
  5
1CC
330
1C1
100
AcDbEntity
  8
0
100
AcDbBlockEnd
  0
BLOCK
  5
108
330
FE
100
AcDbEntity
  8
0
100
AcDbBlockBegin
  2
*D8
 70
     1
 10
0.0
 20
0.0
 30
0.0
  3
*D8
  1

  0
LINE
  5
FF
330
FE
100
AcDbEntity
  8
0
 62
   123
100
AcDbLine
 10
8238.526198773817
 20
-2225.064357611706
 30
0.0
 11
8256.282418714059
 21
-2225.064357611706
 31
0.0
  0
LINE
  5
100
330
FE
100
AcDbEntity
  8
0
 62
   123
100
AcDbLine
 10
8238.526198773817
 20
-2295.064357611706
 30
0.0
 11
8256.282418714059
 21
-2295.064357611706
 31
0.0
  0
LINE
  5
101
330
FE
100
AcDbEntity
  8
0
 62
   123
100
AcDbLine
 10
8255.682418714059
 20
-2227.564357611706
 30
0.0
 11
8255.682418714059
 21
-2292.564357611706
 31
0.0
  0
SOLID
  5
102
330
FE
100
AcDbEntity
  8
0
 62
   123
100
AcDbTrace
 10
8255.265752047392
 20
-2227.564357611706
 30
0.0
 11
8256.099085380725
 21
-2227.564357611706
 31
0.0
 12
8255.682418714059
 22
-2225.064357611706
 32
0.0
 13
8255.682418714059
 23
-2225.064357611706
 33
0.0
  0
SOLID
  5
103
330
FE
100
AcDbEntity
  8
0
 62
   123
100
AcDbTrace
 10
8255.265752047392
 20
-2292.564357611706
 30
0.0
 11
8256.099085380725
 21
-2292.564357611706
 31
0.0
 12
8255.682418714059
 22
-2295.064357611706
 32
0.0
 13
8255.682418714059
 23
-2295.064357611706
 33
0.0
  0
MTEXT
  5
104
330
FE
100
AcDbEntity
  8
0
 62
     3
100
AcDbMText
 10
8253.182418714059
 20
-2260.064357611706
 30
0.0
 40
3.0
 41
0.0
 71
     5
 72
     1
  1
\A1;%%C70
 11
0.0000000000000001
 21
1.0
 31
0.0
1001
ACAD
1000
MTEXTBEGIN
1070
    73
1070
     1
1070
    44
1040
1.0
1070
    74
1070
     0
1000
MTEXTEND
  0
POINT
  5
105
330
FE
100
AcDbEntity
  8
DEFPOINTS
 62
     0
100
AcDbPoint
 10
8237.526198773814
 20
-2225.064357611706
 30
0.0
  0
POINT
  5
106
330
FE
100
AcDbEntity
  8
DEFPOINTS
 62
     0
100
AcDbPoint
 10
8237.526198773814
 20
-2295.064357611706
 30
0.0
  0
POINT
  5
107
330
FE
100
AcDbEntity
  8
DEFPOINTS
 62
     0
100
AcDbPoint
 10
8255.682418714059
 20
-2295.064357611706
 30
0.0
  0
ENDBLK
  5
109
330
FE
100
AcDbEntity
  8
0
100
AcDbBlockEnd
  0
BLOCK
  5
209
330
1FF
100
AcDbEntity
  8
0
100
AcDbBlockBegin
  2
*D9
 70
     1
 10
0.0
 20
0.0
 30
0.0
  3
*D9
  1

  0
LINE
  5
200
330
1FF
100
AcDbEntity
  8
0
 62
   123
100
AcDbLine
 10
8089.526198773816
 20
-2257.064285621189
 30
0.0
 11
8089.526198773816
 21
-2202.914243481294
 31
0.0
  0
LINE
  5
201
330
1FF
100
AcDbEntity
  8
0
 62
   123
100
AcDbLine
 10
8121.526198773819
 20
-2224.064357611707
 30
0.0
 11
8121.526198773819
 21
-2202.914243481294
 31
0.0
  0
LINE
  5
202
330
1FF
100
AcDbEntity
  8
0
 62
   123
100
AcDbLine
 10
8092.026198773817
 20
-2203.514243481293
 30
0.0
 11
8119.026198773815
 21
-2203.514243481293
 31
0.0
  0
SOLID
  5
203
330
1FF
100
AcDbEntity
  8
0
 62
   123
100
AcDbTrace
 10
8092.026198773817
 20
-2203.097576814627
 30
0.0
 11
8092.026198773817
 21
-2203.93091014796
 31
0.0
 12
8089.526198773816
 22
-2203.514243481293
 32
0.0
 13
8089.526198773816
 23
-2203.514243481293
 33
0.0
  0
SOLID
  5
204
330
1FF
100
AcDbEntity
  8
0
 62
   123
100
AcDbTrace
 10
8119.026198773815
 20
-2203.097576814627
 30
0.0
 11
8119.026198773815
 21
-2203.93091014796
 31
0.0
 12
8121.526198773819
 22
-2203.514243481293
 32
0.0
 13
8121.526198773819
 23
-2203.514243481293
 33
0.0
  0
MTEXT
  5
205
330
1FF
100
AcDbEntity
  8
0
 62
     3
100
AcDbMText
 10
8105.526198773816
 20
-2201.014243481294
 30
0.0
 40
3.0
 41
0.0
 71
     5
 72
     1
  1
\A1;32
1001
ACAD
1000
MTEXTBEGIN
1070
    73
1070
     1
1070
    44
1040
1.0
1070
    74
1070
     0
1000
MTEXTEND
  0
POINT
  5
206
330
1FF
100
AcDbEntity
  8
DEFPOINTS
 62
     0
100
AcDbPoint
 10
8089.526198773816
 20
-2258.064285621189
 30
0.0
  0
POINT
  5
207
330
1FF
100
AcDbEntity
  8
DEFPOINTS
 62
     0
100
AcDbPoint
 10
8121.526198773819
 20
-2225.064357611706
 30
0.0
  0
POINT
  5
208
330
1FF
100
AcDbEntity
  8
DEFPOINTS
 62
     0
100
AcDbPoint
 10
8121.526198773819
 20
-2203.514243481293
 30
0.0
  0
ENDBLK
  5
20A
330
1FF
100
AcDbEntity
  8
0
100
AcDbBlockEnd
  0
BLOCK
  5
F7
330
EB
100
AcDbEntity
  8
0
100
AcDbBlockBegin
  2
*D10
 70
     1
 10
0.0
 20
0.0
 30
0.0
  3
*D10
  1

  0
LINE
  5
EC
330
EB
100
AcDbEntity
  8
0
 62
   123
100
AcDbLine
 10
8007.320552298891
 20
-2120.775459156243
 30
0.0
 11
8007.320552298887
 21
-2137.9944455393
 31
0.0
  0
LINE
  5
ED
330
EB
100
AcDbEntity
  8
0
 62
   123
100
AcDbLine
 10
8025.95827573814
 20
-2122.723190850845
 30
0.0
 11
8030.383619677719
 21
-2133.40691620794
 31
0.0
  0
ARC
  5
EE
330
EB
100
AcDbEntity
  8
0
 62
   123
100
AcDbCircle
 10
8007.320552298887
 20
-2077.727746152036
 30
0.0
 40
59.66669938726285
100
AcDbArc
 50
272.400835475368
 51
290.0991645246309
  0
SOLID
  5
EF
330
EB
100
AcDbEntity
  8
0
 62
   123
100
AcDbTrace
 10
8009.828732671278
 20
-2137.758646487495
 30
0.0
 11
8009.811274580293
 21
-2136.925496045195
 31
0.0
 12
8007.320552298887
 22
-2137.394445539299
 32
0.0
 13
8007.320552298887
 23
-2137.394445539299
 33
0.0
  0
SOLID
  5
F0
330
EB
100
AcDbEntity
  8
0
 62
   123
100
AcDbTrace
 10
8027.673423079331
 20
-2133.372493800764
 30
0.0
 11
8027.976126777328
 21
-2134.148905364088
 31
0.0
 12
8030.1540096183
 22
-2132.852588488432
 32
0.0
 13
8030.1540096183
 23
-2132.852588488432
 33
0.0
  0
MTEXT
  5
F1
330
EB
100
AcDbEntity
  8
0
 62
     3
100
AcDbMText
 10
8018.417481998943
 20
-2133.515779074471
 30
0.0
 40
3.0
 41
0.0
 71
     5
 72
     1
  1
\A1;22°30'
 11
0.9807852804032339
 21
0.1950903220161111
 31
0.0
1001
ACAD
1000
MTEXTBEGIN
1070
    73
1070
     1
1070
    44
1040
1.0
1070
    74
1070
     0
1000
MTEXTEND
  0
POINT
  5
F2
330
EB
100
AcDbEntity
  8
DEFPOINTS
 62
     0
100
AcDbPoint
 10
8015.108619372245
 20
-2136.883988654675
 30
0.0
  0
POINT
  5
F3
330
EB
100
AcDbEntity
  8
DEFPOINTS
 62
     0
100
AcDbPoint
 10
8007.320552298891
 20
-2119.775459156243
 30
0.0
  0
POINT
  5
F4
330
EB
100
AcDbEntity
  8
DEFPOINTS
 62
     0
100
AcDbPoint
 10
8007.320552298891
 20
-2077.727746152041
 30
0.0
  0
POINT
  5
F5
330
EB
100
AcDbEntity
  8
DEFPOINTS
 62
     0
100
AcDbPoint
 10
8025.575592305777
 20
-2121.799311318333
 30
0.0
  0
POINT
  5
F6
330
EB
100
AcDbEntity
  8
DEFPOINTS
 62
     0
100
AcDbPoint
 10
8007.320552298891
 20
-2035.680033147844
 30
0.0
  0
ENDBLK
  5
F8
330
EB
100
AcDbEntity
  8
0
100
AcDbBlockEnd
  0
BLOCK
  5
285
330
27B
100
AcDbEntity
  8
0
100
AcDbBlockBegin
  2
*D11
 70
     1
 10
0.0
 20
0.0
 30
0.0
  3
*D11
  1

  0
LINE
  5
27C
330
27B
100
AcDbEntity
  8
0
 62
   123
100
AcDbLine
 10
8098.884612968362
 20
-2029.703503625504
 30
0.0
 11
8098.884612968362
 21
-2029.103503625504
 31
0.0
  0
LINE
  5
27D
330
27B
100
AcDbEntity
  8
0
 62
   123
100
AcDbLine
 10
8105.884612968363
 20
-2043.12900881051
 30
0.0
 11
8105.884612968363
 21
-2029.103503625504
 31
0.0
  0
LINE
  5
27E
330
27B
100
AcDbEntity
  8
0
 62
   123
100
AcDbLine
 10
8101.384612968365
 20
-2029.703503625504
 30
0.0
 11
8103.384612968362
 21
-2029.703503625504
 31
0.0
  0
SOLID
  5
27F
330
27B
100
AcDbEntity
  8
0
 62
   123
100
AcDbTrace
 10
8101.384612968365
 20
-2029.286836958837
 30
0.0
 11
8101.384612968365
 21
-2030.120170292171
 31
0.0
 12
8098.884612968362
 22
-2029.703503625504
 32
0.0
 13
8098.884612968362
 23
-2029.703503625504
 33
0.0
  0
SOLID
  5
280
330
27B
100
AcDbEntity
  8
0
 62
   123
100
AcDbTrace
 10
8103.384612968362
 20
-2029.286836958837
 30
0.0
 11
8103.384612968362
 21
-2030.120170292171
 31
0.0
 12
8105.884612968363
 22
-2029.703503625504
 32
0.0
 13
8105.884612968363
 23
-2029.703503625504
 33
0.0
  0
MTEXT
  5
281
330
27B
100
AcDbEntity
  8
0
 62
     3
100
AcDbMText
 10
8102.634612968364
 20
-2027.203503625504
 30
0.0
 40
3.0
 41
0.0
 71
     5
 72
     1
  1
\A1;7
1001
ACAD
1000
MTEXTBEGIN
1070
    73
1070
     1
1070
    44
1040
1.0
1070
    74
1070
     0
1000
MTEXTEND
  0
POINT
  5
282
330
27B
100
AcDbEntity
  8
DEFPOINTS
 62
     0
100
AcDbPoint
 10
8098.884612968362
 20
-2030.703503625504
 30
0.0
  0
POINT
  5
283
330
27B
100
AcDbEntity
  8
DEFPOINTS
 62
     0
100
AcDbPoint
 10
8105.884612968363
 20
-2044.12900881051
 30
0.0
  0
POINT
  5
284
330
27B
100
AcDbEntity
  8
DEFPOINTS
 62
     0
100
AcDbPoint
 10
8105.884612968363
 20
-2029.703503625504
 30
0.0
  0
ENDBLK
  5
286
330
27B
100
AcDbEntity
  8
0
100
AcDbBlockEnd
  0
BLOCK
  5
D6
330
CC
100
AcDbEntity
  8
0
100
AcDbBlockBegin
  2
*D12
 70
     1
 10
0.0
 20
0.0
 30
0.0
  3
*D12
  1

  0
LINE
  5
CD
330
CC
100
AcDbEntity
  8
0
 62
   123
100
AcDbLine
 10
8095.884612968362
 20
-2045.72774615204
 30
0.0
 11
8074.394177855673
 21
-2045.72774615204
 31
0.0
  0
LINE
  5
CE
330
CC
100
AcDbEntity
  8
0
 62
   123
100
AcDbLine
 10
8095.884612968362
 20
-2109.72774615204
 30
0.0
 11
8074.394177855673
 21
-2109.72774615204
 31
0.0
  0
LINE
  5
CF
330
CC
100
AcDbEntity
  8
0
 62
   123
100
AcDbLine
 10
8074.994177855675
 20
-2048.227746152039
 30
0.0
 11
8074.994177855675
 21
-2107.227746152041
 31
0.0
  0
SOLID
  5
D0
330
CC
100
AcDbEntity
  8
0
 62
   123
100
AcDbTrace
 10
8074.577511189009
 20
-2048.227746152039
 30
0.0
 11
8075.410844522341
 21
-2048.227746152039
 31
0.0
 12
8074.994177855675
 22
-2045.72774615204
 32
0.0
 13
8074.994177855675
 23
-2045.72774615204
 33
0.0
  0
SOLID
  5
D1
330
CC
100
AcDbEntity
  8
0
 62
   123
100
AcDbTrace
 10
8074.577511189009
 20
-2107.227746152041
 30
0.0
 11
8075.410844522341
 21
-2107.227746152041
 31
0.0
 12
8074.994177855675
 22
-2109.72774615204
 32
0.0
 13
8074.994177855675
 23
-2109.72774615204
 33
0.0
  0
MTEXT
  5
D2
330
CC
100
AcDbEntity
  8
0
 62
     3
100
AcDbMText
 10
8071.044027855675
 20
-2079.570777189948
 30
0.0
 40
3.0
 41
0.0
 71
     5
 72
     1
  1
\A1;\A1;%%C{\f??|b0|i0|c0|p49;64\H0.7x;\S+0^ -0.030;\H1.429x;(h7)} 
 11
0.0000000000000001
 21
1.0
 31
0.0
1001
ACAD
1000
MTEXTBEGIN
1070
    73
1070
     1
1070
    44
1040
1.0
1070
    74
1070
     0
1000
MTEXTEND
  0
POINT
  5
D3
330
CC
100
AcDbEntity
  8
DEFPOINTS
 62
     0
100
AcDbPoint
 10
8096.884612968365
 20
-2045.72774615204
 30
0.0
  0
POINT
  5
D4
330
CC
100
AcDbEntity
  8
DEFPOINTS
 62
     0
100
AcDbPoint
 10
8096.884612968365
 20
-2109.72774615204
 30
0.0
  0
POINT
  5
D5
330
CC
100
AcDbEntity
  8
DEFPOINTS
 62
     0
100
AcDbPoint
 10
8074.994177855675
 20
-2109.72774615204
 30
0.0
  0
ENDBLK
  5
D7
330
CC
100
AcDbEntity
  8
0
100
AcDbBlockEnd
  0
BLOCK
  5
247
330
23D
100
AcDbEntity
  8
0
100
AcDbBlockBegin
  2
*D13
 70
     1
 10
0.0
 20
0.0
 30
0.0
  3
*D13
  1

  0
LINE
  5
23E
330
23D
100
AcDbEntity
  8
0
 62
   123
100
AcDbLine
 10
7972.320552298886
 20
-2046.727746152039
 30
0.0
 11
7972.320552298886
 21
-2029.559951026135
 31
0.0
  0
LINE
  5
23F
330
23D
100
AcDbEntity
  8
0
 62
   123
100
AcDbLine
 10
8042.320552298887
 20
-2046.727746152039
 30
0.0
 11
8042.320552298887
 21
-2029.559951026135
 31
0.0
  0
LINE
  5
240
330
23D
100
AcDbEntity
  8
0
 62
   123
100
AcDbLine
 10
7974.820552298885
 20
-2030.159951026135
 30
0.0
 11
8039.820552298886
 21
-2030.159951026135
 31
0.0
  0
SOLID
  5
241
330
23D
100
AcDbEntity
  8
0
 62
   123
100
AcDbTrace
 10
7974.820552298885
 20
-2029.743284359468
 30
0.0
 11
7974.820552298885
 21
-2030.576617692801
 31
0.0
 12
7972.320552298886
 22
-2030.159951026135
 32
0.0
 13
7972.320552298886
 23
-2030.159951026135
 33
0.0
  0
SOLID
  5
242
330
23D
100
AcDbEntity
  8
0
 62
   123
100
AcDbTrace
 10
8039.820552298886
 20
-2029.743284359468
 30
0.0
 11
8039.820552298886
 21
-2030.576617692801
 31
0.0
 12
8042.320552298887
 22
-2030.159951026135
 32
0.0
 13
8042.320552298887
 23
-2030.159951026135
 33
0.0
  0
MTEXT
  5
243
330
23D
100
AcDbEntity
  8
0
 62
     3
100
AcDbMText
 10
8007.320552298887
 20
-2027.659951026135
 30
0.0
 40
3.0
 41
0.0
 71
     5
 72
     1
  1
\A1;70
1001
ACAD
1000
MTEXTBEGIN
1070
    73
1070
     1
1070
    44
1040
1.0
1070
    74
1070
     0
1000
MTEXTEND
  0
POINT
  5
244
330
23D
100
AcDbEntity
  8
DEFPOINTS
 62
     0
100
AcDbPoint
 10
7972.320552298886
 20
-2047.727746152041
 30
0.0
  0
POINT
  5
245
330
23D
100
AcDbEntity
  8
DEFPOINTS
 62
     0
100
AcDbPoint
 10
8042.320552298887
 20
-2047.727746152041
 30
0.0
  0
POINT
  5
246
330
23D
100
AcDbEntity
  8
DEFPOINTS
 62
     0
100
AcDbPoint
 10
8042.320552298887
 20
-2030.159951026135
 30
0.0
  0
ENDBLK
  5
248
330
23D
100
AcDbEntity
  8
0
100
AcDbBlockEnd
  0
BLOCK
  5
195
330
18B
100
AcDbEntity
  8
0
100
AcDbBlockBegin
  2
*D14
 70
     1
 10
0.0
 20
0.0
 30
0.0
  3
*D14
  1

  0
LINE
  5
18C
330
18B
100
AcDbEntity
  8
0
 62
   123
100
AcDbLine
 10
7975.92573944523
 20
-2229.064357611707
 30
0.0
 11
7975.92573944523
 21
-2211.8965624858
 31
0.0
  0
LINE
  5
18D
330
18B
100
AcDbEntity
  8
0
 62
   123
100
AcDbLine
 10
8045.925739445229
 20
-2229.064357611707
 30
0.0
 11
8045.925739445229
 21
-2211.8965624858
 31
0.0
  0
LINE
  5
18E
330
18B
100
AcDbEntity
  8
0
 62
   123
100
AcDbLine
 10
7978.42573944523
 20
-2212.496562485801
 30
0.0
 11
8043.425739445231
 21
-2212.496562485801
 31
0.0
  0
SOLID
  5
18F
330
18B
100
AcDbEntity
  8
0
 62
   123
100
AcDbTrace
 10
7978.42573944523
 20
-2212.079895819135
 30
0.0
 11
7978.42573944523
 21
-2212.913229152468
 31
0.0
 12
7975.92573944523
 22
-2212.496562485801
 32
0.0
 13
7975.92573944523
 23
-2212.496562485801
 33
0.0
  0
SOLID
  5
190
330
18B
100
AcDbEntity
  8
0
 62
   123
100
AcDbTrace
 10
8043.425739445231
 20
-2212.079895819135
 30
0.0
 11
8043.425739445231
 21
-2212.913229152468
 31
0.0
 12
8045.925739445229
 22
-2212.496562485801
 32
0.0
 13
8045.925739445229
 23
-2212.496562485801
 33
0.0
  0
MTEXT
  5
191
330
18B
100
AcDbEntity
  8
0
 62
     3
100
AcDbMText
 10
8010.92573944523
 20
-2209.996562485801
 30
0.0
 40
3.0
 41
0.0
 71
     5
 72
     1
  1
\A1;70
1001
ACAD
1000
MTEXTBEGIN
1070
    73
1070
     1
1070
    44
1040
1.0
1070
    74
1070
     0
1000
MTEXTEND
  0
POINT
  5
192
330
18B
100
AcDbEntity
  8
DEFPOINTS
 62
     0
100
AcDbPoint
 10
7975.92573944523
 20
-2230.064357611706
 30
0.0
  0
POINT
  5
193
330
18B
100
AcDbEntity
  8
DEFPOINTS
 62
     0
100
AcDbPoint
 10
8045.925739445229
 20
-2230.064357611706
 30
0.0
  0
POINT
  5
194
330
18B
100
AcDbEntity
  8
DEFPOINTS
 62
     0
100
AcDbPoint
 10
8045.925739445229
 20
-2212.496562485801
 30
0.0
  0
ENDBLK
  5
196
330
18B
100
AcDbEntity
  8
0
100
AcDbBlockEnd
  0
BLOCK
  5
144
330
138
100
AcDbEntity
  8
0
100
AcDbBlockBegin
  2
*D15
 70
     1
 10
0.0
 20
0.0
 30
0.0
  3
*D15
  1

  0
LINE
  5
139
330
138
100
AcDbEntity
  8
0
 62
   123
100
AcDbLine
 10
8010.925739445237
 20
-2303.112070615908
 30
0.0
 11
8010.925739445239
 21
-2320.331056998991
 31
0.0
  0
LINE
  5
13A
330
138
100
AcDbEntity
  8
0
 62
   123
100
AcDbLine
 10
8029.563462884485
 20
-2305.059802310512
 30
0.0
 11
8033.988806824071
 21
-2315.74352766763
 31
0.0
  0
ARC
  5
13B
330
138
100
AcDbEntity
  8
0
 62
   123
100
AcDbCircle
 10
8010.925739445237
 20
-2260.06435761172
 30
0.0
 40
59.66669938727058
100
AcDbArc
 50
272.4008354753677
 51
290.0991645246311
  0
SOLID
  5
13C
330
138
100
AcDbEntity
  8
0
 62
   123
100
AcDbTrace
 10
8013.433919817629
 20
-2320.095257947186
 30
0.0
 11
8013.416461726643
 21
-2319.262107504886
 31
0.0
 12
8010.925739445239
 22
-2319.731056998989
 32
0.0
 13
8010.925739445239
 23
-2319.731056998989
 33
0.0
  0
SOLID
  5
13D
330
138
100
AcDbEntity
  8
0
 62
   123
100
AcDbTrace
 10
8031.278610225683
 20
-2315.709105260455
 30
0.0
 11
8031.581313923679
 21
-2316.485516823779
 31
0.0
 12
8033.759196764654
 22
-2315.189199948122
 32
0.0
 13
8033.759196764654
 23
-2315.189199948122
 33
0.0
  0
MTEXT
  5
13E
330
138
100
AcDbEntity
  8
0
 62
     3
100
AcDbMText
 10
8022.022669145295
 20
-2315.852390534161
 30
0.0
 40
3.0
 41
0.0
 71
     5
 72
     1
  1
\A1;22°30'
 11
0.9807852804032338
 21
0.195090322016112
 31
0.0
1001
ACAD
1000
MTEXTBEGIN
1070
    73
1070
     1
1070
    44
1040
1.0
1070
    74
1070
     0
1000
MTEXTEND
  0
POINT
  5
13F
330
138
100
AcDbEntity
  8
DEFPOINTS
 62
     0
100
AcDbPoint
 10
8018.713806518595
 20
-2319.220600114366
 30
0.0
  0
POINT
  5
140
330
138
100
AcDbEntity
  8
DEFPOINTS
 62
     0
100
AcDbPoint
 10
8010.925739445237
 20
-2302.112070615908
 30
0.0
  0
POINT
  5
141
330
138
100
AcDbEntity
  8
DEFPOINTS
 62
     0
100
AcDbPoint
 10
8010.925739445232
 20
-2260.064357611706
 30
0.0
  0
POINT
  5
142
330
138
100
AcDbEntity
  8
DEFPOINTS
 62
     0
100
AcDbPoint
 10
8029.180779452119
 20
-2304.135922777999
 30
0.0
  0
POINT
  5
143
330
138
100
AcDbEntity
  8
DEFPOINTS
 62
     0
100
AcDbPoint
 10
8010.925739445239
 20
-2218.016644607507
 30
0.0
  0
ENDBLK
  5
145
330
138
100
AcDbEntity
  8
0
100
AcDbBlockEnd
  0
BLOCK
  5
1DD
330
1D3
100
AcDbEntity
  8
0
100
AcDbBlockBegin
  2
*D16
 70
     1
 10
0.0
 20
0.0
 30
0.0
  3
*D16
  1

  0
LINE
  5
1D4
330
1D3
100
AcDbEntity
  8
0
 62
   123
100
AcDbLine
 10
8121.526198773819
 20
-2213.779754016135
 30
0.0
 11
8121.526198773819
 21
-2213.179754016136
 31
0.0
  0
LINE
  5
1D5
330
1D3
100
AcDbEntity
  8
0
 62
   123
100
AcDbLine
 10
8128.526198773817
 20
-2225.465620270178
 30
0.0
 11
8128.526198773817
 21
-2213.179754016136
 31
0.0
  0
LINE
  5
1D6
330
1D3
100
AcDbEntity
  8
0
 62
   123
100
AcDbLine
 10
8124.026198773817
 20
-2213.779754016135
 30
0.0
 11
8126.02619877382
 21
-2213.779754016135
 31
0.0
  0
SOLID
  5
1D7
330
1D3
100
AcDbEntity
  8
0
 62
   123
100
AcDbTrace
 10
8124.026198773817
 20
-2213.363087349469
 30
0.0
 11
8124.026198773817
 21
-2214.196420682802
 31
0.0
 12
8121.526198773819
 22
-2213.779754016135
 32
0.0
 13
8121.526198773819
 23
-2213.779754016135
 33
0.0
  0
SOLID
  5
1D8
330
1D3
100
AcDbEntity
  8
0
 62
   123
100
AcDbTrace
 10
8126.02619877382
 20
-2213.363087349469
 30
0.0
 11
8126.02619877382
 21
-2214.196420682802
 31
0.0
 12
8128.526198773817
 22
-2213.779754016135
 32
0.0
 13
8128.526198773817
 23
-2213.779754016135
 33
0.0
  0
MTEXT
  5
1D9
330
1D3
100
AcDbEntity
  8
0
 62
     3
100
AcDbMText
 10
8125.026198773817
 20
-2211.279754016135
 30
0.0
 40
3.0
 41
0.0
 71
     5
 72
     1
  1
\A1;7
1001
ACAD
1000
MTEXTBEGIN
1070
    73
1070
     1
1070
    44
1040
1.0
1070
    74
1070
     0
1000
MTEXTEND
  0
POINT
  5
1DA
330
1D3
100
AcDbEntity
  8
DEFPOINTS
 62
     0
100
AcDbPoint
 10
8121.526198773819
 20
-2214.779754016136
 30
0.0
  0
POINT
  5
1DB
330
1D3
100
AcDbEntity
  8
DEFPOINTS
 62
     0
100
AcDbPoint
 10
8128.526198773817
 20
-2226.465620270178
 30
0.0
  0
POINT
  5
1DC
330
1D3
100
AcDbEntity
  8
DEFPOINTS
 62
     0
100
AcDbPoint
 10
8128.526198773817
 20
-2213.779754016135
 30
0.0
  0
ENDBLK
  5
1DE
330
1D3
100
AcDbEntity
  8
0
100
AcDbBlockEnd
  0
BLOCK
  5
11D
330
111
100
AcDbEntity
  8
0
100
AcDbBlockBegin
  2
*D17
 70
     1
 10
0.0
 20
0.0
 30
0.0
  3
*D17
  1

  0
LINE
  5
112
330
111
100
AcDbEntity
  8
0
 62
   123
100
AcDbLine
 10
8089.026198773817
 20
-2263.064288020903
 30
0.0
 11
8076.123881939279
 21
-2263.064288020903
 31
0.0
  0
LINE
  5
113
330
111
100
AcDbEntity
  8
0
 62
   123
100
AcDbLine
 10
8089.026268364621
 20
-2257.064357611706
 30
0.0
 11
8076.123881939279
 21
-2257.064357611706
 31
0.0
  0
LINE
  5
114
330
111
100
AcDbEntity
  8
0
 62
   123
100
AcDbLine
 10
8076.72388193928
 20
-2265.564288020903
 30
0.0
 11
8076.72388193928
 21
-2268.064288020903
 31
0.0
  0
LINE
  5
115
330
111
100
AcDbEntity
  8
0
 62
   123
100
AcDbLine
 10
8076.72388193928
 20
-2254.564357611707
 30
0.0
 11
8076.72388193928
 21
-2252.064357611706
 31
0.0
  0
LINE
  5
116
330
111
100
AcDbEntity
  8
0
 62
   123
100
AcDbLine
 10
8076.72388193928
 20
-2263.064288020903
 30
0.0
 11
8076.72388193928
 21
-2257.064357611706
 31
0.0
  0
SOLID
  5
117
330
111
100
AcDbEntity
  8
0
 62
   123
100
AcDbTrace
 10
8076.307215272613
 20
-2265.564288020903
 30
0.0
 11
8077.140548605949
 21
-2265.564288020903
 31
0.0
 12
8076.72388193928
 22
-2263.064288020903
 32
0.0
 13
8076.72388193928
 23
-2263.064288020903
 33
0.0
  0
SOLID
  5
118
330
111
100
AcDbEntity
  8
0
 62
   123
100
AcDbTrace
 10
8076.307215272613
 20
-2254.564357611707
 30
0.0
 11
8077.140548605949
 21
-2254.564357611707
 31
0.0
 12
8076.72388193928
 22
-2257.064357611706
 32
0.0
 13
8076.72388193928
 23
-2257.064357611706
 33
0.0
  0
MTEXT
  5
119
330
111
100
AcDbEntity
  8
0
 62
     3
100
AcDbMText
 10
8072.773731939282
 20
-2260.064322816304
 30
0.0
 40
3.0
 41
0.0
 71
     5
 72
     1
  1
\A1;\A1;{\f??|b0|i0|c0|p49;%%C6\H0.7x;\S+0^ -0.012;\H1.429x;(h7)}
 11
0.0000000000000001
 21
1.0
 31
0.0
1001
ACAD
1000
MTEXTBEGIN
1070
    73
1070
     1
1070
    44
1040
1.0
1070
    74
1070
     0
1000
MTEXTEND
  0
POINT
  5
11A
330
111
100
AcDbEntity
  8
DEFPOINTS
 62
     0
100
AcDbPoint
 10
8090.026198773818
 20
-2263.064288020903
 30
0.0
  0
POINT
  5
11B
330
111
100
AcDbEntity
  8
DEFPOINTS
 62
     0
100
AcDbPoint
 10
8090.026268364622
 20
-2257.064357611706
 30
0.0
  0
POINT
  5
11C
330
111
100
AcDbEntity
  8
DEFPOINTS
 62
     0
100
AcDbPoint
 10
8076.72388193928
 20
-2257.064357611706
 30
0.0
  0
ENDBLK
  5
11E
330
111
100
AcDbEntity
  8
0
100
AcDbBlockEnd
  0
BLOCK
  5
133
330
129
100
AcDbEntity
  8
0
100
AcDbBlockBegin
  2
*D18
 70
     1
 10
0.0
 20
0.0
 30
0.0
  3
*D18
  1

  0
LINE
  5
12A
330
129
100
AcDbEntity
  8
0
 62
   123
100
AcDbLine
 10
8118.526198773817
 20
-2228.064357611706
 30
0.0
 11
8065.339167226301
 21
-2228.064357611706
 31
0.0
  0
LINE
  5
12B
330
129
100
AcDbEntity
  8
0
 62
   123
100
AcDbLine
 10
8118.526198773817
 20
-2292.064357611706
 30
0.0
 11
8065.339167226301
 21
-2292.064357611706
 31
0.0
  0
LINE
  5
12C
330
129
100
AcDbEntity
  8
0
 62
   123
100
AcDbLine
 10
8065.939167226302
 20
-2230.564357611706
 30
0.0
 11
8065.939167226302
 21
-2289.564357611706
 31
0.0
  0
SOLID
  5
12D
330
129
100
AcDbEntity
  8
0
 62
   123
100
AcDbTrace
 10
8065.522500559634
 20
-2230.564357611706
 30
0.0
 11
8066.355833892968
 21
-2230.564357611706
 31
0.0
 12
8065.939167226302
 22
-2228.064357611706
 32
0.0
 13
8065.939167226302
 23
-2228.064357611706
 33
0.0
  0
SOLID
  5
12E
330
129
100
AcDbEntity
  8
0
 62
   123
100
AcDbTrace
 10
8065.522500559634
 20
-2289.564357611706
 30
0.0
 11
8066.355833892968
 21
-2289.564357611706
 31
0.0
 12
8065.939167226302
 22
-2292.064357611706
 32
0.0
 13
8065.939167226302
 23
-2292.064357611706
 33
0.0
  0
MTEXT
  5
12F
330
129
100
AcDbEntity
  8
0
 62
     3
100
AcDbMText
 10
8061.989017226302
 20
-2261.907388649615
 30
0.0
 40
3.0
 41
0.0
 71
     5
 72
     1
  1
\A1;\A1;%%C{\f??|b0|i0|c0|p49;64\H0.7x;\S+0^ -0.030;\H1.429x;(h7)} 
 11
0.0000000000000001
 21
1.0
 31
0.0
1001
ACAD
1000
MTEXTBEGIN
1070
    73
1070
     1
1070
    44
1040
1.0
1070
    74
1070
     0
1000
MTEXTEND
  0
POINT
  5
130
330
129
100
AcDbEntity
  8
DEFPOINTS
 62
     0
100
AcDbPoint
 10
8119.526198773817
 20
-2228.064357611706
 30
0.0
  0
POINT
  5
131
330
129
100
AcDbEntity
  8
DEFPOINTS
 62
     0
100
AcDbPoint
 10
8119.526198773817
 20
-2292.064357611706
 30
0.0
  0
POINT
  5
132
330
129
100
AcDbEntity
  8
DEFPOINTS
 62
     0
100
AcDbPoint
 10
8065.939167226302
 20
-2292.064357611706
 30
0.0
  0
ENDBLK
  5
134
330
129
100
AcDbEntity
  8
0
100
AcDbBlockEnd
  0
BLOCK
  5
2CA
330
2BE
100
AcDbEntity
  8
0
100
AcDbBlockBegin
  2
*D19
 70
     1
 10
0.0
 20
0.0
 30
0.0
  3
*D19
  1

  0
LINE
  5
3BB
330
2BE
100
AcDbEntity
  8
0
 62
   123
100
AcDbLine
 10
33.1795673925544
 20
232.7671097886673
 30
0.0
 11
33.17956739255442
 21
215.5481234056114
 31
0.0
  0
LINE
  5
3BC
330
2BE
100
AcDbEntity
  8
0
 62
   123
100
AcDbLine
 10
51.81729083180797
 20
230.819378094066
 30
0.0
 11
56.2426347713855
 21
220.1356527369706
 31
0.0
  0
ARC
  5
3BD
330
2BE
100
AcDbEntity
  8
0
 62
   123
100
AcDbCircle
 10
33.17956739255441
 20
275.8148227928779
 30
0.0
 40
59.66669938726652
100
AcDbArc
 50
272.400835475368
 51
290.0991645246288
  0
SOLID
  5
3BE
330
2BE
100
AcDbEntity
  8
0
 62
   123
100
AcDbTrace
 10
35.68774776494489
 20
215.7839224574162
 30
0.0
 11
35.67028967396005
 21
216.6170728997156
 31
0.0
 12
33.17956739255441
 22
216.1481234056114
 32
0.0
 13
33.17956739255441
 23
216.1481234056114
 33
0.0
  0
SOLID
  5
3BF
330
2BE
100
AcDbEntity
  8
0
 62
   123
100
AcDbTrace
 10
53.53243817299632
 20
220.1700751441453
 30
0.0
 11
53.83514187099429
 21
219.3936635808216
 31
0.0
 12
56.01302471196649
 22
220.6899804564774
 32
0.0
 13
56.01302471196649
 23
220.6899804564774
 33
0.0
  0
MTEXT
  5
3C0
330
2BE
100
AcDbEntity
  8
0
 62
     3
100
AcDbMText
 10
44.27649709260929
 20
220.0267898704397
 30
0.0
 40
3.0
 41
0.0
 71
     5
 72
     1
  1
\A1;22°30'
 11
0.9807852804032357
 21
0.1950903220161015
 31
0.0
  0
POINT
  5
3C1
330
2BE
100
AcDbEntity
  8
DEFPOINTS
 62
     0
100
AcDbPoint
 10
40.96763446591167
 20
216.6585802902365
 30
0.0
  0
POINT
  5
3C2
330
2BE
100
AcDbEntity
  8
DEFPOINTS
 62
     0
100
AcDbPoint
 10
33.1795673925544
 20
233.7671097886673
 30
0.0
  0
POINT
  5
3C3
330
2BE
100
AcDbEntity
  8
DEFPOINTS
 62
     0
100
AcDbPoint
 10
33.17956739255715
 20
275.8148227928713
 30
0.0
  0
POINT
  5
3C4
330
2BE
100
AcDbEntity
  8
DEFPOINTS
 62
     0
100
AcDbPoint
 10
51.43460739944294
 20
231.7432576265773
 30
0.0
  0
POINT
  5
3C5
330
2BE
100
AcDbEntity
  8
DEFPOINTS
 62
     0
100
AcDbPoint
 10
33.17956739255441
 20
317.8625357970663
 30
0.0
  0
ENDBLK
  5
2CB
330
2BE
100
AcDbEntity
  8
0
100
AcDbBlockEnd
  0
BLOCK
  5
2D6
330
2CC
100
AcDbEntity
  8
0
100
AcDbBlockBegin
  2
*D20
 70
     1
 10
0.0
 20
0.0
 30
0.0
  3
*D20
  1

  0
LINE
  5
2CD
330
2CC
100
AcDbEntity
  8
0
 62
   123
100
AcDbLine
 10
241.7436280620277
 20
310.8148227928722
 30
0.0
 11
259.4998480022693
 21
310.8148227928722
 31
0.0
  0
LINE
  5
2CE
330
2CC
100
AcDbEntity
  8
0
 62
   123
100
AcDbLine
 10
241.7436280620277
 20
240.8148227928723
 30
0.0
 11
259.4998480022693
 21
240.8148227928723
 31
0.0
  0
LINE
  5
2CF
330
2CC
100
AcDbEntity
  8
0
 62
   123
100
AcDbLine
 10
258.8998480022692
 20
308.3148227928723
 30
0.0
 11
258.8998480022692
 21
243.3148227928723
 31
0.0
  0
SOLID
  5
2D0
330
2CC
100
AcDbEntity
  8
0
 62
   123
100
AcDbTrace
 10
258.4831813356025
 20
308.3148227928723
 30
0.0
 11
259.3165146689359
 21
308.3148227928723
 31
0.0
 12
258.8998480022692
 22
310.8148227928722
 32
0.0
 13
258.8998480022692
 23
310.8148227928722
 33
0.0
  0
SOLID
  5
2D1
330
2CC
100
AcDbEntity
  8
0
 62
   123
100
AcDbTrace
 10
258.4831813356025
 20
243.3148227928723
 30
0.0
 11
259.3165146689359
 21
243.3148227928723
 31
0.0
 12
258.8998480022692
 22
240.8148227928723
 32
0.0
 13
258.8998480022692
 23
240.8148227928723
 33
0.0
  0
MTEXT
  5
2D2
330
2CC
100
AcDbEntity
  8
0
 62
     3
100
AcDbMText
 10
256.3998480022692
 20
275.8148227928713
 30
0.0
 40
3.0
 41
0.0
 71
     5
 72
     1
  1
\A1;%%C70
 11
0.0000000000000001
 21
1.0
 31
0.0
1001
ACAD
1000
MTEXTBEGIN
1070
    73
1070
     1
1070
    44
1040
1.0
1070
    74
1070
     0
1000
MTEXTEND
  0
POINT
  5
2D3
330
2CC
100
AcDbEntity
  8
DEFPOINTS
 62
     0
100
AcDbPoint
 10
240.7436280620277
 20
310.8148227928722
 30
0.0
  0
POINT
  5
2D4
330
2CC
100
AcDbEntity
  8
DEFPOINTS
 62
     0
100
AcDbPoint
 10
240.7436280620277
 20
240.8148227928723
 30
0.0
  0
POINT
  5
2D5
330
2CC
100
AcDbEntity
  8
DEFPOINTS
 62
     0
100
AcDbPoint
 10
258.8998480022692
 20
240.8148227928723
 30
0.0
  0
ENDBLK
  5
2D7
330
2CC
100
AcDbEntity
  8
0
100
AcDbBlockEnd
  0
BLOCK
  5
2E2
330
2D8
100
AcDbEntity
  8
0
100
AcDbBlockBegin
  2
*D21
 70
     1
 10
0.0
 20
0.0
 30
0.0
  3
*D21
  1

  0
LINE
  5
2D9
330
2D8
100
AcDbEntity
  8
0
 62
   123
100
AcDbLine
 10
121.7436280620286
 20
307.8148227928713
 30
0.0
 11
100.2531929493402
 21
307.8148227928713
 31
0.0
  0
LINE
  5
2DA
330
2D8
100
AcDbEntity
  8
0
 62
   123
100
AcDbLine
 10
121.7436280620286
 20
243.8148227928713
 30
0.0
 11
100.2531929493401
 21
243.8148227928713
 31
0.0
  0
LINE
  5
2DB
330
2D8
100
AcDbEntity
  8
0
 62
   123
100
AcDbLine
 10
100.8531929493402
 20
305.3148227928713
 30
0.0
 11
100.8531929493402
 21
246.3148227928714
 31
0.0
  0
SOLID
  5
2DC
330
2D8
100
AcDbEntity
  8
0
 62
   123
100
AcDbTrace
 10
100.4365262826735
 20
305.3148227928713
 30
0.0
 11
101.2698596160068
 21
305.3148227928713
 31
0.0
 12
100.8531929493402
 22
307.8148227928713
 32
0.0
 13
100.8531929493402
 23
307.8148227928713
 33
0.0
  0
SOLID
  5
2DD
330
2D8
100
AcDbEntity
  8
0
 62
   123
100
AcDbTrace
 10
100.4365262826735
 20
246.3148227928714
 30
0.0
 11
101.2698596160068
 21
246.3148227928714
 31
0.0
 12
100.8531929493402
 22
243.8148227928713
 32
0.0
 13
100.8531929493402
 23
243.8148227928713
 33
0.0
  0
MTEXT
  5
2DE
330
2D8
100
AcDbEntity
  8
0
 62
     3
100
AcDbMText
 10
96.90304294934016
 20
273.9717917549628
 30
0.0
 40
3.0
 41
0.0
 71
     5
 72
     1
  1
\A1;\A1;%%C{\f??|b0|i0|c0|p49;64\H0.7x;\S+0^ -0.030;\H1.429x;(h7)} 
 11
0.0000000000000001
 21
1.0
 31
0.0
1001
ACAD
1000
MTEXTBEGIN
1070
    73
1070
     1
1070
    44
1040
1.0
1070
    74
1070
     0
1000
MTEXTEND
  0
POINT
  5
2DF
330
2D8
100
AcDbEntity
  8
DEFPOINTS
 62
     0
100
AcDbPoint
 10
122.7436280620286
 20
307.8148227928713
 30
0.0
  0
POINT
  5
2E0
330
2D8
100
AcDbEntity
  8
DEFPOINTS
 62
     0
100
AcDbPoint
 10
122.7436280620286
 20
243.8148227928713
 30
0.0
  0
POINT
  5
2E1
330
2D8
100
AcDbEntity
  8
DEFPOINTS
 62
     0
100
AcDbPoint
 10
100.8531929493402
 20
243.8148227928713
 30
0.0
  0
ENDBLK
  5
2E3
330
2D8
100
AcDbEntity
  8
0
100
AcDbBlockEnd
  0
BLOCK
  5
2F0
330
2E4
100
AcDbEntity
  8
0
100
AcDbBlockBegin
  2
*D22
 70
     1
 10
0.0
 20
0.0
 30
0.0
  3
*D22
  1

  0
LINE
  5
3C6
330
2E4
100
AcDbEntity
  8
0
 62
   123
100
AcDbLine
 10
36.78475453890405
 20
50.43049832900305
 30
0.0
 11
36.78475453890403
 21
33.21151194591999
 31
0.0
  0
LINE
  5
3C7
330
2E4
100
AcDbEntity
  8
0
 62
   123
100
AcDbLine
 10
55.42247797815034
 20
48.4827666343986
 30
0.0
 11
59.84782191773757
 21
37.79904127727963
 31
0.0
  0
ARC
  5
3C8
330
2E4
100
AcDbEntity
  8
0
 62
   123
100
AcDbCircle
 10
36.78475453890404
 20
93.47821133319341
 30
0.0
 40
59.66669938727339
100
AcDbArc
 50
272.4008354753677
 51
290.0991645246289
  0
SOLID
  5
3C9
330
2E4
100
AcDbEntity
  8
0
 62
   123
100
AcDbTrace
 10
39.29293491129451
 20
33.44731099772476
 30
0.0
 11
39.2754768203097
 21
34.28046144002412
 31
0.0
 12
36.78475453890404
 22
33.81151194592
 32
0.0
 13
36.78475453890404
 23
33.81151194592
 33
0.0
  0
SOLID
  5
3CA
330
2E4
100
AcDbEntity
  8
0
 62
   123
100
AcDbTrace
 10
57.13762531934838
 20
37.83346368445435
 30
0.0
 11
57.44032901734636
 21
37.05705212113063
 31
0.0
 12
59.61821185831856
 22
38.35336899678641
 32
0.0
 13
59.61821185831856
 23
38.35336899678641
 33
0.0
  0
MTEXT
  5
3CB
330
2E4
100
AcDbEntity
  8
0
 62
     3
100
AcDbMText
 10
47.88168423896016
 20
37.69017841074844
 30
0.0
 40
3.0
 41
0.0
 71
     5
 72
     1
  1
\A1;22°30'
 11
0.9807852804032361
 21
0.1950903220160997
 31
0.0
  0
POINT
  5
3CC
330
2E4
100
AcDbEntity
  8
DEFPOINTS
 62
     0
100
AcDbPoint
 10
44.57282161226215
 20
34.32196883054515
 30
0.0
  0
POINT
  5
3CD
330
2E4
100
AcDbEntity
  8
DEFPOINTS
 62
     0
100
AcDbPoint
 10
36.78475453890404
 20
51.43049832900305
 30
0.0
  0
POINT
  5
3CE
330
2E4
100
AcDbEntity
  8
DEFPOINTS
 62
     0
100
AcDbPoint
 10
36.78475453889949
 20
93.47821133320438
 30
0.0
  0
POINT
  5
3CF
330
2E4
100
AcDbEntity
  8
DEFPOINTS
 62
     0
100
AcDbPoint
 10
55.0397945457853
 20
49.40664616690992
 30
0.0
  0
POINT
  5
3D0
330
2E4
100
AcDbEntity
  8
DEFPOINTS
 62
     0
100
AcDbPoint
 10
36.78475453890404
 20
135.5259243374034
 30
0.0
  0
ENDBLK
  5
2F1
330
2E4
100
AcDbEntity
  8
0
100
AcDbBlockEnd
  0
BLOCK
  5
2FC
330
2F2
100
AcDbEntity
  8
0
100
AcDbBlockBegin
  2
*D23
 70
     1
 10
0.0
 20
0.0
 30
0.0
  3
*D23
  1

  0
LINE
  5
2F3
330
2F2
100
AcDbEntity
  8
0
 62
   123
100
AcDbLine
 10
144.3852138674819
 20
125.4782113332044
 30
0.0
 11
91.198182319968
 21
125.4782113332044
 31
0.0
  0
LINE
  5
2F4
330
2F2
100
AcDbEntity
  8
0
 62
   123
100
AcDbLine
 10
144.3852138674819
 20
61.4782113332044
 30
0.0
 11
91.19818231996799
 21
61.47821133320441
 31
0.0
  0
LINE
  5
2F5
330
2F2
100
AcDbEntity
  8
0
 62
   123
100
AcDbLine
 10
91.79818231996799
 20
122.9782113332044
 30
0.0
 11
91.79818231996797
 21
63.97821133320441
 31
0.0
  0
SOLID
  5
2F6
330
2F2
100
AcDbEntity
  8
0
 62
   123
100
AcDbTrace
 10
91.38151565330131
 20
122.9782113332044
 30
0.0
 11
92.21484898663467
 21
122.9782113332044
 31
0.0
 12
91.79818231996799
 22
125.4782113332044
 32
0.0
 13
91.79818231996799
 23
125.4782113332044
 33
0.0
  0
SOLID
  5
2F7
330
2F2
100
AcDbEntity
  8
0
 62
   123
100
AcDbTrace
 10
91.38151565330131
 20
63.97821133320441
 30
0.0
 11
92.21484898663465
 21
63.97821133320441
 31
0.0
 12
91.79818231996797
 22
61.47821133320441
 32
0.0
 13
91.79818231996797
 23
61.47821133320441
 33
0.0
  0
MTEXT
  5
2F8
330
2F2
100
AcDbEntity
  8
0
 62
     3
100
AcDbMText
 10
87.84803231996797
 20
91.63518029529631
 30
0.0
 40
3.0
 41
0.0
 71
     5
 72
     1
  1
\A1;\A1;%%C{\f??|b0|i0|c0|p49;64\H0.7x;\S+0^ -0.030;\H1.429x;(h7)} 
 11
0.0000000000000001
 21
1.0
 31
0.0
1001
ACAD
1000
MTEXTBEGIN
1070
    73
1070
     1
1070
    44
1040
1.0
1070
    74
1070
     0
1000
MTEXTEND
  0
POINT
  5
2F9
330
2F2
100
AcDbEntity
  8
DEFPOINTS
 62
     0
100
AcDbPoint
 10
145.3852138674819
 20
125.4782113332044
 30
0.0
  0
POINT
  5
2FA
330
2F2
100
AcDbEntity
  8
DEFPOINTS
 62
     0
100
AcDbPoint
 10
145.3852138674819
 20
61.4782113332044
 30
0.0
  0
POINT
  5
2FB
330
2F2
100
AcDbEntity
  8
DEFPOINTS
 62
     0
100
AcDbPoint
 10
91.79818231996797
 20
61.47821133320441
 30
0.0
  0
ENDBLK
  5
2FD
330
2F2
100
AcDbEntity
  8
0
100
AcDbBlockEnd
  0
BLOCK
  5
30A
330
2FE
100
AcDbEntity
  8
0
100
AcDbBlockBegin
  2
*D24
 70
     1
 10
0.0
 20
0.0
 30
0.0
  3
*D24
  1

  0
LINE
  5
2FF
330
2FE
100
AcDbEntity
  8
0
 62
   123
100
AcDbLine
 10
114.8852138674838
 20
90.47828092400823
 30
0.0
 11
101.9828970329466
 21
90.47828092400823
 31
0.0
  0
LINE
  5
300
330
2FE
100
AcDbEntity
  8
0
 62
   123
100
AcDbLine
 10
114.8852834582867
 20
96.47821133320441
 30
0.0
 11
101.9828970329467
 21
96.47821133320441
 31
0.0
  0
LINE
  5
301
330
2FE
100
AcDbEntity
  8
0
 62
   123
100
AcDbLine
 10
102.5828970329466
 20
87.97828092400823
 30
0.0
 11
102.5828970329466
 21
85.47828092400823
 31
0.0
  0
LINE
  5
302
330
2FE
100
AcDbEntity
  8
0
 62
   123
100
AcDbLine
 10
102.5828970329466
 20
98.97821133320441
 30
0.0
 11
102.5828970329466
 21
101.4782113332044
 31
0.0
  0
LINE
  5
303
330
2FE
100
AcDbEntity
  8
0
 62
   123
100
AcDbLine
 10
102.5828970329466
 20
90.47828092400823
 30
0.0
 11
102.5828970329466
 21
96.47821133320441
 31
0.0
  0
SOLID
  5
304
330
2FE
100
AcDbEntity
  8
0
 62
   123
100
AcDbTrace
 10
102.16623036628
 20
87.97828092400823
 30
0.0
 11
102.9995636996133
 21
87.97828092400823
 31
0.0
 12
102.5828970329466
 22
90.47828092400823
 32
0.0
 13
102.5828970329466
 23
90.47828092400823
 33
0.0
  0
SOLID
  5
305
330
2FE
100
AcDbEntity
  8
0
 62
   123
100
AcDbTrace
 10
102.16623036628
 20
98.97821133320441
 30
0.0
 11
102.9995636996133
 21
98.97821133320441
 31
0.0
 12
102.5828970329466
 22
96.47821133320441
 32
0.0
 13
102.5828970329466
 23
96.47821133320441
 33
0.0
  0
MTEXT
  5
306
330
2FE
100
AcDbEntity
  8
0
 62
     3
100
AcDbMText
 10
98.63274703294669
 20
93.47824612860634
 30
0.0
 40
3.0
 41
0.0
 71
     5
 72
     1
  1
\A1;\A1;{\f??|b0|i0|c0|p49;%%C6\H0.7x;\S+0^ -0.012;\H1.429x;(h7)}
 11
0.0000000000000001
 21
1.0
 31
0.0
1001
ACAD
1000
MTEXTBEGIN
1070
    73
1070
     1
1070
    44
1040
1.0
1070
    74
1070
     0
1000
MTEXTEND
  0
POINT
  5
307
330
2FE
100
AcDbEntity
  8
DEFPOINTS
 62
     0
100
AcDbPoint
 10
115.8852138674838
 20
90.47828092400823
 30
0.0
  0
POINT
  5
308
330
2FE
100
AcDbEntity
  8
DEFPOINTS
 62
     0
100
AcDbPoint
 10
115.8852834582867
 20
96.47821133320441
 30
0.0
  0
POINT
  5
309
330
2FE
100
AcDbEntity
  8
DEFPOINTS
 62
     0
100
AcDbPoint
 10
102.5828970329466
 20
96.47821133320441
 30
0.0
  0
ENDBLK
  5
30B
330
2FE
100
AcDbEntity
  8
0
100
AcDbBlockEnd
  0
BLOCK
  5
316
330
30C
100
AcDbEntity
  8
0
100
AcDbBlockBegin
  2
*D25
 70
     1
 10
0.0
 20
0.0
 30
0.0
  3
*D25
  1

  0
LINE
  5
30D
330
30C
100
AcDbEntity
  8
0
 62
   123
100
AcDbLine
 10
264.3852138674792
 20
128.4782113332053
 30
0.0
 11
282.1414338077244
 21
128.4782113332053
 31
0.0
  0
LINE
  5
30E
330
30C
100
AcDbEntity
  8
0
 62
   123
100
AcDbLine
 10
264.3852138674792
 20
58.47821133320531
 30
0.0
 11
282.1414338077244
 21
58.4782113332053
 31
0.0
  0
LINE
  5
30F
330
30C
100
AcDbEntity
  8
0
 62
   123
100
AcDbLine
 10
281.5414338077244
 20
125.9782113332053
 30
0.0
 11
281.5414338077244
 21
60.9782113332053
 31
0.0
  0
SOLID
  5
310
330
30C
100
AcDbEntity
  8
0
 62
   123
100
AcDbTrace
 10
281.1247671410577
 20
125.9782113332053
 30
0.0
 11
281.9581004743911
 21
125.9782113332053
 31
0.0
 12
281.5414338077244
 22
128.4782113332053
 32
0.0
 13
281.5414338077244
 23
128.4782113332053
 33
0.0
  0
SOLID
  5
311
330
30C
100
AcDbEntity
  8
0
 62
   123
100
AcDbTrace
 10
281.1247671410577
 20
60.9782113332053
 30
0.0
 11
281.9581004743911
 21
60.9782113332053
 31
0.0
 12
281.5414338077244
 22
58.4782113332053
 32
0.0
 13
281.5414338077244
 23
58.4782113332053
 33
0.0
  0
MTEXT
  5
312
330
30C
100
AcDbEntity
  8
0
 62
     3
100
AcDbMText
 10
279.0414338077244
 20
93.4782113332044
 30
0.0
 40
3.0
 41
0.0
 71
     5
 72
     1
  1
\A1;%%C70
 11
0.0000000000000001
 21
1.0
 31
0.0
1001
ACAD
1000
MTEXTBEGIN
1070
    73
1070
     1
1070
    44
1040
1.0
1070
    74
1070
     0
1000
MTEXTEND
  0
POINT
  5
313
330
30C
100
AcDbEntity
  8
DEFPOINTS
 62
     0
100
AcDbPoint
 10
263.3852138674792
 20
128.4782113332053
 30
0.0
  0
POINT
  5
314
330
30C
100
AcDbEntity
  8
DEFPOINTS
 62
     0
100
AcDbPoint
 10
263.3852138674792
 20
58.47821133320531
 30
0.0
  0
POINT
  5
315
330
30C
100
AcDbEntity
  8
DEFPOINTS
 62
     0
100
AcDbPoint
 10
281.5414338077244
 20
58.4782113332053
 30
0.0
  0
ENDBLK
  5
317
330
30C
100
AcDbEntity
  8
0
100
AcDbBlockEnd
  0
BLOCK
  5
322
330
318
100
AcDbEntity
  8
0
100
AcDbBlockBegin
  2
*D26
 70
     1
 10
0.0
 20
0.0
 30
0.0
  3
*D26
  1

  0
LINE
  5
319
330
318
100
AcDbEntity
  8
0
 62
   123
100
AcDbLine
 10
1.784754538894958
 20
124.4782113332044
 30
0.0
 11
1.784754538894959
 21
141.6460064591102
 31
0.0
  0
LINE
  5
31A
330
318
100
AcDbEntity
  8
0
 62
   123
100
AcDbLine
 10
71.78475453889496
 20
124.4782113332044
 30
0.0
 11
71.78475453889496
 21
141.6460064591102
 31
0.0
  0
LINE
  5
31B
330
318
100
AcDbEntity
  8
0
 62
   123
100
AcDbLine
 10
4.284754538894959
 20
141.0460064591102
 30
0.0
 11
69.28475453889496
 21
141.0460064591102
 31
0.0
  0
SOLID
  5
31C
330
318
100
AcDbEntity
  8
0
 62
   123
100
AcDbTrace
 10
4.284754538894959
 20
141.4626731257768
 30
0.0
 11
4.284754538894959
 21
140.6293397924435
 31
0.0
 12
1.784754538894959
 22
141.0460064591102
 32
0.0
 13
1.784754538894959
 23
141.0460064591102
 33
0.0
  0
SOLID
  5
31D
330
318
100
AcDbEntity
  8
0
 62
   123
100
AcDbTrace
 10
69.28475453889496
 20
141.4626731257768
 30
0.0
 11
69.28475453889496
 21
140.6293397924435
 31
0.0
 12
71.78475453889496
 22
141.0460064591102
 32
0.0
 13
71.78475453889496
 23
141.0460064591102
 33
0.0
  0
MTEXT
  5
31E
330
318
100
AcDbEntity
  8
0
 62
     3
100
AcDbMText
 10
36.78475453889495
 20
143.5460064591102
 30
0.0
 40
3.0
 41
0.0
 71
     5
 72
     1
  1
\A1;70
1001
ACAD
1000
MTEXTBEGIN
1070
    73
1070
     1
1070
    44
1040
1.0
1070
    74
1070
     0
1000
MTEXTEND
  0
POINT
  5
31F
330
318
100
AcDbEntity
  8
DEFPOINTS
 62
     0
100
AcDbPoint
 10
1.784754538894958
 20
123.4782113332044
 30
0.0
  0
POINT
  5
320
330
318
100
AcDbEntity
  8
DEFPOINTS
 62
     0
100
AcDbPoint
 10
71.78475453889496
 20
123.4782113332044
 30
0.0
  0
POINT
  5
321
330
318
100
AcDbEntity
  8
DEFPOINTS
 62
     0
100
AcDbPoint
 10
71.78475453889496
 20
141.0460064591102
 30
0.0
  0
ENDBLK
  5
323
330
318
100
AcDbEntity
  8
0
100
AcDbBlockEnd
  0
BLOCK
  5
32E
330
324
100
AcDbEntity
  8
0
100
AcDbBlockBegin
  2
*D27
 70
     1
 10
0.0
 20
0.0
 30
0.0
  3
*D27
  1

  0
LINE
  5
325
330
324
100
AcDbEntity
  8
0
 62
   123
100
AcDbLine
 10
115.385213867481
 20
96.47828332372137
 30
0.0
 11
115.385213867481
 21
150.6283254636174
 31
0.0
  0
LINE
  5
326
330
324
100
AcDbEntity
  8
0
 62
   123
100
AcDbLine
 10
147.3852138674837
 20
129.4782113332053
 30
0.0
 11
147.3852138674837
 21
150.6283254636174
 31
0.0
  0
LINE
  5
327
330
324
100
AcDbEntity
  8
0
 62
   123
100
AcDbLine
 10
117.885213867481
 20
150.0283254636174
 30
0.0
 11
144.8852138674838
 21
150.0283254636174
 31
0.0
  0
SOLID
  5
328
330
324
100
AcDbEntity
  8
0
 62
   123
100
AcDbTrace
 10
117.885213867481
 20
150.444992130284
 30
0.0
 11
117.885213867481
 21
149.6116587969507
 31
0.0
 12
115.385213867481
 22
150.0283254636174
 32
0.0
 13
115.385213867481
 23
150.0283254636174
 33
0.0
  0
SOLID
  5
329
330
324
100
AcDbEntity
  8
0
 62
   123
100
AcDbTrace
 10
144.8852138674838
 20
150.444992130284
 30
0.0
 11
144.8852138674838
 21
149.6116587969507
 31
0.0
 12
147.3852138674837
 22
150.0283254636174
 32
0.0
 13
147.3852138674837
 23
150.0283254636174
 33
0.0
  0
MTEXT
  5
32A
330
324
100
AcDbEntity
  8
0
 62
     3
100
AcDbMText
 10
131.385213867481
 20
152.5283254636174
 30
0.0
 40
3.0
 41
0.0
 71
     5
 72
     1
  1
\A1;32
1001
ACAD
1000
MTEXTBEGIN
1070
    73
1070
     1
1070
    44
1040
1.0
1070
    74
1070
     0
1000
MTEXTEND
  0
POINT
  5
32B
330
324
100
AcDbEntity
  8
DEFPOINTS
 62
     0
100
AcDbPoint
 10
115.385213867481
 20
95.47828332372137
 30
0.0
  0
POINT
  5
32C
330
324
100
AcDbEntity
  8
DEFPOINTS
 62
     0
100
AcDbPoint
 10
147.3852138674837
 20
128.4782113332053
 30
0.0
  0
POINT
  5
32D
330
324
100
AcDbEntity
  8
DEFPOINTS
 62
     0
100
AcDbPoint
 10
147.3852138674837
 20
150.0283254636174
 30
0.0
  0
ENDBLK
  5
32F
330
324
100
AcDbEntity
  8
0
100
AcDbBlockEnd
  0
BLOCK
  5
33C
330
330
100
AcDbEntity
  8
0
100
AcDbBlockBegin
  2
*D28
 70
     1
 10
0.0
 20
0.0
 30
0.0
  3
*D28
  1

  0
LINE
  5
331
330
330
100
AcDbEntity
  8
0
 62
   123
100
AcDbLine
 10
145.3852138674819
 20
126.4782113332044
 30
0.0
 11
145.3852138674819
 21
140.3628149287761
 31
0.0
  0
LINE
  5
332
330
330
100
AcDbEntity
  8
0
 62
   123
100
AcDbLine
 10
147.3852138674837
 20
129.4782113332053
 30
0.0
 11
147.3852138674837
 21
140.3628149287761
 31
0.0
  0
LINE
  5
333
330
330
100
AcDbEntity
  8
0
 62
   123
100
AcDbLine
 10
149.8852138674838
 20
139.7628149287761
 30
0.0
 11
152.3852138674838
 21
139.7628149287761
 31
0.0
  0
LINE
  5
334
330
330
100
AcDbEntity
  8
0
 62
   123
100
AcDbLine
 10
142.8852138674819
 20
139.7628149287761
 30
0.0
 11
136.3852138674819
 21
139.7628149287761
 31
0.0
  0
LINE
  5
335
330
330
100
AcDbEntity
  8
0
 62
   123
100
AcDbLine
 10
147.3852138674837
 20
139.7628149287761
 30
0.0
 11
145.3852138674819
 21
139.7628149287761
 31
0.0
  0
SOLID
  5
336
330
330
100
AcDbEntity
  8
0
 62
   123
100
AcDbTrace
 10
149.8852138674838
 20
140.1794815954428
 30
0.0
 11
149.8852138674838
 21
139.3461482621094
 31
0.0
 12
147.3852138674837
 22
139.7628149287761
 32
0.0
 13
147.3852138674837
 23
139.7628149287761
 33
0.0
  0
SOLID
  5
337
330
330
100
AcDbEntity
  8
0
 62
   123
100
AcDbTrace
 10
142.8852138674819
 20
140.1794815954428
 30
0.0
 11
142.8852138674819
 21
139.3461482621094
 31
0.0
 12
145.3852138674819
 22
139.7628149287761
 32
0.0
 13
145.3852138674819
 23
139.7628149287761
 33
0.0
  0
MTEXT
  5
338
330
330
100
AcDbEntity
  8
0
 62
     3
100
AcDbMText
 10
138.3852138674819
 20
142.2628149287761
 30
0.0
 40
3.0
 41
0.0
 71
     5
 72
     1
  1
\A1;2
1001
ACAD
1000
MTEXTBEGIN
1070
    73
1070
     1
1070
    44
1040
1.0
1070
    74
1070
     0
1000
MTEXTEND
  0
POINT
  5
339
330
330
100
AcDbEntity
  8
DEFPOINTS
 62
     0
100
AcDbPoint
 10
145.3852138674819
 20
125.4782113332044
 30
0.0
  0
POINT
  5
33A
330
330
100
AcDbEntity
  8
DEFPOINTS
 62
     0
100
AcDbPoint
 10
147.3852138674837
 20
128.4782113332053
 30
0.0
  0
POINT
  5
33B
330
330
100
AcDbEntity
  8
DEFPOINTS
 62
     0
100
AcDbPoint
 10
147.3852138674837
 20
139.7628149287761
 30
0.0
  0
ENDBLK
  5
33D
330
330
100
AcDbEntity
  8
0
100
AcDbBlockEnd
  0
BLOCK
  5
34A
330
33E
100
AcDbEntity
  8
0
100
AcDbBlockBegin
  2
*D29
 70
     1
 10
0.0
 20
0.0
 30
0.0
  3
*D29
  1

  0
LINE
  5
33F
330
33E
100
AcDbEntity
  8
0
 62
   123
100
AcDbLine
 10
147.3852138674837
 20
139.7628149287752
 30
0.0
 11
147.3852138674837
 21
140.3628149287761
 31
0.0
  0
LINE
  5
340
330
33E
100
AcDbEntity
  8
0
 62
   123
100
AcDbLine
 10
154.3852138674819
 20
128.0769486747331
 30
0.0
 11
154.3852138674819
 21
140.3628149287761
 31
0.0
  0
LINE
  5
341
330
33E
100
AcDbEntity
  8
0
 62
   123
100
AcDbLine
 10
144.8852138674838
 20
139.7628149287761
 30
0.0
 11
142.3852138674837
 21
139.7628149287761
 31
0.0
  0
LINE
  5
342
330
33E
100
AcDbEntity
  8
0
 62
   123
100
AcDbLine
 10
156.8852138674819
 20
139.7628149287761
 30
0.0
 11
159.3852138674819
 21
139.7628149287761
 31
0.0
  0
LINE
  5
343
330
33E
100
AcDbEntity
  8
0
 62
   123
100
AcDbLine
 10
147.3852138674837
 20
139.7628149287761
 30
0.0
 11
154.3852138674819
 21
139.7628149287761
 31
0.0
  0
SOLID
  5
344
330
33E
100
AcDbEntity
  8
0
 62
   123
100
AcDbTrace
 10
144.8852138674838
 20
140.1794815954428
 30
0.0
 11
144.8852138674838
 21
139.3461482621094
 31
0.0
 12
147.3852138674837
 22
139.7628149287761
 32
0.0
 13
147.3852138674837
 23
139.7628149287761
 33
0.0
  0
SOLID
  5
345
330
33E
100
AcDbEntity
  8
0
 62
   123
100
AcDbTrace
 10
156.8852138674819
 20
140.1794815954428
 30
0.0
 11
156.8852138674819
 21
139.3461482621094
 31
0.0
 12
154.3852138674819
 22
139.7628149287761
 32
0.0
 13
154.3852138674819
 23
139.7628149287761
 33
0.0
  0
MTEXT
  5
346
330
33E
100
AcDbEntity
  8
0
 62
     3
100
AcDbMText
 10
150.8852138674829
 20
142.2628149287761
 30
0.0
 40
3.0
 41
0.0
 71
     5
 72
     1
  1
\A1;7
1001
ACAD
1000
MTEXTBEGIN
1070
    73
1070
     1
1070
    44
1040
1.0
1070
    74
1070
     0
1000
MTEXTEND
  0
POINT
  5
347
330
33E
100
AcDbEntity
  8
DEFPOINTS
 62
     0
100
AcDbPoint
 10
147.3852138674837
 20
138.7628149287752
 30
0.0
  0
POINT
  5
348
330
33E
100
AcDbEntity
  8
DEFPOINTS
 62
     0
100
AcDbPoint
 10
154.3852138674819
 20
127.0769486747331
 30
0.0
  0
POINT
  5
349
330
33E
100
AcDbEntity
  8
DEFPOINTS
 62
     0
100
AcDbPoint
 10
154.3852138674819
 20
139.7628149287761
 30
0.0
  0
ENDBLK
  5
34B
330
33E
100
AcDbEntity
  8
0
100
AcDbBlockEnd
  0
BLOCK
  5
356
330
34C
100
AcDbEntity
  8
0
100
AcDbBlockBegin
  2
*D30
 70
     1
 10
0.0
 20
0.0
 30
0.0
  3
*D30
  1

  0
LINE
  5
34D
330
34C
100
AcDbEntity
  8
0
 62
   123
100
AcDbLine
 10
147.3852138674837
 20
151.0283254636174
 30
0.0
 11
147.3852138674837
 21
150.6283254636174
 31
0.0
  0
LINE
  5
34E
330
34C
100
AcDbEntity
  8
0
 62
   123
100
AcDbLine
 10
267.3852138674829
 20
124.9782113332043
 30
0.0
 11
267.3852138674829
 21
150.6283254636174
 31
0.0
  0
LINE
  5
34F
330
34C
100
AcDbEntity
  8
0
 62
   123
100
AcDbLine
 10
149.8852138674838
 20
150.0283254636174
 30
0.0
 11
264.8852138674829
 21
150.0283254636174
 31
0.0
  0
SOLID
  5
350
330
34C
100
AcDbEntity
  8
0
 62
   123
100
AcDbTrace
 10
149.8852138674838
 20
150.444992130284
 30
0.0
 11
149.8852138674838
 21
149.6116587969507
 31
0.0
 12
147.3852138674837
 22
150.0283254636174
 32
0.0
 13
147.3852138674837
 23
150.0283254636174
 33
0.0
  0
SOLID
  5
351
330
34C
100
AcDbEntity
  8
0
 62
   123
100
AcDbTrace
 10
264.8852138674829
 20
150.444992130284
 30
0.0
 11
264.8852138674829
 21
149.6116587969507
 31
0.0
 12
267.3852138674829
 22
150.0283254636174
 32
0.0
 13
267.3852138674829
 23
150.0283254636174
 33
0.0
  0
MTEXT
  5
352
330
34C
100
AcDbEntity
  8
0
 62
     3
100
AcDbMText
 10
207.385213867481
 20
152.5283254636174
 30
0.0
 40
3.0
 41
0.0
 71
     5
 72
     1
  1
\A1;120
1001
ACAD
1000
MTEXTBEGIN
1070
    73
1070
     1
1070
    44
1040
1.0
1070
    74
1070
     0
1000
MTEXTEND
  0
POINT
  5
353
330
34C
100
AcDbEntity
  8
DEFPOINTS
 62
     0
100
AcDbPoint
 10
147.3852138674837
 20
150.0283254636174
 30
0.0
  0
POINT
  5
354
330
34C
100
AcDbEntity
  8
DEFPOINTS
 62
     0
100
AcDbPoint
 10
267.3852138674829
 20
123.9782113332043
 30
0.0
  0
POINT
  5
355
330
34C
100
AcDbEntity
  8
DEFPOINTS
 62
     0
100
AcDbPoint
 10
267.3852138674829
 20
150.0283254636174
 30
0.0
  0
ENDBLK
  5
357
330
34C
100
AcDbEntity
  8
0
100
AcDbBlockEnd
  0
BLOCK
  5
362
330
358
100
AcDbEntity
  8
0
100
AcDbBlockBegin
  2
*D31
 70
     1
 10
0.0
 20
0.0
 30
0.0
  3
*D31
  1

  0
LINE
  5
359
330
358
100
AcDbEntity
  8
0
 62
   123
100
AcDbLine
 10
-1.82043260744922
 20
306.8148227928702
 30
0.0
 11
-1.820432607449219
 21
323.9826179187763
 31
0.0
  0
LINE
  5
35A
330
358
100
AcDbEntity
  8
0
 62
   123
100
AcDbLine
 10
68.17956739255169
 20
306.8148227928702
 30
0.0
 11
68.17956739255169
 21
323.9826179187763
 31
0.0
  0
LINE
  5
35B
330
358
100
AcDbEntity
  8
0
 62
   123
100
AcDbLine
 10
0.679567392550781
 20
323.3826179187762
 30
0.0
 11
65.67956739255169
 21
323.3826179187762
 31
0.0
  0
SOLID
  5
35C
330
358
100
AcDbEntity
  8
0
 62
   123
100
AcDbTrace
 10
0.679567392550781
 20
323.7992845854429
 30
0.0
 11
0.679567392550781
 21
322.9659512521096
 31
0.0
 12
-1.820432607449219
 22
323.3826179187762
 32
0.0
 13
-1.820432607449219
 23
323.3826179187762
 33
0.0
  0
SOLID
  5
35D
330
358
100
AcDbEntity
  8
0
 62
   123
100
AcDbTrace
 10
65.67956739255169
 20
323.7992845854429
 30
0.0
 11
65.67956739255169
 21
322.9659512521096
 31
0.0
 12
68.17956739255169
 22
323.3826179187762
 32
0.0
 13
68.17956739255169
 23
323.3826179187762
 33
0.0
  0
MTEXT
  5
35E
330
358
100
AcDbEntity
  8
0
 62
     3
100
AcDbMText
 10
33.17956739255169
 20
325.8826179187763
 30
0.0
 40
3.0
 41
0.0
 71
     5
 72
     1
  1
\A1;70
1001
ACAD
1000
MTEXTBEGIN
1070
    73
1070
     1
1070
    44
1040
1.0
1070
    74
1070
     0
1000
MTEXTEND
  0
POINT
  5
35F
330
358
100
AcDbEntity
  8
DEFPOINTS
 62
     0
100
AcDbPoint
 10
-1.82043260744922
 20
305.8148227928702
 30
0.0
  0
POINT
  5
360
330
358
100
AcDbEntity
  8
DEFPOINTS
 62
     0
100
AcDbPoint
 10
68.17956739255169
 20
305.8148227928702
 30
0.0
  0
POINT
  5
361
330
358
100
AcDbEntity
  8
DEFPOINTS
 62
     0
100
AcDbPoint
 10
68.17956739255169
 20
323.3826179187762
 30
0.0
  0
ENDBLK
  5
363
330
358
100
AcDbEntity
  8
0
100
AcDbBlockEnd
  0
BLOCK
  5
36E
330
364
100
AcDbEntity
  8
0
100
AcDbBlockBegin
  2
*D32
 70
     1
 10
0.0
 20
0.0
 30
0.0
  3
*D32
  1

  0
LINE
  5
365
330
364
100
AcDbEntity
  8
0
 62
   123
100
AcDbLine
 10
124.7436280620268
 20
335.459908686043
 30
0.0
 11
124.7436280620268
 21
335.059908686043
 31
0.0
  0
LINE
  5
366
330
364
100
AcDbEntity
  8
0
 62
   123
100
AcDbLine
 10
244.7436280620276
 20
307.3148227928713
 30
0.0
 11
244.7436280620276
 21
335.059908686043
 31
0.0
  0
LINE
  5
367
330
364
100
AcDbEntity
  8
0
 62
   123
100
AcDbLine
 10
127.2436280620268
 20
334.459908686043
 30
0.0
 11
242.2436280620277
 21
334.459908686043
 31
0.0
  0
SOLID
  5
368
330
364
100
AcDbEntity
  8
0
 62
   123
100
AcDbTrace
 10
127.2436280620268
 20
334.8765753527097
 30
0.0
 11
127.2436280620268
 21
334.0432420193763
 31
0.0
 12
124.7436280620268
 22
334.459908686043
 32
0.0
 13
124.7436280620268
 23
334.459908686043
 33
0.0
  0
SOLID
  5
369
330
364
100
AcDbEntity
  8
0
 62
   123
100
AcDbTrace
 10
242.2436280620277
 20
334.8765753527097
 30
0.0
 11
242.2436280620277
 21
334.0432420193763
 31
0.0
 12
244.7436280620276
 22
334.459908686043
 32
0.0
 13
244.7436280620276
 23
334.459908686043
 33
0.0
  0
MTEXT
  5
36A
330
364
100
AcDbEntity
  8
0
 62
     3
100
AcDbMText
 10
184.7436280620268
 20
336.959908686043
 30
0.0
 40
3.0
 41
0.0
 71
     5
 72
     1
  1
\A1;120
1001
ACAD
1000
MTEXTBEGIN
1070
    73
1070
     1
1070
    44
1040
1.0
1070
    74
1070
     0
1000
MTEXTEND
  0
POINT
  5
36B
330
364
100
AcDbEntity
  8
DEFPOINTS
 62
     0
100
AcDbPoint
 10
124.7436280620268
 20
334.459908686043
 30
0.0
  0
POINT
  5
36C
330
364
100
AcDbEntity
  8
DEFPOINTS
 62
     0
100
AcDbPoint
 10
244.7436280620276
 20
306.3148227928714
 30
0.0
  0
POINT
  5
36D
330
364
100
AcDbEntity
  8
DEFPOINTS
 62
     0
100
AcDbPoint
 10
244.7436280620276
 20
334.459908686043
 30
0.0
  0
ENDBLK
  5
36F
330
364
100
AcDbEntity
  8
0
100
AcDbBlockEnd
  0
BLOCK
  5
37A
330
370
100
AcDbEntity
  8
0
100
AcDbBlockBegin
  2
*D33
 70
     1
 10
0.0
 20
0.0
 30
0.0
  3
*D33
  1

  0
LINE
  5
371
330
370
100
AcDbEntity
  8
0
 62
   123
100
AcDbLine
 10
111.7436280620268
 20
279.2648227928721
 30
0.0
 11
111.7436280620268
 21
335.059908686043
 31
0.0
  0
LINE
  5
372
330
370
100
AcDbEntity
  8
0
 62
   123
100
AcDbLine
 10
124.7436280620268
 20
311.8148227928713
 30
0.0
 11
124.7436280620268
 21
335.059908686043
 31
0.0
  0
LINE
  5
373
330
370
100
AcDbEntity
  8
0
 62
   123
100
AcDbLine
 10
114.2436280620268
 20
334.459908686043
 30
0.0
 11
122.2436280620267
 21
334.459908686043
 31
0.0
  0
SOLID
  5
374
330
370
100
AcDbEntity
  8
0
 62
   123
100
AcDbTrace
 10
114.2436280620268
 20
334.8765753527097
 30
0.0
 11
114.2436280620268
 21
334.0432420193763
 31
0.0
 12
111.7436280620268
 22
334.459908686043
 32
0.0
 13
111.7436280620268
 23
334.459908686043
 33
0.0
  0
SOLID
  5
375
330
370
100
AcDbEntity
  8
0
 62
   123
100
AcDbTrace
 10
122.2436280620267
 20
334.8765753527097
 30
0.0
 11
122.2436280620267
 21
334.0432420193763
 31
0.0
 12
124.7436280620268
 22
334.459908686043
 32
0.0
 13
124.7436280620268
 23
334.459908686043
 33
0.0
  0
MTEXT
  5
376
330
370
100
AcDbEntity
  8
0
 62
     3
100
AcDbMText
 10
118.2436280620286
 20
336.959908686043
 30
0.0
 40
3.0
 41
0.0
 71
     5
 72
     1
  1
\A1;13
1001
ACAD
1000
MTEXTBEGIN
1070
    73
1070
     1
1070
    44
1040
1.0
1070
    74
1070
     0
1000
MTEXTEND
  0
POINT
  5
377
330
370
100
AcDbEntity
  8
DEFPOINTS
 62
     0
100
AcDbPoint
 10
111.7436280620268
 20
278.2648227928721
 30
0.0
  0
POINT
  5
378
330
370
100
AcDbEntity
  8
DEFPOINTS
 62
     0
100
AcDbPoint
 10
124.7436280620268
 20
310.8148227928714
 30
0.0
  0
POINT
  5
379
330
370
100
AcDbEntity
  8
DEFPOINTS
 62
     0
100
AcDbPoint
 10
124.7436280620268
 20
334.459908686043
 30
0.0
  0
ENDBLK
  5
37B
330
370
100
AcDbEntity
  8
0
100
AcDbBlockEnd
  0
BLOCK
  5
386
330
37C
100
AcDbEntity
  8
0
100
AcDbBlockBegin
  2
*D34
 70
     1
 10
0.0
 20
0.0
 30
0.0
  3
*D34
  1

  0
LINE
  5
37D
330
37C
100
AcDbEntity
  8
0
 62
   123
100
AcDbLine
 10
124.7436280620268
 20
323.8390653194069
 30
0.0
 11
124.7436280620268
 21
324.4390653194069
 31
0.0
  0
LINE
  5
37E
330
37C
100
AcDbEntity
  8
0
 62
   123
100
AcDbLine
 10
131.7436280620286
 20
310.4135601344003
 30
0.0
 11
131.7436280620286
 21
324.4390653194069
 31
0.0
  0
LINE
  5
37F
330
37C
100
AcDbEntity
  8
0
 62
   123
100
AcDbLine
 10
127.2436280620268
 20
323.8390653194069
 30
0.0
 11
129.2436280620286
 21
323.8390653194069
 31
0.0
  0
SOLID
  5
380
330
37C
100
AcDbEntity
  8
0
 62
   123
100
AcDbTrace
 10
127.2436280620268
 20
324.2557319860736
 30
0.0
 11
127.2436280620268
 21
323.4223986527402
 31
0.0
 12
124.7436280620268
 22
323.8390653194069
 32
0.0
 13
124.7436280620268
 23
323.8390653194069
 33
0.0
  0
SOLID
  5
381
330
37C
100
AcDbEntity
  8
0
 62
   123
100
AcDbTrace
 10
129.2436280620286
 20
324.2557319860736
 30
0.0
 11
129.2436280620286
 21
323.4223986527402
 31
0.0
 12
131.7436280620286
 22
323.8390653194069
 32
0.0
 13
131.7436280620286
 23
323.8390653194069
 33
0.0
  0
MTEXT
  5
382
330
37C
100
AcDbEntity
  8
0
 62
     3
100
AcDbMText
 10
128.4936280620295
 20
326.3390653194069
 30
0.0
 40
3.0
 41
0.0
 71
     5
 72
     1
  1
\A1;7
1001
ACAD
1000
MTEXTBEGIN
1070
    73
1070
     1
1070
    44
1040
1.0
1070
    74
1070
     0
1000
MTEXTEND
  0
POINT
  5
383
330
37C
100
AcDbEntity
  8
DEFPOINTS
 62
     0
100
AcDbPoint
 10
124.7436280620268
 20
322.8390653194069
 30
0.0
  0
POINT
  5
384
330
37C
100
AcDbEntity
  8
DEFPOINTS
 62
     0
100
AcDbPoint
 10
131.7436280620286
 20
309.4135601344003
 30
0.0
  0
POINT
  5
385
330
37C
100
AcDbEntity
  8
DEFPOINTS
 62
     0
100
AcDbPoint
 10
131.7436280620286
 20
323.8390653194069
 30
0.0
  0
ENDBLK
  5
387
330
37C
100
AcDbEntity
  8
0
100
AcDbBlockEnd
  0
BLOCK
  5
394
330
388
100
AcDbEntity
  8
0
100
AcDbBlockBegin
  2
*D35
 70
     1
 10
0.0
 20
0.0
 30
0.0
  3
*D35
  1

  0
LINE
  5
389
330
388
100
AcDbEntity
  8
0
 62
   123
100
AcDbLine
 10
122.7436280620286
 20
308.8148227928714
 30
0.0
 11
122.7436280620286
 21
324.4390653194069
 31
0.0
  0
LINE
  5
38A
330
388
100
AcDbEntity
  8
0
 62
   123
100
AcDbLine
 10
124.7436280620268
 20
311.8148227928713
 30
0.0
 11
124.7436280620268
 21
324.4390653194069
 31
0.0
  0
LINE
  5
38B
330
388
100
AcDbEntity
  8
0
 62
   123
100
AcDbLine
 10
127.2436280620268
 20
323.8390653194069
 30
0.0
 11
129.7436280620267
 21
323.8390653194069
 31
0.0
  0
LINE
  5
38C
330
388
100
AcDbEntity
  8
0
 62
   123
100
AcDbLine
 10
120.2436280620286
 20
323.8390653194069
 30
0.0
 11
113.7436280620286
 21
323.8390653194069
 31
0.0
  0
LINE
  5
38D
330
388
100
AcDbEntity
  8
0
 62
   123
100
AcDbLine
 10
124.7436280620268
 20
323.8390653194069
 30
0.0
 11
122.7436280620286
 21
323.8390653194069
 31
0.0
  0
SOLID
  5
38E
330
388
100
AcDbEntity
  8
0
 62
   123
100
AcDbTrace
 10
127.2436280620268
 20
324.2557319860736
 30
0.0
 11
127.2436280620268
 21
323.4223986527402
 31
0.0
 12
124.7436280620268
 22
323.8390653194069
 32
0.0
 13
124.7436280620268
 23
323.8390653194069
 33
0.0
  0
SOLID
  5
38F
330
388
100
AcDbEntity
  8
0
 62
   123
100
AcDbTrace
 10
120.2436280620286
 20
324.2557319860736
 30
0.0
 11
120.2436280620286
 21
323.4223986527402
 31
0.0
 12
122.7436280620286
 22
323.8390653194069
 32
0.0
 13
122.7436280620286
 23
323.8390653194069
 33
0.0
  0
MTEXT
  5
390
330
388
100
AcDbEntity
  8
0
 62
     3
100
AcDbMText
 10
115.7436280620286
 20
326.3390653194069
 30
0.0
 40
3.0
 41
0.0
 71
     5
 72
     1
  1
\A1;2
1001
ACAD
1000
MTEXTBEGIN
1070
    73
1070
     1
1070
    44
1040
1.0
1070
    74
1070
     0
1000
MTEXTEND
  0
POINT
  5
391
330
388
100
AcDbEntity
  8
DEFPOINTS
 62
     0
100
AcDbPoint
 10
122.7436280620286
 20
307.8148227928713
 30
0.0
  0
POINT
  5
392
330
388
100
AcDbEntity
  8
DEFPOINTS
 62
     0
100
AcDbPoint
 10
124.7436280620268
 20
310.8148227928714
 30
0.0
  0
POINT
  5
393
330
388
100
AcDbEntity
  8
DEFPOINTS
 62
     0
100
AcDbPoint
 10
124.7436280620268
 20
323.8390653194069
 30
0.0
  0
ENDBLK
  5
395
330
388
100
AcDbEntity
  8
0
100
AcDbBlockEnd
  0
ENDSEC
  0
SECTION
  2
ENTITIES
  0
ARC
  5
9D
330
2
100
AcDbEntity
  8
0
 48
0.6
100
AcDbCircle
 10
33.17956739255714
 20
275.8148227928713
 30
0.0
 40
27.83999999999998
100
AcDbArc
 50
206.3656725032168
 51
243.634327496789
  0
ARC
  5
9E
330
2
100
AcDbEntity
  8
0
 48
0.6
100
AcDbCircle
 10
33.17956739255714
 20
275.8148227928713
 30
0.0
 40
27.83999999999998
100
AcDbArc
 50
296.3656725032108
 51
333.6343274967831
  0
CIRCLE
  5
9F
330
2
100
AcDbEntity
  8
0
 48
0.6
100
AcDbCircle
 10
33.17956739255714
 20
275.8148227928713
 30
0.0
 40
33.5
  0
CIRCLE
  5
A0
330
2
100
AcDbEntity
  8
0
 48
0.6
100
AcDbCircle
 10
33.17956739255714
 20
275.8148227928713
 30
0.0
 40
32.00000000000005
  0
INSERT
  5
A1
330
2
100
AcDbEntity
  8
0
100
AcDbBlockReference
  2
3
 10
33.17956739256169
 20
275.8148227928713
 30
0.0
  0
LINE
  5
C3
330
2
100
AcDbEntity
  8
0
 48
0.6
100
AcDbLine
 10
-1.82043260744922
 20
305.8148227928702
 30
0.0
 11
-1.82043260744922
 21
245.8148227928713
 31
0.0
  0
LINE
  5
C4
102
{ACAD_REACTORS
330
EA
102
}
330
2
100
AcDbEntity
  8
CEN
  6
CENTER
 62
     1
 48
0.6
100
AcDbLine
 10
33.17956739255714
 20
275.8148227928713
 30
0.0
 11
51.43460739944294
 21
231.7432576265773
 31
0.0
  0
LINE
  5
C5
102
{ACAD_REACTORS
330
EA
102
}
330
2
100
AcDbEntity
  8
CEN
  6
CENTER
 48
0.6
100
AcDbLine
 10
33.17956739255441
 20
233.7671097886659
 30
0.0
 11
33.17956739255441
 21
317.8625357970663
 31
0.0
  0
LINE
  5
C6
330
2
100
AcDbEntity
  8
0
100
AcDbLine
 10
130.8436280620298
 20
310.8148227928714
 30
0.0
 11
130.8436280620298
 21
240.8148227928713
 31
0.0
  0
LINE
  5
C7
330
2
100
AcDbEntity
  8
0
100
AcDbLine
 10
124.7436280620268
 20
310.8148227928714
 30
0.0
 11
124.7436280620268
 21
240.8148227928713
 31
0.0
  0
LINE
  5
C8
102
{ACAD_REACTORS
330
CB
102
}
330
2
100
AcDbEntity
  8
0
100
AcDbLine
 10
122.7436280620286
 20
307.8148227928713
 30
0.0
 11
122.7436280620286
 21
243.8148227928713
 31
0.0
  0
DIMENSION
  5
C9
102
{ACAD_XDICTIONARY
360
CA
102
}
102
{ACAD_REACTORS
330
CB
102
}
330
2
100
AcDbEntity
  8
0
100
AcDbDimension
  2
*D21
 10
100.8531929493402
 20
243.8148227928713
 30
0.0
 11
100.8531929493401
 21
273.9717917549628
 31
0.0
 70
   160
  1
\A1;%%C{\f??|b0|i0|c0|p49;64\H0.7x;\S+0^ -0.030;\H1.429x;(h7)} 
  3
STANDARD
100
AcDbAlignedDimension
 13
122.7436280620286
 23
307.8148227928713
 33
0.0
 14
122.7436280620286
 24
243.8148227928713
 34
0.0
 50
90.0
100
AcDbRotatedDimension
  0
LINE
  5
D8
330
2
100
AcDbEntity
  8
0
 48
0.6
100
AcDbLine
 10
68.17956739255169
 20
305.8148227928702
 30
0.0
 11
68.17956739255169
 21
245.8148227928713
 31
0.0
  0
LINE
  5
D9
330
2
100
AcDbEntity
  8
0
100
AcDbLine
 10
208.5238500991399
 20
310.8148227928722
 30
0.0
 11
208.5238500991399
 21
240.8148227928732
 31
0.0
  0
LINE
  5
DA
330
2
100
AcDbEntity
  8
0
100
AcDbLine
 10
244.7436280620276
 20
305.8148227928723
 30
0.0
 11
244.7436280620276
 21
245.8148227928731
 31
0.0
  0
DIMENSION
  5
DB
330
2
100
AcDbEntity
  8
0
100
AcDbDimension
  2
*D20
 10
258.8998480022692
 20
240.8148227928723
 30
0.0
 11
258.8998480022691
 21
275.8148227928713
 31
0.0
 70
   160
  1
%%C<>
  3
STANDARD
100
AcDbAlignedDimension
 13
240.7436280620277
 23
310.8148227928722
 33
0.0
 14
240.7436280620277
 24
240.8148227928723
 34
0.0
 50
90.0
100
AcDbRotatedDimension
  0
DIMENSION
  5
E8
102
{ACAD_XDICTIONARY
360
E9
102
}
102
{ACAD_REACTORS
330
EA
102
}
330
2
100
AcDbEntity
  8
0
100
AcDbDimension
  2
*D19
 10
33.17956739255441
 20
317.8625357970663
 30
0.0
 11
44.2764970926093
 21
220.0267898704397
 31
0.0
 70
    34
  3
STANDARD
100
AcDb2LineAngularDimension
 13
33.17956739255714
 23
275.8148227928713
 33
0.0
 14
51.43460739944294
 24
231.7432576265773
 34
0.0
 15
33.17956739255441
 25
233.7671097886673
 35
0.0
 16
40.96763446591167
 26
216.6585802902365
 36
0.0
1001
ACAD
1000
DSTYLE
1002
{
1070
   271
1070
     1
1070
   271
1070
     1
1070
   271
1070
     1
1070
   271
1070
     1
1070
   271
1070
     1
1070
   271
1070
     1
1070
   271
1070
     1
1070
   271
1070
     1
1070
   271
1070
     1
1070
   271
1070
     1
1070
   271
1070
     1
1070
   271
1070
     1
1070
   271
1070
     1
1070
   271
1070
     1
1070
   271
1070
     1
1070
   271
1070
     1
1070
   271
1070
     1
1070
   271
1070
     1
1070
   271
1070
     1
1070
   271
1070
     1
1070
   271
1070
     1
1070
   271
1070
     1
1070
   271
1070
     1
1070
   271
1070
     1
1070
   271
1070
     1
1070
   271
1070
     1
1070
   271
1070
     1
1070
   271
1070
     1
1070
   271
1070
     1
1070
   271
1070
     1
1070
   271
1070
     1
1070
   271
1070
     1
1070
   271
1070
     1
1070
   271
1070
     1
1070
   271
1070
     1
1070
   271
1070
     1
1070
   271
1070
     1
1070
   271
1070
     1
1070
   271
1070
     1
1070
   271
1070
     1
1070
   271
1070
     1
1070
   271
1070
     1
1070
   271
1070
     1
1070
   271
1070
     1
1070
   271
1070
     1
1070
   271
1070
     1
1070
   271
1070
     1
1070
   271
1070
     1
1070
   271
1070
     1
1070
   271
1070
     1
1070
   271
1070
     1
1070
   271
1070
     1
1070
   271
1070
     1
1070
   271
1070
     1
1070
   271
1070
     1
1070
   271
1070
     1
1070
   271
1070
     1
1070
   271
1070
     1
1070
   271
1070
     1
1070
   271
1070
     1
1070
   271
1070
     1
1070
   271
1070
     1
1070
   271
1070
     1
1070
   271
1070
     1
1070
   271
1070
     1
1070
   271
1070
     1
1070
   271
1070
     1
1070
   271
1070
     1
1070
   271
1070
     1
1070
   271
1070
     1
1070
   271
1070
     1
1070
   271
1070
     1
1070
   271
1070
     1
1070
   271
1070
     1
1070
   271
1070
     1
1070
   271
1070
     1
1070
   271
1070
     1
1070
   271
1070
     1
1070
   271
1070
     1
1070
   271
1070
     1
1070
   271
1070
     1
1070
   271
1070
     1
1070
   271
1070
     1
1070
   271
1070
     1
1070
   271
1070
     1
1070
   271
1070
     1
1070
   271
1070
     1
1070
   271
1070
     1
1070
   271
1070
     1
1070
   271
1070
     1
1070
   271
1070
     1
1070
   271
1070
     1
1070
   271
1070
     1
1070
   271
1070
     1
1070
   271
1070
     1
1070
   271
1070
     1
1070
   271
1070
     1
1070
   271
1070
     1
1070
   271
1070
     1
1002
}
  0
LINE
  5
F9
330
2
100
AcDbEntity
  8
0
100
AcDbLine
 10
231.1654359045915
 20
128.4782113332062
 30
0.0
 11
231.1654359045915
 21
58.47821133320621
 31
0.0
  0
LINE
  5
FA
102
{ACAD_REACTORS
330
128
102
}
330
2
100
AcDbEntity
  8
0
100
AcDbLine
 10
145.3852138674819
 20
125.4782113332044
 30
0.0
 11
145.3852138674819
 21
61.4782113332044
 31
0.0
  0
LINE
  5
FB
330
2
100
AcDbEntity
  8
0
100
AcDbLine
 10
147.3852138674837
 20
128.4782113332044
 30
0.0
 11
147.3852138674837
 21
58.4782113332044
 31
0.0
  0
LINE
  5
FC
330
2
100
AcDbEntity
  8
0
100
AcDbLine
 10
153.485213867485
 20
128.4782113332044
 30
0.0
 11
153.485213867485
 21
58.4782113332044
 31
0.0
  0
DIMENSION
  5
FD
330
2
100
AcDbEntity
  8
0
100
AcDbDimension
  2
*D25
 10
281.5414338077244
 20
58.4782113332053
 30
0.0
 11
281.5414338077244
 21
93.4782113332044
 31
0.0
 70
   160
  1
%%C<>
  3
STANDARD
100
AcDbAlignedDimension
 13
263.3852138674792
 23
128.4782113332053
 33
0.0
 14
263.3852138674792
 24
58.47821133320531
 34
0.0
 50
90.0
100
AcDbRotatedDimension
  0
LINE
  5
10A
330
2
100
AcDbEntity
  8
0
100
AcDbLine
 10
267.3852138674829
 20
123.4782113332062
 30
0.0
 11
267.3852138674829
 21
63.47821133320621
 31
0.0
  0
CIRCLE
  5
10B
330
2
100
AcDbEntity
  8
0
 48
0.6
100
AcDbCircle
 10
36.7847545388995
 20
93.4782113332044
 30
0.0
 40
13.0
  0
ARC
  5
10C
330
2
100
AcDbEntity
  8
0
 48
0.6
100
AcDbCircle
 10
13.91939616316631
 20
82.14481879834147
 30
0.0
 40
2.319999999999998
100
AcDbArc
 50
141.9486744806222
 51
206.3656725032168
  0
ARC
  5
10D
330
2
100
AcDbEntity
  8
0
 48
0.6
100
AcDbCircle
 10
59.65011291463088
 20
82.14481879834147
 30
0.0
 40
2.319999999999998
100
AcDbArc
 50
333.6343274967831
 51
38.05132551937779
  0
DIMENSION
  5
10E
102
{ACAD_XDICTIONARY
360
10F
102
}
102
{ACAD_REACTORS
330
110
102
}
330
2
100
AcDbEntity
  8
0
100
AcDbDimension
  2
*D24
 10
102.5828970329466
 20
96.47821133320441
 30
0.0
 11
102.5828970329466
 21
93.47824612860634
 31
0.0
 70
   160
  1
\A1;{\f??|b0|i0|c0|p49;%%C6\H0.7x;\S+0^ -0.012;\H1.429x;(h7)}
  3
STANDARD
100
AcDbAlignedDimension
 13
115.8852138674838
 23
90.47828092400823
 33
0.0
 14
115.8852834582867
 24
96.47821133320441
 34
0.0
 50
90.0
100
AcDbRotatedDimension
  0
LINE
  5
11F
102
{ACAD_REACTORS
330
137
102
}
330
2
100
AcDbEntity
  8
CEN
  6
CENTER
 62
     1
 48
0.6
100
AcDbLine
 10
36.7847545388995
 20
93.4782113332044
 30
0.0
 11
55.0397945457853
 21
49.40664616690992
 31
0.0
  0
CIRCLE
  5
120
330
2
100
AcDbEntity
  8
0
 48
0.6
100
AcDbCircle
 10
36.7847545388995
 20
93.4782113332044
 30
0.0
 40
32.00000000000005
  0
CIRCLE
  5
121
330
2
100
AcDbEntity
  8
0
 48
0.6
100
AcDbCircle
 10
36.7847545388995
 20
93.4782113332044
 30
0.0
 40
33.5
  0
INSERT
  5
122
330
2
100
AcDbEntity
  8
0
100
AcDbBlockReference
  2
3
 10
36.78475453890769
 20
93.47821133319621
 30
0.0
  0
LINE
  5
123
330
2
100
AcDbEntity
  8
0
 48
0.6
100
AcDbLine
 10
1.784754538894958
 20
123.4782113332044
 30
0.0
 11
1.784754538894958
 21
63.4782113332044
 31
0.0
  0
LINE
  5
124
102
{ACAD_REACTORS
330
137
102
}
330
2
100
AcDbEntity
  8
CEN
  6
CENTER
 48
0.6
100
AcDbLine
 10
36.78475453890405
 20
51.43049832900306
 30
0.0
 11
36.78475453890405
 21
135.5259243374034
 31
0.0
  0
LINE
  5
125
330
2
100
AcDbEntity
  8
0
 48
0.6
100
AcDbLine
 10
71.78475453889496
 20
123.4782113332044
 30
0.0
 11
71.78475453889496
 21
63.4782113332044
 31
0.0
  0
DIMENSION
  5
126
102
{ACAD_XDICTIONARY
360
127
102
}
102
{ACAD_REACTORS
330
128
102
}
330
2
100
AcDbEntity
  8
0
100
AcDbDimension
  2
*D23
 10
91.79818231996797
 20
61.47821133320441
 30
0.0
 11
91.79818231996796
 21
91.63518029529631
 31
0.0
 70
   160
  1
\A1;%%C{\f??|b0|i0|c0|p49;64\H0.7x;\S+0^ -0.030;\H1.429x;(h7)} 
  3
STANDARD
100
AcDbAlignedDimension
 13
145.3852138674819
 23
125.4782113332044
 33
0.0
 14
145.3852138674819
 24
61.4782113332044
 34
0.0
 50
90.0
100
AcDbRotatedDimension
  0
DIMENSION
  5
135
102
{ACAD_XDICTIONARY
360
136
102
}
102
{ACAD_REACTORS
330
137
102
}
330
2
100
AcDbEntity
  8
0
100
AcDbDimension
  2
*D22
 10
36.78475453890405
 20
135.5259243374034
 30
0.0
 11
47.88168423896016
 21
37.69017841074844
 31
0.0
 70
    34
  3
STANDARD
100
AcDb2LineAngularDimension
 13
36.7847545388995
 23
93.4782113332044
 33
0.0
 14
55.0397945457853
 24
49.40664616690992
 34
0.0
 15
36.78475453890405
 25
51.43049832900306
 35
0.0
 16
44.57282161226215
 26
34.32196883054515
 36
0.0
1001
ACAD
1000
DSTYLE
1002
{
1070
   271
1070
     1
1070
   271
1070
     1
1070
   271
1070
     1
1070
   271
1070
     1
1070
   271
1070
     1
1070
   271
1070
     1
1070
   271
1070
     1
1070
   271
1070
     1
1070
   271
1070
     1
1070
   271
1070
     1
1070
   271
1070
     1
1070
   271
1070
     1
1070
   271
1070
     1
1070
   271
1070
     1
1070
   271
1070
     1
1070
   271
1070
     1
1070
   271
1070
     1
1070
   271
1070
     1
1070
   271
1070
     1
1070
   271
1070
     1
1070
   271
1070
     1
1070
   271
1070
     1
1070
   271
1070
     1
1070
   271
1070
     1
1070
   271
1070
     1
1070
   271
1070
     1
1070
   271
1070
     1
1070
   271
1070
     1
1070
   271
1070
     1
1070
   271
1070
     1
1070
   271
1070
     1
1070
   271
1070
     1
1070
   271
1070
     1
1070
   271
1070
     1
1070
   271
1070
     1
1070
   271
1070
     1
1070
   271
1070
     1
1070
   271
1070
     1
1070
   271
1070
     1
1070
   271
1070
     1
1070
   271
1070
     1
1070
   271
1070
     1
1070
   271
1070
     1
1070
   271
1070
     1
1070
   271
1070
     1
1070
   271
1070
     1
1070
   271
1070
     1
1070
   271
1070
     1
1070
   271
1070
     1
1070
   271
1070
     1
1070
   271
1070
     1
1070
   271
1070
     1
1070
   271
1070
     1
1070
   271
1070
     1
1070
   271
1070
     1
1070
   271
1070
     1
1070
   271
1070
     1
1070
   271
1070
     1
1070
   271
1070
     1
1070
   271
1070
     1
1070
   271
1070
     1
1070
   271
1070
     1
1070
   271
1070
     1
1070
   271
1070
     1
1070
   271
1070
     1
1070
   271
1070
     1
1070
   271
1070
     1
1070
   271
1070
     1
1070
   271
1070
     1
1070
   271
1070
     1
1070
   271
1070
     1
1070
   271
1070
     1
1070
   271
1070
     1
1070
   271
1070
     1
1070
   271
1070
     1
1070
   271
1070
     1
1070
   271
1070
     1
1070
   271
1070
     1
1070
   271
1070
     1
1070
   271
1070
     1
1070
   271
1070
     1
1070
   271
1070
     1
1070
   271
1070
     1
1070
   271
1070
     1
1070
   271
1070
     1
1070
   271
1070
     1
1070
   271
1070
     1
1070
   271
1070
     1
1070
   271
1070
     1
1070
   271
1070
     1
1070
   271
1070
     1
1070
   271
1070
     1
1070
   271
1070
     1
1070
   271
1070
     1
1070
   271
1070
     1
1070
   271
1070
     1
1070
   271
1070
     1
1070
   271
1070
     1
1070
   271
1070
     1
1002
}
  0
LINE
  5
146
330
2
100
AcDbEntity
  8
0
 48
0.6
100
AcDbLine
 10
6.784754538894958
 20
58.4782113332044
 30
0.0
 11
66.78475453889496
 21
58.4782113332044
 31
0.0
  0
ARC
  5
147
330
2
100
AcDbEntity
  8
0
 48
0.6
100
AcDbCircle
 10
84.95715417714018
 20
72.78876398174407
 30
0.0
 40
33.95579199999999
100
AcDbArc
 50
204.9259499999998
 51
236.3981230000006
  0
ARC
  5
148
330
2
100
AcDbEntity
  8
0
100
AcDbCircle
 10
84.95715417714018
 20
72.78876398174407
 30
0.0
 40
39.15579199999999
100
AcDbArc
 50
201.4369589999971
 51
235.2486590000054
  0
ARC
  5
149
330
2
100
AcDbEntity
  8
0
100
AcDbCircle
 10
84.95715417714018
 20
72.78876398174407
 30
0.0
 40
36.555792
100
AcDbArc
 50
203.0460947298108
 51
236.3176429999981
  0
ARC
  5
14A
330
2
100
AcDbEntity
  8
0
 48
0.6
100
AcDbCircle
 10
36.7847545388995
 20
93.4782113332044
 30
0.0
 40
27.83999999999998
100
AcDbArc
 50
296.3656725032108
 51
333.6343274967831
  0
ARC
  5
14B
330
2
100
AcDbEntity
  8
0
 48
0.6
100
AcDbCircle
 10
45.25820360125453
 20
66.95904352975322
 30
0.0
 40
2.319999999999998
100
AcDbArc
 50
51.94867448061305
 51
107.719808152805
  0
ARC
  5
14C
330
2
100
AcDbEntity
  8
0
 48
0.6
100
AcDbCircle
 10
6.784754538894958
 20
63.4782113332044
 30
0.0
 40
5.0
100
AcDbArc
 50
180.0
 51
270.0
  0
ARC
  5
14D
330
2
100
AcDbEntity
  8
0
 48
0.6
100
AcDbCircle
 10
36.7847545388995
 20
93.4782113332044
 30
0.0
 40
25.52
100
AcDbArc
 50
252.2801918471949
 51
287.7198081528051
  0
ARC
  5
14E
330
2
100
AcDbEntity
  8
0
 48
0.6
100
AcDbCircle
 10
25.45136200403522
 20
70.6128529574712
 30
0.0
 40
2.319999999999998
100
AcDbArc
 50
243.634327496789
 51
308.0513255193868
  0
ARC
  5
14F
330
2
100
AcDbEntity
  8
0
 48
0.6
100
AcDbCircle
 10
28.31130547653902
 20
66.95904352975322
 30
0.0
 40
2.319999999999998
100
AcDbArc
 50
72.28019184719491
 51
128.0513255193868
  0
LINE
  5
150
330
2
100
AcDbEntity
  8
0
 48
0.6
100
AcDbLine
 10
54.16423464617037
 20
58.4782113332044
 30
0.0
 11
48.4231844196438
 21
58.4782113332044
 31
0.0
  0
ARC
  5
151
330
2
100
AcDbEntity
  8
0
 48
0.6
100
AcDbCircle
 10
48.11814707375652
 20
70.6128529574712
 30
0.0
 40
2.319999999999998
100
AcDbArc
 50
231.948674480613
 51
296.3656725032108
  0
ARC
  5
152
330
2
100
AcDbEntity
  8
0
 48
0.6
100
AcDbCircle
 10
36.7847545388995
 20
93.4782113332044
 30
0.0
 40
27.83999999999998
100
AcDbArc
 50
206.3656725032168
 51
243.634327496789
  0
MTEXT
  5
153
330
2
100
AcDbEntity
  8
DIM
100
AcDbMText
 10
184.6091809551016
 20
0.8113912964372502
 30
0.0
 40
3.5
 41
0.0
 71
     5
 72
     1
  1
UL Style 3271 , AWG20
1001
ACAD
1000
MTEXTBEGIN
1070
    73
1070
     1
1070
    44
1040
1.0
1070
    74
1070
     0
1000
MTEXTEND
  0
LEADER
  5
155
330
2
100
AcDbEntity
  8
0
 48
0.6
100
AcDbLeader
  3
STANDARD
 76
     2
 10
245.7168990947629
 20
45.43250313445696
 30
0.0
 10
214.0840269786222
 20
19.48963304580002
 30
0.0
1001
ACAD
1000
DSTYLE
1002
{
1070
     5
1000

1070
    77
1070
     1
1070
   147
1040
1.0
1070
   342
1005
0
1002
}
  0
LEADER
  5
156
330
2
100
AcDbEntity
  8
0
100
AcDbLeader
  3
STANDARD
 76
     2
 10
160.8130158893645
 20
47.12304275800033
 30
0.0
 10
146.3375081616195
 20
5.849649487223359
 30
0.0
1001
ACAD
1000
DSTYLE
1002
{
1070
     5
1000

1070
    77
1070
     1
1070
   147
1040
1.0
1070
   342
1005
0
1002
}
  0
MTEXT
  5
157
330
2
100
AcDbEntity
  8
DIM
100
AcDbMText
 10
184.378306069183
 20
9.352232858143452
 30
0.0
 40
3.5
 41
0.0
 71
     5
 72
     1
  1
MOTOR LEAD 300mm
1001
ACAD
1000
MTEXTBEGIN
1070
    73
1070
     1
1070
    44
1040
1.0
1070
    74
1070
     0
1000
MTEXTEND
  0
LINE
  5
158
330
2
100
AcDbEntity
  8
0
 62
   123
100
AcDbLine
 10
146.3375081616195
 20
5.849649487223359
 30
0.0
 11
218.8335053995797
 21
5.849649487223359
 31
0.0
  0
MTEXT
  5
159
330
2
100
AcDbEntity
  8
DIM
100
AcDbMText
 10
256.0273686970667
 20
23.4483166619334
 30
0.0
 40
3.5
 41
0.0
 71
     5
 72
     1
  1
BRAKE LEAD 300mm
1001
ACAD
1000
MTEXTBEGIN
1070
    73
1070
     1
1070
    44
1040
1.0
1070
    74
1070
     0
1000
MTEXTEND
  0
LINE
  5
15A
330
2
100
AcDbEntity
  8
0
 62
   123
 48
0.6
100
AcDbLine
 10
214.0840269786222
 20
19.48963304580092
 30
0.0
 11
287.1417286532796
 21
19.48963304580092
 31
0.0
  0
MTEXT
  5
15B
330
2
100
AcDbEntity
  8
DIM
100
AcDbMText
 10
256.8448273661233
 20
15.29319067863116
 30
0.0
 40
3.5
 41
0.0
 71
     5
 72
     1
  1
UL Style 3266 , AWG22
1001
ACAD
1000
MTEXTBEGIN
1070
    73
1070
     1
1070
    44
1040
1.0
1070
    74
1070
     0
1000
MTEXTEND
  0
ARC
  5
15C
330
2
100
AcDbEntity
  8
0
 48
0.6
100
AcDbCircle
 10
253.3545035922834
 20
37.28471033320829
 30
0.0
 40
0.7499080000000001
100
AcDbArc
 50
62.66289500000094
 51
182.8344229999968
  0
ARC
  5
15D
330
2
100
AcDbEntity
  8
0
 48
0.6
100
AcDbCircle
 10
251.8565215922826
 20
37.21054433320841
 30
0.0
 40
0.7499080000000001
100
AcDbArc
 50
242.6628950000009
 51
2.834422999996808
  0
ARC
  5
15E
330
2
100
AcDbEntity
  8
0
 48
0.6
100
AcDbCircle
 10
281.8831775922826
 20
56.88956533320833
 30
0.0
 40
33.95579199999999
100
AcDbArc
 50
179.8504230000004
 51
213.8981229999992
  0
LINE
  5
15F
330
2
100
AcDbEntity
  8
0
100
AcDbLine
 10
262.385213867481
 20
58.47821133320621
 30
0.0
 11
153.4852138674814
 21
58.47821133320621
 31
0.0
  0
ARC
  5
160
330
2
100
AcDbEntity
  8
0
 48
0.6
100
AcDbCircle
 10
281.8831775922826
 20
56.88956533320833
 30
0.0
 40
39.15579199999999
100
AcDbArc
 50
179.8702869999971
 51
212.7486590000019
  0
ARC
  5
161
330
2
100
AcDbEntity
  8
0
 48
0.6
100
AcDbCircle
 10
281.8831775922826
 20
56.88956533320833
 30
0.0
 40
36.555792
100
AcDbArc
 50
179.8610604128478
 51
213.8176429999978
  0
ARC
  5
162
330
2
100
AcDbEntity
  8
0
 48
0.6
100
AcDbCircle
 10
250.7934905922793
 20
36.44837733320719
 30
0.0
 40
0.7499080000000001
100
AcDbArc
 50
62.66289500000094
 51
182.8344229999968
  0
ARC
  5
163
330
2
100
AcDbEntity
  8
0
100
AcDbCircle
 10
195.6879358674823
 20
57.38956533320607
 30
0.0
 40
35.255792
100
AcDbArc
 50
213.8564239999994
 51
219.5987459999966
  0
ARC
  5
164
330
2
100
AcDbEntity
  8
0
100
AcDbCircle
 10
165.6612798674832
 20
37.71054433320614
 30
0.0
 40
0.7499080000000001
100
AcDbArc
 50
242.6628950000009
 51
2.834422999996808
  0
ARC
  5
165
330
2
100
AcDbEntity
  8
0
100
AcDbCircle
 10
195.6879358674823
 20
57.38956533320607
 30
0.0
 40
39.15579199999999
100
AcDbArc
 50
179.8702869999971
 51
212.7486590000019
  0
ARC
  5
166
330
2
100
AcDbEntity
  8
0
100
AcDbCircle
 10
195.6879358674823
 20
57.38956533320607
 30
0.0
 40
36.555792
100
AcDbArc
 50
179.8610604128478
 51
213.8176429999978
  0
ARC
  5
167
330
2
100
AcDbEntity
  8
0
100
AcDbCircle
 10
164.5982488674826
 20
36.94837733320537
 30
0.0
 40
0.7499080000000001
100
AcDbArc
 50
62.66289500000094
 51
182.8344229999968
  0
ARC
  5
168
330
2
100
AcDbEntity
  8
0
 48
0.6
100
AcDbCircle
 10
249.2955095922843
 20
36.37421133320822
 30
0.0
 40
0.7499080000000001
100
AcDbArc
 50
242.6628950000009
 51
2.834422999996808
  0
ARC
  5
169
330
2
100
AcDbEntity
  8
0
100
AcDbCircle
 10
168.2599248674823
 20
34.21479533320598
 30
0.0
 40
0.7499080000000001
100
AcDbArc
 50
69.51298200000024
 51
189.6845099999992
  0
ARC
  5
16A
330
2
100
AcDbEntity
  8
0
100
AcDbCircle
 10
166.7814828674827
 20
33.96249233320531
 30
0.0
 40
0.7499080000000001
100
AcDbArc
 50
249.5129820000002
 51
9.684509999999278
  0
ARC
  5
16B
330
2
100
AcDbEntity
  8
0
100
AcDbCircle
 10
195.6879358674823
 20
57.38956533320607
 30
0.0
 40
37.855792
100
AcDbArc
 50
212.7486590000019
 51
219.5987459999966
  0
ARC
  5
16C
330
2
100
AcDbEntity
  8
0
100
AcDbCircle
 10
163.1002678674822
 20
36.87421133320595
 30
0.0
 40
0.7499080000000001
100
AcDbArc
 50
242.6628950000009
 51
2.834422999996808
  0
LINE
  5
16D
330
2
100
AcDbEntity
  8
0
 48
0.6
100
AcDbLine
 10
250.5804555922841
 20
57.97821133320849
 30
0.0
 11
250.5804555922841
 21
57.47821133320849
 31
0.0
  0
LINE
  5
16E
330
2
100
AcDbEntity
  8
0
 48
0.6
100
AcDbLine
 10
240.5804555922841
 20
57.97821133320849
 30
0.0
 11
240.5804555922841
 21
57.47821133320849
 31
0.0
  0
ARC
  5
16F
330
2
100
AcDbEntity
  8
0
 48
0.6
100
AcDbCircle
 10
241.0804555922859
 20
57.47821133320849
 30
0.0
 40
0.5
100
AcDbArc
 50
180.0
 51
270.0
  0
LINE
  5
170
330
2
100
AcDbEntity
  8
0
 48
0.6
100
AcDbLine
 10
250.0804555922841
 20
56.97821133320849
 30
0.0
 11
241.0804555922859
 21
56.97821133320849
 31
0.0
  0
ARC
  5
171
330
2
100
AcDbEntity
  8
0
 48
0.6
100
AcDbCircle
 10
250.0804555922841
 20
57.47821133320849
 30
0.0
 40
0.5
100
AcDbArc
 50
270.0
 51
0.0
  0
ARC
  5
172
330
2
100
AcDbEntity
  8
0
100
AcDbCircle
 10
167.1592618674812
 20
37.78471033320602
 30
0.0
 40
0.7499080000000001
100
AcDbArc
 50
62.66289500000094
 51
182.8344229999968
  0
LINE
  5
173
330
2
100
AcDbEntity
  8
0
100
AcDbLine
 10
164.3852138674819
 20
58.47821133320621
 30
0.0
 11
164.3852138674819
 21
57.97821133320621
 31
0.0
  0
ARC
  5
174
330
2
100
AcDbEntity
  8
0
100
AcDbCircle
 10
163.885213867481
 20
57.97821133320621
 30
0.0
 40
0.5
100
AcDbArc
 50
270.0
 51
0.0
  0
LINE
  5
175
330
2
100
AcDbEntity
  8
0
100
AcDbLine
 10
154.3852138674819
 20
67.57947399167505
 30
0.0
 11
154.3852138674819
 21
59.87947399167524
 31
0.0
  0
LINE
  5
176
330
2
100
AcDbEntity
  8
0
100
AcDbLine
 10
147.3852138674837
 20
58.4782113332044
 30
0.0
 11
153.485213867485
 21
58.4782113332044
 31
0.0
  0
LINE
  5
177
330
2
100
AcDbEntity
  8
0
100
AcDbLine
 10
153.485213867485
 20
59.87947399167524
 30
0.0
 11
154.3852138674819
 21
59.87947399167524
 31
0.0
  0
LINE
  5
178
330
2
100
AcDbEntity
  8
0
100
AcDbLine
 10
154.3852138674819
 20
58.47821133320621
 30
0.0
 11
154.3852138674819
 21
57.97821133320621
 31
0.0
  0
ARC
  5
179
330
2
100
AcDbEntity
  8
0
100
AcDbCircle
 10
154.885213867481
 20
57.97821133320621
 30
0.0
 40
0.5
100
AcDbArc
 50
180.0
 51
270.0
  0
LINE
  5
17A
330
2
100
AcDbEntity
  8
0
100
AcDbLine
 10
153.485213867485
 20
67.57947399167505
 30
0.0
 11
154.3852138674819
 21
67.57947399167505
 31
0.0
  0
LINE
  5
17B
330
2
100
AcDbEntity
  8
0
100
AcDbLine
 10
147.3852138674837
 20
61.4782113332044
 30
0.0
 11
145.3852138674819
 21
61.4782113332044
 31
0.0
  0
ARC
  5
17C
330
2
100
AcDbEntity
  8
0
100
AcDbCircle
 10
195.6879358674823
 20
57.38956533320607
 30
0.0
 40
33.95579199999999
100
AcDbArc
 50
179.8504230000004
 51
213.8981229999992
  0
LINE
  5
17D
330
2
100
AcDbEntity
  8
0
100
AcDbLine
 10
163.885213867481
 20
57.47821133320622
 30
0.0
 11
154.885213867481
 21
57.47821133320622
 31
0.0
  0
ARC
  5
17E
330
2
100
AcDbEntity
  8
0
100
AcDbCircle
 10
262.385213867481
 20
63.47821133320621
 30
0.0
 40
5.0
100
AcDbArc
 50
269.9999999999998
 51
0.0
  0
ARC
  5
17F
330
2
100
AcDbEntity
  8
0
 48
0.6
100
AcDbCircle
 10
66.78475453889496
 20
63.4782113332044
 30
0.0
 40
5.0
100
AcDbArc
 50
270.0
 51
0.0
  0
ARC
  5
180
330
2
100
AcDbEntity
  8
0
100
AcDbCircle
 10
84.95715417714018
 20
72.78876398174407
 30
0.0
 40
35.255792
100
AcDbArc
 50
236.3564240000014
 51
242.0987460000029
  0
ARC
  5
181
330
2
100
AcDbEntity
  8
0
100
AcDbCircle
 10
66.10254917714155
 20
43.75878798174426
 30
0.0
 40
0.7499080000000001
100
AcDbArc
 50
85.16289500000455
 51
205.3344229999993
  0
ARC
  5
182
330
2
100
AcDbEntity
  8
0
100
AcDbCircle
 10
84.95715417714018
 20
72.78876398174407
 30
0.0
 40
37.855792
100
AcDbArc
 50
235.2486590000054
 51
242.0987460000029
  0
ARC
  5
183
330
2
100
AcDbEntity
  8
0
100
AcDbCircle
 10
64.74697717714207
 20
43.11701598174386
 30
0.0
 40
0.7499080000000001
100
AcDbArc
 50
265.1628950000044
 51
25.33442299999946
  0
ARC
  5
184
330
2
100
AcDbEntity
  8
0
100
AcDbCircle
 10
64.05653317714222
 20
42.00606098174421
 30
0.0
 40
0.7499080000000001
100
AcDbArc
 50
85.16289500000455
 51
205.3344229999993
  0
ARC
  5
185
330
2
100
AcDbEntity
  8
0
100
AcDbCircle
 10
62.70096017714059
 20
41.36428798174302
 30
0.0
 40
0.7499080000000001
100
AcDbArc
 50
265.1628950000044
 51
25.33442299999946
  0
ARC
  5
186
330
2
100
AcDbEntity
  8
0
100
AcDbCircle
 10
68.48557717714084
 20
40.88182298174524
 30
0.0
 40
0.7499080000000001
100
AcDbArc
 50
92.01298199999559
 51
212.184510000001
  0
ARC
  5
187
330
2
100
AcDbEntity
  8
0
100
AcDbCircle
 10
67.21622617713819
 20
40.08294998174551
 30
0.0
 40
0.7499080000000001
100
AcDbArc
 50
272.0129819999954
 51
32.18451000000101
  0
DIMENSION
  5
188
102
{ACAD_XDICTIONARY
360
189
102
}
102
{ACAD_REACTORS
330
18A
102
}
330
2
100
AcDbEntity
  8
0
100
AcDbDimension
  2
*D26
 10
71.78475453889496
 20
141.0460064591102
 30
0.0
 11
36.78475453889495
 21
141.0460064591102
 31
0.0
 70
   160
  3
STANDARD
100
AcDbAlignedDimension
 13
1.784754538894958
 23
123.4782113332044
 33
0.0
 14
71.78475453889496
 24
123.4782113332044
 34
0.0
100
AcDbRotatedDimension
  0
LINE
  5
197
330
2
100
AcDbEntity
  8
CEN
  6
CENTER
 48
0.6
100
AcDbLine
 10
-5.310495164556414
 20
93.47821133320303
 30
0.0
 11
78.88000424236543
 21
93.47821133320303
 31
0.0
  0
LINE
  5
198
330
2
100
AcDbEntity
  8
0
 48
0.6
100
AcDbLine
 10
6.784754538894958
 20
128.4782113332044
 30
0.0
 11
66.78475453889496
 21
128.4782113332044
 31
0.0
  0
ARC
  5
199
330
2
100
AcDbEntity
  8
0
 48
0.6
100
AcDbCircle
 10
36.7847545388995
 20
93.4782113332044
 30
0.0
 40
27.83999999999998
100
AcDbArc
 50
26.36567250321681
 51
63.63432749678904
  0
LEADER
  5
19A
330
2
100
AcDbEntity
  8
0
100
AcDbLeader
  3
STANDARD
 73
     0
 75
     1
 40
3.0
 41
26.65178571428571
 76
     3
 10
65.82042032593927
 20
124.675380714767
 30
0.0
 10
60.81910316721405
 20
150.105234235209
 30
0.0
 10
58.31910316721405
 20
150.105234235209
 30
0.0
340
19B
1001
ACAD
1000
DSTYLE
1002
{
1070
     5
1000

1070
    77
1070
     1
1070
   147
1040
1.0
1070
   342
1005
0
1002
}
  0
MTEXT
  5
19B
102
{ACAD_REACTORS
330
19A
102
}
330
2
100
AcDbEntity
  8
0
 62
     3
100
AcDbMText
 10
57.31910316721405
 20
151.105234235209
 30
0.0
 40
3.0
 41
0.0
 71
     9
 72
     1
  1
4-%%c4.5 hole
1001
ACAD
1000
MTEXTBEGIN
1070
    73
1070
     1
1070
    44
1040
1.0
1070
    74
1070
     0
1000
MTEXTEND
  0
LINE
  5
19C
330
2
100
AcDbEntity
  8
0
 48
0.6
100
AcDbLine
 10
3.179567392550779
 20
240.8148227928713
 30
0.0
 11
63.17956739255078
 21
240.8148227928713
 31
0.0
  0
ARC
  5
19D
330
2
100
AcDbEntity
  8
0
100
AcDbCircle
 10
81.35196703079783
 20
255.1253754414101
 30
0.0
 40
37.855792
100
AcDbArc
 50
235.2486590000054
 51
242.0987460000029
  0
ARC
  5
19E
330
2
100
AcDbEntity
  8
0
100
AcDbCircle
 10
62.49736203079738
 20
226.0953994414112
 30
0.0
 40
0.7499080000000001
100
AcDbArc
 50
85.16289500000455
 51
205.3344229999993
  0
ARC
  5
19F
330
2
100
AcDbEntity
  8
0
100
AcDbCircle
 10
81.35196703079783
 20
255.1253754414101
 30
0.0
 40
35.255792
100
AcDbArc
 50
236.3564240000014
 51
242.0987460000029
  0
ARC
  5
1A0
330
2
100
AcDbEntity
  8
0
 48
0.6
100
AcDbCircle
 10
81.35196703079783
 20
255.1253754414101
 30
0.0
 40
33.95579199999999
100
AcDbArc
 50
204.9259499999998
 51
236.3981230000006
  0
ARC
  5
1A1
330
2
100
AcDbEntity
  8
0
 48
0.6
100
AcDbCircle
 10
45.25820360125453
 20
119.997379136656
 30
0.0
 40
2.319999999999998
100
AcDbArc
 50
252.2801918471949
 51
308.0513255193868
  0
ARC
  5
1A2
102
{ACAD_REACTORS
330
18A
102
}
330
2
100
AcDbEntity
  8
0
 48
0.6
100
AcDbCircle
 10
6.784754538894958
 20
123.4782113332044
 30
0.0
 40
5.0
100
AcDbArc
 50
90.0
 51
180.0
  0
ARC
  5
1A3
330
2
100
AcDbEntity
  8
0
 48
0.6
100
AcDbCircle
 10
36.7847545388995
 20
93.4782113332044
 30
0.0
 40
25.52
100
AcDbArc
 50
72.28019184719491
 51
107.719808152805
  0
ARC
  5
1A4
330
2
100
AcDbEntity
  8
0
 48
0.6
100
AcDbCircle
 10
25.45136200403522
 20
116.3435697089371
 30
0.0
 40
2.319999999999998
100
AcDbArc
 50
51.94867448061305
 51
116.3656725032109
  0
ARC
  5
1A5
330
2
100
AcDbEntity
  8
0
 48
0.6
100
AcDbCircle
 10
28.31130547653902
 20
119.997379136656
 30
0.0
 40
2.319999999999998
100
AcDbArc
 50
231.948674480613
 51
287.7198081528051
  0
LWPOLYLINE
  5
1A6
330
2
100
AcDbEntity
  8
3
100
AcDbPolyline
 90
        4
 70
     1
 43
0.0
 10
29.83649112597504
 20
141.723746579451
 10
33.13649112597522
 20
141.723746579451
 10
33.13649112597522
 20
145.223746579451
 10
29.83649112597504
 20
145.223746579451
  0
ARC
  5
1A8
330
2
100
AcDbEntity
  8
0
 48
0.6
100
AcDbCircle
 10
36.7847545388995
 20
93.4782113332044
 30
0.0
 40
25.52
100
AcDbArc
 50
162.2801918472015
 51
197.7198081527984
  0
ARC
  5
1A9
330
2
100
AcDbEntity
  8
0
 48
0.6
100
AcDbCircle
 10
10.26558673544514
 20
85.00476227084527
 30
0.0
 40
2.319999999999998
100
AcDbArc
 50
321.9486744806221
 51
17.71980815279839
  0
ARC
  5
1AA
330
2
100
AcDbEntity
  8
0
 48
0.6
100
AcDbCircle
 10
13.91939616316631
 20
104.8116038680682
 30
0.0
 40
2.319999999999998
100
AcDbArc
 50
153.634327496783
 51
218.0513255193776
  0
ARC
  5
1AB
330
2
100
AcDbEntity
  8
0
 48
0.6
100
AcDbCircle
 10
10.26558673544514
 20
101.9516603955644
 30
0.0
 40
2.319999999999998
100
AcDbArc
 50
342.2801918472014
 51
38.05132551937779
  0
CIRCLE
  5
1AC
330
2
100
AcDbEntity
  8
0
 48
0.6
100
AcDbCircle
 10
36.7847545388995
 20
93.4782113332044
 30
0.0
 40
2.000000000000055
  0
CIRCLE
  5
1AD
330
2
100
AcDbEntity
  8
0
 48
0.6
100
AcDbCircle
 10
36.7847545388995
 20
93.4782113332044
 30
0.0
 40
3.000000000000055
  0
ARC
  5
1AE
330
2
100
AcDbEntity
  8
0
 48
0.6
100
AcDbCircle
 10
36.7847545388995
 20
93.4782113332044
 30
0.0
 40
27.83999999999998
100
AcDbArc
 50
116.3656725032109
 51
153.634327496783
  0
ARC
  5
1AF
330
2
100
AcDbEntity
  8
0
 48
0.6
100
AcDbCircle
 10
48.11814707375652
 20
116.3435697089371
 30
0.0
 40
2.319999999999998
100
AcDbArc
 50
63.63432749678904
 51
128.0513255193868
  0
ARC
  5
1B0
330
2
100
AcDbEntity
  8
0
 48
0.6
100
AcDbCircle
 10
36.7847545388995
 20
93.4782113332044
 30
0.0
 40
25.52
100
AcDbArc
 50
342.2801918472014
 51
17.71980815279839
  0
ARC
  5
1B1
330
2
100
AcDbEntity
  8
0
 48
0.6
100
AcDbCircle
 10
63.30392234234841
 20
85.00476227084527
 30
0.0
 40
2.319999999999998
100
AcDbArc
 50
162.2801918472015
 51
218.0513255193776
  0
ARC
  5
1B2
330
2
100
AcDbEntity
  8
0
 48
0.6
100
AcDbCircle
 10
63.30392234234841
 20
101.9516603955644
 30
0.0
 40
2.319999999999998
100
AcDbArc
 50
141.9486744806222
 51
197.7198081527984
  0
ARC
  5
1B3
330
2
100
AcDbEntity
  8
0
 48
0.6
100
AcDbCircle
 10
59.65011291463088
 20
104.8116038680682
 30
0.0
 40
2.319999999999998
100
AcDbArc
 50
321.9486744806221
 51
26.36567250321681
  0
ARC
  5
1B4
330
2
100
AcDbEntity
  8
0
 48
0.6
100
AcDbCircle
 10
41.65301645491126
 20
249.2956549894192
 30
0.0
 40
2.319999999999998
100
AcDbArc
 50
51.94867448061305
 51
107.719808152805
  0
ARC
  5
1B5
330
2
100
AcDbEntity
  8
0
 48
0.6
100
AcDbCircle
 10
44.51295992741416
 20
252.9494644171372
 30
0.0
 40
2.319999999999998
100
AcDbArc
 50
231.948674480613
 51
296.3656725032108
  0
ARC
  5
1B6
330
2
100
AcDbEntity
  8
0
 48
0.6
100
AcDbCircle
 10
24.70611833019574
 20
249.2956549894192
 30
0.0
 40
2.319999999999998
100
AcDbArc
 50
72.28019184719491
 51
128.0513255193868
  0
ARC
  5
1B7
330
2
100
AcDbEntity
  8
0
 48
0.6
100
AcDbCircle
 10
21.84617485769194
 20
252.9494644171372
 30
0.0
 40
2.319999999999998
100
AcDbArc
 50
243.634327496789
 51
308.0513255193868
  0
ARC
  5
1B8
330
2
100
AcDbEntity
  8
0
 48
0.6
100
AcDbCircle
 10
33.17956739255714
 20
275.8148227928713
 30
0.0
 40
25.52
100
AcDbArc
 50
252.2801918471949
 51
287.7198081528051
  0
ARC
  5
1B9
330
2
100
AcDbEntity
  8
0
 48
0.6
100
AcDbCircle
 10
3.179567392550779
 20
245.8148227928713
 30
0.0
 40
5.0
100
AcDbArc
 50
180.0
 51
270.0
  0
LINE
  5
1BA
330
2
100
AcDbEntity
  8
0
 48
0.6
100
AcDbLine
 10
50.55904749982983
 20
240.8148227928713
 30
0.0
 11
44.81799727330144
 21
240.8148227928713
 31
0.0
  0
ARC
  5
1BB
330
2
100
AcDbEntity
  8
0
100
AcDbCircle
 10
81.35196703079783
 20
255.1253754414101
 30
0.0
 40
36.555792
100
AcDbArc
 50
203.0460947298108
 51
236.3176429999981
  0
ARC
  5
1BC
330
2
100
AcDbEntity
  8
0
100
AcDbCircle
 10
59.0957730307955
 20
223.70089944141
 30
0.0
 40
0.7499080000000001
100
AcDbArc
 50
265.1628950000044
 51
25.33442299999946
  0
ARC
  5
1BD
330
2
100
AcDbEntity
  8
0
100
AcDbCircle
 10
60.45134603079623
 20
224.3426724414102
 30
0.0
 40
0.7499080000000001
100
AcDbArc
 50
85.16289500000455
 51
205.3344229999993
  0
ARC
  5
1BE
330
2
100
AcDbEntity
  8
0
100
AcDbCircle
 10
61.14179003079698
 20
225.4536274414113
 30
0.0
 40
0.7499080000000001
100
AcDbArc
 50
265.1628950000044
 51
25.33442299999946
  0
ARC
  5
1BF
330
2
100
AcDbEntity
  8
0
100
AcDbCircle
 10
81.35196703079783
 20
255.1253754414101
 30
0.0
 40
39.15579199999999
100
AcDbArc
 50
201.4369589999971
 51
235.2486590000054
  0
DIMENSION
  5
1C0
330
2
100
AcDbEntity
  8
0
100
AcDbDimension
  2
*D30
 10
267.3852138674829
 20
150.0283254636174
 30
0.0
 11
207.385213867481
 21
150.0283254636174
 31
0.0
 70
   160
  3
STANDARD
100
AcDbAlignedDimension
 13
147.3852138674837
 23
150.0283254636174
 33
0.0
 14
267.3852138674829
 24
123.9782113332043
 34
0.0
100
AcDbRotatedDimension
  0
LINE
  5
1CD
330
2
100
AcDbEntity
  8
0
100
AcDbLine
 10
262.385213867481
 20
128.4782113332062
 30
0.0
 11
153.4852138674814
 21
128.4782113332062
 31
0.0
  0
LINE
  5
1CE
330
2
100
AcDbEntity
  8
0
100
AcDbLine
 10
154.3852138674819
 20
119.3769486747332
 30
0.0
 11
154.3852138674819
 21
127.0769486747331
 31
0.0
  0
LINE
  5
1CF
330
2
100
AcDbEntity
  8
0
100
AcDbLine
 10
153.485213867485
 20
119.3769486747332
 30
0.0
 11
154.3852138674819
 21
119.3769486747332
 31
0.0
  0
DIMENSION
  5
1D0
102
{ACAD_XDICTIONARY
360
1D1
102
}
102
{ACAD_REACTORS
330
1D2
102
}
330
2
100
AcDbEntity
  8
0
100
AcDbDimension
  2
*D29
 10
154.3852138674819
 20
139.7628149287761
 30
0.0
 11
150.8852138674829
 21
139.7628149287761
 31
0.0
 70
   160
  3
STANDARD
100
AcDbAlignedDimension
 13
147.3852138674837
 23
138.7628149287752
 33
0.0
 14
154.3852138674819
 24
127.0769486747331
 34
0.0
100
AcDbRotatedDimension
  0
LINE
  5
1DF
330
2
100
AcDbEntity
  8
0
100
AcDbLine
 10
147.3852138674837
 20
128.4782113332044
 30
0.0
 11
153.485213867485
 21
128.4782113332044
 31
0.0
  0
LINE
  5
1E0
102
{ACAD_REACTORS
330
1D2
102
}
330
2
100
AcDbEntity
  8
0
100
AcDbLine
 10
153.485213867485
 20
127.0769486747331
 30
0.0
 11
154.3852138674819
 21
127.0769486747331
 31
0.0
  0
LINE
  5
1E1
330
2
100
AcDbEntity
  8
0
100
AcDbLine
 10
147.3852138674837
 20
125.4782113332044
 30
0.0
 11
145.3852138674819
 21
125.4782113332044
 31
0.0
  0
CIRCLE
  5
1E2
330
2
100
AcDbEntity
  8
0
100
AcDbCircle
 10
233.3132711729358
 20
93.47639193516306
 30
0.0
 40
2.147836038934201
  0
LINE
  5
1E3
330
2
100
AcDbEntity
  8
0
100
AcDbLine
 10
234.1682941846411
 20
94.33141494687015
 30
0.0
 11
232.4618869573132
 21
92.62500771954137
 31
0.0
  0
LINE
  5
1E4
330
2
100
AcDbEntity
  8
0
100
AcDbLine
 10
232.4582481612269
 20
94.33141494687015
 30
0.0
 11
234.1646553885584
 21
92.62500771954137
 31
0.0
  0
ARC
  5
1E5
330
2
100
AcDbEntity
  8
0
100
AcDbCircle
 10
262.385213867481
 20
123.4782113332062
 30
0.0
 40
5.0
100
AcDbArc
 50
0.0000000000003562
 51
90.0
  0
ARC
  5
1E6
102
{ACAD_REACTORS
330
18A
102
}
330
2
100
AcDbEntity
  8
0
 48
0.6
100
AcDbCircle
 10
66.78475453889496
 20
123.4782113332044
 30
0.0
 40
5.0
100
AcDbArc
 50
0.0
 51
90.0
  0
LINE
  5
1E7
330
2
100
AcDbEntity
  8
2
100
AcDbLine
 10
115.8852138674838
 20
96.47814174240103
 30
0.0
 11
115.8852138674838
 21
90.47828092400823
 31
0.0
  0
LINE
  5
1E9
330
2
100
AcDbEntity
  8
0
100
AcDbLine
 10
115.385213867481
 20
95.97814174240012
 30
0.0
 11
115.385213867481
 21
90.97828092400822
 31
0.0
  0
LINE
  5
1EA
330
2
100
AcDbEntity
  8
0
100
AcDbLine
 10
115.385213867481
 20
90.97828092400822
 30
0.0
 11
115.8852138674838
 21
90.47828092400823
 31
0.0
  0
LINE
  5
1EB
330
2
100
AcDbEntity
  8
0
100
AcDbLine
 10
115.385213867481
 20
95.97814174240012
 30
0.0
 11
115.8852138674838
 21
96.47814174240103
 31
0.0
  0
LINE
  5
1EC
330
2
100
AcDbEntity
  8
CEN
  6
CENTER
 48
0.6
100
AcDbLine
 10
272.1119562656058
 20
93.4782113332044
 30
0.0
 11
106.3775547394298
 21
93.4782113332044
 31
0.0
  0
DIMENSION
  5
1ED
330
2
100
AcDbEntity
  8
0
100
AcDbDimension
  2
*D28
 10
147.3852138674837
 20
139.7628149287761
 30
0.0
 11
138.3852138674819
 21
139.7628149287761
 31
0.0
 70
   160
  3
STANDARD
100
AcDbAlignedDimension
 13
145.3852138674819
 23
125.4782113332044
 33
0.0
 14
147.3852138674837
 24
128.4782113332053
 34
0.0
100
AcDbRotatedDimension
  0
LINE
  5
1FC
102
{ACAD_REACTORS
330
110
102
}
330
2
100
AcDbEntity
  8
0
100
AcDbLine
 10
115.8852138674838
 20
90.47828092400823
 30
0.0
 11
145.3852138674819
 21
90.47828092400823
 31
0.0
  0
LINE
  5
1FD
330
2
100
AcDbEntity
  8
0
100
AcDbLine
 10
115.8852138674838
 20
96.47821133320441
 30
0.0
 11
145.3852138674819
 21
96.47821133320441
 31
0.0
  0
DIMENSION
  5
1FE
330
2
100
AcDbEntity
  8
0
100
AcDbDimension
  2
*D27
 10
147.3852138674837
 20
150.0283254636174
 30
0.0
 11
131.385213867481
 21
150.0283254636174
 31
0.0
 70
   160
  3
STANDARD
100
AcDbAlignedDimension
 13
115.385213867481
 23
95.47828332372137
 33
0.0
 14
147.3852138674837
 24
128.4782113332053
 34
0.0
100
AcDbRotatedDimension
  0
LINE
  5
20B
330
2
100
AcDbEntity
  8
0
100
AcDbLine
 10
130.8436280620298
 20
249.9160854513411
 30
0.0
 11
131.7436280620286
 21
249.9160854513411
 31
0.0
  0
ARC
  5
20C
330
2
100
AcDbEntity
  8
0
 48
0.6
100
AcDbCircle
 10
227.4388697868325
 20
239.814822792875
 30
0.0
 40
0.5
100
AcDbArc
 50
270.0
 51
0.0
  0
ARC
  5
20D
330
2
100
AcDbEntity
  8
0
 48
0.6
100
AcDbCircle
 10
226.653923786831
 20
218.7108227928742
 30
0.0
 40
0.7499080000000001
100
AcDbArc
 50
242.6628950000009
 51
2.834422999996808
  0
ARC
  5
20E
330
2
100
AcDbEntity
  8
0
 48
0.6
100
AcDbCircle
 10
228.1519047868278
 20
218.7849887928741
 30
0.0
 40
0.7499080000000001
100
AcDbArc
 50
62.66289500000094
 51
182.8344229999968
  0
ARC
  5
20F
330
2
100
AcDbEntity
  8
0
 48
0.6
100
AcDbCircle
 10
259.2415917868275
 20
239.2261767928739
 30
0.0
 40
33.95579199999999
100
AcDbArc
 50
179.8504230000004
 51
213.8981229999992
  0
ARC
  5
210
330
2
100
AcDbEntity
  8
0
 48
0.6
100
AcDbCircle
 10
259.2415917868275
 20
239.2261767928739
 30
0.0
 40
36.555792
100
AcDbArc
 50
179.8610604128478
 51
213.8176429999978
  0
LINE
  5
211
330
2
100
AcDbEntity
  8
0
 48
0.6
100
AcDbLine
 10
227.4388697868325
 20
239.3148227928741
 30
0.0
 11
218.4388697868326
 21
239.3148227928741
 31
0.0
  0
ARC
  5
212
330
2
100
AcDbEntity
  8
0
 48
0.6
100
AcDbCircle
 10
218.4388697868326
 20
239.814822792875
 30
0.0
 40
0.5
100
AcDbArc
 50
180.0
 51
270.0
  0
LINE
  5
213
330
2
100
AcDbEntity
  8
0
 48
0.6
100
AcDbLine
 10
217.9388697868325
 20
240.3148227928741
 30
0.0
 11
217.9388697868325
 21
239.814822792875
 31
0.0
  0
ARC
  5
214
330
2
100
AcDbEntity
  8
0
 48
0.6
100
AcDbCircle
 10
259.2415917868275
 20
239.2261767928739
 30
0.0
 40
39.15579199999999
100
AcDbArc
 50
179.8702869999971
 51
212.7486590000019
  0
LINE
  5
215
330
2
100
AcDbEntity
  8
0
 48
0.6
100
AcDbLine
 10
227.9388697868307
 20
240.3148227928741
 30
0.0
 11
227.9388697868307
 21
239.814822792875
 31
0.0
  0
ARC
  5
216
330
2
100
AcDbEntity
  8
0
 48
0.6
100
AcDbCircle
 10
229.2149357868292
 20
219.547155792874
 30
0.0
 40
0.7499080000000001
100
AcDbArc
 50
242.6628950000009
 51
2.834422999996808
  0
ARC
  5
217
330
2
100
AcDbEntity
  8
0
 48
0.6
100
AcDbCircle
 10
230.71291778683
 20
219.6213217928739
 30
0.0
 40
0.7499080000000001
100
AcDbArc
 50
62.66289500000094
 51
182.8344229999968
  0
ARC
  5
218
330
2
100
AcDbEntity
  8
0
100
AcDbCircle
 10
239.7436280620277
 20
245.8148227928731
 30
0.0
 40
5.0
100
AcDbArc
 50
269.9999999999998
 51
0.0
  0
ARC
  5
219
330
2
100
AcDbEntity
  8
0
100
AcDbCircle
 10
173.046350062028
 20
239.7261767928721
 30
0.0
 40
37.855792
100
AcDbArc
 50
212.7486590000019
 51
219.5987459999966
  0
ARC
  5
21A
330
2
100
AcDbEntity
  8
0
100
AcDbCircle
 10
144.1398970620284
 20
216.2991037928723
 30
0.0
 40
0.7499080000000001
100
AcDbArc
 50
249.5129820000002
 51
9.684509999999278
  0
LINE
  5
21B
330
2
100
AcDbEntity
  8
0
 62
   123
100
AcDbLine
 10
124.9053846673859
 20
184.8005461964389
 30
0.0
 11
197.4013819053434
 21
184.8005461964389
 31
0.0
  0
LINE
  5
21C
330
2
100
AcDbEntity
  8
0
100
AcDbLine
 10
141.2436280620267
 20
239.8148227928722
 30
0.0
 11
132.2436280620268
 21
239.8148227928722
 31
0.0
  0
ARC
  5
21D
330
2
100
AcDbEntity
  8
0
100
AcDbCircle
 10
141.9566630620311
 20
219.2849887928723
 30
0.0
 40
0.7499080000000001
100
AcDbArc
 50
62.66289500000094
 51
182.8344229999968
  0
ARC
  5
21E
330
2
100
AcDbEntity
  8
0
100
AcDbCircle
 10
140.4586820620279
 20
219.2108227928724
 30
0.0
 40
0.7499080000000001
100
AcDbArc
 50
242.6628950000009
 51
2.834422999996808
  0
ARC
  5
21F
330
2
100
AcDbEntity
  8
0
100
AcDbCircle
 10
173.046350062028
 20
239.7261767928721
 30
0.0
 40
36.555792
100
AcDbArc
 50
179.8610604128478
 51
213.8176429999978
  0
ARC
  5
220
330
2
100
AcDbEntity
  8
0
100
AcDbCircle
 10
173.046350062028
 20
239.7261767928721
 30
0.0
 40
33.95579199999999
100
AcDbArc
 50
179.8504230000004
 51
213.8981229999992
  0
LINE
  5
221
330
2
100
AcDbEntity
  8
0
100
AcDbLine
 10
124.7436280620268
 20
243.8148227928713
 30
0.0
 11
122.7436280620286
 21
243.8148227928713
 31
0.0
  0
ARC
  5
222
330
2
100
AcDbEntity
  8
0
100
AcDbCircle
 10
132.2436280620268
 20
240.3148227928722
 30
0.0
 40
0.5
100
AcDbArc
 50
180.0
 51
270.0
  0
LINE
  5
223
330
2
100
AcDbEntity
  8
0
100
AcDbLine
 10
131.7436280620286
 20
240.8148227928732
 30
0.0
 11
131.7436280620286
 21
240.3148227928722
 31
0.0
  0
LINE
  5
224
330
2
100
AcDbEntity
  8
0
100
AcDbLine
 10
130.8436280620298
 20
242.2160854513413
 30
0.0
 11
131.7436280620286
 21
242.2160854513413
 31
0.0
  0
LINE
  5
225
330
2
100
AcDbEntity
  8
0
100
AcDbLine
 10
124.7436280620268
 20
240.8148227928713
 30
0.0
 11
130.8436280620298
 21
240.8148227928713
 31
0.0
  0
ARC
  5
226
330
2
100
AcDbEntity
  8
0
100
AcDbCircle
 10
173.046350062028
 20
239.7261767928721
 30
0.0
 40
39.15579199999999
100
AcDbArc
 50
179.8702869999971
 51
212.7486590000019
  0
ARC
  5
227
330
2
100
AcDbEntity
  8
0
 48
0.6
100
AcDbCircle
 10
63.17956739255078
 20
245.8148227928713
 30
0.0
 40
5.0
100
AcDbArc
 50
270.0
 51
0.0
  0
ARC
  5
228
330
2
100
AcDbEntity
  8
0
100
AcDbCircle
 10
63.6110390307931
 20
222.4195614414111
 30
0.0
 40
0.7499080000000001
100
AcDbArc
 50
272.0129819999954
 51
32.18451000000101
  0
ARC
  5
229
330
2
100
AcDbEntity
  8
0
100
AcDbCircle
 10
64.88039003079757
 20
223.2184344414113
 30
0.0
 40
0.7499080000000001
100
AcDbArc
 50
92.01298199999559
 51
212.184510000001
  0
ARC
  5
22A
330
2
100
AcDbEntity
  8
0
100
AcDbCircle
 10
141.2436280620267
 20
240.3148227928722
 30
0.0
 40
0.5
100
AcDbArc
 50
270.0
 51
0.0
  0
LINE
  5
22B
330
2
100
AcDbEntity
  8
0
100
AcDbLine
 10
141.7436280620286
 20
240.8148227928732
 30
0.0
 11
141.7436280620286
 21
240.3148227928722
 31
0.0
  0
ARC
  5
22C
330
2
100
AcDbEntity
  8
0
100
AcDbCircle
 10
143.0196940620307
 20
220.0471557928722
 30
0.0
 40
0.7499080000000001
100
AcDbArc
 50
242.6628950000009
 51
2.834422999996808
  0
ARC
  5
22D
330
2
100
AcDbEntity
  8
0
100
AcDbCircle
 10
144.517676062027
 20
220.121321792872
 30
0.0
 40
0.7499080000000001
100
AcDbArc
 50
62.66289500000094
 51
182.8344229999968
  0
ARC
  5
22E
330
2
100
AcDbEntity
  8
0
100
AcDbCircle
 10
145.6183390620281
 20
216.5514067928734
 30
0.0
 40
0.7499080000000001
100
AcDbArc
 50
69.51298200000024
 51
189.6845099999992
  0
ARC
  5
22F
330
2
100
AcDbEntity
  8
0
100
AcDbCircle
 10
173.046350062028
 20
239.7261767928721
 30
0.0
 40
35.255792
100
AcDbArc
 50
213.8564239999994
 51
219.5987459999966
  0
LEADER
  5
230
330
2
100
AcDbEntity
  8
0
100
AcDbLeader
  3
STANDARD
 76
     2
 10
139.3808923951273
 20
226.0739394672159
 30
0.0
 10
124.9053846673859
 20
184.8005461964389
 30
0.0
1001
ACAD
1000
DSTYLE
1002
{
1070
     5
1000

1070
    77
1070
     1
1070
   147
1040
1.0
1070
   342
1005
0
1002
}
  0
LINE
  5
231
330
2
100
AcDbEntity
  8
0
 62
   123
 48
0.6
100
AcDbLine
 10
192.6519034843868
 20
198.440529755017
 30
0.0
 11
265.7096051590415
 21
198.440529755017
 31
0.0
  0
LINE
  5
232
330
2
100
AcDbEntity
  8
0
100
AcDbLine
 10
239.7436280620277
 20
240.8148227928732
 30
0.0
 11
130.8436280620271
 21
240.8148227928732
 31
0.0
  0
LEADER
  5
233
330
2
100
AcDbEntity
  8
0
 48
0.6
100
AcDbLeader
  3
STANDARD
 76
     2
 10
224.2847756005285
 20
224.3833998436743
 30
0.0
 10
192.6519034843868
 20
198.440529755016
 30
0.0
1001
ACAD
1000
DSTYLE
1002
{
1070
     5
1000

1070
    77
1070
     1
1070
   147
1040
1.0
1070
   342
1005
0
1002
}
  0
LINE
  5
234
330
2
100
AcDbEntity
  8
0
100
AcDbLine
 10
131.7436280620286
 20
249.9160854513411
 30
0.0
 11
131.7436280620286
 21
242.2160854513413
 31
0.0
  0
MTEXT
  5
235
330
2
100
AcDbEntity
  8
DIM
100
AcDbMText
 10
234.5952452028286
 20
202.3992133711494
 30
0.0
 40
3.5
 41
0.0
 71
     5
 72
     1
  1
BRAKE LEAD 300mm
1001
ACAD
1000
MTEXTBEGIN
1070
    73
1070
     1
1070
    44
1040
1.0
1070
    74
1070
     0
1000
MTEXTEND
  0
MTEXT
  5
236
330
2
100
AcDbEntity
  8
DIM
100
AcDbMText
 10
235.412703871887
 20
194.2440873878472
 30
0.0
 40
3.5
 41
0.0
 71
     5
 72
     1
  1
UL Style 3266 , AWG22
1001
ACAD
1000
MTEXTBEGIN
1070
    73
1070
     1
1070
    44
1040
1.0
1070
    74
1070
     0
1000
MTEXTEND
  0
MTEXT
  5
237
330
2
100
AcDbEntity
  8
DIM
100
AcDbMText
 10
162.9461825749458
 20
188.3031295673595
 30
0.0
 40
3.5
 41
0.0
 71
     5
 72
     1
  1
MOTOR LEAD 300mm
1001
ACAD
1000
MTEXTBEGIN
1070
    73
1070
     1
1070
    44
1040
1.0
1070
    74
1070
     0
1000
MTEXTEND
  0
MTEXT
  5
238
330
2
100
AcDbEntity
  8
DIM
100
AcDbMText
 10
163.177057460869
 20
179.7622880056528
 30
0.0
 40
3.5
 41
0.0
 71
     5
 72
     1
  1
UL Style 3271 , AWG20
1001
ACAD
1000
MTEXTBEGIN
1070
    73
1070
     1
1070
    44
1040
1.0
1070
    74
1070
     0
1000
MTEXTEND
  0
LINE
  5
239
330
2
100
AcDbEntity
  8
CEN
  6
CENTER
 48
0.6
100
AcDbLine
 10
-8.915682310907868
 20
275.8148227928663
 30
0.0
 11
75.27481709601488
 21
275.8148227928663
 31
0.0
  0
DIMENSION
  5
23A
102
{ACAD_XDICTIONARY
360
23B
102
}
102
{ACAD_REACTORS
330
23C
102
}
330
2
100
AcDbEntity
  8
0
100
AcDbDimension
  2
*D31
 10
68.17956739255169
 20
323.3826179187762
 30
0.0
 11
33.17956739255169
 21
323.3826179187762
 31
0.0
 70
   160
  3
STANDARD
100
AcDbAlignedDimension
 13
-1.82043260744922
 23
305.8148227928702
 33
0.0
 14
68.17956739255169
 24
305.8148227928702
 34
0.0
100
AcDbRotatedDimension
  0
LINE
  5
249
330
2
100
AcDbEntity
  8
0
 48
0.6
100
AcDbLine
 10
3.179567392550779
 20
310.8148227928714
 30
0.0
 11
63.17956739255078
 21
310.8148227928714
 31
0.0
  0
ARC
  5
24A
330
2
100
AcDbEntity
  8
0
 48
0.6
100
AcDbCircle
 10
33.17956739255714
 20
275.8148227928713
 30
0.0
 40
27.83999999999998
100
AcDbArc
 50
116.3656725032109
 51
153.634327496783
  0
ARC
  5
24B
102
{ACAD_REACTORS
330
23C
102
}
330
2
100
AcDbEntity
  8
0
 48
0.6
100
AcDbCircle
 10
3.179567392550779
 20
305.8148227928702
 30
0.0
 40
5.0
100
AcDbArc
 50
90.0
 51
180.0
  0
ARC
  5
24C
330
2
100
AcDbEntity
  8
0
 48
0.6
100
AcDbCircle
 10
6.660399589101871
 20
284.28827185523
 30
0.0
 40
2.319999999999998
100
AcDbArc
 50
342.2801918472014
 51
38.05132551937779
  0
ARC
  5
24D
330
2
100
AcDbEntity
  8
0
 48
0.6
100
AcDbCircle
 10
10.31420901682213
 20
287.1482153277338
 30
0.0
 40
2.319999999999998
100
AcDbArc
 50
153.634327496783
 51
218.0513255193776
  0
ARC
  5
24E
330
2
100
AcDbEntity
  8
0
 48
0.6
100
AcDbCircle
 10
10.31420901682213
 20
264.481430258007
 30
0.0
 40
2.319999999999998
100
AcDbArc
 50
141.9486744806222
 51
206.3656725032168
  0
ARC
  5
24F
330
2
100
AcDbEntity
  8
0
 48
0.6
100
AcDbCircle
 10
6.660399589101871
 20
267.3413737305113
 30
0.0
 40
2.319999999999998
100
AcDbArc
 50
321.9486744806221
 51
17.71980815279839
  0
ARC
  5
250
330
2
100
AcDbEntity
  8
0
 48
0.6
100
AcDbCircle
 10
33.17956739255714
 20
275.8148227928713
 30
0.0
 40
25.52
100
AcDbArc
 50
162.2801918472015
 51
197.7198081527984
  0
LWPOLYLINE
  5
251
330
2
100
AcDbEntity
  8
3
100
AcDbPolyline
 90
        4
 70
     1
 43
0.0
 10
26.23130397963359
 20
324.060358039117
 10
29.53130397963104
 20
324.060358039117
 10
29.53130397963104
 20
327.560358039117
 10
26.23130397963359
 20
327.560358039117
  0
ARC
  5
252
330
2
100
AcDbEntity
  8
0
 48
0.6
100
AcDbCircle
 10
56.04492576828761
 20
287.1482153277338
 30
0.0
 40
2.319999999999998
100
AcDbArc
 50
321.9486744806221
 51
26.36567250321681
  0
ARC
  5
253
330
2
100
AcDbEntity
  8
0
 48
0.6
100
AcDbCircle
 10
59.69873519600515
 20
284.28827185523
 30
0.0
 40
2.319999999999998
100
AcDbArc
 50
141.9486744806222
 51
197.7198081527984
  0
ARC
  5
254
330
2
100
AcDbEntity
  8
0
 48
0.6
100
AcDbCircle
 10
41.65301645491126
 20
302.333990596323
 30
0.0
 40
2.319999999999998
100
AcDbArc
 50
252.2801918471949
 51
308.0513255193868
  0
ARC
  5
255
330
2
100
AcDbEntity
  8
0
 48
0.6
100
AcDbCircle
 10
44.51295992741416
 20
298.6801811686041
 30
0.0
 40
2.319999999999998
100
AcDbArc
 50
63.63432749678904
 51
128.0513255193868
  0
ARC
  5
256
330
2
100
AcDbEntity
  8
0
 48
0.6
100
AcDbCircle
 10
24.70611833019574
 20
302.333990596323
 30
0.0
 40
2.319999999999998
100
AcDbArc
 50
231.948674480613
 51
287.7198081528051
  0
ARC
  5
257
330
2
100
AcDbEntity
  8
0
 48
0.6
100
AcDbCircle
 10
21.84617485769194
 20
298.6801811686041
 30
0.0
 40
2.319999999999998
100
AcDbArc
 50
51.94867448061305
 51
116.3656725032109
  0
ARC
  5
258
330
2
100
AcDbEntity
  8
0
 48
0.6
100
AcDbCircle
 10
33.17956739255714
 20
275.8148227928713
 30
0.0
 40
25.52
100
AcDbArc
 50
72.28019184719491
 51
107.719808152805
  0
ARC
  5
259
330
2
100
AcDbEntity
  8
0
 48
0.6
100
AcDbCircle
 10
33.17956739255714
 20
275.8148227928713
 30
0.0
 40
27.83999999999998
100
AcDbArc
 50
26.36567250321681
 51
63.63432749678904
  0
ARC
  5
25A
330
2
100
AcDbEntity
  8
0
 48
0.6
100
AcDbCircle
 10
56.04492576828761
 20
264.481430258007
 30
0.0
 40
2.319999999999998
100
AcDbArc
 50
333.6343274967831
 51
38.05132551937779
  0
ARC
  5
25B
330
2
100
AcDbEntity
  8
0
 48
0.6
100
AcDbCircle
 10
59.69873519600515
 20
267.3413737305113
 30
0.0
 40
2.319999999999998
100
AcDbArc
 50
162.2801918472015
 51
218.0513255193776
  0
CIRCLE
  5
25C
330
2
100
AcDbEntity
  8
0
 48
0.6
100
AcDbCircle
 10
33.17956739255714
 20
275.8148227928713
 30
0.0
 40
3.000000000000055
  0
CIRCLE
  5
25D
330
2
100
AcDbEntity
  8
0
 48
0.6
100
AcDbCircle
 10
33.17956739255714
 20
275.8148227928713
 30
0.0
 40
2.000000000000055
  0
CIRCLE
  5
25E
330
2
100
AcDbEntity
  8
0
 48
0.6
100
AcDbCircle
 10
33.17956739255714
 20
275.8148227928713
 30
0.0
 40
13.0
  0
ARC
  5
25F
330
2
100
AcDbEntity
  8
0
 48
0.6
100
AcDbCircle
 10
33.17956739255714
 20
275.8148227928713
 30
0.0
 40
25.52
100
AcDbArc
 50
342.2801918472014
 51
17.71980815279839
  0
LEADER
  5
260
330
2
100
AcDbEntity
  8
0
100
AcDbLeader
  3
STANDARD
 73
     0
 75
     1
 40
3.0
 41
26.65178571428571
 76
     3
 10
62.2152331795969
 20
307.0119921744333
 30
0.0
 10
57.2139160208726
 20
332.4418456948751
 30
0.0
 10
54.7139160208726
 20
332.4418456948751
 30
0.0
340
261
1001
ACAD
1000
DSTYLE
1002
{
1070
     5
1000

1070
    77
1070
     1
1070
   147
1040
1.0
1070
   342
1005
0
1002
}
  0
MTEXT
  5
261
102
{ACAD_REACTORS
330
260
102
}
330
2
100
AcDbEntity
  8
0
 62
     3
100
AcDbMText
 10
53.7139160208726
 20
333.4418456948751
 30
0.0
 40
3.0
 41
0.0
 71
     9
 72
     1
  1
4-%%c4.5 hole
1001
ACAD
1000
MTEXTBEGIN
1070
    73
1070
     1
1070
    44
1040
1.0
1070
    74
1070
     0
1000
MTEXTEND
  0
LINE
  5
262
330
2
100
AcDbEntity
  8
0
100
AcDbLine
 10
209.8166623557744
 20
276.6680264065371
 30
0.0
 11
211.523069583106
 21
274.9616191792079
 31
0.0
  0
LINE
  5
263
330
2
100
AcDbEntity
  8
0
100
AcDbLine
 10
211.5267083791868
 20
276.6680264065371
 30
0.0
 11
209.8203011518598
 21
274.9616191792079
 31
0.0
  0
CIRCLE
  5
264
330
2
100
AcDbEntity
  8
0
100
AcDbCircle
 10
210.6716853674797
 20
275.8130033948291
 30
0.0
 40
2.147836038934201
  0
ARC
  5
265
330
2
100
AcDbEntity
  8
0
100
AcDbCircle
 10
239.7436280620277
 20
305.8148227928723
 30
0.0
 40
5.0
100
AcDbArc
 50
0.0000000000003562
 51
90.0
  0
LINE
  5
266
330
2
100
AcDbEntity
  8
0
100
AcDbLine
 10
124.7436280620268
 20
307.8148227928713
 30
0.0
 11
122.7436280620286
 21
307.8148227928713
 31
0.0
  0
LINE
  5
267
102
{ACAD_REACTORS
330
27A
102
}
330
2
100
AcDbEntity
  8
0
100
AcDbLine
 10
130.8436280620298
 20
309.4135601344003
 30
0.0
 11
131.7436280620286
 21
309.4135601344003
 31
0.0
  0
LINE
  5
268
330
2
100
AcDbEntity
  8
0
100
AcDbLine
 10
124.7436280620268
 20
310.8148227928714
 30
0.0
 11
130.8436280620298
 21
310.8148227928714
 31
0.0
  0
DIMENSION
  5
269
330
2
100
AcDbEntity
  8
0
100
AcDbDimension
  2
*D35
 10
124.7436280620268
 20
323.8390653194069
 30
0.0
 11
115.7436280620286
 21
323.8390653194069
 31
0.0
 70
   160
  3
STANDARD
100
AcDbAlignedDimension
 13
122.7436280620286
 23
307.8148227928713
 33
0.0
 14
124.7436280620268
 24
310.8148227928714
 34
0.0
100
AcDbRotatedDimension
  0
DIMENSION
  5
278
102
{ACAD_XDICTIONARY
360
279
102
}
102
{ACAD_REACTORS
330
27A
102
}
330
2
100
AcDbEntity
  8
0
100
AcDbDimension
  2
*D34
 10
131.7436280620286
 20
323.8390653194069
 30
0.0
 11
128.4936280620295
 21
323.8390653194069
 31
0.0
 70
   160
  3
STANDARD
100
AcDbAlignedDimension
 13
124.7436280620268
 23
322.8390653194069
 33
0.0
 14
131.7436280620286
 24
309.4135601344003
 34
0.0
100
AcDbRotatedDimension
  0
ARC
  5
287
102
{ACAD_REACTORS
330
23C
102
}
330
2
100
AcDbEntity
  8
0
 48
0.6
100
AcDbCircle
 10
63.17956739255078
 20
305.8148227928702
 30
0.0
 40
5.0
100
AcDbArc
 50
0.0
 51
90.0
  0
LINE
  5
288
330
2
100
AcDbEntity
  8
0
100
AcDbLine
 10
130.8436280620298
 20
301.7135601344002
 30
0.0
 11
131.7436280620286
 21
301.7135601344002
 31
0.0
  0
LINE
  5
289
330
2
100
AcDbEntity
  8
0
100
AcDbLine
 10
131.7436280620286
 20
301.7135601344002
 30
0.0
 11
131.7436280620286
 21
309.4135601344003
 31
0.0
  0
DIMENSION
  5
28A
330
2
100
AcDbEntity
  8
0
100
AcDbDimension
  2
*D33
 10
124.7436280620268
 20
334.459908686043
 30
0.0
 11
118.2436280620286
 21
334.459908686043
 31
0.0
 70
   160
  3
STANDARD
100
AcDbAlignedDimension
 13
111.7436280620268
 23
278.2648227928721
 33
0.0
 14
124.7436280620268
 24
310.8148227928714
 34
0.0
100
AcDbRotatedDimension
  0
LINE
  5
297
330
2
100
AcDbEntity
  8
CEN
 48
0.6
100
AcDbLine
 10
110.2436280620268
 20
272.9753227928713
 30
0.0
 11
125.7436280620286
 21
272.9753227928713
 31
0.0
  0
LINE
  5
298
330
2
100
AcDbEntity
  8
0
100
AcDbLine
 10
112.2436280620259
 20
272.46482279287
 30
0.0
 11
122.7436280620286
 21
272.46482279287
 31
0.0
  0
LINE
  5
299
330
2
100
AcDbEntity
  8
CEN
 48
0.6
100
AcDbLine
 10
110.2436280620268
 20
278.6543227928714
 30
0.0
 11
125.7436280620286
 21
278.6543227928714
 31
0.0
  0
LINE
  5
29A
330
2
100
AcDbEntity
  8
0
100
AcDbLine
 10
112.2436280620268
 20
279.1648227928713
 30
0.0
 11
122.7436280620286
 21
279.1648227928713
 31
0.0
  0
ARC
  5
29B
330
2
100
AcDbEntity
  8
0
100
AcDbCircle
 10
117.2837557965713
 20
243.1823410231722
 30
0.0
 40
30.21776684021463
100
AcDbArc
 50
79.59038642144284
 51
87.23086447352047
  0
ARC
  5
29C
330
2
100
AcDbEntity
  8
0
100
AcDbCircle
 10
117.2837557965713
 20
308.4473045625661
 30
0.0
 40
30.21776684021192
100
AcDbArc
 50
272.7691355264795
 51
280.409613578557
  0
LINE
  5
29D
330
2
100
AcDbEntity
  8
2
100
AcDbLine
 10
118.7436280620268
 20
277.7348227928714
 30
0.0
 11
112.7436280620286
 21
274.5593963123273
 31
0.0
  0
LINE
  5
29E
330
2
100
AcDbEntity
  8
2
100
AcDbLine
 10
117.7927559797544
 20
278.2648227928721
 30
0.0
 11
112.7436280620286
 21
275.7140968507069
 31
0.0
  0
LINE
  5
29F
330
2
100
AcDbEntity
  8
2
100
AcDbLine
 10
112.2436280620268
 20
279.1648227928713
 30
0.0
 11
112.2436280620268
 21
272.46482279287
 31
0.0
  0
LINE
  5
2A0
330
2
100
AcDbEntity
  8
0
100
AcDbLine
 10
111.7436280620268
 20
278.6648227928712
 30
0.0
 11
111.7436280620268
 21
272.9753227928713
 31
0.0
  0
LINE
  5
2A1
330
2
100
AcDbEntity
  8
2
100
AcDbLine
 10
118.7436280620268
 20
278.2648227928721
 30
0.0
 11
118.7436280620268
 21
273.3648227928702
 31
0.0
  0
LINE
  5
2A2
330
2
100
AcDbEntity
  8
2
100
AcDbLine
 10
118.7436280620268
 20
276.5801222544932
 30
0.0
 11
112.5758805776449
 21
273.3648227928702
 31
0.0
  0
LINE
  5
2A3
330
2
100
AcDbEntity
  8
0
100
AcDbLine
 10
111.7436280620268
 20
273.3648227928702
 30
0.0
 11
118.7436280620268
 21
273.3648227928702
 31
0.0
  0
LINE
  5
2A4
330
2
100
AcDbEntity
  8
0
100
AcDbLine
 10
111.7436280620268
 20
272.9648227928714
 30
0.0
 11
112.2436280620268
 21
272.46482279287
 31
0.0
  0
LINE
  5
2A5
330
2
100
AcDbEntity
  8
0
100
AcDbLine
 10
111.7436280620268
 20
278.2648227928721
 30
0.0
 11
118.7436280620268
 21
278.2648227928721
 31
0.0
  0
LINE
  5
2A6
330
2
100
AcDbEntity
  8
0
100
AcDbLine
 10
112.2436280620268
 20
279.1648227928713
 30
0.0
 11
111.7436280620268
 21
278.6648227928712
 31
0.0
  0
LINE
  5
2A7
330
2
100
AcDbEntity
  8
0
100
AcDbLine
 10
239.7436280620277
 20
310.8148227928722
 30
0.0
 11
130.8436280620271
 21
310.8148227928722
 31
0.0
  0
DIMENSION
  5
2A8
330
2
100
AcDbEntity
  8
0
100
AcDbDimension
  2
*D32
 10
244.7436280620276
 20
334.459908686043
 30
0.0
 11
184.7436280620268
 21
334.459908686043
 31
0.0
 70
   160
  3
STANDARD
100
AcDbAlignedDimension
 13
124.7436280620268
 23
334.459908686043
 33
0.0
 14
244.7436280620276
 24
306.3148227928714
 34
0.0
100
AcDbRotatedDimension
  0
LINE
  5
2B5
330
2
100
AcDbEntity
  8
CEN
  6
CENTER
 48
0.6
100
AcDbLine
 10
249.4703704601525
 20
275.8148227928713
 30
0.0
 11
105.0682237285263
 21
275.8148227928713
 31
0.0
  0
ENDSEC
  0
SECTION
  2
OBJECTS
  0
DICTIONARY
  5
9
330
0
100
AcDbDictionary
  3
ACAD_GROUP
350
98
  3
ACAD_LAYOUT
350
D
  3
ACAD_MLINESTYLE
350
99
  3
ACAD_PLOTSETTINGS
350
9A
  3
ACAD_PLOTSTYLENAME
350
8
  3
ACDBHEADERROUNDTRIPXREC
350
397
  3
ACDBVARIABLEDICTIONARY
350
2B6
  0
DICTIONARY
  5
15
330
14
100
AcDbDictionary
280
     1
  3
ACAD_LAYERFILTERS
360
16
  3
ACAD_LAYERSTATES
360
89
  0
DICTIONARY
  5
3
330
2
100
AcDbDictionary
280
     1
  3
ACAD_LAYOUTSELFREF
360
3B8
  0
DICTIONARY
  5
F
330
E
100
AcDbDictionary
280
     1
  3
ACAD_LAYOUTSELFREF
360
3B9
  0
DICTIONARY
  5
A4
330
A3
100
AcDbDictionary
280
     1
  3
ACAD_DIMASSOC
360
A5
  0
DICTIONARY
  5
CA
330
C9
100
AcDbDictionary
280
     1
  3
ACAD_DIMASSOC
360
CB
  0
DICTIONARY
  5
E9
330
E8
100
AcDbDictionary
280
     1
  3
ACAD_DIMASSOC
360
EA
  0
DICTIONARY
  5
10F
330
10E
100
AcDbDictionary
280
     1
  3
ACAD_DIMASSOC
360
110
  0
DICTIONARY
  5
127
330
126
100
AcDbDictionary
280
     1
  3
ACAD_DIMASSOC
360
128
  0
DICTIONARY
  5
136
330
135
100
AcDbDictionary
280
     1
  3
ACAD_DIMASSOC
360
137
  0
DICTIONARY
  5
189
330
188
100
AcDbDictionary
280
     1
  3
ACAD_DIMASSOC
360
18A
  0
DICTIONARY
  5
1D1
330
1D0
100
AcDbDictionary
280
     1
  3
ACAD_DIMASSOC
360
1D2
  0
DICTIONARY
  5
23B
330
23A
100
AcDbDictionary
280
     1
  3
ACAD_DIMASSOC
360
23C
  0
DICTIONARY
  5
279
330
278
100
AcDbDictionary
280
     1
  3
ACAD_DIMASSOC
360
27A
  0
DICTIONARY
  5
98
102
{ACAD_REACTORS
330
9
102
}
330
9
100
AcDbDictionary
  0
DICTIONARY
  5
D
102
{ACAD_REACTORS
330
9
102
}
330
9
100
AcDbDictionary
  0
DICTIONARY
  5
99
102
{ACAD_REACTORS
330
9
102
}
330
9
100
AcDbDictionary
  3
STANDARD
350
9B
  0
DICTIONARY
  5
9A
102
{ACAD_REACTORS
330
9
102
}
330
9
100
AcDbDictionary
  0
ACDBDICTIONARYWDFLT
  5
8
102
{ACAD_REACTORS
330
9
102
}
330
9
100
AcDbDictionary
281
     1
  3
Normal
350
7
100
AcDbDictionaryWithDefault
340
7
  0
DICTIONARY
  5
397
102
{ACAD_REACTORS
330
9
102
}
330
9
100
AcDbDictionary
  3
CEPSNTYPE
350
3A1
  3
DIMSTYLEDATA
350
3A5
  3
FINGERPRINTGUID
350
3A2
  3
HYPERLINKBASE
350
39A
  3
INSUNITS
350
3A0
  3
LAYOUTDICT
350
39C
  3
LWETCUNION
350
39F
  3
PLOTSETDICT
350
39D
  3
PLOTSTYLNAMDICT
350
39E
  3
PSVPSCALE
350
3A4
  3
PUCSBASE
350
3A8
  3
PUCSORGBACK
350
3AE
  3
PUCSORGBOTTOM
350
3AA
  3
PUCSORGFRONT
350
3AD
  3
PUCSORGLEFT
350
3AB
  3
PUCSORGRIGHT
350
3AC
  3
PUCSORGTOP
350
3A9
  3
PUCSORTHOREF
350
3A6
  3
PUCSORTHOVIEW
350
3A7
  3
STYLESHEET
350
39B
  3
TSTACKALIGN
350
398
  3
TSTACKSIZE
350
399
  3
UCSBASE
350
3B1
  3
UCSORGBACK
350
3B7
  3
UCSORGBOTTOM
350
3B3
  3
UCSORGFRONT
350
3B6
  3
UCSORGLEFT
350
3B4
  3
UCSORGRIGHT
350
3B5
  3
UCSORGTOP
350
3B2
  3
UCSORTHOREF
350
3AF
  3
UCSORTHOVIEW
350
3B0
  3
VERSIONGUID
350
3A3
  0
DICTIONARY
  5
2B6
102
{ACAD_REACTORS
330
9
102
}
330
9
100
AcDbDictionary
  3
DIMASSOC
350
2B8
  3
HIDETEXT
350
2B7
  0
DICTIONARY
  5
16
102
{ACAD_REACTORS
330
15
102
}
330
15
100
AcDbDictionary
280
     1
  3
$LAYERS
360
17
  3
-_UND_0
360
18
  3
-PEGC
360
19
  3
101
360
1A
  3
102
360
1B
  3
1DUC
360
1C
  3
1EQ
360
1D
  3
1TUB
360
1E
  3
2
360
1F
  3
2000
360
20
  3
50
360
21
  3
58J
360
22
  3
65
360
23
  3
AA
360
24
  3
ACABADOS
360
25
  3
AGUA_Y_DREN
360
26
  3
AIRE
360
27
  3
ALLE_AUS
360
28
  3
ALLES_MIT_S
360
29
  3
AMARILLO
360
2A
  3
APAGADOS
360
2B
  3
ARR
360
2C
  3
BA
360
2D
  3
BACKS
360
2E
  3
BASE
360
2F
  3
BLOQ_INUTIL
360
30
  3
CADKON
360
31
  3
CARPINTERIA
360
32
  3
CERRADOS
360
33
  3
COL
360
34
  3
COLOR
360
35
  3
COLOR_250
360
36
  3
COLORES
360
37
  3
CONGELADOS
360
38
  3
CONJUNTO
360
39
  3
D1
360
3A
  3
DA_
360
3B
  3
DET-
360
3C
  3
DOR-H
360
3D
  3
EJES
360
3E
  3
ELECTRICO
360
3F
  3
F1
360
40
  3
FROZEN
360
41
  3
GRID
360
42
  3
GRIDTXT
360
43
  3
HATCH
360
44
  3
HCAD
360
45
  3
INSTALACIONES
360
46
  3
JIZNI
360
47
  3
KCK
360
48
  3
KKK
360
49
  3
LAY
360
4A
  3
LAYER-0
360
4E
  3
LAYER-1
360
4F
  3
LAYER_1_UND_0
360
4B
  3
LAYER_2_UND_0
360
4C
  3
LAYER_9_UND_0_SCHRAFFUR
360
4D
  3
LOCK
360
50
  3
LOCKED
360
51
  3
LOTES
360
52
  3
LUNAR
360
53
  3
LUNAR2
360
54
  3
M
360
55
  3
MIS_LAYERS
360
56
  3
MRKCK
360
57
  3
NECADKON
360
58
  3
NI_LH
360
59
  3
NI_RH
360
5A
  3
NUM
360
5B
  3
OFF
360
5C
  3
ON
360
5D
  3
PBASE
360
5E
  3
PEGC
360
5F
  3
PEGCT
360
60
  3
PFRAME
360
61
  3
PGRID
360
62
  3
PGRIDT
360
63
  3
PLAFONES
360
64
  3
PLANTAS
360
65
  3
PLOT
360
66
  3
PRENDIDAS
360
67
  3
PRENDIDOS
360
68
  3
PRINT
360
69
  3
PT
360
6A
  3
PTH
360
6B
  3
PVGRID
360
6C
  3
RED_DE_AGUA_POTABLE
360
6D
  3
RED_DE_ENERGIA_ELECTRICA
360
6E
  3
SEVERNI
360
6F
  3
SHIN
360
70
  3
SHOW_ALL_LAYER
360
71
  3
SIN
360
72
  3
STORAGE-CART
360
73
  3
T
360
74
  3
TEXTOS
360
75
  3
TEXTURAS
360
76
  3
TUBERIAS
360
77
  3
UNFRZ
360
78
  3
V\U+0160ECHNY_NEPOU\U+017D\U+00CDVAN\U+00C9
360
79
  3
VA
360
7A
  3
VENTILACI\U+00D3N
360
7B
  3
VYHODNI
360
7C
  3
YO
360
7D
  3
ZAPADNI
360
7E
  3
사용
360
7F
  3
신규
360
80
  3
실박스
360
81
  3
우리토목
360
82
  3
주차
360
83
  3
지상정밀
360
84
  3
쩜선
360
85
  3
플로터_작업층
360
86
  3
현재_작업층
360
87
  3
현재_잠금
360
88
  0
DICTIONARY
  5
89
102
{ACAD_REACTORS
330
15
102
}
330
15
100
AcDbDictionary
  0
XRECORD
  5
3B8
102
{ACAD_REACTORS
330
3
102
}
330
3
100
AcDbXrecord
340
2
  0
XRECORD
  5
3B9
102
{ACAD_REACTORS
330
F
102
}
330
F
100
AcDbXrecord
340
E
  0
DIMASSOC
  5
A5
102
{ACAD_REACTORS
330
A4
102
}
330
A4
100
AcDbDimAssoc
330
A3
 90
        2
 70
     0
 71
     0
  1
AcDbOsnapPointRef
 72
     3
331
B3
 73
     2
 91
        0
 40
0.0
 10
-0.000000000003638
 20
0.0000000000020464
 30
0.0
 75
     0
  0
DIMASSOC
  5
CB
102
{ACAD_REACTORS
330
CA
102
}
330
CA
100
AcDbDimAssoc
330
C9
 90
        1
 70
     0
 71
     0
  1
AcDbOsnapPointRef
 72
    13
331
C8
 73
     2
 91
        0
 40
0.0
 10
122.7436280620286
 20
307.8148227928713
 30
0.0
 75
     0
  0
DIMASSOC
  5
EA
102
{ACAD_REACTORS
330
E9
102
}
330
E9
100
AcDbDimAssoc
330
E8
 90
       15
 70
     0
 71
     0
  1
AcDbOsnapPointRef
 72
    13
331
C4
 73
     2
 91
        0
 40
0.0
 10
33.17956739255714
 20
275.8148227928713
 30
0.0
 75
     0
  1
AcDbOsnapPointRef
 72
     1
331
C4
 73
     2
 91
        0
 40
1.0
 10
51.43460739944294
 20
231.7432576265773
 30
0.0
 75
     0
  1
AcDbOsnapPointRef
 72
    13
331
C5
 73
     2
 91
        0
 40
0.0
 10
33.17956739255441
 20
233.7671097886659
 30
0.0
 75
     0
  1
AcDbOsnapPointRef
 72
     1
331
C5
 73
     2
 91
        0
 40
1.0
 10
33.17956739255441
 20
317.8625357970663
 30
0.0
 75
     0
  0
DIMASSOC
  5
110
102
{ACAD_REACTORS
330
10F
102
}
330
10F
100
AcDbDimAssoc
330
10E
 90
        1
 70
     0
 71
     0
  1
AcDbOsnapPointRef
 72
    13
331
1FC
 73
     2
 91
        0
 40
0.0
 10
115.8852138674838
 20
90.47828092400823
 30
0.0
 75
     0
  0
DIMASSOC
  5
128
102
{ACAD_REACTORS
330
127
102
}
330
127
100
AcDbDimAssoc
330
126
 90
        1
 70
     0
 71
     0
  1
AcDbOsnapPointRef
 72
    13
331
FA
 73
     2
 91
        0
 40
0.0
 10
145.3852138674819
 20
125.4782113332044
 30
0.0
 75
     0
  0
DIMASSOC
  5
137
102
{ACAD_REACTORS
330
136
102
}
330
136
100
AcDbDimAssoc
330
135
 90
       15
 70
     0
 71
     0
  1
AcDbOsnapPointRef
 72
    13
331
11F
 73
     2
 91
        0
 40
0.0
 10
36.7847545388995
 20
93.4782113332044
 30
0.0
 75
     0
  1
AcDbOsnapPointRef
 72
     1
331
11F
 73
     2
 91
        0
 40
1.0
 10
55.0397945457853
 20
49.40664616690992
 30
0.0
 75
     0
  1
AcDbOsnapPointRef
 72
    13
331
124
 73
     2
 91
        0
 40
0.0
 10
36.78475453890405
 20
51.43049832900306
 30
0.0
 75
     0
  1
AcDbOsnapPointRef
 72
     1
331
124
 73
     2
 91
        0
 40
1.0
 10
36.78475453890405
 20
135.5259243374034
 30
0.0
 75
     0
  0
DIMASSOC
  5
18A
102
{ACAD_REACTORS
330
189
102
}
330
189
100
AcDbDimAssoc
330
188
 90
        3
 70
     0
 71
     0
  1
AcDbOsnapPointRef
 72
     1
331
1A2
 73
     2
 91
        0
 40
3.141592653589792
 10
1.784754538894958
 20
123.4782113332044
 30
0.0
 75
     0
  1
AcDbOsnapPointRef
 72
    13
331
1E6
 73
     2
 91
        0
 40
0.0
 10
71.78475453889496
 20
123.4782113332044
 30
0.0
 75
     0
  0
DIMASSOC
  5
1D2
102
{ACAD_REACTORS
330
1D1
102
}
330
1D1
100
AcDbDimAssoc
330
1D0
 90
        2
 70
     0
 71
     0
  1
AcDbOsnapPointRef
 72
     1
331
1E0
 73
     2
 91
        0
 40
1.0
 10
154.3852138674819
 20
127.0769486747331
 30
0.0
 75
     0
  0
DIMASSOC
  5
23C
102
{ACAD_REACTORS
330
23B
102
}
330
23B
100
AcDbDimAssoc
330
23A
 90
        3
 70
     0
 71
     0
  1
AcDbOsnapPointRef
 72
     1
331
24B
 73
     2
 91
        0
 40
3.141592653589792
 10
-1.82043260744922
 20
305.8148227928702
 30
0.0
 75
     0
  1
AcDbOsnapPointRef
 72
    13
331
287
 73
     2
 91
        0
 40
0.0
 10
68.17956739255078
 20
305.8148227928702
 30
0.0
 75
     0
  0
DIMASSOC
  5
27A
102
{ACAD_REACTORS
330
279
102
}
330
279
100
AcDbDimAssoc
330
278
 90
        2
 70
     0
 71
     0
  1
AcDbOsnapPointRef
 72
     1
331
267
 73
     2
 91
        0
 40
1.0
 10
131.7436280620286
 20
309.4135601344003
 30
0.0
 75
     0
  0
MLINESTYLE
  5
9B
102
{ACAD_REACTORS
330
99
102
}
330
99
100
AcDbMlineStyle
  2
STANDARD
 70
     0
  3

 62
   256
 51
90.0
 52
90.0
 71
     2
 49
0.5
 62
   256
  6
BYLAYER
 49
-0.5
 62
   256
  6
BYLAYER
  0
ACDBPLACEHOLDER
  5
7
102
{ACAD_REACTORS
330
8
102
}
330
8
100
AcDbPlaceHolder
280
     0
  0
XRECORD
  5
3A1
102
{ACAD_REACTORS
330
397
102
}
330
397
100
AcDbXrecord
 90
        0
  0
XRECORD
  5
3A5
102
{ACAD_REACTORS
330
397
102
}
330
397
100
AcDbXrecord
1000
DSTYLE
1002
{
1070
    79
 70
     2
1070
   179
 70
     1
1070
   289
 70
     0
1002
}
  0
XRECORD
  5
3A2
102
{ACAD_REACTORS
330
397
102
}
330
397
100
AcDbXrecord
  1
{FDEAD578-A652-11D2-9A35-0060089B3A3F}
  0
XRECORD
  5
39A
102
{ACAD_REACTORS
330
397
102
}
330
397
100
AcDbXrecord
  1

  0
XRECORD
  5
3A0
102
{ACAD_REACTORS
330
397
102
}
330
397
100
AcDbXrecord
 90
        4
  0
XRECORD
  5
39C
102
{ACAD_REACTORS
330
397
102
}
330
397
100
AcDbXrecord
340
D
  0
XRECORD
  5
39F
102
{ACAD_REACTORS
330
397
102
}
330
397
100
AcDbXrecord
 90
    10781
  0
XRECORD
  5
39D
102
{ACAD_REACTORS
330
397
102
}
330
397
100
AcDbXrecord
340
9A
  0
XRECORD
  5
39E
102
{ACAD_REACTORS
330
397
102
}
330
397
100
AcDbXrecord
340
8
  0
XRECORD
  5
3A4
102
{ACAD_REACTORS
330
397
102
}
330
397
100
AcDbXrecord
 40
0.0
  0
XRECORD
  5
3A8
102
{ACAD_REACTORS
330
397
102
}
330
397
100
AcDbXrecord
340
0
  0
XRECORD
  5
3AE
102
{ACAD_REACTORS
330
397
102
}
330
397
100
AcDbXrecord
 10
0.0
 20
0.0
 30
0.0
  0
XRECORD
  5
3AA
102
{ACAD_REACTORS
330
397
102
}
330
397
100
AcDbXrecord
 10
0.0
 20
0.0
 30
0.0
  0
XRECORD
  5
3AD
102
{ACAD_REACTORS
330
397
102
}
330
397
100
AcDbXrecord
 10
0.0
 20
0.0
 30
0.0
  0
XRECORD
  5
3AB
102
{ACAD_REACTORS
330
397
102
}
330
397
100
AcDbXrecord
 10
0.0
 20
0.0
 30
0.0
  0
XRECORD
  5
3AC
102
{ACAD_REACTORS
330
397
102
}
330
397
100
AcDbXrecord
 10
0.0
 20
0.0
 30
0.0
  0
XRECORD
  5
3A9
102
{ACAD_REACTORS
330
397
102
}
330
397
100
AcDbXrecord
 10
0.0
 20
0.0
 30
0.0
  0
XRECORD
  5
3A6
102
{ACAD_REACTORS
330
397
102
}
330
397
100
AcDbXrecord
340
0
  0
XRECORD
  5
3A7
102
{ACAD_REACTORS
330
397
102
}
330
397
100
AcDbXrecord
 70
     0
  0
XRECORD
  5
39B
102
{ACAD_REACTORS
330
397
102
}
330
397
100
AcDbXrecord
  1

  0
XRECORD
  5
398
102
{ACAD_REACTORS
330
397
102
}
330
397
100
AcDbXrecord
 90
        1
  0
XRECORD
  5
399
102
{ACAD_REACTORS
330
397
102
}
330
397
100
AcDbXrecord
 90
       70
  0
XRECORD
  5
3B1
102
{ACAD_REACTORS
330
397
102
}
330
397
100
AcDbXrecord
340
0
  0
XRECORD
  5
3B7
102
{ACAD_REACTORS
330
397
102
}
330
397
100
AcDbXrecord
 10
0.0
 20
0.0
 30
0.0
  0
XRECORD
  5
3B3
102
{ACAD_REACTORS
330
397
102
}
330
397
100
AcDbXrecord
 10
0.0
 20
0.0
 30
0.0
  0
XRECORD
  5
3B6
102
{ACAD_REACTORS
330
397
102
}
330
397
100
AcDbXrecord
 10
0.0
 20
0.0
 30
0.0
  0
XRECORD
  5
3B4
102
{ACAD_REACTORS
330
397
102
}
330
397
100
AcDbXrecord
 10
0.0
 20
0.0
 30
0.0
  0
XRECORD
  5
3B5
102
{ACAD_REACTORS
330
397
102
}
330
397
100
AcDbXrecord
 10
0.0
 20
0.0
 30
0.0
  0
XRECORD
  5
3B2
102
{ACAD_REACTORS
330
397
102
}
330
397
100
AcDbXrecord
 10
0.0
 20
0.0
 30
0.0
  0
XRECORD
  5
3AF
102
{ACAD_REACTORS
330
397
102
}
330
397
100
AcDbXrecord
340
0
  0
XRECORD
  5
3B0
102
{ACAD_REACTORS
330
397
102
}
330
397
100
AcDbXrecord
 70
     0
  0
XRECORD
  5
3A3
102
{ACAD_REACTORS
330
397
102
}
330
397
100
AcDbXrecord
  1
{9C16515F-1494-43F6-ACF9-66B6DE1448C1}
  0
DICTIONARYVAR
  5
2B8
102
{ACAD_REACTORS
330
2B6
102
}
330
2B6
100
DictionaryVariables
280
     0
  1
2
  0
DICTIONARYVAR
  5
2B7
102
{ACAD_REACTORS
330
2B6
102
}
330
2B6
100
DictionaryVariables
280
     0
  1
1
  0
XRECORD
  5
17
102
{ACAD_REACTORS
330
16
102
}
330
16
100
AcDbXrecord
  1
$layers
  1
*
  1
*
  1
*
 70
     0
  1
*
  1
*
  0
XRECORD
  5
18
102
{ACAD_REACTORS
330
16
102
}
330
16
100
AcDbXrecord
  1
- und 0
  1
-*,0
  1
*
  1
*
 70
     0
  1
*
  1
*
  0
XRECORD
  5
19
102
{ACAD_REACTORS
330
16
102
}
330
16
100
AcDbXrecord
  1
-pegc
  1
*-pegc
  1
*
  1
*
 70
     0
  1
*
  1
*
  0
XRECORD
  5
1A
102
{ACAD_REACTORS
330
16
102
}
330
16
100
AcDbXrecord
  1
101
  1
*101
  1
*
  1
*
 70
   256
  1
*
  1
*
  0
XRECORD
  5
1B
102
{ACAD_REACTORS
330
16
102
}
330
16
100
AcDbXrecord
  1
102
  1
102*
  1
*
  1
*
 70
     0
  1
*
  1
*
  0
XRECORD
  5
1C
102
{ACAD_REACTORS
330
16
102
}
330
16
100
AcDbXrecord
  1
1duc
  1
*1duc*
  1
*
  1
*
 70
     0
  1
*
  1
*
  0
XRECORD
  5
1D
102
{ACAD_REACTORS
330
16
102
}
330
16
100
AcDbXrecord
  1
1eq
  1
*1eq*
  1
*
  1
*
 70
     0
  1
*
  1
*
  0
XRECORD
  5
1E
102
{ACAD_REACTORS
330
16
102
}
330
16
100
AcDbXrecord
  1
1tub
  1
*1t*
  1
*
  1
*
 70
     0
  1
*
  1
*
  0
XRECORD
  5
1F
102
{ACAD_REACTORS
330
16
102
}
330
16
100
AcDbXrecord
  1
2
  1
*
  1
2
  1
*
 70
     0
  1
*
  1
*
  0
XRECORD
  5
20
102
{ACAD_REACTORS
330
16
102
}
330
16
100
AcDbXrecord
  1
2000
  1
2000*
  1
*
  1
*
 70
     0
  1
*
  1
*
  0
XRECORD
  5
21
102
{ACAD_REACTORS
330
16
102
}
330
16
100
AcDbXrecord
  1
50
  1
*-50
  1
*
  1
*
 70
     0
  1
*
  1
*
  0
XRECORD
  5
22
102
{ACAD_REACTORS
330
16
102
}
330
16
100
AcDbXrecord
  1
58J
  1
*58*
  1
*
  1
*
 70
     0
  1
*
  1
*
  0
XRECORD
  5
23
102
{ACAD_REACTORS
330
16
102
}
330
16
100
AcDbXrecord
  1
65
  1
*65
  1
*
  1
*
 70
     0
  1
*
  1
*
  0
XRECORD
  5
24
102
{ACAD_REACTORS
330
16
102
}
330
16
100
AcDbXrecord
  1
aa
  1
aa*
  1
*
  1
*
 70
     0
  1
*
  1
*
  0
XRECORD
  5
25
102
{ACAD_REACTORS
330
16
102
}
330
16
100
AcDbXrecord
  1
acabados
  1
a-*
  1
*
  1
*
 70
     5
  1
*
  1
*
  0
XRECORD
  5
26
102
{ACAD_REACTORS
330
16
102
}
330
16
100
AcDbXrecord
  1
AGUA Y DREN
  1
A-DS-*
  1
*
  1
*
 70
     0
  1
*
  1
*
  0
XRECORD
  5
27
102
{ACAD_REACTORS
330
16
102
}
330
16
100
AcDbXrecord
  1
Aire
  1
*
  1
*
  1
*
 70
     0
  1
*
  1
*
  0
XRECORD
  5
28
102
{ACAD_REACTORS
330
16
102
}
330
16
100
AcDbXrecord
  1
alle aus
  1
99999999999
  1
*
  1
*
 70
     0
  1
*
  1
*
  0
XRECORD
  5
29
102
{ACAD_REACTORS
330
16
102
}
330
16
100
AcDbXrecord
  1
Alles mit S
  1
s*
  1
*
  1
*
 70
     0
  1
*
  1
*
  0
XRECORD
  5
2A
102
{ACAD_REACTORS
330
16
102
}
330
16
100
AcDbXrecord
  1
amarillo
  1
*
  1
yellow
  1
*
 70
     0
  1
*
  1
*
  0
XRECORD
  5
2B
102
{ACAD_REACTORS
330
16
102
}
330
16
100
AcDbXrecord
  1
APAGADOS
  1
*
  1
*
  1
*
 70
     4
  1
*
  1
*
  0
XRECORD
  5
2C
102
{ACAD_REACTORS
330
16
102
}
330
16
100
AcDbXrecord
  1
ARR
  1
ARR*
  1
*
  1
*
 70
     0
  1
*
  1
*
  0
XRECORD
  5
2D
102
{ACAD_REACTORS
330
16
102
}
330
16
100
AcDbXrecord
  1
ba
  1
*
  1
*
  1
*
 70
     0
  1
*
  1
*
  0
XRECORD
  5
2E
102
{ACAD_REACTORS
330
16
102
}
330
16
100
AcDbXrecord
  1
BACKS
  1
*-H
  1
*
  1
*
 70
     0
  1
*
  1
*
  0
XRECORD
  5
2F
102
{ACAD_REACTORS
330
16
102
}
330
16
100
AcDbXrecord
  1
BASE
  1
*-PBASE
  1
*
  1
*
 70
     0
  1
*
  1
*
  0
XRECORD
  5
30
102
{ACAD_REACTORS
330
16
102
}
330
16
100
AcDbXrecord
  1
BLOQ_INUTIL
  1
*
  1
*
  1
*
 70
     0
  1
*
  1
*
  0
XRECORD
  5
31
102
{ACAD_REACTORS
330
16
102
}
330
16
100
AcDbXrecord
  1
CADKON
  1
?[KAHBSM]?????[23M],?[KAHBSM]?????[23M][1456A-DGHILN-SU-Z]
  1
*
  1
*
 70
     0
  1
*
  1
*
  0
XRECORD
  5
32
102
{ACAD_REACTORS
330
16
102
}
330
16
100
AcDbXrecord
  1
carpinteria
  1
carp*
  1
*
  1
*
 70
     0
  1
*
  1
*
  0
XRECORD
  5
33
102
{ACAD_REACTORS
330
16
102
}
330
16
100
AcDbXrecord
  1
cerrados
  1
*
  1
*
  1
*
 70
   256
  1
*
  1
*
  0
XRECORD
  5
34
102
{ACAD_REACTORS
330
16
102
}
330
16
100
AcDbXrecord
  1
COL
  1
*
  1
*
  1
*
 70
     1
  1
*
  1
*
  0
XRECORD
  5
35
102
{ACAD_REACTORS
330
16
102
}
330
16
100
AcDbXrecord
  1
COLOR
  1
*
  1
253
  1
*
 70
     0
  1
*
  1
*
  0
XRECORD
  5
36
102
{ACAD_REACTORS
330
16
102
}
330
16
100
AcDbXrecord
  1
color 250
  1
*
  1
250
  1
*
 70
     0
  1
*
  1
*
  0
XRECORD
  5
37
102
{ACAD_REACTORS
330
16
102
}
330
16
100
AcDbXrecord
  1
COLORES
  1
*
  1
6
  1
*
 70
     0
  1
*
  1
*
  0
XRECORD
  5
38
102
{ACAD_REACTORS
330
16
102
}
330
16
100
AcDbXrecord
  1
Congelados
  1
*
  1
*
  1
*
 70
     4
  1
*
  1
*
  0
XRECORD
  5
39
102
{ACAD_REACTORS
330
16
102
}
330
16
100
AcDbXrecord
  1
CONJUNTO
  1
CON-*
  1
*
  1
*
 70
     0
  1
*
  1
*
  0
XRECORD
  5
3A
102
{ACAD_REACTORS
330
16
102
}
330
16
100
AcDbXrecord
  1
d1
  1
achurados
  1
*
  1
*
 70
     0
  1
*
  1
*
  0
XRECORD
  5
3B
102
{ACAD_REACTORS
330
16
102
}
330
16
100
AcDbXrecord
  1
DA_
  1
DA*
  1
*
  1
*
 70
     0
  1
*
  1
*
  0
XRECORD
  5
3C
102
{ACAD_REACTORS
330
16
102
}
330
16
100
AcDbXrecord
  1
DET-
  1
*
  1
*
  1
*
 70
     0
  1
*
  1
*
  0
XRECORD
  5
3D
102
{ACAD_REACTORS
330
16
102
}
330
16
100
AcDbXrecord
  1
DOR-H
  1
*
  1
7
  1
*
 70
     0
  1
*
  1
*
  0
XRECORD
  5
3E
102
{ACAD_REACTORS
330
16
102
}
330
16
100
AcDbXrecord
  1
ejes
  1
eje*
  1
*
  1
*
 70
     0
  1
*
  1
*
  0
XRECORD
  5
3F
102
{ACAD_REACTORS
330
16
102
}
330
16
100
AcDbXrecord
  1
ELECTRICO
  1
ELEC-*
  1
*
  1
*
 70
     0
  1
*
  1
*
  0
XRECORD
  5
40
102
{ACAD_REACTORS
330
16
102
}
330
16
100
AcDbXrecord
  1
F1
  1
Halaxref*
  1
*
  1
*
 70
     0
  1
*
  1
*
  0
XRECORD
  5
41
102
{ACAD_REACTORS
330
16
102
}
330
16
100
AcDbXrecord
  1
frozen
  1
*
  1
*
  1
*
 70
     4
  1
*
  1
*
  0
XRECORD
  5
42
102
{ACAD_REACTORS
330
16
102
}
330
16
100
AcDbXrecord
  1
grid
  1
*-PGRID
  1
*
  1
*
 70
     1
  1
*
  1
*
  0
XRECORD
  5
43
102
{ACAD_REACTORS
330
16
102
}
330
16
100
AcDbXrecord
  1
GRIDTXT
  1
*-PGRIDT
  1
*
  1
*
 70
     0
  1
*
  1
*
  0
XRECORD
  5
44
102
{ACAD_REACTORS
330
16
102
}
330
16
100
AcDbXrecord
  1
HATCH
  1
HAT*
  1
*
  1
*
 70
     0
  1
*
  1
*
  0
XRECORD
  5
45
102
{ACAD_REACTORS
330
16
102
}
330
16
100
AcDbXrecord
  1
HCAD
  1
1HCAD-*
  1
*
  1
*
 70
    13
  1
*
  1
*
  0
XRECORD
  5
46
102
{ACAD_REACTORS
330
16
102
}
330
16
100
AcDbXrecord
  1
INSTALACIONES
  1
I-*
  1
*
  1
*
 70
     0
  1
*
  1
*
  0
XRECORD
  5
47
102
{ACAD_REACTORS
330
16
102
}
330
16
100
AcDbXrecord
  1
JIZNI
  1
*-J
  1
*
  1
*
 70
     0
  1
*
  1
*
  0
XRECORD
  5
48
102
{ACAD_REACTORS
330
16
102
}
330
16
100
AcDbXrecord
  1
kck
  1
*
  1
*
  1
*
 70
     0
  1
*
  1
*
  0
XRECORD
  5
49
102
{ACAD_REACTORS
330
16
102
}
330
16
100
AcDbXrecord
  1
kkk
  1
k
  1
*
  1
*
 70
     0
  1
*
  1
*
  0
XRECORD
  5
4A
102
{ACAD_REACTORS
330
16
102
}
330
16
100
AcDbXrecord
  1
lay
  1
??-*
  1
*
  1
*
 70
     0
  1
*
  1
*
  0
XRECORD
  5
4E
102
{ACAD_REACTORS
330
16
102
}
330
16
100
AcDbXrecord
  1
Layer-0
  1
0*
  1
*
  1
*
 70
     0
  1
*
  1
*
  0
XRECORD
  5
4F
102
{ACAD_REACTORS
330
16
102
}
330
16
100
AcDbXrecord
  1
Layer-1
  1
1*
  1
*
  1
*
 70
     0
  1
*
  1
*
  0
XRECORD
  5
4B
102
{ACAD_REACTORS
330
16
102
}
330
16
100
AcDbXrecord
  1
Layer 1 und 0
  1
1*,0
  1
*
  1
*
 70
     0
  1
*
  1
*
  0
XRECORD
  5
4C
102
{ACAD_REACTORS
330
16
102
}
330
16
100
AcDbXrecord
  1
Layer 2 und 0
  1
2*,0
  1
*
  1
*
 70
     0
  1
*
  1
*
  0
XRECORD
  5
4D
102
{ACAD_REACTORS
330
16
102
}
330
16
100
AcDbXrecord
  1
Layer 9 und 0 Schraffur
  1
9*,0
  1
*
  1
*
 70
     0
  1
*
  1
*
  0
XRECORD
  5
50
102
{ACAD_REACTORS
330
16
102
}
330
16
100
AcDbXrecord
  1
LOCK
  1
*
  1
*
  1
*
 70
   256
  1
*
  1
*
  0
XRECORD
  5
51
102
{ACAD_REACTORS
330
16
102
}
330
16
100
AcDbXrecord
  1
locked
  1
*
  1
*
  1
*
 70
   256
  1
*
  1
*
  0
XRECORD
  5
52
102
{ACAD_REACTORS
330
16
102
}
330
16
100
AcDbXrecord
  1
Lotes
  1
*
  1
*
  1
*
 70
     1
  1
*
  1
*
  0
XRECORD
  5
53
102
{ACAD_REACTORS
330
16
102
}
330
16
100
AcDbXrecord
  1
LUNAR
  1
*
  1
*
  1
*
 70
    48
  1
*
  1
*
  0
XRECORD
  5
54
102
{ACAD_REACTORS
330
16
102
}
330
16
100
AcDbXrecord
  1
LUNAR2
  1
*
  1
*
  1
*
 70
    12
  1
*
  1
*
  0
XRECORD
  5
55
102
{ACAD_REACTORS
330
16
102
}
330
16
100
AcDbXrecord
  1
M
  1
M*
  1
*
  1
*
 70
     0
  1
*
  1
*
  0
XRECORD
  5
56
102
{ACAD_REACTORS
330
16
102
}
330
16
100
AcDbXrecord
  1
mis_layers
  1
mis_*
  1
*
  1
*
 70
     0
  1
*
  1
*
  0
XRECORD
  5
57
102
{ACAD_REACTORS
330
16
102
}
330
16
100
AcDbXrecord
  1
MRKCK
  1
*
  1
*
  1
*
 70
     0
  1
*
  1
*
  0
XRECORD
  5
58
102
{ACAD_REACTORS
330
16
102
}
330
16
100
AcDbXrecord
  1
NECADKON
  1
~*?[KAHBSM]?????[23M]*
  1
*
  1
*
 70
     0
  1
*
  1
*
  0
XRECORD
  5
59
102
{ACAD_REACTORS
330
16
102
}
330
16
100
AcDbXrecord
  1
NI_LH
  1
NI_LH*
  1
*
  1
*
 70
     0
  1
*
  1
*
  0
XRECORD
  5
5A
102
{ACAD_REACTORS
330
16
102
}
330
16
100
AcDbXrecord
  1
NI_RH
  1
NI_RH*
  1
*
  1
*
 70
     0
  1
*
  1
*
  0
XRECORD
  5
5B
102
{ACAD_REACTORS
330
16
102
}
330
16
100
AcDbXrecord
  1
NUM
  1
NUM*
  1
*
  1
*
 70
     0
  1
*
  1
*
  0
XRECORD
  5
5C
102
{ACAD_REACTORS
330
16
102
}
330
16
100
AcDbXrecord
  1
off
  1
*
  1
*
  1
*
 70
     3
  1
*
  1
*
  0
XRECORD
  5
5D
102
{ACAD_REACTORS
330
16
102
}
330
16
100
AcDbXrecord
  1
on
  1
*
  1
*
  1
*
 70
     0
  1
*
  1
*
  0
XRECORD
  5
5E
102
{ACAD_REACTORS
330
16
102
}
330
16
100
AcDbXrecord
  1
PBASE
  1
*PBASE
  1
*
  1
*
 70
     0
  1
*
  1
*
  0
XRECORD
  5
5F
102
{ACAD_REACTORS
330
16
102
}
330
16
100
AcDbXrecord
  1
PEGC
  1
*PEGC
  1
*
  1
*
 70
     0
  1
*
  1
*
  0
XRECORD
  5
60
102
{ACAD_REACTORS
330
16
102
}
330
16
100
AcDbXrecord
  1
PEGCT
  1
*PEGCT
  1
*
  1
*
 70
     0
  1
*
  1
*
  0
XRECORD
  5
61
102
{ACAD_REACTORS
330
16
102
}
330
16
100
AcDbXrecord
  1
PFRAME
  1
PFRAME*
  1
*
  1
*
 70
     0
  1
*
  1
*
  0
XRECORD
  5
62
102
{ACAD_REACTORS
330
16
102
}
330
16
100
AcDbXrecord
  1
PGRID
  1
*PGRID
  1
*
  1
*
 70
     0
  1
*
  1
*
  0
XRECORD
  5
63
102
{ACAD_REACTORS
330
16
102
}
330
16
100
AcDbXrecord
  1
PGRIDT
  1
*PGRIDT
  1
*
  1
*
 70
     0
  1
*
  1
*
  0
XRECORD
  5
64
102
{ACAD_REACTORS
330
16
102
}
330
16
100
AcDbXrecord
  1
PLAFONES
  1
0-*
  1
*
  1
*
 70
     0
  1
*
  1
*
  0
XRECORD
  5
65
102
{ACAD_REACTORS
330
16
102
}
330
16
100
AcDbXrecord
  1
PLANTAS
  1
P-*
  1
*
  1
*
 70
     0
  1
*
  1
*
  0
XRECORD
  5
66
102
{ACAD_REACTORS
330
16
102
}
330
16
100
AcDbXrecord
  1
Plot
  1
*
  1
*
  1
*
 70
  1024
  1
*
  1
*
  0
XRECORD
  5
67
102
{ACAD_REACTORS
330
16
102
}
330
16
100
AcDbXrecord
  1
PRENDIDAS
  1
*
  1
*
  1
*
 70
    13
  1
*
  1
*
  0
XRECORD
  5
68
102
{ACAD_REACTORS
330
16
102
}
330
16
100
AcDbXrecord
  1
PRENDIDOS
  1
*
  1
*
  1
*
 70
    12
  1
*
  1
*
  0
XRECORD
  5
69
102
{ACAD_REACTORS
330
16
102
}
330
16
100
AcDbXrecord
  1
print
  1
*
  1
7
  1
*
 70
  1280
  1
*
  1
*
  0
XRECORD
  5
6A
102
{ACAD_REACTORS
330
16
102
}
330
16
100
AcDbXrecord
  1
PT
  1
PT-*
  1
*
  1
*
 70
     0
  1
*
  1
*
  0
XRECORD
  5
6B
102
{ACAD_REACTORS
330
16
102
}
330
16
100
AcDbXrecord
  1
PTH
  1
PTH*
  1
*
  1
*
 70
     0
  1
*
  1
*
  0
XRECORD
  5
6C
102
{ACAD_REACTORS
330
16
102
}
330
16
100
AcDbXrecord
  1
PVGRID
  1
*PVGRID
  1
*
  1
*
 70
     0
  1
*
  1
*
  0
XRECORD
  5
6D
102
{ACAD_REACTORS
330
16
102
}
330
16
100
AcDbXrecord
  1
Red de Agua Potable
  1
Red de Agua Potable
  1
*
  1
*
 70
     1
  1
*
  1
*
  0
XRECORD
  5
6E
102
{ACAD_REACTORS
330
16
102
}
330
16
100
AcDbXrecord
  1
Red de Energia Electrica
  1
Lotes
  1
*
  1
*
 70
     1
  1
*
  1
*
  0
XRECORD
  5
6F
102
{ACAD_REACTORS
330
16
102
}
330
16
100
AcDbXrecord
  1
SEVERNI
  1
*-S
  1
*
  1
*
 70
     0
  1
*
  1
*
  0
XRECORD
  5
70
102
{ACAD_REACTORS
330
16
102
}
330
16
100
AcDbXrecord
  1
shin
  1
일*
  1
*
  1
*
 70
     0
  1
*
  1
*
  0
XRECORD
  5
71
102
{ACAD_REACTORS
330
16
102
}
330
16
100
AcDbXrecord
  1
SHOW ALL LAYER
  1
*
  1
*
  1
*
 70
     0
  1
*
  1
*
  0
XRECORD
  5
72
102
{ACAD_REACTORS
330
16
102
}
330
16
100
AcDbXrecord
  1
sin
  1
sin
  1
*
  1
*
 70
     0
  1
*
  1
*
  0
XRECORD
  5
73
102
{ACAD_REACTORS
330
16
102
}
330
16
100
AcDbXrecord
  1
STORAGE-CART
  1
STORAGE-CART*
  1
*
  1
*
 70
     0
  1
*
  1
*
  0
XRECORD
  5
74
102
{ACAD_REACTORS
330
16
102
}
330
16
100
AcDbXrecord
  1
T
  1
T*
  1
*
  1
*
 70
     0
  1
*
  1
*
  0
XRECORD
  5
75
102
{ACAD_REACTORS
330
16
102
}
330
16
100
AcDbXrecord
  1
TEXTOS
  1
TXT*
  1
*
  1
*
 70
     0
  1
*
  1
*
  0
XRECORD
  5
76
102
{ACAD_REACTORS
330
16
102
}
330
16
100
AcDbXrecord
  1
TEXTURAS
  1
*TEXTURAS
  1
*
  1
*
 70
     0
  1
*
  1
*
  0
XRECORD
  5
77
102
{ACAD_REACTORS
330
16
102
}
330
16
100
AcDbXrecord
  1
TUBERIAS
  1
T*
  1
*
  1
*
 70
     0
  1
*
  1
*
  0
XRECORD
  5
78
102
{ACAD_REACTORS
330
16
102
}
330
16
100
AcDbXrecord
  1
UNFRZ
  1
*
  1
*
  1
*
 70
    12
  1
*
  1
*
  0
XRECORD
  5
79
102
{ACAD_REACTORS
330
16
102
}
330
16
100
AcDbXrecord
  1
v\U+0161echny nepou\U+017E\U+00EDvan\U+00E9
  1
*
  1
*
  1
*
 70
     0
  1
*
  1
*
  0
XRECORD
  5
7A
102
{ACAD_REACTORS
330
16
102
}
330
16
100
AcDbXrecord
  1
VA
  1
VA*
  1
*
  1
*
 70
     0
  1
*
  1
*
  0
XRECORD
  5
7B
102
{ACAD_REACTORS
330
16
102
}
330
16
100
AcDbXrecord
  1
Ventilaci\U+00F3n
  1
*
  1
*
  1
*
 70
     0
  1
*
  1
*
  0
XRECORD
  5
7C
102
{ACAD_REACTORS
330
16
102
}
330
16
100
AcDbXrecord
  1
VYHODNI
  1
*-V
  1
*
  1
*
 70
     0
  1
*
  1
*
  0
XRECORD
  5
7D
102
{ACAD_REACTORS
330
16
102
}
330
16
100
AcDbXrecord
  1
Yo
  1
Muros
  1
*
  1
*
 70
     0
  1
*
  1
*
  0
XRECORD
  5
7E
102
{ACAD_REACTORS
330
16
102
}
330
16
100
AcDbXrecord
  1
ZAPADNI
  1
*-Z
  1
*
  1
*
 70
     0
  1
*
  1
*
  0
XRECORD
  5
7F
102
{ACAD_REACTORS
330
16
102
}
330
16
100
AcDbXrecord
  1
사용
  1
*
  1
*
  1
*
 70
   256
  1
*
  1
*
  0
XRECORD
  5
80
102
{ACAD_REACTORS
330
16
102
}
330
16
100
AcDbXrecord
  1
신규
  1
신규
  1
*
  1
*
 70
     0
  1
*
  1
*
  0
XRECORD
  5
81
102
{ACAD_REACTORS
330
16
102
}
330
16
100
AcDbXrecord
  1
실박스
  1
BLO,SYM,SYM1,SYM2
  1
*
  1
*
 70
     0
  1
*
  1
*
  0
XRECORD
  5
82
102
{ACAD_REACTORS
330
16
102
}
330
16
100
AcDbXrecord
  1
우리토목
  1
w-*
  1
*
  1
*
 70
     0
  1
*
  1
*
  0
XRECORD
  5
83
102
{ACAD_REACTORS
330
16
102
}
330
16
100
AcDbXrecord
  1
주차
  1
car*
  1
*
  1
*
 70
     0
  1
*
  1
*
  0
XRECORD
  5
84
102
{ACAD_REACTORS
330
16
102
}
330
16
100
AcDbXrecord
  1
지상정밀
  1
*
  1
*
  1
*
 70
     0
  1
*
  1
*
  0
XRECORD
  5
85
102
{ACAD_REACTORS
330
16
102
}
330
16
100
AcDbXrecord
  1
쩜선
  1
*
  1
*
  1
*
 70
     0
  1
*
  1
*
  0
XRECORD
  5
86
102
{ACAD_REACTORS
330
16
102
}
330
16
100
AcDbXrecord
  1
플로터 작업층
  1
*
  1
*
  1
*
 70
  1025
  1
*
  1
*
  0
XRECORD
  5
87
102
{ACAD_REACTORS
330
16
102
}
330
16
100
AcDbXrecord
  1
현재 작업층
  1
*
  1
*
  1
*
 70
     1
  1
*
  1
*
  0
XRECORD
  5
88
102
{ACAD_REACTORS
330
16
102
}
330
16
100
AcDbXrecord
  1
현재 잠금
  1
*
  1
*
  1
*
 70
   257
  1
*
  1
*
  0
ENDSEC
  0
EOF
