  0
SECTION
  2
HEADER
  9
$ACADVER
  1
AC1014
  9
$ACADMAINTVER
 70
     9
  9
$DWGCODEPAGE
  3
ANSI_949
  9
$INSBASE
 10
0.0
 20
0.0
 30
0.0
  9
$EXTMIN
 10
-5.213482378487242
 20
-9.294221054900845
 30
-0.0015258207003583
  9
$EXTMAX
 10
330.9975621348421
 20
392.8200811236638
 30
0.0000000349246037
  9
$LIMMIN
 10
0.0
 20
0.0
  9
$LIMMAX
 10
420.0
 20
297.0
  9
$ORTHOMODE
 70
     0
  9
$REGENMODE
 70
     1
  9
$FILLMODE
 70
     1
  9
$QTEXTMODE
 70
     0
  9
$MIRRTEXT
 70
     0
  9
$DRAGMODE
 70
     2
  9
$LTSCALE
 40
0.2
  9
$OSMODE
 70
   567
  9
$ATTMODE
 70
     1
  9
$TEXTSIZE
 40
5.777225951253058
  9
$TRACEWID
 40
1.0
  9
$TEXTSTYLE
  7
STANDARD
  9
$CLAYER
  8
0
  9
$CELTYPE
  6
BYLAYER
  9
$CECOLOR
 62
   256
  9
$CELTSCALE
 40
1.0
  9
$DELOBJ
 70
     1
  9
$DISPSILH
 70
     0
  9
$DIMSCALE
 40
1.0
  9
$DIMASZ
 40
3.0
  9
$DIMEXO
 40
1.0
  9
$DIMDLI
 40
10.0
  9
$DIMRND
 40
0.0
  9
$DIMDLE
 40
0.0
  9
$DIMEXE
 40
0.6
  9
$DIMTP
 40
0.0
  9
$DIMTM
 40
0.0
  9
$DIMTXT
 40
3.5
  9
$DIMCEN
 40
0.09
  9
$DIMTSZ
 40
0.0
  9
$DIMTOL
 70
     0
  9
$DIMLIM
 70
     0
  9
$DIMTIH
 70
     0
  9
$DIMTOH
 70
     0
  9
$DIMSE1
 70
     0
  9
$DIMSE2
 70
     0
  9
$DIMTAD
 70
     1
  9
$DIMZIN
 70
     8
  9
$DIMBLK
  1

  9
$DIMASO
 70
     1
  9
$DIMSHO
 70
     1
  9
$DIMPOST
  1

  9
$DIMAPOST
  1

  9
$DIMALT
 70
     0
  9
$DIMALTD
 70
     2
  9
$DIMALTF
 40
25.4
  9
$DIMLFAC
 40
1.0
  9
$DIMTOFL
 70
     1
  9
$DIMTVP
 40
0.0
  9
$DIMTIX
 70
     1
  9
$DIMSOXD
 70
     0
  9
$DIMSAH
 70
     0
  9
$DIMBLK1
  1

  9
$DIMBLK2
  1

  9
$DIMSTYLE
  2
1_1_2
  9
$DIMCLRD
 70
   123
  9
$DIMCLRE
 70
   123
  9
$DIMCLRT
 70
     3
  9
$DIMTFAC
 40
1.0
  9
$DIMGAP
 40
1.0
  9
$DIMJUST
 70
     0
  9
$DIMSD1
 70
     0
  9
$DIMSD2
 70
     0
  9
$DIMTOLJ
 70
     1
  9
$DIMTZIN
 70
     0
  9
$DIMALTZ
 70
     0
  9
$DIMALTTZ
 70
     0
  9
$DIMFIT
 70
     0
  9
$DIMUPT
 70
     1
  9
$DIMUNIT
 70
     2
  9
$DIMDEC
 70
     2
  9
$DIMTDEC
 70
     2
  9
$DIMALTU
 70
     2
  9
$DIMALTTD
 70
     2
  9
$DIMTXSTY
  7
STANDARD
  9
$DIMAUNIT
 70
     1
  9
$LUNITS
 70
     2
  9
$LUPREC
 70
     4
  9
$SKETCHINC
 40
1.0
  9
$FILLETRAD
 40
0.5
  9
$AUNITS
 70
     0
  9
$AUPREC
 70
     0
  9
$MENU
  1
.
  9
$ELEVATION
 40
0.0
  9
$PELEVATION
 40
0.0
  9
$THICKNESS
 40
0.0
  9
$LIMCHECK
 70
     0
  9
$BLIPMODE
 70
     1
  9
$CHAMFERA
 40
1.0
  9
$CHAMFERB
 40
1.0
  9
$CHAMFERC
 40
20.0
  9
$CHAMFERD
 40
0.0
  9
$SKPOLY
 70
     0
  9
$TDCREATE
 40
2452839.586179271
  9
$TDUPDATE
 40
2453376.721784386
  9
$TDINDWG
 40
11.1166215625
  9
$TDUSRTIMER
 40
11.1166213773
  9
$USRTIMER
 70
     1
  9
$ANGBASE
 50
0.0
  9
$ANGDIR
 70
     0
  9
$PDMODE
 70
     0
  9
$PDSIZE
 40
0.0
  9
$PLINEWID
 40
0.0
  9
$COORDS
 70
     2
  9
$SPLFRAME
 70
     0
  9
$SPLINETYPE
 70
     6
  9
$SPLINESEGS
 70
   800
  9
$ATTDIA
 70
     0
  9
$ATTREQ
 70
     1
  9
$HANDLING
 70
 22529
  9
$HANDSEED
  5
520
  9
$SURFTAB1
 70
     6
  9
$SURFTAB2
 70
     6
  9
$SURFTYPE
 70
     6
  9
$SURFU
 70
     6
  9
$SURFV
 70
     6
  9
$UCSNAME
  2

  9
$UCSORG
 10
0.0
 20
0.0
 30
0.0
  9
$UCSXDIR
 10
1.0
 20
0.0
 30
0.0
  9
$UCSYDIR
 10
0.0
 20
1.0
 30
0.0
  9
$PUCSNAME
  2

  9
$PUCSORG
 10
0.0
 20
0.0
 30
0.0
  9
$PUCSXDIR
 10
1.0
 20
0.0
 30
0.0
  9
$PUCSYDIR
 10
0.0
 20
1.0
 30
0.0
  9
$USERI1
 70
     0
  9
$USERI2
 70
     0
  9
$USERI3
 70
     0
  9
$USERI4
 70
     0
  9
$USERI5
 70
     0
  9
$USERR1
 40
0.0
  9
$USERR2
 40
0.0
  9
$USERR3
 40
0.0
  9
$USERR4
 40
0.0
  9
$USERR5
 40
0.0
  9
$WORLDVIEW
 70
     1
  9
$SHADEDGE
 70
     3
  9
$SHADEDIF
 70
    70
  9
$TILEMODE
 70
     1
  9
$MAXACTVP
 70
    48
  9
$PINSBASE
 10
0.0
 20
0.0
 30
0.0
  9
$PLIMCHECK
 70
     0
  9
$PEXTMIN
 10
0.0
 20
0.0
 30
0.0
  9
$PEXTMAX
 10
0.0
 20
0.0
 30
0.0
  9
$PLIMMIN
 10
0.0
 20
0.0
  9
$PLIMMAX
 10
12.0
 20
9.0
  9
$UNITMODE
 70
     0
  9
$VISRETAIN
 70
     1
  9
$PLINEGEN
 70
     0
  9
$PSLTSCALE
 70
     1
  9
$TREEDEPTH
 70
  3020
  9
$PICKSTYLE
 70
     0
  9
$CMLSTYLE
  2
STANDARD
  9
$CMLJUST
 70
     0
  9
$CMLSCALE
 40
20.0
  9
$PROXYGRAPHICS
 70
     1
  9
$MEASUREMENT
 70
     1
  0
ENDSEC
  0
SECTION
  2
CLASSES
  0
CLASS
  1
ACDBDICTIONARYWDFLT
  2
AcDbDictionaryWithDefault
  3
AutoCAD 2000
 90
        0
280
     0
281
     0
  0
CLASS
  1
ACDBPLACEHOLDER
  2
AcDbPlaceHolder
  3
AutoCAD 2000
 90
        0
280
     0
281
     0
  0
CLASS
  1
LAYOUT
  2
AcDbLayout
  3
AutoCAD 2000
 90
        0
280
     0
281
     0
  0
CLASS
  1
DICTIONARYVAR
  2
AcDbDictionaryVar
  3
AutoCAD 2000
 90
        0
280
     0
281
     0
  0
CLASS
  1
DIMASSOC
  2
AcDbDimAssoc
  3
"AcDbDimAssoc|Product Desc:     AcDim ARX App For Dimension|Company:          Autodesk, Inc.|WEB Address:      www.autodesk.com"
 90
        0
280
     0
281
     0
  0
CLASS
  1
LONG_TRANSACTION
  2
AcDbLongTransaction
  3
AutoCAD 2000
 90
        0
280
     0
281
     0
  0
CLASS
  1
LWPOLYLINE
  2
AcDbPolyline
  3
AutoCAD 2000
 90
        0
280
     0
281
     1
  0
CLASS
  1
HATCH
  2
AcDbHatch
  3
AutoCAD 2000
 90
        0
280
     0
281
     1
  0
CLASS
  1
XRECORD
  2
AcDbXrecord
  3
AutoCAD 2000
 90
        0
280
     0
281
     0
  0
CLASS
  1
LONG_TRANSACTION
  2
AcDbLongTransaction
  3
AutoCAD 2000
 90
        0
280
     0
281
     0
  0
CLASS
  1
LWPOLYLINE
  2
AcDbPolyline
  3
AutoCAD 2000
 90
        0
280
     0
281
     1
  0
CLASS
  1
HATCH
  2
AcDbHatch
  3
AutoCAD 2000
 90
        0
280
     0
281
     1
  0
CLASS
  1
XRECORD
  2
AcDbXrecord
  3
AutoCAD 2000
 90
        0
280
     0
281
     0
  0
CLASS
  1
LONG_TRANSACTION
  2
AcDbLongTransaction
  3
AutoCAD 2000
 90
        0
280
     0
281
     0
  0
CLASS
  1
LWPOLYLINE
  2
AcDbPolyline
  3
AutoCAD 2000
 90
        0
280
     0
281
     1
  0
CLASS
  1
HATCH
  2
AcDbHatch
  3
AutoCAD 2000
 90
        0
280
     0
281
     1
  0
CLASS
  1
XRECORD
  2
AcDbXrecord
  3
AutoCAD 2000
 90
        0
280
     0
281
     0
  0
CLASS
  1
LONG_TRANSACTION
  2
AcDbLongTransaction
  3
AutoCAD 2000
 90
        0
280
     0
281
     0
  0
CLASS
  1
LWPOLYLINE
  2
AcDbPolyline
  3
AutoCAD 2000
 90
        0
280
     0
281
     1
  0
CLASS
  1
HATCH
  2
AcDbHatch
  3
AutoCAD 2000
 90
        0
280
     0
281
     1
  0
CLASS
  1
XRECORD
  2
AcDbXrecord
  3
AutoCAD 2000
 90
        0
280
     0
281
     0
  0
CLASS
  1
LONG_TRANSACTION
  2
AcDbLongTransaction
  3
AutoCAD 2000
 90
        0
280
     0
281
     0
  0
CLASS
  1
LWPOLYLINE
  2
AcDbPolyline
  3
AutoCAD 2000
 90
        0
280
     0
281
     1
  0
CLASS
  1
HATCH
  2
AcDbHatch
  3
AutoCAD 2000
 90
        0
280
     0
281
     1
  0
CLASS
  1
XRECORD
  2
AcDbXrecord
  3
AutoCAD 2000
 90
        0
280
     0
281
     0
  0
CLASS
  1
LONG_TRANSACTION
  2
AcDbLongTransaction
  3
AutoCAD 2000
 90
        0
280
     0
281
     0
  0
CLASS
  1
LWPOLYLINE
  2
AcDbPolyline
  3
AutoCAD 2000
 90
        0
280
     0
281
     1
  0
CLASS
  1
HATCH
  2
AcDbHatch
  3
AutoCAD 2000
 90
        0
280
     0
281
     1
  0
CLASS
  1
XRECORD
  2
AcDbXrecord
  3
AutoCAD 2000
 90
        0
280
     0
281
     0
  0
CLASS
  1
LONG_TRANSACTION
  2
AcDbLongTransaction
  3
AutoCAD 2000
 90
        0
280
     0
281
     0
  0
CLASS
  1
LWPOLYLINE
  2
AcDbPolyline
  3
AutoCAD 2000
 90
        0
280
     0
281
     1
  0
CLASS
  1
HATCH
  2
AcDbHatch
  3
AutoCAD 2000
 90
        0
280
     0
281
     1
  0
CLASS
  1
XRECORD
  2
AcDbXrecord
  3
AutoCAD 2000
 90
        0
280
     0
281
     0
  0
CLASS
  1
LONG_TRANSACTION
  2
AcDbLongTransaction
  3
AutoCAD 2000
 90
        0
280
     0
281
     0
  0
CLASS
  1
LWPOLYLINE
  2
AcDbPolyline
  3
AutoCAD 2000
 90
        0
280
     0
281
     1
  0
CLASS
  1
HATCH
  2
AcDbHatch
  3
AutoCAD 2000
 90
        0
280
     0
281
     1
  0
CLASS
  1
XRECORD
  2
AcDbXrecord
  3
AutoCAD 2000
 90
        0
280
     0
281
     0
  0
CLASS
  1
LONG_TRANSACTION
  2
AcDbLongTransaction
  3
AutoCAD 2000
 90
        0
280
     0
281
     0
  0
CLASS
  1
LWPOLYLINE
  2
AcDbPolyline
  3
AutoCAD 2000
 90
        0
280
     0
281
     1
  0
CLASS
  1
HATCH
  2
AcDbHatch
  3
AutoCAD 2000
 90
        0
280
     0
281
     1
  0
CLASS
  1
XRECORD
  2
AcDbXrecord
  3
AutoCAD 2000
 90
        0
280
     0
281
     0
  0
CLASS
  1
LONG_TRANSACTION
  2
AcDbLongTransaction
  3
AutoCAD 2000
 90
        0
280
     0
281
     0
  0
CLASS
  1
LWPOLYLINE
  2
AcDbPolyline
  3
AutoCAD 2000
 90
        0
280
     0
281
     1
  0
CLASS
  1
HATCH
  2
AcDbHatch
  3
AutoCAD 2000
 90
        0
280
     0
281
     1
  0
CLASS
  1
XRECORD
  2
AcDbXrecord
  3
AutoCAD 2000
 90
        0
280
     0
281
     0
  0
CLASS
  1
LONG_TRANSACTION
  2
AcDbLongTransaction
  3
AutoCAD 2000
 90
        0
280
     0
281
     0
  0
CLASS
  1
LWPOLYLINE
  2
AcDbPolyline
  3
AutoCAD 2000
 90
        0
280
     0
281
     1
  0
CLASS
  1
HATCH
  2
AcDbHatch
  3
AutoCAD 2000
 90
        0
280
     0
281
     1
  0
CLASS
  1
XRECORD
  2
AcDbXrecord
  3
AutoCAD 2000
 90
        0
280
     0
281
     0
  0
CLASS
  1
LONG_TRANSACTION
  2
AcDbLongTransaction
  3
AutoCAD 2000
 90
        0
280
     0
281
     0
  0
CLASS
  1
LWPOLYLINE
  2
AcDbPolyline
  3
AutoCAD 2000
 90
        0
280
     0
281
     1
  0
CLASS
  1
HATCH
  2
AcDbHatch
  3
AutoCAD 2000
 90
        0
280
     0
281
     1
  0
CLASS
  1
XRECORD
  2
AcDbXrecord
  3
AutoCAD 2000
 90
        0
280
     0
281
     0
  0
CLASS
  1
LONG_TRANSACTION
  2
AcDbLongTransaction
  3
AutoCAD 2000
 90
        0
280
     0
281
     0
  0
CLASS
  1
LWPOLYLINE
  2
AcDbPolyline
  3
AutoCAD 2000
 90
        0
280
     0
281
     1
  0
CLASS
  1
HATCH
  2
AcDbHatch
  3
AutoCAD 2000
 90
        0
280
     0
281
     1
  0
CLASS
  1
XRECORD
  2
AcDbXrecord
  3
AutoCAD 2000
 90
        0
280
     0
281
     0
  0
CLASS
  1
LONG_TRANSACTION
  2
AcDbLongTransaction
  3
AutoCAD 2000
 90
        0
280
     0
281
     0
  0
CLASS
  1
LWPOLYLINE
  2
AcDbPolyline
  3
AutoCAD 2000
 90
        0
280
     0
281
     1
  0
CLASS
  1
HATCH
  2
AcDbHatch
  3
AutoCAD 2000
 90
        0
280
     0
281
     1
  0
CLASS
  1
XRECORD
  2
AcDbXrecord
  3
AutoCAD 2000
 90
        0
280
     0
281
     0
  0
CLASS
  1
LONG_TRANSACTION
  2
AcDbLongTransaction
  3
AutoCAD 2000
 90
        0
280
     0
281
     0
  0
CLASS
  1
LWPOLYLINE
  2
AcDbPolyline
  3
AutoCAD 2000
 90
        0
280
     0
281
     1
  0
CLASS
  1
HATCH
  2
AcDbHatch
  3
AutoCAD 2000
 90
        0
280
     0
281
     1
  0
CLASS
  1
XRECORD
  2
AcDbXrecord
  3
AutoCAD 2000
 90
        0
280
     0
281
     0
  0
CLASS
  1
LONG_TRANSACTION
  2
AcDbLongTransaction
  3
AutoCAD 2000
 90
        0
280
     0
281
     0
  0
CLASS
  1
LWPOLYLINE
  2
AcDbPolyline
  3
AutoCAD 2000
 90
        0
280
     0
281
     1
  0
CLASS
  1
HATCH
  2
AcDbHatch
  3
AutoCAD 2000
 90
        0
280
     0
281
     1
  0
CLASS
  1
XRECORD
  2
AcDbXrecord
  3
AutoCAD 2000
 90
        0
280
     0
281
     0
  0
CLASS
  1
LONG_TRANSACTION
  2
AcDbLongTransaction
  3
AutoCAD 2000
 90
        0
280
     0
281
     0
  0
CLASS
  1
LWPOLYLINE
  2
AcDbPolyline
  3
AutoCAD 2000
 90
        0
280
     0
281
     1
  0
CLASS
  1
HATCH
  2
AcDbHatch
  3
AutoCAD 2000
 90
        0
280
     0
281
     1
  0
CLASS
  1
XRECORD
  2
AcDbXrecord
  3
AutoCAD 2000
 90
        0
280
     0
281
     0
  0
CLASS
  1
LONG_TRANSACTION
  2
AcDbLongTransaction
  3
AutoCAD 2000
 90
        0
280
     0
281
     0
  0
CLASS
  1
LWPOLYLINE
  2
AcDbPolyline
  3
AutoCAD 2000
 90
        0
280
     0
281
     1
  0
CLASS
  1
HATCH
  2
AcDbHatch
  3
AutoCAD 2000
 90
        0
280
     0
281
     1
  0
CLASS
  1
XRECORD
  2
AcDbXrecord
  3
AutoCAD 2000
 90
        0
280
     0
281
     0
  0
CLASS
  1
LONG_TRANSACTION
  2
AcDbLongTransaction
  3
AutoCAD 2000
 90
        0
280
     0
281
     0
  0
CLASS
  1
LWPOLYLINE
  2
AcDbPolyline
  3
AutoCAD 2000
 90
        0
280
     0
281
     1
  0
CLASS
  1
HATCH
  2
AcDbHatch
  3
AutoCAD 2000
 90
        0
280
     0
281
     1
  0
CLASS
  1
XRECORD
  2
AcDbXrecord
  3
AutoCAD 2000
 90
        0
280
     0
281
     0
  0
CLASS
  1
LONG_TRANSACTION
  2
AcDbLongTransaction
  3
AutoCAD 2000
 90
        0
280
     0
281
     0
  0
CLASS
  1
LWPOLYLINE
  2
AcDbPolyline
  3
AutoCAD 2000
 90
        0
280
     0
281
     1
  0
CLASS
  1
HATCH
  2
AcDbHatch
  3
AutoCAD 2000
 90
        0
280
     0
281
     1
  0
CLASS
  1
XRECORD
  2
AcDbXrecord
  3
AutoCAD 2000
 90
        0
280
     0
281
     0
  0
CLASS
  1
LONG_TRANSACTION
  2
AcDbLongTransaction
  3
AutoCAD 2000
 90
        0
280
     0
281
     0
  0
CLASS
  1
LWPOLYLINE
  2
AcDbPolyline
  3
AutoCAD 2000
 90
        0
280
     0
281
     1
  0
CLASS
  1
HATCH
  2
AcDbHatch
  3
AutoCAD 2000
 90
        0
280
     0
281
     1
  0
CLASS
  1
XRECORD
  2
AcDbXrecord
  3
AutoCAD 2000
 90
        0
280
     0
281
     0
  0
CLASS
  1
LONG_TRANSACTION
  2
AcDbLongTransaction
  3
AutoCAD 2000
 90
        0
280
     0
281
     0
  0
CLASS
  1
LWPOLYLINE
  2
AcDbPolyline
  3
AutoCAD 2000
 90
        0
280
     0
281
     1
  0
CLASS
  1
HATCH
  2
AcDbHatch
  3
AutoCAD 2000
 90
        0
280
     0
281
     1
  0
CLASS
  1
XRECORD
  2
AcDbXrecord
  3
AutoCAD 2000
 90
        0
280
     0
281
     0
  0
CLASS
  1
LONG_TRANSACTION
  2
AcDbLongTransaction
  3
AutoCAD 2000
 90
        0
280
     0
281
     0
  0
CLASS
  1
LWPOLYLINE
  2
AcDbPolyline
  3
AutoCAD 2000
 90
        0
280
     0
281
     1
  0
CLASS
  1
HATCH
  2
AcDbHatch
  3
AutoCAD 2000
 90
        0
280
     0
281
     1
  0
CLASS
  1
XRECORD
  2
AcDbXrecord
  3
AutoCAD 2000
 90
        0
280
     0
281
     0
  0
CLASS
  1
LONG_TRANSACTION
  2
AcDbLongTransaction
  3
AutoCAD 2000
 90
        0
280
     0
281
     0
  0
CLASS
  1
LWPOLYLINE
  2
AcDbPolyline
  3
AutoCAD 2000
 90
        0
280
     0
281
     1
  0
CLASS
  1
HATCH
  2
AcDbHatch
  3
AutoCAD 2000
 90
        0
280
     0
281
     1
  0
CLASS
  1
XRECORD
  2
AcDbXrecord
  3
AutoCAD 2000
 90
        0
280
     0
281
     0
  0
CLASS
  1
LONG_TRANSACTION
  2
AcDbLongTransaction
  3
AutoCAD 2000
 90
        0
280
     0
281
     0
  0
CLASS
  1
LWPOLYLINE
  2
AcDbPolyline
  3
AutoCAD 2000
 90
        0
280
     0
281
     1
  0
CLASS
  1
HATCH
  2
AcDbHatch
  3
AutoCAD 2000
 90
        0
280
     0
281
     1
  0
CLASS
  1
XRECORD
  2
AcDbXrecord
  3
AutoCAD 2000
 90
        0
280
     0
281
     0
  0
CLASS
  1
LONG_TRANSACTION
  2
AcDbLongTransaction
  3
AutoCAD 2000
 90
        0
280
     0
281
     0
  0
CLASS
  1
LWPOLYLINE
  2
AcDbPolyline
  3
AutoCAD 2000
 90
        0
280
     0
281
     1
  0
CLASS
  1
HATCH
  2
AcDbHatch
  3
AutoCAD 2000
 90
        0
280
     0
281
     1
  0
CLASS
  1
XRECORD
  2
AcDbXrecord
  3
AutoCAD 2000
 90
        0
280
     0
281
     0
  0
CLASS
  1
LONG_TRANSACTION
  2
AcDbLongTransaction
  3
AutoCAD 2000
 90
        0
280
     0
281
     0
  0
CLASS
  1
LWPOLYLINE
  2
AcDbPolyline
  3
AutoCAD 2000
 90
        0
280
     0
281
     1
  0
CLASS
  1
HATCH
  2
AcDbHatch
  3
AutoCAD 2000
 90
        0
280
     0
281
     1
  0
CLASS
  1
XRECORD
  2
AcDbXrecord
  3
AutoCAD 2000
 90
        0
280
     0
281
     0
  0
CLASS
  1
LONG_TRANSACTION
  2
AcDbLongTransaction
  3
AutoCAD 2000
 90
        0
280
     0
281
     0
  0
CLASS
  1
LWPOLYLINE
  2
AcDbPolyline
  3
AutoCAD 2000
 90
        0
280
     0
281
     1
  0
CLASS
  1
HATCH
  2
AcDbHatch
  3
AutoCAD 2000
 90
        0
280
     0
281
     1
  0
CLASS
  1
XRECORD
  2
AcDbXrecord
  3
AutoCAD 2000
 90
        0
280
     0
281
     0
  0
CLASS
  1
LONG_TRANSACTION
  2
AcDbLongTransaction
  3
AutoCAD 2000
 90
        0
280
     0
281
     0
  0
CLASS
  1
LWPOLYLINE
  2
AcDbPolyline
  3
AutoCAD 2000
 90
        0
280
     0
281
     1
  0
CLASS
  1
HATCH
  2
AcDbHatch
  3
AutoCAD 2000
 90
        0
280
     0
281
     1
  0
CLASS
  1
XRECORD
  2
AcDbXrecord
  3
AutoCAD 2000
 90
        0
280
     0
281
     0
  0
CLASS
  1
LONG_TRANSACTION
  2
AcDbLongTransaction
  3
AutoCAD 2000
 90
        0
280
     0
281
     0
  0
CLASS
  1
LWPOLYLINE
  2
AcDbPolyline
  3
AutoCAD 2000
 90
        0
280
     0
281
     1
  0
CLASS
  1
HATCH
  2
AcDbHatch
  3
AutoCAD 2000
 90
        0
280
     0
281
     1
  0
CLASS
  1
XRECORD
  2
AcDbXrecord
  3
AutoCAD 2000
 90
        0
280
     0
281
     0
  0
CLASS
  1
LONG_TRANSACTION
  2
AcDbLongTransaction
  3
AutoCAD 2000
 90
        0
280
     0
281
     0
  0
CLASS
  1
LWPOLYLINE
  2
AcDbPolyline
  3
AutoCAD 2000
 90
        0
280
     0
281
     1
  0
CLASS
  1
HATCH
  2
AcDbHatch
  3
AutoCAD 2000
 90
        0
280
     0
281
     1
  0
CLASS
  1
XRECORD
  2
AcDbXrecord
  3
AutoCAD 2000
 90
        0
280
     0
281
     0
  0
CLASS
  1
LONG_TRANSACTION
  2
AcDbLongTransaction
  3
AutoCAD 2000
 90
        0
280
     0
281
     0
  0
CLASS
  1
LWPOLYLINE
  2
AcDbPolyline
  3
AutoCAD 2000
 90
        0
280
     0
281
     1
  0
CLASS
  1
HATCH
  2
AcDbHatch
  3
AutoCAD 2000
 90
        0
280
     0
281
     1
  0
CLASS
  1
XRECORD
  2
AcDbXrecord
  3
AutoCAD 2000
 90
        0
280
     0
281
     0
  0
CLASS
  1
LONG_TRANSACTION
  2
AcDbLongTransaction
  3
AutoCAD 2000
 90
        0
280
     0
281
     0
  0
CLASS
  1
LWPOLYLINE
  2
AcDbPolyline
  3
AutoCAD 2000
 90
        0
280
     0
281
     1
  0
CLASS
  1
HATCH
  2
AcDbHatch
  3
AutoCAD 2000
 90
        0
280
     0
281
     1
  0
CLASS
  1
XRECORD
  2
AcDbXrecord
  3
AutoCAD 2000
 90
        0
280
     0
281
     0
  0
CLASS
  1
LONG_TRANSACTION
  2
AcDbLongTransaction
  3
AutoCAD 2000
 90
        0
280
     0
281
     0
  0
CLASS
  1
LWPOLYLINE
  2
AcDbPolyline
  3
AutoCAD 2000
 90
        0
280
     0
281
     1
  0
CLASS
  1
HATCH
  2
AcDbHatch
  3
AutoCAD 2000
 90
        0
280
     0
281
     1
  0
CLASS
  1
XRECORD
  2
AcDbXrecord
  3
AutoCAD 2000
 90
        0
280
     0
281
     0
  0
CLASS
  1
LONG_TRANSACTION
  2
AcDbLongTransaction
  3
AutoCAD 2000
 90
        0
280
     0
281
     0
  0
CLASS
  1
LWPOLYLINE
  2
AcDbPolyline
  3
AutoCAD 2000
 90
        0
280
     0
281
     1
  0
CLASS
  1
HATCH
  2
AcDbHatch
  3
AutoCAD 2000
 90
        0
280
     0
281
     1
  0
CLASS
  1
XRECORD
  2
AcDbXrecord
  3
AutoCAD 2000
 90
        0
280
     0
281
     0
  0
CLASS
  1
LONG_TRANSACTION
  2
AcDbLongTransaction
  3
AutoCAD 2000
 90
        0
280
     0
281
     0
  0
CLASS
  1
LWPOLYLINE
  2
AcDbPolyline
  3
AutoCAD 2000
 90
        0
280
     0
281
     1
  0
CLASS
  1
HATCH
  2
AcDbHatch
  3
AutoCAD 2000
 90
        0
280
     0
281
     1
  0
CLASS
  1
XRECORD
  2
AcDbXrecord
  3
AutoCAD 2000
 90
        0
280
     0
281
     0
  0
CLASS
  1
LONG_TRANSACTION
  2
AcDbLongTransaction
  3
AutoCAD 2000
 90
        0
280
     0
281
     0
  0
CLASS
  1
LWPOLYLINE
  2
AcDbPolyline
  3
AutoCAD 2000
 90
        0
280
     0
281
     1
  0
CLASS
  1
HATCH
  2
AcDbHatch
  3
AutoCAD 2000
 90
        0
280
     0
281
     1
  0
CLASS
  1
XRECORD
  2
AcDbXrecord
  3
AutoCAD 2000
 90
        0
280
     0
281
     0
  0
CLASS
  1
LONG_TRANSACTION
  2
AcDbLongTransaction
  3
AutoCAD 2000
 90
        0
280
     0
281
     0
  0
CLASS
  1
LWPOLYLINE
  2
AcDbPolyline
  3
AutoCAD 2000
 90
        0
280
     0
281
     1
  0
CLASS
  1
HATCH
  2
AcDbHatch
  3
AutoCAD 2000
 90
        0
280
     0
281
     1
  0
CLASS
  1
XRECORD
  2
AcDbXrecord
  3
AutoCAD 2000
 90
        0
280
     0
281
     0
  0
CLASS
  1
LONG_TRANSACTION
  2
AcDbLongTransaction
  3
AutoCAD 2000
 90
        0
280
     0
281
     0
  0
CLASS
  1
LWPOLYLINE
  2
AcDbPolyline
  3
AutoCAD 2000
 90
        0
280
     0
281
     1
  0
CLASS
  1
HATCH
  2
AcDbHatch
  3
AutoCAD 2000
 90
        0
280
     0
281
     1
  0
CLASS
  1
XRECORD
  2
AcDbXrecord
  3
AutoCAD 2000
 90
        0
280
     0
281
     0
  0
CLASS
  1
LONG_TRANSACTION
  2
AcDbLongTransaction
  3
AutoCAD 2000
 90
        0
280
     0
281
     0
  0
CLASS
  1
LWPOLYLINE
  2
AcDbPolyline
  3
AutoCAD 2000
 90
        0
280
     0
281
     1
  0
CLASS
  1
HATCH
  2
AcDbHatch
  3
AutoCAD 2000
 90
        0
280
     0
281
     1
  0
CLASS
  1
XRECORD
  2
AcDbXrecord
  3
AutoCAD 2000
 90
        0
280
     0
281
     0
  0
CLASS
  1
LONG_TRANSACTION
  2
AcDbLongTransaction
  3
AutoCAD 2000
 90
        0
280
     0
281
     0
  0
CLASS
  1
LWPOLYLINE
  2
AcDbPolyline
  3
AutoCAD 2000
 90
        0
280
     0
281
     1
  0
CLASS
  1
HATCH
  2
AcDbHatch
  3
AutoCAD 2000
 90
        0
280
     0
281
     1
  0
CLASS
  1
XRECORD
  2
AcDbXrecord
  3
AutoCAD 2000
 90
        0
280
     0
281
     0
  0
CLASS
  1
LONG_TRANSACTION
  2
AcDbLongTransaction
  3
AutoCAD 2000
 90
        0
280
     0
281
     0
  0
CLASS
  1
LWPOLYLINE
  2
AcDbPolyline
  3
AutoCAD 2000
 90
        0
280
     0
281
     1
  0
CLASS
  1
HATCH
  2
AcDbHatch
  3
AutoCAD 2000
 90
        0
280
     0
281
     1
  0
CLASS
  1
XRECORD
  2
AcDbXrecord
  3
AutoCAD 2000
 90
        0
280
     0
281
     0
  0
CLASS
  1
LONG_TRANSACTION
  2
AcDbLongTransaction
  3
AutoCAD 2000
 90
        0
280
     0
281
     0
  0
CLASS
  1
LWPOLYLINE
  2
AcDbPolyline
  3
AutoCAD 2000
 90
        0
280
     0
281
     1
  0
CLASS
  1
HATCH
  2
AcDbHatch
  3
AutoCAD 2000
 90
        0
280
     0
281
     1
  0
CLASS
  1
XRECORD
  2
AcDbXrecord
  3
AutoCAD 2000
 90
        0
280
     0
281
     0
  0
CLASS
  1
LONG_TRANSACTION
  2
AcDbLongTransaction
  3
AutoCAD 2000
 90
        0
280
     0
281
     0
  0
CLASS
  1
LWPOLYLINE
  2
AcDbPolyline
  3
AutoCAD 2000
 90
        0
280
     0
281
     1
  0
CLASS
  1
HATCH
  2
AcDbHatch
  3
AutoCAD 2000
 90
        0
280
     0
281
     1
  0
CLASS
  1
XRECORD
  2
AcDbXrecord
  3
AutoCAD 2000
 90
        0
280
     0
281
     0
  0
CLASS
  1
LONG_TRANSACTION
  2
AcDbLongTransaction
  3
AutoCAD 2000
 90
        0
280
     0
281
     0
  0
CLASS
  1
LWPOLYLINE
  2
AcDbPolyline
  3
AutoCAD 2000
 90
        0
280
     0
281
     1
  0
CLASS
  1
HATCH
  2
AcDbHatch
  3
AutoCAD 2000
 90
        0
280
     0
281
     1
  0
CLASS
  1
XRECORD
  2
AcDbXrecord
  3
AutoCAD 2000
 90
        0
280
     0
281
     0
  0
CLASS
  1
LONG_TRANSACTION
  2
AcDbLongTransaction
  3
AutoCAD 2000
 90
        0
280
     0
281
     0
  0
CLASS
  1
LWPOLYLINE
  2
AcDbPolyline
  3
AutoCAD 2000
 90
        0
280
     0
281
     1
  0
CLASS
  1
HATCH
  2
AcDbHatch
  3
AutoCAD 2000
 90
        0
280
     0
281
     1
  0
CLASS
  1
XRECORD
  2
AcDbXrecord
  3
AutoCAD 2000
 90
        0
280
     0
281
     0
  0
CLASS
  1
LONG_TRANSACTION
  2
AcDbLongTransaction
  3
AutoCAD 2000
 90
        0
280
     0
281
     0
  0
CLASS
  1
LWPOLYLINE
  2
AcDbPolyline
  3
AutoCAD 2000
 90
        0
280
     0
281
     1
  0
CLASS
  1
HATCH
  2
AcDbHatch
  3
AutoCAD 2000
 90
        0
280
     0
281
     1
  0
CLASS
  1
XRECORD
  2
AcDbXrecord
  3
AutoCAD 2000
 90
        0
280
     0
281
     0
  0
CLASS
  1
LONG_TRANSACTION
  2
AcDbLongTransaction
  3
AutoCAD 2000
 90
        0
280
     0
281
     0
  0
CLASS
  1
LWPOLYLINE
  2
AcDbPolyline
  3
AutoCAD 2000
 90
        0
280
     0
281
     1
  0
CLASS
  1
HATCH
  2
AcDbHatch
  3
AutoCAD 2000
 90
        0
280
     0
281
     1
  0
CLASS
  1
XRECORD
  2
AcDbXrecord
  3
AutoCAD 2000
 90
        0
280
     0
281
     0
  0
CLASS
  1
LONG_TRANSACTION
  2
AcDbLongTransaction
  3
AutoCAD 2000
 90
        0
280
     0
281
     0
  0
CLASS
  1
LWPOLYLINE
  2
AcDbPolyline
  3
AutoCAD 2000
 90
        0
280
     0
281
     1
  0
CLASS
  1
HATCH
  2
AcDbHatch
  3
AutoCAD 2000
 90
        0
280
     0
281
     1
  0
CLASS
  1
XRECORD
  2
AcDbXrecord
  3
AutoCAD 2000
 90
        0
280
     0
281
     0
  0
CLASS
  1
LONG_TRANSACTION
  2
AcDbLongTransaction
  3
AutoCAD 2000
 90
        0
280
     0
281
     0
  0
CLASS
  1
LWPOLYLINE
  2
AcDbPolyline
  3
AutoCAD 2000
 90
        0
280
     0
281
     1
  0
CLASS
  1
HATCH
  2
AcDbHatch
  3
AutoCAD 2000
 90
        0
280
     0
281
     1
  0
CLASS
  1
XRECORD
  2
AcDbXrecord
  3
AutoCAD 2000
 90
        0
280
     0
281
     0
  0
CLASS
  1
LONG_TRANSACTION
  2
AcDbLongTransaction
  3
AutoCAD 2000
 90
        0
280
     0
281
     0
  0
CLASS
  1
LWPOLYLINE
  2
AcDbPolyline
  3
AutoCAD 2000
 90
        0
280
     0
281
     1
  0
CLASS
  1
HATCH
  2
AcDbHatch
  3
AutoCAD 2000
 90
        0
280
     0
281
     1
  0
CLASS
  1
XRECORD
  2
AcDbXrecord
  3
AutoCAD 2000
 90
        0
280
     0
281
     0
  0
CLASS
  1
LONG_TRANSACTION
  2
AcDbLongTransaction
  3
AutoCAD 2000
 90
        0
280
     0
281
     0
  0
CLASS
  1
LWPOLYLINE
  2
AcDbPolyline
  3
AutoCAD 2000
 90
        0
280
     0
281
     1
  0
CLASS
  1
HATCH
  2
AcDbHatch
  3
AutoCAD 2000
 90
        0
280
     0
281
     1
  0
CLASS
  1
XRECORD
  2
AcDbXrecord
  3
AutoCAD 2000
 90
        0
280
     0
281
     0
  0
CLASS
  1
LONG_TRANSACTION
  2
AcDbLongTransaction
  3
AutoCAD 2000
 90
        0
280
     0
281
     0
  0
CLASS
  1
LWPOLYLINE
  2
AcDbPolyline
  3
AutoCAD 2000
 90
        0
280
     0
281
     1
  0
CLASS
  1
HATCH
  2
AcDbHatch
  3
AutoCAD 2000
 90
        0
280
     0
281
     1
  0
CLASS
  1
XRECORD
  2
AcDbXrecord
  3
AutoCAD 2000
 90
        0
280
     0
281
     0
  0
CLASS
  1
LONG_TRANSACTION
  2
AcDbLongTransaction
  3
AutoCAD 2000
 90
        0
280
     0
281
     0
  0
CLASS
  1
LWPOLYLINE
  2
AcDbPolyline
  3
AutoCAD 2000
 90
        0
280
     0
281
     1
  0
CLASS
  1
HATCH
  2
AcDbHatch
  3
AutoCAD 2000
 90
        0
280
     0
281
     1
  0
CLASS
  1
XRECORD
  2
AcDbXrecord
  3
AutoCAD 2000
 90
        0
280
     0
281
     0
  0
CLASS
  1
LONG_TRANSACTION
  2
AcDbLongTransaction
  3
AutoCAD 2000
 90
        0
280
     0
281
     0
  0
CLASS
  1
LWPOLYLINE
  2
AcDbPolyline
  3
AutoCAD 2000
 90
        0
280
     0
281
     1
  0
CLASS
  1
HATCH
  2
AcDbHatch
  3
AutoCAD 2000
 90
        0
280
     0
281
     1
  0
CLASS
  1
XRECORD
  2
AcDbXrecord
  3
AutoCAD 2000
 90
        0
280
     0
281
     0
  0
CLASS
  1
LONG_TRANSACTION
  2
AcDbLongTransaction
  3
AutoCAD 2000
 90
        0
280
     0
281
     0
  0
CLASS
  1
LWPOLYLINE
  2
AcDbPolyline
  3
AutoCAD 2000
 90
        0
280
     0
281
     1
  0
CLASS
  1
HATCH
  2
AcDbHatch
  3
AutoCAD 2000
 90
        0
280
     0
281
     1
  0
CLASS
  1
XRECORD
  2
AcDbXrecord
  3
AutoCAD 2000
 90
        0
280
     0
281
     0
  0
CLASS
  1
LONG_TRANSACTION
  2
AcDbLongTransaction
  3
AutoCAD 2000
 90
        0
280
     0
281
     0
  0
CLASS
  1
LWPOLYLINE
  2
AcDbPolyline
  3
AutoCAD 2000
 90
        0
280
     0
281
     1
  0
CLASS
  1
HATCH
  2
AcDbHatch
  3
AutoCAD 2000
 90
        0
280
     0
281
     1
  0
CLASS
  1
XRECORD
  2
AcDbXrecord
  3
AutoCAD 2000
 90
        0
280
     0
281
     0
  0
CLASS
  1
LONG_TRANSACTION
  2
AcDbLongTransaction
  3
AutoCAD 2000
 90
        0
280
     0
281
     0
  0
CLASS
  1
LWPOLYLINE
  2
AcDbPolyline
  3
AutoCAD 2000
 90
        0
280
     0
281
     1
  0
CLASS
  1
HATCH
  2
AcDbHatch
  3
AutoCAD 2000
 90
        0
280
     0
281
     1
  0
CLASS
  1
XRECORD
  2
AcDbXrecord
  3
AutoCAD 2000
 90
        0
280
     0
281
     0
  0
CLASS
  1
LONG_TRANSACTION
  2
AcDbLongTransaction
  3
AutoCAD 2000
 90
        0
280
     0
281
     0
  0
CLASS
  1
LWPOLYLINE
  2
AcDbPolyline
  3
AutoCAD 2000
 90
        0
280
     0
281
     1
  0
CLASS
  1
HATCH
  2
AcDbHatch
  3
AutoCAD 2000
 90
        0
280
     0
281
     1
  0
CLASS
  1
XRECORD
  2
AcDbXrecord
  3
AutoCAD 2000
 90
        0
280
     0
281
     0
  0
CLASS
  1
LONG_TRANSACTION
  2
AcDbLongTransaction
  3
AutoCAD 2000
 90
        0
280
     0
281
     0
  0
CLASS
  1
LWPOLYLINE
  2
AcDbPolyline
  3
AutoCAD 2000
 90
        0
280
     0
281
     1
  0
CLASS
  1
HATCH
  2
AcDbHatch
  3
AutoCAD 2000
 90
        0
280
     0
281
     1
  0
CLASS
  1
XRECORD
  2
AcDbXrecord
  3
AutoCAD 2000
 90
        0
280
     0
281
     0
  0
CLASS
  1
LONG_TRANSACTION
  2
AcDbLongTransaction
  3
AutoCAD 2000
 90
        0
280
     0
281
     0
  0
CLASS
  1
LWPOLYLINE
  2
AcDbPolyline
  3
AutoCAD 2000
 90
        0
280
     0
281
     1
  0
CLASS
  1
HATCH
  2
AcDbHatch
  3
AutoCAD 2000
 90
        0
280
     0
281
     1
  0
CLASS
  1
XRECORD
  2
AcDbXrecord
  3
AutoCAD 2000
 90
        0
280
     0
281
     0
  0
CLASS
  1
LONG_TRANSACTION
  2
AcDbLongTransaction
  3
AutoCAD 2000
 90
        0
280
     0
281
     0
  0
CLASS
  1
LWPOLYLINE
  2
AcDbPolyline
  3
AutoCAD 2000
 90
        0
280
     0
281
     1
  0
CLASS
  1
HATCH
  2
AcDbHatch
  3
AutoCAD 2000
 90
        0
280
     0
281
     1
  0
CLASS
  1
XRECORD
  2
AcDbXrecord
  3
AutoCAD 2000
 90
        0
280
     0
281
     0
  0
CLASS
  1
LONG_TRANSACTION
  2
AcDbLongTransaction
  3
AutoCAD 2000
 90
        0
280
     0
281
     0
  0
CLASS
  1
LWPOLYLINE
  2
AcDbPolyline
  3
AutoCAD 2000
 90
        0
280
     0
281
     1
  0
CLASS
  1
HATCH
  2
AcDbHatch
  3
AutoCAD 2000
 90
        0
280
     0
281
     1
  0
CLASS
  1
XRECORD
  2
AcDbXrecord
  3
AutoCAD 2000
 90
        0
280
     0
281
     0
  0
CLASS
  1
LONG_TRANSACTION
  2
AcDbLongTransaction
  3
AutoCAD 2000
 90
        0
280
     0
281
     0
  0
CLASS
  1
LWPOLYLINE
  2
AcDbPolyline
  3
AutoCAD 2000
 90
        0
280
     0
281
     1
  0
CLASS
  1
HATCH
  2
AcDbHatch
  3
AutoCAD 2000
 90
        0
280
     0
281
     1
  0
CLASS
  1
XRECORD
  2
AcDbXrecord
  3
AutoCAD 2000
 90
        0
280
     0
281
     0
  0
CLASS
  1
LONG_TRANSACTION
  2
AcDbLongTransaction
  3
AutoCAD 2000
 90
        0
280
     0
281
     0
  0
CLASS
  1
LWPOLYLINE
  2
AcDbPolyline
  3
AutoCAD 2000
 90
        0
280
     0
281
     1
  0
CLASS
  1
HATCH
  2
AcDbHatch
  3
AutoCAD 2000
 90
        0
280
     0
281
     1
  0
CLASS
  1
XRECORD
  2
AcDbXrecord
  3
AutoCAD 2000
 90
        0
280
     0
281
     0
  0
CLASS
  1
LONG_TRANSACTION
  2
AcDbLongTransaction
  3
AutoCAD 2000
 90
        0
280
     0
281
     0
  0
CLASS
  1
LWPOLYLINE
  2
AcDbPolyline
  3
AutoCAD 2000
 90
        0
280
     0
281
     1
  0
CLASS
  1
HATCH
  2
AcDbHatch
  3
AutoCAD 2000
 90
        0
280
     0
281
     1
  0
CLASS
  1
XRECORD
  2
AcDbXrecord
  3
AutoCAD 2000
 90
        0
280
     0
281
     0
  0
CLASS
  1
LONG_TRANSACTION
  2
AcDbLongTransaction
  3
AutoCAD 2000
 90
        0
280
     0
281
     0
  0
CLASS
  1
LWPOLYLINE
  2
AcDbPolyline
  3
AutoCAD 2000
 90
        0
280
     0
281
     1
  0
CLASS
  1
HATCH
  2
AcDbHatch
  3
AutoCAD 2000
 90
        0
280
     0
281
     1
  0
CLASS
  1
XRECORD
  2
AcDbXrecord
  3
AutoCAD 2000
 90
        0
280
     0
281
     0
  0
CLASS
  1
LONG_TRANSACTION
  2
AcDbLongTransaction
  3
AutoCAD 2000
 90
        0
280
     0
281
     0
  0
CLASS
  1
LWPOLYLINE
  2
AcDbPolyline
  3
AutoCAD 2000
 90
        0
280
     0
281
     1
  0
CLASS
  1
HATCH
  2
AcDbHatch
  3
AutoCAD 2000
 90
        0
280
     0
281
     1
  0
CLASS
  1
XRECORD
  2
AcDbXrecord
  3
AutoCAD 2000
 90
        0
280
     0
281
     0
  0
CLASS
  1
LONG_TRANSACTION
  2
AcDbLongTransaction
  3
AutoCAD 2000
 90
        0
280
     0
281
     0
  0
CLASS
  1
LWPOLYLINE
  2
AcDbPolyline
  3
AutoCAD 2000
 90
        0
280
     0
281
     1
  0
CLASS
  1
HATCH
  2
AcDbHatch
  3
AutoCAD 2000
 90
        0
280
     0
281
     1
  0
CLASS
  1
XRECORD
  2
AcDbXrecord
  3
AutoCAD 2000
 90
        0
280
     0
281
     0
  0
CLASS
  1
LONG_TRANSACTION
  2
AcDbLongTransaction
  3
AutoCAD 2000
 90
        0
280
     0
281
     0
  0
CLASS
  1
LWPOLYLINE
  2
AcDbPolyline
  3
AutoCAD 2000
 90
        0
280
     0
281
     1
  0
CLASS
  1
HATCH
  2
AcDbHatch
  3
AutoCAD 2000
 90
        0
280
     0
281
     1
  0
CLASS
  1
XRECORD
  2
AcDbXrecord
  3
AutoCAD 2000
 90
        0
280
     0
281
     0
  0
CLASS
  1
LONG_TRANSACTION
  2
AcDbLongTransaction
  3
AutoCAD 2000
 90
        0
280
     0
281
     0
  0
CLASS
  1
LWPOLYLINE
  2
AcDbPolyline
  3
AutoCAD 2000
 90
        0
280
     0
281
     1
  0
CLASS
  1
HATCH
  2
AcDbHatch
  3
AutoCAD 2000
 90
        0
280
     0
281
     1
  0
CLASS
  1
XRECORD
  2
AcDbXrecord
  3
AutoCAD 2000
 90
        0
280
     0
281
     0
  0
CLASS
  1
LONG_TRANSACTION
  2
AcDbLongTransaction
  3
AutoCAD 2000
 90
        0
280
     0
281
     0
  0
CLASS
  1
LWPOLYLINE
  2
AcDbPolyline
  3
AutoCAD 2000
 90
        0
280
     0
281
     1
  0
CLASS
  1
HATCH
  2
AcDbHatch
  3
AutoCAD 2000
 90
        0
280
     0
281
     1
  0
CLASS
  1
XRECORD
  2
AcDbXrecord
  3
AutoCAD 2000
 90
        0
280
     0
281
     0
  0
CLASS
  1
LONG_TRANSACTION
  2
AcDbLongTransaction
  3
AutoCAD 2000
 90
        0
280
     0
281
     0
  0
CLASS
  1
LWPOLYLINE
  2
AcDbPolyline
  3
AutoCAD 2000
 90
        0
280
     0
281
     1
  0
CLASS
  1
HATCH
  2
AcDbHatch
  3
AutoCAD 2000
 90
        0
280
     0
281
     1
  0
CLASS
  1
XRECORD
  2
AcDbXrecord
  3
AutoCAD 2000
 90
        0
280
     0
281
     0
  0
CLASS
  1
LONG_TRANSACTION
  2
AcDbLongTransaction
  3
AutoCAD 2000
 90
        0
280
     0
281
     0
  0
CLASS
  1
LWPOLYLINE
  2
AcDbPolyline
  3
AutoCAD 2000
 90
        0
280
     0
281
     1
  0
CLASS
  1
HATCH
  2
AcDbHatch
  3
AutoCAD 2000
 90
        0
280
     0
281
     1
  0
CLASS
  1
XRECORD
  2
AcDbXrecord
  3
AutoCAD 2000
 90
        0
280
     0
281
     0
  0
CLASS
  1
LONG_TRANSACTION
  2
AcDbLongTransaction
  3
AutoCAD 2000
 90
        0
280
     0
281
     0
  0
CLASS
  1
LWPOLYLINE
  2
AcDbPolyline
  3
AutoCAD 2000
 90
        0
280
     0
281
     1
  0
CLASS
  1
HATCH
  2
AcDbHatch
  3
AutoCAD 2000
 90
        0
280
     0
281
     1
  0
CLASS
  1
XRECORD
  2
AcDbXrecord
  3
AutoCAD 2000
 90
        0
280
     0
281
     0
  0
CLASS
  1
LONG_TRANSACTION
  2
AcDbLongTransaction
  3
AutoCAD 2000
 90
        0
280
     0
281
     0
  0
CLASS
  1
LWPOLYLINE
  2
AcDbPolyline
  3
AutoCAD 2000
 90
        0
280
     0
281
     1
  0
CLASS
  1
HATCH
  2
AcDbHatch
  3
AutoCAD 2000
 90
        0
280
     0
281
     1
  0
CLASS
  1
XRECORD
  2
AcDbXrecord
  3
AutoCAD 2000
 90
        0
280
     0
281
     0
  0
CLASS
  1
LONG_TRANSACTION
  2
AcDbLongTransaction
  3
AutoCAD 2000
 90
        0
280
     0
281
     0
  0
CLASS
  1
LWPOLYLINE
  2
AcDbPolyline
  3
AutoCAD 2000
 90
        0
280
     0
281
     1
  0
CLASS
  1
HATCH
  2
AcDbHatch
  3
AutoCAD 2000
 90
        0
280
     0
281
     1
  0
CLASS
  1
XRECORD
  2
AcDbXrecord
  3
AutoCAD 2000
 90
        0
280
     0
281
     0
  0
CLASS
  1
LONG_TRANSACTION
  2
AcDbLongTransaction
  3
AutoCAD 2000
 90
        0
280
     0
281
     0
  0
CLASS
  1
LWPOLYLINE
  2
AcDbPolyline
  3
AutoCAD 2000
 90
        0
280
     0
281
     1
  0
CLASS
  1
HATCH
  2
AcDbHatch
  3
AutoCAD 2000
 90
        0
280
     0
281
     1
  0
CLASS
  1
XRECORD
  2
AcDbXrecord
  3
AutoCAD 2000
 90
        0
280
     0
281
     0
  0
CLASS
  1
LONG_TRANSACTION
  2
AcDbLongTransaction
  3
AutoCAD 2000
 90
        0
280
     0
281
     0
  0
CLASS
  1
LWPOLYLINE
  2
AcDbPolyline
  3
AutoCAD 2000
 90
        0
280
     0
281
     1
  0
CLASS
  1
HATCH
  2
AcDbHatch
  3
AutoCAD 2000
 90
        0
280
     0
281
     1
  0
CLASS
  1
XRECORD
  2
AcDbXrecord
  3
AutoCAD 2000
 90
        0
280
     0
281
     0
  0
CLASS
  1
LONG_TRANSACTION
  2
AcDbLongTransaction
  3
AutoCAD 2000
 90
        0
280
     0
281
     0
  0
CLASS
  1
LWPOLYLINE
  2
AcDbPolyline
  3
AutoCAD 2000
 90
        0
280
     0
281
     1
  0
CLASS
  1
HATCH
  2
AcDbHatch
  3
AutoCAD 2000
 90
        0
280
     0
281
     1
  0
CLASS
  1
XRECORD
  2
AcDbXrecord
  3
AutoCAD 2000
 90
        0
280
     0
281
     0
  0
CLASS
  1
LONG_TRANSACTION
  2
AcDbLongTransaction
  3
AutoCAD 2000
 90
        0
280
     0
281
     0
  0
CLASS
  1
LWPOLYLINE
  2
AcDbPolyline
  3
AutoCAD 2000
 90
        0
280
     0
281
     1
  0
CLASS
  1
HATCH
  2
AcDbHatch
  3
AutoCAD 2000
 90
        0
280
     0
281
     1
  0
CLASS
  1
XRECORD
  2
AcDbXrecord
  3
AutoCAD 2000
 90
        0
280
     0
281
     0
  0
CLASS
  1
LONG_TRANSACTION
  2
AcDbLongTransaction
  3
AutoCAD 2000
 90
        0
280
     0
281
     0
  0
CLASS
  1
LWPOLYLINE
  2
AcDbPolyline
  3
AutoCAD 2000
 90
        0
280
     0
281
     1
  0
CLASS
  1
HATCH
  2
AcDbHatch
  3
AutoCAD 2000
 90
        0
280
     0
281
     1
  0
CLASS
  1
XRECORD
  2
AcDbXrecord
  3
AutoCAD 2000
 90
        0
280
     0
281
     0
  0
CLASS
  1
LONG_TRANSACTION
  2
AcDbLongTransaction
  3
AutoCAD 2000
 90
        0
280
     0
281
     0
  0
CLASS
  1
LWPOLYLINE
  2
AcDbPolyline
  3
AutoCAD 2000
 90
        0
280
     0
281
     1
  0
CLASS
  1
HATCH
  2
AcDbHatch
  3
AutoCAD 2000
 90
        0
280
     0
281
     1
  0
CLASS
  1
XRECORD
  2
AcDbXrecord
  3
AutoCAD 2000
 90
        0
280
     0
281
     0
  0
CLASS
  1
LONG_TRANSACTION
  2
AcDbLongTransaction
  3
AutoCAD 2000
 90
        0
280
     0
281
     0
  0
CLASS
  1
LWPOLYLINE
  2
AcDbPolyline
  3
AutoCAD 2000
 90
        0
280
     0
281
     1
  0
CLASS
  1
HATCH
  2
AcDbHatch
  3
AutoCAD 2000
 90
        0
280
     0
281
     1
  0
CLASS
  1
XRECORD
  2
AcDbXrecord
  3
AutoCAD 2000
 90
        0
280
     0
281
     0
  0
CLASS
  1
LONG_TRANSACTION
  2
AcDbLongTransaction
  3
AutoCAD 2000
 90
        0
280
     0
281
     0
  0
CLASS
  1
LWPOLYLINE
  2
AcDbPolyline
  3
AutoCAD 2000
 90
        0
280
     0
281
     1
  0
CLASS
  1
HATCH
  2
AcDbHatch
  3
AutoCAD 2000
 90
        0
280
     0
281
     1
  0
CLASS
  1
XRECORD
  2
AcDbXrecord
  3
AutoCAD 2000
 90
        0
280
     0
281
     0
  0
CLASS
  1
LONG_TRANSACTION
  2
AcDbLongTransaction
  3
AutoCAD 2000
 90
        0
280
     0
281
     0
  0
CLASS
  1
LWPOLYLINE
  2
AcDbPolyline
  3
AutoCAD 2000
 90
        0
280
     0
281
     1
  0
CLASS
  1
HATCH
  2
AcDbHatch
  3
AutoCAD 2000
 90
        0
280
     0
281
     1
  0
CLASS
  1
XRECORD
  2
AcDbXrecord
  3
AutoCAD 2000
 90
        0
280
     0
281
     0
  0
CLASS
  1
LONG_TRANSACTION
  2
AcDbLongTransaction
  3
AutoCAD 2000
 90
        0
280
     0
281
     0
  0
CLASS
  1
LWPOLYLINE
  2
AcDbPolyline
  3
AutoCAD 2000
 90
        0
280
     0
281
     1
  0
CLASS
  1
HATCH
  2
AcDbHatch
  3
AutoCAD 2000
 90
        0
280
     0
281
     1
  0
CLASS
  1
XRECORD
  2
AcDbXrecord
  3
AutoCAD 2000
 90
        0
280
     0
281
     0
  0
CLASS
  1
LONG_TRANSACTION
  2
AcDbLongTransaction
  3
AutoCAD 2000
 90
        0
280
     0
281
     0
  0
CLASS
  1
LWPOLYLINE
  2
AcDbPolyline
  3
AutoCAD 2000
 90
        0
280
     0
281
     1
  0
CLASS
  1
HATCH
  2
AcDbHatch
  3
AutoCAD 2000
 90
        0
280
     0
281
     1
  0
CLASS
  1
XRECORD
  2
AcDbXrecord
  3
AutoCAD 2000
 90
        0
280
     0
281
     0
  0
CLASS
  1
LONG_TRANSACTION
  2
AcDbLongTransaction
  3
AutoCAD 2000
 90
        0
280
     0
281
     0
  0
CLASS
  1
LWPOLYLINE
  2
AcDbPolyline
  3
AutoCAD 2000
 90
        0
280
     0
281
     1
  0
CLASS
  1
HATCH
  2
AcDbHatch
  3
AutoCAD 2000
 90
        0
280
     0
281
     1
  0
CLASS
  1
XRECORD
  2
AcDbXrecord
  3
AutoCAD 2000
 90
        0
280
     0
281
     0
  0
CLASS
  1
LONG_TRANSACTION
  2
AcDbLongTransaction
  3
AutoCAD 2000
 90
        0
280
     0
281
     0
  0
CLASS
  1
LWPOLYLINE
  2
AcDbPolyline
  3
AutoCAD 2000
 90
        0
280
     0
281
     1
  0
CLASS
  1
HATCH
  2
AcDbHatch
  3
AutoCAD 2000
 90
        0
280
     0
281
     1
  0
CLASS
  1
XRECORD
  2
AcDbXrecord
  3
AutoCAD 2000
 90
        0
280
     0
281
     0
  0
CLASS
  1
LONG_TRANSACTION
  2
AcDbLongTransaction
  3
AutoCAD 2000
 90
        0
280
     0
281
     0
  0
CLASS
  1
LWPOLYLINE
  2
AcDbPolyline
  3
AutoCAD 2000
 90
        0
280
     0
281
     1
  0
CLASS
  1
HATCH
  2
AcDbHatch
  3
AutoCAD 2000
 90
        0
280
     0
281
     1
  0
CLASS
  1
XRECORD
  2
AcDbXrecord
  3
AutoCAD 2000
 90
        0
280
     0
281
     0
  0
CLASS
  1
LONG_TRANSACTION
  2
AcDbLongTransaction
  3
AutoCAD 2000
 90
        0
280
     0
281
     0
  0
CLASS
  1
LWPOLYLINE
  2
AcDbPolyline
  3
AutoCAD 2000
 90
        0
280
     0
281
     1
  0
CLASS
  1
HATCH
  2
AcDbHatch
  3
AutoCAD 2000
 90
        0
280
     0
281
     1
  0
CLASS
  1
XRECORD
  2
AcDbXrecord
  3
AutoCAD 2000
 90
        0
280
     0
281
     0
  0
CLASS
  1
LONG_TRANSACTION
  2
AcDbLongTransaction
  3
AutoCAD 2000
 90
        0
280
     0
281
     0
  0
CLASS
  1
LWPOLYLINE
  2
AcDbPolyline
  3
AutoCAD 2000
 90
        0
280
     0
281
     1
  0
CLASS
  1
HATCH
  2
AcDbHatch
  3
AutoCAD 2000
 90
        0
280
     0
281
     1
  0
CLASS
  1
XRECORD
  2
AcDbXrecord
  3
AutoCAD 2000
 90
        0
280
     0
281
     0
  0
CLASS
  1
LONG_TRANSACTION
  2
AcDbLongTransaction
  3
AutoCAD 2000
 90
        0
280
     0
281
     0
  0
CLASS
  1
LWPOLYLINE
  2
AcDbPolyline
  3
AutoCAD 2000
 90
        0
280
     0
281
     1
  0
CLASS
  1
HATCH
  2
AcDbHatch
  3
AutoCAD 2000
 90
        0
280
     0
281
     1
  0
CLASS
  1
XRECORD
  2
AcDbXrecord
  3
AutoCAD 2000
 90
        0
280
     0
281
     0
  0
CLASS
  1
LONG_TRANSACTION
  2
AcDbLongTransaction
  3
AutoCAD 2000
 90
        0
280
     0
281
     0
  0
CLASS
  1
LWPOLYLINE
  2
AcDbPolyline
  3
AutoCAD 2000
 90
        0
280
     0
281
     1
  0
CLASS
  1
HATCH
  2
AcDbHatch
  3
AutoCAD 2000
 90
        0
280
     0
281
     1
  0
CLASS
  1
XRECORD
  2
AcDbXrecord
  3
AutoCAD 2000
 90
        0
280
     0
281
     0
  0
CLASS
  1
LONG_TRANSACTION
  2
AcDbLongTransaction
  3
AutoCAD 2000
 90
        0
280
     0
281
     0
  0
CLASS
  1
LWPOLYLINE
  2
AcDbPolyline
  3
AutoCAD 2000
 90
        0
280
     0
281
     1
  0
CLASS
  1
HATCH
  2
AcDbHatch
  3
AutoCAD 2000
 90
        0
280
     0
281
     1
  0
CLASS
  1
XRECORD
  2
AcDbXrecord
  3
AutoCAD 2000
 90
        0
280
     0
281
     0
  0
CLASS
  1
LONG_TRANSACTION
  2
AcDbLongTransaction
  3
AutoCAD 2000
 90
        0
280
     0
281
     0
  0
CLASS
  1
LWPOLYLINE
  2
AcDbPolyline
  3
AutoCAD 2000
 90
        0
280
     0
281
     1
  0
CLASS
  1
HATCH
  2
AcDbHatch
  3
AutoCAD 2000
 90
        0
280
     0
281
     1
  0
CLASS
  1
XRECORD
  2
AcDbXrecord
  3
AutoCAD 2000
 90
        0
280
     0
281
     0
  0
CLASS
  1
LONG_TRANSACTION
  2
AcDbLongTransaction
  3
AutoCAD 2000
 90
        0
280
     0
281
     0
  0
CLASS
  1
LWPOLYLINE
  2
AcDbPolyline
  3
AutoCAD 2000
 90
        0
280
     0
281
     1
  0
CLASS
  1
HATCH
  2
AcDbHatch
  3
AutoCAD 2000
 90
        0
280
     0
281
     1
  0
CLASS
  1
XRECORD
  2
AcDbXrecord
  3
AutoCAD 2000
 90
        0
280
     0
281
     0
  0
CLASS
  1
LONG_TRANSACTION
  2
AcDbLongTransaction
  3
AutoCAD 2000
 90
        0
280
     0
281
     0
  0
CLASS
  1
LWPOLYLINE
  2
AcDbPolyline
  3
AutoCAD 2000
 90
        0
280
     0
281
     1
  0
CLASS
  1
HATCH
  2
AcDbHatch
  3
AutoCAD 2000
 90
        0
280
     0
281
     1
  0
CLASS
  1
XRECORD
  2
AcDbXrecord
  3
AutoCAD 2000
 90
        0
280
     0
281
     0
  0
CLASS
  1
LONG_TRANSACTION
  2
AcDbLongTransaction
  3
AutoCAD 2000
 90
        0
280
     0
281
     0
  0
CLASS
  1
LWPOLYLINE
  2
AcDbPolyline
  3
AutoCAD 2000
 90
        0
280
     0
281
     1
  0
CLASS
  1
HATCH
  2
AcDbHatch
  3
AutoCAD 2000
 90
        0
280
     0
281
     1
  0
CLASS
  1
XRECORD
  2
AcDbXrecord
  3
AutoCAD 2000
 90
        0
280
     0
281
     0
  0
ENDSEC
  0
SECTION
  2
TABLES
  0
TABLE
  2
VPORT
  5
92
330
0
100
AcDbSymbolTable
 70
     2
  0
VPORT
  5
4FB
330
92
100
AcDbSymbolTableRecord
100
AcDbViewportTableRecord
  2
*ACTIVE
 70
     0
 10
0.0
 20
0.0
 11
1.0
 21
1.0
 12
162.8920398781774
 22
191.7629300343815
 13
0.0
 23
0.0
 14
10.0
 24
10.0
 15
10.0
 25
10.0
 16
0.0
 26
0.0
 36
1.0
 17
0.0
 27
0.0
 37
0.0
 40
405.1644738765057
 41
1.549367088607595
 42
50.0
 43
0.0
 44
0.0
 50
0.0
 51
0.0
 71
     0
 72
 10000
 73
     1
 74
     3
 75
     0
 76
     0
 77
     0
 78
     1
  0
ENDTAB
  0
TABLE
  2
LTYPE
  5
8D
330
0
100
AcDbSymbolTable
 70
     3
  0
LTYPE
  5
8E
330
8D
100
AcDbSymbolTableRecord
100
AcDbLinetypeTableRecord
  2
BYBLOCK
 70
     0
  3

 72
    65
 73
     0
 40
0.0
  0
LTYPE
  5
8F
330
8D
100
AcDbSymbolTableRecord
100
AcDbLinetypeTableRecord
  2
BYLAYER
 70
     0
  3

 72
    65
 73
     0
 40
0.0
  0
LTYPE
  5
A
330
8D
100
AcDbSymbolTableRecord
100
AcDbLinetypeTableRecord
  2
CONTINUOUS
 70
     0
  3
Solid line
 72
    65
 73
     0
 40
0.0
  0
LTYPE
  5
104
330
8D
100
AcDbSymbolTableRecord
100
AcDbLinetypeTableRecord
  2
CENTER
 70
     0
  3
Center ____ _ ____ _ ____ _ ____ _ ____ _ ____
 72
    65
 73
     4
 40
50.8
 49
31.75
 74
     0
 49
-6.349999999999998
 74
     0
 49
6.349999999999998
 74
     0
 49
-6.349999999999998
 74
     0
  0
LTYPE
  5
C7
330
8D
100
AcDbSymbolTableRecord
100
AcDbLinetypeTableRecord
  2
CENTERX2
 70
     0
  3
Center (2x) ________  __  ________  __  _____
 72
    65
 73
     4
 40
101.6
 49
63.5
 74
     0
 49
-12.7
 74
     0
 49
12.7
 74
     0
 49
-12.7
 74
     0
  0
ENDTAB
  0
TABLE
  2
LAYER
  5
14
102
{ACAD_XDICTIONARY
360
15
102
}
330
0
100
AcDbSymbolTable
 70
     6
  0
LAYER
  5
6
330
14
100
AcDbSymbolTableRecord
100
AcDbLayerTableRecord
  2
0
 70
     0
 62
     7
  6
CONTINUOUS
  0
LAYER
  5
160
330
14
100
AcDbSymbolTableRecord
100
AcDbLayerTableRecord
  2
3
 70
     0
 62
     3
  6
CONTINUOUS
  0
LAYER
  5
A9
330
14
100
AcDbSymbolTableRecord
100
AcDbLayerTableRecord
  2
DEFPOINTS
 70
     0
 62
     7
  6
CONTINUOUS
  0
LAYER
  5
C6
330
14
100
AcDbSymbolTableRecord
100
AcDbLayerTableRecord
  2
CL
 70
     0
 62
     1
  6
CENTERX2
  0
LAYER
  5
103
330
14
100
AcDbSymbolTableRecord
100
AcDbLayerTableRecord
  2
CEN
 70
     0
 62
     1
  6
CENTER
  0
LAYER
  5
354
330
14
100
AcDbSymbolTableRecord
100
AcDbLayerTableRecord
  2
2
 70
     0
 62
     2
  6
CONTINUOUS
  0
ENDTAB
  0
TABLE
  2
STYLE
  5
8A
330
0
100
AcDbSymbolTable
 70
     1
  0
STYLE
  5
8B
330
8A
100
AcDbSymbolTableRecord
100
AcDbTextStyleTableRecord
  2
STANDARD
 70
     0
 40
0.0
 41
1.0
 50
0.0
 71
     0
 42
5.777225951253058
  3
romans.shx
  4
whgtxt.shx
  0
ENDTAB
  0
TABLE
  2
VIEW
  5
90
330
0
100
AcDbSymbolTable
 70
     0
  0
ENDTAB
  0
TABLE
  2
UCS
  5
91
330
0
100
AcDbSymbolTable
 70
     0
  0
ENDTAB
  0
TABLE
  2
APPID
  5
94
330
0
100
AcDbSymbolTable
 70
     2
  0
APPID
  5
95
330
94
100
AcDbSymbolTableRecord
100
AcDbRegAppTableRecord
  2
ACAD
 70
     0
  0
APPID
  5
51F
330
94
100
AcDbSymbolTableRecord
100
AcDbRegAppTableRecord
  2
CONTENTBLOCKICON
 70
     0
  0
ENDTAB
  0
TABLE
  2
DIMSTYLE
  5
96
330
0
100
AcDbSymbolTable
 70
     2
  0
DIMSTYLE
105
A0
102
{ACAD_REACTORS
330
C9
330
1D4
330
2C8
330
9F
330
379
330
30C
330
39A
330
E4
330
F3
330
29F
330
2B0
330
388
330
B2
330
13F
330
1E1
330
14D
330
193
330
180
330
1B1
330
124
330
115
330
1C5
330
106
330
16C
330
1EE
330
23E
330
22D
330
21E
102
}
330
96
100
AcDbSymbolTableRecord
100
AcDbDimStyleTableRecord
  2
STANDARD
 70
     0
  3

  4

  5

  6

  7

 40
1.0
 41
2.5
 42
1.0
 43
10.0
 44
0.6
 45
0.0
 46
0.0
 47
0.0
 48
0.0
140
3.0
141
0.09
142
0.0
143
25.4
144
1.0
145
0.0
146
1.0
147
1.0
 71
     0
 72
     0
 73
     0
 74
     0
 75
     0
 76
     0
 77
     1
 78
     8
170
     0
171
     2
172
     1
173
     0
174
     1
175
     0
176
   123
177
   123
178
     3
270
     2
271
     2
272
     2
273
     2
274
     2
340
8B
275
     1
280
     0
281
     0
282
     0
283
     1
284
     0
285
     0
286
     0
287
     0
288
     1
  0
DIMSTYLE
105
9C
330
96
100
AcDbSymbolTableRecord
100
AcDbDimStyleTableRecord
  2
1_1_2
 70
     0
  3

  4

  5

  6

  7

 40
1.0
 41
3.0
 42
1.0
 43
10.0
 44
0.6
 45
0.0
 46
0.0
 47
0.0
 48
0.0
140
3.5
141
0.09
142
0.0
143
25.4
144
1.0
145
0.0
146
1.0
147
1.0
 71
     0
 72
     0
 73
     0
 74
     0
 75
     0
 76
     0
 77
     1
 78
     8
170
     0
171
     2
172
     1
173
     0
174
     1
175
     0
176
   123
177
   123
178
     3
270
     2
271
     2
272
     2
273
     2
274
     2
340
8B
275
     1
280
     0
281
     0
282
     0
283
     1
284
     0
285
     0
286
     0
287
     0
288
     1
  0
ENDTAB
  0
TABLE
  2
BLOCK_RECORD
  5
1
330
0
100
AcDbSymbolTable
 70
    56
  0
BLOCK_RECORD
  5
2
102
{ACAD_XDICTIONARY
360
3
102
}
330
1
100
AcDbSymbolTableRecord
100
AcDbBlockTableRecord
  2
*MODEL_SPACE
  0
BLOCK_RECORD
  5
E
102
{ACAD_XDICTIONARY
360
F
102
}
330
1
100
AcDbSymbolTableRecord
100
AcDbBlockTableRecord
  2
*PAPER_SPACE
  0
BLOCK_RECORD
  5
CC
330
1
100
AcDbSymbolTableRecord
100
AcDbBlockTableRecord
  2
*D0
  0
BLOCK_RECORD
  5
C2
330
1
100
AcDbSymbolTableRecord
100
AcDbBlockTableRecord
  2
4
1001
ACAD
1000
DesignCenter Data
1002
{
1070
     1
1070
     4
1002
}
1001
CONTENTBLOCKICON
1071
        0
1004
2800000020000000200000000100080000000000000400000000000000000000000000000000000000000000000080000080000000808000800000008000800080800000C0C0C000C0DCC000F0CAA6000020400000206000002080000020A0000020C0000020E00000400000004020000040400000406000004080000040A0
1004
000040C0000040E00000600000006020000060400000606000006080000060A0000060C0000060E00000800000008020000080400000806000008080000080A0000080C0000080E00000A0000000A0200000A0400000A0600000A0800000A0A00000A0C00000A0E00000C0000000C0200000C0400000C0600000C0800000C0
1004
A00000C0C00000C0E00000E0000000E0200000E0400000E0600000E0800000E0A00000E0C00000E0E00040000000400020004000400040006000400080004000A0004000C0004000E00040200000402020004020400040206000402080004020A0004020C0004020E000404000004040200040404000404060004040800040
1004
40A0004040C0004040E00040600000406020004060400040606000406080004060A0004060C0004060E00040800000408020004080400040806000408080004080A0004080C0004080E00040A0000040A0200040A0400040A0600040A0800040A0A00040A0C00040A0E00040C0000040C0200040C0400040C0600040C08000
1004
40C0A00040C0C00040C0E00040E0000040E0200040E0400040E0600040E0800040E0A00040E0C00040E0E00080000000800020008000400080006000800080008000A0008000C0008000E00080200000802020008020400080206000802080008020A0008020C0008020E00080400000804020008040400080406000804080
1004
008040A0008040C0008040E00080600000806020008060400080606000806080008060A0008060C0008060E00080800000808020008080400080806000808080008080A0008080C0008080E00080A0000080A0200080A0400080A0600080A0800080A0A00080A0C00080A0E00080C0000080C0200080C0400080C0600080C0
1004
800080C0A00080C0C00080C0E00080E0000080E0200080E0400080E0600080E0800080E0A00080E0C00080E0E000C0000000C0002000C0004000C0006000C0008000C000A000C000C000C000E000C0200000C0202000C0204000C0206000C0208000C020A000C020C000C020E000C0400000C0402000C0404000C0406000C0
1004
408000C040A000C040C000C040E000C0600000C0602000C0604000C0606000C0608000C060A000C060C000C060E000C0800000C0802000C0804000C0806000C0808000C080A000C080C000C080E000C0A00000C0A02000C0A04000C0A06000C0A08000C0A0A000C0A0C000C0A0E000C0C00000C0C02000C0C04000C0C06000
1004
C0C08000C0C0A000F0FBFF00A4A0A000808080000000FF0000FF000000FFFF00FF000000FF00FF00FFFF0000FFFFFF0000000000000000000000000000000000000000000000000000000000000000000000000000000000000000000000000000000000000000000000000000000000000000000000000000000000000000
1004
0000000000000000000000000000000000000000FFFFFFFFFFFFFFFFFFFFFFFFFFFFFFFFFFFFFFFFFF000000000000000000FFFFFF00F9000000000000000000000000000000F9FFF9FF0000000000000000FF00FFF90000000000000000000000000000000000FFFFFF0000000000000000F3F3F9F9000000000000000000
1004
00000000000000F9FFF9FF0000000000000000FFF9000000000000000000000000000000000000000000FF0000000000000000FF00F3F300000000000000000000000000000000000000FF0000000000000000FF000000F3000000000000000000000000000000000000FF0000000000000000FF00000000F3000000000000
1004
0000000000000000000000FF0000000000000000FF0000000000F3F3000000000000000000000000000000FF0000000000000000FF00000000000000F30000000000000000000000000000FF0000000000000000FF0000000000000000F3F3000000000000000000000000FF0000000000000000FF00000000000000000000
1004
F30000000000000000000000FF0000000000000000FF0000000000000000000000F300000000000000000000FF0000000000000000FF000000000000000000000000F3F30000000000000000FF0000000000000000FF0000000000000000000000000000F300000000000000FF0000000000000000FF000000000000000000
1004
000000000000F3F30000000000FF0000000000000000FF0000000000000000000000000000000000F300000000FF0000000000000000FF000000000000000000000000000000000000F3000000FF0000000000000000FF00000000000000000000000000000000000000F3F300FF0000000000000000FF0000000000000000
1004
00000000000000000000000000FFFF0000000000000000FF00FFF900000000000000000000000000000000F9F900F30000000000000000FF00FFFF00000000000000000000000000000000F9F9FFFFFAF300000000000000FFF900F90000000000000000000000000000F90000F9FFFAFAF300000000000000FFFFFFFFFFFF
1004
FFFFFFFFFFFFFFFFFFFFFFFFFFFFFF0000FAFAFAF30000000000000000000000000000000000000000000000000000000000FAFAFAF30000000000000000000000000000000000000000000000000000000000FAFA000000000000000000000000000000000000000000000000000000000000000000000000000000000000
1004
0000000000000000000000000000000000000000000000000000000000000000000000000000000000000000000000000000000000000000
  0
BLOCK_RECORD
  5
1D5
330
1
100
AcDbSymbolTableRecord
100
AcDbBlockTableRecord
  2
*D2
  0
BLOCK_RECORD
  5
A1
330
1
100
AcDbSymbolTableRecord
100
AcDbBlockTableRecord
  2
*D3
  0
BLOCK_RECORD
  5
39B
330
1
100
AcDbSymbolTableRecord
100
AcDbBlockTableRecord
  2
*D4
  0
BLOCK_RECORD
  5
140
330
1
100
AcDbSymbolTableRecord
100
AcDbBlockTableRecord
  2
*D5
  0
BLOCK_RECORD
  5
1E2
330
1
100
AcDbSymbolTableRecord
100
AcDbBlockTableRecord
  2
*D6
  0
BLOCK_RECORD
  5
14E
330
1
100
AcDbSymbolTableRecord
100
AcDbBlockTableRecord
  2
*D7
  0
BLOCK_RECORD
  5
2CB
330
1
100
AcDbSymbolTableRecord
100
AcDbBlockTableRecord
  2
*D8
  0
BLOCK_RECORD
  5
37C
330
1
100
AcDbSymbolTableRecord
100
AcDbBlockTableRecord
  2
*D9
  0
BLOCK_RECORD
  5
30F
330
1
100
AcDbSymbolTableRecord
100
AcDbBlockTableRecord
  2
*D10
  0
BLOCK_RECORD
  5
E7
330
1
100
AcDbSymbolTableRecord
100
AcDbBlockTableRecord
  2
*D11
  0
BLOCK_RECORD
  5
F6
330
1
100
AcDbSymbolTableRecord
100
AcDbBlockTableRecord
  2
*D12
  0
BLOCK_RECORD
  5
2A2
330
1
100
AcDbSymbolTableRecord
100
AcDbBlockTableRecord
  2
*D13
  0
BLOCK_RECORD
  5
2B3
330
1
100
AcDbSymbolTableRecord
100
AcDbBlockTableRecord
  2
*D14
  0
BLOCK_RECORD
  5
38B
330
1
100
AcDbSymbolTableRecord
100
AcDbBlockTableRecord
  2
*D15
  0
BLOCK_RECORD
  5
B5
330
1
100
AcDbSymbolTableRecord
100
AcDbBlockTableRecord
  2
*D16
  0
BLOCK_RECORD
  5
196
330
1
100
AcDbSymbolTableRecord
100
AcDbBlockTableRecord
  2
*D17
  0
BLOCK_RECORD
  5
183
330
1
100
AcDbSymbolTableRecord
100
AcDbBlockTableRecord
  2
*D18
  0
BLOCK_RECORD
  5
1B4
330
1
100
AcDbSymbolTableRecord
100
AcDbBlockTableRecord
  2
*D19
  0
BLOCK_RECORD
  5
127
330
1
100
AcDbSymbolTableRecord
100
AcDbBlockTableRecord
  2
*D20
  0
BLOCK_RECORD
  5
118
330
1
100
AcDbSymbolTableRecord
100
AcDbBlockTableRecord
  2
*D21
  0
BLOCK_RECORD
  5
1C8
330
1
100
AcDbSymbolTableRecord
100
AcDbBlockTableRecord
  2
*D22
  0
BLOCK_RECORD
  5
109
330
1
100
AcDbSymbolTableRecord
100
AcDbBlockTableRecord
  2
*D23
  0
BLOCK_RECORD
  5
16F
330
1
100
AcDbSymbolTableRecord
100
AcDbBlockTableRecord
  2
*D24
  0
BLOCK_RECORD
  5
1F1
330
1
100
AcDbSymbolTableRecord
100
AcDbBlockTableRecord
  2
*D25
  0
BLOCK_RECORD
  5
241
330
1
100
AcDbSymbolTableRecord
100
AcDbBlockTableRecord
  2
*D26
  0
BLOCK_RECORD
  5
230
330
1
100
AcDbSymbolTableRecord
100
AcDbBlockTableRecord
  2
*D27
  0
BLOCK_RECORD
  5
221
330
1
100
AcDbSymbolTableRecord
100
AcDbBlockTableRecord
  2
*D28
  0
BLOCK_RECORD
  5
3AF
330
1
100
AcDbSymbolTableRecord
100
AcDbBlockTableRecord
  2
*D29
  0
BLOCK_RECORD
  5
3BB
330
1
100
AcDbSymbolTableRecord
100
AcDbBlockTableRecord
  2
*D30
  0
BLOCK_RECORD
  5
3C7
330
1
100
AcDbSymbolTableRecord
100
AcDbBlockTableRecord
  2
*D31
  0
BLOCK_RECORD
  5
3D3
330
1
100
AcDbSymbolTableRecord
100
AcDbBlockTableRecord
  2
*D32
  0
BLOCK_RECORD
  5
3DF
330
1
100
AcDbSymbolTableRecord
100
AcDbBlockTableRecord
  2
*D33
  0
BLOCK_RECORD
  5
3EB
330
1
100
AcDbSymbolTableRecord
100
AcDbBlockTableRecord
  2
*D34
  0
BLOCK_RECORD
  5
3F7
330
1
100
AcDbSymbolTableRecord
100
AcDbBlockTableRecord
  2
*D35
  0
BLOCK_RECORD
  5
403
330
1
100
AcDbSymbolTableRecord
100
AcDbBlockTableRecord
  2
*D36
  0
BLOCK_RECORD
  5
40F
330
1
100
AcDbSymbolTableRecord
100
AcDbBlockTableRecord
  2
*D37
  0
BLOCK_RECORD
  5
41B
330
1
100
AcDbSymbolTableRecord
100
AcDbBlockTableRecord
  2
*D38
  0
BLOCK_RECORD
  5
427
330
1
100
AcDbSymbolTableRecord
100
AcDbBlockTableRecord
  2
*D39
  0
BLOCK_RECORD
  5
433
330
1
100
AcDbSymbolTableRecord
100
AcDbBlockTableRecord
  2
*D40
  0
BLOCK_RECORD
  5
43F
330
1
100
AcDbSymbolTableRecord
100
AcDbBlockTableRecord
  2
*D41
  0
BLOCK_RECORD
  5
44D
330
1
100
AcDbSymbolTableRecord
100
AcDbBlockTableRecord
  2
*D42
  0
BLOCK_RECORD
  5
459
330
1
100
AcDbSymbolTableRecord
100
AcDbBlockTableRecord
  2
*D43
  0
BLOCK_RECORD
  5
465
330
1
100
AcDbSymbolTableRecord
100
AcDbBlockTableRecord
  2
*D44
  0
BLOCK_RECORD
  5
471
330
1
100
AcDbSymbolTableRecord
100
AcDbBlockTableRecord
  2
*D45
  0
BLOCK_RECORD
  5
47D
330
1
100
AcDbSymbolTableRecord
100
AcDbBlockTableRecord
  2
*D46
  0
BLOCK_RECORD
  5
48B
330
1
100
AcDbSymbolTableRecord
100
AcDbBlockTableRecord
  2
*D47
  0
BLOCK_RECORD
  5
497
330
1
100
AcDbSymbolTableRecord
100
AcDbBlockTableRecord
  2
*D48
  0
BLOCK_RECORD
  5
4A3
330
1
100
AcDbSymbolTableRecord
100
AcDbBlockTableRecord
  2
*D49
  0
BLOCK_RECORD
  5
4B1
330
1
100
AcDbSymbolTableRecord
100
AcDbBlockTableRecord
  2
*D50
  0
BLOCK_RECORD
  5
4BD
330
1
100
AcDbSymbolTableRecord
100
AcDbBlockTableRecord
  2
*D51
  0
BLOCK_RECORD
  5
4C9
330
1
100
AcDbSymbolTableRecord
100
AcDbBlockTableRecord
  2
*D52
  0
BLOCK_RECORD
  5
4D5
330
1
100
AcDbSymbolTableRecord
100
AcDbBlockTableRecord
  2
*D53
  0
BLOCK_RECORD
  5
4E3
330
1
100
AcDbSymbolTableRecord
100
AcDbBlockTableRecord
  2
*D54
  0
BLOCK_RECORD
  5
4EF
330
1
100
AcDbSymbolTableRecord
100
AcDbBlockTableRecord
  2
*D55
  0
ENDTAB
  0
ENDSEC
  0
SECTION
  2
BLOCKS
  0
BLOCK
  5
5
330
2
100
AcDbEntity
  8
0
100
AcDbBlockBegin
  2
*MODEL_SPACE
 70
     0
 10
0.0
 20
0.0
 30
0.0
  3
*MODEL_SPACE
  1

  0
ENDBLK
  5
B
330
2
100
AcDbEntity
  8
0
100
AcDbBlockEnd
  0
BLOCK
  5
11
330
E
100
AcDbEntity
 67
     1
  8
0
100
AcDbBlockBegin
  2
*PAPER_SPACE
 70
     0
 10
0.0
 20
0.0
 30
0.0
  3
*PAPER_SPACE
  1

  0
ENDBLK
  5
12
330
E
100
AcDbEntity
 67
     1
  8
0
100
AcDbBlockEnd
  0
BLOCK
  5
D5
330
CC
100
AcDbEntity
  8
0
100
AcDbBlockBegin
  2
*D0
 70
     1
 10
0.0
 20
0.0
 30
0.0
  3
*D0
  1

  0
LINE
  5
CD
330
CC
100
AcDbEntity
  8
0
 62
   123
100
AcDbLine
 10
-474.0668181331803
 20
-2516.925402556208
 30
0.0
 11
-497.6135875546876
 21
-2534.857403328699
 31
0.0
  0
LINE
  5
CE
330
CC
100
AcDbEntity
  8
0
 62
   123
100
AcDbLine
 10
-584.3305466904876
 20
-2600.896550796242
 30
0.0
 11
-586.3194677715838
 21
-2602.411210141828
 31
0.0
  0
MTEXT
  5
CF
330
CC
100
AcDbEntity
  8
0
 62
     3
100
AcDbMText
 10
-484.8441670850144
 20
-2521.990466427412
 30
0.0
 40
3.0
 41
0.0
 71
     5
 72
     1
  1
\A1;\U+2205104%%P0.5
 11
0.7955684324385314
 21
0.6058637382343476
 31
0.0
1001
ACAD
1000
MTEXTBEGIN
1070
    73
1070
     1
1070
    44
1040
1.0
1070
    74
1070
     0
1000
MTEXTEND
  0
LINE
  5
D0
330
CC
100
AcDbEntity
  8
0
 62
   123
100
AcDbLine
 10
-582.3416256093914
 20
-2599.381891450657
 30
0.0
 11
-499.6025086357839
 21
-2536.372062674285
 31
0.0
  0
SOLID
  5
D1
330
CC
100
AcDbEntity
  8
0
 62
   123
100
AcDbTrace
 10
-584.5829899147519
 20
-2600.565063949392
 30
0.0
 11
-584.0781034662234
 21
-2601.228037643092
 31
0.0
 12
-582.3416256093914
 22
-2599.381891450657
 32
0.0
 13
-582.3416256093914
 23
-2599.381891450657
 33
0.0
  0
SOLID
  5
D2
330
CC
100
AcDbEntity
  8
0
 62
   123
100
AcDbTrace
 10
-497.8660307789517
 20
-2534.52591648185
 30
0.0
 11
-497.3611443304232
 21
-2535.188890175549
 31
0.0
 12
-499.6025086357839
 22
-2536.372062674285
 32
0.0
 13
-499.6025086357839
 23
-2536.372062674285
 33
0.0
  0
POINT
  5
D3
330
CC
100
AcDbEntity
  8
DEFPOINTS
 62
     0
100
AcDbPoint
 10
-499.6025086357839
 20
-2536.372062674285
 30
0.0
  0
POINT
  5
D4
330
CC
100
AcDbEntity
  8
DEFPOINTS
 62
     0
100
AcDbPoint
 10
-582.3416256093914
 20
-2599.381891450657
 30
0.0
  0
ENDBLK
  5
D6
330
CC
100
AcDbEntity
  8
0
100
AcDbBlockEnd
  0
BLOCK
  5
E0
330
C2
100
AcDbEntity
  8
0
100
AcDbBlockBegin
  2
4
 70
     0
 10
0.0
 20
0.0
 30
0.0
  3
4
  1

  0
LWPOLYLINE
  5
C3
330
C2
100
AcDbEntity
  8
0
100
AcDbPolyline
 90
        8
 70
     1
 43
0.0
 10
-40.0
 20
-45.00000000000045
 10
40.0
 20
-45.0
 42
0.4142135623730951
 10
45.0
 20
-40.0
 10
45.0
 20
40.0
 42
0.4142135623730951
 10
40.0
 20
45.0
 10
-40.0
 20
45.0
 42
0.4142135623730951
 10
-45.0
 20
40.0
 10
-45.0
 20
-40.00000000000045
 42
0.4142135623730951
  0
CIRCLE
  5
C4
330
C2
100
AcDbEntity
  8
0
100
AcDbCircle
 10
36.76955262170071
 20
36.76955262170031
 30
0.0
 40
3.25
  0
LINE
  5
C5
330
C2
100
AcDbEntity
  8
CL
 48
0.6
100
AcDbLine
 10
33.05724202047111
 20
33.05724202047122
 30
0.0
 11
40.48186322293008
 21
40.48186322292986
 31
0.0
  0
ARC
  5
C8
102
{ACAD_REACTORS
330
CB
102
}
330
C2
100
AcDbEntity
  8
CL
 48
0.6
100
AcDbCircle
 10
0.0
 20
0.0
 30
0.0
 40
51.9999999999996
100
AcDbArc
 50
35.90024337538245
 51
54.09975662462136
  0
DIMENSION
  5
C9
102
{ACAD_XDICTIONARY
360
CA
102
}
102
{ACAD_REACTORS
330
CB
102
}
330
C2
100
AcDbEntity
  8
0
100
AcDbDimension
  2
*D0
 10
-41.36955848680371
 20
-31.50491438818607
 30
0.0
 11
57.64255938315909
 21
43.89758955396246
 31
0.0
 12
540.9720671225876
 22
2567.87697706247
 32
0.0
 70
   131
  1
<>%%P0.5
  3
STANDARD
100
AcDbDiametricDimension
 15
41.36955848680371
 25
31.50491438818607
 35
0.0
 40
0.0
1001
ACAD
1000
DSTYLE
1002
{
1070
   287
1070
     4
1070
   287
1070
     4
1070
   287
1070
     4
1070
   287
1070
     4
1070
   287
1070
     4
1070
   279
1070
     1
1070
   289
1070
     3
1002
}
  0
ARC
  5
D7
330
C2
100
AcDbEntity
  8
CL
 48
0.6
100
AcDbCircle
 10
-0.0000000000002274
 20
0.0
 30
0.0
 40
52.0
100
AcDbArc
 50
129.2128702778055
 51
140.7871297221883
  0
LINE
  5
D8
330
C2
100
AcDbEntity
  8
CL
 48
0.6
100
AcDbLine
 10
-33.05724202047122
 20
33.05724202047122
 30
0.0
 11
-40.48186322292986
 21
40.48186322293031
 31
0.0
  0
CIRCLE
  5
D9
330
C2
100
AcDbEntity
  8
0
100
AcDbCircle
 10
-36.76955262170054
 20
36.76955262170077
 30
0.0
 40
3.25
  0
LINE
  5
DA
330
C2
100
AcDbEntity
  8
CL
 48
0.6
100
AcDbLine
 10
-33.05724202047122
 20
-33.05724202047122
 30
0.0
 11
-40.48186322293008
 21
-40.48186322292986
 31
0.0
  0
CIRCLE
  5
DB
330
C2
100
AcDbEntity
  8
0
100
AcDbCircle
 10
-36.76955262170077
 20
-36.76955262170031
 30
0.0
 40
3.25
  0
ARC
  5
DC
330
C2
100
AcDbEntity
  8
CL
 48
0.6
100
AcDbCircle
 10
0.0
 20
0.0
 30
0.0
 40
51.9999999999996
100
AcDbArc
 50
215.9002433753824
 51
234.0997566246214
  0
ARC
  5
DD
330
C2
100
AcDbEntity
  8
CL
 48
0.6
100
AcDbCircle
 10
0.0
 20
0.0000000000004547
 30
0.0
 40
52.0
100
AcDbArc
 50
309.2128702778056
 51
320.7871297221883
  0
LINE
  5
DE
330
C2
100
AcDbEntity
  8
CL
 48
0.6
100
AcDbLine
 10
33.05724202047076
 20
-33.05724202047122
 30
0.0
 11
40.48186322292941
 21
-40.48186322293031
 31
0.0
  0
CIRCLE
  5
DF
330
C2
100
AcDbEntity
  8
0
100
AcDbCircle
 10
36.76955262170025
 20
-36.76955262170077
 30
0.0
 40
3.25
  0
ENDBLK
  5
E1
330
C2
100
AcDbEntity
  8
0
100
AcDbBlockEnd
  0
BLOCK
  5
1DF
330
1D5
100
AcDbEntity
  8
0
100
AcDbBlockBegin
  2
*D2
 70
     1
 10
0.0
 20
0.0
 30
0.0
  3
*D2
  1

  0
LINE
  5
1D6
330
1D5
100
AcDbEntity
  8
0
 62
   123
100
AcDbLine
 10
14437.26141308148
 20
-5617.734180345131
 30
0.0
 11
14437.26141308148
 21
-5638.014361031228
 31
0.0
  0
LINE
  5
1D7
330
1D5
100
AcDbEntity
  8
0
 62
   123
100
AcDbLine
 10
14527.26141308148
 20
-5617.734180345131
 30
0.0
 11
14527.26141308148
 21
-5638.014361031228
 31
0.0
  0
LINE
  5
1D8
330
1D5
100
AcDbEntity
  8
0
 62
   123
100
AcDbLine
 10
14439.76141308148
 20
-5637.414361031226
 30
0.0
 11
14524.76141308148
 21
-5637.414361031226
 31
0.0
  0
SOLID
  5
1D9
330
1D5
100
AcDbEntity
  8
0
 62
   123
100
AcDbTrace
 10
14439.76141308148
 20
-5636.997694364561
 30
0.0
 11
14439.76141308148
 21
-5637.831027697894
 31
0.0
 12
14437.26141308148
 22
-5637.414361031226
 32
0.0
 13
14437.26141308148
 23
-5637.414361031226
 33
0.0
  0
SOLID
  5
1DA
330
1D5
100
AcDbEntity
  8
0
 62
   123
100
AcDbTrace
 10
14524.76141308148
 20
-5636.997694364561
 30
0.0
 11
14524.76141308148
 21
-5637.831027697894
 31
0.0
 12
14527.26141308148
 22
-5637.414361031226
 32
0.0
 13
14527.26141308148
 23
-5637.414361031226
 33
0.0
  0
MTEXT
  5
1DB
330
1D5
100
AcDbEntity
  8
0
 62
     3
100
AcDbMText
 10
14482.01413883035
 20
-5634.914361031228
 30
0.0
 40
3.0
 41
0.0
 71
     5
 72
     1
  1
\A1;90
1001
ACAD
1000
MTEXTBEGIN
1070
    73
1070
     1
1070
    44
1040
1.0
1070
    74
1070
     0
1000
MTEXTEND
  0
POINT
  5
1DC
330
1D5
100
AcDbEntity
  8
DEFPOINTS
 62
     0
100
AcDbPoint
 10
14437.26141308148
 20
-5616.73418034513
 30
0.0
  0
POINT
  5
1DD
330
1D5
100
AcDbEntity
  8
DEFPOINTS
 62
     0
100
AcDbPoint
 10
14527.26141308148
 20
-5616.73418034513
 30
0.0
  0
POINT
  5
1DE
330
1D5
100
AcDbEntity
  8
DEFPOINTS
 62
     0
100
AcDbPoint
 10
14527.26141308148
 20
-5637.414361031226
 30
0.0
  0
ENDBLK
  5
1E0
330
1D5
100
AcDbEntity
  8
0
100
AcDbBlockEnd
  0
BLOCK
  5
AC
330
A1
100
AcDbEntity
  8
0
100
AcDbBlockBegin
  2
*D3
 70
     1
 10
0.0
 20
0.0
 30
0.0
  3
*D3
  1

  0
LINE
  5
A2
330
A1
100
AcDbEntity
  8
0
 62
   123
100
AcDbLine
 10
14718.923010661
 20
-5531.7341803452
 30
0.0
 11
14738.19702110539
 21
-5531.7341803452
 31
0.0
  0
LINE
  5
A3
330
A1
100
AcDbEntity
  8
0
 62
   123
100
AcDbLine
 10
14718.923010661
 20
-5621.7341803452
 30
0.0
 11
14738.19702110539
 21
-5621.7341803452
 31
0.0
  0
LINE
  5
A4
330
A1
100
AcDbEntity
  8
0
 62
   123
100
AcDbLine
 10
14737.59702110539
 20
-5534.2341803452
 30
0.0
 11
14737.59702110539
 21
-5619.2341803452
 31
0.0
  0
SOLID
  5
A5
330
A1
100
AcDbEntity
  8
0
 62
   123
100
AcDbTrace
 10
14737.18035443873
 20
-5534.2341803452
 30
0.0
 11
14738.01368777206
 21
-5534.2341803452
 31
0.0
 12
14737.59702110539
 22
-5531.7341803452
 32
0.0
 13
14737.59702110539
 23
-5531.7341803452
 33
0.0
  0
SOLID
  5
A6
330
A1
100
AcDbEntity
  8
0
 62
   123
100
AcDbTrace
 10
14737.18035443873
 20
-5619.2341803452
 30
0.0
 11
14738.01368777206
 21
-5619.2341803452
 31
0.0
 12
14737.59702110539
 22
-5621.7341803452
 32
0.0
 13
14737.59702110539
 23
-5621.7341803452
 33
0.0
  0
MTEXT
  5
A7
330
A1
100
AcDbEntity
  8
0
 62
     3
100
AcDbMText
 10
14735.0970211054
 20
-5576.7341803452
 30
0.0
 40
3.0
 41
0.0
 71
     5
 72
     1
  1
\A1;90
 11
0.0000000000000001
 21
1.0
 31
0.0
1001
ACAD
1000
MTEXTBEGIN
1070
    73
1070
     1
1070
    44
1040
1.0
1070
    74
1070
     0
1000
MTEXTEND
  0
POINT
  5
A8
330
A1
100
AcDbEntity
  8
DEFPOINTS
 62
     0
100
AcDbPoint
 10
14717.923010661
 20
-5531.7341803452
 30
0.0
  0
POINT
  5
AA
330
A1
100
AcDbEntity
  8
DEFPOINTS
 62
     0
100
AcDbPoint
 10
14717.923010661
 20
-5621.7341803452
 30
0.0
  0
POINT
  5
AB
330
A1
100
AcDbEntity
  8
DEFPOINTS
 62
     0
100
AcDbPoint
 10
14737.59702110539
 20
-5621.7341803452
 30
0.0
  0
ENDBLK
  5
AD
330
A1
100
AcDbEntity
  8
0
100
AcDbBlockEnd
  0
BLOCK
  5
3A5
330
39B
100
AcDbEntity
  8
0
100
AcDbBlockBegin
  2
*D4
 70
     1
 10
0.0
 20
0.0
 30
0.0
  3
*D4
  1

  0
LINE
  5
39C
330
39B
100
AcDbEntity
  8
0
 62
   123
100
AcDbLine
 10
14523.56930750918
 20
-5531.734180345131
 30
0.0
 11
14529.9334849016
 21
-5531.734180345131
 31
0.0
  0
LINE
  5
39D
330
39B
100
AcDbEntity
  8
0
 62
   123
100
AcDbLine
 10
14511.17756851546
 20
-5488.734180345129
 30
0.0
 11
14529.9334849016
 21
-5488.734180345129
 31
0.0
  0
LINE
  5
39E
330
39B
100
AcDbEntity
  8
0
 62
   123
100
AcDbLine
 10
14529.3334849016
 20
-5529.234180345131
 30
0.0
 11
14529.3334849016
 21
-5491.234180345131
 31
0.0
  0
SOLID
  5
39F
330
39B
100
AcDbEntity
  8
0
 62
   123
100
AcDbTrace
 10
14528.91681823495
 20
-5529.234180345131
 30
0.0
 11
14529.75015156828
 21
-5529.234180345131
 31
0.0
 12
14529.3334849016
 22
-5531.734180345131
 32
0.0
 13
14529.3334849016
 23
-5531.734180345131
 33
0.0
  0
SOLID
  5
3A0
330
39B
100
AcDbEntity
  8
0
 62
   123
100
AcDbTrace
 10
14528.91681823495
 20
-5491.234180345131
 30
0.0
 11
14529.75015156828
 21
-5491.234180345131
 31
0.0
 12
14529.3334849016
 22
-5488.734180345129
 32
0.0
 13
14529.3334849016
 23
-5488.734180345129
 33
0.0
  0
MTEXT
  5
3A1
330
39B
100
AcDbEntity
  8
0
 62
     3
100
AcDbMText
 10
14526.83348490162
 20
-5508.639344548045
 30
0.0
 40
3.0
 41
0.0
 71
     5
 72
     1
  1
\A1;43
 11
0.0000000000000001
 21
1.0
 31
0.0
1001
ACAD
1000
MTEXTBEGIN
1070
    73
1070
     1
1070
    44
1040
1.0
1070
    74
1070
     0
1000
MTEXTEND
  0
POINT
  5
3A2
330
39B
100
AcDbEntity
  8
DEFPOINTS
 62
     0
100
AcDbPoint
 10
14522.56930750919
 20
-5531.734180345131
 30
0.0
  0
POINT
  5
3A3
330
39B
100
AcDbEntity
  8
DEFPOINTS
 62
     0
100
AcDbPoint
 10
14510.17756851546
 20
-5488.734180345129
 30
0.0
  0
POINT
  5
3A4
330
39B
100
AcDbEntity
  8
DEFPOINTS
 62
     0
100
AcDbPoint
 10
14529.3334849016
 20
-5488.734180345129
 30
0.0
  0
ENDBLK
  5
3A6
330
39B
100
AcDbEntity
  8
0
100
AcDbBlockEnd
  0
BLOCK
  5
14A
330
140
100
AcDbEntity
  8
0
100
AcDbBlockBegin
  2
*D5
 70
     1
 10
0.0
 20
0.0
 30
0.0
  3
*D5
  1

  0
LINE
  5
141
330
140
100
AcDbEntity
  8
0
 62
   123
100
AcDbLine
 10
14739.45377511533
 20
-5757.18726354561
 30
0.0
 11
14758.72778555971
 21
-5757.18726354561
 31
0.0
  0
LINE
  5
142
330
140
100
AcDbEntity
  8
0
 62
   123
100
AcDbLine
 10
14739.45377511533
 20
-5847.18726354561
 30
0.0
 11
14758.72778555971
 21
-5847.18726354561
 31
0.0
  0
LINE
  5
143
330
140
100
AcDbEntity
  8
0
 62
   123
100
AcDbLine
 10
14758.1277855597
 20
-5759.687263545609
 30
0.0
 11
14758.1277855597
 21
-5844.687263545609
 31
0.0
  0
SOLID
  5
144
330
140
100
AcDbEntity
  8
0
 62
   123
100
AcDbTrace
 10
14757.71111889303
 20
-5759.687263545609
 30
0.0
 11
14758.54445222638
 21
-5759.687263545609
 31
0.0
 12
14758.1277855597
 22
-5757.18726354561
 32
0.0
 13
14758.1277855597
 23
-5757.18726354561
 33
0.0
  0
SOLID
  5
145
330
140
100
AcDbEntity
  8
0
 62
   123
100
AcDbTrace
 10
14757.71111889303
 20
-5844.687263545609
 30
0.0
 11
14758.54445222638
 21
-5844.687263545609
 31
0.0
 12
14758.1277855597
 22
-5847.18726354561
 32
0.0
 13
14758.1277855597
 23
-5847.18726354561
 33
0.0
  0
MTEXT
  5
146
330
140
100
AcDbEntity
  8
0
 62
     3
100
AcDbMText
 10
14755.62778555971
 20
-5802.187263545609
 30
0.0
 40
3.0
 41
0.0
 71
     5
 72
     1
  1
\A1;90
 11
0.0000000000000001
 21
1.0
 31
0.0
1001
ACAD
1000
MTEXTBEGIN
1070
    73
1070
     1
1070
    44
1040
1.0
1070
    74
1070
     0
1000
MTEXTEND
  0
POINT
  5
147
330
140
100
AcDbEntity
  8
DEFPOINTS
 62
     0
100
AcDbPoint
 10
14738.45377511533
 20
-5757.18726354561
 30
0.0
  0
POINT
  5
148
330
140
100
AcDbEntity
  8
DEFPOINTS
 62
     0
100
AcDbPoint
 10
14738.45377511533
 20
-5847.18726354561
 30
0.0
  0
POINT
  5
149
330
140
100
AcDbEntity
  8
DEFPOINTS
 62
     0
100
AcDbPoint
 10
14758.1277855597
 20
-5847.18726354561
 30
0.0
  0
ENDBLK
  5
14B
330
140
100
AcDbEntity
  8
0
100
AcDbBlockEnd
  0
BLOCK
  5
1EC
330
1E2
100
AcDbEntity
  8
0
100
AcDbBlockBegin
  2
*D6
 70
     1
 10
0.0
 20
0.0
 30
0.0
  3
*D6
  1

  0
LINE
  5
1E3
330
1E2
100
AcDbEntity
  8
0
 62
   123
100
AcDbLine
 10
14514.42512924265
 20
-5757.187263545541
 30
0.0
 11
14520.78930663509
 21
-5757.187263545541
 31
0.0
  0
LINE
  5
1E4
330
1E2
100
AcDbEntity
  8
0
 62
   123
100
AcDbLine
 10
14502.03339024894
 20
-5714.187263545539
 30
0.0
 11
14520.78930663509
 21
-5714.187263545539
 31
0.0
  0
LINE
  5
1E5
330
1E2
100
AcDbEntity
  8
0
 62
   123
100
AcDbLine
 10
14520.18930663508
 20
-5754.687263545539
 30
0.0
 11
14520.18930663508
 21
-5716.687263545541
 31
0.0
  0
SOLID
  5
1E6
330
1E2
100
AcDbEntity
  8
0
 62
   123
100
AcDbTrace
 10
14519.77263996841
 20
-5754.687263545539
 30
0.0
 11
14520.60597330175
 21
-5754.687263545539
 31
0.0
 12
14520.18930663508
 22
-5757.187263545541
 32
0.0
 13
14520.18930663508
 23
-5757.187263545541
 33
0.0
  0
SOLID
  5
1E7
330
1E2
100
AcDbEntity
  8
0
 62
   123
100
AcDbTrace
 10
14519.77263996841
 20
-5716.687263545541
 30
0.0
 11
14520.60597330175
 21
-5716.687263545541
 31
0.0
 12
14520.18930663508
 22
-5714.187263545539
 32
0.0
 13
14520.18930663508
 23
-5714.187263545539
 33
0.0
  0
MTEXT
  5
1E8
330
1E2
100
AcDbEntity
  8
0
 62
     3
100
AcDbMText
 10
14517.68930663509
 20
-5734.092427748454
 30
0.0
 40
3.0
 41
0.0
 71
     5
 72
     1
  1
\A1;43
 11
0.0000000000000001
 21
1.0
 31
0.0
1001
ACAD
1000
MTEXTBEGIN
1070
    73
1070
     1
1070
    44
1040
1.0
1070
    74
1070
     0
1000
MTEXTEND
  0
POINT
  5
1E9
330
1E2
100
AcDbEntity
  8
DEFPOINTS
 62
     0
100
AcDbPoint
 10
14513.42512924265
 20
-5757.187263545541
 30
0.0
  0
POINT
  5
1EA
330
1E2
100
AcDbEntity
  8
DEFPOINTS
 62
     0
100
AcDbPoint
 10
14501.03339024894
 20
-5714.187263545539
 30
0.0
  0
POINT
  5
1EB
330
1E2
100
AcDbEntity
  8
DEFPOINTS
 62
     0
100
AcDbPoint
 10
14520.18930663508
 20
-5714.187263545539
 30
0.0
  0
ENDBLK
  5
1ED
330
1E2
100
AcDbEntity
  8
0
100
AcDbBlockEnd
  0
BLOCK
  5
158
330
14E
100
AcDbEntity
  8
0
100
AcDbBlockBegin
  2
*D7
 70
     1
 10
0.0
 20
0.0
 30
0.0
  3
*D7
  1

  0
LINE
  5
14F
330
14E
100
AcDbEntity
  8
0
 62
   123
100
AcDbLine
 10
14428.11723481496
 20
-5843.187263545541
 30
0.0
 11
14428.11723481496
 21
-5863.467444231638
 31
0.0
  0
LINE
  5
150
330
14E
100
AcDbEntity
  8
0
 62
   123
100
AcDbLine
 10
14518.11723481496
 20
-5843.187263545541
 30
0.0
 11
14518.11723481496
 21
-5863.467444231638
 31
0.0
  0
LINE
  5
151
330
14E
100
AcDbEntity
  8
0
 62
   123
100
AcDbLine
 10
14430.61723481496
 20
-5862.867444231635
 30
0.0
 11
14515.61723481495
 21
-5862.867444231635
 31
0.0
  0
SOLID
  5
152
330
14E
100
AcDbEntity
  8
0
 62
   123
100
AcDbTrace
 10
14430.61723481496
 20
-5862.450777564971
 30
0.0
 11
14430.61723481496
 21
-5863.284110898305
 31
0.0
 12
14428.11723481496
 22
-5862.867444231635
 32
0.0
 13
14428.11723481496
 23
-5862.867444231635
 33
0.0
  0
SOLID
  5
153
330
14E
100
AcDbEntity
  8
0
 62
   123
100
AcDbTrace
 10
14515.61723481495
 20
-5862.450777564971
 30
0.0
 11
14515.61723481495
 21
-5863.284110898305
 31
0.0
 12
14518.11723481496
 22
-5862.867444231635
 32
0.0
 13
14518.11723481496
 23
-5862.867444231635
 33
0.0
  0
MTEXT
  5
154
330
14E
100
AcDbEntity
  8
0
 62
     3
100
AcDbMText
 10
14472.86996056384
 20
-5860.367444231637
 30
0.0
 40
3.0
 41
0.0
 71
     5
 72
     1
  1
\A1;90
1001
ACAD
1000
MTEXTBEGIN
1070
    73
1070
     1
1070
    44
1040
1.0
1070
    74
1070
     0
1000
MTEXTEND
  0
POINT
  5
155
330
14E
100
AcDbEntity
  8
DEFPOINTS
 62
     0
100
AcDbPoint
 10
14428.11723481496
 20
-5842.18726354554
 30
0.0
  0
POINT
  5
156
330
14E
100
AcDbEntity
  8
DEFPOINTS
 62
     0
100
AcDbPoint
 10
14518.11723481496
 20
-5842.18726354554
 30
0.0
  0
POINT
  5
157
330
14E
100
AcDbEntity
  8
DEFPOINTS
 62
     0
100
AcDbPoint
 10
14518.11723481496
 20
-5862.867444231635
 30
0.0
  0
ENDBLK
  5
159
330
14E
100
AcDbEntity
  8
0
100
AcDbBlockEnd
  0
BLOCK
  5
2D5
330
2CB
100
AcDbEntity
  8
0
100
AcDbBlockBegin
  2
*D8
 70
     1
 10
0.0
 20
0.0
 30
0.0
  3
*D8
  1

  0
LINE
  5
2CC
330
2CB
100
AcDbEntity
  8
0
 62
   123
100
AcDbLine
 10
14451.01413883035
 20
-5522.734180345131
 30
0.0
 11
14451.01413883035
 21
-5474.224450749705
 31
0.0
  0
LINE
  5
2CD
330
2CB
100
AcDbEntity
  8
0
 62
   123
100
AcDbLine
 10
14513.01413883035
 20
-5522.734180345131
 30
0.0
 11
14513.01413883035
 21
-5474.224450749705
 31
0.0
  0
LINE
  5
2CE
330
2CB
100
AcDbEntity
  8
0
 62
   123
100
AcDbLine
 10
14453.51413883035
 20
-5474.824450749705
 30
0.0
 11
14510.51413883035
 21
-5474.824450749705
 31
0.0
  0
SOLID
  5
2CF
330
2CB
100
AcDbEntity
  8
0
 62
   123
100
AcDbTrace
 10
14453.51413883035
 20
-5474.407784083037
 30
0.0
 11
14453.51413883035
 21
-5475.241117416373
 31
0.0
 12
14451.01413883035
 22
-5474.824450749705
 32
0.0
 13
14451.01413883035
 23
-5474.824450749705
 33
0.0
  0
SOLID
  5
2D0
330
2CB
100
AcDbEntity
  8
0
 62
   123
100
AcDbTrace
 10
14510.51413883035
 20
-5474.407784083037
 30
0.0
 11
14510.51413883035
 21
-5475.241117416373
 31
0.0
 12
14513.01413883035
 22
-5474.824450749705
 32
0.0
 13
14513.01413883035
 23
-5474.824450749705
 33
0.0
  0
MTEXT
  5
2D1
330
2CB
100
AcDbEntity
  8
0
 62
     3
100
AcDbMText
 10
14482.01413883035
 20
-5472.324450749706
 30
0.0
 40
3.0
 41
0.0
 71
     5
 72
     1
  1
\A1;62
1001
ACAD
1000
MTEXTBEGIN
1070
    73
1070
     1
1070
    44
1040
1.0
1070
    74
1070
     0
1000
MTEXTEND
  0
POINT
  5
2D2
330
2CB
100
AcDbEntity
  8
DEFPOINTS
 62
     0
100
AcDbPoint
 10
14451.01413883035
 20
-5523.73418034513
 30
0.0
  0
POINT
  5
2D3
330
2CB
100
AcDbEntity
  8
DEFPOINTS
 62
     0
100
AcDbPoint
 10
14513.01413883035
 20
-5523.73418034513
 30
0.0
  0
POINT
  5
2D4
330
2CB
100
AcDbEntity
  8
DEFPOINTS
 62
     0
100
AcDbPoint
 10
14513.01413883035
 20
-5474.824450749705
 30
0.0
  0
ENDBLK
  5
2D6
330
2CB
100
AcDbEntity
  8
0
100
AcDbBlockEnd
  0
BLOCK
  5
386
330
37C
100
AcDbEntity
  8
0
100
AcDbBlockBegin
  2
*D9
 70
     1
 10
0.0
 20
0.0
 30
0.0
  3
*D9
  1

  0
LINE
  5
37D
330
37C
100
AcDbEntity
  8
0
 62
   123
100
AcDbLine
 10
14594.923010661
 20
-5522.034181345198
 30
0.0
 11
14594.923010661
 21
-5476.078576840515
 31
0.0
  0
LINE
  5
37E
330
37C
100
AcDbEntity
  8
0
 62
   123
100
AcDbLine
 10
14669.91967766101
 20
-5490.734181345199
 30
0.0
 11
14669.91967766101
 21
-5476.078576840515
 31
0.0
  0
LINE
  5
37F
330
37C
100
AcDbEntity
  8
0
 62
   123
100
AcDbLine
 10
14597.423010661
 20
-5476.678576840516
 30
0.0
 11
14667.419677661
 21
-5476.678576840516
 31
0.0
  0
SOLID
  5
380
330
37C
100
AcDbEntity
  8
0
 62
   123
100
AcDbTrace
 10
14597.423010661
 20
-5476.26191017385
 30
0.0
 11
14597.423010661
 21
-5477.095243507182
 31
0.0
 12
14594.923010661
 22
-5476.678576840516
 32
0.0
 13
14594.923010661
 23
-5476.678576840516
 33
0.0
  0
SOLID
  5
381
330
37C
100
AcDbEntity
  8
0
 62
   123
100
AcDbTrace
 10
14667.419677661
 20
-5476.26191017385
 30
0.0
 11
14667.419677661
 21
-5477.095243507182
 31
0.0
 12
14669.91967766101
 22
-5476.678576840516
 32
0.0
 13
14669.91967766101
 23
-5476.678576840516
 33
0.0
  0
MTEXT
  5
382
330
37C
100
AcDbEntity
  8
0
 62
     3
100
AcDbMText
 10
14625.82288790378
 20
-5474.178576840515
 30
0.0
 40
3.0
 41
0.0
 71
     5
 72
     1
  1
\A1;75
1001
ACAD
1000
MTEXTBEGIN
1070
    73
1070
     1
1070
    44
1040
1.0
1070
    74
1070
     0
1000
MTEXTEND
  0
POINT
  5
383
330
37C
100
AcDbEntity
  8
DEFPOINTS
 62
     0
100
AcDbPoint
 10
14594.923010661
 20
-5523.034181345198
 30
0.0
  0
POINT
  5
384
330
37C
100
AcDbEntity
  8
DEFPOINTS
 62
     0
100
AcDbPoint
 10
14669.91967766101
 20
-5491.734181345197
 30
0.0
  0
POINT
  5
385
330
37C
100
AcDbEntity
  8
DEFPOINTS
 62
     0
100
AcDbPoint
 10
14669.91967766101
 20
-5476.678576840516
 30
0.0
  0
ENDBLK
  5
387
330
37C
100
AcDbEntity
  8
0
100
AcDbBlockEnd
  0
BLOCK
  5
319
330
30F
100
AcDbEntity
  8
0
100
AcDbBlockBegin
  2
*D10
 70
     1
 10
0.0
 20
0.0
 30
0.0
  3
*D10
  1

  0
LINE
  5
310
330
30F
100
AcDbEntity
  8
0
 62
   123
100
AcDbLine
 10
14669.91967766101
 20
-5490.734181345199
 30
0.0
 11
14669.91967766101
 21
-5476.095147861026
 31
0.0
  0
LINE
  5
311
330
30F
100
AcDbEntity
  8
0
 62
   123
100
AcDbLine
 10
14697.919677661
 20
-5498.734181345199
 30
0.0
 11
14697.919677661
 21
-5476.095147861026
 31
0.0
  0
LINE
  5
312
330
30F
100
AcDbEntity
  8
0
 62
   123
100
AcDbLine
 10
14672.419677661
 20
-5476.695147861026
 30
0.0
 11
14695.419677661
 21
-5476.695147861026
 31
0.0
  0
SOLID
  5
313
330
30F
100
AcDbEntity
  8
0
 62
   123
100
AcDbTrace
 10
14672.419677661
 20
-5476.278481194359
 30
0.0
 11
14672.419677661
 21
-5477.111814527694
 31
0.0
 12
14669.91967766101
 22
-5476.695147861026
 32
0.0
 13
14669.91967766101
 23
-5476.695147861026
 33
0.0
  0
SOLID
  5
314
330
30F
100
AcDbEntity
  8
0
 62
   123
100
AcDbTrace
 10
14695.419677661
 20
-5476.278481194359
 30
0.0
 11
14695.419677661
 21
-5477.111814527694
 31
0.0
 12
14697.919677661
 22
-5476.695147861026
 32
0.0
 13
14697.919677661
 23
-5476.695147861026
 33
0.0
  0
MTEXT
  5
315
330
30F
100
AcDbEntity
  8
0
 62
     3
100
AcDbMText
 10
14683.919677661
 20
-5474.195147861026
 30
0.0
 40
3.0
 41
0.0
 71
     5
 72
     1
  1
\A1;MAX. 28
1001
ACAD
1000
MTEXTBEGIN
1070
    73
1070
     1
1070
    44
1040
1.0
1070
    74
1070
     0
1000
MTEXTEND
  0
POINT
  5
316
330
30F
100
AcDbEntity
  8
DEFPOINTS
 62
     0
100
AcDbPoint
 10
14669.91967766101
 20
-5491.734181345197
 30
0.0
  0
POINT
  5
317
330
30F
100
AcDbEntity
  8
DEFPOINTS
 62
     0
100
AcDbPoint
 10
14697.919677661
 20
-5499.734181345199
 30
0.0
  0
POINT
  5
318
330
30F
100
AcDbEntity
  8
DEFPOINTS
 62
     0
100
AcDbPoint
 10
14697.919677661
 20
-5476.695147861026
 30
0.0
  0
ENDBLK
  5
31A
330
30F
100
AcDbEntity
  8
0
100
AcDbBlockEnd
  0
BLOCK
  5
F1
330
E7
100
AcDbEntity
  8
0
100
AcDbBlockBegin
  2
*D11
 70
     1
 10
0.0
 20
0.0
 30
0.0
  3
*D11
  1

  0
LINE
  5
E8
330
E7
100
AcDbEntity
  8
0
 62
   123
100
AcDbLine
 10
14585.923010661
 20
-5535.2341803452
 30
0.0
 11
14557.83125154268
 21
-5535.2341803452
 31
0.0
  0
LINE
  5
E9
330
E7
100
AcDbEntity
  8
0
 62
   123
100
AcDbLine
 10
14585.923010661
 20
-5618.234180345202
 30
0.0
 11
14557.83125154268
 21
-5618.234180345202
 31
0.0
  0
LINE
  5
EA
330
E7
100
AcDbEntity
  8
0
 62
   123
100
AcDbLine
 10
14558.43125154268
 20
-5537.7341803452
 30
0.0
 11
14558.43125154268
 21
-5615.734180345199
 31
0.0
  0
SOLID
  5
EB
330
E7
100
AcDbEntity
  8
0
 62
   123
100
AcDbTrace
 10
14558.014584876
 20
-5537.7341803452
 30
0.0
 11
14558.84791820935
 21
-5537.7341803452
 31
0.0
 12
14558.43125154268
 22
-5535.2341803452
 32
0.0
 13
14558.43125154268
 23
-5535.2341803452
 33
0.0
  0
SOLID
  5
EC
330
E7
100
AcDbEntity
  8
0
 62
   123
100
AcDbTrace
 10
14558.014584876
 20
-5615.734180345199
 30
0.0
 11
14558.84791820935
 21
-5615.734180345199
 31
0.0
 12
14558.43125154268
 22
-5618.234180345202
 32
0.0
 13
14558.43125154268
 23
-5618.234180345202
 33
0.0
  0
MTEXT
  5
ED
330
E7
100
AcDbEntity
  8
0
 62
     3
100
AcDbMText
 10
14554.48110154268
 20
-5578.75347878571
 30
0.0
 40
3.0
 41
0.0
 71
     5
 72
     1
  1
\A1;\A1;{\f??|b0|i0|c0|p49;%%c}83{\f??|b0|i0|c0|p49;\H0.7x;\S+0^ -0.035;\H1.429x;(h7)}
 11
0.0000000000000001
 21
1.0
 31
0.0
1001
ACAD
1000
MTEXTBEGIN
1070
    73
1070
     1
1070
    44
1040
1.0
1070
    74
1070
     0
1000
MTEXTEND
  0
POINT
  5
EE
330
E7
100
AcDbEntity
  8
DEFPOINTS
 62
     0
100
AcDbPoint
 10
14586.923010661
 20
-5535.2341803452
 30
0.0
  0
POINT
  5
EF
330
E7
100
AcDbEntity
  8
DEFPOINTS
 62
     0
100
AcDbPoint
 10
14586.923010661
 20
-5618.234180345202
 30
0.0
  0
POINT
  5
F0
330
E7
100
AcDbEntity
  8
DEFPOINTS
 62
     0
100
AcDbPoint
 10
14558.43125154268
 20
-5618.234180345202
 30
0.0
  0
ENDBLK
  5
F2
330
E7
100
AcDbEntity
  8
0
100
AcDbBlockEnd
  0
BLOCK
  5
100
330
F6
100
AcDbEntity
  8
0
100
AcDbBlockBegin
  2
*D12
 70
     1
 10
0.0
 20
0.0
 30
0.0
  3
*D12
  1

  0
LINE
  5
F7
330
F6
100
AcDbEntity
  8
0
 62
   123
100
AcDbLine
 10
14567.92301066101
 20
-5582.384180345201
 30
0.0
 11
14567.92301066101
 21
-5644.972980305696
 31
0.0
  0
LINE
  5
F8
330
F6
100
AcDbEntity
  8
0
 62
   123
100
AcDbLine
 10
14588.92301066101
 20
-5622.7341803452
 30
0.0
 11
14588.92301066101
 21
-5644.972980305696
 31
0.0
  0
LINE
  5
F9
330
F6
100
AcDbEntity
  8
0
 62
   123
100
AcDbLine
 10
14570.423010661
 20
-5644.372980305696
 30
0.0
 11
14586.423010661
 21
-5644.372980305696
 31
0.0
  0
SOLID
  5
FA
330
F6
100
AcDbEntity
  8
0
 62
   123
100
AcDbTrace
 10
14570.423010661
 20
-5643.95631363903
 30
0.0
 11
14570.423010661
 21
-5644.789646972363
 31
0.0
 12
14567.92301066101
 22
-5644.372980305696
 32
0.0
 13
14567.92301066101
 23
-5644.372980305696
 33
0.0
  0
SOLID
  5
FB
330
F6
100
AcDbEntity
  8
0
 62
   123
100
AcDbTrace
 10
14586.423010661
 20
-5643.95631363903
 30
0.0
 11
14586.423010661
 21
-5644.789646972363
 31
0.0
 12
14588.92301066101
 22
-5644.372980305696
 32
0.0
 13
14588.92301066101
 23
-5644.372980305696
 33
0.0
  0
MTEXT
  5
FC
330
F6
100
AcDbEntity
  8
0
 62
     3
100
AcDbMText
 10
14579.923010661
 20
-5641.872980305696
 30
0.0
 40
3.0
 41
0.0
 71
     5
 72
     1
  1
\A1;21
1001
ACAD
1000
MTEXTBEGIN
1070
    73
1070
     1
1070
    44
1040
1.0
1070
    74
1070
     0
1000
MTEXTEND
  0
POINT
  5
FD
330
F6
100
AcDbEntity
  8
DEFPOINTS
 62
     0
100
AcDbPoint
 10
14567.92301066101
 20
-5581.3841803452
 30
0.0
  0
POINT
  5
FE
330
F6
100
AcDbEntity
  8
DEFPOINTS
 62
     0
100
AcDbPoint
 10
14588.92301066101
 20
-5621.7341803452
 30
0.0
  0
POINT
  5
FF
330
F6
100
AcDbEntity
  8
DEFPOINTS
 62
     0
100
AcDbPoint
 10
14588.92301066101
 20
-5644.372980305696
 30
0.0
  0
ENDBLK
  5
101
330
F6
100
AcDbEntity
  8
0
100
AcDbBlockEnd
  0
BLOCK
  5
2AC
330
2A2
100
AcDbEntity
  8
0
100
AcDbBlockBegin
  2
*D13
 70
     1
 10
0.0
 20
0.0
 30
0.0
  3
*D13
  1

  0
LINE
  5
2A3
330
2A2
100
AcDbEntity
  8
0
 62
   123
100
AcDbLine
 10
14588.92301066101
 20
-5622.7341803452
 30
0.0
 11
14588.92301066101
 21
-5635.608792679237
 31
0.0
  0
LINE
  5
2A4
330
2A2
100
AcDbEntity
  8
0
 62
   123
100
AcDbLine
 10
14596.423010661
 20
-5621.332917686729
 30
0.0
 11
14596.423010661
 21
-5635.608792679237
 31
0.0
  0
LINE
  5
2A5
330
2A2
100
AcDbEntity
  8
0
 62
   123
100
AcDbLine
 10
14591.423010661
 20
-5635.008792679236
 30
0.0
 11
14593.92301066101
 21
-5635.008792679236
 31
0.0
  0
SOLID
  5
2A6
330
2A2
100
AcDbEntity
  8
0
 62
   123
100
AcDbTrace
 10
14591.423010661
 20
-5634.59212601257
 30
0.0
 11
14591.423010661
 21
-5635.425459345904
 31
0.0
 12
14588.92301066101
 22
-5635.008792679236
 32
0.0
 13
14588.92301066101
 23
-5635.008792679236
 33
0.0
  0
SOLID
  5
2A7
330
2A2
100
AcDbEntity
  8
0
 62
   123
100
AcDbTrace
 10
14593.92301066101
 20
-5634.59212601257
 30
0.0
 11
14593.92301066101
 21
-5635.425459345904
 31
0.0
 12
14596.423010661
 22
-5635.008792679236
 32
0.0
 13
14596.423010661
 23
-5635.008792679236
 33
0.0
  0
MTEXT
  5
2A8
330
2A2
100
AcDbEntity
  8
0
 62
     3
100
AcDbMText
 10
14592.673010661
 20
-5632.508792679237
 30
0.0
 40
3.0
 41
0.0
 71
     5
 72
     1
  1
\A1;7.5
1001
ACAD
1000
MTEXTBEGIN
1070
    73
1070
     1
1070
    44
1040
1.0
1070
    74
1070
     0
1000
MTEXTEND
  0
POINT
  5
2A9
330
2A2
100
AcDbEntity
  8
DEFPOINTS
 62
     0
100
AcDbPoint
 10
14588.92301066101
 20
-5621.7341803452
 30
0.0
  0
POINT
  5
2AA
330
2A2
100
AcDbEntity
  8
DEFPOINTS
 62
     0
100
AcDbPoint
 10
14596.423010661
 20
-5620.332917686728
 30
0.0
  0
POINT
  5
2AB
330
2A2
100
AcDbEntity
  8
DEFPOINTS
 62
     0
100
AcDbPoint
 10
14596.423010661
 20
-5635.008792679236
 30
0.0
  0
ENDBLK
  5
2AD
330
2A2
100
AcDbEntity
  8
0
100
AcDbBlockEnd
  0
BLOCK
  5
2BF
330
2B3
100
AcDbEntity
  8
0
100
AcDbBlockBegin
  2
*D14
 70
     1
 10
0.0
 20
0.0
 30
0.0
  3
*D14
  1

  0
LINE
  5
2B4
330
2B3
100
AcDbEntity
  8
0
 62
   123
100
AcDbLine
 10
14586.923010661
 20
-5619.2341803452
 30
0.0
 11
14586.923010661
 21
-5635.608792679237
 31
0.0
  0
LINE
  5
2B5
330
2B3
100
AcDbEntity
  8
0
 62
   123
100
AcDbLine
 10
14588.92301066101
 20
-5622.7341803452
 30
0.0
 11
14588.92301066101
 21
-5635.608792679237
 31
0.0
  0
LINE
  5
2B6
330
2B3
100
AcDbEntity
  8
0
 62
   123
100
AcDbLine
 10
14591.423010661
 20
-5635.008792679236
 30
0.0
 11
14593.92301066101
 21
-5635.008792679236
 31
0.0
  0
LINE
  5
2B7
330
2B3
100
AcDbEntity
  8
0
 62
   123
100
AcDbLine
 10
14584.423010661
 20
-5635.008792679236
 30
0.0
 11
14575.923010661
 21
-5635.008792679236
 31
0.0
  0
LINE
  5
2B8
330
2B3
100
AcDbEntity
  8
0
 62
   123
100
AcDbLine
 10
14588.92301066101
 20
-5635.008792679236
 30
0.0
 11
14586.923010661
 21
-5635.008792679236
 31
0.0
  0
SOLID
  5
2B9
330
2B3
100
AcDbEntity
  8
0
 62
   123
100
AcDbTrace
 10
14591.423010661
 20
-5634.59212601257
 30
0.0
 11
14591.423010661
 21
-5635.425459345904
 31
0.0
 12
14588.92301066101
 22
-5635.008792679236
 32
0.0
 13
14588.92301066101
 23
-5635.008792679236
 33
0.0
  0
SOLID
  5
2BA
330
2B3
100
AcDbEntity
  8
0
 62
   123
100
AcDbTrace
 10
14584.423010661
 20
-5634.59212601257
 30
0.0
 11
14584.423010661
 21
-5635.425459345904
 31
0.0
 12
14586.923010661
 22
-5635.008792679236
 32
0.0
 13
14586.923010661
 23
-5635.008792679236
 33
0.0
  0
MTEXT
  5
2BB
330
2B3
100
AcDbEntity
  8
0
 62
     3
100
AcDbMText
 10
14577.923010661
 20
-5632.508792679237
 30
0.0
 40
3.0
 41
0.0
 71
     5
 72
     1
  1
\A1;2
1001
ACAD
1000
MTEXTBEGIN
1070
    73
1070
     1
1070
    44
1040
1.0
1070
    74
1070
     0
1000
MTEXTEND
  0
POINT
  5
2BC
330
2B3
100
AcDbEntity
  8
DEFPOINTS
 62
     0
100
AcDbPoint
 10
14586.923010661
 20
-5618.234180345202
 30
0.0
  0
POINT
  5
2BD
330
2B3
100
AcDbEntity
  8
DEFPOINTS
 62
     0
100
AcDbPoint
 10
14588.92301066101
 20
-5621.7341803452
 30
0.0
  0
POINT
  5
2BE
330
2B3
100
AcDbEntity
  8
DEFPOINTS
 62
     0
100
AcDbPoint
 10
14588.92301066101
 20
-5635.008792679236
 30
0.0
  0
ENDBLK
  5
2C0
330
2B3
100
AcDbEntity
  8
0
100
AcDbBlockEnd
  0
BLOCK
  5
397
330
38B
100
AcDbEntity
  8
0
100
AcDbBlockBegin
  2
*D15
 70
     1
 10
0.0
 20
0.0
 30
0.0
  3
*D15
  1

  0
LINE
  5
38C
330
38B
100
AcDbEntity
  8
0
 62
   123
100
AcDbLine
 10
14588.92301066101
 20
-5530.7341803452
 30
0.0
 11
14588.92301066101
 21
-5476.078576840515
 31
0.0
  0
LINE
  5
38D
330
38B
100
AcDbEntity
  8
0
 62
   123
100
AcDbLine
 10
14594.923010661
 20
-5522.034181345198
 30
0.0
 11
14594.923010661
 21
-5476.078576840515
 31
0.0
  0
LINE
  5
38E
330
38B
100
AcDbEntity
  8
0
 62
   123
100
AcDbLine
 10
14586.423010661
 20
-5476.678576840516
 30
0.0
 11
14583.923010661
 21
-5476.678576840516
 31
0.0
  0
LINE
  5
38F
330
38B
100
AcDbEntity
  8
0
 62
   123
100
AcDbLine
 10
14597.423010661
 20
-5476.678576840516
 30
0.0
 11
14599.923010661
 21
-5476.678576840516
 31
0.0
  0
LINE
  5
390
330
38B
100
AcDbEntity
  8
0
 62
   123
100
AcDbLine
 10
14588.92301066101
 20
-5476.678576840516
 30
0.0
 11
14594.923010661
 21
-5476.678576840516
 31
0.0
  0
SOLID
  5
391
330
38B
100
AcDbEntity
  8
0
 62
   123
100
AcDbTrace
 10
14586.423010661
 20
-5476.26191017385
 30
0.0
 11
14586.423010661
 21
-5477.095243507182
 31
0.0
 12
14588.92301066101
 22
-5476.678576840516
 32
0.0
 13
14588.92301066101
 23
-5476.678576840516
 33
0.0
  0
SOLID
  5
392
330
38B
100
AcDbEntity
  8
0
 62
   123
100
AcDbTrace
 10
14597.423010661
 20
-5476.26191017385
 30
0.0
 11
14597.423010661
 21
-5477.095243507182
 31
0.0
 12
14594.923010661
 22
-5476.678576840516
 32
0.0
 13
14594.923010661
 23
-5476.678576840516
 33
0.0
  0
MTEXT
  5
393
330
38B
100
AcDbEntity
  8
0
 62
     3
100
AcDbMText
 10
14591.923010661
 20
-5474.178576840515
 30
0.0
 40
3.0
 41
0.0
 71
     5
 72
     1
  1
\A1;6
1001
ACAD
1000
MTEXTBEGIN
1070
    73
1070
     1
1070
    44
1040
1.0
1070
    74
1070
     0
1000
MTEXTEND
  0
POINT
  5
394
330
38B
100
AcDbEntity
  8
DEFPOINTS
 62
     0
100
AcDbPoint
 10
14588.92301066101
 20
-5531.7341803452
 30
0.0
  0
POINT
  5
395
330
38B
100
AcDbEntity
  8
DEFPOINTS
 62
     0
100
AcDbPoint
 10
14594.923010661
 20
-5523.034181345198
 30
0.0
  0
POINT
  5
396
330
38B
100
AcDbEntity
  8
DEFPOINTS
 62
     0
100
AcDbPoint
 10
14594.923010661
 20
-5476.678576840516
 30
0.0
  0
ENDBLK
  5
398
330
38B
100
AcDbEntity
  8
0
100
AcDbBlockEnd
  0
BLOCK
  5
BF
330
B5
100
AcDbEntity
  8
0
100
AcDbBlockBegin
  2
*D16
 70
     1
 10
0.0
 20
0.0
 30
0.0
  3
*D16
  1

  0
LINE
  5
B6
330
B5
100
AcDbEntity
  8
0
 62
   123
100
AcDbLine
 10
14588.92301066101
 20
-5622.7341803452
 30
0.0
 11
14588.92301066101
 21
-5644.972980305696
 31
0.0
  0
LINE
  5
B7
330
B5
100
AcDbEntity
  8
0
 62
   123
100
AcDbLine
 10
14723.923010661
 20
-5615.734180345199
 30
0.0
 11
14723.923010661
 21
-5644.972980305696
 31
0.0
  0
LINE
  5
B8
330
B5
100
AcDbEntity
  8
0
 62
   123
100
AcDbLine
 10
14591.423010661
 20
-5644.372980305696
 30
0.0
 11
14721.423010661
 21
-5644.372980305696
 31
0.0
  0
SOLID
  5
B9
330
B5
100
AcDbEntity
  8
0
 62
   123
100
AcDbTrace
 10
14591.423010661
 20
-5643.95631363903
 30
0.0
 11
14591.423010661
 21
-5644.789646972363
 31
0.0
 12
14588.92301066101
 22
-5644.372980305696
 32
0.0
 13
14588.92301066101
 23
-5644.372980305696
 33
0.0
  0
SOLID
  5
BA
330
B5
100
AcDbEntity
  8
0
 62
   123
100
AcDbTrace
 10
14721.423010661
 20
-5643.95631363903
 30
0.0
 11
14721.423010661
 21
-5644.789646972363
 31
0.0
 12
14723.923010661
 22
-5644.372980305696
 32
0.0
 13
14723.923010661
 23
-5644.372980305696
 33
0.0
  0
MTEXT
  5
BB
330
B5
100
AcDbEntity
  8
0
 62
     3
100
AcDbMText
 10
14656.423010661
 20
-5641.872980305696
 30
0.0
 40
3.0
 41
0.0
 71
     5
 72
     1
  1
\A1;135
1001
ACAD
1000
MTEXTBEGIN
1070
    73
1070
     1
1070
    44
1040
1.0
1070
    74
1070
     0
1000
MTEXTEND
  0
POINT
  5
BC
330
B5
100
AcDbEntity
  8
DEFPOINTS
 62
     0
100
AcDbPoint
 10
14588.92301066101
 20
-5621.7341803452
 30
0.0
  0
POINT
  5
BD
330
B5
100
AcDbEntity
  8
DEFPOINTS
 62
     0
100
AcDbPoint
 10
14723.923010661
 20
-5614.7341803452
 30
0.0
  0
POINT
  5
BE
330
B5
100
AcDbEntity
  8
DEFPOINTS
 62
     0
100
AcDbPoint
 10
14723.923010661
 20
-5644.372980305696
 30
0.0
  0
ENDBLK
  5
C0
330
B5
100
AcDbEntity
  8
0
100
AcDbBlockEnd
  0
BLOCK
  5
1A0
330
196
100
AcDbEntity
  8
0
100
AcDbBlockBegin
  2
*D17
 70
     1
 10
0.0
 20
0.0
 30
0.0
  3
*D17
  1

  0
LINE
  5
197
330
196
100
AcDbEntity
  8
0
 62
   123
100
AcDbLine
 10
14609.45377511533
 20
-5848.187263545609
 30
0.0
 11
14609.45377511533
 21
-5862.22773122844
 31
0.0
  0
LINE
  5
198
330
196
100
AcDbEntity
  8
0
 62
   123
100
AcDbLine
 10
14616.95377511533
 20
-5846.786000887138
 30
0.0
 11
14616.95377511533
 21
-5862.22773122844
 31
0.0
  0
LINE
  5
199
330
196
100
AcDbEntity
  8
0
 62
   123
100
AcDbLine
 10
14611.95377511533
 20
-5861.62773122844
 30
0.0
 11
14614.45377511533
 21
-5861.62773122844
 31
0.0
  0
SOLID
  5
19A
330
196
100
AcDbEntity
  8
0
 62
   123
100
AcDbTrace
 10
14611.95377511533
 20
-5861.211064561772
 30
0.0
 11
14611.95377511533
 21
-5862.044397895108
 31
0.0
 12
14609.45377511533
 22
-5861.62773122844
 32
0.0
 13
14609.45377511533
 23
-5861.62773122844
 33
0.0
  0
SOLID
  5
19B
330
196
100
AcDbEntity
  8
0
 62
   123
100
AcDbTrace
 10
14614.45377511533
 20
-5861.211064561772
 30
0.0
 11
14614.45377511533
 21
-5862.044397895108
 31
0.0
 12
14616.95377511533
 22
-5861.62773122844
 32
0.0
 13
14616.95377511533
 23
-5861.62773122844
 33
0.0
  0
MTEXT
  5
19C
330
196
100
AcDbEntity
  8
0
 62
     3
100
AcDbMText
 10
14613.20377511533
 20
-5859.12773122844
 30
0.0
 40
3.0
 41
0.0
 71
     5
 72
     1
  1
\A1;7.5
1001
ACAD
1000
MTEXTBEGIN
1070
    73
1070
     1
1070
    44
1040
1.0
1070
    74
1070
     0
1000
MTEXTEND
  0
POINT
  5
19D
330
196
100
AcDbEntity
  8
DEFPOINTS
 62
     0
100
AcDbPoint
 10
14609.45377511533
 20
-5847.18726354561
 30
0.0
  0
POINT
  5
19E
330
196
100
AcDbEntity
  8
DEFPOINTS
 62
     0
100
AcDbPoint
 10
14616.95377511533
 20
-5845.786000887137
 30
0.0
  0
POINT
  5
19F
330
196
100
AcDbEntity
  8
DEFPOINTS
 62
     0
100
AcDbPoint
 10
14616.95377511533
 20
-5861.62773122844
 30
0.0
  0
ENDBLK
  5
1A1
330
196
100
AcDbEntity
  8
0
100
AcDbBlockEnd
  0
BLOCK
  5
18F
330
183
100
AcDbEntity
  8
0
100
AcDbBlockBegin
  2
*D18
 70
     1
 10
0.0
 20
0.0
 30
0.0
  3
*D18
  1

  0
LINE
  5
184
330
183
100
AcDbEntity
  8
0
 62
   123
100
AcDbLine
 10
14607.45377511533
 20
-5844.687263545609
 30
0.0
 11
14607.45377511533
 21
-5862.22773122844
 31
0.0
  0
LINE
  5
185
330
183
100
AcDbEntity
  8
0
 62
   123
100
AcDbLine
 10
14609.45377511533
 20
-5848.187263545609
 30
0.0
 11
14609.45377511533
 21
-5862.22773122844
 31
0.0
  0
LINE
  5
186
330
183
100
AcDbEntity
  8
0
 62
   123
100
AcDbLine
 10
14611.95377511533
 20
-5861.62773122844
 30
0.0
 11
14614.45377511533
 21
-5861.62773122844
 31
0.0
  0
LINE
  5
187
330
183
100
AcDbEntity
  8
0
 62
   123
100
AcDbLine
 10
14604.95377511533
 20
-5861.62773122844
 30
0.0
 11
14596.45377511533
 21
-5861.62773122844
 31
0.0
  0
LINE
  5
188
330
183
100
AcDbEntity
  8
0
 62
   123
100
AcDbLine
 10
14609.45377511533
 20
-5861.62773122844
 30
0.0
 11
14607.45377511533
 21
-5861.62773122844
 31
0.0
  0
SOLID
  5
189
330
183
100
AcDbEntity
  8
0
 62
   123
100
AcDbTrace
 10
14611.95377511533
 20
-5861.211064561772
 30
0.0
 11
14611.95377511533
 21
-5862.044397895108
 31
0.0
 12
14609.45377511533
 22
-5861.62773122844
 32
0.0
 13
14609.45377511533
 23
-5861.62773122844
 33
0.0
  0
SOLID
  5
18A
330
183
100
AcDbEntity
  8
0
 62
   123
100
AcDbTrace
 10
14604.95377511533
 20
-5861.211064561772
 30
0.0
 11
14604.95377511533
 21
-5862.044397895108
 31
0.0
 12
14607.45377511533
 22
-5861.62773122844
 32
0.0
 13
14607.45377511533
 23
-5861.62773122844
 33
0.0
  0
MTEXT
  5
18B
330
183
100
AcDbEntity
  8
0
 62
     3
100
AcDbMText
 10
14598.45377511533
 20
-5859.12773122844
 30
0.0
 40
3.0
 41
0.0
 71
     5
 72
     1
  1
\A1;2
1001
ACAD
1000
MTEXTBEGIN
1070
    73
1070
     1
1070
    44
1040
1.0
1070
    74
1070
     0
1000
MTEXTEND
  0
POINT
  5
18C
330
183
100
AcDbEntity
  8
DEFPOINTS
 62
     0
100
AcDbPoint
 10
14607.45377511533
 20
-5843.687263545611
 30
0.0
  0
POINT
  5
18D
330
183
100
AcDbEntity
  8
DEFPOINTS
 62
     0
100
AcDbPoint
 10
14609.45377511533
 20
-5847.18726354561
 30
0.0
  0
POINT
  5
18E
330
183
100
AcDbEntity
  8
DEFPOINTS
 62
     0
100
AcDbPoint
 10
14609.45377511533
 20
-5861.62773122844
 30
0.0
  0
ENDBLK
  5
190
330
183
100
AcDbEntity
  8
0
100
AcDbBlockEnd
  0
BLOCK
  5
1BE
330
1B4
100
AcDbEntity
  8
0
100
AcDbBlockBegin
  2
*D19
 70
     1
 10
0.0
 20
0.0
 30
0.0
  3
*D19
  1

  0
LINE
  5
1B5
330
1B4
100
AcDbEntity
  8
0
 62
   123
100
AcDbLine
 10
14571.45377511533
 20
-5808.187263545609
 30
0.0
 11
14559.38529423461
 21
-5808.187263545609
 31
0.0
  0
LINE
  5
1B6
330
1B4
100
AcDbEntity
  8
0
 62
   123
100
AcDbLine
 10
14571.45377511533
 20
-5797.187263545609
 30
0.0
 11
14559.38529423461
 21
-5797.187263545609
 31
0.0
  0
LINE
  5
1B7
330
1B4
100
AcDbEntity
  8
0
 62
   123
100
AcDbLine
 10
14559.98529423461
 20
-5805.68726354561
 30
0.0
 11
14559.98529423461
 21
-5799.687263545609
 31
0.0
  0
SOLID
  5
1B8
330
1B4
100
AcDbEntity
  8
0
 62
   123
100
AcDbTrace
 10
14559.56862756794
 20
-5805.68726354561
 30
0.0
 11
14560.40196090128
 21
-5805.68726354561
 31
0.0
 12
14559.98529423461
 22
-5808.187263545609
 32
0.0
 13
14559.98529423461
 23
-5808.187263545609
 33
0.0
  0
SOLID
  5
1B9
330
1B4
100
AcDbEntity
  8
0
 62
   123
100
AcDbTrace
 10
14559.56862756794
 20
-5799.687263545609
 30
0.0
 11
14560.40196090128
 21
-5799.687263545609
 31
0.0
 12
14559.98529423461
 22
-5797.187263545609
 32
0.0
 13
14559.98529423461
 23
-5797.187263545609
 33
0.0
  0
MTEXT
  5
1BA
330
1B4
100
AcDbEntity
  8
0
 62
     3
100
AcDbMText
 10
14557.48529423462
 20
-5802.687263545609
 30
0.0
 40
3.0
 41
0.0
 71
     5
 72
     1
  1
\A1;11
 11
0.0000000000000001
 21
1.0
 31
0.0
1001
ACAD
1000
MTEXTBEGIN
1070
    73
1070
     1
1070
    44
1040
1.0
1070
    74
1070
     0
1000
MTEXTEND
  0
POINT
  5
1BB
330
1B4
100
AcDbEntity
  8
DEFPOINTS
 62
     0
100
AcDbPoint
 10
14572.45377511533
 20
-5808.187263545609
 30
0.0
  0
POINT
  5
1BC
330
1B4
100
AcDbEntity
  8
DEFPOINTS
 62
     0
100
AcDbPoint
 10
14572.45377511533
 20
-5797.187263545609
 30
0.0
  0
POINT
  5
1BD
330
1B4
100
AcDbEntity
  8
DEFPOINTS
 62
     0
100
AcDbPoint
 10
14559.98529423461
 20
-5797.187263545609
 30
0.0
  0
ENDBLK
  5
1BF
330
1B4
100
AcDbEntity
  8
0
100
AcDbBlockEnd
  0
BLOCK
  5
131
330
127
100
AcDbEntity
  8
0
100
AcDbBlockBegin
  2
*D20
 70
     1
 10
0.0
 20
0.0
 30
0.0
  3
*D20
  1

  0
LINE
  5
128
330
127
100
AcDbEntity
  8
0
 62
   123
100
AcDbLine
 10
14606.45377511533
 20
-5760.687263545609
 30
0.0
 11
14537.37263389404
 21
-5760.687263545609
 31
0.0
  0
LINE
  5
129
330
127
100
AcDbEntity
  8
0
 62
   123
100
AcDbLine
 10
14606.45377511533
 20
-5843.687263545611
 30
0.0
 11
14537.37263389404
 21
-5843.687263545611
 31
0.0
  0
LINE
  5
12A
330
127
100
AcDbEntity
  8
0
 62
   123
100
AcDbLine
 10
14537.97263389404
 20
-5763.187263545609
 30
0.0
 11
14537.97263389404
 21
-5841.187263545609
 31
0.0
  0
SOLID
  5
12B
330
127
100
AcDbEntity
  8
0
 62
   123
100
AcDbTrace
 10
14537.55596722738
 20
-5763.187263545609
 30
0.0
 11
14538.38930056071
 21
-5763.187263545609
 31
0.0
 12
14537.97263389404
 22
-5760.687263545609
 32
0.0
 13
14537.97263389404
 23
-5760.687263545609
 33
0.0
  0
SOLID
  5
12C
330
127
100
AcDbEntity
  8
0
 62
   123
100
AcDbTrace
 10
14537.55596722738
 20
-5841.187263545609
 30
0.0
 11
14538.38930056071
 21
-5841.187263545609
 31
0.0
 12
14537.97263389404
 22
-5843.687263545611
 32
0.0
 13
14537.97263389404
 23
-5843.687263545611
 33
0.0
  0
MTEXT
  5
12D
330
127
100
AcDbEntity
  8
0
 62
     3
100
AcDbMText
 10
14534.02248389404
 20
-5804.20656198612
 30
0.0
 40
3.0
 41
0.0
 71
     5
 72
     1
  1
\A1;\A1;{\f??|b0|i0|c0|p49;%%c}83{\f??|b0|i0|c0|p49;\H0.7x;\S+0^ -0.035;\H1.429x;(h7)}
 11
0.0000000000000001
 21
1.0
 31
0.0
1001
ACAD
1000
MTEXTBEGIN
1070
    73
1070
     1
1070
    44
1040
1.0
1070
    74
1070
     0
1000
MTEXTEND
  0
POINT
  5
12E
330
127
100
AcDbEntity
  8
DEFPOINTS
 62
     0
100
AcDbPoint
 10
14607.45377511533
 20
-5760.687263545609
 30
0.0
  0
POINT
  5
12F
330
127
100
AcDbEntity
  8
DEFPOINTS
 62
     0
100
AcDbPoint
 10
14607.45377511533
 20
-5843.687263545611
 30
0.0
  0
POINT
  5
130
330
127
100
AcDbEntity
  8
DEFPOINTS
 62
     0
100
AcDbPoint
 10
14537.97263389404
 20
-5843.687263545611
 30
0.0
  0
ENDBLK
  5
132
330
127
100
AcDbEntity
  8
0
100
AcDbBlockEnd
  0
BLOCK
  5
122
330
118
100
AcDbEntity
  8
0
100
AcDbBlockBegin
  2
*D21
 70
     1
 10
0.0
 20
0.0
 30
0.0
  3
*D21
  1

  0
LINE
  5
119
330
118
100
AcDbEntity
  8
0
 62
   123
100
AcDbLine
 10
14571.45377511533
 20
-5808.187263545609
 30
0.0
 11
14549.67263928173
 21
-5808.187263545609
 31
0.0
  0
LINE
  5
11A
330
118
100
AcDbEntity
  8
0
 62
   123
100
AcDbLine
 10
14601.45377511533
 20
-5796.187263545609
 30
0.0
 11
14549.67263928173
 21
-5796.187263545609
 31
0.0
  0
LINE
  5
11B
330
118
100
AcDbEntity
  8
0
 62
   123
100
AcDbLine
 10
14550.27263928173
 20
-5805.68726354561
 30
0.0
 11
14550.27263928173
 21
-5798.687263545609
 31
0.0
  0
SOLID
  5
11C
330
118
100
AcDbEntity
  8
0
 62
   123
100
AcDbTrace
 10
14549.85597261506
 20
-5805.68726354561
 30
0.0
 11
14550.6893059484
 21
-5805.68726354561
 31
0.0
 12
14550.27263928173
 22
-5808.187263545609
 32
0.0
 13
14550.27263928173
 23
-5808.187263545609
 33
0.0
  0
SOLID
  5
11D
330
118
100
AcDbEntity
  8
0
 62
   123
100
AcDbTrace
 10
14549.85597261506
 20
-5798.687263545609
 30
0.0
 11
14550.6893059484
 21
-5798.687263545609
 31
0.0
 12
14550.27263928173
 22
-5796.187263545609
 32
0.0
 13
14550.27263928173
 23
-5796.187263545609
 33
0.0
  0
MTEXT
  5
11E
330
118
100
AcDbEntity
  8
0
 62
     3
100
AcDbMText
 10
14546.32248928173
 20
-5802.187263545607
 30
0.0
 40
3.0
 41
0.0
 71
     5
 72
     1
  1
\A1;\A1;{\f??|b0|i0|c0|p49;%%C}12{\f??|b0|i0|c0|p49;\H0.7x;\S+0^ -0.018;\H1.429x;(h}7{\f??|b0|i0|c0|p49;)}
 11
0.0000000000000001
 21
1.0
 31
0.0
1001
ACAD
1000
MTEXTBEGIN
1070
    73
1070
     1
1070
    44
1040
1.0
1070
    74
1070
     0
1000
MTEXTEND
  0
POINT
  5
11F
330
118
100
AcDbEntity
  8
DEFPOINTS
 62
     0
100
AcDbPoint
 10
14572.45377511533
 20
-5808.187263545609
 30
0.0
  0
POINT
  5
120
330
118
100
AcDbEntity
  8
DEFPOINTS
 62
     0
100
AcDbPoint
 10
14602.45377511533
 20
-5796.187263545609
 30
0.0
  0
POINT
  5
121
330
118
100
AcDbEntity
  8
DEFPOINTS
 62
     0
100
AcDbPoint
 10
14550.27263928173
 20
-5796.187263545609
 30
0.0
  0
ENDBLK
  5
123
330
118
100
AcDbEntity
  8
0
100
AcDbBlockEnd
  0
BLOCK
  5
1D2
330
1C8
100
AcDbEntity
  8
0
100
AcDbBlockBegin
  2
*D22
 70
     1
 10
0.0
 20
0.0
 30
0.0
  3
*D22
  1

  0
LINE
  5
1C9
330
1C8
100
AcDbEntity
  8
0
 62
   123
100
AcDbLine
 10
14572.45377511533
 20
-5809.187263545609
 30
0.0
 11
14572.45377511533
 21
-5872.239829746203
 31
0.0
  0
LINE
  5
1CA
330
1C8
100
AcDbEntity
  8
0
 62
   123
100
AcDbLine
 10
14609.45377511533
 20
-5848.187263545609
 30
0.0
 11
14609.45377511533
 21
-5872.239829746203
 31
0.0
  0
LINE
  5
1CB
330
1C8
100
AcDbEntity
  8
0
 62
   123
100
AcDbLine
 10
14574.95377511533
 20
-5871.639829746204
 30
0.0
 11
14606.95377511533
 21
-5871.639829746204
 31
0.0
  0
SOLID
  5
1CC
330
1C8
100
AcDbEntity
  8
0
 62
   123
100
AcDbTrace
 10
14574.95377511533
 20
-5871.223163079537
 30
0.0
 11
14574.95377511533
 21
-5872.05649641287
 31
0.0
 12
14572.45377511533
 22
-5871.639829746204
 32
0.0
 13
14572.45377511533
 23
-5871.639829746204
 33
0.0
  0
SOLID
  5
1CD
330
1C8
100
AcDbEntity
  8
0
 62
   123
100
AcDbTrace
 10
14606.95377511533
 20
-5871.223163079537
 30
0.0
 11
14606.95377511533
 21
-5872.05649641287
 31
0.0
 12
14609.45377511533
 22
-5871.639829746204
 32
0.0
 13
14609.45377511533
 23
-5871.639829746204
 33
0.0
  0
MTEXT
  5
1CE
330
1C8
100
AcDbEntity
  8
0
 62
     3
100
AcDbMText
 10
14590.95377511533
 20
-5869.139829746202
 30
0.0
 40
3.0
 41
0.0
 71
     5
 72
     1
  1
\A1;37
1001
ACAD
1000
MTEXTBEGIN
1070
    73
1070
     1
1070
    44
1040
1.0
1070
    74
1070
     0
1000
MTEXTEND
  0
POINT
  5
1CF
330
1C8
100
AcDbEntity
  8
DEFPOINTS
 62
     0
100
AcDbPoint
 10
14572.45377511533
 20
-5808.187263545609
 30
0.0
  0
POINT
  5
1D0
330
1C8
100
AcDbEntity
  8
DEFPOINTS
 62
     0
100
AcDbPoint
 10
14609.45377511533
 20
-5847.18726354561
 30
0.0
  0
POINT
  5
1D1
330
1C8
100
AcDbEntity
  8
DEFPOINTS
 62
     0
100
AcDbPoint
 10
14609.45377511533
 20
-5871.639829746204
 30
0.0
  0
ENDBLK
  5
1D3
330
1C8
100
AcDbEntity
  8
0
100
AcDbBlockEnd
  0
BLOCK
  5
113
330
109
100
AcDbEntity
  8
0
100
AcDbBlockBegin
  2
*D23
 70
     1
 10
0.0
 20
0.0
 30
0.0
  3
*D23
  1

  0
LINE
  5
10A
330
109
100
AcDbEntity
  8
0
 62
   123
100
AcDbLine
 10
14572.45377511533
 20
-5796.187263545609
 30
0.0
 11
14572.45377511533
 21
-5785.513906136205
 31
0.0
  0
LINE
  5
10B
330
109
100
AcDbEntity
  8
0
 62
   123
100
AcDbLine
 10
14602.45377511533
 20
-5795.187263545609
 30
0.0
 11
14602.45377511533
 21
-5785.513906136205
 31
0.0
  0
LINE
  5
10C
330
109
100
AcDbEntity
  8
0
 62
   123
100
AcDbLine
 10
14574.95377511533
 20
-5786.113906136208
 30
0.0
 11
14599.95377511533
 21
-5786.113906136208
 31
0.0
  0
SOLID
  5
10D
330
109
100
AcDbEntity
  8
0
 62
   123
100
AcDbTrace
 10
14574.95377511533
 20
-5785.69723946954
 30
0.0
 11
14574.95377511533
 21
-5786.530572802874
 31
0.0
 12
14572.45377511533
 22
-5786.113906136208
 32
0.0
 13
14572.45377511533
 23
-5786.113906136208
 33
0.0
  0
SOLID
  5
10E
330
109
100
AcDbEntity
  8
0
 62
   123
100
AcDbTrace
 10
14599.95377511533
 20
-5785.69723946954
 30
0.0
 11
14599.95377511533
 21
-5786.530572802874
 31
0.0
 12
14602.45377511533
 22
-5786.113906136208
 32
0.0
 13
14602.45377511533
 23
-5786.113906136208
 33
0.0
  0
MTEXT
  5
10F
330
109
100
AcDbEntity
  8
0
 62
     3
100
AcDbMText
 10
14588.71245947983
 20
-5783.613906136206
 30
0.0
 40
3.0
 41
0.0
 71
     5
 72
     1
  1
\A1;30
1001
ACAD
1000
MTEXTBEGIN
1070
    73
1070
     1
1070
    44
1040
1.0
1070
    74
1070
     0
1000
MTEXTEND
  0
POINT
  5
110
330
109
100
AcDbEntity
  8
DEFPOINTS
 62
     0
100
AcDbPoint
 10
14572.45377511533
 20
-5797.187263545609
 30
0.0
  0
POINT
  5
111
330
109
100
AcDbEntity
  8
DEFPOINTS
 62
     0
100
AcDbPoint
 10
14602.45377511533
 20
-5796.187263545609
 30
0.0
  0
POINT
  5
112
330
109
100
AcDbEntity
  8
DEFPOINTS
 62
     0
100
AcDbPoint
 10
14602.45377511533
 20
-5786.113906136208
 30
0.0
  0
ENDBLK
  5
114
330
109
100
AcDbEntity
  8
0
100
AcDbBlockEnd
  0
BLOCK
  5
179
330
16F
100
AcDbEntity
  8
0
100
AcDbBlockBegin
  2
*D24
 70
     1
 10
0.0
 20
0.0
 30
0.0
  3
*D24
  1

  0
LINE
  5
170
330
16F
100
AcDbEntity
  8
0
 62
   123
100
AcDbLine
 10
14609.45377511533
 20
-5848.187263545609
 30
0.0
 11
14609.45377511533
 21
-5872.239829746203
 31
0.0
  0
LINE
  5
171
330
16F
100
AcDbEntity
  8
0
 62
   123
100
AcDbLine
 10
14744.45377511533
 20
-5841.187263545609
 30
0.0
 11
14744.45377511533
 21
-5872.239829746203
 31
0.0
  0
LINE
  5
172
330
16F
100
AcDbEntity
  8
0
 62
   123
100
AcDbLine
 10
14611.95377511533
 20
-5871.639829746204
 30
0.0
 11
14741.95377511533
 21
-5871.639829746204
 31
0.0
  0
SOLID
  5
173
330
16F
100
AcDbEntity
  8
0
 62
   123
100
AcDbTrace
 10
14611.95377511533
 20
-5871.223163079537
 30
0.0
 11
14611.95377511533
 21
-5872.05649641287
 31
0.0
 12
14609.45377511533
 22
-5871.639829746204
 32
0.0
 13
14609.45377511533
 23
-5871.639829746204
 33
0.0
  0
SOLID
  5
174
330
16F
100
AcDbEntity
  8
0
 62
   123
100
AcDbTrace
 10
14741.95377511533
 20
-5871.223163079537
 30
0.0
 11
14741.95377511533
 21
-5872.05649641287
 31
0.0
 12
14744.45377511533
 22
-5871.639829746204
 32
0.0
 13
14744.45377511533
 23
-5871.639829746204
 33
0.0
  0
MTEXT
  5
175
330
16F
100
AcDbEntity
  8
0
 62
     3
100
AcDbMText
 10
14676.95377511533
 20
-5869.139829746202
 30
0.0
 40
3.0
 41
0.0
 71
     5
 72
     1
  1
\A1;135
1001
ACAD
1000
MTEXTBEGIN
1070
    73
1070
     1
1070
    44
1040
1.0
1070
    74
1070
     0
1000
MTEXTEND
  0
POINT
  5
176
330
16F
100
AcDbEntity
  8
DEFPOINTS
 62
     0
100
AcDbPoint
 10
14609.45377511533
 20
-5847.18726354561
 30
0.0
  0
POINT
  5
177
330
16F
100
AcDbEntity
  8
DEFPOINTS
 62
     0
100
AcDbPoint
 10
14744.45377511533
 20
-5840.187263545609
 30
0.0
  0
POINT
  5
178
330
16F
100
AcDbEntity
  8
DEFPOINTS
 62
     0
100
AcDbPoint
 10
14744.45377511533
 20
-5871.639829746204
 30
0.0
  0
ENDBLK
  5
17A
330
16F
100
AcDbEntity
  8
0
100
AcDbBlockEnd
  0
BLOCK
  5
1FB
330
1F1
100
AcDbEntity
  8
0
100
AcDbBlockBegin
  2
*D25
 70
     1
 10
0.0
 20
0.0
 30
0.0
  3
*D25
  1

  0
LINE
  5
1F2
330
1F1
100
AcDbEntity
  8
0
 62
   123
100
AcDbLine
 10
14441.86996056384
 20
-5748.187263545539
 30
0.0
 11
14441.86996056384
 21
-5699.677533950115
 31
0.0
  0
LINE
  5
1F3
330
1F1
100
AcDbEntity
  8
0
 62
   123
100
AcDbLine
 10
14503.86996056383
 20
-5748.187263545539
 30
0.0
 11
14503.86996056383
 21
-5699.677533950115
 31
0.0
  0
LINE
  5
1F4
330
1F1
100
AcDbEntity
  8
0
 62
   123
100
AcDbLine
 10
14444.36996056384
 20
-5700.277533950115
 30
0.0
 11
14501.36996056382
 21
-5700.277533950115
 31
0.0
  0
SOLID
  5
1F5
330
1F1
100
AcDbEntity
  8
0
 62
   123
100
AcDbTrace
 10
14444.36996056384
 20
-5699.860867283447
 30
0.0
 11
14444.36996056384
 21
-5700.694200616782
 31
0.0
 12
14441.86996056384
 22
-5700.277533950115
 32
0.0
 13
14441.86996056384
 23
-5700.277533950115
 33
0.0
  0
SOLID
  5
1F6
330
1F1
100
AcDbEntity
  8
0
 62
   123
100
AcDbTrace
 10
14501.36996056382
 20
-5699.860867283447
 30
0.0
 11
14501.36996056382
 21
-5700.694200616782
 31
0.0
 12
14503.86996056383
 22
-5700.277533950115
 32
0.0
 13
14503.86996056383
 23
-5700.277533950115
 33
0.0
  0
MTEXT
  5
1F7
330
1F1
100
AcDbEntity
  8
0
 62
     3
100
AcDbMText
 10
14472.86996056384
 20
-5697.777533950115
 30
0.0
 40
3.0
 41
0.0
 71
     5
 72
     1
  1
\A1;62
1001
ACAD
1000
MTEXTBEGIN
1070
    73
1070
     1
1070
    44
1040
1.0
1070
    74
1070
     0
1000
MTEXTEND
  0
POINT
  5
1F8
330
1F1
100
AcDbEntity
  8
DEFPOINTS
 62
     0
100
AcDbPoint
 10
14441.86996056384
 20
-5749.18726354554
 30
0.0
  0
POINT
  5
1F9
330
1F1
100
AcDbEntity
  8
DEFPOINTS
 62
     0
100
AcDbPoint
 10
14503.86996056383
 20
-5749.18726354554
 30
0.0
  0
POINT
  5
1FA
330
1F1
100
AcDbEntity
  8
DEFPOINTS
 62
     0
100
AcDbPoint
 10
14503.86996056383
 20
-5700.277533950115
 30
0.0
  0
ENDBLK
  5
1FC
330
1F1
100
AcDbEntity
  8
0
100
AcDbBlockEnd
  0
BLOCK
  5
24B
330
241
100
AcDbEntity
  8
0
100
AcDbBlockBegin
  2
*D26
 70
     1
 10
0.0
 20
0.0
 30
0.0
  3
*D26
  1

  0
LINE
  5
242
330
241
100
AcDbEntity
  8
0
 62
   123
100
AcDbLine
 10
14690.45044211533
 20
-5716.187264545608
 30
0.0
 11
14690.45044211533
 21
-5701.548231061435
 31
0.0
  0
LINE
  5
243
330
241
100
AcDbEntity
  8
0
 62
   123
100
AcDbLine
 10
14718.45044211533
 20
-5724.187264545608
 30
0.0
 11
14718.45044211533
 21
-5701.548231061435
 31
0.0
  0
LINE
  5
244
330
241
100
AcDbEntity
  8
0
 62
   123
100
AcDbLine
 10
14692.95044211533
 20
-5702.148231061435
 30
0.0
 11
14715.95044211533
 21
-5702.148231061435
 31
0.0
  0
SOLID
  5
245
330
241
100
AcDbEntity
  8
0
 62
   123
100
AcDbTrace
 10
14692.95044211533
 20
-5701.731564394769
 30
0.0
 11
14692.95044211533
 21
-5702.564897728104
 31
0.0
 12
14690.45044211533
 22
-5702.148231061435
 32
0.0
 13
14690.45044211533
 23
-5702.148231061435
 33
0.0
  0
SOLID
  5
246
330
241
100
AcDbEntity
  8
0
 62
   123
100
AcDbTrace
 10
14715.95044211533
 20
-5701.731564394769
 30
0.0
 11
14715.95044211533
 21
-5702.564897728104
 31
0.0
 12
14718.45044211533
 22
-5702.148231061435
 32
0.0
 13
14718.45044211533
 23
-5702.148231061435
 33
0.0
  0
MTEXT
  5
247
330
241
100
AcDbEntity
  8
0
 62
     3
100
AcDbMText
 10
14704.45044211533
 20
-5699.648231061435
 30
0.0
 40
3.0
 41
0.0
 71
     5
 72
     1
  1
\A1;MAX. 28
1001
ACAD
1000
MTEXTBEGIN
1070
    73
1070
     1
1070
    44
1040
1.0
1070
    74
1070
     0
1000
MTEXTEND
  0
POINT
  5
248
330
241
100
AcDbEntity
  8
DEFPOINTS
 62
     0
100
AcDbPoint
 10
14690.45044211533
 20
-5717.187264545607
 30
0.0
  0
POINT
  5
249
330
241
100
AcDbEntity
  8
DEFPOINTS
 62
     0
100
AcDbPoint
 10
14718.45044211533
 20
-5725.187264545608
 30
0.0
  0
POINT
  5
24A
330
241
100
AcDbEntity
  8
DEFPOINTS
 62
     0
100
AcDbPoint
 10
14718.45044211533
 20
-5702.148231061435
 30
0.0
  0
ENDBLK
  5
24C
330
241
100
AcDbEntity
  8
0
100
AcDbBlockEnd
  0
BLOCK
  5
23C
330
230
100
AcDbEntity
  8
0
100
AcDbBlockBegin
  2
*D27
 70
     1
 10
0.0
 20
0.0
 30
0.0
  3
*D27
  1

  0
LINE
  5
231
330
230
100
AcDbEntity
  8
0
 62
   123
100
AcDbLine
 10
14609.45377511533
 20
-5756.187263545609
 30
0.0
 11
14609.45377511533
 21
-5701.531660040924
 31
0.0
  0
LINE
  5
232
330
230
100
AcDbEntity
  8
0
 62
   123
100
AcDbLine
 10
14615.45377511533
 20
-5747.487264545608
 30
0.0
 11
14615.45377511533
 21
-5701.531660040924
 31
0.0
  0
LINE
  5
233
330
230
100
AcDbEntity
  8
0
 62
   123
100
AcDbLine
 10
14606.95377511533
 20
-5702.131660040926
 30
0.0
 11
14604.45377511533
 21
-5702.131660040926
 31
0.0
  0
LINE
  5
234
330
230
100
AcDbEntity
  8
0
 62
   123
100
AcDbLine
 10
14617.95377511533
 20
-5702.131660040926
 30
0.0
 11
14620.45377511533
 21
-5702.131660040926
 31
0.0
  0
LINE
  5
235
330
230
100
AcDbEntity
  8
0
 62
   123
100
AcDbLine
 10
14609.45377511533
 20
-5702.131660040926
 30
0.0
 11
14615.45377511533
 21
-5702.131660040926
 31
0.0
  0
SOLID
  5
236
330
230
100
AcDbEntity
  8
0
 62
   123
100
AcDbTrace
 10
14606.95377511533
 20
-5701.714993374258
 30
0.0
 11
14606.95377511533
 21
-5702.548326707591
 31
0.0
 12
14609.45377511533
 22
-5702.131660040926
 32
0.0
 13
14609.45377511533
 23
-5702.131660040926
 33
0.0
  0
SOLID
  5
237
330
230
100
AcDbEntity
  8
0
 62
   123
100
AcDbTrace
 10
14617.95377511533
 20
-5701.714993374258
 30
0.0
 11
14617.95377511533
 21
-5702.548326707591
 31
0.0
 12
14615.45377511533
 22
-5702.131660040926
 32
0.0
 13
14615.45377511533
 23
-5702.131660040926
 33
0.0
  0
MTEXT
  5
238
330
230
100
AcDbEntity
  8
0
 62
     3
100
AcDbMText
 10
14612.45377511533
 20
-5699.631660040926
 30
0.0
 40
3.0
 41
0.0
 71
     5
 72
     1
  1
\A1;6
1001
ACAD
1000
MTEXTBEGIN
1070
    73
1070
     1
1070
    44
1040
1.0
1070
    74
1070
     0
1000
MTEXTEND
  0
POINT
  5
239
330
230
100
AcDbEntity
  8
DEFPOINTS
 62
     0
100
AcDbPoint
 10
14609.45377511533
 20
-5757.18726354561
 30
0.0
  0
POINT
  5
23A
330
230
100
AcDbEntity
  8
DEFPOINTS
 62
     0
100
AcDbPoint
 10
14615.45377511533
 20
-5748.487264545607
 30
0.0
  0
POINT
  5
23B
330
230
100
AcDbEntity
  8
DEFPOINTS
 62
     0
100
AcDbPoint
 10
14615.45377511533
 20
-5702.131660040926
 30
0.0
  0
ENDBLK
  5
23D
330
230
100
AcDbEntity
  8
0
100
AcDbBlockEnd
  0
BLOCK
  5
22B
330
221
100
AcDbEntity
  8
0
100
AcDbBlockBegin
  2
*D28
 70
     1
 10
0.0
 20
0.0
 30
0.0
  3
*D28
  1

  0
LINE
  5
222
330
221
100
AcDbEntity
  8
0
 62
   123
100
AcDbLine
 10
14615.45377511533
 20
-5747.487264545608
 30
0.0
 11
14615.45377511533
 21
-5701.531660040924
 31
0.0
  0
LINE
  5
223
330
221
100
AcDbEntity
  8
0
 62
   123
100
AcDbLine
 10
14690.45044211533
 20
-5716.187264545608
 30
0.0
 11
14690.45044211533
 21
-5701.531660040924
 31
0.0
  0
LINE
  5
224
330
221
100
AcDbEntity
  8
0
 62
   123
100
AcDbLine
 10
14617.95377511533
 20
-5702.131660040926
 30
0.0
 11
14687.95044211533
 21
-5702.131660040926
 31
0.0
  0
SOLID
  5
225
330
221
100
AcDbEntity
  8
0
 62
   123
100
AcDbTrace
 10
14617.95377511533
 20
-5701.714993374258
 30
0.0
 11
14617.95377511533
 21
-5702.548326707591
 31
0.0
 12
14615.45377511533
 22
-5702.131660040926
 32
0.0
 13
14615.45377511533
 23
-5702.131660040926
 33
0.0
  0
SOLID
  5
226
330
221
100
AcDbEntity
  8
0
 62
   123
100
AcDbTrace
 10
14687.95044211533
 20
-5701.714993374258
 30
0.0
 11
14687.95044211533
 21
-5702.548326707591
 31
0.0
 12
14690.45044211533
 22
-5702.131660040926
 32
0.0
 13
14690.45044211533
 23
-5702.131660040926
 33
0.0
  0
MTEXT
  5
227
330
221
100
AcDbEntity
  8
0
 62
     3
100
AcDbMText
 10
14646.35365235809
 20
-5699.631660040926
 30
0.0
 40
3.0
 41
0.0
 71
     5
 72
     1
  1
\A1;75
1001
ACAD
1000
MTEXTBEGIN
1070
    73
1070
     1
1070
    44
1040
1.0
1070
    74
1070
     0
1000
MTEXTEND
  0
POINT
  5
228
330
221
100
AcDbEntity
  8
DEFPOINTS
 62
     0
100
AcDbPoint
 10
14615.45377511533
 20
-5748.487264545607
 30
0.0
  0
POINT
  5
229
330
221
100
AcDbEntity
  8
DEFPOINTS
 62
     0
100
AcDbPoint
 10
14690.45044211533
 20
-5717.187264545607
 30
0.0
  0
POINT
  5
22A
330
221
100
AcDbEntity
  8
DEFPOINTS
 62
     0
100
AcDbPoint
 10
14690.45044211533
 20
-5702.131660040926
 30
0.0
  0
ENDBLK
  5
22C
330
221
100
AcDbEntity
  8
0
100
AcDbBlockEnd
  0
BLOCK
  5
3B9
330
3AF
100
AcDbEntity
  8
0
100
AcDbBlockBegin
  2
*D29
 70
     1
 10
0.0
 20
0.0
 30
0.0
  3
*D29
  1

  0
LINE
  5
3B0
330
3AF
100
AcDbEntity
  8
0
 62
   123
100
AcDbLine
 10
139.805775846049
 20
281.0832638864376
 30
0.0
 11
139.805775846049
 21
218.4944639259423
 31
0.0
  0
LINE
  5
3B1
330
3AF
100
AcDbEntity
  8
0
 62
   123
100
AcDbLine
 10
160.805775846049
 20
240.7332638864381
 30
0.0
 11
160.805775846049
 21
218.4944639259423
 31
0.0
  0
LINE
  5
3B2
330
3AF
100
AcDbEntity
  8
0
 62
   123
100
AcDbLine
 10
142.305775846049
 20
219.0944639259423
 30
0.0
 11
158.305775846049
 21
219.0944639259423
 31
0.0
  0
SOLID
  5
3B3
330
3AF
100
AcDbEntity
  8
0
 62
   123
100
AcDbTrace
 10
142.305775846049
 20
219.511130592609
 30
0.0
 11
142.305775846049
 21
218.6777972592757
 31
0.0
 12
139.805775846049
 22
219.0944639259423
 32
0.0
 13
139.805775846049
 23
219.0944639259423
 33
0.0
  0
SOLID
  5
3B4
330
3AF
100
AcDbEntity
  8
0
 62
   123
100
AcDbTrace
 10
158.305775846049
 20
219.511130592609
 30
0.0
 11
158.305775846049
 21
218.6777972592757
 31
0.0
 12
160.805775846049
 22
219.0944639259423
 32
0.0
 13
160.805775846049
 23
219.0944639259423
 33
0.0
  0
MTEXT
  5
3B5
330
3AF
100
AcDbEntity
  8
0
 62
     3
100
AcDbMText
 10
151.805775846049
 20
221.5944639259423
 30
0.0
 40
3.0
 41
0.0
 71
     5
 72
     1
  1
\A1;21
1001
ACAD
1000
MTEXTBEGIN
1070
    73
1070
     1
1070
    44
1040
1.0
1070
    74
1070
     0
1000
MTEXTEND
  0
POINT
  5
3B6
330
3AF
100
AcDbEntity
  8
DEFPOINTS
 62
     0
100
AcDbPoint
 10
139.805775846049
 20
282.0832638864376
 30
0.0
  0
POINT
  5
3B7
330
3AF
100
AcDbEntity
  8
DEFPOINTS
 62
     0
100
AcDbPoint
 10
160.805775846049
 20
241.7332638864381
 30
0.0
  0
POINT
  5
3B8
330
3AF
100
AcDbEntity
  8
DEFPOINTS
 62
     0
100
AcDbPoint
 10
160.805775846049
 20
219.0944639259423
 30
0.0
  0
ENDBLK
  5
3BA
330
3AF
100
AcDbEntity
  8
0
100
AcDbBlockEnd
  0
BLOCK
  5
3C5
330
3BB
100
AcDbEntity
  8
0
100
AcDbBlockBegin
  2
*D30
 70
     1
 10
0.0
 20
0.0
 30
0.0
  3
*D30
  1

  0
LINE
  5
3BC
330
3BB
100
AcDbEntity
  8
0
 62
   123
100
AcDbLine
 10
157.805775846049
 20
328.2332638864382
 30
0.0
 11
129.7140167277216
 21
328.2332638864382
 31
0.0
  0
LINE
  5
3BD
330
3BB
100
AcDbEntity
  8
0
 62
   123
100
AcDbLine
 10
157.805775846049
 20
245.2332638864363
 30
0.0
 11
129.7140167277215
 21
245.2332638864363
 31
0.0
  0
LINE
  5
3BE
330
3BB
100
AcDbEntity
  8
0
 62
   123
100
AcDbLine
 10
130.3140167277216
 20
325.7332638864381
 30
0.0
 11
130.3140167277215
 21
247.7332638864363
 31
0.0
  0
SOLID
  5
3BF
330
3BB
100
AcDbEntity
  8
0
 62
   123
100
AcDbTrace
 10
129.8973500610549
 20
325.7332638864381
 30
0.0
 11
130.7306833943882
 21
325.7332638864381
 31
0.0
 12
130.3140167277216
 22
328.2332638864382
 32
0.0
 13
130.3140167277216
 23
328.2332638864382
 33
0.0
  0
SOLID
  5
3C0
330
3BB
100
AcDbEntity
  8
0
 62
   123
100
AcDbTrace
 10
129.8973500610549
 20
247.7332638864363
 30
0.0
 11
130.7306833943882
 21
247.7332638864363
 31
0.0
 12
130.3140167277215
 22
245.2332638864363
 32
0.0
 13
130.3140167277215
 23
245.2332638864363
 33
0.0
  0
MTEXT
  5
3C1
330
3BB
100
AcDbEntity
  8
0
 62
     3
100
AcDbMText
 10
126.3638667277215
 20
284.7139654459279
 30
0.0
 40
3.0
 41
0.0
 71
     5
 72
     1
  1
\A1;\A1;{\f??|b0|i0|c0|p49;%%c}83{\f??|b0|i0|c0|p49;\H0.7x;\S+0^ -0.035;\H1.429x;(h7)}
 11
0.0000000000000001
 21
1.0
 31
0.0
1001
ACAD
1000
MTEXTBEGIN
1070
    73
1070
     1
1070
    44
1040
1.0
1070
    74
1070
     0
1000
MTEXTEND
  0
POINT
  5
3C2
330
3BB
100
AcDbEntity
  8
DEFPOINTS
 62
     0
100
AcDbPoint
 10
158.805775846049
 20
328.2332638864382
 30
0.0
  0
POINT
  5
3C3
330
3BB
100
AcDbEntity
  8
DEFPOINTS
 62
     0
100
AcDbPoint
 10
158.805775846049
 20
245.2332638864363
 30
0.0
  0
POINT
  5
3C4
330
3BB
100
AcDbEntity
  8
DEFPOINTS
 62
     0
100
AcDbPoint
 10
130.3140167277215
 20
245.2332638864363
 30
0.0
  0
ENDBLK
  5
3C6
330
3BB
100
AcDbEntity
  8
0
100
AcDbBlockEnd
  0
BLOCK
  5
3D1
330
3C7
100
AcDbEntity
  8
0
100
AcDbBlockBegin
  2
*D31
 70
     1
 10
0.0
 20
0.0
 30
0.0
  3
*D31
  1

  0
LINE
  5
3C8
330
3C7
100
AcDbEntity
  8
0
 62
   123
100
AcDbLine
 10
160.805775846049
 20
240.7332638864381
 30
0.0
 11
160.805775846049
 21
218.4944639259423
 31
0.0
  0
LINE
  5
3C9
330
3C7
100
AcDbEntity
  8
0
 62
   123
100
AcDbLine
 10
295.805775846049
 20
247.7332638864381
 30
0.0
 11
295.805775846049
 21
218.4944639259423
 31
0.0
  0
LINE
  5
3CA
330
3C7
100
AcDbEntity
  8
0
 62
   123
100
AcDbLine
 10
163.305775846049
 20
219.0944639259423
 30
0.0
 11
293.305775846049
 21
219.0944639259423
 31
0.0
  0
SOLID
  5
3CB
330
3C7
100
AcDbEntity
  8
0
 62
   123
100
AcDbTrace
 10
163.305775846049
 20
219.511130592609
 30
0.0
 11
163.305775846049
 21
218.6777972592757
 31
0.0
 12
160.805775846049
 22
219.0944639259423
 32
0.0
 13
160.805775846049
 23
219.0944639259423
 33
0.0
  0
SOLID
  5
3CC
330
3C7
100
AcDbEntity
  8
0
 62
   123
100
AcDbTrace
 10
293.305775846049
 20
219.511130592609
 30
0.0
 11
293.305775846049
 21
218.6777972592757
 31
0.0
 12
295.805775846049
 22
219.0944639259423
 32
0.0
 13
295.805775846049
 23
219.0944639259423
 33
0.0
  0
MTEXT
  5
3CD
330
3C7
100
AcDbEntity
  8
0
 62
     3
100
AcDbMText
 10
228.305775846049
 20
221.5944639259423
 30
0.0
 40
3.0
 41
0.0
 71
     5
 72
     1
  1
\A1;135
1001
ACAD
1000
MTEXTBEGIN
1070
    73
1070
     1
1070
    44
1040
1.0
1070
    74
1070
     0
1000
MTEXTEND
  0
POINT
  5
3CE
330
3C7
100
AcDbEntity
  8
DEFPOINTS
 62
     0
100
AcDbPoint
 10
160.805775846049
 20
241.7332638864381
 30
0.0
  0
POINT
  5
3CF
330
3C7
100
AcDbEntity
  8
DEFPOINTS
 62
     0
100
AcDbPoint
 10
295.805775846049
 20
248.7332638864381
 30
0.0
  0
POINT
  5
3D0
330
3C7
100
AcDbEntity
  8
DEFPOINTS
 62
     0
100
AcDbPoint
 10
295.805775846049
 20
219.0944639259423
 30
0.0
  0
ENDBLK
  5
3D2
330
3C7
100
AcDbEntity
  8
0
100
AcDbBlockEnd
  0
BLOCK
  5
3DD
330
3D3
100
AcDbEntity
  8
0
100
AcDbBlockBegin
  2
*D32
 70
     1
 10
0.0
 20
0.0
 30
0.0
  3
*D32
  1

  0
LINE
  5
3D4
330
3D3
100
AcDbEntity
  8
0
 62
   123
100
AcDbLine
 10
290.805775846049
 20
331.7332638864381
 30
0.0
 11
310.0797862904416
 21
331.7332638864381
 31
0.0
  0
LINE
  5
3D5
330
3D3
100
AcDbEntity
  8
0
 62
   123
100
AcDbLine
 10
290.805775846049
 20
241.7332638864381
 30
0.0
 11
310.0797862904416
 21
241.7332638864381
 31
0.0
  0
LINE
  5
3D6
330
3D3
100
AcDbEntity
  8
0
 62
   123
100
AcDbLine
 10
309.4797862904416
 20
329.2332638864381
 30
0.0
 11
309.4797862904416
 21
244.2332638864381
 31
0.0
  0
SOLID
  5
3D7
330
3D3
100
AcDbEntity
  8
0
 62
   123
100
AcDbTrace
 10
309.0631196237749
 20
329.2332638864381
 30
0.0
 11
309.8964529571083
 21
329.2332638864381
 31
0.0
 12
309.4797862904416
 22
331.7332638864381
 32
0.0
 13
309.4797862904416
 23
331.7332638864381
 33
0.0
  0
SOLID
  5
3D8
330
3D3
100
AcDbEntity
  8
0
 62
   123
100
AcDbTrace
 10
309.0631196237749
 20
244.2332638864381
 30
0.0
 11
309.8964529571083
 21
244.2332638864381
 31
0.0
 12
309.4797862904416
 22
241.7332638864381
 32
0.0
 13
309.4797862904416
 23
241.7332638864381
 33
0.0
  0
MTEXT
  5
3D9
330
3D3
100
AcDbEntity
  8
0
 62
     3
100
AcDbMText
 10
306.9797862904415
 20
286.7332638864382
 30
0.0
 40
3.0
 41
0.0
 71
     5
 72
     1
  1
\A1;90
 11
0.0000000000000001
 21
1.0
 31
0.0
1001
ACAD
1000
MTEXTBEGIN
1070
    73
1070
     1
1070
    44
1040
1.0
1070
    74
1070
     0
1000
MTEXTEND
  0
POINT
  5
3DA
330
3D3
100
AcDbEntity
  8
DEFPOINTS
 62
     0
100
AcDbPoint
 10
289.805775846049
 20
331.7332638864381
 30
0.0
  0
POINT
  5
3DB
330
3D3
100
AcDbEntity
  8
DEFPOINTS
 62
     0
100
AcDbPoint
 10
289.805775846049
 20
241.7332638864381
 30
0.0
  0
POINT
  5
3DC
330
3D3
100
AcDbEntity
  8
DEFPOINTS
 62
     0
100
AcDbPoint
 10
309.4797862904416
 20
241.7332638864381
 30
0.0
  0
ENDBLK
  5
3DE
330
3D3
100
AcDbEntity
  8
0
100
AcDbBlockEnd
  0
BLOCK
  5
3E9
330
3DF
100
AcDbEntity
  8
0
100
AcDbBlockBegin
  2
*D33
 70
     1
 10
0.0
 20
0.0
 30
0.0
  3
*D33
  1

  0
LINE
  5
3E0
330
3DF
100
AcDbEntity
  8
0
 62
   123
100
AcDbLine
 10
311.3365403003717
 20
106.2801806860279
 30
0.0
 11
330.6105507447497
 21
106.2801806860279
 31
0.0
  0
LINE
  5
3E1
330
3DF
100
AcDbEntity
  8
0
 62
   123
100
AcDbLine
 10
311.3365403003717
 20
16.28018068602796
 30
0.0
 11
330.6105507447497
 21
16.28018068602795
 31
0.0
  0
LINE
  5
3E2
330
3DF
100
AcDbEntity
  8
0
 62
   123
100
AcDbLine
 10
330.0105507447497
 20
103.7801806860279
 30
0.0
 11
330.0105507447497
 21
18.78018068602795
 31
0.0
  0
SOLID
  5
3E3
330
3DF
100
AcDbEntity
  8
0
 62
   123
100
AcDbTrace
 10
329.593884078083
 20
103.7801806860279
 30
0.0
 11
330.4272174114164
 21
103.7801806860279
 31
0.0
 12
330.0105507447497
 22
106.2801806860279
 32
0.0
 13
330.0105507447497
 23
106.2801806860279
 33
0.0
  0
SOLID
  5
3E4
330
3DF
100
AcDbEntity
  8
0
 62
   123
100
AcDbTrace
 10
329.593884078083
 20
18.78018068602795
 30
0.0
 11
330.4272174114164
 21
18.78018068602795
 31
0.0
 12
330.0105507447497
 22
16.28018068602795
 32
0.0
 13
330.0105507447497
 23
16.28018068602795
 33
0.0
  0
MTEXT
  5
3E5
330
3DF
100
AcDbEntity
  8
0
 62
     3
100
AcDbMText
 10
327.5105507447497
 20
61.28018068602887
 30
0.0
 40
3.0
 41
0.0
 71
     5
 72
     1
  1
\A1;90
 11
0.0000000000000001
 21
1.0
 31
0.0
1001
ACAD
1000
MTEXTBEGIN
1070
    73
1070
     1
1070
    44
1040
1.0
1070
    74
1070
     0
1000
MTEXTEND
  0
POINT
  5
3E6
330
3DF
100
AcDbEntity
  8
DEFPOINTS
 62
     0
100
AcDbPoint
 10
310.3365403003717
 20
106.2801806860279
 30
0.0
  0
POINT
  5
3E7
330
3DF
100
AcDbEntity
  8
DEFPOINTS
 62
     0
100
AcDbPoint
 10
310.3365403003717
 20
16.28018068602796
 30
0.0
  0
POINT
  5
3E8
330
3DF
100
AcDbEntity
  8
DEFPOINTS
 62
     0
100
AcDbPoint
 10
330.0105507447497
 20
16.28018068602795
 30
0.0
  0
ENDBLK
  5
3EA
330
3DF
100
AcDbEntity
  8
0
100
AcDbBlockEnd
  0
BLOCK
  5
3F5
330
3EB
100
AcDbEntity
  8
0
100
AcDbBlockBegin
  2
*D34
 70
     1
 10
0.0
 20
0.0
 30
0.0
  3
*D34
  1

  0
LINE
  5
3EC
330
3EB
100
AcDbEntity
  8
0
 62
   123
100
AcDbLine
 10
178.3365403003717
 20
102.7801806860288
 30
0.0
 11
109.2553990790915
 21
102.7801806860288
 31
0.0
  0
LINE
  5
3ED
330
3EB
100
AcDbEntity
  8
0
 62
   123
100
AcDbLine
 10
178.3365403003717
 20
19.78018068602796
 30
0.0
 11
109.2553990790915
 21
19.78018068602797
 31
0.0
  0
LINE
  5
3EE
330
3EB
100
AcDbEntity
  8
0
 62
   123
100
AcDbLine
 10
109.8553990790915
 20
100.2801806860288
 30
0.0
 11
109.8553990790915
 21
22.28018068602798
 31
0.0
  0
SOLID
  5
3EF
330
3EB
100
AcDbEntity
  8
0
 62
   123
100
AcDbTrace
 10
109.4387324124248
 20
100.2801806860288
 30
0.0
 11
110.2720657457582
 21
100.2801806860288
 31
0.0
 12
109.8553990790915
 22
102.7801806860288
 32
0.0
 13
109.8553990790915
 23
102.7801806860288
 33
0.0
  0
SOLID
  5
3F0
330
3EB
100
AcDbEntity
  8
0
 62
   123
100
AcDbTrace
 10
109.4387324124248
 20
22.28018068602798
 30
0.0
 11
110.2720657457581
 21
22.28018068602798
 31
0.0
 12
109.8553990790915
 22
19.78018068602797
 32
0.0
 13
109.8553990790915
 23
19.78018068602797
 33
0.0
  0
MTEXT
  5
3F1
330
3EB
100
AcDbEntity
  8
0
 62
     3
100
AcDbMText
 10
105.9052490790915
 20
59.26088224551858
 30
0.0
 40
3.0
 41
0.0
 71
     5
 72
     1
  1
\A1;\A1;{\f??|b0|i0|c0|p49;%%c}83{\f??|b0|i0|c0|p49;\H0.7x;\S+0^ -0.035;\H1.429x;(h7)}
 11
0.0000000000000001
 21
1.0
 31
0.0
1001
ACAD
1000
MTEXTBEGIN
1070
    73
1070
     1
1070
    44
1040
1.0
1070
    74
1070
     0
1000
MTEXTEND
  0
POINT
  5
3F2
330
3EB
100
AcDbEntity
  8
DEFPOINTS
 62
     0
100
AcDbPoint
 10
179.3365403003717
 20
102.7801806860288
 30
0.0
  0
POINT
  5
3F3
330
3EB
100
AcDbEntity
  8
DEFPOINTS
 62
     0
100
AcDbPoint
 10
179.3365403003717
 20
19.78018068602796
 30
0.0
  0
POINT
  5
3F4
330
3EB
100
AcDbEntity
  8
DEFPOINTS
 62
     0
100
AcDbPoint
 10
109.8553990790915
 20
19.78018068602797
 30
0.0
  0
ENDBLK
  5
3F6
330
3EB
100
AcDbEntity
  8
0
100
AcDbBlockEnd
  0
BLOCK
  5
401
330
3F7
100
AcDbEntity
  8
0
100
AcDbBlockBegin
  2
*D35
 70
     1
 10
0.0
 20
0.0
 30
0.0
  3
*D35
  1

  0
LINE
  5
3F8
330
3F7
100
AcDbEntity
  8
0
 62
   123
100
AcDbLine
 10
143.3365403003717
 20
55.28018068602888
 30
0.0
 11
121.5554044667718
 21
55.28018068602888
 31
0.0
  0
LINE
  5
3F9
330
3F7
100
AcDbEntity
  8
0
 62
   123
100
AcDbLine
 10
173.3365403003717
 20
67.28018068602887
 30
0.0
 11
121.5554044667718
 21
67.28018068602889
 31
0.0
  0
LINE
  5
3FA
330
3F7
100
AcDbEntity
  8
0
 62
   123
100
AcDbLine
 10
122.1554044667718
 20
57.78018068602888
 30
0.0
 11
122.1554044667718
 21
64.78018068602889
 31
0.0
  0
SOLID
  5
3FB
330
3F7
100
AcDbEntity
  8
0
 62
   123
100
AcDbTrace
 10
121.7387378001052
 20
57.78018068602888
 30
0.0
 11
122.5720711334385
 21
57.78018068602888
 31
0.0
 12
122.1554044667718
 22
55.28018068602888
 32
0.0
 13
122.1554044667718
 23
55.28018068602888
 33
0.0
  0
SOLID
  5
3FC
330
3F7
100
AcDbEntity
  8
0
 62
   123
100
AcDbTrace
 10
121.7387378001052
 20
64.78018068602889
 30
0.0
 11
122.5720711334385
 21
64.78018068602889
 31
0.0
 12
122.1554044667718
 22
67.28018068602889
 32
0.0
 13
122.1554044667718
 23
67.28018068602889
 33
0.0
  0
MTEXT
  5
3FD
330
3F7
100
AcDbEntity
  8
0
 62
     3
100
AcDbMText
 10
118.2052544667718
 20
61.28018068602891
 30
0.0
 40
3.0
 41
0.0
 71
     5
 72
     1
  1
\A1;\A1;{\f??|b0|i0|c0|p49;%%C}12{\f??|b0|i0|c0|p49;\H0.7x;\S+0^ -0.018;\H1.429x;(h}7{\f??|b0|i0|c0|p49;)}
 11
0.0000000000000001
 21
1.0
 31
0.0
1001
ACAD
1000
MTEXTBEGIN
1070
    73
1070
     1
1070
    44
1040
1.0
1070
    74
1070
     0
1000
MTEXTEND
  0
POINT
  5
3FE
330
3F7
100
AcDbEntity
  8
DEFPOINTS
 62
     0
100
AcDbPoint
 10
144.3365403003717
 20
55.28018068602887
 30
0.0
  0
POINT
  5
3FF
330
3F7
100
AcDbEntity
  8
DEFPOINTS
 62
     0
100
AcDbPoint
 10
174.3365403003717
 20
67.28018068602887
 30
0.0
  0
POINT
  5
400
330
3F7
100
AcDbEntity
  8
DEFPOINTS
 62
     0
100
AcDbPoint
 10
122.1554044667718
 20
67.28018068602889
 30
0.0
  0
ENDBLK
  5
402
330
3F7
100
AcDbEntity
  8
0
100
AcDbBlockEnd
  0
BLOCK
  5
40D
330
403
100
AcDbEntity
  8
0
100
AcDbBlockBegin
  2
*D36
 70
     1
 10
0.0
 20
0.0
 30
0.0
  3
*D36
  1

  0
LINE
  5
404
330
403
100
AcDbEntity
  8
0
 62
   123
100
AcDbLine
 10
144.3365403003717
 20
67.28018068602887
 30
0.0
 11
144.3365403003717
 21
77.95353809543084
 31
0.0
  0
LINE
  5
405
330
403
100
AcDbEntity
  8
0
 62
   123
100
AcDbLine
 10
174.3365403003717
 20
68.28018068602887
 30
0.0
 11
174.3365403003717
 21
77.95353809543084
 31
0.0
  0
LINE
  5
406
330
403
100
AcDbEntity
  8
0
 62
   123
100
AcDbLine
 10
146.8365403003717
 20
77.35353809543084
 30
0.0
 11
171.8365403003717
 21
77.35353809543084
 31
0.0
  0
SOLID
  5
407
330
403
100
AcDbEntity
  8
0
 62
   123
100
AcDbTrace
 10
146.8365403003717
 20
77.77020476209752
 30
0.0
 11
146.8365403003717
 21
76.93687142876417
 31
0.0
 12
144.3365403003717
 22
77.35353809543084
 32
0.0
 13
144.3365403003717
 23
77.35353809543084
 33
0.0
  0
SOLID
  5
408
330
403
100
AcDbEntity
  8
0
 62
   123
100
AcDbTrace
 10
171.8365403003717
 20
77.77020476209752
 30
0.0
 11
171.8365403003717
 21
76.93687142876417
 31
0.0
 12
174.3365403003717
 22
77.35353809543084
 32
0.0
 13
174.3365403003717
 23
77.35353809543084
 33
0.0
  0
MTEXT
  5
409
330
403
100
AcDbEntity
  8
0
 62
     3
100
AcDbMText
 10
160.5952246648721
 20
79.85353809543084
 30
0.0
 40
3.0
 41
0.0
 71
     5
 72
     1
  1
\A1;30
1001
ACAD
1000
MTEXTBEGIN
1070
    73
1070
     1
1070
    44
1040
1.0
1070
    74
1070
     0
1000
MTEXTEND
  0
POINT
  5
40A
330
403
100
AcDbEntity
  8
DEFPOINTS
 62
     0
100
AcDbPoint
 10
144.3365403003717
 20
66.28018068602887
 30
0.0
  0
POINT
  5
40B
330
403
100
AcDbEntity
  8
DEFPOINTS
 62
     0
100
AcDbPoint
 10
174.3365403003717
 20
67.28018068602887
 30
0.0
  0
POINT
  5
40C
330
403
100
AcDbEntity
  8
DEFPOINTS
 62
     0
100
AcDbPoint
 10
174.3365403003717
 20
77.35353809543084
 30
0.0
  0
ENDBLK
  5
40E
330
403
100
AcDbEntity
  8
0
100
AcDbBlockEnd
  0
BLOCK
  5
419
330
40F
100
AcDbEntity
  8
0
100
AcDbBlockBegin
  2
*D37
 70
     1
 10
0.0
 20
0.0
 30
0.0
  3
*D37
  1

  0
LINE
  5
410
330
40F
100
AcDbEntity
  8
0
 62
   123
100
AcDbLine
 10
-0.0000000000000001
 20
20.2801806860989
 30
0.0
 11
-0.0000000000000013
 21
0.0000000000021814
 31
0.0
  0
LINE
  5
411
330
40F
100
AcDbEntity
  8
0
 62
   123
100
AcDbLine
 10
90.0
 20
20.2801806860989
 30
0.0
 11
90.0
 21
0.0000000000021814
 31
0.0
  0
LINE
  5
412
330
40F
100
AcDbEntity
  8
0
 62
   123
100
AcDbLine
 10
2.499999999999998
 20
0.6000000000021828
 30
0.0
 11
87.5
 21
0.6000000000021828
 31
0.0
  0
SOLID
  5
413
330
40F
100
AcDbEntity
  8
0
 62
   123
100
AcDbTrace
 10
2.499999999999998
 20
1.016666666668849
 30
0.0
 11
2.499999999999998
 21
0.1833333333355161
 31
0.0
 12
-0.0000000000000013
 22
0.6000000000021828
 32
0.0
 13
-0.0000000000000013
 23
0.6000000000021828
 33
0.0
  0
SOLID
  5
414
330
40F
100
AcDbEntity
  8
0
 62
   123
100
AcDbTrace
 10
87.5
 20
1.016666666668849
 30
0.0
 11
87.5
 21
0.1833333333355161
 31
0.0
 12
90.0
 22
0.6000000000021828
 32
0.0
 13
90.0
 23
0.6000000000021828
 33
0.0
  0
MTEXT
  5
415
330
40F
100
AcDbEntity
  8
0
 62
     3
100
AcDbMText
 10
44.75272574888186
 20
3.100000000002183
 30
0.0
 40
3.0
 41
0.0
 71
     5
 72
     1
  1
\A1;90
1001
ACAD
1000
MTEXTBEGIN
1070
    73
1070
     1
1070
    44
1040
1.0
1070
    74
1070
     0
1000
MTEXTEND
  0
POINT
  5
416
330
40F
100
AcDbEntity
  8
DEFPOINTS
 62
     0
100
AcDbPoint
 10
0.0
 20
21.2801806860989
 30
0.0
  0
POINT
  5
417
330
40F
100
AcDbEntity
  8
DEFPOINTS
 62
     0
100
AcDbPoint
 10
90.0
 20
21.2801806860989
 30
0.0
  0
POINT
  5
418
330
40F
100
AcDbEntity
  8
DEFPOINTS
 62
     0
100
AcDbPoint
 10
90.0
 20
0.6000000000021828
 30
0.0
  0
ENDBLK
  5
41A
330
40F
100
AcDbEntity
  8
0
100
AcDbBlockEnd
  0
BLOCK
  5
425
330
41B
100
AcDbEntity
  8
0
100
AcDbBlockBegin
  2
*D38
 70
     1
 10
0.0
 20
0.0
 30
0.0
  3
*D38
  1

  0
LINE
  5
41C
330
41B
100
AcDbEntity
  8
0
 62
   123
100
AcDbLine
 10
144.3365403003717
 20
54.28018068602887
 30
0.0
 11
144.3365403003717
 21
-8.77238551456557
 31
0.0
  0
LINE
  5
41D
330
41B
100
AcDbEntity
  8
0
 62
   123
100
AcDbLine
 10
181.3365403003717
 20
15.28018068602796
 30
0.0
 11
181.3365403003717
 21
-8.772385514565577
 31
0.0
  0
LINE
  5
41E
330
41B
100
AcDbEntity
  8
0
 62
   123
100
AcDbLine
 10
146.8365403003717
 20
-8.172385514565576
 30
0.0
 11
178.8365403003717
 21
-8.172385514565576
 31
0.0
  0
SOLID
  5
41F
330
41B
100
AcDbEntity
  8
0
 62
   123
100
AcDbTrace
 10
146.8365403003717
 20
-7.755718847898909
 30
0.0
 11
146.8365403003717
 21
-8.589052181232242
 31
0.0
 12
144.3365403003717
 22
-8.172385514565576
 32
0.0
 13
144.3365403003717
 23
-8.172385514565576
 33
0.0
  0
SOLID
  5
420
330
41B
100
AcDbEntity
  8
0
 62
   123
100
AcDbTrace
 10
178.8365403003717
 20
-7.755718847898909
 30
0.0
 11
178.8365403003717
 21
-8.589052181232242
 31
0.0
 12
181.3365403003717
 22
-8.172385514565576
 32
0.0
 13
181.3365403003717
 23
-8.172385514565576
 33
0.0
  0
MTEXT
  5
421
330
41B
100
AcDbEntity
  8
0
 62
     3
100
AcDbMText
 10
162.8365403003717
 20
-5.672385514565576
 30
0.0
 40
3.0
 41
0.0
 71
     5
 72
     1
  1
\A1;37
1001
ACAD
1000
MTEXTBEGIN
1070
    73
1070
     1
1070
    44
1040
1.0
1070
    74
1070
     0
1000
MTEXTEND
  0
POINT
  5
422
330
41B
100
AcDbEntity
  8
DEFPOINTS
 62
     0
100
AcDbPoint
 10
144.3365403003717
 20
55.28018068602887
 30
0.0
  0
POINT
  5
423
330
41B
100
AcDbEntity
  8
DEFPOINTS
 62
     0
100
AcDbPoint
 10
181.3365403003717
 20
16.28018068602796
 30
0.0
  0
POINT
  5
424
330
41B
100
AcDbEntity
  8
DEFPOINTS
 62
     0
100
AcDbPoint
 10
181.3365403003717
 20
-8.172385514565576
 30
0.0
  0
ENDBLK
  5
426
330
41B
100
AcDbEntity
  8
0
100
AcDbBlockEnd
  0
BLOCK
  5
431
330
427
100
AcDbEntity
  8
0
100
AcDbBlockBegin
  2
*D39
 70
     1
 10
0.0
 20
0.0
 30
0.0
  3
*D39
  1

  0
LINE
  5
428
330
427
100
AcDbEntity
  8
0
 62
   123
100
AcDbLine
 10
143.3365403003717
 20
55.28018068602888
 30
0.0
 11
131.2680594196594
 21
55.28018068602888
 31
0.0
  0
LINE
  5
429
330
427
100
AcDbEntity
  8
0
 62
   123
100
AcDbLine
 10
143.3365403003717
 20
66.28018068602887
 30
0.0
 11
131.2680594196594
 21
66.28018068602887
 31
0.0
  0
LINE
  5
42A
330
427
100
AcDbEntity
  8
0
 62
   123
100
AcDbLine
 10
131.8680594196594
 20
57.78018068602888
 30
0.0
 11
131.8680594196594
 21
63.78018068602887
 31
0.0
  0
SOLID
  5
42B
330
427
100
AcDbEntity
  8
0
 62
   123
100
AcDbTrace
 10
131.4513927529927
 20
57.78018068602888
 30
0.0
 11
132.284726086326
 21
57.78018068602888
 31
0.0
 12
131.8680594196594
 22
55.28018068602888
 32
0.0
 13
131.8680594196594
 23
55.28018068602888
 33
0.0
  0
SOLID
  5
42C
330
427
100
AcDbEntity
  8
0
 62
   123
100
AcDbTrace
 10
131.4513927529927
 20
63.78018068602887
 30
0.0
 11
132.284726086326
 21
63.78018068602887
 31
0.0
 12
131.8680594196594
 22
66.28018068602887
 32
0.0
 13
131.8680594196594
 23
66.28018068602887
 33
0.0
  0
MTEXT
  5
42D
330
427
100
AcDbEntity
  8
0
 62
     3
100
AcDbMText
 10
129.3680594196594
 20
60.78018068602887
 30
0.0
 40
3.0
 41
0.0
 71
     5
 72
     1
  1
\A1;11
 11
0.0000000000000001
 21
1.0
 31
0.0
1001
ACAD
1000
MTEXTBEGIN
1070
    73
1070
     1
1070
    44
1040
1.0
1070
    74
1070
     0
1000
MTEXTEND
  0
POINT
  5
42E
330
427
100
AcDbEntity
  8
DEFPOINTS
 62
     0
100
AcDbPoint
 10
144.3365403003717
 20
55.28018068602887
 30
0.0
  0
POINT
  5
42F
330
427
100
AcDbEntity
  8
DEFPOINTS
 62
     0
100
AcDbPoint
 10
144.3365403003717
 20
66.28018068602887
 30
0.0
  0
POINT
  5
430
330
427
100
AcDbEntity
  8
DEFPOINTS
 62
     0
100
AcDbPoint
 10
131.8680594196594
 20
66.28018068602887
 30
0.0
  0
ENDBLK
  5
432
330
427
100
AcDbEntity
  8
0
100
AcDbBlockEnd
  0
BLOCK
  5
43D
330
433
100
AcDbEntity
  8
0
100
AcDbBlockBegin
  2
*D40
 70
     1
 10
0.0
 20
0.0
 30
0.0
  3
*D40
  1

  0
LINE
  5
434
330
433
100
AcDbEntity
  8
0
 62
   123
100
AcDbLine
 10
181.3365403003717
 20
15.28018068602796
 30
0.0
 11
181.3365403003717
 21
1.239713003198085
 31
0.0
  0
LINE
  5
435
330
433
100
AcDbEntity
  8
0
 62
   123
100
AcDbLine
 10
188.8365403003717
 20
16.68144334450062
 30
0.0
 11
188.8365403003717
 21
1.239713003198083
 31
0.0
  0
LINE
  5
436
330
433
100
AcDbEntity
  8
0
 62
   123
100
AcDbLine
 10
183.8365403003717
 20
1.839713003198085
 30
0.0
 11
186.3365403003717
 21
1.839713003198085
 31
0.0
  0
SOLID
  5
437
330
433
100
AcDbEntity
  8
0
 62
   123
100
AcDbTrace
 10
183.8365403003717
 20
2.256379669864751
 30
0.0
 11
183.8365403003717
 21
1.423046336531418
 31
0.0
 12
181.3365403003717
 22
1.839713003198085
 32
0.0
 13
181.3365403003717
 23
1.839713003198085
 33
0.0
  0
SOLID
  5
438
330
433
100
AcDbEntity
  8
0
 62
   123
100
AcDbTrace
 10
186.3365403003717
 20
2.256379669864751
 30
0.0
 11
186.3365403003717
 21
1.423046336531418
 31
0.0
 12
188.8365403003717
 22
1.839713003198085
 32
0.0
 13
188.8365403003717
 23
1.839713003198085
 33
0.0
  0
MTEXT
  5
439
330
433
100
AcDbEntity
  8
0
 62
     3
100
AcDbMText
 10
185.0865403003717
 20
4.339713003198085
 30
0.0
 40
3.0
 41
0.0
 71
     5
 72
     1
  1
\A1;7.5
1001
ACAD
1000
MTEXTBEGIN
1070
    73
1070
     1
1070
    44
1040
1.0
1070
    74
1070
     0
1000
MTEXTEND
  0
POINT
  5
43A
330
433
100
AcDbEntity
  8
DEFPOINTS
 62
     0
100
AcDbPoint
 10
181.3365403003717
 20
16.28018068602796
 30
0.0
  0
POINT
  5
43B
330
433
100
AcDbEntity
  8
DEFPOINTS
 62
     0
100
AcDbPoint
 10
188.8365403003717
 20
17.68144334450062
 30
0.0
  0
POINT
  5
43C
330
433
100
AcDbEntity
  8
DEFPOINTS
 62
     0
100
AcDbPoint
 10
188.8365403003717
 20
1.839713003198085
 30
0.0
  0
ENDBLK
  5
43E
330
433
100
AcDbEntity
  8
0
100
AcDbBlockEnd
  0
BLOCK
  5
44B
330
43F
100
AcDbEntity
  8
0
100
AcDbBlockBegin
  2
*D41
 70
     1
 10
0.0
 20
0.0
 30
0.0
  3
*D41
  1

  0
LINE
  5
440
330
43F
100
AcDbEntity
  8
0
 62
   123
100
AcDbLine
 10
179.3365403003717
 20
18.78018068602796
 30
0.0
 11
179.3365403003717
 21
1.239713003198083
 31
0.0
  0
LINE
  5
441
330
43F
100
AcDbEntity
  8
0
 62
   123
100
AcDbLine
 10
181.3365403003717
 20
15.28018068602796
 30
0.0
 11
181.3365403003717
 21
1.239713003198085
 31
0.0
  0
LINE
  5
442
330
43F
100
AcDbEntity
  8
0
 62
   123
100
AcDbLine
 10
183.8365403003717
 20
1.839713003198085
 30
0.0
 11
186.3365403003717
 21
1.839713003198085
 31
0.0
  0
LINE
  5
443
330
43F
100
AcDbEntity
  8
0
 62
   123
100
AcDbLine
 10
176.8365403003717
 20
1.839713003198085
 30
0.0
 11
168.3365403003717
 21
1.839713003198085
 31
0.0
  0
LINE
  5
444
330
43F
100
AcDbEntity
  8
0
 62
   123
100
AcDbLine
 10
181.3365403003717
 20
1.839713003198085
 30
0.0
 11
179.3365403003717
 21
1.839713003198085
 31
0.0
  0
SOLID
  5
445
330
43F
100
AcDbEntity
  8
0
 62
   123
100
AcDbTrace
 10
183.8365403003717
 20
2.256379669864751
 30
0.0
 11
183.8365403003717
 21
1.423046336531418
 31
0.0
 12
181.3365403003717
 22
1.839713003198085
 32
0.0
 13
181.3365403003717
 23
1.839713003198085
 33
0.0
  0
SOLID
  5
446
330
43F
100
AcDbEntity
  8
0
 62
   123
100
AcDbTrace
 10
176.8365403003717
 20
2.256379669864751
 30
0.0
 11
176.8365403003717
 21
1.423046336531418
 31
0.0
 12
179.3365403003717
 22
1.839713003198085
 32
0.0
 13
179.3365403003717
 23
1.839713003198085
 33
0.0
  0
MTEXT
  5
447
330
43F
100
AcDbEntity
  8
0
 62
     3
100
AcDbMText
 10
170.3365403003717
 20
4.339713003198085
 30
0.0
 40
3.0
 41
0.0
 71
     5
 72
     1
  1
\A1;2
1001
ACAD
1000
MTEXTBEGIN
1070
    73
1070
     1
1070
    44
1040
1.0
1070
    74
1070
     0
1000
MTEXTEND
  0
POINT
  5
448
330
43F
100
AcDbEntity
  8
DEFPOINTS
 62
     0
100
AcDbPoint
 10
179.3365403003717
 20
19.78018068602796
 30
0.0
  0
POINT
  5
449
330
43F
100
AcDbEntity
  8
DEFPOINTS
 62
     0
100
AcDbPoint
 10
181.3365403003717
 20
16.28018068602796
 30
0.0
  0
POINT
  5
44A
330
43F
100
AcDbEntity
  8
DEFPOINTS
 62
     0
100
AcDbPoint
 10
181.3365403003717
 20
1.839713003198085
 30
0.0
  0
ENDBLK
  5
44C
330
43F
100
AcDbEntity
  8
0
100
AcDbBlockEnd
  0
BLOCK
  5
457
330
44D
100
AcDbEntity
  8
0
100
AcDbBlockBegin
  2
*D42
 70
     1
 10
0.0
 20
0.0
 30
0.0
  3
*D42
  1

  0
LINE
  5
44E
330
44D
100
AcDbEntity
  8
0
 62
   123
100
AcDbLine
 10
181.3365403003717
 20
15.28018068602796
 30
0.0
 11
181.3365403003717
 21
-8.772385514565577
 31
0.0
  0
LINE
  5
44F
330
44D
100
AcDbEntity
  8
0
 62
   123
100
AcDbLine
 10
316.3365403003717
 20
22.28018068602886
 30
0.0
 11
316.3365403003717
 21
-8.772385514565577
 31
0.0
  0
LINE
  5
450
330
44D
100
AcDbEntity
  8
0
 62
   123
100
AcDbLine
 10
183.8365403003717
 20
-8.172385514565576
 30
0.0
 11
313.8365403003717
 21
-8.172385514565576
 31
0.0
  0
SOLID
  5
451
330
44D
100
AcDbEntity
  8
0
 62
   123
100
AcDbTrace
 10
183.8365403003717
 20
-7.755718847898909
 30
0.0
 11
183.8365403003717
 21
-8.589052181232242
 31
0.0
 12
181.3365403003717
 22
-8.172385514565576
 32
0.0
 13
181.3365403003717
 23
-8.172385514565576
 33
0.0
  0
SOLID
  5
452
330
44D
100
AcDbEntity
  8
0
 62
   123
100
AcDbTrace
 10
313.8365403003717
 20
-7.755718847898909
 30
0.0
 11
313.8365403003717
 21
-8.589052181232242
 31
0.0
 12
316.3365403003717
 22
-8.172385514565576
 32
0.0
 13
316.3365403003717
 23
-8.172385514565576
 33
0.0
  0
MTEXT
  5
453
330
44D
100
AcDbEntity
  8
0
 62
     3
100
AcDbMText
 10
248.8365403003717
 20
-5.672385514565576
 30
0.0
 40
3.0
 41
0.0
 71
     5
 72
     1
  1
\A1;135
1001
ACAD
1000
MTEXTBEGIN
1070
    73
1070
     1
1070
    44
1040
1.0
1070
    74
1070
     0
1000
MTEXTEND
  0
POINT
  5
454
330
44D
100
AcDbEntity
  8
DEFPOINTS
 62
     0
100
AcDbPoint
 10
181.3365403003717
 20
16.28018068602796
 30
0.0
  0
POINT
  5
455
330
44D
100
AcDbEntity
  8
DEFPOINTS
 62
     0
100
AcDbPoint
 10
316.3365403003717
 20
23.28018068602887
 30
0.0
  0
POINT
  5
456
330
44D
100
AcDbEntity
  8
DEFPOINTS
 62
     0
100
AcDbPoint
 10
316.3365403003717
 20
-8.172385514565576
 30
0.0
  0
ENDBLK
  5
458
330
44D
100
AcDbEntity
  8
0
100
AcDbBlockEnd
  0
BLOCK
  5
463
330
459
100
AcDbEntity
  8
0
100
AcDbBlockBegin
  2
*D43
 70
     1
 10
0.0
 20
0.0
 30
0.0
  3
*D43
  1

  0
LINE
  5
45A
330
459
100
AcDbEntity
  8
0
 62
   123
100
AcDbLine
 10
86.30789442769856
 20
106.280180686097
 30
0.0
 11
92.67207182013008
 21
106.280180686097
 31
0.0
  0
LINE
  5
45B
330
459
100
AcDbEntity
  8
0
 62
   123
100
AcDbLine
 10
73.91615543398074
 20
149.2801806860988
 30
0.0
 11
92.67207182013009
 21
149.2801806860988
 31
0.0
  0
LINE
  5
45C
330
459
100
AcDbEntity
  8
0
 62
   123
100
AcDbLine
 10
92.07207182013009
 20
108.780180686097
 30
0.0
 11
92.07207182013009
 21
146.7801806860989
 31
0.0
  0
SOLID
  5
45D
330
459
100
AcDbEntity
  8
0
 62
   123
100
AcDbTrace
 10
91.65540515346341
 20
108.780180686097
 30
0.0
 11
92.48873848679677
 21
108.780180686097
 31
0.0
 12
92.07207182013009
 22
106.280180686097
 32
0.0
 13
92.07207182013009
 23
106.280180686097
 33
0.0
  0
SOLID
  5
45E
330
459
100
AcDbEntity
  8
0
 62
   123
100
AcDbTrace
 10
91.65540515346341
 20
146.7801806860989
 30
0.0
 11
92.48873848679677
 21
146.7801806860989
 31
0.0
 12
92.07207182013009
 22
149.2801806860988
 32
0.0
 13
92.07207182013009
 23
149.2801806860988
 33
0.0
  0
MTEXT
  5
45F
330
459
100
AcDbEntity
  8
0
 62
     3
100
AcDbMText
 10
89.57207182013007
 20
129.3750164831835
 30
0.0
 40
3.0
 41
0.0
 71
     5
 72
     1
  1
\A1;43
 11
0.0000000000000001
 21
1.0
 31
0.0
1001
ACAD
1000
MTEXTBEGIN
1070
    73
1070
     1
1070
    44
1040
1.0
1070
    74
1070
     0
1000
MTEXTEND
  0
POINT
  5
460
330
459
100
AcDbEntity
  8
DEFPOINTS
 62
     0
100
AcDbPoint
 10
85.30789442769856
 20
106.280180686097
 30
0.0
  0
POINT
  5
461
330
459
100
AcDbEntity
  8
DEFPOINTS
 62
     0
100
AcDbPoint
 10
72.91615543398075
 20
149.2801806860988
 30
0.0
  0
POINT
  5
462
330
459
100
AcDbEntity
  8
DEFPOINTS
 62
     0
100
AcDbPoint
 10
92.07207182013009
 20
149.2801806860988
 30
0.0
  0
ENDBLK
  5
464
330
459
100
AcDbEntity
  8
0
100
AcDbBlockEnd
  0
BLOCK
  5
46F
330
465
100
AcDbEntity
  8
0
100
AcDbBlockBegin
  2
*D44
 70
     1
 10
0.0
 20
0.0
 30
0.0
  3
*D44
  1

  0
LINE
  5
466
330
465
100
AcDbEntity
  8
0
 62
   123
100
AcDbLine
 10
9.14417826652243
 20
245.7332638865091
 30
0.0
 11
9.144178266522429
 21
225.4530832004114
 31
0.0
  0
LINE
  5
467
330
465
100
AcDbEntity
  8
0
 62
   123
100
AcDbLine
 10
99.14417826652243
 20
245.7332638865091
 30
0.0
 11
99.14417826652243
 21
225.4530832004114
 31
0.0
  0
LINE
  5
468
330
465
100
AcDbEntity
  8
0
 62
   123
100
AcDbLine
 10
11.64417826652242
 20
226.0530832004115
 30
0.0
 11
96.64417826652243
 21
226.0530832004115
 31
0.0
  0
SOLID
  5
469
330
465
100
AcDbEntity
  8
0
 62
   123
100
AcDbTrace
 10
11.64417826652242
 20
226.4697498670781
 30
0.0
 11
11.64417826652242
 21
225.6364165337448
 31
0.0
 12
9.144178266522429
 22
226.0530832004115
 32
0.0
 13
9.144178266522429
 23
226.0530832004115
 33
0.0
  0
SOLID
  5
46A
330
465
100
AcDbEntity
  8
0
 62
   123
100
AcDbTrace
 10
96.64417826652243
 20
226.4697498670781
 30
0.0
 11
96.64417826652243
 21
225.6364165337448
 31
0.0
 12
99.14417826652243
 22
226.0530832004115
 32
0.0
 13
99.14417826652243
 23
226.0530832004115
 33
0.0
  0
MTEXT
  5
46B
330
465
100
AcDbEntity
  8
0
 62
     3
100
AcDbMText
 10
53.89690401539883
 20
228.5530832004114
 30
0.0
 40
3.0
 41
0.0
 71
     5
 72
     1
  1
\A1;90
1001
ACAD
1000
MTEXTBEGIN
1070
    73
1070
     1
1070
    44
1040
1.0
1070
    74
1070
     0
1000
MTEXTEND
  0
POINT
  5
46C
330
465
100
AcDbEntity
  8
DEFPOINTS
 62
     0
100
AcDbPoint
 10
9.14417826652243
 20
246.7332638865091
 30
0.0
  0
POINT
  5
46D
330
465
100
AcDbEntity
  8
DEFPOINTS
 62
     0
100
AcDbPoint
 10
99.14417826652243
 20
246.7332638865091
 30
0.0
  0
POINT
  5
46E
330
465
100
AcDbEntity
  8
DEFPOINTS
 62
     0
100
AcDbPoint
 10
99.14417826652243
 20
226.0530832004115
 30
0.0
  0
ENDBLK
  5
470
330
465
100
AcDbEntity
  8
0
100
AcDbBlockEnd
  0
BLOCK
  5
47B
330
471
100
AcDbEntity
  8
0
100
AcDbBlockBegin
  2
*D45
 70
     1
 10
0.0
 20
0.0
 30
0.0
  3
*D45
  1

  0
LINE
  5
472
330
471
100
AcDbEntity
  8
0
 62
   123
100
AcDbLine
 10
13.75272574888185
 20
115.2801806860989
 30
0.0
 11
13.75272574888186
 21
163.7899102815232
 31
0.0
  0
LINE
  5
473
330
471
100
AcDbEntity
  8
0
 62
   123
100
AcDbLine
 10
75.75272574887094
 20
115.2801806860989
 30
0.0
 11
75.75272574887094
 21
163.7899102815232
 31
0.0
  0
LINE
  5
474
330
471
100
AcDbEntity
  8
0
 62
   123
100
AcDbLine
 10
16.25272574888186
 20
163.1899102815232
 30
0.0
 11
73.25272574887094
 21
163.1899102815232
 31
0.0
  0
SOLID
  5
475
330
471
100
AcDbEntity
  8
0
 62
   123
100
AcDbTrace
 10
16.25272574888186
 20
163.6065769481898
 30
0.0
 11
16.25272574888186
 21
162.7732436148565
 31
0.0
 12
13.75272574888186
 22
163.1899102815232
 32
0.0
 13
13.75272574888186
 23
163.1899102815232
 33
0.0
  0
SOLID
  5
476
330
471
100
AcDbEntity
  8
0
 62
   123
100
AcDbTrace
 10
73.25272574887094
 20
163.6065769481898
 30
0.0
 11
73.25272574887094
 21
162.7732436148565
 31
0.0
 12
75.75272574887094
 22
163.1899102815232
 32
0.0
 13
75.75272574887094
 23
163.1899102815232
 33
0.0
  0
MTEXT
  5
477
330
471
100
AcDbEntity
  8
0
 62
     3
100
AcDbMText
 10
44.75272574888186
 20
165.6899102815232
 30
0.0
 40
3.0
 41
0.0
 71
     5
 72
     1
  1
\A1;62
1001
ACAD
1000
MTEXTBEGIN
1070
    73
1070
     1
1070
    44
1040
1.0
1070
    74
1070
     0
1000
MTEXTEND
  0
POINT
  5
478
330
471
100
AcDbEntity
  8
DEFPOINTS
 62
     0
100
AcDbPoint
 10
13.75272574888185
 20
114.2801806860989
 30
0.0
  0
POINT
  5
479
330
471
100
AcDbEntity
  8
DEFPOINTS
 62
     0
100
AcDbPoint
 10
75.75272574887094
 20
114.2801806860989
 30
0.0
  0
POINT
  5
47A
330
471
100
AcDbEntity
  8
DEFPOINTS
 62
     0
100
AcDbPoint
 10
75.75272574887094
 20
163.1899102815232
 30
0.0
  0
ENDBLK
  5
47C
330
471
100
AcDbEntity
  8
0
100
AcDbBlockEnd
  0
BLOCK
  5
489
330
47D
100
AcDbEntity
  8
0
100
AcDbBlockBegin
  2
*D46
 70
     1
 10
0.0
 20
0.0
 30
0.0
  3
*D46
  1

  0
LINE
  5
47E
330
47D
100
AcDbEntity
  8
0
 62
   123
100
AcDbLine
 10
158.805775846049
 20
244.2332638864363
 30
0.0
 11
158.805775846049
 21
227.8586515524024
 31
0.0
  0
LINE
  5
47F
330
47D
100
AcDbEntity
  8
0
 62
   123
100
AcDbLine
 10
160.805775846049
 20
240.7332638864381
 30
0.0
 11
160.805775846049
 21
227.8586515524024
 31
0.0
  0
LINE
  5
480
330
47D
100
AcDbEntity
  8
0
 62
   123
100
AcDbLine
 10
163.305775846049
 20
228.4586515524024
 30
0.0
 11
165.805775846049
 21
228.4586515524024
 31
0.0
  0
LINE
  5
481
330
47D
100
AcDbEntity
  8
0
 62
   123
100
AcDbLine
 10
156.305775846049
 20
228.4586515524024
 30
0.0
 11
147.805775846049
 21
228.4586515524024
 31
0.0
  0
LINE
  5
482
330
47D
100
AcDbEntity
  8
0
 62
   123
100
AcDbLine
 10
160.805775846049
 20
228.4586515524024
 30
0.0
 11
158.805775846049
 21
228.4586515524024
 31
0.0
  0
SOLID
  5
483
330
47D
100
AcDbEntity
  8
0
 62
   123
100
AcDbTrace
 10
163.305775846049
 20
228.8753182190691
 30
0.0
 11
163.305775846049
 21
228.0419848857357
 31
0.0
 12
160.805775846049
 22
228.4586515524024
 32
0.0
 13
160.805775846049
 23
228.4586515524024
 33
0.0
  0
SOLID
  5
484
330
47D
100
AcDbEntity
  8
0
 62
   123
100
AcDbTrace
 10
156.305775846049
 20
228.8753182190691
 30
0.0
 11
156.305775846049
 21
228.0419848857357
 31
0.0
 12
158.805775846049
 22
228.4586515524024
 32
0.0
 13
158.805775846049
 23
228.4586515524024
 33
0.0
  0
MTEXT
  5
485
330
47D
100
AcDbEntity
  8
0
 62
     3
100
AcDbMText
 10
149.805775846049
 20
230.9586515524024
 30
0.0
 40
3.0
 41
0.0
 71
     5
 72
     1
  1
\A1;2
1001
ACAD
1000
MTEXTBEGIN
1070
    73
1070
     1
1070
    44
1040
1.0
1070
    74
1070
     0
1000
MTEXTEND
  0
POINT
  5
486
330
47D
100
AcDbEntity
  8
DEFPOINTS
 62
     0
100
AcDbPoint
 10
158.805775846049
 20
245.2332638864363
 30
0.0
  0
POINT
  5
487
330
47D
100
AcDbEntity
  8
DEFPOINTS
 62
     0
100
AcDbPoint
 10
160.805775846049
 20
241.7332638864381
 30
0.0
  0
POINT
  5
488
330
47D
100
AcDbEntity
  8
DEFPOINTS
 62
     0
100
AcDbPoint
 10
160.805775846049
 20
228.4586515524024
 30
0.0
  0
ENDBLK
  5
48A
330
47D
100
AcDbEntity
  8
0
100
AcDbBlockEnd
  0
BLOCK
  5
495
330
48B
100
AcDbEntity
  8
0
100
AcDbBlockBegin
  2
*D47
 70
     1
 10
0.0
 20
0.0
 30
0.0
  3
*D47
  1

  0
LINE
  5
48C
330
48B
100
AcDbEntity
  8
0
 62
   123
100
AcDbLine
 10
160.805775846049
 20
240.7332638864381
 30
0.0
 11
160.805775846049
 21
227.8586515524024
 31
0.0
  0
LINE
  5
48D
330
48B
100
AcDbEntity
  8
0
 62
   123
100
AcDbLine
 10
168.305775846049
 20
242.1345265449099
 30
0.0
 11
168.305775846049
 21
227.8586515524024
 31
0.0
  0
LINE
  5
48E
330
48B
100
AcDbEntity
  8
0
 62
   123
100
AcDbLine
 10
163.305775846049
 20
228.4586515524024
 30
0.0
 11
165.805775846049
 21
228.4586515524024
 31
0.0
  0
SOLID
  5
48F
330
48B
100
AcDbEntity
  8
0
 62
   123
100
AcDbTrace
 10
163.305775846049
 20
228.8753182190691
 30
0.0
 11
163.305775846049
 21
228.0419848857357
 31
0.0
 12
160.805775846049
 22
228.4586515524024
 32
0.0
 13
160.805775846049
 23
228.4586515524024
 33
0.0
  0
SOLID
  5
490
330
48B
100
AcDbEntity
  8
0
 62
   123
100
AcDbTrace
 10
165.805775846049
 20
228.8753182190691
 30
0.0
 11
165.805775846049
 21
228.0419848857357
 31
0.0
 12
168.305775846049
 22
228.4586515524024
 32
0.0
 13
168.305775846049
 23
228.4586515524024
 33
0.0
  0
MTEXT
  5
491
330
48B
100
AcDbEntity
  8
0
 62
     3
100
AcDbMText
 10
164.555775846049
 20
230.9586515524024
 30
0.0
 40
3.0
 41
0.0
 71
     5
 72
     1
  1
\A1;7.5
1001
ACAD
1000
MTEXTBEGIN
1070
    73
1070
     1
1070
    44
1040
1.0
1070
    74
1070
     0
1000
MTEXTEND
  0
POINT
  5
492
330
48B
100
AcDbEntity
  8
DEFPOINTS
 62
     0
100
AcDbPoint
 10
160.805775846049
 20
241.7332638864381
 30
0.0
  0
POINT
  5
493
330
48B
100
AcDbEntity
  8
DEFPOINTS
 62
     0
100
AcDbPoint
 10
168.305775846049
 20
243.1345265449099
 30
0.0
  0
POINT
  5
494
330
48B
100
AcDbEntity
  8
DEFPOINTS
 62
     0
100
AcDbPoint
 10
168.305775846049
 20
228.4586515524024
 30
0.0
  0
ENDBLK
  5
496
330
48B
100
AcDbEntity
  8
0
100
AcDbBlockEnd
  0
BLOCK
  5
4A1
330
497
100
AcDbEntity
  8
0
100
AcDbBlockBegin
  2
*D48
 70
     1
 10
0.0
 20
0.0
 30
0.0
  3
*D48
  1

  0
LINE
  5
498
330
497
100
AcDbEntity
  8
0
 62
   123
100
AcDbLine
 10
262.333207300373
 20
147.2801796860312
 30
0.0
 11
262.333207300373
 21
161.9192131702025
 31
0.0
  0
LINE
  5
499
330
497
100
AcDbEntity
  8
0
 62
   123
100
AcDbLine
 10
290.333207300373
 20
139.2801796860303
 30
0.0
 11
290.333207300373
 21
161.9192131702025
 31
0.0
  0
LINE
  5
49A
330
497
100
AcDbEntity
  8
0
 62
   123
100
AcDbLine
 10
264.833207300373
 20
161.3192131702026
 30
0.0
 11
287.833207300373
 21
161.3192131702026
 31
0.0
  0
SOLID
  5
49B
330
497
100
AcDbEntity
  8
0
 62
   123
100
AcDbTrace
 10
264.833207300373
 20
161.7358798368692
 30
0.0
 11
264.833207300373
 21
160.9025465035359
 31
0.0
 12
262.333207300373
 22
161.3192131702026
 32
0.0
 13
262.333207300373
 23
161.3192131702026
 33
0.0
  0
SOLID
  5
49C
330
497
100
AcDbEntity
  8
0
 62
   123
100
AcDbTrace
 10
287.833207300373
 20
161.7358798368692
 30
0.0
 11
287.833207300373
 21
160.9025465035359
 31
0.0
 12
290.333207300373
 22
161.3192131702026
 32
0.0
 13
290.333207300373
 23
161.3192131702026
 33
0.0
  0
MTEXT
  5
49D
330
497
100
AcDbEntity
  8
0
 62
     3
100
AcDbMText
 10
276.333207300373
 20
163.8192131702026
 30
0.0
 40
3.0
 41
0.0
 71
     5
 72
     1
  1
\A1;MAX. 28
1001
ACAD
1000
MTEXTBEGIN
1070
    73
1070
     1
1070
    44
1040
1.0
1070
    74
1070
     0
1000
MTEXTEND
  0
POINT
  5
49E
330
497
100
AcDbEntity
  8
DEFPOINTS
 62
     0
100
AcDbPoint
 10
262.333207300373
 20
146.2801796860312
 30
0.0
  0
POINT
  5
49F
330
497
100
AcDbEntity
  8
DEFPOINTS
 62
     0
100
AcDbPoint
 10
290.333207300373
 20
138.2801796860303
 30
0.0
  0
POINT
  5
4A0
330
497
100
AcDbEntity
  8
DEFPOINTS
 62
     0
100
AcDbPoint
 10
290.333207300373
 20
161.3192131702026
 30
0.0
  0
ENDBLK
  5
4A2
330
497
100
AcDbEntity
  8
0
100
AcDbBlockEnd
  0
BLOCK
  5
4AF
330
4A3
100
AcDbEntity
  8
0
100
AcDbBlockBegin
  2
*D49
 70
     1
 10
0.0
 20
0.0
 30
0.0
  3
*D49
  1

  0
LINE
  5
4A4
330
4A3
100
AcDbEntity
  8
0
 62
   123
100
AcDbLine
 10
181.3365403003717
 20
107.2801806860279
 30
0.0
 11
181.3365403003717
 21
161.9357841907127
 31
0.0
  0
LINE
  5
4A5
330
4A3
100
AcDbEntity
  8
0
 62
   123
100
AcDbLine
 10
187.3365403003717
 20
115.980179686031
 30
0.0
 11
187.3365403003717
 21
161.9357841907127
 31
0.0
  0
LINE
  5
4A6
330
4A3
100
AcDbEntity
  8
0
 62
   123
100
AcDbLine
 10
178.8365403003717
 20
161.3357841907127
 30
0.0
 11
176.3365403003717
 21
161.3357841907127
 31
0.0
  0
LINE
  5
4A7
330
4A3
100
AcDbEntity
  8
0
 62
   123
100
AcDbLine
 10
189.8365403003717
 20
161.3357841907127
 30
0.0
 11
192.3365403003717
 21
161.3357841907127
 31
0.0
  0
LINE
  5
4A8
330
4A3
100
AcDbEntity
  8
0
 62
   123
100
AcDbLine
 10
181.3365403003717
 20
161.3357841907127
 30
0.0
 11
187.3365403003717
 21
161.3357841907127
 31
0.0
  0
SOLID
  5
4A9
330
4A3
100
AcDbEntity
  8
0
 62
   123
100
AcDbTrace
 10
178.8365403003717
 20
161.7524508573793
 30
0.0
 11
178.8365403003717
 21
160.919117524046
 31
0.0
 12
181.3365403003717
 22
161.3357841907127
 32
0.0
 13
181.3365403003717
 23
161.3357841907127
 33
0.0
  0
SOLID
  5
4AA
330
4A3
100
AcDbEntity
  8
0
 62
   123
100
AcDbTrace
 10
189.8365403003717
 20
161.7524508573793
 30
0.0
 11
189.8365403003717
 21
160.919117524046
 31
0.0
 12
187.3365403003717
 22
161.3357841907127
 32
0.0
 13
187.3365403003717
 23
161.3357841907127
 33
0.0
  0
MTEXT
  5
4AB
330
4A3
100
AcDbEntity
  8
0
 62
     3
100
AcDbMText
 10
184.3365403003717
 20
163.8357841907127
 30
0.0
 40
3.0
 41
0.0
 71
     5
 72
     1
  1
\A1;6
1001
ACAD
1000
MTEXTBEGIN
1070
    73
1070
     1
1070
    44
1040
1.0
1070
    74
1070
     0
1000
MTEXTEND
  0
POINT
  5
4AC
330
4A3
100
AcDbEntity
  8
DEFPOINTS
 62
     0
100
AcDbPoint
 10
181.3365403003717
 20
106.2801806860279
 30
0.0
  0
POINT
  5
4AD
330
4A3
100
AcDbEntity
  8
DEFPOINTS
 62
     0
100
AcDbPoint
 10
187.3365403003717
 20
114.980179686031
 30
0.0
  0
POINT
  5
4AE
330
4A3
100
AcDbEntity
  8
DEFPOINTS
 62
     0
100
AcDbPoint
 10
187.3365403003717
 20
161.3357841907127
 30
0.0
  0
ENDBLK
  5
4B0
330
4A3
100
AcDbEntity
  8
0
100
AcDbBlockEnd
  0
BLOCK
  5
4BB
330
4B1
100
AcDbEntity
  8
0
100
AcDbBlockBegin
  2
*D50
 70
     1
 10
0.0
 20
0.0
 30
0.0
  3
*D50
  1

  0
LINE
  5
4B2
330
4B1
100
AcDbEntity
  8
0
 62
   123
100
AcDbLine
 10
187.3365403003717
 20
115.980179686031
 30
0.0
 11
187.3365403003717
 21
161.9357841907127
 31
0.0
  0
LINE
  5
4B3
330
4B1
100
AcDbEntity
  8
0
 62
   123
100
AcDbLine
 10
262.333207300373
 20
147.2801796860312
 30
0.0
 11
262.333207300373
 21
161.9357841907127
 31
0.0
  0
LINE
  5
4B4
330
4B1
100
AcDbEntity
  8
0
 62
   123
100
AcDbLine
 10
189.8365403003717
 20
161.3357841907127
 30
0.0
 11
259.833207300373
 21
161.3357841907127
 31
0.0
  0
SOLID
  5
4B5
330
4B1
100
AcDbEntity
  8
0
 62
   123
100
AcDbTrace
 10
189.8365403003717
 20
161.7524508573793
 30
0.0
 11
189.8365403003717
 21
160.919117524046
 31
0.0
 12
187.3365403003717
 22
161.3357841907127
 32
0.0
 13
187.3365403003717
 23
161.3357841907127
 33
0.0
  0
SOLID
  5
4B6
330
4B1
100
AcDbEntity
  8
0
 62
   123
100
AcDbTrace
 10
259.833207300373
 20
161.7524508573793
 30
0.0
 11
259.833207300373
 21
160.919117524046
 31
0.0
 12
262.333207300373
 22
161.3357841907127
 32
0.0
 13
262.333207300373
 23
161.3357841907127
 33
0.0
  0
MTEXT
  5
4B7
330
4B1
100
AcDbEntity
  8
0
 62
     3
100
AcDbMText
 10
218.2364175431321
 20
163.8357841907127
 30
0.0
 40
3.0
 41
0.0
 71
     5
 72
     1
  1
\A1;75
1001
ACAD
1000
MTEXTBEGIN
1070
    73
1070
     1
1070
    44
1040
1.0
1070
    74
1070
     0
1000
MTEXTEND
  0
POINT
  5
4B8
330
4B1
100
AcDbEntity
  8
DEFPOINTS
 62
     0
100
AcDbPoint
 10
187.3365403003717
 20
114.980179686031
 30
0.0
  0
POINT
  5
4B9
330
4B1
100
AcDbEntity
  8
DEFPOINTS
 62
     0
100
AcDbPoint
 10
262.333207300373
 20
146.2801796860312
 30
0.0
  0
POINT
  5
4BA
330
4B1
100
AcDbEntity
  8
DEFPOINTS
 62
     0
100
AcDbPoint
 10
262.333207300373
 20
161.3357841907127
 30
0.0
  0
ENDBLK
  5
4BC
330
4B1
100
AcDbEntity
  8
0
100
AcDbBlockEnd
  0
BLOCK
  5
4C7
330
4BD
100
AcDbEntity
  8
0
100
AcDbBlockBegin
  2
*D51
 70
     1
 10
0.0
 20
0.0
 30
0.0
  3
*D51
  1

  0
LINE
  5
4BE
330
4BD
100
AcDbEntity
  8
0
 62
   123
100
AcDbLine
 10
22.89690401539883
 20
340.7332638865091
 30
0.0
 11
22.89690401539883
 21
389.2429934819325
 31
0.0
  0
LINE
  5
4BF
330
4BD
100
AcDbEntity
  8
0
 62
   123
100
AcDbLine
 10
84.89690401539883
 20
340.7332638865091
 30
0.0
 11
84.89690401539883
 21
389.2429934819325
 31
0.0
  0
LINE
  5
4C0
330
4BD
100
AcDbEntity
  8
0
 62
   123
100
AcDbLine
 10
25.39690401539883
 20
388.6429934819325
 30
0.0
 11
82.39690401539883
 21
388.6429934819325
 31
0.0
  0
SOLID
  5
4C1
330
4BD
100
AcDbEntity
  8
0
 62
   123
100
AcDbTrace
 10
25.39690401539883
 20
389.0596601485992
 30
0.0
 11
25.39690401539883
 21
388.2263268152658
 31
0.0
 12
22.89690401539883
 22
388.6429934819325
 32
0.0
 13
22.89690401539883
 23
388.6429934819325
 33
0.0
  0
SOLID
  5
4C2
330
4BD
100
AcDbEntity
  8
0
 62
   123
100
AcDbTrace
 10
82.39690401539883
 20
389.0596601485992
 30
0.0
 11
82.39690401539883
 21
388.2263268152658
 31
0.0
 12
84.89690401539883
 22
388.6429934819325
 32
0.0
 13
84.89690401539883
 23
388.6429934819325
 33
0.0
  0
MTEXT
  5
4C3
330
4BD
100
AcDbEntity
  8
0
 62
     3
100
AcDbMText
 10
53.89690401539883
 20
391.1429934819325
 30
0.0
 40
3.0
 41
0.0
 71
     5
 72
     1
  1
\A1;62
1001
ACAD
1000
MTEXTBEGIN
1070
    73
1070
     1
1070
    44
1040
1.0
1070
    74
1070
     0
1000
MTEXTEND
  0
POINT
  5
4C4
330
4BD
100
AcDbEntity
  8
DEFPOINTS
 62
     0
100
AcDbPoint
 10
22.89690401539883
 20
339.7332638865091
 30
0.0
  0
POINT
  5
4C5
330
4BD
100
AcDbEntity
  8
DEFPOINTS
 62
     0
100
AcDbPoint
 10
84.89690401539883
 20
339.7332638865091
 30
0.0
  0
POINT
  5
4C6
330
4BD
100
AcDbEntity
  8
DEFPOINTS
 62
     0
100
AcDbPoint
 10
84.89690401539883
 20
388.6429934819325
 30
0.0
  0
ENDBLK
  5
4C8
330
4BD
100
AcDbEntity
  8
0
100
AcDbBlockEnd
  0
BLOCK
  5
4D3
330
4C9
100
AcDbEntity
  8
0
100
AcDbBlockBegin
  2
*D52
 70
     1
 10
0.0
 20
0.0
 30
0.0
  3
*D52
  1

  0
LINE
  5
4CA
330
4C9
100
AcDbEntity
  8
0
 62
   123
100
AcDbLine
 10
95.45207269423007
 20
331.7332638865073
 30
0.0
 11
101.8162500866598
 21
331.7332638865073
 31
0.0
  0
LINE
  5
4CB
330
4C9
100
AcDbEntity
  8
0
 62
   123
100
AcDbLine
 10
83.06033370050863
 20
374.7332638865091
 30
0.0
 11
101.8162500866598
 21
374.7332638865091
 31
0.0
  0
LINE
  5
4CC
330
4C9
100
AcDbEntity
  8
0
 62
   123
100
AcDbLine
 10
101.2162500866598
 20
334.2332638865073
 30
0.0
 11
101.2162500866598
 21
372.2332638865091
 31
0.0
  0
SOLID
  5
4CD
330
4C9
100
AcDbEntity
  8
0
 62
   123
100
AcDbTrace
 10
100.7995834199931
 20
334.2332638865073
 30
0.0
 11
101.6329167533265
 21
334.2332638865073
 31
0.0
 12
101.2162500866598
 22
331.7332638865073
 32
0.0
 13
101.2162500866598
 23
331.7332638865073
 33
0.0
  0
SOLID
  5
4CE
330
4C9
100
AcDbEntity
  8
0
 62
   123
100
AcDbTrace
 10
100.7995834199931
 20
372.2332638865091
 30
0.0
 11
101.6329167533265
 21
372.2332638865091
 31
0.0
 12
101.2162500866598
 22
374.7332638865091
 32
0.0
 13
101.2162500866598
 23
374.7332638865091
 33
0.0
  0
MTEXT
  5
4CF
330
4C9
100
AcDbEntity
  8
0
 62
     3
100
AcDbMText
 10
98.71625008665979
 20
354.8280996835929
 30
0.0
 40
3.0
 41
0.0
 71
     5
 72
     1
  1
\A1;43
 11
0.0000000000000001
 21
1.0
 31
0.0
1001
ACAD
1000
MTEXTBEGIN
1070
    73
1070
     1
1070
    44
1040
1.0
1070
    74
1070
     0
1000
MTEXTEND
  0
POINT
  5
4D0
330
4C9
100
AcDbEntity
  8
DEFPOINTS
 62
     0
100
AcDbPoint
 10
94.45207269423008
 20
331.7332638865073
 30
0.0
  0
POINT
  5
4D1
330
4C9
100
AcDbEntity
  8
DEFPOINTS
 62
     0
100
AcDbPoint
 10
82.06033370050864
 20
374.7332638865091
 30
0.0
  0
POINT
  5
4D2
330
4C9
100
AcDbEntity
  8
DEFPOINTS
 62
     0
100
AcDbPoint
 10
101.2162500866598
 20
374.7332638865091
 30
0.0
  0
ENDBLK
  5
4D4
330
4C9
100
AcDbEntity
  8
0
100
AcDbBlockEnd
  0
BLOCK
  5
4E1
330
4D5
100
AcDbEntity
  8
0
100
AcDbBlockBegin
  2
*D53
 70
     1
 10
0.0
 20
0.0
 30
0.0
  3
*D53
  1

  0
LINE
  5
4D6
330
4D5
100
AcDbEntity
  8
0
 62
   123
100
AcDbLine
 10
160.805775846049
 20
332.7332638864382
 30
0.0
 11
160.805775846049
 21
387.388867391122
 31
0.0
  0
LINE
  5
4D7
330
4D5
100
AcDbEntity
  8
0
 62
   123
100
AcDbLine
 10
166.805775846049
 20
341.4332628864404
 30
0.0
 11
166.805775846049
 21
387.388867391122
 31
0.0
  0
LINE
  5
4D8
330
4D5
100
AcDbEntity
  8
0
 62
   123
100
AcDbLine
 10
158.305775846049
 20
386.788867391122
 30
0.0
 11
155.805775846049
 21
386.788867391122
 31
0.0
  0
LINE
  5
4D9
330
4D5
100
AcDbEntity
  8
0
 62
   123
100
AcDbLine
 10
169.305775846049
 20
386.788867391122
 30
0.0
 11
171.805775846049
 21
386.788867391122
 31
0.0
  0
LINE
  5
4DA
330
4D5
100
AcDbEntity
  8
0
 62
   123
100
AcDbLine
 10
160.805775846049
 20
386.788867391122
 30
0.0
 11
166.805775846049
 21
386.788867391122
 31
0.0
  0
SOLID
  5
4DB
330
4D5
100
AcDbEntity
  8
0
 62
   123
100
AcDbTrace
 10
158.305775846049
 20
387.2055340577887
 30
0.0
 11
158.305775846049
 21
386.3722007244553
 31
0.0
 12
160.805775846049
 22
386.788867391122
 32
0.0
 13
160.805775846049
 23
386.788867391122
 33
0.0
  0
SOLID
  5
4DC
330
4D5
100
AcDbEntity
  8
0
 62
   123
100
AcDbTrace
 10
169.305775846049
 20
387.2055340577887
 30
0.0
 11
169.305775846049
 21
386.3722007244553
 31
0.0
 12
166.805775846049
 22
386.788867391122
 32
0.0
 13
166.805775846049
 23
386.788867391122
 33
0.0
  0
MTEXT
  5
4DD
330
4D5
100
AcDbEntity
  8
0
 62
     3
100
AcDbMText
 10
163.805775846049
 20
389.288867391122
 30
0.0
 40
3.0
 41
0.0
 71
     5
 72
     1
  1
\A1;6
1001
ACAD
1000
MTEXTBEGIN
1070
    73
1070
     1
1070
    44
1040
1.0
1070
    74
1070
     0
1000
MTEXTEND
  0
POINT
  5
4DE
330
4D5
100
AcDbEntity
  8
DEFPOINTS
 62
     0
100
AcDbPoint
 10
160.805775846049
 20
331.7332638864381
 30
0.0
  0
POINT
  5
4DF
330
4D5
100
AcDbEntity
  8
DEFPOINTS
 62
     0
100
AcDbPoint
 10
166.805775846049
 20
340.4332628864403
 30
0.0
  0
POINT
  5
4E0
330
4D5
100
AcDbEntity
  8
DEFPOINTS
 62
     0
100
AcDbPoint
 10
166.805775846049
 20
386.788867391122
 30
0.0
  0
ENDBLK
  5
4E2
330
4D5
100
AcDbEntity
  8
0
100
AcDbBlockEnd
  0
BLOCK
  5
4ED
330
4E3
100
AcDbEntity
  8
0
100
AcDbBlockBegin
  2
*D54
 70
     1
 10
0.0
 20
0.0
 30
0.0
  3
*D54
  1

  0
LINE
  5
4E4
330
4E3
100
AcDbEntity
  8
0
 62
   123
100
AcDbLine
 10
166.805775846049
 20
341.4332628864404
 30
0.0
 11
166.805775846049
 21
387.388867391122
 31
0.0
  0
LINE
  5
4E5
330
4E3
100
AcDbEntity
  8
0
 62
   123
100
AcDbLine
 10
241.8024428460485
 20
372.7332628864405
 30
0.0
 11
241.8024428460485
 21
387.388867391122
 31
0.0
  0
LINE
  5
4E6
330
4E3
100
AcDbEntity
  8
0
 62
   123
100
AcDbLine
 10
169.305775846049
 20
386.788867391122
 30
0.0
 11
239.3024428460484
 21
386.788867391122
 31
0.0
  0
SOLID
  5
4E7
330
4E3
100
AcDbEntity
  8
0
 62
   123
100
AcDbTrace
 10
169.305775846049
 20
387.2055340577887
 30
0.0
 11
169.305775846049
 21
386.3722007244553
 31
0.0
 12
166.805775846049
 22
386.788867391122
 32
0.0
 13
166.805775846049
 23
386.788867391122
 33
0.0
  0
SOLID
  5
4E8
330
4E3
100
AcDbEntity
  8
0
 62
   123
100
AcDbTrace
 10
239.3024428460484
 20
387.2055340577887
 30
0.0
 11
239.3024428460484
 21
386.3722007244553
 31
0.0
 12
241.8024428460485
 22
386.788867391122
 32
0.0
 13
241.8024428460485
 23
386.788867391122
 33
0.0
  0
MTEXT
  5
4E9
330
4E3
100
AcDbEntity
  8
0
 62
     3
100
AcDbMText
 10
197.7056530888221
 20
389.288867391122
 30
0.0
 40
3.0
 41
0.0
 71
     5
 72
     1
  1
\A1;75
1001
ACAD
1000
MTEXTBEGIN
1070
    73
1070
     1
1070
    44
1040
1.0
1070
    74
1070
     0
1000
MTEXTEND
  0
POINT
  5
4EA
330
4E3
100
AcDbEntity
  8
DEFPOINTS
 62
     0
100
AcDbPoint
 10
166.805775846049
 20
340.4332628864403
 30
0.0
  0
POINT
  5
4EB
330
4E3
100
AcDbEntity
  8
DEFPOINTS
 62
     0
100
AcDbPoint
 10
241.8024428460485
 20
371.7332628864405
 30
0.0
  0
POINT
  5
4EC
330
4E3
100
AcDbEntity
  8
DEFPOINTS
 62
     0
100
AcDbPoint
 10
241.8024428460485
 20
386.788867391122
 30
0.0
  0
ENDBLK
  5
4EE
330
4E3
100
AcDbEntity
  8
0
100
AcDbBlockEnd
  0
BLOCK
  5
4F9
330
4EF
100
AcDbEntity
  8
0
100
AcDbBlockBegin
  2
*D55
 70
     1
 10
0.0
 20
0.0
 30
0.0
  3
*D55
  1

  0
LINE
  5
4F0
330
4EF
100
AcDbEntity
  8
0
 62
   123
100
AcDbLine
 10
241.8024428460485
 20
372.7332628864405
 30
0.0
 11
241.8024428460485
 21
387.3722963706119
 31
0.0
  0
LINE
  5
4F1
330
4EF
100
AcDbEntity
  8
0
 62
   123
100
AcDbLine
 10
269.8024428460485
 20
364.7332628864396
 30
0.0
 11
269.8024428460485
 21
387.3722963706119
 31
0.0
  0
LINE
  5
4F2
330
4EF
100
AcDbEntity
  8
0
 62
   123
100
AcDbLine
 10
244.3024428460485
 20
386.7722963706119
 30
0.0
 11
267.3024428460485
 21
386.7722963706119
 31
0.0
  0
SOLID
  5
4F3
330
4EF
100
AcDbEntity
  8
0
 62
   123
100
AcDbTrace
 10
244.3024428460485
 20
387.1889630372785
 30
0.0
 11
244.3024428460485
 21
386.3556297039452
 31
0.0
 12
241.8024428460485
 22
386.7722963706119
 32
0.0
 13
241.8024428460485
 23
386.7722963706119
 33
0.0
  0
SOLID
  5
4F4
330
4EF
100
AcDbEntity
  8
0
 62
   123
100
AcDbTrace
 10
267.3024428460485
 20
387.1889630372785
 30
0.0
 11
267.3024428460485
 21
386.3556297039452
 31
0.0
 12
269.8024428460485
 22
386.7722963706119
 32
0.0
 13
269.8024428460485
 23
386.7722963706119
 33
0.0
  0
MTEXT
  5
4F5
330
4EF
100
AcDbEntity
  8
0
 62
     3
100
AcDbMText
 10
255.8024428460484
 20
389.2722963706119
 30
0.0
 40
3.0
 41
0.0
 71
     5
 72
     1
  1
\A1;MAX. 28
1001
ACAD
1000
MTEXTBEGIN
1070
    73
1070
     1
1070
    44
1040
1.0
1070
    74
1070
     0
1000
MTEXTEND
  0
POINT
  5
4F6
330
4EF
100
AcDbEntity
  8
DEFPOINTS
 62
     0
100
AcDbPoint
 10
241.8024428460485
 20
371.7332628864405
 30
0.0
  0
POINT
  5
4F7
330
4EF
100
AcDbEntity
  8
DEFPOINTS
 62
     0
100
AcDbPoint
 10
269.8024428460485
 20
363.7332628864396
 30
0.0
  0
POINT
  5
4F8
330
4EF
100
AcDbEntity
  8
DEFPOINTS
 62
     0
100
AcDbPoint
 10
269.8024428460485
 20
386.7722963706119
 30
0.0
  0
ENDBLK
  5
4FA
330
4EF
100
AcDbEntity
  8
0
100
AcDbBlockEnd
  0
ENDSEC
  0
SECTION
  2
ENTITIES
  0
ARC
  5
9D
330
2
100
AcDbEntity
  8
0
100
AcDbCircle
 10
288.805775846049
 20
248.7332638864381
 30
0.0
 40
7.0
100
AcDbArc
 50
270.0
 51
0.0
  0
LINE
  5
9E
330
2
100
AcDbEntity
  8
0
100
AcDbLine
 10
270.805775846049
 20
242.2332638864381
 30
0.0
 11
270.805775846049
 21
331.233263886439
 31
0.0
  0
DIMENSION
  5
9F
330
2
100
AcDbEntity
  8
0
100
AcDbDimension
  2
*D32
 10
309.4797862904416
 20
241.7332638864381
 30
0.0
 11
309.4797862904415
 21
286.7332638864382
 31
0.0
 70
   160
  3
STANDARD
100
AcDbAlignedDimension
 13
289.805775846049
 23
331.7332638864381
 33
0.0
 14
289.805775846049
 24
241.7332638864381
 34
0.0
 50
90.0
100
AcDbRotatedDimension
  0
LINE
  5
AE
330
2
100
AcDbEntity
  8
0
100
AcDbLine
 10
167.4057758460494
 20
333.7332628864405
 30
0.0
 11
167.4057758460494
 21
241.7332638864381
 31
0.0
  0
LINE
  5
AF
330
2
100
AcDbEntity
  8
0
100
AcDbLine
 10
168.305775846049
 20
250.8345265449097
 30
0.0
 11
168.305775846049
 21
243.1345265449099
 31
0.0
  0
LINE
  5
B0
330
2
100
AcDbEntity
  8
0
100
AcDbLine
 10
160.805775846049
 20
331.7332638864381
 30
0.0
 11
160.805775846049
 21
241.7332638864381
 31
0.0
  0
LINE
  5
B1
102
{ACAD_REACTORS
330
E6
102
}
330
2
100
AcDbEntity
  8
0
100
AcDbLine
 10
158.805775846049
 20
328.2332638864382
 30
0.0
 11
158.805775846049
 21
245.2332638864363
 31
0.0
  0
DIMENSION
  5
B2
102
{ACAD_XDICTIONARY
360
B3
102
}
102
{ACAD_REACTORS
330
B4
102
}
330
2
100
AcDbEntity
  8
0
100
AcDbDimension
  2
*D31
 10
295.805775846049
 20
219.0944639259423
 30
0.0
 11
228.305775846049
 21
219.0944639259423
 31
0.0
 70
   160
  3
STANDARD
100
AcDbAlignedDimension
 13
160.805775846049
 23
241.7332638864381
 33
0.0
 14
295.805775846049
 24
248.7332638864381
 34
0.0
100
AcDbRotatedDimension
  0
INSERT
  5
C1
330
2
100
AcDbEntity
  8
0
100
AcDbBlockReference
  2
4
 10
53.89690401539883
 20
286.7332638864382
 30
0.0
  0
CIRCLE
  5
E2
330
2
100
AcDbEntity
  8
0
100
AcDbCircle
 10
53.89690401539883
 20
286.7332638864382
 30
0.0
 40
43.5
  0
CIRCLE
  5
E3
330
2
100
AcDbEntity
  8
0
100
AcDbCircle
 10
53.89690401539883
 20
286.7332638864382
 30
0.0
 40
42.00000000000005
  0
DIMENSION
  5
E4
102
{ACAD_XDICTIONARY
360
E5
102
}
102
{ACAD_REACTORS
330
E6
102
}
330
2
100
AcDbEntity
  8
0
100
AcDbDimension
  2
*D30
 10
130.3140167277215
 20
245.2332638864363
 30
0.0
 11
130.3140167277215
 21
284.7139654459279
 31
0.0
 70
   160
  1
\A1;{\f??|b0|i0|c0|p49;%%c}<>{\f??|b0|i0|c0|p49;\H0.7x;\S+0^ -0.035;\H1.429x;(h7)}
  3
STANDARD
100
AcDbAlignedDimension
 13
158.805775846049
 23
328.2332638864382
 33
0.0
 14
158.805775846049
 24
245.2332638864363
 34
0.0
 50
90.0
100
AcDbRotatedDimension
  0
DIMENSION
  5
F3
102
{ACAD_XDICTIONARY
360
F4
102
}
102
{ACAD_REACTORS
330
F5
102
}
330
2
100
AcDbEntity
  8
0
100
AcDbDimension
  2
*D29
 10
160.805775846049
 20
219.0944639259423
 30
0.0
 11
151.805775846049
 21
219.0944639259423
 31
0.0
 70
   160
  3
STANDARD
100
AcDbAlignedDimension
 13
139.805775846049
 23
282.0832638864376
 33
0.0
 14
160.805775846049
 24
241.7332638864381
 34
0.0
100
AcDbRotatedDimension
  0
LINE
  5
102
330
2
100
AcDbEntity
  8
CEN
100
AcDbLine
 10
53.89690401539883
 20
235.4656436682071
 30
0.0
 11
53.89690401539883
 21
380.9846885612669
 31
0.0
  0
LINE
  5
105
330
2
100
AcDbEntity
  8
CEN
100
AcDbLine
 10
44.75272574888186
 20
10.0125604677969
 30
0.0
 11
44.75272574888186
 21
155.5316053608567
 31
0.0
  0
DIMENSION
  5
106
102
{ACAD_XDICTIONARY
360
107
102
}
102
{ACAD_REACTORS
330
108
102
}
330
2
100
AcDbEntity
  8
0
100
AcDbDimension
  2
*D36
 10
174.3365403003717
 20
77.35353809543084
 30
0.0
 11
160.5952246648721
 21
77.35353809543084
 31
0.0
 70
   160
  3
STANDARD
100
AcDbAlignedDimension
 13
144.3365403003717
 23
66.28018068602887
 33
0.0
 14
174.3365403003717
 24
67.28018068602887
 34
0.0
100
AcDbRotatedDimension
  0
DIMENSION
  5
115
102
{ACAD_XDICTIONARY
360
116
102
}
102
{ACAD_REACTORS
330
117
102
}
330
2
100
AcDbEntity
  8
0
100
AcDbDimension
  2
*D35
 10
122.1554044667718
 20
67.28018068602889
 30
0.0
 11
122.1554044667718
 21
61.28018068602891
 31
0.0
 70
   160
  1
\A1;{\f??|b0|i0|c0|p49;%%C}12{\f??|b0|i0|c0|p49;\H0.7x;\S+0^ -0.018;\H1.429x;(h}7{\f??|b0|i0|c0|p49;)}
  3
STANDARD
100
AcDbAlignedDimension
 13
144.3365403003717
 23
55.28018068602887
 33
0.0
 14
174.3365403003717
 24
67.28018068602887
 34
0.0
 50
90.0
100
AcDbRotatedDimension
  0
DIMENSION
  5
124
102
{ACAD_XDICTIONARY
360
125
102
}
102
{ACAD_REACTORS
330
126
102
}
330
2
100
AcDbEntity
  8
0
100
AcDbDimension
  2
*D34
 10
109.8553990790915
 20
19.78018068602797
 30
0.0
 11
109.8553990790915
 21
59.26088224551858
 31
0.0
 70
   160
  1
\A1;{\f??|b0|i0|c0|p49;%%c}<>{\f??|b0|i0|c0|p49;\H0.7x;\S+0^ -0.035;\H1.429x;(h7)}
  3
STANDARD
100
AcDbAlignedDimension
 13
179.3365403003717
 23
102.7801806860288
 33
0.0
 14
179.3365403003717
 24
19.78018068602796
 34
0.0
 50
90.0
100
AcDbRotatedDimension
  0
LINE
  5
133
330
2
100
AcDbEntity
  8
0
100
AcDbLine
 10
187.9365403003721
 20
108.2801796860312
 30
0.0
 11
187.9365403003721
 21
16.28018068602796
 31
0.0
  0
LINE
  5
134
330
2
100
AcDbEntity
  8
0
100
AcDbLine
 10
181.3365403003717
 20
106.2801806860279
 30
0.0
 11
181.3365403003717
 21
16.28018068602796
 31
0.0
  0
LINE
  5
135
102
{ACAD_REACTORS
330
126
102
}
330
2
100
AcDbEntity
  8
0
100
AcDbLine
 10
179.3365403003717
 20
102.7801806860288
 30
0.0
 11
179.3365403003717
 21
19.78018068602796
 31
0.0
  0
INSERT
  5
136
330
2
100
AcDbEntity
  8
0
100
AcDbBlockReference
  2
4
 10
44.75272574888186
 20
61.28018068602887
 30
0.0
  0
CIRCLE
  5
137
330
2
100
AcDbEntity
  8
0
100
AcDbCircle
 10
44.75272574888186
 20
61.28018068602887
 30
0.0
 40
43.5
  0
CIRCLE
  5
138
330
2
100
AcDbEntity
  8
0
100
AcDbCircle
 10
44.75272574888186
 20
61.28018068602887
 30
0.0
 40
42.00000000000005
  0
ARC
  5
139
330
2
100
AcDbEntity
  8
0
100
AcDbCircle
 10
9.608313931410521
 20
72.48546972609256
 30
0.0
 40
3.067967999999998
100
AcDbArc
 50
342.2801918472092
 51
38.05132551940634
  0
CIRCLE
  5
13A
330
2
100
AcDbEntity
  8
0
100
AcDbCircle
 10
45.0
 20
61.28018068602887
 30
0.0
 40
20.0
  0
ARC
  5
13B
330
2
100
AcDbEntity
  8
0
100
AcDbCircle
 10
79.74620893798055
 20
72.48546972609256
 30
0.0
 40
3.067967999999998
100
AcDbArc
 50
141.9486744805935
 51
197.7198081527907
  0
LINE
  5
13C
330
2
100
AcDbEntity
  8
0
100
AcDbLine
 10
291.3365403003717
 20
16.78018068602887
 30
0.0
 11
291.3365403003717
 21
105.7801806860288
 31
0.0
  0
LINE
  5
13D
330
2
100
AcDbEntity
  8
0
100
AcDbLine
 10
316.3365403003717
 20
88.68410528778895
 30
0.0
 11
316.3365403003717
 21
33.87625608426606
 31
0.0
  0
LINE
  5
13E
330
2
100
AcDbEntity
  8
0
100
AcDbLine
 10
316.3365403003717
 20
74.68410528778895
 30
0.0
 11
316.3365403003717
 21
47.87625608426515
 31
0.0
  0
DIMENSION
  5
13F
330
2
100
AcDbEntity
  8
0
100
AcDbDimension
  2
*D33
 10
330.0105507447497
 20
16.28018068602795
 30
0.0
 11
330.0105507447497
 21
61.28018068602887
 31
0.0
 70
   160
  3
STANDARD
100
AcDbAlignedDimension
 13
310.3365403003717
 23
106.2801806860279
 33
0.0
 14
310.3365403003717
 24
16.28018068602796
 34
0.0
 50
90.0
100
AcDbRotatedDimension
  0
LINE
  5
14C
330
2
100
AcDbEntity
  8
CEN
100
AcDbLine
 10
-4.500550465518244
 20
61.28018068602887
 30
0.0
 11
94.00600196327287
 21
61.28018068602887
 31
0.0
  0
DIMENSION
  5
14D
330
2
100
AcDbEntity
  8
0
100
AcDbDimension
  2
*D37
 10
90.0
 20
0.6000000000021828
 30
0.0
 11
44.75272574888186
 21
0.6000000000021828
 31
0.0
 70
   160
  3
STANDARD
100
AcDbAlignedDimension
 13
0.0
 23
21.2801806860989
 33
0.0
 14
90.0
 24
21.2801806860989
 34
0.0
100
AcDbRotatedDimension
  0
ARC
  5
15A
330
2
100
AcDbEntity
  8
0
100
AcDbCircle
 10
44.6772614346919
 20
61.28018068602887
 30
0.0
 40
36.81561599999999
100
AcDbArc
 50
296.3656725032604
 51
333.6343274967423
  0
ARC
  5
15B
330
2
100
AcDbEntity
  8
0
100
AcDbCircle
 10
44.6772614346919
 20
61.28018068602887
 30
0.0
 40
36.81561599999999
100
AcDbArc
 50
206.3656725032576
 51
243.6343274967394
  0
ARC
  5
15C
330
2
100
AcDbEntity
  8
0
100
AcDbCircle
 10
59.6645397227985
 20
31.04303076995984
 30
0.0
 40
3.067967999999998
100
AcDbArc
 50
231.9486744805834
 51
296.3656725032604
  0
ARC
  5
15D
330
2
100
AcDbEntity
  8
0
100
AcDbCircle
 10
44.6772614346919
 20
61.28018068602887
 30
0.0
 40
33.74764799999999
100
AcDbArc
 50
252.2801918471953
 51
287.7198081528046
  0
ARC
  5
15E
330
2
100
AcDbEntity
  8
0
100
AcDbCircle
 10
55.88255047476014
 20
26.21123318274567
 30
0.0
 40
3.067967999999998
100
AcDbArc
 50
51.9486744805834
 51
107.7198081528045
  0
LWPOLYLINE
  5
15F
330
2
100
AcDbEntity
  8
3
100
AcDbPolyline
 90
        4
 70
     1
 43
0.0
 10
37.72004393358111
 20
1.347349390710405
 10
41.02004393358038
 20
1.347349390710405
 10
41.02004393358038
 20
4.847349390710405
 10
37.72004393358111
 20
4.847349390710405
  0
ARC
  5
161
330
2
100
AcDbEntity
  8
0
100
AcDbCircle
 10
29.68998314659074
 20
31.04303076995984
 30
0.0
 40
3.067967999999998
100
AcDbArc
 50
243.6343274967394
 51
308.0513255194166
  0
ARC
  5
162
330
2
100
AcDbEntity
  8
0
100
AcDbCircle
 10
33.47197239463094
 20
26.21123318274567
 30
0.0
 40
3.067967999999998
100
AcDbArc
 50
72.28019184719541
 51
128.0513255194166
  0
ARC
  5
163
330
2
100
AcDbEntity
  8
0
100
AcDbCircle
 10
44.6772614346919
 20
61.28018068602887
 30
0.0
 40
33.74764799999999
100
AcDbArc
 50
162.2801918472091
 51
197.7198081527907
  0
ARC
  5
164
330
2
100
AcDbEntity
  8
0
100
AcDbCircle
 10
9.608313931410521
 20
50.07489164596427
 30
0.0
 40
3.067967999999998
100
AcDbArc
 50
321.9486744805936
 51
17.71980815279071
  0
ARC
  5
165
330
2
100
AcDbEntity
  8
0
100
AcDbCircle
 10
14.44011151863196
 20
46.2929023979259
 30
0.0
 40
3.067967999999998
100
AcDbArc
 50
141.9486744805935
 51
206.3656725032576
  0
LINE
  5
166
330
2
100
AcDbEntity
  8
0
100
AcDbLine
 10
48.06935053923007
 20
66.28018068602887
 30
0.0
 11
41.43610095852273
 21
66.28018068602887
 31
0.0
  0
CIRCLE
  5
167
330
2
100
AcDbEntity
  8
0
100
AcDbCircle
 10
44.75272574888186
 20
61.28018068602887
 30
0.0
 40
6.0
  0
ARC
  5
168
330
2
100
AcDbEntity
  8
0
100
AcDbCircle
 10
44.6772614346919
 20
61.28018068602887
 30
0.0
 40
33.74764799999999
100
AcDbArc
 50
342.2801918472092
 51
17.71980815279071
  0
ARC
  5
169
330
2
100
AcDbEntity
  8
0
100
AcDbCircle
 10
79.74620893798055
 20
50.07489164596427
 30
0.0
 40
3.067967999999998
100
AcDbArc
 50
162.2801918472091
 51
218.0513255194063
  0
ARC
  5
16A
330
2
100
AcDbEntity
  8
0
100
AcDbCircle
 10
74.91441135075911
 20
46.2929023979259
 30
0.0
 40
3.067967999999998
100
AcDbArc
 50
333.6343274967423
 51
38.05132551940634
  0
LINE
  5
16B
330
2
100
AcDbEntity
  8
0
100
AcDbLine
 10
309.3365403003717
 20
16.28018068602705
 30
0.0
 11
187.9365403003721
 21
16.28018068602796
 31
0.0
  0
DIMENSION
  5
16C
102
{ACAD_XDICTIONARY
360
16D
102
}
102
{ACAD_REACTORS
330
16E
102
}
330
2
100
AcDbEntity
  8
0
100
AcDbDimension
  2
*D42
 10
316.3365403003717
 20
-8.172385514565576
 30
0.0
 11
248.8365403003717
 21
-8.172385514565576
 31
0.0
 70
   160
  3
STANDARD
100
AcDbAlignedDimension
 13
181.3365403003717
 23
16.28018068602796
 33
0.0
 14
316.3365403003717
 24
23.28018068602887
 34
0.0
100
AcDbRotatedDimension
  0
LINE
  5
17B
330
2
100
AcDbEntity
  8
0
100
AcDbLine
 10
174.3365403003717
 20
67.28018068602887
 30
0.0
 11
174.3365403003717
 21
66.28018068602887
 31
0.0
  0
LINE
  5
17C
102
{ACAD_REACTORS
330
108
330
117
102
}
330
2
100
AcDbEntity
  8
CL
  6
BYBLOCK
 62
     0
100
AcDbLine
 10
179.3365403003717
 20
67.28018068602887
 30
0.0
 11
174.3365403003717
 21
67.28018068602887
 31
0.0
  0
LINE
  5
17D
330
2
100
AcDbEntity
  8
0
100
AcDbLine
 10
188.8365403003717
 20
25.38144334450044
 30
0.0
 11
188.8365403003717
 21
17.68144334450062
 31
0.0
  0
LINE
  5
17E
102
{ACAD_REACTORS
330
182
102
}
330
2
100
AcDbEntity
  8
0
100
AcDbLine
 10
181.3365403003717
 20
19.78018068602796
 30
0.0
 11
179.3365403003717
 21
19.78018068602796
 31
0.0
  0
LINE
  5
17F
102
{ACAD_REACTORS
330
16E
330
195
330
182
330
1C7
102
}
330
2
100
AcDbEntity
  8
0
100
AcDbLine
 10
181.3365403003717
 20
16.28018068602796
 30
0.0
 11
187.9365403003721
 21
16.28018068602796
 31
0.0
  0
DIMENSION
  5
180
102
{ACAD_XDICTIONARY
360
181
102
}
102
{ACAD_REACTORS
330
182
102
}
330
2
100
AcDbEntity
  8
0
100
AcDbDimension
  2
*D41
 10
181.3365403003717
 20
1.839713003198085
 30
0.0
 11
170.3365403003717
 21
1.839713003198085
 31
0.0
 70
   160
  3
STANDARD
100
AcDbAlignedDimension
 13
179.3365403003717
 23
19.78018068602796
 33
0.0
 14
181.3365403003717
 24
16.28018068602796
 34
0.0
100
AcDbRotatedDimension
  0
LINE
  5
191
102
{ACAD_REACTORS
330
195
102
}
330
2
100
AcDbEntity
  8
0
100
AcDbLine
 10
187.9365403003721
 20
17.68144334450062
 30
0.0
 11
188.8365403003717
 21
17.68144334450062
 31
0.0
  0
LINE
  5
192
330
2
100
AcDbEntity
  8
0
100
AcDbLine
 10
187.9365403003721
 20
25.38144334450044
 30
0.0
 11
188.8365403003717
 21
25.38144334450044
 31
0.0
  0
DIMENSION
  5
193
102
{ACAD_XDICTIONARY
360
194
102
}
102
{ACAD_REACTORS
330
195
102
}
330
2
100
AcDbEntity
  8
0
100
AcDbDimension
  2
*D40
 10
188.8365403003717
 20
1.839713003198085
 30
0.0
 11
185.0865403003717
 21
1.839713003198085
 31
0.0
 70
   160
  3
STANDARD
100
AcDbAlignedDimension
 13
181.3365403003717
 23
16.28018068602796
 33
0.0
 14
188.8365403003717
 24
17.68144334450062
 34
0.0
100
AcDbRotatedDimension
  0
LINE
  5
1A2
330
2
100
AcDbEntity
  8
0
100
AcDbLine
 10
291.3365403003717
 20
40.87625608426423
 30
0.0
 11
309.3365403003717
 21
40.87625608426423
 31
0.0
  0
LINE
  5
1A3
330
2
100
AcDbEntity
  8
0
100
AcDbLine
 10
295.8035802492813
 20
14.39124530038225
 30
0.0
 11
298.2368997217999
 21
14.39124530038225
 31
0.0
  0
CIRCLE
  5
1A4
330
2
100
AcDbEntity
  8
0
100
AcDbCircle
 10
297.6313854931086
 20
61.28018068602887
 30
0.0
 40
2.147836038934201
  0
LINE
  5
1A5
330
2
100
AcDbEntity
  8
0
100
AcDbLine
 10
298.4864085048211
 20
62.13520369773596
 30
0.0
 11
296.7800012774914
 21
60.42879647040535
 31
0.0
  0
LINE
  5
1A6
330
2
100
AcDbEntity
  8
0
100
AcDbLine
 10
296.7763624814106
 20
62.13520369773596
 30
0.0
 11
298.4827697087311
 21
60.42879647040535
 31
0.0
  0
LINE
  5
1A7
330
2
100
AcDbEntity
  8
0
100
AcDbLine
 10
294.8035802492814
 20
16.28018068602796
 30
0.0
 11
294.8035802492814
 21
15.39124530038225
 31
0.0
  0
ARC
  5
1A8
330
2
100
AcDbEntity
  8
0
100
AcDbCircle
 10
295.8035802492813
 20
15.39124530038225
 30
0.0
 40
1.0
100
AcDbArc
 50
180.0
 51
270.0
  0
ARC
  5
1A9
330
2
100
AcDbEntity
  8
0
100
AcDbCircle
 10
298.2368997217999
 20
15.39124530038225
 30
0.0
 40
1.0
100
AcDbArc
 50
270.0
 51
0.0
  0
LINE
  5
1AA
330
2
100
AcDbEntity
  8
0
100
AcDbLine
 10
299.2368997218
 20
15.39124530038225
 30
0.0
 11
299.2368997218
 21
16.28018068602796
 31
0.0
  0
ARC
  5
1AB
330
2
100
AcDbEntity
  8
0
100
AcDbCircle
 10
309.3365403003717
 20
33.87625608426606
 30
0.0
 40
7.0
100
AcDbArc
 50
0.0
 51
90.0
  0
ARC
  5
1AC
330
2
100
AcDbEntity
  8
0
100
AcDbCircle
 10
309.3365403003717
 20
47.87625608426515
 30
0.0
 40
7.0
100
AcDbArc
 50
270.0
 51
0.0
  0
LINE
  5
1AD
330
2
100
AcDbEntity
  8
0
100
AcDbLine
 10
316.3365403003717
 20
33.87625608426606
 30
0.0
 11
316.3365403003717
 21
23.28018068602887
 31
0.0
  0
ARC
  5
1AE
330
2
100
AcDbEntity
  8
0
100
AcDbCircle
 10
309.3365403003717
 20
23.28018068602887
 30
0.0
 40
7.0
100
AcDbArc
 50
270.0
 51
0.0
  0
LWPOLYLINE
  5
1AF
330
2
100
AcDbEntity
  8
3
100
AcDbPolyline
 90
        4
 70
     1
 43
0.0
 10
329.4968174692294
 20
54.99761573778778
 10
329.4968174692294
 20
58.29761573778796
 10
325.9968174692294
 20
58.29761573778796
 10
325.9968174692294
 20
54.99761573778778
  0
LINE
  5
1B0
330
2
100
AcDbEntity
  8
0
100
AcDbLine
 10
144.3365403003717
 20
66.28018068602887
 30
0.0
 11
144.3365403003717
 21
55.28018068602887
 31
0.0
  0
DIMENSION
  5
1B1
102
{ACAD_XDICTIONARY
360
1B2
102
}
102
{ACAD_REACTORS
330
1B3
102
}
330
2
100
AcDbEntity
  8
0
100
AcDbDimension
  2
*D39
 10
131.8680594196594
 20
66.28018068602887
 30
0.0
 11
131.8680594196594
 21
60.78018068602887
 31
0.0
 70
   160
  1
<>
  3
STANDARD
100
AcDbAlignedDimension
 13
144.3365403003717
 23
55.28018068602887
 33
0.0
 14
144.3365403003717
 24
66.28018068602887
 34
0.0
 50
90.0
100
AcDbRotatedDimension
  0
MTEXT
  5
1C0
102
{ACAD_REACTORS
330
1C1
102
}
330
2
100
AcDbEntity
  8
0
 62
     3
100
AcDbMText
 10
97.03422336559924
 20
4.335732974209349
 30
0.0
 40
3.0
 41
0.0
 71
     4
 72
     1
  1
4-%%C6.5 hole
1001
ACAD
1000
MTEXTBEGIN
1070
    73
1070
     1
1070
    44
1040
1.0
1070
    74
1070
     0
1000
MTEXTEND
  0
LEADER
  5
1C1
330
2
100
AcDbEntity
  8
0
100
AcDbLeader
  3
STANDARD
 73
     0
 74
     0
 75
     1
 40
3.0
 41
26.65178571428571
 76
     3
 10
82.50397300420081
 20
21.64654257849997
 30
0.0
 10
93.53422336559924
 20
1.835732974209348
 30
0.0
 10
96.03422336559924
 20
1.835732974209348
 30
0.0
340
1C0
1001
ACAD
1000
DSTYLE
1002
{
1070
     5
1000

1070
    77
1070
     1
1070
   147
1040
1.0
1070
   342
1005
0
1002
}
  0
LINE
  5
1C2
330
2
100
AcDbEntity
  8
CEN
100
AcDbLine
 10
309.4454400472495
 20
61.28018068602887
 30
0.0
 11
134.6888319551999
 21
61.28018068602887
 31
0.0
  0
LINE
  5
1C3
102
{ACAD_REACTORS
330
108
330
1B3
102
}
330
2
100
AcDbEntity
  8
CL
  6
BYBLOCK
 62
     0
100
AcDbLine
 10
174.3365403003717
 20
66.28018068602887
 30
0.0
 11
144.3365403003717
 21
66.28018068602887
 31
0.0
  0
LINE
  5
1C4
102
{ACAD_REACTORS
330
1B3
330
117
102
}
330
2
100
AcDbEntity
  8
CL
  6
BYBLOCK
 62
     0
100
AcDbLine
 10
179.3365403003717
 20
55.28018068602887
 30
0.0
 11
144.3365403003717
 21
55.28018068602887
 31
0.0
  0
DIMENSION
  5
1C5
102
{ACAD_XDICTIONARY
360
1C6
102
}
102
{ACAD_REACTORS
330
1C7
102
}
330
2
100
AcDbEntity
  8
0
100
AcDbDimension
  2
*D38
 10
181.3365403003717
 20
-8.172385514565576
 30
0.0
 11
162.8365403003717
 21
-8.172385514565576
 31
0.0
 70
   160
  3
STANDARD
100
AcDbAlignedDimension
 13
144.3365403003717
 23
55.28018068602887
 33
0.0
 14
181.3365403003717
 24
16.28018068602796
 34
0.0
100
AcDbRotatedDimension
  0
DIMENSION
  5
1D4
330
2
100
AcDbEntity
  8
0
100
AcDbDimension
  2
*D44
 10
99.14417826652243
 20
226.0530832004115
 30
0.0
 11
53.89690401539883
 21
226.0530832004115
 31
0.0
 70
   160
  3
STANDARD
100
AcDbAlignedDimension
 13
9.14417826652243
 23
246.7332638865091
 33
0.0
 14
99.14417826652243
 24
246.7332638865091
 34
0.0
100
AcDbRotatedDimension
  0
DIMENSION
  5
1E1
330
2
100
AcDbEntity
  8
0
100
AcDbDimension
  2
*D43
 10
92.07207182013009
 20
149.2801806860988
 30
0.0
 11
92.07207182013007
 21
129.3750164831835
 31
0.0
 70
   160
  3
STANDARD
100
AcDbAlignedDimension
 13
85.30789442769856
 23
106.280180686097
 33
0.0
 14
72.91615543398075
 24
149.2801806860988
 34
0.0
 50
90.0
100
AcDbRotatedDimension
  0
DIMENSION
  5
1EE
102
{ACAD_XDICTIONARY
360
1EF
102
}
102
{ACAD_REACTORS
330
1F0
102
}
330
2
100
AcDbEntity
  8
0
100
AcDbDimension
  2
*D45
 10
75.75272574887094
 20
163.1899102815232
 30
0.0
 11
44.75272574888186
 21
163.1899102815232
 31
0.0
 70
   160
  3
STANDARD
100
AcDbAlignedDimension
 13
13.75272574888185
 23
114.2801806860989
 33
0.0
 14
75.75272574887094
 24
114.2801806860989
 34
0.0
100
AcDbRotatedDimension
  0
LINE
  5
1FD
330
2
100
AcDbEntity
  8
0
100
AcDbLine
 10
44.75272574888186
 20
149.2801806860988
 30
0.0
 11
73.2810317488802
 21
149.2801806860988
 31
0.0
  0
ARC
  5
1FE
330
2
100
AcDbEntity
  8
0
100
AcDbCircle
 10
44.6772614346919
 20
61.28018068602887
 30
0.0
 40
36.81561599999999
100
AcDbArc
 50
26.36567250325756
 51
63.63432749673943
  0
LINE
  5
1FF
330
2
100
AcDbEntity
  8
0
100
AcDbLine
 10
75.75272574887094
 20
114.9801806860987
 30
0.0
 11
13.75272574888185
 21
114.9801806860987
 31
0.0
  0
LINE
  5
200
330
2
100
AcDbEntity
  8
0
100
AcDbLine
 10
59.75272574887094
 20
108.2801806860989
 30
0.0
 11
74.33259374888075
 21
108.2801806860989
 31
0.0
  0
LINE
  5
201
330
2
100
AcDbEntity
  8
0
100
AcDbLine
 10
44.75272574888186
 20
114.2801806860989
 30
0.0
 11
75.75272574887094
 21
114.2801806860989
 31
0.0
  0
LINE
  5
202
330
2
100
AcDbEntity
  8
0
100
AcDbLine
 10
44.75272574888186
 20
149.2801806860988
 30
0.0
 11
16.22442074887112
 21
149.2801806860988
 31
0.0
  0
ARC
  5
203
330
2
100
AcDbEntity
  8
0
100
AcDbCircle
 10
16.22442074887112
 20
148.7801806860989
 30
0.0
 40
0.5
100
AcDbArc
 50
90.0
 51
176.6629169999623
  0
ARC
  5
204
330
2
100
AcDbEntity
  8
0
100
AcDbCircle
 10
44.6772614346919
 20
61.28018068602887
 30
0.0
 40
33.74764799999999
100
AcDbArc
 50
72.28019184719541
 51
107.7198081528045
  0
ARC
  5
205
330
2
100
AcDbEntity
  8
0
100
AcDbCircle
 10
55.88255047476014
 20
96.34912818931297
 30
0.0
 40
3.067967999999998
100
AcDbArc
 50
252.2801918471953
 51
308.0513255194166
  0
ARC
  5
206
330
2
100
AcDbEntity
  8
0
100
AcDbCircle
 10
59.6645397227985
 20
91.51733060209881
 30
0.0
 40
3.067967999999998
100
AcDbArc
 50
63.63432749673943
 51
128.0513255194166
  0
ARC
  5
207
330
2
100
AcDbEntity
  8
0
100
AcDbCircle
 10
44.6772614346919
 20
61.28018068602887
 30
0.0
 40
36.81561599999999
100
AcDbArc
 50
116.3656725032604
 51
153.6343274967423
  0
ARC
  5
208
330
2
100
AcDbEntity
  8
0
100
AcDbCircle
 10
14.44011151863196
 20
76.26745897413184
 30
0.0
 40
3.067967999999998
100
AcDbArc
 50
153.6343274967423
 51
218.0513255194063
  0
ARC
  5
209
330
2
100
AcDbEntity
  8
0
100
AcDbCircle
 10
29.68998314659074
 20
91.51733060209881
 30
0.0
 40
3.067967999999998
100
AcDbArc
 50
51.9486744805834
 51
116.3656725032604
  0
ARC
  5
20A
330
2
100
AcDbEntity
  8
0
100
AcDbCircle
 10
33.47197239463094
 20
96.34912818931297
 30
0.0
 40
3.067967999999998
100
AcDbArc
 50
231.9486744805834
 51
287.7198081528046
  0
LINE
  5
20B
330
2
100
AcDbEntity
  8
0
100
AcDbLine
 10
59.75272574887094
 20
108.2801806860989
 30
0.0
 11
59.75272574887094
 21
106.280180686097
 31
0.0
  0
LINE
  5
20C
330
2
100
AcDbEntity
  8
0
100
AcDbLine
 10
29.75272574888185
 20
108.2801806860989
 30
0.0
 11
29.75272574888185
 21
106.280180686097
 31
0.0
  0
ARC
  5
20D
330
2
100
AcDbEntity
  8
0
100
AcDbCircle
 10
15.17285874888148
 20
109.2801806860989
 30
0.0
 40
1.0
100
AcDbArc
 50
184.7636420000051
 51
270.0
  0
LINE
  5
20E
330
2
100
AcDbEntity
  8
0
100
AcDbLine
 10
14.17631374888151
 20
109.1971356860985
 30
0.0
 11
13.75272574888185
 21
114.2801806860989
 31
0.0
  0
ARC
  5
20F
330
2
100
AcDbEntity
  8
0
100
AcDbCircle
 10
16.75272574887094
 20
107.2801806860989
 30
0.0
 40
1.0
100
AcDbArc
 50
0.0
 51
90.0
  0
LINE
  5
210
330
2
100
AcDbEntity
  8
0
100
AcDbLine
 10
17.75272574888185
 20
107.2801806860989
 30
0.0
 11
17.75272574888185
 21
106.280180686097
 31
0.0
  0
LINE
  5
211
330
2
100
AcDbEntity
  8
0
100
AcDbLine
 10
29.75272574888185
 20
108.2801806860989
 30
0.0
 11
15.17285874888148
 21
108.2801806860989
 31
0.0
  0
LINE
  5
212
102
{ACAD_REACTORS
330
1F0
102
}
330
2
100
AcDbEntity
  8
0
100
AcDbLine
 10
44.75272574888186
 20
114.2801806860989
 30
0.0
 11
13.75272574888185
 21
114.2801806860989
 31
0.0
  0
LINE
  5
213
330
2
100
AcDbEntity
  8
0
100
AcDbLine
 10
14.45272574888076
 20
114.9801806860987
 30
0.0
 11
14.45272574888076
 21
114.2801806860989
 31
0.0
  0
LINE
  5
214
330
2
100
AcDbEntity
  8
0
100
AcDbLine
 10
13.75272574888185
 20
114.9801806860987
 30
0.0
 11
15.7252687488708
 21
148.8092856860985
 31
0.0
  0
LWPOLYLINE
  5
215
330
2
100
AcDbEntity
  8
3
100
AcDbPolyline
 90
        4
 70
     1
 43
0.0
 10
46.86422220010899
 20
226.8004325911206
 10
50.16422220010827
 20
226.8004325911206
 10
50.16422220010827
 20
230.3004325911197
 10
46.86422220010899
 20
230.3004325911197
  0
ARC
  5
216
330
2
100
AcDbEntity
  8
0
100
AcDbCircle
 10
73.2810317488802
 20
148.7801806860989
 30
0.0
 40
0.5
100
AcDbArc
 50
3.337083000037623
 51
90.0
  0
ARC
  5
217
330
2
100
AcDbEntity
  8
0
100
AcDbCircle
 10
74.91441135075911
 20
76.26745897413184
 30
0.0
 40
3.067967999999998
100
AcDbArc
 50
321.9486744805936
 51
26.36567250325756
  0
ARC
  5
218
330
2
100
AcDbEntity
  8
0
100
AcDbCircle
 10
72.75272574887094
 20
107.2801806860989
 30
0.0
 40
1.0
100
AcDbArc
 50
90.0
 51
180.0
  0
ARC
  5
219
330
2
100
AcDbEntity
  8
0
100
AcDbCircle
 10
74.33259374888075
 20
109.2801806860989
 30
0.0
 40
1.0
100
AcDbArc
 50
270.0
 51
355.2363579999948
  0
LINE
  5
21A
102
{ACAD_REACTORS
330
1F0
102
}
330
2
100
AcDbEntity
  8
0
100
AcDbLine
 10
75.32913874887163
 20
109.1971356860985
 30
0.0
 11
75.75272574887094
 21
114.2801806860989
 31
0.0
  0
LINE
  5
21B
330
2
100
AcDbEntity
  8
0
100
AcDbLine
 10
75.05272574888113
 20
114.9801806860987
 30
0.0
 11
75.05272574888113
 21
114.2801806860989
 31
0.0
  0
LINE
  5
21C
330
2
100
AcDbEntity
  8
0
100
AcDbLine
 10
71.75272574888186
 20
107.2801806860989
 30
0.0
 11
71.75272574888186
 21
106.280180686097
 31
0.0
  0
LINE
  5
21D
330
2
100
AcDbEntity
  8
0
100
AcDbLine
 10
75.75272574887094
 20
114.9801806860987
 30
0.0
 11
73.78018374888052
 21
148.8092856860985
 31
0.0
  0
DIMENSION
  5
21E
102
{ACAD_XDICTIONARY
360
21F
102
}
102
{ACAD_REACTORS
330
220
102
}
330
2
100
AcDbEntity
  8
0
100
AcDbDimension
  2
*D50
 10
262.333207300373
 20
161.3357841907127
 30
0.0
 11
218.2364175431321
 21
161.3357841907127
 31
0.0
 70
   160
  3
STANDARD
100
AcDbAlignedDimension
 13
187.3365403003717
 23
114.980179686031
 33
0.0
 14
262.333207300373
 24
146.2801796860312
 34
0.0
100
AcDbRotatedDimension
  0
DIMENSION
  5
22D
102
{ACAD_XDICTIONARY
360
22E
102
}
102
{ACAD_REACTORS
330
22F
102
}
330
2
100
AcDbEntity
  8
0
100
AcDbDimension
  2
*D49
 10
187.3365403003717
 20
161.3357841907127
 30
0.0
 11
184.3365403003717
 21
161.3357841907127
 31
0.0
 70
   160
  3
STANDARD
100
AcDbAlignedDimension
 13
181.3365403003717
 23
106.2801806860279
 33
0.0
 14
187.3365403003717
 24
114.980179686031
 34
0.0
100
AcDbRotatedDimension
  0
DIMENSION
  5
23E
102
{ACAD_XDICTIONARY
360
23F
102
}
102
{ACAD_REACTORS
330
240
102
}
330
2
100
AcDbEntity
  8
0
100
AcDbDimension
  2
*D48
 10
290.333207300373
 20
161.3192131702026
 30
0.0
 11
276.333207300373
 21
161.3192131702026
 31
0.0
 70
   160
  1
MAX. <>
  3
STANDARD
100
AcDbAlignedDimension
 13
262.333207300373
 23
146.2801796860312
 33
0.0
 14
290.333207300373
 24
138.2801796860303
 34
0.0
100
AcDbRotatedDimension
  0
LINE
  5
24D
330
2
100
AcDbEntity
  8
0
100
AcDbLine
 10
309.3365403003717
 20
106.280180686027
 30
0.0
 11
187.9365403003721
 21
106.2801806860279
 31
0.0
  0
LINE
  5
24E
330
2
100
AcDbEntity
  8
0
100
AcDbLine
 10
244.453207300372
 20
96.44489802755835
 30
0.0
 11
187.9365403003721
 21
96.44489802755742
 31
0.0
  0
LINE
  5
24F
330
2
100
AcDbEntity
  8
0
100
AcDbLine
 10
259.8615123003728
 20
149.2801796860303
 30
0.0
 11
189.9233033003729
 21
149.2801796860303
 31
0.0
  0
LINE
  5
250
102
{ACAD_REACTORS
330
22F
330
220
102
}
330
2
100
AcDbEntity
  8
0
100
AcDbLine
 10
262.333207300373
 20
114.980179686031
 30
0.0
 11
187.3365403003717
 21
114.980179686031
 31
0.0
  0
LINE
  5
251
330
2
100
AcDbEntity
  8
0
100
AcDbLine
 10
262.333207300373
 20
114.2801796860312
 30
0.0
 11
187.453207300372
 21
114.2801796860312
 31
0.0
  0
LINE
  5
252
330
2
100
AcDbEntity
  8
0
100
AcDbLine
 10
260.4860803003721
 20
108.2801796860312
 30
0.0
 11
187.9365403003721
 21
108.2801796860312
 31
0.0
  0
LINE
  5
253
330
2
100
AcDbEntity
  8
CEN
 48
0.6
100
AcDbLine
 10
296.117001300372
 20
131.2801796860303
 30
0.0
 11
184.9078983472918
 21
131.2801796860303
 31
0.0
  0
LINE
  5
254
330
2
100
AcDbEntity
  8
0
100
AcDbLine
 10
188.8365403003717
 20
97.17891802755822
 30
0.0
 11
188.8365403003717
 21
104.8789180275571
 31
0.0
  0
LINE
  5
255
330
2
100
AcDbEntity
  8
0
100
AcDbLine
 10
181.3365403003717
 20
102.7801806860288
 30
0.0
 11
179.3365403003717
 21
102.7801806860288
 31
0.0
  0
LINE
  5
256
330
2
100
AcDbEntity
  8
0
100
AcDbLine
 10
187.9365403003721
 20
97.17891802755822
 30
0.0
 11
188.8365403003717
 21
97.17891802755822
 31
0.0
  0
LINE
  5
257
330
2
100
AcDbEntity
  8
0
100
AcDbLine
 10
188.1532073003727
 20
114.980179686031
 30
0.0
 11
188.1532073003727
 21
114.2801796860312
 31
0.0
  0
ARC
  5
258
330
2
100
AcDbEntity
  8
0
100
AcDbCircle
 10
189.9233033003729
 20
148.7801796860303
 30
0.0
 40
0.5
100
AcDbArc
 50
90.0
 51
176.4687330000435
  0
LINE
  5
259
330
2
100
AcDbEntity
  8
0
100
AcDbLine
 10
187.3365403003717
 20
114.980179686031
 30
0.0
 11
189.4242523003722
 21
148.8109766860288
 31
0.0
  0
LINE
  5
25A
330
2
100
AcDbEntity
  8
0
100
AcDbLine
 10
181.3365403003717
 20
106.2801806860279
 30
0.0
 11
187.9365403003721
 21
106.2801806860279
 31
0.0
  0
LINE
  5
25B
330
2
100
AcDbEntity
  8
0
100
AcDbLine
 10
187.9365403003721
 20
104.8789180275571
 30
0.0
 11
188.8365403003717
 21
104.8789180275571
 31
0.0
  0
LINE
  5
25C
330
2
100
AcDbEntity
  8
0
100
AcDbLine
 10
187.453207300372
 20
114.2801796860312
 30
0.0
 11
188.453207300372
 21
108.2801796860312
 31
0.0
  0
LINE
  5
25D
330
2
100
AcDbEntity
  8
0
100
AcDbLine
 10
291.3365403003717
 20
81.68410528778895
 30
0.0
 11
309.3365403003717
 21
81.68410528778895
 31
0.0
  0
ARC
  5
25E
330
2
100
AcDbEntity
  8
0
100
AcDbCircle
 10
283.833207300373
 20
125.980179686031
 30
0.0
 40
6.718630999999999
100
AcDbArc
 50
274.2678929999499
 51
345.3432489999617
  0
ARC
  5
25F
330
2
100
AcDbEntity
  8
0
100
AcDbCircle
 10
283.833207300373
 20
136.5801796860287
 30
0.0
 40
6.718630999999999
100
AcDbArc
 50
14.65675100003822
 51
85.73210700004995
  0
LINE
  5
260
330
2
100
AcDbEntity
  8
0
100
AcDbLine
 10
283.333207300373
 20
143.2801796860312
 30
0.0
 11
283.333207300373
 21
119.2801796860303
 31
0.0
  0
LINE
  5
261
102
{ACAD_REACTORS
330
240
102
}
330
2
100
AcDbEntity
  8
0
100
AcDbLine
 10
290.333207300373
 20
138.2801796860303
 30
0.0
 11
290.333207300373
 21
124.2801796860303
 31
0.0
  0
LINE
  5
262
330
2
100
AcDbEntity
  8
0
100
AcDbLine
 10
284.333207300373
 20
119.2801796860303
 30
0.0
 11
283.333207300373
 21
119.2801796860303
 31
0.0
  0
LINE
  5
263
330
2
100
AcDbEntity
  8
0
100
AcDbLine
 10
284.333207300373
 20
143.2801796860312
 30
0.0
 11
283.333207300373
 21
143.2801796860312
 31
0.0
  0
LINE
  5
264
330
2
100
AcDbEntity
  8
0
100
AcDbLine
 10
295.8035802492813
 20
108.1691160716727
 30
0.0
 11
298.2368997217999
 21
108.1691160716727
 31
0.0
  0
LINE
  5
265
330
2
100
AcDbEntity
  8
0
100
AcDbLine
 10
294.8035802492814
 20
106.2801806860279
 30
0.0
 11
294.8035802492814
 21
107.1691160716727
 31
0.0
  0
ARC
  5
266
330
2
100
AcDbEntity
  8
0
100
AcDbCircle
 10
295.8035802492813
 20
107.1691160716727
 30
0.0
 40
1.0
100
AcDbArc
 50
90.0
 51
180.0
  0
ARC
  5
267
330
2
100
AcDbEntity
  8
0
100
AcDbCircle
 10
298.2368997217999
 20
107.1691160716727
 30
0.0
 40
1.0
100
AcDbArc
 50
0.0
 51
90.0
  0
LINE
  5
268
330
2
100
AcDbEntity
  8
0
100
AcDbLine
 10
299.2368997218
 20
107.1691160716727
 30
0.0
 11
299.2368997218
 21
106.2801806860279
 31
0.0
  0
LINE
  5
269
330
2
100
AcDbEntity
  8
0
100
AcDbLine
 10
244.453207300372
 20
106.7801796860312
 30
0.0
 11
244.453207300372
 21
96.44489802755742
 31
0.0
  0
LINE
  5
26A
330
2
100
AcDbEntity
  8
0
100
AcDbLine
 10
262.333207300373
 20
114.980179686031
 30
0.0
 11
260.3606653003735
 21
148.8092846860299
 31
0.0
  0
LINE
  5
26B
102
{ACAD_REACTORS
330
240
102
}
330
2
100
AcDbEntity
  8
0
100
AcDbLine
 10
262.333207300373
 20
146.2801796860312
 30
0.0
 11
262.333207300373
 21
114.980179686031
 31
0.0
  0
LINE
  5
26C
330
2
100
AcDbEntity
  8
0
100
AcDbLine
 10
273.333207300373
 20
144.2801796860303
 30
0.0
 11
273.333207300373
 21
118.2801796860303
 31
0.0
  0
LINE
  5
26D
330
2
100
AcDbEntity
  8
0
100
AcDbLine
 10
267.333207300373
 20
144.2801796860303
 30
0.0
 11
267.333207300373
 21
118.2801796860303
 31
0.0
  0
LINE
  5
26E
330
2
100
AcDbEntity
  8
0
100
AcDbLine
 10
267.333207300373
 20
118.2801796860303
 30
0.0
 11
262.333207300373
 21
118.2801796860303
 31
0.0
  0
LINE
  5
26F
330
2
100
AcDbEntity
  8
0
100
AcDbLine
 10
267.333207300373
 20
123.2801796860303
 30
0.0
 11
262.333207300373
 21
123.2801796860303
 31
0.0
  0
LINE
  5
270
330
2
100
AcDbEntity
  8
0
100
AcDbLine
 10
267.333207300373
 20
125.7801796860303
 30
0.0
 11
262.333207300373
 21
125.7801796860303
 31
0.0
  0
LINE
  5
271
330
2
100
AcDbEntity
  8
0
100
AcDbLine
 10
261.6332073003722
 20
114.980179686031
 30
0.0
 11
261.6332073003722
 21
114.2801796860312
 31
0.0
  0
LINE
  5
272
330
2
100
AcDbEntity
  8
0
100
AcDbLine
 10
281.833207300373
 20
126.2801796860303
 30
0.0
 11
273.333207300373
 21
126.2801796860303
 31
0.0
  0
LINE
  5
273
330
2
100
AcDbEntity
  8
0
100
AcDbLine
 10
281.833207300373
 20
118.2801796860303
 30
0.0
 11
273.333207300373
 21
118.2801796860303
 31
0.0
  0
LINE
  5
274
330
2
100
AcDbEntity
  8
0
100
AcDbLine
 10
281.833207300373
 20
124.2801796860303
 30
0.0
 11
273.333207300373
 21
124.2801796860303
 31
0.0
  0
LINE
  5
275
330
2
100
AcDbEntity
  8
0
100
AcDbLine
 10
282.2509333003726
 20
123.5801796860305
 30
0.0
 11
273.333207300373
 21
123.5801796860305
 31
0.0
  0
LINE
  5
276
330
2
100
AcDbEntity
  8
0
100
AcDbLine
 10
281.833207300373
 20
126.2801796860303
 30
0.0
 11
281.833207300373
 21
124.2801796860303
 31
0.0
  0
LINE
  5
277
330
2
100
AcDbEntity
  8
0
100
AcDbLine
 10
273.333207300373
 20
122.2801796860303
 30
0.0
 11
267.333207300373
 21
122.2801796860303
 31
0.0
  0
LINE
  5
278
330
2
100
AcDbEntity
  8
0
100
AcDbLine
 10
273.333207300373
 20
121.2801796860303
 30
0.0
 11
267.333207300373
 21
121.2801796860303
 31
0.0
  0
LINE
  5
279
330
2
100
AcDbEntity
  8
0
100
AcDbLine
 10
267.333207300373
 20
136.7801796860303
 30
0.0
 11
262.333207300373
 21
136.7801796860303
 31
0.0
  0
LINE
  5
27A
330
2
100
AcDbEntity
  8
0
100
AcDbLine
 10
267.333207300373
 20
139.2801796860303
 30
0.0
 11
262.333207300373
 21
139.2801796860303
 31
0.0
  0
LINE
  5
27B
330
2
100
AcDbEntity
  8
0
100
AcDbLine
 10
267.333207300373
 20
144.2801796860303
 30
0.0
 11
262.333207300373
 21
144.2801796860303
 31
0.0
  0
LINE
  5
27C
102
{ACAD_REACTORS
330
220
102
}
330
2
100
AcDbEntity
  8
0
100
AcDbLine
 10
262.333207300373
 20
146.2801796860312
 30
0.0
 11
260.9798293003732
 21
146.2801796860312
 31
0.0
  0
ARC
  5
27D
330
2
100
AcDbEntity
  8
0
100
AcDbCircle
 10
260.9798293003732
 20
146.7801796860303
 30
0.0
 40
0.5
100
AcDbArc
 50
183.3370830000376
 51
270.0
  0
LINE
  5
27E
330
2
100
AcDbEntity
  8
0
100
AcDbLine
 10
281.833207300373
 20
144.2801796860303
 30
0.0
 11
273.333207300373
 21
144.2801796860303
 31
0.0
  0
LINE
  5
27F
330
2
100
AcDbEntity
  8
0
100
AcDbLine
 10
281.833207300373
 20
138.2801796860303
 30
0.0
 11
281.833207300373
 21
136.2801796860303
 31
0.0
  0
LINE
  5
280
330
2
100
AcDbEntity
  8
0
100
AcDbLine
 10
281.833207300373
 20
136.2801796860303
 30
0.0
 11
273.333207300373
 21
136.2801796860303
 31
0.0
  0
LINE
  5
281
330
2
100
AcDbEntity
  8
0
100
AcDbLine
 10
281.833207300373
 20
138.2801796860303
 30
0.0
 11
273.333207300373
 21
138.2801796860303
 31
0.0
  0
LINE
  5
282
330
2
100
AcDbEntity
  8
0
100
AcDbLine
 10
282.2509333003726
 20
138.980179686031
 30
0.0
 11
273.333207300373
 21
138.980179686031
 31
0.0
  0
LINE
  5
283
330
2
100
AcDbEntity
  8
0
100
AcDbLine
 10
282.6318153003721
 20
134.7801796860303
 30
0.0
 11
273.333207300373
 21
134.7801796860303
 31
0.0
  0
LINE
  5
284
330
2
100
AcDbEntity
  8
0
100
AcDbLine
 10
282.6318153003721
 20
127.7801796860303
 30
0.0
 11
273.333207300373
 21
127.7801796860303
 31
0.0
  0
LINE
  5
285
330
2
100
AcDbEntity
  8
0
100
AcDbLine
 10
273.333207300373
 20
140.2801796860312
 30
0.0
 11
267.333207300373
 21
140.2801796860312
 31
0.0
  0
LINE
  5
286
330
2
100
AcDbEntity
  8
0
100
AcDbLine
 10
273.333207300373
 20
141.2801796860303
 30
0.0
 11
267.333207300373
 21
141.2801796860303
 31
0.0
  0
ARC
  5
287
330
2
100
AcDbEntity
  8
0
100
AcDbCircle
 10
259.8615123003728
 20
148.7801796860303
 30
0.0
 40
0.5
100
AcDbArc
 50
3.337083000037623
 51
90.0
  0
ARC
  5
288
330
2
100
AcDbEntity
  8
0
100
AcDbCircle
 10
260.4860803003721
 20
109.2801796860303
 30
0.0
 40
1.0
100
AcDbArc
 50
270.0
 51
350.5376779999607
  0
ARC
  5
289
330
2
100
AcDbEntity
  8
0
100
AcDbCircle
 10
245.953207300372
 20
106.7801796860312
 30
0.0
 40
1.5
100
AcDbArc
 50
90.0
 51
180.0
  0
LINE
  5
28A
330
2
100
AcDbEntity
  8
0
100
AcDbLine
 10
262.333207300373
 20
114.2801796860312
 30
0.0
 11
261.4724743003735
 21
109.1157806860319
 31
0.0
  0
ARC
  5
28B
330
2
100
AcDbEntity
  8
0
100
AcDbCircle
 10
274.2498743003725
 20
131.2801796860303
 30
0.0
 40
9.083332999999999
100
AcDbArc
 50
326.601511999943
 51
33.398488000057
  0
LINE
  5
28C
330
2
100
AcDbEntity
  8
0
100
AcDbLine
 10
281.833207300373
 20
118.2801796860303
 30
0.0
 11
283.333207300373
 21
119.2801796860303
 31
0.0
  0
ARC
  5
28D
330
2
100
AcDbEntity
  8
0
100
AcDbCircle
 10
274.2498743003725
 20
119.2801796860303
 30
0.0
 40
9.083332999999999
100
AcDbArc
 50
0.0
 51
33.398488000057
  0
LINE
  5
28E
330
2
100
AcDbEntity
  8
0
100
AcDbLine
 10
283.333207300373
 20
119.2801796860303
 30
0.0
 11
273.333207300373
 21
119.2801796860303
 31
0.0
  0
LINE
  5
28F
330
2
100
AcDbEntity
  8
0
100
AcDbLine
 10
281.833207300373
 20
144.2801796860303
 30
0.0
 11
283.333207300373
 21
143.2801796860312
 31
0.0
  0
LINE
  5
290
330
2
100
AcDbEntity
  8
0
100
AcDbLine
 10
283.333207300373
 20
143.2801796860312
 30
0.0
 11
273.333207300373
 21
143.2801796860312
 31
0.0
  0
ARC
  5
291
330
2
100
AcDbEntity
  8
0
100
AcDbCircle
 10
274.2498743003725
 20
143.2801796860312
 30
0.0
 40
9.083332999999999
100
AcDbArc
 50
326.601511999943
 51
0.0
  0
ARC
  5
292
330
2
100
AcDbEntity
  8
0
100
AcDbCircle
 10
309.3365403003717
 20
88.68410528778895
 30
0.0
 40
7.0
100
AcDbArc
 50
270.0
 51
0.0
  0
ARC
  5
293
330
2
100
AcDbEntity
  8
0
100
AcDbCircle
 10
309.3365403003717
 20
74.68410528778895
 30
0.0
 40
7.0
100
AcDbArc
 50
0.0
 51
90.0
  0
LINE
  5
294
330
2
100
AcDbEntity
  8
0
100
AcDbLine
 10
316.3365403003717
 20
99.28018068602888
 30
0.0
 11
316.3365403003717
 21
88.68410528778895
 31
0.0
  0
ARC
  5
295
330
2
100
AcDbEntity
  8
0
100
AcDbCircle
 10
309.3365403003717
 20
99.28018068602888
 30
0.0
 40
7.0
100
AcDbArc
 50
0.0
 51
90.0
  0
LINE
  5
296
330
2
100
AcDbEntity
  8
0
100
AcDbLine
 10
278.7061352674827
 20
240.8443285007906
 30
0.0
 11
278.7061352674827
 21
241.7332638864381
 31
0.0
  0
ARC
  5
297
330
2
100
AcDbEntity
  8
0
100
AcDbCircle
 10
275.2728157949714
 20
240.8443285007906
 30
0.0
 40
1.0
100
AcDbArc
 50
180.0
 51
270.0
  0
LINE
  5
298
330
2
100
AcDbEntity
  8
0
100
AcDbLine
 10
275.2728157949714
 20
239.8443285007906
 30
0.0
 11
277.7061352674827
 21
239.8443285007906
 31
0.0
  0
LINE
  5
299
330
2
100
AcDbEntity
  8
0
100
AcDbLine
 10
274.2728157949605
 20
241.7332638864381
 30
0.0
 11
274.2728157949605
 21
240.8443285007906
 31
0.0
  0
ARC
  5
29A
330
2
100
AcDbEntity
  8
0
100
AcDbCircle
 10
277.7061352674827
 20
240.8443285007906
 30
0.0
 40
1.0
100
AcDbArc
 50
270.0
 51
0.0
  0
LINE
  5
29B
102
{ACAD_REACTORS
330
2A1
102
}
330
2
100
AcDbEntity
  8
0
100
AcDbLine
 10
167.4057758460494
 20
243.1345265449099
 30
0.0
 11
168.305775846049
 21
243.1345265449099
 31
0.0
  0
LINE
  5
29C
330
2
100
AcDbEntity
  8
0
100
AcDbLine
 10
288.805775846049
 20
241.7332638864363
 30
0.0
 11
167.4057758460494
 21
241.7332638864381
 31
0.0
  0
LINE
  5
29D
102
{ACAD_REACTORS
330
2B2
102
}
330
2
100
AcDbEntity
  8
0
100
AcDbLine
 10
160.805775846049
 20
245.2332638864363
 30
0.0
 11
158.805775846049
 21
245.2332638864363
 31
0.0
  0
LINE
  5
29E
102
{ACAD_REACTORS
330
B4
330
2A1
330
2B2
330
F5
102
}
330
2
100
AcDbEntity
  8
0
100
AcDbLine
 10
160.805775846049
 20
241.7332638864381
 30
0.0
 11
167.4057758460494
 21
241.7332638864381
 31
0.0
  0
DIMENSION
  5
29F
102
{ACAD_XDICTIONARY
360
2A0
102
}
102
{ACAD_REACTORS
330
2A1
102
}
330
2
100
AcDbEntity
  8
0
100
AcDbDimension
  2
*D47
 10
168.305775846049
 20
228.4586515524024
 30
0.0
 11
164.555775846049
 21
228.4586515524024
 31
0.0
 70
   160
  3
STANDARD
100
AcDbAlignedDimension
 13
160.805775846049
 23
241.7332638864381
 33
0.0
 14
168.305775846049
 24
243.1345265449099
 34
0.0
100
AcDbRotatedDimension
  0
MTEXT
  5
2AE
102
{ACAD_REACTORS
330
2AF
102
}
330
2
100
AcDbEntity
  8
0
 62
     3
100
AcDbMText
 10
106.1784016321198
 20
229.7888161746195
 30
0.0
 40
3.0
 41
0.0
 71
     4
 72
     1
  1
4-%%C6.5 hole
1001
ACAD
1000
MTEXTBEGIN
1070
    73
1070
     1
1070
    44
1040
1.0
1070
    74
1070
     0
1000
MTEXTEND
  0
LEADER
  5
2AF
330
2
100
AcDbEntity
  8
0
100
AcDbLeader
  3
STANDARD
 73
     0
 74
     0
 75
     1
 40
3.0
 41
26.65178571428571
 76
     3
 10
91.64815127072143
 20
247.0996257789083
 30
0.0
 10
102.6784016321198
 20
227.2888161746195
 30
0.0
 10
105.1784016321198
 20
227.2888161746195
 30
0.0
340
2AE
1001
ACAD
1000
DSTYLE
1002
{
1070
     5
1000

1070
    77
1070
     1
1070
   147
1040
1.0
1070
   342
1005
0
1002
}
  0
DIMENSION
  5
2B0
102
{ACAD_XDICTIONARY
360
2B1
102
}
102
{ACAD_REACTORS
330
2B2
102
}
330
2
100
AcDbEntity
  8
0
100
AcDbDimension
  2
*D46
 10
160.805775846049
 20
228.4586515524024
 30
0.0
 11
149.805775846049
 21
228.4586515524024
 31
0.0
 70
   160
  3
STANDARD
100
AcDbAlignedDimension
 13
158.805775846049
 23
245.2332638864363
 33
0.0
 14
160.805775846049
 24
241.7332638864381
 34
0.0
100
AcDbRotatedDimension
  0
LINE
  5
2C1
330
2
100
AcDbEntity
  8
0
100
AcDbLine
 10
53.89690401539883
 20
374.7332638865091
 30
0.0
 11
82.42521001539898
 21
374.7332638865091
 31
0.0
  0
LINE
  5
2C2
330
2
100
AcDbEntity
  8
0
100
AcDbLine
 10
53.89690401539883
 20
339.7332638865091
 30
0.0
 11
84.89690401539883
 21
339.7332638865091
 31
0.0
  0
LINE
  5
2C3
330
2
100
AcDbEntity
  8
CEN
100
AcDbLine
 10
4.643627801000548
 20
286.7332638864382
 30
0.0
 11
103.1501802297989
 21
286.7332638864382
 31
0.0
  0
LINE
  5
2C4
330
2
100
AcDbEntity
  8
0
100
AcDbLine
 10
84.89690401539883
 20
340.4332638865089
 30
0.0
 11
22.89690401539883
 21
340.4332638865089
 31
0.0
  0
ARC
  5
2C5
330
2
100
AcDbEntity
  8
0
100
AcDbCircle
 10
53.82143970122161
 20
286.7332638864382
 30
0.0
 40
36.81561599999999
100
AcDbArc
 50
296.3656725032604
 51
333.6343274967423
  0
ARC
  5
2C6
330
2
100
AcDbEntity
  8
0
100
AcDbCircle
 10
53.82143970122161
 20
286.7332638864382
 30
0.0
 40
36.81561599999999
100
AcDbArc
 50
26.36567250325756
 51
63.63432749673943
  0
LINE
  5
2C7
330
2
100
AcDbEntity
  8
0
100
AcDbLine
 10
68.89690401539883
 20
333.7332638865073
 30
0.0
 11
83.47677201539955
 21
333.7332638865073
 31
0.0
  0
DIMENSION
  5
2C8
102
{ACAD_XDICTIONARY
360
2C9
102
}
102
{ACAD_REACTORS
330
2CA
102
}
330
2
100
AcDbEntity
  8
0
100
AcDbDimension
  2
*D51
 10
84.89690401539883
 20
388.6429934819325
 30
0.0
 11
53.89690401539883
 21
388.6429934819325
 31
0.0
 70
   160
  3
STANDARD
100
AcDbAlignedDimension
 13
22.89690401539883
 23
339.7332638865091
 33
0.0
 14
84.89690401539883
 24
339.7332638865091
 34
0.0
100
AcDbRotatedDimension
  0
ARC
  5
2D7
330
2
100
AcDbEntity
  8
0
100
AcDbCircle
 10
25.36859901539901
 20
374.2332638865073
 30
0.0
 40
0.5
100
AcDbArc
 50
90.0
 51
176.6629169999623
  0
LINE
  5
2D8
330
2
100
AcDbEntity
  8
0
100
AcDbLine
 10
53.89690401539883
 20
374.7332638865091
 30
0.0
 11
25.36859901539901
 21
374.7332638865091
 31
0.0
  0
CIRCLE
  5
2D9
330
2
100
AcDbEntity
  8
0
100
AcDbCircle
 10
54.14417826652243
 20
286.7332638864382
 30
0.0
 40
20.0
  0
ARC
  5
2DA
330
2
100
AcDbEntity
  8
0
100
AcDbCircle
 10
68.80871798932275
 20
256.4961139703682
 30
0.0
 40
3.067967999999998
100
AcDbArc
 50
231.9486744805834
 51
296.3656725032604
  0
ARC
  5
2DB
330
2
100
AcDbEntity
  8
0
100
AcDbCircle
 10
65.02672874128075
 20
251.6643163831559
 30
0.0
 40
3.067967999999998
100
AcDbArc
 50
51.9486744805834
 51
107.7198081528045
  0
ARC
  5
2DC
330
2
100
AcDbEntity
  8
0
100
AcDbCircle
 10
65.02672874128075
 20
321.8022113897213
 30
0.0
 40
3.067967999999998
100
AcDbArc
 50
252.2801918471953
 51
308.0513255194166
  0
ARC
  5
2DD
330
2
100
AcDbEntity
  8
0
100
AcDbCircle
 10
68.80871798932275
 20
316.9704138025072
 30
0.0
 40
3.067967999999998
100
AcDbArc
 50
63.63432749673943
 51
128.0513255194166
  0
ARC
  5
2DE
330
2
100
AcDbEntity
  8
0
100
AcDbCircle
 10
53.82143970122161
 20
286.7332638864382
 30
0.0
 40
33.74764799999999
100
AcDbArc
 50
252.2801918471953
 51
287.7198081528046
  0
ARC
  5
2DF
330
2
100
AcDbEntity
  8
0
100
AcDbCircle
 10
53.82143970122161
 20
286.7332638864382
 30
0.0
 40
33.74764799999999
100
AcDbArc
 50
72.28019184719541
 51
107.7198081528045
  0
ARC
  5
2E0
330
2
100
AcDbEntity
  8
0
100
AcDbCircle
 10
38.83416141312227
 20
256.4961139703682
 30
0.0
 40
3.067967999999998
100
AcDbArc
 50
243.6343274967394
 51
308.0513255194166
  0
ARC
  5
2E1
330
2
100
AcDbEntity
  8
0
100
AcDbCircle
 10
42.61615066115882
 20
251.6643163831559
 30
0.0
 40
3.067967999999998
100
AcDbArc
 50
72.28019184719541
 51
128.0513255194166
  0
ARC
  5
2E2
330
2
100
AcDbEntity
  8
0
100
AcDbCircle
 10
38.83416141312227
 20
316.9704138025072
 30
0.0
 40
3.067967999999998
100
AcDbArc
 50
51.9486744805834
 51
116.3656725032604
  0
ARC
  5
2E3
330
2
100
AcDbEntity
  8
0
100
AcDbCircle
 10
42.61615066115882
 20
321.8022113897213
 30
0.0
 40
3.067967999999998
100
AcDbArc
 50
231.9486744805834
 51
287.7198081528046
  0
LINE
  5
2E4
330
2
100
AcDbEntity
  8
0
100
AcDbLine
 10
38.89690401539883
 20
333.7332638865073
 30
0.0
 11
38.89690401539883
 21
331.7332638865073
 31
0.0
  0
CIRCLE
  5
2E5
330
2
100
AcDbEntity
  8
0
100
AcDbCircle
 10
53.89690401539883
 20
286.7332638864382
 30
0.0
 40
4.235
  0
CIRCLE
  5
2E6
330
2
100
AcDbEntity
  8
0
100
AcDbCircle
 10
53.89690401539883
 20
286.7332638864382
 30
0.0
 40
3.198036349121024
  0
ARC
  5
2E7
330
2
100
AcDbEntity
  8
0
100
AcDbCircle
 10
18.75249219794022
 20
297.9385529265018
 30
0.0
 40
3.067967999999998
100
AcDbArc
 50
342.2801918472092
 51
38.05132551940634
  0
ARC
  5
2E8
330
2
100
AcDbEntity
  8
0
100
AcDbCircle
 10
53.82143970122161
 20
286.7332638864382
 30
0.0
 40
33.74764799999999
100
AcDbArc
 50
162.2801918472091
 51
197.7198081527907
  0
ARC
  5
2E9
330
2
100
AcDbEntity
  8
0
100
AcDbCircle
 10
18.75249219794022
 20
275.5279748463735
 30
0.0
 40
3.067967999999998
100
AcDbArc
 50
321.9486744805936
 51
17.71980815279071
  0
ARC
  5
2EA
330
2
100
AcDbEntity
  8
0
100
AcDbCircle
 10
23.58428978515076
 20
271.7459855983352
 30
0.0
 40
3.067967999999998
100
AcDbArc
 50
141.9486744805935
 51
206.3656725032576
  0
ARC
  5
2EB
330
2
100
AcDbEntity
  8
0
100
AcDbCircle
 10
23.58428978515076
 20
301.7205421745411
 30
0.0
 40
3.067967999999998
100
AcDbArc
 50
153.6343274967423
 51
218.0513255194063
  0
ARC
  5
2EC
330
2
100
AcDbEntity
  8
0
100
AcDbCircle
 10
24.31703701540027
 20
334.7332638865073
 30
0.0
 40
1.0
100
AcDbArc
 50
184.7636420000051
 51
270.0
  0
LINE
  5
2ED
330
2
100
AcDbEntity
  8
0
100
AcDbLine
 10
23.3204920154003
 20
334.6502188865079
 30
0.0
 11
22.89690401539883
 21
339.7332638865091
 31
0.0
  0
ARC
  5
2EE
330
2
100
AcDbEntity
  8
0
100
AcDbCircle
 10
25.89690401539883
 20
332.7332638865073
 30
0.0
 40
1.0
100
AcDbArc
 50
0.0
 51
90.0
  0
LINE
  5
2EF
330
2
100
AcDbEntity
  8
0
100
AcDbLine
 10
26.89690401539883
 20
332.7332638865073
 30
0.0
 11
26.89690401539883
 21
331.7332638865073
 31
0.0
  0
LINE
  5
2F0
330
2
100
AcDbEntity
  8
0
100
AcDbLine
 10
23.59690401539956
 20
340.4332638865089
 30
0.0
 11
23.59690401539956
 21
339.7332638865091
 31
0.0
  0
ARC
  5
2F1
330
2
100
AcDbEntity
  8
0
100
AcDbCircle
 10
53.82143970122161
 20
286.7332638864382
 30
0.0
 40
36.81561599999999
100
AcDbArc
 50
206.3656725032576
 51
243.6343274967394
  0
ARC
  5
2F2
330
2
100
AcDbEntity
  8
0
100
AcDbCircle
 10
53.82143970122161
 20
286.7332638864382
 30
0.0
 40
36.81561599999999
100
AcDbArc
 50
116.3656725032604
 51
153.6343274967423
  0
LINE
  5
2F3
330
2
100
AcDbEntity
  8
0
100
AcDbLine
 10
38.89690401539883
 20
333.7332638865073
 30
0.0
 11
24.31703701540027
 21
333.7332638865073
 31
0.0
  0
LINE
  5
2F4
102
{ACAD_REACTORS
330
2CA
102
}
330
2
100
AcDbEntity
  8
0
100
AcDbLine
 10
53.89690401539883
 20
339.7332638865091
 30
0.0
 11
22.89690401539883
 21
339.7332638865091
 31
0.0
  0
LINE
  5
2F5
330
2
100
AcDbEntity
  8
0
100
AcDbLine
 10
68.89690401539883
 20
333.7332638865073
 30
0.0
 11
68.89690401539883
 21
331.7332638865073
 31
0.0
  0
LINE
  5
2F6
330
2
100
AcDbEntity
  8
0
100
AcDbLine
 10
22.89690401539883
 20
340.4332638865089
 30
0.0
 11
24.86944701539869
 21
374.2623688865096
 31
0.0
  0
LINE
  5
2F7
330
2
100
AcDbEntity
  8
0
100
AcDbLine
 10
239.3307478460483
 20
374.7332628864396
 30
0.0
 11
169.3925388460484
 21
374.7332628864396
 31
0.0
  0
ARC
  5
2F8
330
2
100
AcDbEntity
  8
0
100
AcDbCircle
 10
239.3307478460483
 20
374.2332628864396
 30
0.0
 40
0.5
100
AcDbArc
 50
3.337083000037623
 51
90.0
  0
LINE
  5
2F9
330
2
100
AcDbEntity
  8
0
100
AcDbLine
 10
246.8024428460485
 20
362.2332628864396
 30
0.0
 11
241.8024428460485
 21
362.2332628864396
 31
0.0
  0
LINE
  5
2FA
330
2
100
AcDbEntity
  8
0
100
AcDbLine
 10
246.8024428460485
 20
364.7332628864396
 30
0.0
 11
241.8024428460485
 21
364.7332628864396
 31
0.0
  0
LINE
  5
2FB
330
2
100
AcDbEntity
  8
0
100
AcDbLine
 10
246.8024428460485
 20
369.7332628864396
 30
0.0
 11
241.8024428460485
 21
369.7332628864396
 31
0.0
  0
LINE
  5
2FC
102
{ACAD_REACTORS
330
37B
102
}
330
2
100
AcDbEntity
  8
0
100
AcDbLine
 10
241.8024428460485
 20
371.7332628864405
 30
0.0
 11
240.4490648460487
 21
371.7332628864405
 31
0.0
  0
ARC
  5
2FD
330
2
100
AcDbEntity
  8
0
100
AcDbCircle
 10
240.4490648460487
 20
372.2332628864405
 30
0.0
 40
0.5
100
AcDbArc
 50
183.3370830000376
 51
270.0
  0
LINE
  5
2FE
330
2
100
AcDbEntity
  8
0
100
AcDbLine
 10
261.3024428460485
 20
369.7332628864396
 30
0.0
 11
262.8024428460485
 21
368.7332628864405
 31
0.0
  0
LINE
  5
2FF
330
2
100
AcDbEntity
  8
0
100
AcDbLine
 10
263.8024428460594
 20
368.7332628864405
 30
0.0
 11
262.8024428460485
 21
368.7332628864405
 31
0.0
  0
LINE
  5
300
330
2
100
AcDbEntity
  8
0
100
AcDbLine
 10
261.3024428460485
 20
369.7332628864396
 30
0.0
 11
252.8024428460594
 21
369.7332628864396
 31
0.0
  0
LINE
  5
301
330
2
100
AcDbEntity
  8
0
100
AcDbLine
 10
262.8024428460485
 20
368.7332628864405
 30
0.0
 11
252.8024428460594
 21
368.7332628864405
 31
0.0
  0
LINE
  5
302
330
2
100
AcDbEntity
  8
0
100
AcDbLine
 10
261.3024428460485
 20
363.7332628864396
 30
0.0
 11
261.3024428460485
 21
361.7332628864396
 31
0.0
  0
LINE
  5
303
330
2
100
AcDbEntity
  8
0
100
AcDbLine
 10
261.3024428460485
 20
361.7332628864396
 30
0.0
 11
252.8024428460594
 21
361.7332628864396
 31
0.0
  0
LINE
  5
304
330
2
100
AcDbEntity
  8
0
100
AcDbLine
 10
261.3024428460485
 20
363.7332628864396
 30
0.0
 11
252.8024428460594
 21
363.7332628864396
 31
0.0
  0
LINE
  5
305
330
2
100
AcDbEntity
  8
0
100
AcDbLine
 10
261.7201688460482
 20
364.4332628864404
 30
0.0
 11
252.8024428460594
 21
364.4332628864404
 31
0.0
  0
LINE
  5
306
330
2
100
AcDbEntity
  8
0
100
AcDbLine
 10
262.1010508460494
 20
360.2332628864396
 30
0.0
 11
252.8024428460594
 21
360.2332628864396
 31
0.0
  0
ARC
  5
307
330
2
100
AcDbEntity
  8
0
100
AcDbCircle
 10
253.7191098460498
 20
368.7332628864405
 30
0.0
 40
9.083332999999999
100
AcDbArc
 50
326.601511999943
 51
0.0
  0
LINE
  5
308
330
2
100
AcDbEntity
  8
0
100
AcDbLine
 10
252.8024428460594
 20
365.7332628864405
 30
0.0
 11
246.8024428460485
 21
365.7332628864405
 31
0.0
  0
LINE
  5
309
330
2
100
AcDbEntity
  8
0
100
AcDbLine
 10
252.8024428460594
 20
366.7332628864396
 30
0.0
 11
246.8024428460485
 21
366.7332628864396
 31
0.0
  0
ARC
  5
30A
330
2
100
AcDbEntity
  8
0
100
AcDbCircle
 10
169.3925388460484
 20
374.2332628864396
 30
0.0
 40
0.5
100
AcDbArc
 50
90.0
 51
176.4687330000435
  0
ARC
  5
30B
330
2
100
AcDbEntity
  8
0
100
AcDbCircle
 10
263.3024428460485
 20
362.0332628864389
 30
0.0
 40
6.718630999999999
100
AcDbArc
 50
14.65675100003822
 51
85.73210700004995
  0
DIMENSION
  5
30C
102
{ACAD_XDICTIONARY
360
30D
102
}
102
{ACAD_REACTORS
330
30E
102
}
330
2
100
AcDbEntity
  8
0
100
AcDbDimension
  2
*D55
 10
269.8024428460485
 20
386.7722963706119
 30
0.0
 11
255.8024428460484
 21
386.7722963706119
 31
0.0
 70
   160
  1
MAX. <>
  3
STANDARD
100
AcDbAlignedDimension
 13
241.8024428460485
 23
371.7332628864405
 33
0.0
 14
269.8024428460485
 24
363.7332628864396
 34
0.0
100
AcDbRotatedDimension
  0
ARC
  5
31B
330
2
100
AcDbEntity
  8
0
100
AcDbCircle
 10
82.42521001539898
 20
374.2332638865073
 30
0.0
 40
0.5
100
AcDbArc
 50
3.337083000037623
 51
90.0
  0
ARC
  5
31C
330
2
100
AcDbEntity
  8
0
100
AcDbCircle
 10
288.805775846049
 20
324.7332638864381
 30
0.0
 40
7.0
100
AcDbArc
 50
0.0
 51
90.0
  0
ARC
  5
31D
330
2
100
AcDbEntity
  8
0
100
AcDbCircle
 10
288.805775846049
 20
300.1371884881982
 30
0.0
 40
7.0
100
AcDbArc
 50
0.0
 51
90.0
  0
ARC
  5
31E
330
2
100
AcDbEntity
  8
0
100
AcDbCircle
 10
288.805775846049
 20
314.1371884881982
 30
0.0
 40
7.0
100
AcDbArc
 50
270.0
 51
0.0
  0
ARC
  5
31F
330
2
100
AcDbEntity
  8
0
100
AcDbCircle
 10
288.805775846049
 20
273.3293392846744
 30
0.0
 40
7.0
100
AcDbArc
 50
270.0
 51
0.0
  0
ARC
  5
320
330
2
100
AcDbEntity
  8
0
100
AcDbCircle
 10
288.805775846049
 20
259.3293392846753
 30
0.0
 40
7.0
100
AcDbArc
 50
0.0
 51
90.0
  0
LINE
  5
321
330
2
100
AcDbEntity
  8
0
100
AcDbLine
 10
295.805775846049
 20
324.7332638864381
 30
0.0
 11
295.805775846049
 21
314.1371884881982
 31
0.0
  0
LINE
  5
322
330
2
100
AcDbEntity
  8
0
100
AcDbLine
 10
295.805775846049
 20
300.1371884881982
 30
0.0
 11
295.805775846049
 21
273.3293392846744
 31
0.0
  0
LINE
  5
323
330
2
100
AcDbEntity
  8
0
100
AcDbLine
 10
295.805775846049
 20
259.3293392846753
 30
0.0
 11
295.805775846049
 21
248.7332638864381
 31
0.0
  0
LINE
  5
324
330
2
100
AcDbEntity
  8
0
100
AcDbLine
 10
295.805775846049
 20
314.1371884881982
 30
0.0
 11
295.805775846049
 21
259.3293392846753
 31
0.0
  0
LINE
  5
325
330
2
100
AcDbEntity
  8
0
100
AcDbLine
 10
276.2455980270915
 20
287.5882868981461
 30
0.0
 11
277.952005254423
 21
285.8818796708137
 31
0.0
  0
LINE
  5
326
330
2
100
AcDbEntity
  8
0
100
AcDbLine
 10
277.9556440505002
 20
287.5882868981461
 30
0.0
 11
276.2492368231796
 21
285.8818796708137
 31
0.0
  0
CIRCLE
  5
327
330
2
100
AcDbEntity
  8
0
100
AcDbCircle
 10
277.1006210388004
 20
286.7332638864382
 30
0.0
 40
2.147836038934201
  0
LINE
  5
328
330
2
100
AcDbEntity
  8
0
100
AcDbLine
 10
278.7061352674827
 20
332.6221992720811
 30
0.0
 11
278.7061352674827
 21
331.7332638864381
 31
0.0
  0
ARC
  5
329
330
2
100
AcDbEntity
  8
0
100
AcDbCircle
 10
275.2728157949714
 20
332.6221992720811
 30
0.0
 40
1.0
100
AcDbArc
 50
90.0
 51
180.0
  0
LINE
  5
32A
330
2
100
AcDbEntity
  8
0
100
AcDbLine
 10
274.2728157949605
 20
331.7332638864381
 30
0.0
 11
274.2728157949605
 21
332.6221992720811
 31
0.0
  0
LINE
  5
32B
330
2
100
AcDbEntity
  8
0
100
AcDbLine
 10
275.2728157949714
 20
333.6221992720811
 30
0.0
 11
277.7061352674827
 21
333.6221992720811
 31
0.0
  0
ARC
  5
32C
330
2
100
AcDbEntity
  8
0
100
AcDbCircle
 10
277.7061352674827
 20
332.6221992720811
 30
0.0
 40
1.0
100
AcDbArc
 50
0.0
 51
90.0
  0
LINE
  5
32D
330
2
100
AcDbEntity
  8
0
100
AcDbLine
 10
270.805775846049
 20
307.1371884881991
 30
0.0
 11
288.805775846049
 21
307.1371884881991
 31
0.0
  0
LINE
  5
32E
330
2
100
AcDbEntity
  8
0
100
AcDbLine
 10
270.805775846049
 20
266.3293392846744
 30
0.0
 11
288.805775846049
 21
266.3293392846744
 31
0.0
  0
LWPOLYLINE
  5
32F
330
2
100
AcDbEntity
  8
3
100
AcDbPolyline
 90
        4
 70
     1
 43
0.0
 10
308.9660530149085
 20
280.450698938198
 10
308.9660530149085
 20
283.7506989381972
 10
305.4660530149085
 20
283.7506989381972
 10
305.4660530149085
 20
280.450698938198
  0
LINE
  5
330
330
2
100
AcDbEntity
  8
0
100
AcDbLine
 10
168.305775846049
 20
322.6320012279675
 30
0.0
 11
168.305775846049
 21
330.3320012279664
 31
0.0
  0
LINE
  5
331
330
2
100
AcDbEntity
  8
0
100
AcDbLine
 10
223.9224428460492
 20
332.2332628864405
 30
0.0
 11
223.9224428460492
 21
321.8979812279667
 31
0.0
  0
LINE
  5
332
330
2
100
AcDbEntity
  8
0
100
AcDbLine
 10
167.4057758460494
 20
250.8345265449097
 30
0.0
 11
168.305775846049
 21
250.8345265449097
 31
0.0
  0
LINE
  5
333
330
2
100
AcDbEntity
  8
0
100
AcDbLine
 10
167.4057758460494
 20
322.6320012279675
 30
0.0
 11
168.305775846049
 21
322.6320012279675
 31
0.0
  0
LINE
  5
334
330
2
100
AcDbEntity
  8
0
100
AcDbLine
 10
223.9224428460492
 20
321.8979812279676
 30
0.0
 11
167.4057758460494
 21
321.8979812279667
 31
0.0
  0
LINE
  5
335
102
{ACAD_REACTORS
330
38A
330
37B
102
}
330
2
100
AcDbEntity
  8
0
100
AcDbLine
 10
241.8024428460485
 20
340.4332628864403
 30
0.0
 11
166.805775846049
 21
340.4332628864403
 31
0.0
  0
LINE
  5
336
330
2
100
AcDbEntity
  8
0
100
AcDbLine
 10
241.8024428460485
 20
339.7332628864405
 30
0.0
 11
166.9224428460584
 21
339.7332628864405
 31
0.0
  0
LINE
  5
337
330
2
100
AcDbEntity
  8
0
100
AcDbLine
 10
246.8024428460485
 20
343.7332628864405
 30
0.0
 11
241.8024428460485
 21
343.7332628864405
 31
0.0
  0
LINE
  5
338
330
2
100
AcDbEntity
  8
0
100
AcDbLine
 10
246.8024428460485
 20
348.7332628864396
 30
0.0
 11
241.8024428460485
 21
348.7332628864396
 31
0.0
  0
LINE
  5
339
330
2
100
AcDbEntity
  8
0
100
AcDbLine
 10
246.8024428460485
 20
351.2332628864396
 30
0.0
 11
241.8024428460485
 21
351.2332628864396
 31
0.0
  0
LINE
  5
33A
330
2
100
AcDbEntity
  8
0
100
AcDbLine
 10
241.1024428460496
 20
340.4332628864403
 30
0.0
 11
241.1024428460496
 21
339.7332628864405
 31
0.0
  0
LINE
  5
33B
330
2
100
AcDbEntity
  8
0
100
AcDbLine
 10
261.3024428460485
 20
351.7332628864405
 30
0.0
 11
252.8024428460594
 21
351.7332628864405
 31
0.0
  0
LINE
  5
33C
330
2
100
AcDbEntity
  8
0
100
AcDbLine
 10
261.3024428460485
 20
343.7332628864405
 30
0.0
 11
262.8024428460485
 21
344.7332628864405
 31
0.0
  0
LINE
  5
33D
330
2
100
AcDbEntity
  8
0
100
AcDbLine
 10
263.8024428460594
 20
344.7332628864405
 30
0.0
 11
262.8024428460485
 21
344.7332628864405
 31
0.0
  0
ARC
  5
33E
330
2
100
AcDbEntity
  8
0
100
AcDbCircle
 10
253.7191098460498
 20
344.7332628864405
 30
0.0
 40
9.083332999999999
100
AcDbArc
 50
0.0
 51
33.398488000057
  0
LINE
  5
33F
330
2
100
AcDbEntity
  8
0
100
AcDbLine
 10
261.3024428460485
 20
343.7332628864405
 30
0.0
 11
252.8024428460594
 21
343.7332628864405
 31
0.0
  0
LINE
  5
340
330
2
100
AcDbEntity
  8
0
100
AcDbLine
 10
262.8024428460485
 20
344.7332628864405
 30
0.0
 11
252.8024428460594
 21
344.7332628864405
 31
0.0
  0
LINE
  5
341
330
2
100
AcDbEntity
  8
0
100
AcDbLine
 10
261.3024428460485
 20
349.7332628864396
 30
0.0
 11
252.8024428460594
 21
349.7332628864396
 31
0.0
  0
LINE
  5
342
330
2
100
AcDbEntity
  8
0
100
AcDbLine
 10
261.7201688460482
 20
349.0332628864389
 30
0.0
 11
252.8024428460594
 21
349.0332628864389
 31
0.0
  0
LINE
  5
343
330
2
100
AcDbEntity
  8
0
100
AcDbLine
 10
261.3024428460485
 20
351.7332628864405
 30
0.0
 11
261.3024428460485
 21
349.7332628864396
 31
0.0
  0
LINE
  5
344
330
2
100
AcDbEntity
  8
0
100
AcDbLine
 10
252.8024428460594
 20
347.7332628864405
 30
0.0
 11
246.8024428460485
 21
347.7332628864405
 31
0.0
  0
LINE
  5
345
330
2
100
AcDbEntity
  8
0
100
AcDbLine
 10
252.8024428460594
 20
346.7332628864405
 30
0.0
 11
246.8024428460485
 21
346.7332628864405
 31
0.0
  0
LINE
  5
346
330
2
100
AcDbEntity
  8
0
100
AcDbLine
 10
262.1010508460494
 20
353.2332628864405
 30
0.0
 11
252.8024428460594
 21
353.2332628864405
 31
0.0
  0
LINE
  5
347
330
2
100
AcDbEntity
  8
0
100
AcDbLine
 10
167.6224428460482
 20
340.4332628864403
 30
0.0
 11
167.6224428460482
 21
339.7332628864405
 31
0.0
  0
LINE
  5
348
330
2
100
AcDbEntity
  8
0
100
AcDbLine
 10
167.4057758460494
 20
330.3320012279664
 30
0.0
 11
168.305775846049
 21
330.3320012279664
 31
0.0
  0
LINE
  5
349
330
2
100
AcDbEntity
  8
0
100
AcDbLine
 10
239.9553158460494
 20
333.7332628864405
 30
0.0
 11
167.4057758460494
 21
333.7332628864405
 31
0.0
  0
ARC
  5
34A
330
2
100
AcDbEntity
  8
0
100
AcDbCircle
 10
225.4224428460584
 20
332.2332628864405
 30
0.0
 40
1.5
100
AcDbArc
 50
90.0
 51
180.0
  0
ARC
  5
34B
330
2
100
AcDbEntity
  8
0
100
AcDbCircle
 10
239.9553158460494
 20
334.7332628864396
 30
0.0
 40
1.0
100
AcDbArc
 50
270.0
 51
350.5376779999607
  0
LINE
  5
34C
330
2
100
AcDbEntity
  8
0
100
AcDbLine
 10
241.8024428460485
 20
339.7332628864405
 30
0.0
 11
240.9417098460489
 21
334.5688638864403
 31
0.0
  0
LINE
  5
34D
330
2
100
AcDbEntity
  8
0
100
AcDbLine
 10
166.9224428460584
 20
339.7332628864405
 30
0.0
 11
167.9224428460583
 21
333.7332628864405
 31
0.0
  0
ARC
  5
34E
330
2
100
AcDbEntity
  8
0
100
AcDbCircle
 10
263.3024428460485
 20
351.4332628864404
 30
0.0
 40
6.718630999999999
100
AcDbArc
 50
274.2678929999499
 51
345.3432489999617
  0
LINE
  5
34F
330
2
100
AcDbEntity
  8
0
100
AcDbLine
 10
288.805775846049
 20
331.7332638864363
 30
0.0
 11
167.4057758460494
 21
331.7332638864381
 31
0.0
  0
LINE
  5
350
330
2
100
AcDbEntity
  8
0
100
AcDbLine
 10
160.805775846049
 20
328.2332638864382
 30
0.0
 11
158.805775846049
 21
328.2332638864382
 31
0.0
  0
LINE
  5
351
330
2
100
AcDbEntity
  8
0
100
AcDbLine
 10
160.805775846049
 20
331.7332638864381
 30
0.0
 11
167.4057758460494
 21
331.7332638864381
 31
0.0
  0
LINE
  5
352
330
2
100
AcDbEntity
  8
CEN
 48
0.6
100
AcDbLine
 10
275.5862368460584
 20
356.7332628864396
 30
0.0
 11
164.3771338929727
 21
356.7332628864396
 31
0.0
  0
LINE
  5
353
330
2
100
AcDbEntity
  8
2
 48
0.6
100
AcDbLine
 10
153.805775846049
 20
291.4832638864382
 30
0.0
 11
153.805775846049
 21
281.983263886439
 31
0.0
  0
ARC
  5
355
330
2
100
AcDbEntity
  8
0
 48
0.6
100
AcDbCircle
 10
153.8489627568906
 20
318.2994947754587
 30
0.0
 40
26.81626566475105
100
AcDbArc
 50
269.907726570802
 51
280.6520097393286
  0
ARC
  5
356
330
2
100
AcDbEntity
  8
0
 48
0.6
100
AcDbCircle
 10
153.8489627568815
 20
255.1670329973876
 30
0.0
 40
26.81626566478071
100
AcDbArc
 50
79.34799026067249
 51
90.09227342919791
  0
ARC
  5
357
330
2
100
AcDbEntity
  8
0
100
AcDbCircle
 10
88.89038720450116
 20
297.9385529265018
 30
0.0
 40
3.067967999999998
100
AcDbArc
 50
141.9486744805935
 51
197.7198081527907
  0
ARC
  5
358
330
2
100
AcDbEntity
  8
0
100
AcDbCircle
 10
53.82143970122161
 20
286.7332638864382
 30
0.0
 40
33.74764799999999
100
AcDbArc
 50
342.2801918472092
 51
17.71980815279071
  0
ARC
  5
359
330
2
100
AcDbEntity
  8
0
100
AcDbCircle
 10
88.89038720450116
 20
275.5279748463735
 30
0.0
 40
3.067967999999998
100
AcDbArc
 50
162.2801918472091
 51
218.0513255194063
  0
ARC
  5
35A
330
2
100
AcDbEntity
  8
0
100
AcDbCircle
 10
84.05858961729245
 20
271.7459855983352
 30
0.0
 40
3.067967999999998
100
AcDbArc
 50
333.6343274967423
 51
38.05132551940634
  0
ARC
  5
35B
330
2
100
AcDbEntity
  8
0
100
AcDbCircle
 10
84.05858961729245
 20
301.7205421745411
 30
0.0
 40
3.067967999999998
100
AcDbArc
 50
321.9486744805936
 51
26.36567250325756
  0
ARC
  5
35C
330
2
100
AcDbEntity
  8
0
100
AcDbCircle
 10
81.89690401539882
 20
332.7332638865073
 30
0.0
 40
1.0
100
AcDbArc
 50
90.0
 51
180.0
  0
ARC
  5
35D
330
2
100
AcDbEntity
  8
0
100
AcDbCircle
 10
83.47677201539955
 20
334.7332638865073
 30
0.0
 40
1.0
100
AcDbArc
 50
270.0
 51
355.2363579999948
  0
LINE
  5
35E
102
{ACAD_REACTORS
330
2CA
102
}
330
2
100
AcDbEntity
  8
0
100
AcDbLine
 10
84.47331701539951
 20
334.6502188865079
 30
0.0
 11
84.89690401539883
 21
339.7332638865091
 31
0.0
  0
LINE
  5
35F
330
2
100
AcDbEntity
  8
0
100
AcDbLine
 10
84.19690401539993
 20
340.4332638865089
 30
0.0
 11
84.19690401539993
 21
339.7332638865091
 31
0.0
  0
LINE
  5
360
330
2
100
AcDbEntity
  8
0
100
AcDbLine
 10
80.89690401539883
 20
332.7332638865073
 30
0.0
 11
80.89690401539883
 21
331.7332638865073
 31
0.0
  0
LINE
  5
361
330
2
100
AcDbEntity
  8
0
 48
0.6
100
AcDbLine
 10
139.805775846049
 20
291.3832638864377
 30
0.0
 11
140.805775846049
 21
292.3832638864378
 31
0.0
  0
LINE
  5
362
330
2
100
AcDbEntity
  8
0
 48
0.6
100
AcDbLine
 10
139.805775846049
 20
282.0832638864376
 30
0.0
 11
140.805775846049
 21
281.0832638864376
 31
0.0
  0
LINE
  5
363
330
2
100
AcDbEntity
  8
2
 48
0.6
100
AcDbLine
 10
140.805775846049
 20
292.3832638864378
 30
0.0
 11
140.805775846049
 21
281.0832638864367
 31
0.0
  0
LINE
  5
364
330
2
100
AcDbEntity
  8
0
 48
0.6
100
AcDbLine
 10
139.805775846049
 20
291.3832638864377
 30
0.0
 11
139.805775846049
 21
282.0832638864376
 31
0.0
  0
LINE
  5
365
330
2
100
AcDbEntity
  8
2
 48
0.6
100
AcDbLine
 10
153.805775846049
 20
289.3533532634501
 30
0.0
 11
140.805775846049
 21
282.473262555607
 31
0.0
  0
LINE
  5
366
330
2
100
AcDbEntity
  8
0
 48
0.6
100
AcDbLine
 10
140.805775846049
 20
291.4832638864382
 30
0.0
 11
153.805775846049
 21
291.4832638864382
 31
0.0
  0
LINE
  5
367
330
2
100
AcDbEntity
  8
0
 48
0.6
100
AcDbLine
 10
140.805775846049
 20
281.983263886439
 30
0.0
 11
153.805775846049
 21
281.983263886439
 31
0.0
  0
LINE
  5
368
330
2
100
AcDbEntity
  8
2
 48
0.6
100
AcDbLine
 10
153.805775846049
 20
288.1881637707874
 30
0.0
 11
141.9032280089595
 21
281.983263886439
 31
0.0
  0
LINE
  5
369
330
2
100
AcDbEntity
  8
2
 48
0.6
100
AcDbLine
 10
153.805775846049
 20
290.3318939901219
 30
0.0
 11
140.805775846049
 21
283.7645346780891
 31
0.0
  0
LINE
  5
36A
330
2
100
AcDbEntity
  8
CEN
 48
0.6
100
AcDbLine
 10
138.2449439244082
 20
291.8727638864384
 30
0.0
 11
161.805775846049
 21
291.8727638864384
 31
0.0
  0
LINE
  5
36B
330
2
100
AcDbEntity
  8
CEN
 48
0.6
100
AcDbLine
 10
138.0514986987
 20
281.593763886437
 30
0.0
 11
161.805775846049
 21
281.593763886437
 31
0.0
  0
LINE
  5
36C
330
2
100
AcDbEntity
  8
CEN
100
AcDbLine
 10
288.9146755929305
 20
286.7332638864382
 30
0.0
 11
136.6613034056517
 21
286.7332638864382
 31
0.0
  0
LINE
  5
36D
330
2
100
AcDbEntity
  8
0
 48
0.6
100
AcDbLine
 10
140.805775846049
 20
292.3832638864378
 30
0.0
 11
158.805775846049
 21
292.3832638864378
 31
0.0
  0
LINE
  5
36E
330
2
100
AcDbEntity
  8
0
 48
0.6
100
AcDbLine
 10
147.805775846049
 20
292.3832638864378
 30
0.0
 11
158.805775846049
 21
292.3832638864378
 31
0.0
  0
LINE
  5
36F
330
2
100
AcDbEntity
  8
0
 48
0.6
100
AcDbLine
 10
140.805775846049
 20
281.0832638864376
 30
0.0
 11
158.805775846049
 21
281.0832638864376
 31
0.0
  0
LINE
  5
370
330
2
100
AcDbEntity
  8
0
 48
0.6
100
AcDbLine
 10
147.805775846049
 20
281.0832638864376
 30
0.0
 11
158.805775846049
 21
281.0832638864376
 31
0.0
  0
LINE
  5
371
102
{ACAD_REACTORS
330
30E
102
}
330
2
100
AcDbEntity
  8
0
100
AcDbLine
 10
269.8024428460485
 20
363.7332628864396
 30
0.0
 11
269.8024428460485
 21
349.7332628864396
 31
0.0
  0
LINE
  5
372
102
{ACAD_REACTORS
330
30E
102
}
330
2
100
AcDbEntity
  8
0
100
AcDbLine
 10
241.8024428460485
 20
371.7332628864405
 30
0.0
 11
241.8024428460485
 21
340.4332628864403
 31
0.0
  0
LINE
  5
373
330
2
100
AcDbEntity
  8
0
100
AcDbLine
 10
241.8024428460485
 20
340.4332628864403
 30
0.0
 11
239.8299008460489
 21
374.2623678864392
 31
0.0
  0
ARC
  5
374
330
2
100
AcDbEntity
  8
0
100
AcDbCircle
 10
253.7191098460498
 20
356.7332628864396
 30
0.0
 40
9.083332999999999
100
AcDbArc
 50
326.601511999943
 51
33.398488000057
  0
LINE
  5
375
330
2
100
AcDbEntity
  8
0
100
AcDbLine
 10
252.8024428460594
 20
369.7332628864396
 30
0.0
 11
252.8024428460594
 21
343.7332628864405
 31
0.0
  0
LINE
  5
376
330
2
100
AcDbEntity
  8
0
100
AcDbLine
 10
262.8024428460485
 20
368.7332628864405
 30
0.0
 11
262.8024428460485
 21
344.7332628864405
 31
0.0
  0
LINE
  5
377
330
2
100
AcDbEntity
  8
0
100
AcDbLine
 10
246.8024428460485
 20
369.7332628864396
 30
0.0
 11
246.8024428460485
 21
343.7332628864405
 31
0.0
  0
LINE
  5
378
330
2
100
AcDbEntity
  8
0
100
AcDbLine
 10
166.805775846049
 20
340.4332628864403
 30
0.0
 11
168.8934878460495
 21
374.2640598864391
 31
0.0
  0
DIMENSION
  5
379
102
{ACAD_XDICTIONARY
360
37A
102
}
102
{ACAD_REACTORS
330
37B
102
}
330
2
100
AcDbEntity
  8
0
100
AcDbDimension
  2
*D54
 10
241.8024428460485
 20
386.788867391122
 30
0.0
 11
197.7056530888221
 21
386.788867391122
 31
0.0
 70
   160
  3
STANDARD
100
AcDbAlignedDimension
 13
166.805775846049
 23
340.4332628864403
 33
0.0
 14
241.8024428460485
 24
371.7332628864405
 34
0.0
100
AcDbRotatedDimension
  0
DIMENSION
  5
388
102
{ACAD_XDICTIONARY
360
389
102
}
102
{ACAD_REACTORS
330
38A
102
}
330
2
100
AcDbEntity
  8
0
100
AcDbDimension
  2
*D53
 10
166.805775846049
 20
386.788867391122
 30
0.0
 11
163.805775846049
 21
386.788867391122
 31
0.0
 70
   160
  3
STANDARD
100
AcDbAlignedDimension
 13
160.805775846049
 23
331.7332638864381
 33
0.0
 14
166.805775846049
 24
340.4332628864403
 34
0.0
100
AcDbRotatedDimension
  0
LINE
  5
399
330
2
100
AcDbEntity
  8
0
100
AcDbLine
 10
84.89690401539883
 20
340.4332638865089
 30
0.0
 11
82.92436201539931
 21
374.2623688865096
 31
0.0
  0
DIMENSION
  5
39A
330
2
100
AcDbEntity
  8
0
100
AcDbDimension
  2
*D52
 10
101.2162500866598
 20
374.7332638865091
 30
0.0
 11
101.2162500866597
 21
354.8280996835929
 31
0.0
 70
   160
  3
STANDARD
100
AcDbAlignedDimension
 13
94.45207269423008
 23
331.7332638865073
 33
0.0
 14
82.06033370050864
 24
374.7332638865091
 34
0.0
 50
90.0
100
AcDbRotatedDimension
  0
ENDSEC
  0
SECTION
  2
OBJECTS
  0
DICTIONARY
  5
9
330
0
100
AcDbDictionary
  3
ACAD_GROUP
350
98
  3
ACAD_LAYOUT
350
D
  3
ACAD_MLINESTYLE
350
99
  3
ACAD_PLOTSETTINGS
350
9A
  3
ACAD_PLOTSTYLENAME
350
8
  3
ACDBHEADERROUNDTRIPXREC
350
4FC
  3
ACDBVARIABLEDICTIONARY
350
3A7
  0
DICTIONARY
  5
15
330
14
100
AcDbDictionary
280
     1
  3
ACAD_LAYERFILTERS
360
16
  3
ACAD_LAYERSTATES
360
89
  0
DICTIONARY
  5
3
330
2
100
AcDbDictionary
280
     1
  3
ACAD_LAYOUTSELFREF
360
51D
  0
DICTIONARY
  5
F
330
E
100
AcDbDictionary
280
     1
  3
ACAD_LAYOUTSELFREF
360
51E
  0
DICTIONARY
  5
CA
330
C9
100
AcDbDictionary
280
     1
  3
ACAD_DIMASSOC
360
CB
  0
DICTIONARY
  5
B3
330
B2
100
AcDbDictionary
280
     1
  3
ACAD_DIMASSOC
360
B4
  0
DICTIONARY
  5
E5
330
E4
100
AcDbDictionary
280
     1
  3
ACAD_DIMASSOC
360
E6
  0
DICTIONARY
  5
F4
330
F3
100
AcDbDictionary
280
     1
  3
ACAD_DIMASSOC
360
F5
  0
DICTIONARY
  5
107
330
106
100
AcDbDictionary
280
     1
  3
ACAD_DIMASSOC
360
108
  0
DICTIONARY
  5
116
330
115
100
AcDbDictionary
280
     1
  3
ACAD_DIMASSOC
360
117
  0
DICTIONARY
  5
125
330
124
100
AcDbDictionary
280
     1
  3
ACAD_DIMASSOC
360
126
  0
DICTIONARY
  5
16D
330
16C
100
AcDbDictionary
280
     1
  3
ACAD_DIMASSOC
360
16E
  0
DICTIONARY
  5
181
330
180
100
AcDbDictionary
280
     1
  3
ACAD_DIMASSOC
360
182
  0
DICTIONARY
  5
194
330
193
100
AcDbDictionary
280
     1
  3
ACAD_DIMASSOC
360
195
  0
DICTIONARY
  5
1B2
330
1B1
100
AcDbDictionary
280
     1
  3
ACAD_DIMASSOC
360
1B3
  0
DICTIONARY
  5
1C6
330
1C5
100
AcDbDictionary
280
     1
  3
ACAD_DIMASSOC
360
1C7
  0
DICTIONARY
  5
1EF
330
1EE
100
AcDbDictionary
280
     1
  3
ACAD_DIMASSOC
360
1F0
  0
DICTIONARY
  5
21F
330
21E
100
AcDbDictionary
280
     1
  3
ACAD_DIMASSOC
360
220
  0
DICTIONARY
  5
22E
330
22D
100
AcDbDictionary
280
     1
  3
ACAD_DIMASSOC
360
22F
  0
DICTIONARY
  5
23F
330
23E
100
AcDbDictionary
280
     1
  3
ACAD_DIMASSOC
360
240
  0
DICTIONARY
  5
2A0
330
29F
100
AcDbDictionary
280
     1
  3
ACAD_DIMASSOC
360
2A1
  0
DICTIONARY
  5
2B1
330
2B0
100
AcDbDictionary
280
     1
  3
ACAD_DIMASSOC
360
2B2
  0
DICTIONARY
  5
2C9
330
2C8
100
AcDbDictionary
280
     1
  3
ACAD_DIMASSOC
360
2CA
  0
DICTIONARY
  5
30D
330
30C
100
AcDbDictionary
280
     1
  3
ACAD_DIMASSOC
360
30E
  0
DICTIONARY
  5
37A
330
379
100
AcDbDictionary
280
     1
  3
ACAD_DIMASSOC
360
37B
  0
DICTIONARY
  5
389
330
388
100
AcDbDictionary
280
     1
  3
ACAD_DIMASSOC
360
38A
  0
DICTIONARY
  5
98
102
{ACAD_REACTORS
330
9
102
}
330
9
100
AcDbDictionary
  0
DICTIONARY
  5
D
102
{ACAD_REACTORS
330
9
102
}
330
9
100
AcDbDictionary
  0
DICTIONARY
  5
99
102
{ACAD_REACTORS
330
9
102
}
330
9
100
AcDbDictionary
  3
STANDARD
350
9B
  0
DICTIONARY
  5
9A
102
{ACAD_REACTORS
330
9
102
}
330
9
100
AcDbDictionary
  0
ACDBDICTIONARYWDFLT
  5
8
102
{ACAD_REACTORS
330
9
102
}
330
9
100
AcDbDictionary
281
     1
  3
Normal
350
7
100
AcDbDictionaryWithDefault
340
7
  0
DICTIONARY
  5
4FC
102
{ACAD_REACTORS
330
9
102
}
330
9
100
AcDbDictionary
  3
CEPSNTYPE
350
506
  3
DIMSTYLEDATA
350
50A
  3
FINGERPRINTGUID
350
507
  3
HYPERLINKBASE
350
4FF
  3
INSUNITS
350
505
  3
LAYOUTDICT
350
501
  3
LWETCUNION
350
504
  3
PLOTSETDICT
350
502
  3
PLOTSTYLNAMDICT
350
503
  3
PSVPSCALE
350
509
  3
PUCSBASE
350
50D
  3
PUCSORGBACK
350
513
  3
PUCSORGBOTTOM
350
50F
  3
PUCSORGFRONT
350
512
  3
PUCSORGLEFT
350
510
  3
PUCSORGRIGHT
350
511
  3
PUCSORGTOP
350
50E
  3
PUCSORTHOREF
350
50B
  3
PUCSORTHOVIEW
350
50C
  3
STYLESHEET
350
500
  3
TSTACKALIGN
350
4FD
  3
TSTACKSIZE
350
4FE
  3
UCSBASE
350
516
  3
UCSORGBACK
350
51C
  3
UCSORGBOTTOM
350
518
  3
UCSORGFRONT
350
51B
  3
UCSORGLEFT
350
519
  3
UCSORGRIGHT
350
51A
  3
UCSORGTOP
350
517
  3
UCSORTHOREF
350
514
  3
UCSORTHOVIEW
350
515
  3
VERSIONGUID
350
508
  0
DICTIONARY
  5
3A7
102
{ACAD_REACTORS
330
9
102
}
330
9
100
AcDbDictionary
  3
DIMASSOC
350
3A9
  3
HIDETEXT
350
3A8
  0
DICTIONARY
  5
16
102
{ACAD_REACTORS
330
15
102
}
330
15
100
AcDbDictionary
280
     1
  3
$LAYERS
360
17
  3
-_UND_0
360
18
  3
-PEGC
360
19
  3
101
360
1A
  3
102
360
1B
  3
1DUC
360
1C
  3
1EQ
360
1D
  3
1TUB
360
1E
  3
2
360
1F
  3
2000
360
20
  3
50
360
21
  3
58J
360
22
  3
65
360
23
  3
AA
360
24
  3
ACABADOS
360
25
  3
AGUA_Y_DREN
360
26
  3
AIRE
360
27
  3
ALLE_AUS
360
28
  3
ALLES_MIT_S
360
29
  3
AMARILLO
360
2A
  3
APAGADOS
360
2B
  3
ARR
360
2C
  3
BA
360
2D
  3
BACKS
360
2E
  3
BASE
360
2F
  3
BLOQ_INUTIL
360
30
  3
CADKON
360
31
  3
CARPINTERIA
360
32
  3
CERRADOS
360
33
  3
COL
360
34
  3
COLOR
360
35
  3
COLOR_250
360
36
  3
COLORES
360
37
  3
CONGELADOS
360
38
  3
CONJUNTO
360
39
  3
D1
360
3A
  3
DA_
360
3B
  3
DET-
360
3C
  3
DOR-H
360
3D
  3
EJES
360
3E
  3
ELECTRICO
360
3F
  3
F1
360
40
  3
FROZEN
360
41
  3
GRID
360
42
  3
GRIDTXT
360
43
  3
HATCH
360
44
  3
HCAD
360
45
  3
INSTALACIONES
360
46
  3
JIZNI
360
47
  3
KCK
360
48
  3
KKK
360
49
  3
LAY
360
4A
  3
LAYER-0
360
4E
  3
LAYER-1
360
4F
  3
LAYER_1_UND_0
360
4B
  3
LAYER_2_UND_0
360
4C
  3
LAYER_9_UND_0_SCHRAFFUR
360
4D
  3
LOCK
360
50
  3
LOCKED
360
51
  3
LOTES
360
52
  3
LUNAR
360
53
  3
LUNAR2
360
54
  3
M
360
55
  3
MIS_LAYERS
360
56
  3
MRKCK
360
57
  3
NECADKON
360
58
  3
NI_LH
360
59
  3
NI_RH
360
5A
  3
NUM
360
5B
  3
OFF
360
5C
  3
ON
360
5D
  3
PBASE
360
5E
  3
PEGC
360
5F
  3
PEGCT
360
60
  3
PFRAME
360
61
  3
PGRID
360
62
  3
PGRIDT
360
63
  3
PLAFONES
360
64
  3
PLANTAS
360
65
  3
PLOT
360
66
  3
PRENDIDAS
360
67
  3
PRENDIDOS
360
68
  3
PRINT
360
69
  3
PT
360
6A
  3
PTH
360
6B
  3
PVGRID
360
6C
  3
RED_DE_AGUA_POTABLE
360
6D
  3
RED_DE_ENERGIA_ELECTRICA
360
6E
  3
SEVERNI
360
6F
  3
SHIN
360
70
  3
SHOW_ALL_LAYER
360
71
  3
SIN
360
72
  3
STORAGE-CART
360
73
  3
T
360
74
  3
TEXTOS
360
75
  3
TEXTURAS
360
76
  3
TUBERIAS
360
77
  3
UNFRZ
360
78
  3
V\U+0160ECHNY_NEPOU\U+017D\U+00CDVAN\U+00C9
360
79
  3
VA
360
7A
  3
VENTILACI\U+00D3N
360
7B
  3
VYHODNI
360
7C
  3
YO
360
7D
  3
ZAPADNI
360
7E
  3
사용
360
7F
  3
신규
360
80
  3
실박스
360
81
  3
우리토목
360
82
  3
주차
360
83
  3
지상정밀
360
84
  3
쩜선
360
85
  3
플로터_작업층
360
86
  3
현재_작업층
360
87
  3
현재_잠금
360
88
  0
DICTIONARY
  5
89
102
{ACAD_REACTORS
330
15
102
}
330
15
100
AcDbDictionary
  0
XRECORD
  5
51D
102
{ACAD_REACTORS
330
3
102
}
330
3
100
AcDbXrecord
340
2
  0
XRECORD
  5
51E
102
{ACAD_REACTORS
330
F
102
}
330
F
100
AcDbXrecord
340
E
  0
DIMASSOC
  5
CB
102
{ACAD_REACTORS
330
CA
102
}
330
CA
100
AcDbDimAssoc
330
C9
 90
        2
 70
     0
 71
     0
  1
AcDbOsnapPointRef
 72
     3
331
C8
 73
     2
 91
        0
 40
0.0
 10
0.0
 20
0.0
 30
0.0
 75
     0
  0
DIMASSOC
  5
B4
102
{ACAD_REACTORS
330
B3
102
}
330
B3
100
AcDbDimAssoc
330
B2
 90
        1
 70
     0
 71
     0
  1
AcDbOsnapPointRef
 72
    13
331
29E
 73
     2
 91
        0
 40
0.0
 10
160.805775846049
 20
241.7332638864381
 30
0.0
 75
     0
  0
DIMASSOC
  5
E6
102
{ACAD_REACTORS
330
E5
102
}
330
E5
100
AcDbDimAssoc
330
E4
 90
        3
 70
     0
 71
     0
  1
AcDbOsnapPointRef
 72
    13
331
B1
 73
     2
 91
        0
 40
0.0
 10
158.805775846049
 20
328.2332638864382
 30
0.0
 75
     0
  1
AcDbOsnapPointRef
 72
     1
331
B1
 73
     2
 91
        0
 40
1.0
 10
158.805775846049
 20
245.2332638864363
 30
0.0
 75
     0
  0
DIMASSOC
  5
F5
102
{ACAD_REACTORS
330
F4
102
}
330
F4
100
AcDbDimAssoc
330
F3
 90
        2
 70
     0
 71
     0
  1
AcDbOsnapPointRef
 72
    13
331
29E
 73
     2
 91
        0
 40
0.0
 10
160.805775846049
 20
241.7332638864381
 30
0.0
 75
     0
  0
DIMASSOC
  5
108
102
{ACAD_REACTORS
330
107
102
}
330
107
100
AcDbDimAssoc
330
106
 90
        3
 70
     0
 71
     0
  1
AcDbOsnapPointRef
 72
     1
331
1C3
 73
     2
 91
        0
 40
1.0
 10
144.3365403003717
 20
66.28018068602887
 30
0.0
 75
     0
  1
AcDbOsnapPointRef
 72
     1
331
17C
 73
     2
 91
        0
 40
1.0
 10
174.3365403003717
 20
67.28018068602887
 30
0.0
 75
     0
  0
DIMASSOC
  5
117
102
{ACAD_REACTORS
330
116
102
}
330
116
100
AcDbDimAssoc
330
115
 90
        3
 70
     0
 71
     0
  1
AcDbOsnapPointRef
 72
     1
331
1C4
 73
     2
 91
        0
 40
1.0
 10
144.3365403003717
 20
55.28018068602887
 30
0.0
 75
     0
  1
AcDbOsnapPointRef
 72
     1
331
17C
 73
     2
 91
        0
 40
1.0
 10
174.3365403003717
 20
67.28018068602887
 30
0.0
 75
     0
  0
DIMASSOC
  5
126
102
{ACAD_REACTORS
330
125
102
}
330
125
100
AcDbDimAssoc
330
124
 90
        3
 70
     0
 71
     0
  1
AcDbOsnapPointRef
 72
    13
331
135
 73
     2
 91
        0
 40
0.0
 10
179.3365403003717
 20
102.7801806860288
 30
0.0
 75
     0
  1
AcDbOsnapPointRef
 72
     1
331
135
 73
     2
 91
        0
 40
1.0
 10
179.3365403003717
 20
19.78018068602796
 30
0.0
 75
     0
  0
DIMASSOC
  5
16E
102
{ACAD_REACTORS
330
16D
102
}
330
16D
100
AcDbDimAssoc
330
16C
 90
        1
 70
     0
 71
     0
  1
AcDbOsnapPointRef
 72
    13
331
17F
 73
     2
 91
        0
 40
0.0
 10
181.3365403003717
 20
16.28018068602796
 30
0.0
 75
     0
  0
DIMASSOC
  5
182
102
{ACAD_REACTORS
330
181
102
}
330
181
100
AcDbDimAssoc
330
180
 90
        3
 70
     0
 71
     0
  1
AcDbOsnapPointRef
 72
     1
331
17E
 73
     2
 91
        0
 40
1.0
 10
179.3365403003717
 20
19.78018068602796
 30
0.0
 75
     0
  1
AcDbOsnapPointRef
 72
    13
331
17F
 73
     2
 91
        0
 40
0.0
 10
181.3365403003717
 20
16.28018068602796
 30
0.0
 75
     0
  0
DIMASSOC
  5
195
102
{ACAD_REACTORS
330
194
102
}
330
194
100
AcDbDimAssoc
330
193
 90
        3
 70
     0
 71
     0
  1
AcDbOsnapPointRef
 72
    13
331
17F
 73
     2
 91
        0
 40
0.0
 10
181.3365403003717
 20
16.28018068602796
 30
0.0
 75
     0
  1
AcDbOsnapPointRef
 72
     1
331
191
 73
     2
 91
        0
 40
1.0
 10
188.8365403003717
 20
17.68144334450062
 30
0.0
 75
     0
  0
DIMASSOC
  5
1B3
102
{ACAD_REACTORS
330
1B2
102
}
330
1B2
100
AcDbDimAssoc
330
1B1
 90
        3
 70
     0
 71
     0
  1
AcDbOsnapPointRef
 72
     1
331
1C4
 73
     2
 91
        0
 40
1.0
 10
144.3365403003717
 20
55.28018068602887
 30
0.0
 75
     0
  1
AcDbOsnapPointRef
 72
     1
331
1C3
 73
     2
 91
        0
 40
1.0
 10
144.3365403003717
 20
66.28018068602887
 30
0.0
 75
     0
  0
DIMASSOC
  5
1C7
102
{ACAD_REACTORS
330
1C6
102
}
330
1C6
100
AcDbDimAssoc
330
1C5
 90
        2
 70
     0
 71
     0
  1
AcDbOsnapPointRef
 72
    13
331
17F
 73
     2
 91
        0
 40
0.0
 10
181.3365403003717
 20
16.28018068602796
 30
0.0
 75
     0
  0
DIMASSOC
  5
1F0
102
{ACAD_REACTORS
330
1EF
102
}
330
1EF
100
AcDbDimAssoc
330
1EE
 90
        3
 70
     0
 71
     0
  1
AcDbOsnapPointRef
 72
     1
331
212
 73
     2
 91
        0
 40
1.0
 10
13.75272574888185
 20
114.2801806860989
 30
0.0
 75
     0
  1
AcDbOsnapPointRef
 72
     1
331
21A
 73
     2
 91
        0
 40
1.0
 10
75.75272574887094
 20
114.2801806860989
 30
0.0
 75
     0
  0
DIMASSOC
  5
220
102
{ACAD_REACTORS
330
21F
102
}
330
21F
100
AcDbDimAssoc
330
21E
 90
        3
 70
     0
 71
     0
  1
AcDbOsnapPointRef
 72
     1
331
250
 73
     2
 91
        0
 40
1.0
 10
187.3365403003717
 20
114.980179686031
 30
0.0
 75
     0
  1
AcDbOsnapPointRef
 72
    13
331
27C
 73
     2
 91
        0
 40
0.0
 10
262.333207300373
 20
146.2801796860312
 30
0.0
 75
     0
  0
DIMASSOC
  5
22F
102
{ACAD_REACTORS
330
22E
102
}
330
22E
100
AcDbDimAssoc
330
22D
 90
        2
 70
     0
 71
     0
  1
AcDbOsnapPointRef
 72
     1
331
250
 73
     2
 91
        0
 40
1.0
 10
187.3365403003717
 20
114.980179686031
 30
0.0
 75
     0
  0
DIMASSOC
  5
240
102
{ACAD_REACTORS
330
23F
102
}
330
23F
100
AcDbDimAssoc
330
23E
 90
        3
 70
     0
 71
     0
  1
AcDbOsnapPointRef
 72
    13
331
26B
 73
     2
 91
        0
 40
0.0
 10
262.333207300373
 20
146.2801796860312
 30
0.0
 75
     0
  1
AcDbOsnapPointRef
 72
    13
331
261
 73
     2
 91
        0
 40
0.0
 10
290.333207300373
 20
138.2801796860303
 30
0.0
 75
     0
  0
DIMASSOC
  5
2A1
102
{ACAD_REACTORS
330
2A0
102
}
330
2A0
100
AcDbDimAssoc
330
29F
 90
        3
 70
     0
 71
     0
  1
AcDbOsnapPointRef
 72
    13
331
29E
 73
     2
 91
        0
 40
0.0
 10
160.805775846049
 20
241.7332638864381
 30
0.0
 75
     0
  1
AcDbOsnapPointRef
 72
     1
331
29B
 73
     2
 91
        0
 40
1.0
 10
168.305775846049
 20
243.1345265449099
 30
0.0
 75
     0
  0
DIMASSOC
  5
2B2
102
{ACAD_REACTORS
330
2B1
102
}
330
2B1
100
AcDbDimAssoc
330
2B0
 90
        3
 70
     0
 71
     0
  1
AcDbOsnapPointRef
 72
     1
331
29D
 73
     2
 91
        0
 40
1.0
 10
158.805775846049
 20
245.2332638864363
 30
0.0
 75
     0
  1
AcDbOsnapPointRef
 72
    13
331
29E
 73
     2
 91
        0
 40
0.0
 10
160.805775846049
 20
241.7332638864381
 30
0.0
 75
     0
  0
DIMASSOC
  5
2CA
102
{ACAD_REACTORS
330
2C9
102
}
330
2C9
100
AcDbDimAssoc
330
2C8
 90
        3
 70
     0
 71
     0
  1
AcDbOsnapPointRef
 72
     1
331
2F4
 73
     2
 91
        0
 40
1.0
 10
22.89690401539883
 20
339.7332638865091
 30
0.0
 75
     0
  1
AcDbOsnapPointRef
 72
     1
331
35E
 73
     2
 91
        0
 40
1.0
 10
84.89690401539883
 20
339.7332638865091
 30
0.0
 75
     0
  0
DIMASSOC
  5
30E
102
{ACAD_REACTORS
330
30D
102
}
330
30D
100
AcDbDimAssoc
330
30C
 90
        3
 70
     0
 71
     0
  1
AcDbOsnapPointRef
 72
    13
331
372
 73
     2
 91
        0
 40
0.0
 10
241.8024428460485
 20
371.7332628864405
 30
0.0
 75
     0
  1
AcDbOsnapPointRef
 72
    13
331
371
 73
     2
 91
        0
 40
0.0
 10
269.8024428460485
 20
363.7332628864396
 30
0.0
 75
     0
  0
DIMASSOC
  5
37B
102
{ACAD_REACTORS
330
37A
102
}
330
37A
100
AcDbDimAssoc
330
379
 90
        3
 70
     0
 71
     0
  1
AcDbOsnapPointRef
 72
     1
331
335
 73
     2
 91
        0
 40
1.0
 10
166.805775846049
 20
340.4332628864403
 30
0.0
 75
     0
  1
AcDbOsnapPointRef
 72
    13
331
2FC
 73
     2
 91
        0
 40
0.0
 10
241.8024428460485
 20
371.7332628864405
 30
0.0
 75
     0
  0
DIMASSOC
  5
38A
102
{ACAD_REACTORS
330
389
102
}
330
389
100
AcDbDimAssoc
330
388
 90
        2
 70
     0
 71
     0
  1
AcDbOsnapPointRef
 72
     1
331
335
 73
     2
 91
        0
 40
1.0
 10
166.805775846049
 20
340.4332628864403
 30
0.0
 75
     0
  0
MLINESTYLE
  5
9B
102
{ACAD_REACTORS
330
99
102
}
330
99
100
AcDbMlineStyle
  2
STANDARD
 70
     0
  3

 62
   256
 51
90.0
 52
90.0
 71
     2
 49
0.5
 62
   256
  6
BYLAYER
 49
-0.5
 62
   256
  6
BYLAYER
  0
ACDBPLACEHOLDER
  5
7
102
{ACAD_REACTORS
330
8
102
}
330
8
100
AcDbPlaceHolder
280
     0
  0
XRECORD
  5
506
102
{ACAD_REACTORS
330
4FC
102
}
330
4FC
100
AcDbXrecord
 90
        0
  0
XRECORD
  5
50A
102
{ACAD_REACTORS
330
4FC
102
}
330
4FC
100
AcDbXrecord
1000
DSTYLE
1002
{
1070
    79
 70
     2
1070
   179
 70
     1
1070
   289
 70
     0
1002
}
  0
XRECORD
  5
507
102
{ACAD_REACTORS
330
4FC
102
}
330
4FC
100
AcDbXrecord
  1
{FDEAD578-A652-11D2-9A35-0060089B3A3F}
  0
XRECORD
  5
4FF
102
{ACAD_REACTORS
330
4FC
102
}
330
4FC
100
AcDbXrecord
  1

  0
XRECORD
  5
505
102
{ACAD_REACTORS
330
4FC
102
}
330
4FC
100
AcDbXrecord
 90
        4
  0
XRECORD
  5
501
102
{ACAD_REACTORS
330
4FC
102
}
330
4FC
100
AcDbXrecord
340
D
  0
XRECORD
  5
504
102
{ACAD_REACTORS
330
4FC
102
}
330
4FC
100
AcDbXrecord
 90
    10781
  0
XRECORD
  5
502
102
{ACAD_REACTORS
330
4FC
102
}
330
4FC
100
AcDbXrecord
340
9A
  0
XRECORD
  5
503
102
{ACAD_REACTORS
330
4FC
102
}
330
4FC
100
AcDbXrecord
340
8
  0
XRECORD
  5
509
102
{ACAD_REACTORS
330
4FC
102
}
330
4FC
100
AcDbXrecord
 40
0.0
  0
XRECORD
  5
50D
102
{ACAD_REACTORS
330
4FC
102
}
330
4FC
100
AcDbXrecord
340
0
  0
XRECORD
  5
513
102
{ACAD_REACTORS
330
4FC
102
}
330
4FC
100
AcDbXrecord
 10
0.0
 20
0.0
 30
0.0
  0
XRECORD
  5
50F
102
{ACAD_REACTORS
330
4FC
102
}
330
4FC
100
AcDbXrecord
 10
0.0
 20
0.0
 30
0.0
  0
XRECORD
  5
512
102
{ACAD_REACTORS
330
4FC
102
}
330
4FC
100
AcDbXrecord
 10
0.0
 20
0.0
 30
0.0
  0
XRECORD
  5
510
102
{ACAD_REACTORS
330
4FC
102
}
330
4FC
100
AcDbXrecord
 10
0.0
 20
0.0
 30
0.0
  0
XRECORD
  5
511
102
{ACAD_REACTORS
330
4FC
102
}
330
4FC
100
AcDbXrecord
 10
0.0
 20
0.0
 30
0.0
  0
XRECORD
  5
50E
102
{ACAD_REACTORS
330
4FC
102
}
330
4FC
100
AcDbXrecord
 10
0.0
 20
0.0
 30
0.0
  0
XRECORD
  5
50B
102
{ACAD_REACTORS
330
4FC
102
}
330
4FC
100
AcDbXrecord
340
0
  0
XRECORD
  5
50C
102
{ACAD_REACTORS
330
4FC
102
}
330
4FC
100
AcDbXrecord
 70
     0
  0
XRECORD
  5
500
102
{ACAD_REACTORS
330
4FC
102
}
330
4FC
100
AcDbXrecord
  1

  0
XRECORD
  5
4FD
102
{ACAD_REACTORS
330
4FC
102
}
330
4FC
100
AcDbXrecord
 90
        1
  0
XRECORD
  5
4FE
102
{ACAD_REACTORS
330
4FC
102
}
330
4FC
100
AcDbXrecord
 90
       70
  0
XRECORD
  5
516
102
{ACAD_REACTORS
330
4FC
102
}
330
4FC
100
AcDbXrecord
340
0
  0
XRECORD
  5
51C
102
{ACAD_REACTORS
330
4FC
102
}
330
4FC
100
AcDbXrecord
 10
0.0
 20
0.0
 30
0.0
  0
XRECORD
  5
518
102
{ACAD_REACTORS
330
4FC
102
}
330
4FC
100
AcDbXrecord
 10
0.0
 20
0.0
 30
0.0
  0
XRECORD
  5
51B
102
{ACAD_REACTORS
330
4FC
102
}
330
4FC
100
AcDbXrecord
 10
0.0
 20
0.0
 30
0.0
  0
XRECORD
  5
519
102
{ACAD_REACTORS
330
4FC
102
}
330
4FC
100
AcDbXrecord
 10
0.0
 20
0.0
 30
0.0
  0
XRECORD
  5
51A
102
{ACAD_REACTORS
330
4FC
102
}
330
4FC
100
AcDbXrecord
 10
0.0
 20
0.0
 30
0.0
  0
XRECORD
  5
517
102
{ACAD_REACTORS
330
4FC
102
}
330
4FC
100
AcDbXrecord
 10
0.0
 20
0.0
 30
0.0
  0
XRECORD
  5
514
102
{ACAD_REACTORS
330
4FC
102
}
330
4FC
100
AcDbXrecord
340
0
  0
XRECORD
  5
515
102
{ACAD_REACTORS
330
4FC
102
}
330
4FC
100
AcDbXrecord
 70
     0
  0
XRECORD
  5
508
102
{ACAD_REACTORS
330
4FC
102
}
330
4FC
100
AcDbXrecord
  1
{EE149F25-FFE6-4071-A154-515E4652C031}
  0
DICTIONARYVAR
  5
3A9
102
{ACAD_REACTORS
330
3A7
102
}
330
3A7
100
DictionaryVariables
280
     0
  1
2
  0
DICTIONARYVAR
  5
3A8
102
{ACAD_REACTORS
330
3A7
102
}
330
3A7
100
DictionaryVariables
280
     0
  1
1
  0
XRECORD
  5
17
102
{ACAD_REACTORS
330
16
102
}
330
16
100
AcDbXrecord
  1
$layers
  1
*
  1
*
  1
*
 70
     0
  1
*
  1
*
  0
XRECORD
  5
18
102
{ACAD_REACTORS
330
16
102
}
330
16
100
AcDbXrecord
  1
- und 0
  1
-*,0
  1
*
  1
*
 70
     0
  1
*
  1
*
  0
XRECORD
  5
19
102
{ACAD_REACTORS
330
16
102
}
330
16
100
AcDbXrecord
  1
-pegc
  1
*-pegc
  1
*
  1
*
 70
     0
  1
*
  1
*
  0
XRECORD
  5
1A
102
{ACAD_REACTORS
330
16
102
}
330
16
100
AcDbXrecord
  1
101
  1
*101
  1
*
  1
*
 70
   256
  1
*
  1
*
  0
XRECORD
  5
1B
102
{ACAD_REACTORS
330
16
102
}
330
16
100
AcDbXrecord
  1
102
  1
102*
  1
*
  1
*
 70
     0
  1
*
  1
*
  0
XRECORD
  5
1C
102
{ACAD_REACTORS
330
16
102
}
330
16
100
AcDbXrecord
  1
1duc
  1
*1duc*
  1
*
  1
*
 70
     0
  1
*
  1
*
  0
XRECORD
  5
1D
102
{ACAD_REACTORS
330
16
102
}
330
16
100
AcDbXrecord
  1
1eq
  1
*1eq*
  1
*
  1
*
 70
     0
  1
*
  1
*
  0
XRECORD
  5
1E
102
{ACAD_REACTORS
330
16
102
}
330
16
100
AcDbXrecord
  1
1tub
  1
*1t*
  1
*
  1
*
 70
     0
  1
*
  1
*
  0
XRECORD
  5
1F
102
{ACAD_REACTORS
330
16
102
}
330
16
100
AcDbXrecord
  1
2
  1
*
  1
2
  1
*
 70
     0
  1
*
  1
*
  0
XRECORD
  5
20
102
{ACAD_REACTORS
330
16
102
}
330
16
100
AcDbXrecord
  1
2000
  1
2000*
  1
*
  1
*
 70
     0
  1
*
  1
*
  0
XRECORD
  5
21
102
{ACAD_REACTORS
330
16
102
}
330
16
100
AcDbXrecord
  1
50
  1
*-50
  1
*
  1
*
 70
     0
  1
*
  1
*
  0
XRECORD
  5
22
102
{ACAD_REACTORS
330
16
102
}
330
16
100
AcDbXrecord
  1
58J
  1
*58*
  1
*
  1
*
 70
     0
  1
*
  1
*
  0
XRECORD
  5
23
102
{ACAD_REACTORS
330
16
102
}
330
16
100
AcDbXrecord
  1
65
  1
*65
  1
*
  1
*
 70
     0
  1
*
  1
*
  0
XRECORD
  5
24
102
{ACAD_REACTORS
330
16
102
}
330
16
100
AcDbXrecord
  1
aa
  1
aa*
  1
*
  1
*
 70
     0
  1
*
  1
*
  0
XRECORD
  5
25
102
{ACAD_REACTORS
330
16
102
}
330
16
100
AcDbXrecord
  1
acabados
  1
a-*
  1
*
  1
*
 70
     5
  1
*
  1
*
  0
XRECORD
  5
26
102
{ACAD_REACTORS
330
16
102
}
330
16
100
AcDbXrecord
  1
AGUA Y DREN
  1
A-DS-*
  1
*
  1
*
 70
     0
  1
*
  1
*
  0
XRECORD
  5
27
102
{ACAD_REACTORS
330
16
102
}
330
16
100
AcDbXrecord
  1
Aire
  1
*
  1
*
  1
*
 70
     0
  1
*
  1
*
  0
XRECORD
  5
28
102
{ACAD_REACTORS
330
16
102
}
330
16
100
AcDbXrecord
  1
alle aus
  1
99999999999
  1
*
  1
*
 70
     0
  1
*
  1
*
  0
XRECORD
  5
29
102
{ACAD_REACTORS
330
16
102
}
330
16
100
AcDbXrecord
  1
Alles mit S
  1
s*
  1
*
  1
*
 70
     0
  1
*
  1
*
  0
XRECORD
  5
2A
102
{ACAD_REACTORS
330
16
102
}
330
16
100
AcDbXrecord
  1
amarillo
  1
*
  1
yellow
  1
*
 70
     0
  1
*
  1
*
  0
XRECORD
  5
2B
102
{ACAD_REACTORS
330
16
102
}
330
16
100
AcDbXrecord
  1
APAGADOS
  1
*
  1
*
  1
*
 70
     4
  1
*
  1
*
  0
XRECORD
  5
2C
102
{ACAD_REACTORS
330
16
102
}
330
16
100
AcDbXrecord
  1
ARR
  1
ARR*
  1
*
  1
*
 70
     0
  1
*
  1
*
  0
XRECORD
  5
2D
102
{ACAD_REACTORS
330
16
102
}
330
16
100
AcDbXrecord
  1
ba
  1
*
  1
*
  1
*
 70
     0
  1
*
  1
*
  0
XRECORD
  5
2E
102
{ACAD_REACTORS
330
16
102
}
330
16
100
AcDbXrecord
  1
BACKS
  1
*-H
  1
*
  1
*
 70
     0
  1
*
  1
*
  0
XRECORD
  5
2F
102
{ACAD_REACTORS
330
16
102
}
330
16
100
AcDbXrecord
  1
BASE
  1
*-PBASE
  1
*
  1
*
 70
     0
  1
*
  1
*
  0
XRECORD
  5
30
102
{ACAD_REACTORS
330
16
102
}
330
16
100
AcDbXrecord
  1
BLOQ_INUTIL
  1
*
  1
*
  1
*
 70
     0
  1
*
  1
*
  0
XRECORD
  5
31
102
{ACAD_REACTORS
330
16
102
}
330
16
100
AcDbXrecord
  1
CADKON
  1
?[KAHBSM]?????[23M],?[KAHBSM]?????[23M][1456A-DGHILN-SU-Z]
  1
*
  1
*
 70
     0
  1
*
  1
*
  0
XRECORD
  5
32
102
{ACAD_REACTORS
330
16
102
}
330
16
100
AcDbXrecord
  1
carpinteria
  1
carp*
  1
*
  1
*
 70
     0
  1
*
  1
*
  0
XRECORD
  5
33
102
{ACAD_REACTORS
330
16
102
}
330
16
100
AcDbXrecord
  1
cerrados
  1
*
  1
*
  1
*
 70
   256
  1
*
  1
*
  0
XRECORD
  5
34
102
{ACAD_REACTORS
330
16
102
}
330
16
100
AcDbXrecord
  1
COL
  1
*
  1
*
  1
*
 70
     1
  1
*
  1
*
  0
XRECORD
  5
35
102
{ACAD_REACTORS
330
16
102
}
330
16
100
AcDbXrecord
  1
COLOR
  1
*
  1
253
  1
*
 70
     0
  1
*
  1
*
  0
XRECORD
  5
36
102
{ACAD_REACTORS
330
16
102
}
330
16
100
AcDbXrecord
  1
color 250
  1
*
  1
250
  1
*
 70
     0
  1
*
  1
*
  0
XRECORD
  5
37
102
{ACAD_REACTORS
330
16
102
}
330
16
100
AcDbXrecord
  1
COLORES
  1
*
  1
6
  1
*
 70
     0
  1
*
  1
*
  0
XRECORD
  5
38
102
{ACAD_REACTORS
330
16
102
}
330
16
100
AcDbXrecord
  1
Congelados
  1
*
  1
*
  1
*
 70
     4
  1
*
  1
*
  0
XRECORD
  5
39
102
{ACAD_REACTORS
330
16
102
}
330
16
100
AcDbXrecord
  1
CONJUNTO
  1
CON-*
  1
*
  1
*
 70
     0
  1
*
  1
*
  0
XRECORD
  5
3A
102
{ACAD_REACTORS
330
16
102
}
330
16
100
AcDbXrecord
  1
d1
  1
achurados
  1
*
  1
*
 70
     0
  1
*
  1
*
  0
XRECORD
  5
3B
102
{ACAD_REACTORS
330
16
102
}
330
16
100
AcDbXrecord
  1
DA_
  1
DA*
  1
*
  1
*
 70
     0
  1
*
  1
*
  0
XRECORD
  5
3C
102
{ACAD_REACTORS
330
16
102
}
330
16
100
AcDbXrecord
  1
DET-
  1
*
  1
*
  1
*
 70
     0
  1
*
  1
*
  0
XRECORD
  5
3D
102
{ACAD_REACTORS
330
16
102
}
330
16
100
AcDbXrecord
  1
DOR-H
  1
*
  1
7
  1
*
 70
     0
  1
*
  1
*
  0
XRECORD
  5
3E
102
{ACAD_REACTORS
330
16
102
}
330
16
100
AcDbXrecord
  1
ejes
  1
eje*
  1
*
  1
*
 70
     0
  1
*
  1
*
  0
XRECORD
  5
3F
102
{ACAD_REACTORS
330
16
102
}
330
16
100
AcDbXrecord
  1
ELECTRICO
  1
ELEC-*
  1
*
  1
*
 70
     0
  1
*
  1
*
  0
XRECORD
  5
40
102
{ACAD_REACTORS
330
16
102
}
330
16
100
AcDbXrecord
  1
F1
  1
Halaxref*
  1
*
  1
*
 70
     0
  1
*
  1
*
  0
XRECORD
  5
41
102
{ACAD_REACTORS
330
16
102
}
330
16
100
AcDbXrecord
  1
frozen
  1
*
  1
*
  1
*
 70
     4
  1
*
  1
*
  0
XRECORD
  5
42
102
{ACAD_REACTORS
330
16
102
}
330
16
100
AcDbXrecord
  1
grid
  1
*-PGRID
  1
*
  1
*
 70
     1
  1
*
  1
*
  0
XRECORD
  5
43
102
{ACAD_REACTORS
330
16
102
}
330
16
100
AcDbXrecord
  1
GRIDTXT
  1
*-PGRIDT
  1
*
  1
*
 70
     0
  1
*
  1
*
  0
XRECORD
  5
44
102
{ACAD_REACTORS
330
16
102
}
330
16
100
AcDbXrecord
  1
HATCH
  1
HAT*
  1
*
  1
*
 70
     0
  1
*
  1
*
  0
XRECORD
  5
45
102
{ACAD_REACTORS
330
16
102
}
330
16
100
AcDbXrecord
  1
HCAD
  1
1HCAD-*
  1
*
  1
*
 70
    13
  1
*
  1
*
  0
XRECORD
  5
46
102
{ACAD_REACTORS
330
16
102
}
330
16
100
AcDbXrecord
  1
INSTALACIONES
  1
I-*
  1
*
  1
*
 70
     0
  1
*
  1
*
  0
XRECORD
  5
47
102
{ACAD_REACTORS
330
16
102
}
330
16
100
AcDbXrecord
  1
JIZNI
  1
*-J
  1
*
  1
*
 70
     0
  1
*
  1
*
  0
XRECORD
  5
48
102
{ACAD_REACTORS
330
16
102
}
330
16
100
AcDbXrecord
  1
kck
  1
*
  1
*
  1
*
 70
     0
  1
*
  1
*
  0
XRECORD
  5
49
102
{ACAD_REACTORS
330
16
102
}
330
16
100
AcDbXrecord
  1
kkk
  1
k
  1
*
  1
*
 70
     0
  1
*
  1
*
  0
XRECORD
  5
4A
102
{ACAD_REACTORS
330
16
102
}
330
16
100
AcDbXrecord
  1
lay
  1
??-*
  1
*
  1
*
 70
     0
  1
*
  1
*
  0
XRECORD
  5
4E
102
{ACAD_REACTORS
330
16
102
}
330
16
100
AcDbXrecord
  1
Layer-0
  1
0*
  1
*
  1
*
 70
     0
  1
*
  1
*
  0
XRECORD
  5
4F
102
{ACAD_REACTORS
330
16
102
}
330
16
100
AcDbXrecord
  1
Layer-1
  1
1*
  1
*
  1
*
 70
     0
  1
*
  1
*
  0
XRECORD
  5
4B
102
{ACAD_REACTORS
330
16
102
}
330
16
100
AcDbXrecord
  1
Layer 1 und 0
  1
1*,0
  1
*
  1
*
 70
     0
  1
*
  1
*
  0
XRECORD
  5
4C
102
{ACAD_REACTORS
330
16
102
}
330
16
100
AcDbXrecord
  1
Layer 2 und 0
  1
2*,0
  1
*
  1
*
 70
     0
  1
*
  1
*
  0
XRECORD
  5
4D
102
{ACAD_REACTORS
330
16
102
}
330
16
100
AcDbXrecord
  1
Layer 9 und 0 Schraffur
  1
9*,0
  1
*
  1
*
 70
     0
  1
*
  1
*
  0
XRECORD
  5
50
102
{ACAD_REACTORS
330
16
102
}
330
16
100
AcDbXrecord
  1
LOCK
  1
*
  1
*
  1
*
 70
   256
  1
*
  1
*
  0
XRECORD
  5
51
102
{ACAD_REACTORS
330
16
102
}
330
16
100
AcDbXrecord
  1
locked
  1
*
  1
*
  1
*
 70
   256
  1
*
  1
*
  0
XRECORD
  5
52
102
{ACAD_REACTORS
330
16
102
}
330
16
100
AcDbXrecord
  1
Lotes
  1
*
  1
*
  1
*
 70
     1
  1
*
  1
*
  0
XRECORD
  5
53
102
{ACAD_REACTORS
330
16
102
}
330
16
100
AcDbXrecord
  1
LUNAR
  1
*
  1
*
  1
*
 70
    48
  1
*
  1
*
  0
XRECORD
  5
54
102
{ACAD_REACTORS
330
16
102
}
330
16
100
AcDbXrecord
  1
LUNAR2
  1
*
  1
*
  1
*
 70
    12
  1
*
  1
*
  0
XRECORD
  5
55
102
{ACAD_REACTORS
330
16
102
}
330
16
100
AcDbXrecord
  1
M
  1
M*
  1
*
  1
*
 70
     0
  1
*
  1
*
  0
XRECORD
  5
56
102
{ACAD_REACTORS
330
16
102
}
330
16
100
AcDbXrecord
  1
mis_layers
  1
mis_*
  1
*
  1
*
 70
     0
  1
*
  1
*
  0
XRECORD
  5
57
102
{ACAD_REACTORS
330
16
102
}
330
16
100
AcDbXrecord
  1
MRKCK
  1
*
  1
*
  1
*
 70
     0
  1
*
  1
*
  0
XRECORD
  5
58
102
{ACAD_REACTORS
330
16
102
}
330
16
100
AcDbXrecord
  1
NECADKON
  1
~*?[KAHBSM]?????[23M]*
  1
*
  1
*
 70
     0
  1
*
  1
*
  0
XRECORD
  5
59
102
{ACAD_REACTORS
330
16
102
}
330
16
100
AcDbXrecord
  1
NI_LH
  1
NI_LH*
  1
*
  1
*
 70
     0
  1
*
  1
*
  0
XRECORD
  5
5A
102
{ACAD_REACTORS
330
16
102
}
330
16
100
AcDbXrecord
  1
NI_RH
  1
NI_RH*
  1
*
  1
*
 70
     0
  1
*
  1
*
  0
XRECORD
  5
5B
102
{ACAD_REACTORS
330
16
102
}
330
16
100
AcDbXrecord
  1
NUM
  1
NUM*
  1
*
  1
*
 70
     0
  1
*
  1
*
  0
XRECORD
  5
5C
102
{ACAD_REACTORS
330
16
102
}
330
16
100
AcDbXrecord
  1
off
  1
*
  1
*
  1
*
 70
     3
  1
*
  1
*
  0
XRECORD
  5
5D
102
{ACAD_REACTORS
330
16
102
}
330
16
100
AcDbXrecord
  1
on
  1
*
  1
*
  1
*
 70
     0
  1
*
  1
*
  0
XRECORD
  5
5E
102
{ACAD_REACTORS
330
16
102
}
330
16
100
AcDbXrecord
  1
PBASE
  1
*PBASE
  1
*
  1
*
 70
     0
  1
*
  1
*
  0
XRECORD
  5
5F
102
{ACAD_REACTORS
330
16
102
}
330
16
100
AcDbXrecord
  1
PEGC
  1
*PEGC
  1
*
  1
*
 70
     0
  1
*
  1
*
  0
XRECORD
  5
60
102
{ACAD_REACTORS
330
16
102
}
330
16
100
AcDbXrecord
  1
PEGCT
  1
*PEGCT
  1
*
  1
*
 70
     0
  1
*
  1
*
  0
XRECORD
  5
61
102
{ACAD_REACTORS
330
16
102
}
330
16
100
AcDbXrecord
  1
PFRAME
  1
PFRAME*
  1
*
  1
*
 70
     0
  1
*
  1
*
  0
XRECORD
  5
62
102
{ACAD_REACTORS
330
16
102
}
330
16
100
AcDbXrecord
  1
PGRID
  1
*PGRID
  1
*
  1
*
 70
     0
  1
*
  1
*
  0
XRECORD
  5
63
102
{ACAD_REACTORS
330
16
102
}
330
16
100
AcDbXrecord
  1
PGRIDT
  1
*PGRIDT
  1
*
  1
*
 70
     0
  1
*
  1
*
  0
XRECORD
  5
64
102
{ACAD_REACTORS
330
16
102
}
330
16
100
AcDbXrecord
  1
PLAFONES
  1
0-*
  1
*
  1
*
 70
     0
  1
*
  1
*
  0
XRECORD
  5
65
102
{ACAD_REACTORS
330
16
102
}
330
16
100
AcDbXrecord
  1
PLANTAS
  1
P-*
  1
*
  1
*
 70
     0
  1
*
  1
*
  0
XRECORD
  5
66
102
{ACAD_REACTORS
330
16
102
}
330
16
100
AcDbXrecord
  1
Plot
  1
*
  1
*
  1
*
 70
  1024
  1
*
  1
*
  0
XRECORD
  5
67
102
{ACAD_REACTORS
330
16
102
}
330
16
100
AcDbXrecord
  1
PRENDIDAS
  1
*
  1
*
  1
*
 70
    13
  1
*
  1
*
  0
XRECORD
  5
68
102
{ACAD_REACTORS
330
16
102
}
330
16
100
AcDbXrecord
  1
PRENDIDOS
  1
*
  1
*
  1
*
 70
    12
  1
*
  1
*
  0
XRECORD
  5
69
102
{ACAD_REACTORS
330
16
102
}
330
16
100
AcDbXrecord
  1
print
  1
*
  1
7
  1
*
 70
  1280
  1
*
  1
*
  0
XRECORD
  5
6A
102
{ACAD_REACTORS
330
16
102
}
330
16
100
AcDbXrecord
  1
PT
  1
PT-*
  1
*
  1
*
 70
     0
  1
*
  1
*
  0
XRECORD
  5
6B
102
{ACAD_REACTORS
330
16
102
}
330
16
100
AcDbXrecord
  1
PTH
  1
PTH*
  1
*
  1
*
 70
     0
  1
*
  1
*
  0
XRECORD
  5
6C
102
{ACAD_REACTORS
330
16
102
}
330
16
100
AcDbXrecord
  1
PVGRID
  1
*PVGRID
  1
*
  1
*
 70
     0
  1
*
  1
*
  0
XRECORD
  5
6D
102
{ACAD_REACTORS
330
16
102
}
330
16
100
AcDbXrecord
  1
Red de Agua Potable
  1
Red de Agua Potable
  1
*
  1
*
 70
     1
  1
*
  1
*
  0
XRECORD
  5
6E
102
{ACAD_REACTORS
330
16
102
}
330
16
100
AcDbXrecord
  1
Red de Energia Electrica
  1
Lotes
  1
*
  1
*
 70
     1
  1
*
  1
*
  0
XRECORD
  5
6F
102
{ACAD_REACTORS
330
16
102
}
330
16
100
AcDbXrecord
  1
SEVERNI
  1
*-S
  1
*
  1
*
 70
     0
  1
*
  1
*
  0
XRECORD
  5
70
102
{ACAD_REACTORS
330
16
102
}
330
16
100
AcDbXrecord
  1
shin
  1
일*
  1
*
  1
*
 70
     0
  1
*
  1
*
  0
XRECORD
  5
71
102
{ACAD_REACTORS
330
16
102
}
330
16
100
AcDbXrecord
  1
SHOW ALL LAYER
  1
*
  1
*
  1
*
 70
     0
  1
*
  1
*
  0
XRECORD
  5
72
102
{ACAD_REACTORS
330
16
102
}
330
16
100
AcDbXrecord
  1
sin
  1
sin
  1
*
  1
*
 70
     0
  1
*
  1
*
  0
XRECORD
  5
73
102
{ACAD_REACTORS
330
16
102
}
330
16
100
AcDbXrecord
  1
STORAGE-CART
  1
STORAGE-CART*
  1
*
  1
*
 70
     0
  1
*
  1
*
  0
XRECORD
  5
74
102
{ACAD_REACTORS
330
16
102
}
330
16
100
AcDbXrecord
  1
T
  1
T*
  1
*
  1
*
 70
     0
  1
*
  1
*
  0
XRECORD
  5
75
102
{ACAD_REACTORS
330
16
102
}
330
16
100
AcDbXrecord
  1
TEXTOS
  1
TXT*
  1
*
  1
*
 70
     0
  1
*
  1
*
  0
XRECORD
  5
76
102
{ACAD_REACTORS
330
16
102
}
330
16
100
AcDbXrecord
  1
TEXTURAS
  1
*TEXTURAS
  1
*
  1
*
 70
     0
  1
*
  1
*
  0
XRECORD
  5
77
102
{ACAD_REACTORS
330
16
102
}
330
16
100
AcDbXrecord
  1
TUBERIAS
  1
T*
  1
*
  1
*
 70
     0
  1
*
  1
*
  0
XRECORD
  5
78
102
{ACAD_REACTORS
330
16
102
}
330
16
100
AcDbXrecord
  1
UNFRZ
  1
*
  1
*
  1
*
 70
    12
  1
*
  1
*
  0
XRECORD
  5
79
102
{ACAD_REACTORS
330
16
102
}
330
16
100
AcDbXrecord
  1
v\U+0161echny nepou\U+017E\U+00EDvan\U+00E9
  1
*
  1
*
  1
*
 70
     0
  1
*
  1
*
  0
XRECORD
  5
7A
102
{ACAD_REACTORS
330
16
102
}
330
16
100
AcDbXrecord
  1
VA
  1
VA*
  1
*
  1
*
 70
     0
  1
*
  1
*
  0
XRECORD
  5
7B
102
{ACAD_REACTORS
330
16
102
}
330
16
100
AcDbXrecord
  1
Ventilaci\U+00F3n
  1
*
  1
*
  1
*
 70
     0
  1
*
  1
*
  0
XRECORD
  5
7C
102
{ACAD_REACTORS
330
16
102
}
330
16
100
AcDbXrecord
  1
VYHODNI
  1
*-V
  1
*
  1
*
 70
     0
  1
*
  1
*
  0
XRECORD
  5
7D
102
{ACAD_REACTORS
330
16
102
}
330
16
100
AcDbXrecord
  1
Yo
  1
Muros
  1
*
  1
*
 70
     0
  1
*
  1
*
  0
XRECORD
  5
7E
102
{ACAD_REACTORS
330
16
102
}
330
16
100
AcDbXrecord
  1
ZAPADNI
  1
*-Z
  1
*
  1
*
 70
     0
  1
*
  1
*
  0
XRECORD
  5
7F
102
{ACAD_REACTORS
330
16
102
}
330
16
100
AcDbXrecord
  1
사용
  1
*
  1
*
  1
*
 70
   256
  1
*
  1
*
  0
XRECORD
  5
80
102
{ACAD_REACTORS
330
16
102
}
330
16
100
AcDbXrecord
  1
신규
  1
신규
  1
*
  1
*
 70
     0
  1
*
  1
*
  0
XRECORD
  5
81
102
{ACAD_REACTORS
330
16
102
}
330
16
100
AcDbXrecord
  1
실박스
  1
BLO,SYM,SYM1,SYM2
  1
*
  1
*
 70
     0
  1
*
  1
*
  0
XRECORD
  5
82
102
{ACAD_REACTORS
330
16
102
}
330
16
100
AcDbXrecord
  1
우리토목
  1
w-*
  1
*
  1
*
 70
     0
  1
*
  1
*
  0
XRECORD
  5
83
102
{ACAD_REACTORS
330
16
102
}
330
16
100
AcDbXrecord
  1
주차
  1
car*
  1
*
  1
*
 70
     0
  1
*
  1
*
  0
XRECORD
  5
84
102
{ACAD_REACTORS
330
16
102
}
330
16
100
AcDbXrecord
  1
지상정밀
  1
*
  1
*
  1
*
 70
     0
  1
*
  1
*
  0
XRECORD
  5
85
102
{ACAD_REACTORS
330
16
102
}
330
16
100
AcDbXrecord
  1
쩜선
  1
*
  1
*
  1
*
 70
     0
  1
*
  1
*
  0
XRECORD
  5
86
102
{ACAD_REACTORS
330
16
102
}
330
16
100
AcDbXrecord
  1
플로터 작업층
  1
*
  1
*
  1
*
 70
  1025
  1
*
  1
*
  0
XRECORD
  5
87
102
{ACAD_REACTORS
330
16
102
}
330
16
100
AcDbXrecord
  1
현재 작업층
  1
*
  1
*
  1
*
 70
     1
  1
*
  1
*
  0
XRECORD
  5
88
102
{ACAD_REACTORS
330
16
102
}
330
16
100
AcDbXrecord
  1
현재 잠금
  1
*
  1
*
  1
*
 70
   257
  1
*
  1
*
  0
ENDSEC
  0
EOF
