  0
SECTION
  2
HEADER
  9
$ACADVER
  1
AC1014
  9
$ACADMAINTVER
 70
     9
  9
$DWGCODEPAGE
  3
ANSI_949
  9
$INSBASE
 10
0.0
 20
0.0
 30
0.0
  9
$EXTMIN
 10
-7.741385258836089
 20
-9.294221054900845
 30
-0.0015258207003583
  9
$EXTMAX
 10
315.8301448527636
 20
380.4473330416003
 30
0.0000000349246037
  9
$LIMMIN
 10
0.0
 20
0.0
  9
$LIMMAX
 10
420.0
 20
297.0
  9
$ORTHOMODE
 70
     0
  9
$REGENMODE
 70
     1
  9
$FILLMODE
 70
     1
  9
$QTEXTMODE
 70
     0
  9
$MIRRTEXT
 70
     0
  9
$DRAGMODE
 70
     2
  9
$LTSCALE
 40
0.2
  9
$OSMODE
 70
   567
  9
$ATTMODE
 70
     1
  9
$TEXTSIZE
 40
5.777225951253058
  9
$TRACEWID
 40
1.0
  9
$TEXTSTYLE
  7
STANDARD
  9
$CLAYER
  8
0
  9
$CELTYPE
  6
BYLAYER
  9
$CECOLOR
 62
   256
  9
$CELTSCALE
 40
1.0
  9
$DELOBJ
 70
     1
  9
$DISPSILH
 70
     0
  9
$DIMSCALE
 40
1.0
  9
$DIMASZ
 40
3.0
  9
$DIMEXO
 40
1.0
  9
$DIMDLI
 40
10.0
  9
$DIMRND
 40
0.0
  9
$DIMDLE
 40
0.0
  9
$DIMEXE
 40
0.6
  9
$DIMTP
 40
0.0
  9
$DIMTM
 40
0.0
  9
$DIMTXT
 40
3.5
  9
$DIMCEN
 40
0.09
  9
$DIMTSZ
 40
0.0
  9
$DIMTOL
 70
     0
  9
$DIMLIM
 70
     0
  9
$DIMTIH
 70
     0
  9
$DIMTOH
 70
     0
  9
$DIMSE1
 70
     0
  9
$DIMSE2
 70
     0
  9
$DIMTAD
 70
     1
  9
$DIMZIN
 70
     8
  9
$DIMBLK
  1

  9
$DIMASO
 70
     1
  9
$DIMSHO
 70
     1
  9
$DIMPOST
  1

  9
$DIMAPOST
  1

  9
$DIMALT
 70
     0
  9
$DIMALTD
 70
     2
  9
$DIMALTF
 40
25.4
  9
$DIMLFAC
 40
1.0
  9
$DIMTOFL
 70
     1
  9
$DIMTVP
 40
0.0
  9
$DIMTIX
 70
     1
  9
$DIMSOXD
 70
     0
  9
$DIMSAH
 70
     0
  9
$DIMBLK1
  1

  9
$DIMBLK2
  1

  9
$DIMSTYLE
  2
1_1_2
  9
$DIMCLRD
 70
   123
  9
$DIMCLRE
 70
   123
  9
$DIMCLRT
 70
     3
  9
$DIMTFAC
 40
1.0
  9
$DIMGAP
 40
1.0
  9
$DIMJUST
 70
     0
  9
$DIMSD1
 70
     0
  9
$DIMSD2
 70
     0
  9
$DIMTOLJ
 70
     1
  9
$DIMTZIN
 70
     0
  9
$DIMALTZ
 70
     0
  9
$DIMALTTZ
 70
     0
  9
$DIMFIT
 70
     0
  9
$DIMUPT
 70
     1
  9
$DIMUNIT
 70
     2
  9
$DIMDEC
 70
     2
  9
$DIMTDEC
 70
     2
  9
$DIMALTU
 70
     2
  9
$DIMALTTD
 70
     2
  9
$DIMTXSTY
  7
STANDARD
  9
$DIMAUNIT
 70
     1
  9
$LUNITS
 70
     2
  9
$LUPREC
 70
     4
  9
$SKETCHINC
 40
1.0
  9
$FILLETRAD
 40
0.5
  9
$AUNITS
 70
     0
  9
$AUPREC
 70
     0
  9
$MENU
  1
.
  9
$ELEVATION
 40
0.0
  9
$PELEVATION
 40
0.0
  9
$THICKNESS
 40
0.0
  9
$LIMCHECK
 70
     0
  9
$BLIPMODE
 70
     1
  9
$CHAMFERA
 40
1.0
  9
$CHAMFERB
 40
1.0
  9
$CHAMFERC
 40
20.0
  9
$CHAMFERD
 40
0.0
  9
$SKPOLY
 70
     0
  9
$TDCREATE
 40
2452839.586179271
  9
$TDUPDATE
 40
2453376.721599918
  9
$TDINDWG
 40
11.1160253241
  9
$TDUSRTIMER
 40
11.1160253241
  9
$USRTIMER
 70
     1
  9
$ANGBASE
 50
0.0
  9
$ANGDIR
 70
     0
  9
$PDMODE
 70
     0
  9
$PDSIZE
 40
0.0
  9
$PLINEWID
 40
0.0
  9
$COORDS
 70
     2
  9
$SPLFRAME
 70
     0
  9
$SPLINETYPE
 70
     6
  9
$SPLINESEGS
 70
   800
  9
$ATTDIA
 70
     0
  9
$ATTREQ
 70
     1
  9
$HANDLING
 70
 22529
  9
$HANDSEED
  5
520
  9
$SURFTAB1
 70
     6
  9
$SURFTAB2
 70
     6
  9
$SURFTYPE
 70
     6
  9
$SURFU
 70
     6
  9
$SURFV
 70
     6
  9
$UCSNAME
  2

  9
$UCSORG
 10
0.0
 20
0.0
 30
0.0
  9
$UCSXDIR
 10
1.0
 20
0.0
 30
0.0
  9
$UCSYDIR
 10
0.0
 20
1.0
 30
0.0
  9
$PUCSNAME
  2

  9
$PUCSORG
 10
0.0
 20
0.0
 30
0.0
  9
$PUCSXDIR
 10
1.0
 20
0.0
 30
0.0
  9
$PUCSYDIR
 10
0.0
 20
1.0
 30
0.0
  9
$USERI1
 70
     0
  9
$USERI2
 70
     0
  9
$USERI3
 70
     0
  9
$USERI4
 70
     0
  9
$USERI5
 70
     0
  9
$USERR1
 40
0.0
  9
$USERR2
 40
0.0
  9
$USERR3
 40
0.0
  9
$USERR4
 40
0.0
  9
$USERR5
 40
0.0
  9
$WORLDVIEW
 70
     1
  9
$SHADEDGE
 70
     3
  9
$SHADEDIF
 70
    70
  9
$TILEMODE
 70
     1
  9
$MAXACTVP
 70
    48
  9
$PINSBASE
 10
0.0
 20
0.0
 30
0.0
  9
$PLIMCHECK
 70
     0
  9
$PEXTMIN
 10
0.0
 20
0.0
 30
0.0
  9
$PEXTMAX
 10
0.0
 20
0.0
 30
0.0
  9
$PLIMMIN
 10
0.0
 20
0.0
  9
$PLIMMAX
 10
12.0
 20
9.0
  9
$UNITMODE
 70
     0
  9
$VISRETAIN
 70
     1
  9
$PLINEGEN
 70
     0
  9
$PSLTSCALE
 70
     1
  9
$TREEDEPTH
 70
  3020
  9
$PICKSTYLE
 70
     0
  9
$CMLSTYLE
  2
STANDARD
  9
$CMLJUST
 70
     0
  9
$CMLSCALE
 40
20.0
  9
$PROXYGRAPHICS
 70
     1
  9
$MEASUREMENT
 70
     1
  0
ENDSEC
  0
SECTION
  2
CLASSES
  0
CLASS
  1
ACDBDICTIONARYWDFLT
  2
AcDbDictionaryWithDefault
  3
AutoCAD 2000
 90
        0
280
     0
281
     0
  0
CLASS
  1
ACDBPLACEHOLDER
  2
AcDbPlaceHolder
  3
AutoCAD 2000
 90
        0
280
     0
281
     0
  0
CLASS
  1
LAYOUT
  2
AcDbLayout
  3
AutoCAD 2000
 90
        0
280
     0
281
     0
  0
CLASS
  1
DICTIONARYVAR
  2
AcDbDictionaryVar
  3
AutoCAD 2000
 90
        0
280
     0
281
     0
  0
CLASS
  1
DIMASSOC
  2
AcDbDimAssoc
  3
"AcDbDimAssoc|Product Desc:     AcDim ARX App For Dimension|Company:          Autodesk, Inc.|WEB Address:      www.autodesk.com"
 90
        0
280
     0
281
     0
  0
CLASS
  1
LONG_TRANSACTION
  2
AcDbLongTransaction
  3
AutoCAD 2000
 90
        0
280
     0
281
     0
  0
CLASS
  1
LWPOLYLINE
  2
AcDbPolyline
  3
AutoCAD 2000
 90
        0
280
     0
281
     1
  0
CLASS
  1
HATCH
  2
AcDbHatch
  3
AutoCAD 2000
 90
        0
280
     0
281
     1
  0
CLASS
  1
XRECORD
  2
AcDbXrecord
  3
AutoCAD 2000
 90
        0
280
     0
281
     0
  0
CLASS
  1
LONG_TRANSACTION
  2
AcDbLongTransaction
  3
AutoCAD 2000
 90
        0
280
     0
281
     0
  0
CLASS
  1
LWPOLYLINE
  2
AcDbPolyline
  3
AutoCAD 2000
 90
        0
280
     0
281
     1
  0
CLASS
  1
HATCH
  2
AcDbHatch
  3
AutoCAD 2000
 90
        0
280
     0
281
     1
  0
CLASS
  1
XRECORD
  2
AcDbXrecord
  3
AutoCAD 2000
 90
        0
280
     0
281
     0
  0
CLASS
  1
LONG_TRANSACTION
  2
AcDbLongTransaction
  3
AutoCAD 2000
 90
        0
280
     0
281
     0
  0
CLASS
  1
LWPOLYLINE
  2
AcDbPolyline
  3
AutoCAD 2000
 90
        0
280
     0
281
     1
  0
CLASS
  1
HATCH
  2
AcDbHatch
  3
AutoCAD 2000
 90
        0
280
     0
281
     1
  0
CLASS
  1
XRECORD
  2
AcDbXrecord
  3
AutoCAD 2000
 90
        0
280
     0
281
     0
  0
CLASS
  1
LONG_TRANSACTION
  2
AcDbLongTransaction
  3
AutoCAD 2000
 90
        0
280
     0
281
     0
  0
CLASS
  1
LWPOLYLINE
  2
AcDbPolyline
  3
AutoCAD 2000
 90
        0
280
     0
281
     1
  0
CLASS
  1
HATCH
  2
AcDbHatch
  3
AutoCAD 2000
 90
        0
280
     0
281
     1
  0
CLASS
  1
XRECORD
  2
AcDbXrecord
  3
AutoCAD 2000
 90
        0
280
     0
281
     0
  0
CLASS
  1
LONG_TRANSACTION
  2
AcDbLongTransaction
  3
AutoCAD 2000
 90
        0
280
     0
281
     0
  0
CLASS
  1
LWPOLYLINE
  2
AcDbPolyline
  3
AutoCAD 2000
 90
        0
280
     0
281
     1
  0
CLASS
  1
HATCH
  2
AcDbHatch
  3
AutoCAD 2000
 90
        0
280
     0
281
     1
  0
CLASS
  1
XRECORD
  2
AcDbXrecord
  3
AutoCAD 2000
 90
        0
280
     0
281
     0
  0
CLASS
  1
LONG_TRANSACTION
  2
AcDbLongTransaction
  3
AutoCAD 2000
 90
        0
280
     0
281
     0
  0
CLASS
  1
LWPOLYLINE
  2
AcDbPolyline
  3
AutoCAD 2000
 90
        0
280
     0
281
     1
  0
CLASS
  1
HATCH
  2
AcDbHatch
  3
AutoCAD 2000
 90
        0
280
     0
281
     1
  0
CLASS
  1
XRECORD
  2
AcDbXrecord
  3
AutoCAD 2000
 90
        0
280
     0
281
     0
  0
CLASS
  1
LONG_TRANSACTION
  2
AcDbLongTransaction
  3
AutoCAD 2000
 90
        0
280
     0
281
     0
  0
CLASS
  1
LWPOLYLINE
  2
AcDbPolyline
  3
AutoCAD 2000
 90
        0
280
     0
281
     1
  0
CLASS
  1
HATCH
  2
AcDbHatch
  3
AutoCAD 2000
 90
        0
280
     0
281
     1
  0
CLASS
  1
XRECORD
  2
AcDbXrecord
  3
AutoCAD 2000
 90
        0
280
     0
281
     0
  0
CLASS
  1
LONG_TRANSACTION
  2
AcDbLongTransaction
  3
AutoCAD 2000
 90
        0
280
     0
281
     0
  0
CLASS
  1
LWPOLYLINE
  2
AcDbPolyline
  3
AutoCAD 2000
 90
        0
280
     0
281
     1
  0
CLASS
  1
HATCH
  2
AcDbHatch
  3
AutoCAD 2000
 90
        0
280
     0
281
     1
  0
CLASS
  1
XRECORD
  2
AcDbXrecord
  3
AutoCAD 2000
 90
        0
280
     0
281
     0
  0
CLASS
  1
LONG_TRANSACTION
  2
AcDbLongTransaction
  3
AutoCAD 2000
 90
        0
280
     0
281
     0
  0
CLASS
  1
LWPOLYLINE
  2
AcDbPolyline
  3
AutoCAD 2000
 90
        0
280
     0
281
     1
  0
CLASS
  1
HATCH
  2
AcDbHatch
  3
AutoCAD 2000
 90
        0
280
     0
281
     1
  0
CLASS
  1
XRECORD
  2
AcDbXrecord
  3
AutoCAD 2000
 90
        0
280
     0
281
     0
  0
CLASS
  1
LONG_TRANSACTION
  2
AcDbLongTransaction
  3
AutoCAD 2000
 90
        0
280
     0
281
     0
  0
CLASS
  1
LWPOLYLINE
  2
AcDbPolyline
  3
AutoCAD 2000
 90
        0
280
     0
281
     1
  0
CLASS
  1
HATCH
  2
AcDbHatch
  3
AutoCAD 2000
 90
        0
280
     0
281
     1
  0
CLASS
  1
XRECORD
  2
AcDbXrecord
  3
AutoCAD 2000
 90
        0
280
     0
281
     0
  0
CLASS
  1
LONG_TRANSACTION
  2
AcDbLongTransaction
  3
AutoCAD 2000
 90
        0
280
     0
281
     0
  0
CLASS
  1
LWPOLYLINE
  2
AcDbPolyline
  3
AutoCAD 2000
 90
        0
280
     0
281
     1
  0
CLASS
  1
HATCH
  2
AcDbHatch
  3
AutoCAD 2000
 90
        0
280
     0
281
     1
  0
CLASS
  1
XRECORD
  2
AcDbXrecord
  3
AutoCAD 2000
 90
        0
280
     0
281
     0
  0
CLASS
  1
LONG_TRANSACTION
  2
AcDbLongTransaction
  3
AutoCAD 2000
 90
        0
280
     0
281
     0
  0
CLASS
  1
LWPOLYLINE
  2
AcDbPolyline
  3
AutoCAD 2000
 90
        0
280
     0
281
     1
  0
CLASS
  1
HATCH
  2
AcDbHatch
  3
AutoCAD 2000
 90
        0
280
     0
281
     1
  0
CLASS
  1
XRECORD
  2
AcDbXrecord
  3
AutoCAD 2000
 90
        0
280
     0
281
     0
  0
CLASS
  1
LONG_TRANSACTION
  2
AcDbLongTransaction
  3
AutoCAD 2000
 90
        0
280
     0
281
     0
  0
CLASS
  1
LWPOLYLINE
  2
AcDbPolyline
  3
AutoCAD 2000
 90
        0
280
     0
281
     1
  0
CLASS
  1
HATCH
  2
AcDbHatch
  3
AutoCAD 2000
 90
        0
280
     0
281
     1
  0
CLASS
  1
XRECORD
  2
AcDbXrecord
  3
AutoCAD 2000
 90
        0
280
     0
281
     0
  0
CLASS
  1
LONG_TRANSACTION
  2
AcDbLongTransaction
  3
AutoCAD 2000
 90
        0
280
     0
281
     0
  0
CLASS
  1
LWPOLYLINE
  2
AcDbPolyline
  3
AutoCAD 2000
 90
        0
280
     0
281
     1
  0
CLASS
  1
HATCH
  2
AcDbHatch
  3
AutoCAD 2000
 90
        0
280
     0
281
     1
  0
CLASS
  1
XRECORD
  2
AcDbXrecord
  3
AutoCAD 2000
 90
        0
280
     0
281
     0
  0
CLASS
  1
LONG_TRANSACTION
  2
AcDbLongTransaction
  3
AutoCAD 2000
 90
        0
280
     0
281
     0
  0
CLASS
  1
LWPOLYLINE
  2
AcDbPolyline
  3
AutoCAD 2000
 90
        0
280
     0
281
     1
  0
CLASS
  1
HATCH
  2
AcDbHatch
  3
AutoCAD 2000
 90
        0
280
     0
281
     1
  0
CLASS
  1
XRECORD
  2
AcDbXrecord
  3
AutoCAD 2000
 90
        0
280
     0
281
     0
  0
CLASS
  1
LONG_TRANSACTION
  2
AcDbLongTransaction
  3
AutoCAD 2000
 90
        0
280
     0
281
     0
  0
CLASS
  1
LWPOLYLINE
  2
AcDbPolyline
  3
AutoCAD 2000
 90
        0
280
     0
281
     1
  0
CLASS
  1
HATCH
  2
AcDbHatch
  3
AutoCAD 2000
 90
        0
280
     0
281
     1
  0
CLASS
  1
XRECORD
  2
AcDbXrecord
  3
AutoCAD 2000
 90
        0
280
     0
281
     0
  0
CLASS
  1
LONG_TRANSACTION
  2
AcDbLongTransaction
  3
AutoCAD 2000
 90
        0
280
     0
281
     0
  0
CLASS
  1
LWPOLYLINE
  2
AcDbPolyline
  3
AutoCAD 2000
 90
        0
280
     0
281
     1
  0
CLASS
  1
HATCH
  2
AcDbHatch
  3
AutoCAD 2000
 90
        0
280
     0
281
     1
  0
CLASS
  1
XRECORD
  2
AcDbXrecord
  3
AutoCAD 2000
 90
        0
280
     0
281
     0
  0
CLASS
  1
LONG_TRANSACTION
  2
AcDbLongTransaction
  3
AutoCAD 2000
 90
        0
280
     0
281
     0
  0
CLASS
  1
LWPOLYLINE
  2
AcDbPolyline
  3
AutoCAD 2000
 90
        0
280
     0
281
     1
  0
CLASS
  1
HATCH
  2
AcDbHatch
  3
AutoCAD 2000
 90
        0
280
     0
281
     1
  0
CLASS
  1
XRECORD
  2
AcDbXrecord
  3
AutoCAD 2000
 90
        0
280
     0
281
     0
  0
CLASS
  1
LONG_TRANSACTION
  2
AcDbLongTransaction
  3
AutoCAD 2000
 90
        0
280
     0
281
     0
  0
CLASS
  1
LWPOLYLINE
  2
AcDbPolyline
  3
AutoCAD 2000
 90
        0
280
     0
281
     1
  0
CLASS
  1
HATCH
  2
AcDbHatch
  3
AutoCAD 2000
 90
        0
280
     0
281
     1
  0
CLASS
  1
XRECORD
  2
AcDbXrecord
  3
AutoCAD 2000
 90
        0
280
     0
281
     0
  0
CLASS
  1
LONG_TRANSACTION
  2
AcDbLongTransaction
  3
AutoCAD 2000
 90
        0
280
     0
281
     0
  0
CLASS
  1
LWPOLYLINE
  2
AcDbPolyline
  3
AutoCAD 2000
 90
        0
280
     0
281
     1
  0
CLASS
  1
HATCH
  2
AcDbHatch
  3
AutoCAD 2000
 90
        0
280
     0
281
     1
  0
CLASS
  1
XRECORD
  2
AcDbXrecord
  3
AutoCAD 2000
 90
        0
280
     0
281
     0
  0
CLASS
  1
LONG_TRANSACTION
  2
AcDbLongTransaction
  3
AutoCAD 2000
 90
        0
280
     0
281
     0
  0
CLASS
  1
LWPOLYLINE
  2
AcDbPolyline
  3
AutoCAD 2000
 90
        0
280
     0
281
     1
  0
CLASS
  1
HATCH
  2
AcDbHatch
  3
AutoCAD 2000
 90
        0
280
     0
281
     1
  0
CLASS
  1
XRECORD
  2
AcDbXrecord
  3
AutoCAD 2000
 90
        0
280
     0
281
     0
  0
CLASS
  1
LONG_TRANSACTION
  2
AcDbLongTransaction
  3
AutoCAD 2000
 90
        0
280
     0
281
     0
  0
CLASS
  1
LWPOLYLINE
  2
AcDbPolyline
  3
AutoCAD 2000
 90
        0
280
     0
281
     1
  0
CLASS
  1
HATCH
  2
AcDbHatch
  3
AutoCAD 2000
 90
        0
280
     0
281
     1
  0
CLASS
  1
XRECORD
  2
AcDbXrecord
  3
AutoCAD 2000
 90
        0
280
     0
281
     0
  0
CLASS
  1
LONG_TRANSACTION
  2
AcDbLongTransaction
  3
AutoCAD 2000
 90
        0
280
     0
281
     0
  0
CLASS
  1
LWPOLYLINE
  2
AcDbPolyline
  3
AutoCAD 2000
 90
        0
280
     0
281
     1
  0
CLASS
  1
HATCH
  2
AcDbHatch
  3
AutoCAD 2000
 90
        0
280
     0
281
     1
  0
CLASS
  1
XRECORD
  2
AcDbXrecord
  3
AutoCAD 2000
 90
        0
280
     0
281
     0
  0
CLASS
  1
LONG_TRANSACTION
  2
AcDbLongTransaction
  3
AutoCAD 2000
 90
        0
280
     0
281
     0
  0
CLASS
  1
LWPOLYLINE
  2
AcDbPolyline
  3
AutoCAD 2000
 90
        0
280
     0
281
     1
  0
CLASS
  1
HATCH
  2
AcDbHatch
  3
AutoCAD 2000
 90
        0
280
     0
281
     1
  0
CLASS
  1
XRECORD
  2
AcDbXrecord
  3
AutoCAD 2000
 90
        0
280
     0
281
     0
  0
CLASS
  1
LONG_TRANSACTION
  2
AcDbLongTransaction
  3
AutoCAD 2000
 90
        0
280
     0
281
     0
  0
CLASS
  1
LWPOLYLINE
  2
AcDbPolyline
  3
AutoCAD 2000
 90
        0
280
     0
281
     1
  0
CLASS
  1
HATCH
  2
AcDbHatch
  3
AutoCAD 2000
 90
        0
280
     0
281
     1
  0
CLASS
  1
XRECORD
  2
AcDbXrecord
  3
AutoCAD 2000
 90
        0
280
     0
281
     0
  0
CLASS
  1
LONG_TRANSACTION
  2
AcDbLongTransaction
  3
AutoCAD 2000
 90
        0
280
     0
281
     0
  0
CLASS
  1
LWPOLYLINE
  2
AcDbPolyline
  3
AutoCAD 2000
 90
        0
280
     0
281
     1
  0
CLASS
  1
HATCH
  2
AcDbHatch
  3
AutoCAD 2000
 90
        0
280
     0
281
     1
  0
CLASS
  1
XRECORD
  2
AcDbXrecord
  3
AutoCAD 2000
 90
        0
280
     0
281
     0
  0
CLASS
  1
LONG_TRANSACTION
  2
AcDbLongTransaction
  3
AutoCAD 2000
 90
        0
280
     0
281
     0
  0
CLASS
  1
LWPOLYLINE
  2
AcDbPolyline
  3
AutoCAD 2000
 90
        0
280
     0
281
     1
  0
CLASS
  1
HATCH
  2
AcDbHatch
  3
AutoCAD 2000
 90
        0
280
     0
281
     1
  0
CLASS
  1
XRECORD
  2
AcDbXrecord
  3
AutoCAD 2000
 90
        0
280
     0
281
     0
  0
CLASS
  1
LONG_TRANSACTION
  2
AcDbLongTransaction
  3
AutoCAD 2000
 90
        0
280
     0
281
     0
  0
CLASS
  1
LWPOLYLINE
  2
AcDbPolyline
  3
AutoCAD 2000
 90
        0
280
     0
281
     1
  0
CLASS
  1
HATCH
  2
AcDbHatch
  3
AutoCAD 2000
 90
        0
280
     0
281
     1
  0
CLASS
  1
XRECORD
  2
AcDbXrecord
  3
AutoCAD 2000
 90
        0
280
     0
281
     0
  0
CLASS
  1
LONG_TRANSACTION
  2
AcDbLongTransaction
  3
AutoCAD 2000
 90
        0
280
     0
281
     0
  0
CLASS
  1
LWPOLYLINE
  2
AcDbPolyline
  3
AutoCAD 2000
 90
        0
280
     0
281
     1
  0
CLASS
  1
HATCH
  2
AcDbHatch
  3
AutoCAD 2000
 90
        0
280
     0
281
     1
  0
CLASS
  1
XRECORD
  2
AcDbXrecord
  3
AutoCAD 2000
 90
        0
280
     0
281
     0
  0
CLASS
  1
LONG_TRANSACTION
  2
AcDbLongTransaction
  3
AutoCAD 2000
 90
        0
280
     0
281
     0
  0
CLASS
  1
LWPOLYLINE
  2
AcDbPolyline
  3
AutoCAD 2000
 90
        0
280
     0
281
     1
  0
CLASS
  1
HATCH
  2
AcDbHatch
  3
AutoCAD 2000
 90
        0
280
     0
281
     1
  0
CLASS
  1
XRECORD
  2
AcDbXrecord
  3
AutoCAD 2000
 90
        0
280
     0
281
     0
  0
CLASS
  1
LONG_TRANSACTION
  2
AcDbLongTransaction
  3
AutoCAD 2000
 90
        0
280
     0
281
     0
  0
CLASS
  1
LWPOLYLINE
  2
AcDbPolyline
  3
AutoCAD 2000
 90
        0
280
     0
281
     1
  0
CLASS
  1
HATCH
  2
AcDbHatch
  3
AutoCAD 2000
 90
        0
280
     0
281
     1
  0
CLASS
  1
XRECORD
  2
AcDbXrecord
  3
AutoCAD 2000
 90
        0
280
     0
281
     0
  0
CLASS
  1
LONG_TRANSACTION
  2
AcDbLongTransaction
  3
AutoCAD 2000
 90
        0
280
     0
281
     0
  0
CLASS
  1
LWPOLYLINE
  2
AcDbPolyline
  3
AutoCAD 2000
 90
        0
280
     0
281
     1
  0
CLASS
  1
HATCH
  2
AcDbHatch
  3
AutoCAD 2000
 90
        0
280
     0
281
     1
  0
CLASS
  1
XRECORD
  2
AcDbXrecord
  3
AutoCAD 2000
 90
        0
280
     0
281
     0
  0
CLASS
  1
LONG_TRANSACTION
  2
AcDbLongTransaction
  3
AutoCAD 2000
 90
        0
280
     0
281
     0
  0
CLASS
  1
LWPOLYLINE
  2
AcDbPolyline
  3
AutoCAD 2000
 90
        0
280
     0
281
     1
  0
CLASS
  1
HATCH
  2
AcDbHatch
  3
AutoCAD 2000
 90
        0
280
     0
281
     1
  0
CLASS
  1
XRECORD
  2
AcDbXrecord
  3
AutoCAD 2000
 90
        0
280
     0
281
     0
  0
CLASS
  1
LONG_TRANSACTION
  2
AcDbLongTransaction
  3
AutoCAD 2000
 90
        0
280
     0
281
     0
  0
CLASS
  1
LWPOLYLINE
  2
AcDbPolyline
  3
AutoCAD 2000
 90
        0
280
     0
281
     1
  0
CLASS
  1
HATCH
  2
AcDbHatch
  3
AutoCAD 2000
 90
        0
280
     0
281
     1
  0
CLASS
  1
XRECORD
  2
AcDbXrecord
  3
AutoCAD 2000
 90
        0
280
     0
281
     0
  0
CLASS
  1
LONG_TRANSACTION
  2
AcDbLongTransaction
  3
AutoCAD 2000
 90
        0
280
     0
281
     0
  0
CLASS
  1
LWPOLYLINE
  2
AcDbPolyline
  3
AutoCAD 2000
 90
        0
280
     0
281
     1
  0
CLASS
  1
HATCH
  2
AcDbHatch
  3
AutoCAD 2000
 90
        0
280
     0
281
     1
  0
CLASS
  1
XRECORD
  2
AcDbXrecord
  3
AutoCAD 2000
 90
        0
280
     0
281
     0
  0
CLASS
  1
LONG_TRANSACTION
  2
AcDbLongTransaction
  3
AutoCAD 2000
 90
        0
280
     0
281
     0
  0
CLASS
  1
LWPOLYLINE
  2
AcDbPolyline
  3
AutoCAD 2000
 90
        0
280
     0
281
     1
  0
CLASS
  1
HATCH
  2
AcDbHatch
  3
AutoCAD 2000
 90
        0
280
     0
281
     1
  0
CLASS
  1
XRECORD
  2
AcDbXrecord
  3
AutoCAD 2000
 90
        0
280
     0
281
     0
  0
CLASS
  1
LONG_TRANSACTION
  2
AcDbLongTransaction
  3
AutoCAD 2000
 90
        0
280
     0
281
     0
  0
CLASS
  1
LWPOLYLINE
  2
AcDbPolyline
  3
AutoCAD 2000
 90
        0
280
     0
281
     1
  0
CLASS
  1
HATCH
  2
AcDbHatch
  3
AutoCAD 2000
 90
        0
280
     0
281
     1
  0
CLASS
  1
XRECORD
  2
AcDbXrecord
  3
AutoCAD 2000
 90
        0
280
     0
281
     0
  0
CLASS
  1
LONG_TRANSACTION
  2
AcDbLongTransaction
  3
AutoCAD 2000
 90
        0
280
     0
281
     0
  0
CLASS
  1
LWPOLYLINE
  2
AcDbPolyline
  3
AutoCAD 2000
 90
        0
280
     0
281
     1
  0
CLASS
  1
HATCH
  2
AcDbHatch
  3
AutoCAD 2000
 90
        0
280
     0
281
     1
  0
CLASS
  1
XRECORD
  2
AcDbXrecord
  3
AutoCAD 2000
 90
        0
280
     0
281
     0
  0
CLASS
  1
LONG_TRANSACTION
  2
AcDbLongTransaction
  3
AutoCAD 2000
 90
        0
280
     0
281
     0
  0
CLASS
  1
LWPOLYLINE
  2
AcDbPolyline
  3
AutoCAD 2000
 90
        0
280
     0
281
     1
  0
CLASS
  1
HATCH
  2
AcDbHatch
  3
AutoCAD 2000
 90
        0
280
     0
281
     1
  0
CLASS
  1
XRECORD
  2
AcDbXrecord
  3
AutoCAD 2000
 90
        0
280
     0
281
     0
  0
CLASS
  1
LONG_TRANSACTION
  2
AcDbLongTransaction
  3
AutoCAD 2000
 90
        0
280
     0
281
     0
  0
CLASS
  1
LWPOLYLINE
  2
AcDbPolyline
  3
AutoCAD 2000
 90
        0
280
     0
281
     1
  0
CLASS
  1
HATCH
  2
AcDbHatch
  3
AutoCAD 2000
 90
        0
280
     0
281
     1
  0
CLASS
  1
XRECORD
  2
AcDbXrecord
  3
AutoCAD 2000
 90
        0
280
     0
281
     0
  0
CLASS
  1
LONG_TRANSACTION
  2
AcDbLongTransaction
  3
AutoCAD 2000
 90
        0
280
     0
281
     0
  0
CLASS
  1
LWPOLYLINE
  2
AcDbPolyline
  3
AutoCAD 2000
 90
        0
280
     0
281
     1
  0
CLASS
  1
HATCH
  2
AcDbHatch
  3
AutoCAD 2000
 90
        0
280
     0
281
     1
  0
CLASS
  1
XRECORD
  2
AcDbXrecord
  3
AutoCAD 2000
 90
        0
280
     0
281
     0
  0
CLASS
  1
LONG_TRANSACTION
  2
AcDbLongTransaction
  3
AutoCAD 2000
 90
        0
280
     0
281
     0
  0
CLASS
  1
LWPOLYLINE
  2
AcDbPolyline
  3
AutoCAD 2000
 90
        0
280
     0
281
     1
  0
CLASS
  1
HATCH
  2
AcDbHatch
  3
AutoCAD 2000
 90
        0
280
     0
281
     1
  0
CLASS
  1
XRECORD
  2
AcDbXrecord
  3
AutoCAD 2000
 90
        0
280
     0
281
     0
  0
CLASS
  1
LONG_TRANSACTION
  2
AcDbLongTransaction
  3
AutoCAD 2000
 90
        0
280
     0
281
     0
  0
CLASS
  1
LWPOLYLINE
  2
AcDbPolyline
  3
AutoCAD 2000
 90
        0
280
     0
281
     1
  0
CLASS
  1
HATCH
  2
AcDbHatch
  3
AutoCAD 2000
 90
        0
280
     0
281
     1
  0
CLASS
  1
XRECORD
  2
AcDbXrecord
  3
AutoCAD 2000
 90
        0
280
     0
281
     0
  0
CLASS
  1
LONG_TRANSACTION
  2
AcDbLongTransaction
  3
AutoCAD 2000
 90
        0
280
     0
281
     0
  0
CLASS
  1
LWPOLYLINE
  2
AcDbPolyline
  3
AutoCAD 2000
 90
        0
280
     0
281
     1
  0
CLASS
  1
HATCH
  2
AcDbHatch
  3
AutoCAD 2000
 90
        0
280
     0
281
     1
  0
CLASS
  1
XRECORD
  2
AcDbXrecord
  3
AutoCAD 2000
 90
        0
280
     0
281
     0
  0
CLASS
  1
LONG_TRANSACTION
  2
AcDbLongTransaction
  3
AutoCAD 2000
 90
        0
280
     0
281
     0
  0
CLASS
  1
LWPOLYLINE
  2
AcDbPolyline
  3
AutoCAD 2000
 90
        0
280
     0
281
     1
  0
CLASS
  1
HATCH
  2
AcDbHatch
  3
AutoCAD 2000
 90
        0
280
     0
281
     1
  0
CLASS
  1
XRECORD
  2
AcDbXrecord
  3
AutoCAD 2000
 90
        0
280
     0
281
     0
  0
CLASS
  1
LONG_TRANSACTION
  2
AcDbLongTransaction
  3
AutoCAD 2000
 90
        0
280
     0
281
     0
  0
CLASS
  1
LWPOLYLINE
  2
AcDbPolyline
  3
AutoCAD 2000
 90
        0
280
     0
281
     1
  0
CLASS
  1
HATCH
  2
AcDbHatch
  3
AutoCAD 2000
 90
        0
280
     0
281
     1
  0
CLASS
  1
XRECORD
  2
AcDbXrecord
  3
AutoCAD 2000
 90
        0
280
     0
281
     0
  0
CLASS
  1
LONG_TRANSACTION
  2
AcDbLongTransaction
  3
AutoCAD 2000
 90
        0
280
     0
281
     0
  0
CLASS
  1
LWPOLYLINE
  2
AcDbPolyline
  3
AutoCAD 2000
 90
        0
280
     0
281
     1
  0
CLASS
  1
HATCH
  2
AcDbHatch
  3
AutoCAD 2000
 90
        0
280
     0
281
     1
  0
CLASS
  1
XRECORD
  2
AcDbXrecord
  3
AutoCAD 2000
 90
        0
280
     0
281
     0
  0
CLASS
  1
LONG_TRANSACTION
  2
AcDbLongTransaction
  3
AutoCAD 2000
 90
        0
280
     0
281
     0
  0
CLASS
  1
LWPOLYLINE
  2
AcDbPolyline
  3
AutoCAD 2000
 90
        0
280
     0
281
     1
  0
CLASS
  1
HATCH
  2
AcDbHatch
  3
AutoCAD 2000
 90
        0
280
     0
281
     1
  0
CLASS
  1
XRECORD
  2
AcDbXrecord
  3
AutoCAD 2000
 90
        0
280
     0
281
     0
  0
CLASS
  1
LONG_TRANSACTION
  2
AcDbLongTransaction
  3
AutoCAD 2000
 90
        0
280
     0
281
     0
  0
CLASS
  1
LWPOLYLINE
  2
AcDbPolyline
  3
AutoCAD 2000
 90
        0
280
     0
281
     1
  0
CLASS
  1
HATCH
  2
AcDbHatch
  3
AutoCAD 2000
 90
        0
280
     0
281
     1
  0
CLASS
  1
XRECORD
  2
AcDbXrecord
  3
AutoCAD 2000
 90
        0
280
     0
281
     0
  0
CLASS
  1
LONG_TRANSACTION
  2
AcDbLongTransaction
  3
AutoCAD 2000
 90
        0
280
     0
281
     0
  0
CLASS
  1
LWPOLYLINE
  2
AcDbPolyline
  3
AutoCAD 2000
 90
        0
280
     0
281
     1
  0
CLASS
  1
HATCH
  2
AcDbHatch
  3
AutoCAD 2000
 90
        0
280
     0
281
     1
  0
CLASS
  1
XRECORD
  2
AcDbXrecord
  3
AutoCAD 2000
 90
        0
280
     0
281
     0
  0
CLASS
  1
LONG_TRANSACTION
  2
AcDbLongTransaction
  3
AutoCAD 2000
 90
        0
280
     0
281
     0
  0
CLASS
  1
LWPOLYLINE
  2
AcDbPolyline
  3
AutoCAD 2000
 90
        0
280
     0
281
     1
  0
CLASS
  1
HATCH
  2
AcDbHatch
  3
AutoCAD 2000
 90
        0
280
     0
281
     1
  0
CLASS
  1
XRECORD
  2
AcDbXrecord
  3
AutoCAD 2000
 90
        0
280
     0
281
     0
  0
CLASS
  1
LONG_TRANSACTION
  2
AcDbLongTransaction
  3
AutoCAD 2000
 90
        0
280
     0
281
     0
  0
CLASS
  1
LWPOLYLINE
  2
AcDbPolyline
  3
AutoCAD 2000
 90
        0
280
     0
281
     1
  0
CLASS
  1
HATCH
  2
AcDbHatch
  3
AutoCAD 2000
 90
        0
280
     0
281
     1
  0
CLASS
  1
XRECORD
  2
AcDbXrecord
  3
AutoCAD 2000
 90
        0
280
     0
281
     0
  0
CLASS
  1
LONG_TRANSACTION
  2
AcDbLongTransaction
  3
AutoCAD 2000
 90
        0
280
     0
281
     0
  0
CLASS
  1
LWPOLYLINE
  2
AcDbPolyline
  3
AutoCAD 2000
 90
        0
280
     0
281
     1
  0
CLASS
  1
HATCH
  2
AcDbHatch
  3
AutoCAD 2000
 90
        0
280
     0
281
     1
  0
CLASS
  1
XRECORD
  2
AcDbXrecord
  3
AutoCAD 2000
 90
        0
280
     0
281
     0
  0
CLASS
  1
LONG_TRANSACTION
  2
AcDbLongTransaction
  3
AutoCAD 2000
 90
        0
280
     0
281
     0
  0
CLASS
  1
LWPOLYLINE
  2
AcDbPolyline
  3
AutoCAD 2000
 90
        0
280
     0
281
     1
  0
CLASS
  1
HATCH
  2
AcDbHatch
  3
AutoCAD 2000
 90
        0
280
     0
281
     1
  0
CLASS
  1
XRECORD
  2
AcDbXrecord
  3
AutoCAD 2000
 90
        0
280
     0
281
     0
  0
CLASS
  1
LONG_TRANSACTION
  2
AcDbLongTransaction
  3
AutoCAD 2000
 90
        0
280
     0
281
     0
  0
CLASS
  1
LWPOLYLINE
  2
AcDbPolyline
  3
AutoCAD 2000
 90
        0
280
     0
281
     1
  0
CLASS
  1
HATCH
  2
AcDbHatch
  3
AutoCAD 2000
 90
        0
280
     0
281
     1
  0
CLASS
  1
XRECORD
  2
AcDbXrecord
  3
AutoCAD 2000
 90
        0
280
     0
281
     0
  0
CLASS
  1
LONG_TRANSACTION
  2
AcDbLongTransaction
  3
AutoCAD 2000
 90
        0
280
     0
281
     0
  0
CLASS
  1
LWPOLYLINE
  2
AcDbPolyline
  3
AutoCAD 2000
 90
        0
280
     0
281
     1
  0
CLASS
  1
HATCH
  2
AcDbHatch
  3
AutoCAD 2000
 90
        0
280
     0
281
     1
  0
CLASS
  1
XRECORD
  2
AcDbXrecord
  3
AutoCAD 2000
 90
        0
280
     0
281
     0
  0
CLASS
  1
LONG_TRANSACTION
  2
AcDbLongTransaction
  3
AutoCAD 2000
 90
        0
280
     0
281
     0
  0
CLASS
  1
LWPOLYLINE
  2
AcDbPolyline
  3
AutoCAD 2000
 90
        0
280
     0
281
     1
  0
CLASS
  1
HATCH
  2
AcDbHatch
  3
AutoCAD 2000
 90
        0
280
     0
281
     1
  0
CLASS
  1
XRECORD
  2
AcDbXrecord
  3
AutoCAD 2000
 90
        0
280
     0
281
     0
  0
CLASS
  1
LONG_TRANSACTION
  2
AcDbLongTransaction
  3
AutoCAD 2000
 90
        0
280
     0
281
     0
  0
CLASS
  1
LWPOLYLINE
  2
AcDbPolyline
  3
AutoCAD 2000
 90
        0
280
     0
281
     1
  0
CLASS
  1
HATCH
  2
AcDbHatch
  3
AutoCAD 2000
 90
        0
280
     0
281
     1
  0
CLASS
  1
XRECORD
  2
AcDbXrecord
  3
AutoCAD 2000
 90
        0
280
     0
281
     0
  0
CLASS
  1
LONG_TRANSACTION
  2
AcDbLongTransaction
  3
AutoCAD 2000
 90
        0
280
     0
281
     0
  0
CLASS
  1
LWPOLYLINE
  2
AcDbPolyline
  3
AutoCAD 2000
 90
        0
280
     0
281
     1
  0
CLASS
  1
HATCH
  2
AcDbHatch
  3
AutoCAD 2000
 90
        0
280
     0
281
     1
  0
CLASS
  1
XRECORD
  2
AcDbXrecord
  3
AutoCAD 2000
 90
        0
280
     0
281
     0
  0
CLASS
  1
LONG_TRANSACTION
  2
AcDbLongTransaction
  3
AutoCAD 2000
 90
        0
280
     0
281
     0
  0
CLASS
  1
LWPOLYLINE
  2
AcDbPolyline
  3
AutoCAD 2000
 90
        0
280
     0
281
     1
  0
CLASS
  1
HATCH
  2
AcDbHatch
  3
AutoCAD 2000
 90
        0
280
     0
281
     1
  0
CLASS
  1
XRECORD
  2
AcDbXrecord
  3
AutoCAD 2000
 90
        0
280
     0
281
     0
  0
CLASS
  1
LONG_TRANSACTION
  2
AcDbLongTransaction
  3
AutoCAD 2000
 90
        0
280
     0
281
     0
  0
CLASS
  1
LWPOLYLINE
  2
AcDbPolyline
  3
AutoCAD 2000
 90
        0
280
     0
281
     1
  0
CLASS
  1
HATCH
  2
AcDbHatch
  3
AutoCAD 2000
 90
        0
280
     0
281
     1
  0
CLASS
  1
XRECORD
  2
AcDbXrecord
  3
AutoCAD 2000
 90
        0
280
     0
281
     0
  0
CLASS
  1
LONG_TRANSACTION
  2
AcDbLongTransaction
  3
AutoCAD 2000
 90
        0
280
     0
281
     0
  0
CLASS
  1
LWPOLYLINE
  2
AcDbPolyline
  3
AutoCAD 2000
 90
        0
280
     0
281
     1
  0
CLASS
  1
HATCH
  2
AcDbHatch
  3
AutoCAD 2000
 90
        0
280
     0
281
     1
  0
CLASS
  1
XRECORD
  2
AcDbXrecord
  3
AutoCAD 2000
 90
        0
280
     0
281
     0
  0
CLASS
  1
LONG_TRANSACTION
  2
AcDbLongTransaction
  3
AutoCAD 2000
 90
        0
280
     0
281
     0
  0
CLASS
  1
LWPOLYLINE
  2
AcDbPolyline
  3
AutoCAD 2000
 90
        0
280
     0
281
     1
  0
CLASS
  1
HATCH
  2
AcDbHatch
  3
AutoCAD 2000
 90
        0
280
     0
281
     1
  0
CLASS
  1
XRECORD
  2
AcDbXrecord
  3
AutoCAD 2000
 90
        0
280
     0
281
     0
  0
CLASS
  1
LONG_TRANSACTION
  2
AcDbLongTransaction
  3
AutoCAD 2000
 90
        0
280
     0
281
     0
  0
CLASS
  1
LWPOLYLINE
  2
AcDbPolyline
  3
AutoCAD 2000
 90
        0
280
     0
281
     1
  0
CLASS
  1
HATCH
  2
AcDbHatch
  3
AutoCAD 2000
 90
        0
280
     0
281
     1
  0
CLASS
  1
XRECORD
  2
AcDbXrecord
  3
AutoCAD 2000
 90
        0
280
     0
281
     0
  0
CLASS
  1
LONG_TRANSACTION
  2
AcDbLongTransaction
  3
AutoCAD 2000
 90
        0
280
     0
281
     0
  0
CLASS
  1
LWPOLYLINE
  2
AcDbPolyline
  3
AutoCAD 2000
 90
        0
280
     0
281
     1
  0
CLASS
  1
HATCH
  2
AcDbHatch
  3
AutoCAD 2000
 90
        0
280
     0
281
     1
  0
CLASS
  1
XRECORD
  2
AcDbXrecord
  3
AutoCAD 2000
 90
        0
280
     0
281
     0
  0
CLASS
  1
LONG_TRANSACTION
  2
AcDbLongTransaction
  3
AutoCAD 2000
 90
        0
280
     0
281
     0
  0
CLASS
  1
LWPOLYLINE
  2
AcDbPolyline
  3
AutoCAD 2000
 90
        0
280
     0
281
     1
  0
CLASS
  1
HATCH
  2
AcDbHatch
  3
AutoCAD 2000
 90
        0
280
     0
281
     1
  0
CLASS
  1
XRECORD
  2
AcDbXrecord
  3
AutoCAD 2000
 90
        0
280
     0
281
     0
  0
CLASS
  1
LONG_TRANSACTION
  2
AcDbLongTransaction
  3
AutoCAD 2000
 90
        0
280
     0
281
     0
  0
CLASS
  1
LWPOLYLINE
  2
AcDbPolyline
  3
AutoCAD 2000
 90
        0
280
     0
281
     1
  0
CLASS
  1
HATCH
  2
AcDbHatch
  3
AutoCAD 2000
 90
        0
280
     0
281
     1
  0
CLASS
  1
XRECORD
  2
AcDbXrecord
  3
AutoCAD 2000
 90
        0
280
     0
281
     0
  0
CLASS
  1
LONG_TRANSACTION
  2
AcDbLongTransaction
  3
AutoCAD 2000
 90
        0
280
     0
281
     0
  0
CLASS
  1
LWPOLYLINE
  2
AcDbPolyline
  3
AutoCAD 2000
 90
        0
280
     0
281
     1
  0
CLASS
  1
HATCH
  2
AcDbHatch
  3
AutoCAD 2000
 90
        0
280
     0
281
     1
  0
CLASS
  1
XRECORD
  2
AcDbXrecord
  3
AutoCAD 2000
 90
        0
280
     0
281
     0
  0
CLASS
  1
LONG_TRANSACTION
  2
AcDbLongTransaction
  3
AutoCAD 2000
 90
        0
280
     0
281
     0
  0
CLASS
  1
LWPOLYLINE
  2
AcDbPolyline
  3
AutoCAD 2000
 90
        0
280
     0
281
     1
  0
CLASS
  1
HATCH
  2
AcDbHatch
  3
AutoCAD 2000
 90
        0
280
     0
281
     1
  0
CLASS
  1
XRECORD
  2
AcDbXrecord
  3
AutoCAD 2000
 90
        0
280
     0
281
     0
  0
CLASS
  1
LONG_TRANSACTION
  2
AcDbLongTransaction
  3
AutoCAD 2000
 90
        0
280
     0
281
     0
  0
CLASS
  1
LWPOLYLINE
  2
AcDbPolyline
  3
AutoCAD 2000
 90
        0
280
     0
281
     1
  0
CLASS
  1
HATCH
  2
AcDbHatch
  3
AutoCAD 2000
 90
        0
280
     0
281
     1
  0
CLASS
  1
XRECORD
  2
AcDbXrecord
  3
AutoCAD 2000
 90
        0
280
     0
281
     0
  0
CLASS
  1
LONG_TRANSACTION
  2
AcDbLongTransaction
  3
AutoCAD 2000
 90
        0
280
     0
281
     0
  0
CLASS
  1
LWPOLYLINE
  2
AcDbPolyline
  3
AutoCAD 2000
 90
        0
280
     0
281
     1
  0
CLASS
  1
HATCH
  2
AcDbHatch
  3
AutoCAD 2000
 90
        0
280
     0
281
     1
  0
CLASS
  1
XRECORD
  2
AcDbXrecord
  3
AutoCAD 2000
 90
        0
280
     0
281
     0
  0
CLASS
  1
LONG_TRANSACTION
  2
AcDbLongTransaction
  3
AutoCAD 2000
 90
        0
280
     0
281
     0
  0
CLASS
  1
LWPOLYLINE
  2
AcDbPolyline
  3
AutoCAD 2000
 90
        0
280
     0
281
     1
  0
CLASS
  1
HATCH
  2
AcDbHatch
  3
AutoCAD 2000
 90
        0
280
     0
281
     1
  0
CLASS
  1
XRECORD
  2
AcDbXrecord
  3
AutoCAD 2000
 90
        0
280
     0
281
     0
  0
CLASS
  1
LONG_TRANSACTION
  2
AcDbLongTransaction
  3
AutoCAD 2000
 90
        0
280
     0
281
     0
  0
CLASS
  1
LWPOLYLINE
  2
AcDbPolyline
  3
AutoCAD 2000
 90
        0
280
     0
281
     1
  0
CLASS
  1
HATCH
  2
AcDbHatch
  3
AutoCAD 2000
 90
        0
280
     0
281
     1
  0
CLASS
  1
XRECORD
  2
AcDbXrecord
  3
AutoCAD 2000
 90
        0
280
     0
281
     0
  0
CLASS
  1
LONG_TRANSACTION
  2
AcDbLongTransaction
  3
AutoCAD 2000
 90
        0
280
     0
281
     0
  0
CLASS
  1
LWPOLYLINE
  2
AcDbPolyline
  3
AutoCAD 2000
 90
        0
280
     0
281
     1
  0
CLASS
  1
HATCH
  2
AcDbHatch
  3
AutoCAD 2000
 90
        0
280
     0
281
     1
  0
CLASS
  1
XRECORD
  2
AcDbXrecord
  3
AutoCAD 2000
 90
        0
280
     0
281
     0
  0
CLASS
  1
LONG_TRANSACTION
  2
AcDbLongTransaction
  3
AutoCAD 2000
 90
        0
280
     0
281
     0
  0
CLASS
  1
LWPOLYLINE
  2
AcDbPolyline
  3
AutoCAD 2000
 90
        0
280
     0
281
     1
  0
CLASS
  1
HATCH
  2
AcDbHatch
  3
AutoCAD 2000
 90
        0
280
     0
281
     1
  0
CLASS
  1
XRECORD
  2
AcDbXrecord
  3
AutoCAD 2000
 90
        0
280
     0
281
     0
  0
CLASS
  1
LONG_TRANSACTION
  2
AcDbLongTransaction
  3
AutoCAD 2000
 90
        0
280
     0
281
     0
  0
CLASS
  1
LWPOLYLINE
  2
AcDbPolyline
  3
AutoCAD 2000
 90
        0
280
     0
281
     1
  0
CLASS
  1
HATCH
  2
AcDbHatch
  3
AutoCAD 2000
 90
        0
280
     0
281
     1
  0
CLASS
  1
XRECORD
  2
AcDbXrecord
  3
AutoCAD 2000
 90
        0
280
     0
281
     0
  0
CLASS
  1
LONG_TRANSACTION
  2
AcDbLongTransaction
  3
AutoCAD 2000
 90
        0
280
     0
281
     0
  0
CLASS
  1
LWPOLYLINE
  2
AcDbPolyline
  3
AutoCAD 2000
 90
        0
280
     0
281
     1
  0
CLASS
  1
HATCH
  2
AcDbHatch
  3
AutoCAD 2000
 90
        0
280
     0
281
     1
  0
CLASS
  1
XRECORD
  2
AcDbXrecord
  3
AutoCAD 2000
 90
        0
280
     0
281
     0
  0
CLASS
  1
LONG_TRANSACTION
  2
AcDbLongTransaction
  3
AutoCAD 2000
 90
        0
280
     0
281
     0
  0
CLASS
  1
LWPOLYLINE
  2
AcDbPolyline
  3
AutoCAD 2000
 90
        0
280
     0
281
     1
  0
CLASS
  1
HATCH
  2
AcDbHatch
  3
AutoCAD 2000
 90
        0
280
     0
281
     1
  0
CLASS
  1
XRECORD
  2
AcDbXrecord
  3
AutoCAD 2000
 90
        0
280
     0
281
     0
  0
CLASS
  1
LONG_TRANSACTION
  2
AcDbLongTransaction
  3
AutoCAD 2000
 90
        0
280
     0
281
     0
  0
CLASS
  1
LWPOLYLINE
  2
AcDbPolyline
  3
AutoCAD 2000
 90
        0
280
     0
281
     1
  0
CLASS
  1
HATCH
  2
AcDbHatch
  3
AutoCAD 2000
 90
        0
280
     0
281
     1
  0
CLASS
  1
XRECORD
  2
AcDbXrecord
  3
AutoCAD 2000
 90
        0
280
     0
281
     0
  0
CLASS
  1
LONG_TRANSACTION
  2
AcDbLongTransaction
  3
AutoCAD 2000
 90
        0
280
     0
281
     0
  0
CLASS
  1
LWPOLYLINE
  2
AcDbPolyline
  3
AutoCAD 2000
 90
        0
280
     0
281
     1
  0
CLASS
  1
HATCH
  2
AcDbHatch
  3
AutoCAD 2000
 90
        0
280
     0
281
     1
  0
CLASS
  1
XRECORD
  2
AcDbXrecord
  3
AutoCAD 2000
 90
        0
280
     0
281
     0
  0
CLASS
  1
LONG_TRANSACTION
  2
AcDbLongTransaction
  3
AutoCAD 2000
 90
        0
280
     0
281
     0
  0
CLASS
  1
LWPOLYLINE
  2
AcDbPolyline
  3
AutoCAD 2000
 90
        0
280
     0
281
     1
  0
CLASS
  1
HATCH
  2
AcDbHatch
  3
AutoCAD 2000
 90
        0
280
     0
281
     1
  0
CLASS
  1
XRECORD
  2
AcDbXrecord
  3
AutoCAD 2000
 90
        0
280
     0
281
     0
  0
CLASS
  1
LONG_TRANSACTION
  2
AcDbLongTransaction
  3
AutoCAD 2000
 90
        0
280
     0
281
     0
  0
CLASS
  1
LWPOLYLINE
  2
AcDbPolyline
  3
AutoCAD 2000
 90
        0
280
     0
281
     1
  0
CLASS
  1
HATCH
  2
AcDbHatch
  3
AutoCAD 2000
 90
        0
280
     0
281
     1
  0
CLASS
  1
XRECORD
  2
AcDbXrecord
  3
AutoCAD 2000
 90
        0
280
     0
281
     0
  0
CLASS
  1
LONG_TRANSACTION
  2
AcDbLongTransaction
  3
AutoCAD 2000
 90
        0
280
     0
281
     0
  0
CLASS
  1
LWPOLYLINE
  2
AcDbPolyline
  3
AutoCAD 2000
 90
        0
280
     0
281
     1
  0
CLASS
  1
HATCH
  2
AcDbHatch
  3
AutoCAD 2000
 90
        0
280
     0
281
     1
  0
CLASS
  1
XRECORD
  2
AcDbXrecord
  3
AutoCAD 2000
 90
        0
280
     0
281
     0
  0
CLASS
  1
LONG_TRANSACTION
  2
AcDbLongTransaction
  3
AutoCAD 2000
 90
        0
280
     0
281
     0
  0
CLASS
  1
LWPOLYLINE
  2
AcDbPolyline
  3
AutoCAD 2000
 90
        0
280
     0
281
     1
  0
CLASS
  1
HATCH
  2
AcDbHatch
  3
AutoCAD 2000
 90
        0
280
     0
281
     1
  0
CLASS
  1
XRECORD
  2
AcDbXrecord
  3
AutoCAD 2000
 90
        0
280
     0
281
     0
  0
CLASS
  1
LONG_TRANSACTION
  2
AcDbLongTransaction
  3
AutoCAD 2000
 90
        0
280
     0
281
     0
  0
CLASS
  1
LWPOLYLINE
  2
AcDbPolyline
  3
AutoCAD 2000
 90
        0
280
     0
281
     1
  0
CLASS
  1
HATCH
  2
AcDbHatch
  3
AutoCAD 2000
 90
        0
280
     0
281
     1
  0
CLASS
  1
XRECORD
  2
AcDbXrecord
  3
AutoCAD 2000
 90
        0
280
     0
281
     0
  0
CLASS
  1
LONG_TRANSACTION
  2
AcDbLongTransaction
  3
AutoCAD 2000
 90
        0
280
     0
281
     0
  0
CLASS
  1
LWPOLYLINE
  2
AcDbPolyline
  3
AutoCAD 2000
 90
        0
280
     0
281
     1
  0
CLASS
  1
HATCH
  2
AcDbHatch
  3
AutoCAD 2000
 90
        0
280
     0
281
     1
  0
CLASS
  1
XRECORD
  2
AcDbXrecord
  3
AutoCAD 2000
 90
        0
280
     0
281
     0
  0
CLASS
  1
LONG_TRANSACTION
  2
AcDbLongTransaction
  3
AutoCAD 2000
 90
        0
280
     0
281
     0
  0
CLASS
  1
LWPOLYLINE
  2
AcDbPolyline
  3
AutoCAD 2000
 90
        0
280
     0
281
     1
  0
CLASS
  1
HATCH
  2
AcDbHatch
  3
AutoCAD 2000
 90
        0
280
     0
281
     1
  0
CLASS
  1
XRECORD
  2
AcDbXrecord
  3
AutoCAD 2000
 90
        0
280
     0
281
     0
  0
CLASS
  1
LONG_TRANSACTION
  2
AcDbLongTransaction
  3
AutoCAD 2000
 90
        0
280
     0
281
     0
  0
CLASS
  1
LWPOLYLINE
  2
AcDbPolyline
  3
AutoCAD 2000
 90
        0
280
     0
281
     1
  0
CLASS
  1
HATCH
  2
AcDbHatch
  3
AutoCAD 2000
 90
        0
280
     0
281
     1
  0
CLASS
  1
XRECORD
  2
AcDbXrecord
  3
AutoCAD 2000
 90
        0
280
     0
281
     0
  0
CLASS
  1
LONG_TRANSACTION
  2
AcDbLongTransaction
  3
AutoCAD 2000
 90
        0
280
     0
281
     0
  0
CLASS
  1
LWPOLYLINE
  2
AcDbPolyline
  3
AutoCAD 2000
 90
        0
280
     0
281
     1
  0
CLASS
  1
HATCH
  2
AcDbHatch
  3
AutoCAD 2000
 90
        0
280
     0
281
     1
  0
CLASS
  1
XRECORD
  2
AcDbXrecord
  3
AutoCAD 2000
 90
        0
280
     0
281
     0
  0
CLASS
  1
LONG_TRANSACTION
  2
AcDbLongTransaction
  3
AutoCAD 2000
 90
        0
280
     0
281
     0
  0
CLASS
  1
LWPOLYLINE
  2
AcDbPolyline
  3
AutoCAD 2000
 90
        0
280
     0
281
     1
  0
CLASS
  1
HATCH
  2
AcDbHatch
  3
AutoCAD 2000
 90
        0
280
     0
281
     1
  0
CLASS
  1
XRECORD
  2
AcDbXrecord
  3
AutoCAD 2000
 90
        0
280
     0
281
     0
  0
CLASS
  1
LONG_TRANSACTION
  2
AcDbLongTransaction
  3
AutoCAD 2000
 90
        0
280
     0
281
     0
  0
CLASS
  1
LWPOLYLINE
  2
AcDbPolyline
  3
AutoCAD 2000
 90
        0
280
     0
281
     1
  0
CLASS
  1
HATCH
  2
AcDbHatch
  3
AutoCAD 2000
 90
        0
280
     0
281
     1
  0
CLASS
  1
XRECORD
  2
AcDbXrecord
  3
AutoCAD 2000
 90
        0
280
     0
281
     0
  0
CLASS
  1
LONG_TRANSACTION
  2
AcDbLongTransaction
  3
AutoCAD 2000
 90
        0
280
     0
281
     0
  0
CLASS
  1
LWPOLYLINE
  2
AcDbPolyline
  3
AutoCAD 2000
 90
        0
280
     0
281
     1
  0
CLASS
  1
HATCH
  2
AcDbHatch
  3
AutoCAD 2000
 90
        0
280
     0
281
     1
  0
CLASS
  1
XRECORD
  2
AcDbXrecord
  3
AutoCAD 2000
 90
        0
280
     0
281
     0
  0
CLASS
  1
LONG_TRANSACTION
  2
AcDbLongTransaction
  3
AutoCAD 2000
 90
        0
280
     0
281
     0
  0
CLASS
  1
LWPOLYLINE
  2
AcDbPolyline
  3
AutoCAD 2000
 90
        0
280
     0
281
     1
  0
CLASS
  1
HATCH
  2
AcDbHatch
  3
AutoCAD 2000
 90
        0
280
     0
281
     1
  0
CLASS
  1
XRECORD
  2
AcDbXrecord
  3
AutoCAD 2000
 90
        0
280
     0
281
     0
  0
CLASS
  1
LONG_TRANSACTION
  2
AcDbLongTransaction
  3
AutoCAD 2000
 90
        0
280
     0
281
     0
  0
CLASS
  1
LWPOLYLINE
  2
AcDbPolyline
  3
AutoCAD 2000
 90
        0
280
     0
281
     1
  0
CLASS
  1
HATCH
  2
AcDbHatch
  3
AutoCAD 2000
 90
        0
280
     0
281
     1
  0
CLASS
  1
XRECORD
  2
AcDbXrecord
  3
AutoCAD 2000
 90
        0
280
     0
281
     0
  0
CLASS
  1
LONG_TRANSACTION
  2
AcDbLongTransaction
  3
AutoCAD 2000
 90
        0
280
     0
281
     0
  0
CLASS
  1
LWPOLYLINE
  2
AcDbPolyline
  3
AutoCAD 2000
 90
        0
280
     0
281
     1
  0
CLASS
  1
HATCH
  2
AcDbHatch
  3
AutoCAD 2000
 90
        0
280
     0
281
     1
  0
CLASS
  1
XRECORD
  2
AcDbXrecord
  3
AutoCAD 2000
 90
        0
280
     0
281
     0
  0
CLASS
  1
LONG_TRANSACTION
  2
AcDbLongTransaction
  3
AutoCAD 2000
 90
        0
280
     0
281
     0
  0
CLASS
  1
LWPOLYLINE
  2
AcDbPolyline
  3
AutoCAD 2000
 90
        0
280
     0
281
     1
  0
CLASS
  1
HATCH
  2
AcDbHatch
  3
AutoCAD 2000
 90
        0
280
     0
281
     1
  0
CLASS
  1
XRECORD
  2
AcDbXrecord
  3
AutoCAD 2000
 90
        0
280
     0
281
     0
  0
CLASS
  1
LONG_TRANSACTION
  2
AcDbLongTransaction
  3
AutoCAD 2000
 90
        0
280
     0
281
     0
  0
CLASS
  1
LWPOLYLINE
  2
AcDbPolyline
  3
AutoCAD 2000
 90
        0
280
     0
281
     1
  0
CLASS
  1
HATCH
  2
AcDbHatch
  3
AutoCAD 2000
 90
        0
280
     0
281
     1
  0
CLASS
  1
XRECORD
  2
AcDbXrecord
  3
AutoCAD 2000
 90
        0
280
     0
281
     0
  0
CLASS
  1
LONG_TRANSACTION
  2
AcDbLongTransaction
  3
AutoCAD 2000
 90
        0
280
     0
281
     0
  0
CLASS
  1
LWPOLYLINE
  2
AcDbPolyline
  3
AutoCAD 2000
 90
        0
280
     0
281
     1
  0
CLASS
  1
HATCH
  2
AcDbHatch
  3
AutoCAD 2000
 90
        0
280
     0
281
     1
  0
CLASS
  1
XRECORD
  2
AcDbXrecord
  3
AutoCAD 2000
 90
        0
280
     0
281
     0
  0
CLASS
  1
LONG_TRANSACTION
  2
AcDbLongTransaction
  3
AutoCAD 2000
 90
        0
280
     0
281
     0
  0
CLASS
  1
LWPOLYLINE
  2
AcDbPolyline
  3
AutoCAD 2000
 90
        0
280
     0
281
     1
  0
CLASS
  1
HATCH
  2
AcDbHatch
  3
AutoCAD 2000
 90
        0
280
     0
281
     1
  0
CLASS
  1
XRECORD
  2
AcDbXrecord
  3
AutoCAD 2000
 90
        0
280
     0
281
     0
  0
CLASS
  1
LONG_TRANSACTION
  2
AcDbLongTransaction
  3
AutoCAD 2000
 90
        0
280
     0
281
     0
  0
CLASS
  1
LWPOLYLINE
  2
AcDbPolyline
  3
AutoCAD 2000
 90
        0
280
     0
281
     1
  0
CLASS
  1
HATCH
  2
AcDbHatch
  3
AutoCAD 2000
 90
        0
280
     0
281
     1
  0
CLASS
  1
XRECORD
  2
AcDbXrecord
  3
AutoCAD 2000
 90
        0
280
     0
281
     0
  0
ENDSEC
  0
SECTION
  2
TABLES
  0
TABLE
  2
VPORT
  5
92
330
0
100
AcDbSymbolTable
 70
     2
  0
VPORT
  5
4FB
330
92
100
AcDbSymbolTableRecord
100
AcDbViewportTableRecord
  2
*ACTIVE
 70
     0
 10
0.0
 20
0.0
 11
1.0
 21
1.0
 12
154.0443797969637
 22
185.5765559933497
 13
0.0
 23
0.0
 14
10.0
 24
10.0
 15
10.0
 25
10.0
 16
0.0
 26
0.0
 36
1.0
 17
0.0
 27
0.0
 37
0.0
 40
392.6978743551345
 41
1.549367088607595
 42
50.0
 43
0.0
 44
0.0
 50
0.0
 51
0.0
 71
     0
 72
 10000
 73
     1
 74
     3
 75
     0
 76
     0
 77
     0
 78
     1
  0
ENDTAB
  0
TABLE
  2
LTYPE
  5
8D
330
0
100
AcDbSymbolTable
 70
     3
  0
LTYPE
  5
8E
330
8D
100
AcDbSymbolTableRecord
100
AcDbLinetypeTableRecord
  2
BYBLOCK
 70
     0
  3

 72
    65
 73
     0
 40
0.0
  0
LTYPE
  5
8F
330
8D
100
AcDbSymbolTableRecord
100
AcDbLinetypeTableRecord
  2
BYLAYER
 70
     0
  3

 72
    65
 73
     0
 40
0.0
  0
LTYPE
  5
A
330
8D
100
AcDbSymbolTableRecord
100
AcDbLinetypeTableRecord
  2
CONTINUOUS
 70
     0
  3
Solid line
 72
    65
 73
     0
 40
0.0
  0
LTYPE
  5
F7
330
8D
100
AcDbSymbolTableRecord
100
AcDbLinetypeTableRecord
  2
CENTER
 70
     0
  3
Center ____ _ ____ _ ____ _ ____ _ ____ _ ____
 72
    65
 73
     4
 40
50.8
 49
31.75
 74
     0
 49
-6.349999999999998
 74
     0
 49
6.349999999999998
 74
     0
 49
-6.349999999999998
 74
     0
  0
LTYPE
  5
D7
330
8D
100
AcDbSymbolTableRecord
100
AcDbLinetypeTableRecord
  2
CENTERX2
 70
     0
  3
Center (2x) ________  __  ________  __  _____
 72
    65
 73
     4
 40
101.6
 49
63.5
 74
     0
 49
-12.7
 74
     0
 49
12.7
 74
     0
 49
-12.7
 74
     0
  0
ENDTAB
  0
TABLE
  2
LAYER
  5
14
102
{ACAD_XDICTIONARY
360
15
102
}
330
0
100
AcDbSymbolTable
 70
     6
  0
LAYER
  5
6
330
14
100
AcDbSymbolTableRecord
100
AcDbLayerTableRecord
  2
0
 70
     0
 62
     7
  6
CONTINUOUS
  0
LAYER
  5
11A
330
14
100
AcDbSymbolTableRecord
100
AcDbLayerTableRecord
  2
3
 70
     0
 62
     3
  6
CONTINUOUS
  0
LAYER
  5
A9
330
14
100
AcDbSymbolTableRecord
100
AcDbLayerTableRecord
  2
DEFPOINTS
 70
     0
 62
     7
  6
CONTINUOUS
  0
LAYER
  5
D6
330
14
100
AcDbSymbolTableRecord
100
AcDbLayerTableRecord
  2
CL
 70
     0
 62
     1
  6
CENTERX2
  0
LAYER
  5
F6
330
14
100
AcDbSymbolTableRecord
100
AcDbLayerTableRecord
  2
CEN
 70
     0
 62
     1
  6
CENTER
  0
LAYER
  5
2DB
330
14
100
AcDbSymbolTableRecord
100
AcDbLayerTableRecord
  2
2
 70
     0
 62
     2
  6
CONTINUOUS
  0
ENDTAB
  0
TABLE
  2
STYLE
  5
8A
330
0
100
AcDbSymbolTable
 70
     1
  0
STYLE
  5
8B
330
8A
100
AcDbSymbolTableRecord
100
AcDbTextStyleTableRecord
  2
STANDARD
 70
     0
 40
0.0
 41
1.0
 50
0.0
 71
     0
 42
5.777225951253058
  3
romans.shx
  4
whgtxt.shx
  0
ENDTAB
  0
TABLE
  2
VIEW
  5
90
330
0
100
AcDbSymbolTable
 70
     0
  0
ENDTAB
  0
TABLE
  2
UCS
  5
91
330
0
100
AcDbSymbolTable
 70
     0
  0
ENDTAB
  0
TABLE
  2
APPID
  5
94
330
0
100
AcDbSymbolTable
 70
     2
  0
APPID
  5
95
330
94
100
AcDbSymbolTableRecord
100
AcDbRegAppTableRecord
  2
ACAD
 70
     0
  0
APPID
  5
51F
330
94
100
AcDbSymbolTableRecord
100
AcDbRegAppTableRecord
  2
CONTENTBLOCKICON
 70
     0
  0
ENDTAB
  0
TABLE
  2
DIMSTYLE
  5
96
330
0
100
AcDbSymbolTable
 70
     2
  0
DIMSTYLE
105
A0
102
{ACAD_REACTORS
330
D9
330
399
330
19F
330
386
330
190
330
17F
330
170
330
161
330
298
330
32F
330
368
330
2F5
330
2C4
330
AF
330
F9
330
9D
330
108
330
144
330
131
330
11E
330
236
330
286
330
1B3
330
217
330
1E7
330
C1
330
1D6
330
1FB
102
}
330
96
100
AcDbSymbolTableRecord
100
AcDbDimStyleTableRecord
  2
STANDARD
 70
     0
  3

  4

  5

  6

  7

 40
1.0
 41
2.5
 42
1.0
 43
10.0
 44
0.6
 45
0.0
 46
0.0
 47
0.0
 48
0.0
140
3.0
141
0.09
142
0.0
143
25.4
144
1.0
145
0.0
146
1.0
147
1.0
 71
     0
 72
     0
 73
     0
 74
     0
 75
     0
 76
     0
 77
     1
 78
     8
170
     0
171
     2
172
     1
173
     0
174
     1
175
     0
176
   123
177
   123
178
     3
270
     2
271
     2
272
     2
273
     2
274
     2
340
8B
275
     1
280
     0
281
     0
282
     0
283
     1
284
     0
285
     0
286
     0
287
     0
288
     1
  0
DIMSTYLE
105
9C
330
96
100
AcDbSymbolTableRecord
100
AcDbDimStyleTableRecord
  2
1_1_2
 70
     0
  3

  4

  5

  6

  7

 40
1.0
 41
3.0
 42
1.0
 43
10.0
 44
0.6
 45
0.0
 46
0.0
 47
0.0
 48
0.0
140
3.5
141
0.09
142
0.0
143
25.4
144
1.0
145
0.0
146
1.0
147
1.0
 71
     0
 72
     0
 73
     0
 74
     0
 75
     0
 76
     0
 77
     1
 78
     8
170
     0
171
     2
172
     1
173
     0
174
     1
175
     0
176
   123
177
   123
178
     3
270
     2
271
     2
272
     2
273
     2
274
     2
340
8B
275
     1
280
     0
281
     0
282
     0
283
     1
284
     0
285
     0
286
     0
287
     0
288
     1
  0
ENDTAB
  0
TABLE
  2
BLOCK_RECORD
  5
1
330
0
100
AcDbSymbolTable
 70
    56
  0
BLOCK_RECORD
  5
2
102
{ACAD_XDICTIONARY
360
3
102
}
330
1
100
AcDbSymbolTableRecord
100
AcDbBlockTableRecord
  2
*MODEL_SPACE
  0
BLOCK_RECORD
  5
E
102
{ACAD_XDICTIONARY
360
F
102
}
330
1
100
AcDbSymbolTableRecord
100
AcDbBlockTableRecord
  2
*PAPER_SPACE
  0
BLOCK_RECORD
  5
DC
330
1
100
AcDbSymbolTableRecord
100
AcDbBlockTableRecord
  2
*D0
  0
BLOCK_RECORD
  5
D2
330
1
100
AcDbSymbolTableRecord
100
AcDbBlockTableRecord
  2
4
1001
ACAD
1000
DesignCenter Data
1002
{
1070
     1
1070
     4
1002
}
1001
CONTENTBLOCKICON
1071
        0
1004
2800000020000000200000000100080000000000000400000000000000000000000000000000000000000000000080000080000000808000800000008000800080800000C0C0C000C0DCC000F0CAA6000020400000206000002080000020A0000020C0000020E00000400000004020000040400000406000004080000040A0
1004
000040C0000040E00000600000006020000060400000606000006080000060A0000060C0000060E00000800000008020000080400000806000008080000080A0000080C0000080E00000A0000000A0200000A0400000A0600000A0800000A0A00000A0C00000A0E00000C0000000C0200000C0400000C0600000C0800000C0
1004
A00000C0C00000C0E00000E0000000E0200000E0400000E0600000E0800000E0A00000E0C00000E0E00040000000400020004000400040006000400080004000A0004000C0004000E00040200000402020004020400040206000402080004020A0004020C0004020E000404000004040200040404000404060004040800040
1004
40A0004040C0004040E00040600000406020004060400040606000406080004060A0004060C0004060E00040800000408020004080400040806000408080004080A0004080C0004080E00040A0000040A0200040A0400040A0600040A0800040A0A00040A0C00040A0E00040C0000040C0200040C0400040C0600040C08000
1004
40C0A00040C0C00040C0E00040E0000040E0200040E0400040E0600040E0800040E0A00040E0C00040E0E00080000000800020008000400080006000800080008000A0008000C0008000E00080200000802020008020400080206000802080008020A0008020C0008020E00080400000804020008040400080406000804080
1004
008040A0008040C0008040E00080600000806020008060400080606000806080008060A0008060C0008060E00080800000808020008080400080806000808080008080A0008080C0008080E00080A0000080A0200080A0400080A0600080A0800080A0A00080A0C00080A0E00080C0000080C0200080C0400080C0600080C0
1004
800080C0A00080C0C00080C0E00080E0000080E0200080E0400080E0600080E0800080E0A00080E0C00080E0E000C0000000C0002000C0004000C0006000C0008000C000A000C000C000C000E000C0200000C0202000C0204000C0206000C0208000C020A000C020C000C020E000C0400000C0402000C0404000C0406000C0
1004
408000C040A000C040C000C040E000C0600000C0602000C0604000C0606000C0608000C060A000C060C000C060E000C0800000C0802000C0804000C0806000C0808000C080A000C080C000C080E000C0A00000C0A02000C0A04000C0A06000C0A08000C0A0A000C0A0C000C0A0E000C0C00000C0C02000C0C04000C0C06000
1004
C0C08000C0C0A000F0FBFF00A4A0A000808080000000FF0000FF000000FFFF00FF000000FF00FF00FFFF0000FFFFFF0000000000000000000000000000000000000000000000000000000000000000000000000000000000000000000000000000000000000000000000000000000000000000000000000000000000000000
1004
0000000000000000000000000000000000000000FFFFFFFFFFFFFFFFFFFFFFFFFFFFFFFFFFFFFFFFFF000000000000000000FFFFFF00F9000000000000000000000000000000F9FFF9FF0000000000000000FF00FFF90000000000000000000000000000000000FFFFFF0000000000000000F3F3F9F9000000000000000000
1004
00000000000000F9FFF9FF0000000000000000FFF9000000000000000000000000000000000000000000FF0000000000000000FF00F3F300000000000000000000000000000000000000FF0000000000000000FF000000F3000000000000000000000000000000000000FF0000000000000000FF00000000F3000000000000
1004
0000000000000000000000FF0000000000000000FF0000000000F3F3000000000000000000000000000000FF0000000000000000FF00000000000000F30000000000000000000000000000FF0000000000000000FF0000000000000000F3F3000000000000000000000000FF0000000000000000FF00000000000000000000
1004
F30000000000000000000000FF0000000000000000FF0000000000000000000000F300000000000000000000FF0000000000000000FF000000000000000000000000F3F30000000000000000FF0000000000000000FF0000000000000000000000000000F300000000000000FF0000000000000000FF000000000000000000
1004
000000000000F3F30000000000FF0000000000000000FF0000000000000000000000000000000000F300000000FF0000000000000000FF000000000000000000000000000000000000F3000000FF0000000000000000FF00000000000000000000000000000000000000F3F300FF0000000000000000FF0000000000000000
1004
00000000000000000000000000FFFF0000000000000000FF00FFF900000000000000000000000000000000F9F900F30000000000000000FF00FFFF00000000000000000000000000000000F9F9FFFFFAF300000000000000FFF900F90000000000000000000000000000F90000F9FFFAFAF300000000000000FFFFFFFFFFFF
1004
FFFFFFFFFFFFFFFFFFFFFFFFFFFFFF0000FAFAFAF30000000000000000000000000000000000000000000000000000000000FAFAFAF30000000000000000000000000000000000000000000000000000000000FAFA000000000000000000000000000000000000000000000000000000000000000000000000000000000000
1004
0000000000000000000000000000000000000000000000000000000000000000000000000000000000000000000000000000000000000000
  0
BLOCK_RECORD
  5
39A
330
1
100
AcDbSymbolTableRecord
100
AcDbBlockTableRecord
  2
*D2
  0
BLOCK_RECORD
  5
191
330
1
100
AcDbSymbolTableRecord
100
AcDbBlockTableRecord
  2
*D3
  0
BLOCK_RECORD
  5
369
330
1
100
AcDbSymbolTableRecord
100
AcDbBlockTableRecord
  2
*D4
  0
BLOCK_RECORD
  5
B0
330
1
100
AcDbSymbolTableRecord
100
AcDbBlockTableRecord
  2
*D5
  0
BLOCK_RECORD
  5
109
330
1
100
AcDbSymbolTableRecord
100
AcDbBlockTableRecord
  2
*D6
  0
BLOCK_RECORD
  5
287
330
1
100
AcDbSymbolTableRecord
100
AcDbBlockTableRecord
  2
*D7
  0
BLOCK_RECORD
  5
1A2
330
1
100
AcDbSymbolTableRecord
100
AcDbBlockTableRecord
  2
*D8
  0
BLOCK_RECORD
  5
389
330
1
100
AcDbSymbolTableRecord
100
AcDbBlockTableRecord
  2
*D9
  0
BLOCK_RECORD
  5
182
330
1
100
AcDbSymbolTableRecord
100
AcDbBlockTableRecord
  2
*D10
  0
BLOCK_RECORD
  5
173
330
1
100
AcDbSymbolTableRecord
100
AcDbBlockTableRecord
  2
*D11
  0
BLOCK_RECORD
  5
164
330
1
100
AcDbSymbolTableRecord
100
AcDbBlockTableRecord
  2
*D12
  0
BLOCK_RECORD
  5
29B
330
1
100
AcDbSymbolTableRecord
100
AcDbBlockTableRecord
  2
*D13
  0
BLOCK_RECORD
  5
332
330
1
100
AcDbSymbolTableRecord
100
AcDbBlockTableRecord
  2
*D14
  0
BLOCK_RECORD
  5
2F8
330
1
100
AcDbSymbolTableRecord
100
AcDbBlockTableRecord
  2
*D15
  0
BLOCK_RECORD
  5
2C7
330
1
100
AcDbSymbolTableRecord
100
AcDbBlockTableRecord
  2
*D16
  0
BLOCK_RECORD
  5
FC
330
1
100
AcDbSymbolTableRecord
100
AcDbBlockTableRecord
  2
*D17
  0
BLOCK_RECORD
  5
A1
330
1
100
AcDbSymbolTableRecord
100
AcDbBlockTableRecord
  2
*D18
  0
BLOCK_RECORD
  5
147
330
1
100
AcDbSymbolTableRecord
100
AcDbBlockTableRecord
  2
*D19
  0
BLOCK_RECORD
  5
134
330
1
100
AcDbSymbolTableRecord
100
AcDbBlockTableRecord
  2
*D20
  0
BLOCK_RECORD
  5
121
330
1
100
AcDbSymbolTableRecord
100
AcDbBlockTableRecord
  2
*D21
  0
BLOCK_RECORD
  5
239
330
1
100
AcDbSymbolTableRecord
100
AcDbBlockTableRecord
  2
*D22
  0
BLOCK_RECORD
  5
1B6
330
1
100
AcDbSymbolTableRecord
100
AcDbBlockTableRecord
  2
*D23
  0
BLOCK_RECORD
  5
21A
330
1
100
AcDbSymbolTableRecord
100
AcDbBlockTableRecord
  2
*D24
  0
BLOCK_RECORD
  5
1EA
330
1
100
AcDbSymbolTableRecord
100
AcDbBlockTableRecord
  2
*D25
  0
BLOCK_RECORD
  5
C4
330
1
100
AcDbSymbolTableRecord
100
AcDbBlockTableRecord
  2
*D26
  0
BLOCK_RECORD
  5
1D9
330
1
100
AcDbSymbolTableRecord
100
AcDbBlockTableRecord
  2
*D27
  0
BLOCK_RECORD
  5
1FE
330
1
100
AcDbSymbolTableRecord
100
AcDbBlockTableRecord
  2
*D28
  0
BLOCK_RECORD
  5
3AF
330
1
100
AcDbSymbolTableRecord
100
AcDbBlockTableRecord
  2
*D29
  0
BLOCK_RECORD
  5
3BB
330
1
100
AcDbSymbolTableRecord
100
AcDbBlockTableRecord
  2
*D30
  0
BLOCK_RECORD
  5
3C7
330
1
100
AcDbSymbolTableRecord
100
AcDbBlockTableRecord
  2
*D31
  0
BLOCK_RECORD
  5
3D3
330
1
100
AcDbSymbolTableRecord
100
AcDbBlockTableRecord
  2
*D32
  0
BLOCK_RECORD
  5
3DF
330
1
100
AcDbSymbolTableRecord
100
AcDbBlockTableRecord
  2
*D33
  0
BLOCK_RECORD
  5
3EB
330
1
100
AcDbSymbolTableRecord
100
AcDbBlockTableRecord
  2
*D34
  0
BLOCK_RECORD
  5
3F7
330
1
100
AcDbSymbolTableRecord
100
AcDbBlockTableRecord
  2
*D35
  0
BLOCK_RECORD
  5
405
330
1
100
AcDbSymbolTableRecord
100
AcDbBlockTableRecord
  2
*D36
  0
BLOCK_RECORD
  5
411
330
1
100
AcDbSymbolTableRecord
100
AcDbBlockTableRecord
  2
*D37
  0
BLOCK_RECORD
  5
41D
330
1
100
AcDbSymbolTableRecord
100
AcDbBlockTableRecord
  2
*D38
  0
BLOCK_RECORD
  5
429
330
1
100
AcDbSymbolTableRecord
100
AcDbBlockTableRecord
  2
*D39
  0
BLOCK_RECORD
  5
437
330
1
100
AcDbSymbolTableRecord
100
AcDbBlockTableRecord
  2
*D40
  0
BLOCK_RECORD
  5
443
330
1
100
AcDbSymbolTableRecord
100
AcDbBlockTableRecord
  2
*D41
  0
BLOCK_RECORD
  5
44F
330
1
100
AcDbSymbolTableRecord
100
AcDbBlockTableRecord
  2
*D42
  0
BLOCK_RECORD
  5
45B
330
1
100
AcDbSymbolTableRecord
100
AcDbBlockTableRecord
  2
*D43
  0
BLOCK_RECORD
  5
467
330
1
100
AcDbSymbolTableRecord
100
AcDbBlockTableRecord
  2
*D44
  0
BLOCK_RECORD
  5
473
330
1
100
AcDbSymbolTableRecord
100
AcDbBlockTableRecord
  2
*D45
  0
BLOCK_RECORD
  5
481
330
1
100
AcDbSymbolTableRecord
100
AcDbBlockTableRecord
  2
*D46
  0
BLOCK_RECORD
  5
48D
330
1
100
AcDbSymbolTableRecord
100
AcDbBlockTableRecord
  2
*D47
  0
BLOCK_RECORD
  5
499
330
1
100
AcDbSymbolTableRecord
100
AcDbBlockTableRecord
  2
*D48
  0
BLOCK_RECORD
  5
4A5
330
1
100
AcDbSymbolTableRecord
100
AcDbBlockTableRecord
  2
*D49
  0
BLOCK_RECORD
  5
4B1
330
1
100
AcDbSymbolTableRecord
100
AcDbBlockTableRecord
  2
*D50
  0
BLOCK_RECORD
  5
4BD
330
1
100
AcDbSymbolTableRecord
100
AcDbBlockTableRecord
  2
*D51
  0
BLOCK_RECORD
  5
4C9
330
1
100
AcDbSymbolTableRecord
100
AcDbBlockTableRecord
  2
*D52
  0
BLOCK_RECORD
  5
4D5
330
1
100
AcDbSymbolTableRecord
100
AcDbBlockTableRecord
  2
*D53
  0
BLOCK_RECORD
  5
4E1
330
1
100
AcDbSymbolTableRecord
100
AcDbBlockTableRecord
  2
*D54
  0
BLOCK_RECORD
  5
4EF
330
1
100
AcDbSymbolTableRecord
100
AcDbBlockTableRecord
  2
*D55
  0
ENDTAB
  0
ENDSEC
  0
SECTION
  2
BLOCKS
  0
BLOCK
  5
5
330
2
100
AcDbEntity
  8
0
100
AcDbBlockBegin
  2
*MODEL_SPACE
 70
     0
 10
0.0
 20
0.0
 30
0.0
  3
*MODEL_SPACE
  1

  0
ENDBLK
  5
B
330
2
100
AcDbEntity
  8
0
100
AcDbBlockEnd
  0
BLOCK
  5
11
330
E
100
AcDbEntity
 67
     1
  8
0
100
AcDbBlockBegin
  2
*PAPER_SPACE
 70
     0
 10
0.0
 20
0.0
 30
0.0
  3
*PAPER_SPACE
  1

  0
ENDBLK
  5
12
330
E
100
AcDbEntity
 67
     1
  8
0
100
AcDbBlockEnd
  0
BLOCK
  5
E5
330
DC
100
AcDbEntity
  8
0
100
AcDbBlockBegin
  2
*D0
 70
     1
 10
0.0
 20
0.0
 30
0.0
  3
*D0
  1

  0
LINE
  5
DD
330
DC
100
AcDbEntity
  8
0
 62
   123
100
AcDbLine
 10
-474.0668181331803
 20
-2516.925402556208
 30
0.0
 11
-497.6135875546876
 21
-2534.857403328699
 31
0.0
  0
LINE
  5
DE
330
DC
100
AcDbEntity
  8
0
 62
   123
100
AcDbLine
 10
-584.3305466904876
 20
-2600.896550796242
 30
0.0
 11
-586.3194677715838
 21
-2602.411210141828
 31
0.0
  0
MTEXT
  5
DF
330
DC
100
AcDbEntity
  8
0
 62
     3
100
AcDbMText
 10
-484.8441670850144
 20
-2521.990466427412
 30
0.0
 40
3.0
 41
0.0
 71
     5
 72
     1
  1
\A1;\U+2205104%%P0.5
 11
0.7955684324385314
 21
0.6058637382343476
 31
0.0
1001
ACAD
1000
MTEXTBEGIN
1070
    73
1070
     1
1070
    44
1040
1.0
1070
    74
1070
     0
1000
MTEXTEND
  0
LINE
  5
E0
330
DC
100
AcDbEntity
  8
0
 62
   123
100
AcDbLine
 10
-582.3416256093914
 20
-2599.381891450657
 30
0.0
 11
-499.6025086357839
 21
-2536.372062674285
 31
0.0
  0
SOLID
  5
E1
330
DC
100
AcDbEntity
  8
0
 62
   123
100
AcDbTrace
 10
-584.5829899147519
 20
-2600.565063949392
 30
0.0
 11
-584.0781034662234
 21
-2601.228037643092
 31
0.0
 12
-582.3416256093914
 22
-2599.381891450657
 32
0.0
 13
-582.3416256093914
 23
-2599.381891450657
 33
0.0
  0
SOLID
  5
E2
330
DC
100
AcDbEntity
  8
0
 62
   123
100
AcDbTrace
 10
-497.8660307789517
 20
-2534.52591648185
 30
0.0
 11
-497.3611443304232
 21
-2535.188890175549
 31
0.0
 12
-499.6025086357839
 22
-2536.372062674285
 32
0.0
 13
-499.6025086357839
 23
-2536.372062674285
 33
0.0
  0
POINT
  5
E3
330
DC
100
AcDbEntity
  8
DEFPOINTS
 62
     0
100
AcDbPoint
 10
-499.6025086357839
 20
-2536.372062674285
 30
0.0
  0
POINT
  5
E4
330
DC
100
AcDbEntity
  8
DEFPOINTS
 62
     0
100
AcDbPoint
 10
-582.3416256093914
 20
-2599.381891450657
 30
0.0
  0
ENDBLK
  5
E6
330
DC
100
AcDbEntity
  8
0
100
AcDbBlockEnd
  0
BLOCK
  5
F0
330
D2
100
AcDbEntity
  8
0
100
AcDbBlockBegin
  2
4
 70
     0
 10
0.0
 20
0.0
 30
0.0
  3
4
  1

  0
LWPOLYLINE
  5
D3
330
D2
100
AcDbEntity
  8
0
100
AcDbPolyline
 90
        8
 70
     1
 43
0.0
 10
-40.0
 20
-45.00000000000045
 10
40.0
 20
-45.0
 42
0.4142135623730951
 10
45.0
 20
-40.0
 10
45.0
 20
40.0
 42
0.4142135623730951
 10
40.0
 20
45.0
 10
-40.0
 20
45.0
 42
0.4142135623730951
 10
-45.0
 20
40.0
 10
-45.0
 20
-40.00000000000045
 42
0.4142135623730951
  0
CIRCLE
  5
D4
330
D2
100
AcDbEntity
  8
0
100
AcDbCircle
 10
36.76955262170071
 20
36.76955262170031
 30
0.0
 40
3.25
  0
LINE
  5
D5
330
D2
100
AcDbEntity
  8
CL
 48
0.6
100
AcDbLine
 10
33.05724202047111
 20
33.05724202047122
 30
0.0
 11
40.48186322293008
 21
40.48186322292986
 31
0.0
  0
ARC
  5
D8
102
{ACAD_REACTORS
330
DB
102
}
330
D2
100
AcDbEntity
  8
CL
 48
0.6
100
AcDbCircle
 10
0.0
 20
0.0
 30
0.0
 40
51.9999999999996
100
AcDbArc
 50
35.90024337538245
 51
54.09975662462136
  0
DIMENSION
  5
D9
102
{ACAD_XDICTIONARY
360
DA
102
}
102
{ACAD_REACTORS
330
DB
102
}
330
D2
100
AcDbEntity
  8
0
100
AcDbDimension
  2
*D0
 10
-41.36955848680371
 20
-31.50491438818607
 30
0.0
 11
57.64255938315909
 21
43.89758955396246
 31
0.0
 12
540.9720671225876
 22
2567.87697706247
 32
0.0
 70
   131
  1
<>%%P0.5
  3
STANDARD
100
AcDbDiametricDimension
 15
41.36955848680371
 25
31.50491438818607
 35
0.0
 40
0.0
1001
ACAD
1000
DSTYLE
1002
{
1070
   287
1070
     4
1070
   287
1070
     4
1070
   287
1070
     4
1070
   287
1070
     4
1070
   287
1070
     4
1070
   279
1070
     1
1070
   289
1070
     3
1002
}
  0
ARC
  5
E7
330
D2
100
AcDbEntity
  8
CL
 48
0.6
100
AcDbCircle
 10
-0.0000000000002274
 20
0.0
 30
0.0
 40
52.0
100
AcDbArc
 50
129.2128702778055
 51
140.7871297221883
  0
LINE
  5
E8
330
D2
100
AcDbEntity
  8
CL
 48
0.6
100
AcDbLine
 10
-33.05724202047122
 20
33.05724202047122
 30
0.0
 11
-40.48186322292986
 21
40.48186322293031
 31
0.0
  0
CIRCLE
  5
E9
330
D2
100
AcDbEntity
  8
0
100
AcDbCircle
 10
-36.76955262170054
 20
36.76955262170077
 30
0.0
 40
3.25
  0
LINE
  5
EA
330
D2
100
AcDbEntity
  8
CL
 48
0.6
100
AcDbLine
 10
-33.05724202047122
 20
-33.05724202047122
 30
0.0
 11
-40.48186322293008
 21
-40.48186322292986
 31
0.0
  0
CIRCLE
  5
EB
330
D2
100
AcDbEntity
  8
0
100
AcDbCircle
 10
-36.76955262170077
 20
-36.76955262170031
 30
0.0
 40
3.25
  0
ARC
  5
EC
330
D2
100
AcDbEntity
  8
CL
 48
0.6
100
AcDbCircle
 10
0.0
 20
0.0
 30
0.0
 40
51.9999999999996
100
AcDbArc
 50
215.9002433753824
 51
234.0997566246214
  0
ARC
  5
ED
330
D2
100
AcDbEntity
  8
CL
 48
0.6
100
AcDbCircle
 10
0.0
 20
0.0000000000004547
 30
0.0
 40
52.0
100
AcDbArc
 50
309.2128702778056
 51
320.7871297221883
  0
LINE
  5
EE
330
D2
100
AcDbEntity
  8
CL
 48
0.6
100
AcDbLine
 10
33.05724202047076
 20
-33.05724202047122
 30
0.0
 11
40.48186322292941
 21
-40.48186322293031
 31
0.0
  0
CIRCLE
  5
EF
330
D2
100
AcDbEntity
  8
0
100
AcDbCircle
 10
36.76955262170025
 20
-36.76955262170077
 30
0.0
 40
3.25
  0
ENDBLK
  5
F1
330
D2
100
AcDbEntity
  8
0
100
AcDbBlockEnd
  0
BLOCK
  5
3A4
330
39A
100
AcDbEntity
  8
0
100
AcDbBlockBegin
  2
*D2
 70
     1
 10
0.0
 20
0.0
 30
0.0
  3
*D2
  1

  0
LINE
  5
39B
330
39A
100
AcDbEntity
  8
0
 62
   123
100
AcDbLine
 10
14759.85327567075
 20
-4291.351244988169
 30
0.0
 11
14779.12728611513
 21
-4291.351244988169
 31
0.0
  0
LINE
  5
39C
330
39A
100
AcDbEntity
  8
0
 62
   123
100
AcDbLine
 10
14759.85327567075
 20
-4381.351244988171
 30
0.0
 11
14779.12728611513
 21
-4381.351244988171
 31
0.0
  0
LINE
  5
39D
330
39A
100
AcDbEntity
  8
0
 62
   123
100
AcDbLine
 10
14778.52728611513
 20
-4293.851244988171
 30
0.0
 11
14778.52728611513
 21
-4378.851244988171
 31
0.0
  0
SOLID
  5
39E
330
39A
100
AcDbEntity
  8
0
 62
   123
100
AcDbTrace
 10
14778.11061944847
 20
-4293.851244988171
 30
0.0
 11
14778.9439527818
 21
-4293.851244988171
 31
0.0
 12
14778.52728611513
 22
-4291.351244988169
 32
0.0
 13
14778.52728611513
 23
-4291.351244988169
 33
0.0
  0
SOLID
  5
39F
330
39A
100
AcDbEntity
  8
0
 62
   123
100
AcDbTrace
 10
14778.11061944847
 20
-4378.851244988171
 30
0.0
 11
14778.9439527818
 21
-4378.851244988171
 31
0.0
 12
14778.52728611513
 22
-4381.351244988171
 32
0.0
 13
14778.52728611513
 23
-4381.351244988171
 33
0.0
  0
MTEXT
  5
3A0
330
39A
100
AcDbEntity
  8
0
 62
     3
100
AcDbMText
 10
14776.02728611514
 20
-4336.351244988171
 30
0.0
 40
3.0
 41
0.0
 71
     5
 72
     1
  1
\A1;90
 11
0.0000000000000001
 21
1.0
 31
0.0
1001
ACAD
1000
MTEXTBEGIN
1070
    73
1070
     1
1070
    44
1040
1.0
1070
    74
1070
     0
1000
MTEXTEND
  0
POINT
  5
3A1
330
39A
100
AcDbEntity
  8
DEFPOINTS
 62
     0
100
AcDbPoint
 10
14758.85327567075
 20
-4291.351244988169
 30
0.0
  0
POINT
  5
3A2
330
39A
100
AcDbEntity
  8
DEFPOINTS
 62
     0
100
AcDbPoint
 10
14758.85327567075
 20
-4381.351244988171
 30
0.0
  0
POINT
  5
3A3
330
39A
100
AcDbEntity
  8
DEFPOINTS
 62
     0
100
AcDbPoint
 10
14778.52728611513
 20
-4381.351244988171
 30
0.0
  0
ENDBLK
  5
3A5
330
39A
100
AcDbEntity
  8
0
100
AcDbBlockEnd
  0
BLOCK
  5
19B
330
191
100
AcDbEntity
  8
0
100
AcDbBlockBegin
  2
*D3
 70
     1
 10
0.0
 20
0.0
 30
0.0
  3
*D3
  1

  0
LINE
  5
192
330
191
100
AcDbEntity
  8
0
 62
   123
100
AcDbLine
 10
14465.65482032569
 20
-4377.3512449881
 30
0.0
 11
14465.65482032569
 21
-4397.631425674199
 31
0.0
  0
LINE
  5
193
330
191
100
AcDbEntity
  8
0
 62
   123
100
AcDbLine
 10
14555.65482032569
 20
-4377.3512449881
 30
0.0
 11
14555.65482032569
 21
-4397.631425674199
 31
0.0
  0
LINE
  5
194
330
191
100
AcDbEntity
  8
0
 62
   123
100
AcDbLine
 10
14468.15482032569
 20
-4397.031425674199
 30
0.0
 11
14553.15482032569
 21
-4397.031425674199
 31
0.0
  0
SOLID
  5
195
330
191
100
AcDbEntity
  8
0
 62
   123
100
AcDbTrace
 10
14468.15482032569
 20
-4396.614759007531
 30
0.0
 11
14468.15482032569
 21
-4397.448092340865
 31
0.0
 12
14465.65482032569
 22
-4397.031425674199
 32
0.0
 13
14465.65482032569
 23
-4397.031425674199
 33
0.0
  0
SOLID
  5
196
330
191
100
AcDbEntity
  8
0
 62
   123
100
AcDbTrace
 10
14553.15482032569
 20
-4396.614759007531
 30
0.0
 11
14553.15482032569
 21
-4397.448092340865
 31
0.0
 12
14555.65482032569
 22
-4397.031425674199
 32
0.0
 13
14555.65482032569
 23
-4397.031425674199
 33
0.0
  0
MTEXT
  5
197
330
191
100
AcDbEntity
  8
0
 62
     3
100
AcDbMText
 10
14510.40754607456
 20
-4394.531425674197
 30
0.0
 40
3.0
 41
0.0
 71
     5
 72
     1
  1
\A1;90
1001
ACAD
1000
MTEXTBEGIN
1070
    73
1070
     1
1070
    44
1040
1.0
1070
    74
1070
     0
1000
MTEXTEND
  0
POINT
  5
198
330
191
100
AcDbEntity
  8
DEFPOINTS
 62
     0
100
AcDbPoint
 10
14465.65482032569
 20
-4376.351244988102
 30
0.0
  0
POINT
  5
199
330
191
100
AcDbEntity
  8
DEFPOINTS
 62
     0
100
AcDbPoint
 10
14555.65482032569
 20
-4376.351244988102
 30
0.0
  0
POINT
  5
19A
330
191
100
AcDbEntity
  8
DEFPOINTS
 62
     0
100
AcDbPoint
 10
14555.65482032569
 20
-4397.031425674199
 30
0.0
  0
ENDBLK
  5
19C
330
191
100
AcDbEntity
  8
0
100
AcDbBlockEnd
  0
BLOCK
  5
373
330
369
100
AcDbEntity
  8
0
100
AcDbBlockBegin
  2
*D4
 70
     1
 10
0.0
 20
0.0
 30
0.0
  3
*D4
  1

  0
LINE
  5
36A
330
369
100
AcDbEntity
  8
0
 62
   123
100
AcDbLine
 10
14551.96271475339
 20
-4291.351244988102
 30
0.0
 11
14558.32689214581
 21
-4291.351244988102
 31
0.0
  0
LINE
  5
36B
330
369
100
AcDbEntity
  8
0
 62
   123
100
AcDbLine
 10
14539.57097575968
 20
-4248.351244988102
 30
0.0
 11
14558.32689214581
 21
-4248.351244988102
 31
0.0
  0
LINE
  5
36C
330
369
100
AcDbEntity
  8
0
 62
   123
100
AcDbLine
 10
14557.72689214581
 20
-4288.851244988101
 30
0.0
 11
14557.72689214581
 21
-4250.8512449881
 31
0.0
  0
SOLID
  5
36D
330
369
100
AcDbEntity
  8
0
 62
   123
100
AcDbTrace
 10
14557.31022547916
 20
-4288.851244988101
 30
0.0
 11
14558.14355881249
 21
-4288.851244988101
 31
0.0
 12
14557.72689214581
 22
-4291.351244988102
 32
0.0
 13
14557.72689214581
 23
-4291.351244988102
 33
0.0
  0
SOLID
  5
36E
330
369
100
AcDbEntity
  8
0
 62
   123
100
AcDbTrace
 10
14557.31022547916
 20
-4250.8512449881
 30
0.0
 11
14558.14355881249
 21
-4250.8512449881
 31
0.0
 12
14557.72689214581
 22
-4248.351244988102
 32
0.0
 13
14557.72689214581
 23
-4248.351244988102
 33
0.0
  0
MTEXT
  5
36F
330
369
100
AcDbEntity
  8
0
 62
     3
100
AcDbMText
 10
14555.22689214581
 20
-4268.256409191017
 30
0.0
 40
3.0
 41
0.0
 71
     5
 72
     1
  1
\A1;43
 11
0.0000000000000001
 21
1.0
 31
0.0
1001
ACAD
1000
MTEXTBEGIN
1070
    73
1070
     1
1070
    44
1040
1.0
1070
    74
1070
     0
1000
MTEXTEND
  0
POINT
  5
370
330
369
100
AcDbEntity
  8
DEFPOINTS
 62
     0
100
AcDbPoint
 10
14550.96271475339
 20
-4291.351244988102
 30
0.0
  0
POINT
  5
371
330
369
100
AcDbEntity
  8
DEFPOINTS
 62
     0
100
AcDbPoint
 10
14538.57097575967
 20
-4248.351244988102
 30
0.0
  0
POINT
  5
372
330
369
100
AcDbEntity
  8
DEFPOINTS
 62
     0
100
AcDbPoint
 10
14557.72689214581
 20
-4248.351244988102
 30
0.0
  0
ENDBLK
  5
374
330
369
100
AcDbEntity
  8
0
100
AcDbBlockEnd
  0
BLOCK
  5
BA
330
B0
100
AcDbEntity
  8
0
100
AcDbBlockBegin
  2
*D5
 70
     1
 10
0.0
 20
0.0
 30
0.0
  3
*D5
  1

  0
LINE
  5
B1
330
B0
100
AcDbEntity
  8
0
 62
   123
100
AcDbLine
 10
14762.79264852426
 20
-4504.215842977145
 30
0.0
 11
14782.06665896865
 21
-4504.215842977145
 31
0.0
  0
LINE
  5
B2
330
B0
100
AcDbEntity
  8
0
 62
   123
100
AcDbLine
 10
14762.79264852426
 20
-4594.215842977145
 30
0.0
 11
14782.06665896865
 21
-4594.215842977145
 31
0.0
  0
LINE
  5
B3
330
B0
100
AcDbEntity
  8
0
 62
   123
100
AcDbLine
 10
14781.46665896866
 20
-4506.715842977144
 30
0.0
 11
14781.46665896866
 21
-4591.715842977144
 31
0.0
  0
SOLID
  5
B4
330
B0
100
AcDbEntity
  8
0
 62
   123
100
AcDbTrace
 10
14781.04999230199
 20
-4506.715842977144
 30
0.0
 11
14781.88332563531
 21
-4506.715842977144
 31
0.0
 12
14781.46665896866
 22
-4504.215842977145
 32
0.0
 13
14781.46665896866
 23
-4504.215842977145
 33
0.0
  0
SOLID
  5
B5
330
B0
100
AcDbEntity
  8
0
 62
   123
100
AcDbTrace
 10
14781.04999230199
 20
-4591.715842977144
 30
0.0
 11
14781.88332563531
 21
-4591.715842977144
 31
0.0
 12
14781.46665896866
 22
-4594.215842977145
 32
0.0
 13
14781.46665896866
 23
-4594.215842977145
 33
0.0
  0
MTEXT
  5
B6
330
B0
100
AcDbEntity
  8
0
 62
     3
100
AcDbMText
 10
14778.96665896866
 20
-4549.215842977144
 30
0.0
 40
3.0
 41
0.0
 71
     5
 72
     1
  1
\A1;90
 11
0.0000000000000001
 21
1.0
 31
0.0
1001
ACAD
1000
MTEXTBEGIN
1070
    73
1070
     1
1070
    44
1040
1.0
1070
    74
1070
     0
1000
MTEXTEND
  0
POINT
  5
B7
330
B0
100
AcDbEntity
  8
DEFPOINTS
 62
     0
100
AcDbPoint
 10
14761.79264852426
 20
-4504.215842977145
 30
0.0
  0
POINT
  5
B8
330
B0
100
AcDbEntity
  8
DEFPOINTS
 62
     0
100
AcDbPoint
 10
14761.79264852426
 20
-4594.215842977145
 30
0.0
  0
POINT
  5
B9
330
B0
100
AcDbEntity
  8
DEFPOINTS
 62
     0
100
AcDbPoint
 10
14781.46665896866
 20
-4594.215842977145
 30
0.0
  0
ENDBLK
  5
BB
330
B0
100
AcDbEntity
  8
0
100
AcDbBlockEnd
  0
BLOCK
  5
113
330
109
100
AcDbEntity
  8
0
100
AcDbBlockBegin
  2
*D6
 70
     1
 10
0.0
 20
0.0
 30
0.0
  3
*D6
  1

  0
LINE
  5
10A
330
109
100
AcDbEntity
  8
0
 62
   123
100
AcDbLine
 10
14466.4561082239
 20
-4590.215842977075
 30
0.0
 11
14466.4561082239
 21
-4610.496023663173
 31
0.0
  0
LINE
  5
10B
330
109
100
AcDbEntity
  8
0
 62
   123
100
AcDbLine
 10
14556.4561082239
 20
-4590.215842977075
 30
0.0
 11
14556.4561082239
 21
-4610.496023663173
 31
0.0
  0
LINE
  5
10C
330
109
100
AcDbEntity
  8
0
 62
   123
100
AcDbLine
 10
14468.9561082239
 20
-4609.89602366317
 30
0.0
 11
14553.9561082239
 21
-4609.89602366317
 31
0.0
  0
SOLID
  5
10D
330
109
100
AcDbEntity
  8
0
 62
   123
100
AcDbTrace
 10
14468.9561082239
 20
-4609.479356996504
 30
0.0
 11
14468.9561082239
 21
-4610.312690329839
 31
0.0
 12
14466.4561082239
 22
-4609.89602366317
 32
0.0
 13
14466.4561082239
 23
-4609.89602366317
 33
0.0
  0
SOLID
  5
10E
330
109
100
AcDbEntity
  8
0
 62
   123
100
AcDbTrace
 10
14553.9561082239
 20
-4609.479356996504
 30
0.0
 11
14553.9561082239
 21
-4610.312690329839
 31
0.0
 12
14556.4561082239
 22
-4609.89602366317
 32
0.0
 13
14556.4561082239
 23
-4609.89602366317
 33
0.0
  0
MTEXT
  5
10F
330
109
100
AcDbEntity
  8
0
 62
     3
100
AcDbMText
 10
14511.20883397278
 20
-4607.396023663172
 30
0.0
 40
3.0
 41
0.0
 71
     5
 72
     1
  1
\A1;90
1001
ACAD
1000
MTEXTBEGIN
1070
    73
1070
     1
1070
    44
1040
1.0
1070
    74
1070
     0
1000
MTEXTEND
  0
POINT
  5
110
330
109
100
AcDbEntity
  8
DEFPOINTS
 62
     0
100
AcDbPoint
 10
14466.4561082239
 20
-4589.215842977075
 30
0.0
  0
POINT
  5
111
330
109
100
AcDbEntity
  8
DEFPOINTS
 62
     0
100
AcDbPoint
 10
14556.4561082239
 20
-4589.215842977075
 30
0.0
  0
POINT
  5
112
330
109
100
AcDbEntity
  8
DEFPOINTS
 62
     0
100
AcDbPoint
 10
14556.4561082239
 20
-4609.89602366317
 30
0.0
  0
ENDBLK
  5
114
330
109
100
AcDbEntity
  8
0
100
AcDbBlockEnd
  0
BLOCK
  5
291
330
287
100
AcDbEntity
  8
0
100
AcDbBlockBegin
  2
*D7
 70
     1
 10
0.0
 20
0.0
 30
0.0
  3
*D7
  1

  0
LINE
  5
288
330
287
100
AcDbEntity
  8
0
 62
   123
100
AcDbLine
 10
14552.76400265161
 20
-4504.215842977075
 30
0.0
 11
14559.12818004402
 21
-4504.215842977075
 31
0.0
  0
LINE
  5
289
330
287
100
AcDbEntity
  8
0
 62
   123
100
AcDbLine
 10
14540.37226365789
 20
-4461.215842977074
 30
0.0
 11
14559.12818004402
 21
-4461.215842977074
 31
0.0
  0
LINE
  5
28A
330
287
100
AcDbEntity
  8
0
 62
   123
100
AcDbLine
 10
14558.52818004403
 20
-4501.715842977075
 30
0.0
 11
14558.52818004403
 21
-4463.715842977075
 31
0.0
  0
SOLID
  5
28B
330
287
100
AcDbEntity
  8
0
 62
   123
100
AcDbTrace
 10
14558.11151337736
 20
-4501.715842977075
 30
0.0
 11
14558.9448467107
 21
-4501.715842977075
 31
0.0
 12
14558.52818004403
 22
-4504.215842977075
 32
0.0
 13
14558.52818004403
 23
-4504.215842977075
 33
0.0
  0
SOLID
  5
28C
330
287
100
AcDbEntity
  8
0
 62
   123
100
AcDbTrace
 10
14558.11151337736
 20
-4463.715842977075
 30
0.0
 11
14558.9448467107
 21
-4463.715842977075
 31
0.0
 12
14558.52818004403
 22
-4461.215842977074
 32
0.0
 13
14558.52818004403
 23
-4461.215842977074
 33
0.0
  0
MTEXT
  5
28D
330
287
100
AcDbEntity
  8
0
 62
     3
100
AcDbMText
 10
14556.02818004404
 20
-4481.121007179989
 30
0.0
 40
3.0
 41
0.0
 71
     5
 72
     1
  1
\A1;43
 11
0.0000000000000001
 21
1.0
 31
0.0
1001
ACAD
1000
MTEXTBEGIN
1070
    73
1070
     1
1070
    44
1040
1.0
1070
    74
1070
     0
1000
MTEXTEND
  0
POINT
  5
28E
330
287
100
AcDbEntity
  8
DEFPOINTS
 62
     0
100
AcDbPoint
 10
14551.76400265161
 20
-4504.215842977075
 30
0.0
  0
POINT
  5
28F
330
287
100
AcDbEntity
  8
DEFPOINTS
 62
     0
100
AcDbPoint
 10
14539.37226365789
 20
-4461.215842977074
 30
0.0
  0
POINT
  5
290
330
287
100
AcDbEntity
  8
DEFPOINTS
 62
     0
100
AcDbPoint
 10
14558.52818004403
 20
-4461.215842977074
 30
0.0
  0
ENDBLK
  5
292
330
287
100
AcDbEntity
  8
0
100
AcDbBlockEnd
  0
BLOCK
  5
1AC
330
1A2
100
AcDbEntity
  8
0
100
AcDbBlockBegin
  2
*D8
 70
     1
 10
0.0
 20
0.0
 30
0.0
  3
*D8
  1

  0
LINE
  5
1A3
330
1A2
100
AcDbEntity
  8
0
 62
   123
100
AcDbLine
 10
14623.85327567075
 20
-4342.00124498817
 30
0.0
 11
14623.85327567075
 21
-4404.590044948667
 31
0.0
  0
LINE
  5
1A4
330
1A2
100
AcDbEntity
  8
0
 62
   123
100
AcDbLine
 10
14644.85327567075
 20
-4382.35124498817
 30
0.0
 11
14644.85327567075
 21
-4404.590044948667
 31
0.0
  0
LINE
  5
1A5
330
1A2
100
AcDbEntity
  8
0
 62
   123
100
AcDbLine
 10
14626.35327567075
 20
-4403.990044948666
 30
0.0
 11
14642.35327567075
 21
-4403.990044948666
 31
0.0
  0
SOLID
  5
1A6
330
1A2
100
AcDbEntity
  8
0
 62
   123
100
AcDbTrace
 10
14626.35327567075
 20
-4403.573378282
 30
0.0
 11
14626.35327567075
 21
-4404.406711615332
 31
0.0
 12
14623.85327567075
 22
-4403.990044948666
 32
0.0
 13
14623.85327567075
 23
-4403.990044948666
 33
0.0
  0
SOLID
  5
1A7
330
1A2
100
AcDbEntity
  8
0
 62
   123
100
AcDbTrace
 10
14642.35327567075
 20
-4403.573378282
 30
0.0
 11
14642.35327567075
 21
-4404.406711615332
 31
0.0
 12
14644.85327567075
 22
-4403.990044948666
 32
0.0
 13
14644.85327567075
 23
-4403.990044948666
 33
0.0
  0
MTEXT
  5
1A8
330
1A2
100
AcDbEntity
  8
0
 62
     3
100
AcDbMText
 10
14635.85327567075
 20
-4401.490044948666
 30
0.0
 40
3.0
 41
0.0
 71
     5
 72
     1
  1
\A1;21
1001
ACAD
1000
MTEXTBEGIN
1070
    73
1070
     1
1070
    44
1040
1.0
1070
    74
1070
     0
1000
MTEXTEND
  0
POINT
  5
1A9
330
1A2
100
AcDbEntity
  8
DEFPOINTS
 62
     0
100
AcDbPoint
 10
14623.85327567075
 20
-4341.00124498817
 30
0.0
  0
POINT
  5
1AA
330
1A2
100
AcDbEntity
  8
DEFPOINTS
 62
     0
100
AcDbPoint
 10
14644.85327567075
 20
-4381.351244988171
 30
0.0
  0
POINT
  5
1AB
330
1A2
100
AcDbEntity
  8
DEFPOINTS
 62
     0
100
AcDbPoint
 10
14644.85327567075
 20
-4403.990044948666
 30
0.0
  0
ENDBLK
  5
1AD
330
1A2
100
AcDbEntity
  8
0
100
AcDbBlockEnd
  0
BLOCK
  5
393
330
389
100
AcDbEntity
  8
0
100
AcDbBlockBegin
  2
*D9
 70
     1
 10
0.0
 20
0.0
 30
0.0
  3
*D9
  1

  0
LINE
  5
38A
330
389
100
AcDbEntity
  8
0
 62
   123
100
AcDbLine
 10
14641.85327567075
 20
-4294.851244988171
 30
0.0
 11
14613.76151655242
 21
-4294.851244988171
 31
0.0
  0
LINE
  5
38B
330
389
100
AcDbEntity
  8
0
 62
   123
100
AcDbLine
 10
14641.85327567075
 20
-4377.85124498817
 30
0.0
 11
14613.76151655242
 21
-4377.85124498817
 31
0.0
  0
LINE
  5
38C
330
389
100
AcDbEntity
  8
0
 62
   123
100
AcDbLine
 10
14614.36151655241
 20
-4297.351244988171
 30
0.0
 11
14614.36151655241
 21
-4375.351244988171
 31
0.0
  0
SOLID
  5
38D
330
389
100
AcDbEntity
  8
0
 62
   123
100
AcDbTrace
 10
14613.94484988576
 20
-4297.351244988171
 30
0.0
 11
14614.77818321909
 21
-4297.351244988171
 31
0.0
 12
14614.36151655241
 22
-4294.851244988171
 32
0.0
 13
14614.36151655241
 23
-4294.851244988171
 33
0.0
  0
SOLID
  5
38E
330
389
100
AcDbEntity
  8
0
 62
   123
100
AcDbTrace
 10
14613.94484988576
 20
-4375.351244988171
 30
0.0
 11
14614.77818321909
 21
-4375.351244988171
 31
0.0
 12
14614.36151655241
 22
-4377.85124498817
 32
0.0
 13
14614.36151655241
 23
-4377.85124498817
 33
0.0
  0
MTEXT
  5
38F
330
389
100
AcDbEntity
  8
0
 62
     3
100
AcDbMText
 10
14610.41136655242
 20
-4338.37054342868
 30
0.0
 40
3.0
 41
0.0
 71
     5
 72
     1
  1
\A1;\A1;{\f??|b0|i0|c0|p49;%%c}83{\f??|b0|i0|c0|p49;\H0.7x;\S+0^ -0.035;\H1.429x;(h7)}
 11
0.0000000000000001
 21
1.0
 31
0.0
1001
ACAD
1000
MTEXTBEGIN
1070
    73
1070
     1
1070
    44
1040
1.0
1070
    74
1070
     0
1000
MTEXTEND
  0
POINT
  5
390
330
389
100
AcDbEntity
  8
DEFPOINTS
 62
     0
100
AcDbPoint
 10
14642.85327567075
 20
-4294.851244988171
 30
0.0
  0
POINT
  5
391
330
389
100
AcDbEntity
  8
DEFPOINTS
 62
     0
100
AcDbPoint
 10
14642.85327567075
 20
-4377.85124498817
 30
0.0
  0
POINT
  5
392
330
389
100
AcDbEntity
  8
DEFPOINTS
 62
     0
100
AcDbPoint
 10
14614.36151655241
 20
-4377.85124498817
 30
0.0
  0
ENDBLK
  5
394
330
389
100
AcDbEntity
  8
0
100
AcDbBlockEnd
  0
BLOCK
  5
18E
330
182
100
AcDbEntity
  8
0
100
AcDbBlockBegin
  2
*D10
 70
     1
 10
0.0
 20
0.0
 30
0.0
  3
*D10
  1

  0
LINE
  5
183
330
182
100
AcDbEntity
  8
0
 62
   123
100
AcDbLine
 10
14642.85327567075
 20
-4378.851244988171
 30
0.0
 11
14642.85327567075
 21
-4395.225857322208
 31
0.0
  0
LINE
  5
184
330
182
100
AcDbEntity
  8
0
 62
   123
100
AcDbLine
 10
14644.85327567075
 20
-4382.35124498817
 30
0.0
 11
14644.85327567075
 21
-4395.225857322208
 31
0.0
  0
LINE
  5
185
330
182
100
AcDbEntity
  8
0
 62
   123
100
AcDbLine
 10
14647.35327567075
 20
-4394.625857322206
 30
0.0
 11
14649.85327567075
 21
-4394.625857322206
 31
0.0
  0
LINE
  5
186
330
182
100
AcDbEntity
  8
0
 62
   123
100
AcDbLine
 10
14640.35327567074
 20
-4394.625857322206
 30
0.0
 11
14631.85327567074
 21
-4394.625857322206
 31
0.0
  0
LINE
  5
187
330
182
100
AcDbEntity
  8
0
 62
   123
100
AcDbLine
 10
14644.85327567075
 20
-4394.625857322206
 30
0.0
 11
14642.85327567075
 21
-4394.625857322206
 31
0.0
  0
SOLID
  5
188
330
182
100
AcDbEntity
  8
0
 62
   123
100
AcDbTrace
 10
14647.35327567075
 20
-4394.20919065554
 30
0.0
 11
14647.35327567075
 21
-4395.042523988873
 31
0.0
 12
14644.85327567075
 22
-4394.625857322206
 32
0.0
 13
14644.85327567075
 23
-4394.625857322206
 33
0.0
  0
SOLID
  5
189
330
182
100
AcDbEntity
  8
0
 62
   123
100
AcDbTrace
 10
14640.35327567074
 20
-4394.20919065554
 30
0.0
 11
14640.35327567074
 21
-4395.042523988873
 31
0.0
 12
14642.85327567075
 22
-4394.625857322206
 32
0.0
 13
14642.85327567075
 23
-4394.625857322206
 33
0.0
  0
MTEXT
  5
18A
330
182
100
AcDbEntity
  8
0
 62
     3
100
AcDbMText
 10
14633.85327567075
 20
-4392.125857322207
 30
0.0
 40
3.0
 41
0.0
 71
     5
 72
     1
  1
\A1;2
1001
ACAD
1000
MTEXTBEGIN
1070
    73
1070
     1
1070
    44
1040
1.0
1070
    74
1070
     0
1000
MTEXTEND
  0
POINT
  5
18B
330
182
100
AcDbEntity
  8
DEFPOINTS
 62
     0
100
AcDbPoint
 10
14642.85327567075
 20
-4377.85124498817
 30
0.0
  0
POINT
  5
18C
330
182
100
AcDbEntity
  8
DEFPOINTS
 62
     0
100
AcDbPoint
 10
14644.85327567075
 20
-4381.351244988171
 30
0.0
  0
POINT
  5
18D
330
182
100
AcDbEntity
  8
DEFPOINTS
 62
     0
100
AcDbPoint
 10
14644.85327567075
 20
-4394.625857322206
 30
0.0
  0
ENDBLK
  5
18F
330
182
100
AcDbEntity
  8
0
100
AcDbBlockEnd
  0
BLOCK
  5
17D
330
173
100
AcDbEntity
  8
0
100
AcDbBlockBegin
  2
*D11
 70
     1
 10
0.0
 20
0.0
 30
0.0
  3
*D11
  1

  0
LINE
  5
174
330
173
100
AcDbEntity
  8
0
 62
   123
100
AcDbLine
 10
14644.85327567075
 20
-4382.35124498817
 30
0.0
 11
14644.85327567075
 21
-4395.225857322208
 31
0.0
  0
LINE
  5
175
330
173
100
AcDbEntity
  8
0
 62
   123
100
AcDbLine
 10
14652.35327567075
 20
-4380.949982329699
 30
0.0
 11
14652.35327567075
 21
-4395.225857322208
 31
0.0
  0
LINE
  5
176
330
173
100
AcDbEntity
  8
0
 62
   123
100
AcDbLine
 10
14647.35327567075
 20
-4394.625857322206
 30
0.0
 11
14649.85327567075
 21
-4394.625857322206
 31
0.0
  0
SOLID
  5
177
330
173
100
AcDbEntity
  8
0
 62
   123
100
AcDbTrace
 10
14647.35327567075
 20
-4394.20919065554
 30
0.0
 11
14647.35327567075
 21
-4395.042523988873
 31
0.0
 12
14644.85327567075
 22
-4394.625857322206
 32
0.0
 13
14644.85327567075
 23
-4394.625857322206
 33
0.0
  0
SOLID
  5
178
330
173
100
AcDbEntity
  8
0
 62
   123
100
AcDbTrace
 10
14649.85327567075
 20
-4394.20919065554
 30
0.0
 11
14649.85327567075
 21
-4395.042523988873
 31
0.0
 12
14652.35327567075
 22
-4394.625857322206
 32
0.0
 13
14652.35327567075
 23
-4394.625857322206
 33
0.0
  0
MTEXT
  5
179
330
173
100
AcDbEntity
  8
0
 62
     3
100
AcDbMText
 10
14648.60327567075
 20
-4392.125857322207
 30
0.0
 40
3.0
 41
0.0
 71
     5
 72
     1
  1
\A1;7.5
1001
ACAD
1000
MTEXTBEGIN
1070
    73
1070
     1
1070
    44
1040
1.0
1070
    74
1070
     0
1000
MTEXTEND
  0
POINT
  5
17A
330
173
100
AcDbEntity
  8
DEFPOINTS
 62
     0
100
AcDbPoint
 10
14644.85327567075
 20
-4381.351244988171
 30
0.0
  0
POINT
  5
17B
330
173
100
AcDbEntity
  8
DEFPOINTS
 62
     0
100
AcDbPoint
 10
14652.35327567075
 20
-4379.949982329699
 30
0.0
  0
POINT
  5
17C
330
173
100
AcDbEntity
  8
DEFPOINTS
 62
     0
100
AcDbPoint
 10
14652.35327567075
 20
-4394.625857322206
 30
0.0
  0
ENDBLK
  5
17E
330
173
100
AcDbEntity
  8
0
100
AcDbBlockEnd
  0
BLOCK
  5
16E
330
164
100
AcDbEntity
  8
0
100
AcDbBlockBegin
  2
*D12
 70
     1
 10
0.0
 20
0.0
 30
0.0
  3
*D12
  1

  0
LINE
  5
165
330
164
100
AcDbEntity
  8
0
 62
   123
100
AcDbLine
 10
14644.85327567075
 20
-4382.35124498817
 30
0.0
 11
14644.85327567075
 21
-4404.590044948667
 31
0.0
  0
LINE
  5
166
330
164
100
AcDbEntity
  8
0
 62
   123
100
AcDbLine
 10
14764.85327567075
 20
-4375.351244988171
 30
0.0
 11
14764.85327567075
 21
-4404.590044948667
 31
0.0
  0
LINE
  5
167
330
164
100
AcDbEntity
  8
0
 62
   123
100
AcDbLine
 10
14647.35327567075
 20
-4403.990044948666
 30
0.0
 11
14762.35327567074
 21
-4403.990044948666
 31
0.0
  0
SOLID
  5
168
330
164
100
AcDbEntity
  8
0
 62
   123
100
AcDbTrace
 10
14647.35327567075
 20
-4403.573378282
 30
0.0
 11
14647.35327567075
 21
-4404.406711615332
 31
0.0
 12
14644.85327567075
 22
-4403.990044948666
 32
0.0
 13
14644.85327567075
 23
-4403.990044948666
 33
0.0
  0
SOLID
  5
169
330
164
100
AcDbEntity
  8
0
 62
   123
100
AcDbTrace
 10
14762.35327567074
 20
-4403.573378282
 30
0.0
 11
14762.35327567074
 21
-4404.406711615332
 31
0.0
 12
14764.85327567075
 22
-4403.990044948666
 32
0.0
 13
14764.85327567075
 23
-4403.990044948666
 33
0.0
  0
MTEXT
  5
16A
330
164
100
AcDbEntity
  8
0
 62
     3
100
AcDbMText
 10
14697.35327567074
 20
-4401.490044948666
 30
0.0
 40
3.0
 41
0.0
 71
     5
 72
     1
  1
\A1;120
1001
ACAD
1000
MTEXTBEGIN
1070
    73
1070
     1
1070
    44
1040
1.0
1070
    74
1070
     0
1000
MTEXTEND
  0
POINT
  5
16B
330
164
100
AcDbEntity
  8
DEFPOINTS
 62
     0
100
AcDbPoint
 10
14644.85327567075
 20
-4381.351244988171
 30
0.0
  0
POINT
  5
16C
330
164
100
AcDbEntity
  8
DEFPOINTS
 62
     0
100
AcDbPoint
 10
14764.85327567075
 20
-4374.351244988171
 30
0.0
  0
POINT
  5
16D
330
164
100
AcDbEntity
  8
DEFPOINTS
 62
     0
100
AcDbPoint
 10
14764.85327567075
 20
-4403.990044948666
 30
0.0
  0
ENDBLK
  5
16F
330
164
100
AcDbEntity
  8
0
100
AcDbBlockEnd
  0
BLOCK
  5
2A5
330
29B
100
AcDbEntity
  8
0
100
AcDbBlockBegin
  2
*D13
 70
     1
 10
0.0
 20
0.0
 30
0.0
  3
*D13
  1

  0
LINE
  5
29C
330
29B
100
AcDbEntity
  8
0
 62
   123
100
AcDbLine
 10
14479.40754607456
 20
-4282.351244988102
 30
0.0
 11
14479.40754607456
 21
-4233.841515392676
 31
0.0
  0
LINE
  5
29D
330
29B
100
AcDbEntity
  8
0
 62
   123
100
AcDbLine
 10
14541.40754607456
 20
-4282.351244988102
 30
0.0
 11
14541.40754607456
 21
-4233.841515392676
 31
0.0
  0
LINE
  5
29E
330
29B
100
AcDbEntity
  8
0
 62
   123
100
AcDbLine
 10
14481.90754607456
 20
-4234.441515392677
 30
0.0
 11
14538.90754607456
 21
-4234.441515392677
 31
0.0
  0
SOLID
  5
29F
330
29B
100
AcDbEntity
  8
0
 62
   123
100
AcDbTrace
 10
14481.90754607456
 20
-4234.024848726011
 30
0.0
 11
14481.90754607456
 21
-4234.858182059343
 31
0.0
 12
14479.40754607456
 22
-4234.441515392677
 32
0.0
 13
14479.40754607456
 23
-4234.441515392677
 33
0.0
  0
SOLID
  5
2A0
330
29B
100
AcDbEntity
  8
0
 62
   123
100
AcDbTrace
 10
14538.90754607456
 20
-4234.024848726011
 30
0.0
 11
14538.90754607456
 21
-4234.858182059343
 31
0.0
 12
14541.40754607456
 22
-4234.441515392677
 32
0.0
 13
14541.40754607456
 23
-4234.441515392677
 33
0.0
  0
MTEXT
  5
2A1
330
29B
100
AcDbEntity
  8
0
 62
     3
100
AcDbMText
 10
14510.40754607456
 20
-4231.941515392676
 30
0.0
 40
3.0
 41
0.0
 71
     5
 72
     1
  1
\A1;62
1001
ACAD
1000
MTEXTBEGIN
1070
    73
1070
     1
1070
    44
1040
1.0
1070
    74
1070
     0
1000
MTEXTEND
  0
POINT
  5
2A2
330
29B
100
AcDbEntity
  8
DEFPOINTS
 62
     0
100
AcDbPoint
 10
14479.40754607456
 20
-4283.351244988102
 30
0.0
  0
POINT
  5
2A3
330
29B
100
AcDbEntity
  8
DEFPOINTS
 62
     0
100
AcDbPoint
 10
14541.40754607456
 20
-4283.351244988102
 30
0.0
  0
POINT
  5
2A4
330
29B
100
AcDbEntity
  8
DEFPOINTS
 62
     0
100
AcDbPoint
 10
14541.40754607456
 20
-4234.441515392677
 30
0.0
  0
ENDBLK
  5
2A6
330
29B
100
AcDbEntity
  8
0
100
AcDbBlockEnd
  0
BLOCK
  5
33C
330
332
100
AcDbEntity
  8
0
100
AcDbBlockBegin
  2
*D14
 70
     1
 10
0.0
 20
0.0
 30
0.0
  3
*D14
  1

  0
LINE
  5
333
330
332
100
AcDbEntity
  8
0
 62
   123
100
AcDbLine
 10
14725.84994267075
 20
-4250.351245988168
 30
0.0
 11
14725.84994267075
 21
-4235.712212503996
 31
0.0
  0
LINE
  5
334
330
332
100
AcDbEntity
  8
0
 62
   123
100
AcDbLine
 10
14753.84994267074
 20
-4258.351245988168
 30
0.0
 11
14753.84994267074
 21
-4235.712212503996
 31
0.0
  0
LINE
  5
335
330
332
100
AcDbEntity
  8
0
 62
   123
100
AcDbLine
 10
14728.34994267075
 20
-4236.312212503997
 30
0.0
 11
14751.34994267075
 21
-4236.312212503997
 31
0.0
  0
SOLID
  5
336
330
332
100
AcDbEntity
  8
0
 62
   123
100
AcDbTrace
 10
14728.34994267075
 20
-4235.895545837329
 30
0.0
 11
14728.34994267075
 21
-4236.728879170664
 31
0.0
 12
14725.84994267075
 22
-4236.312212503997
 32
0.0
 13
14725.84994267075
 23
-4236.312212503997
 33
0.0
  0
SOLID
  5
337
330
332
100
AcDbEntity
  8
0
 62
   123
100
AcDbTrace
 10
14751.34994267075
 20
-4235.895545837329
 30
0.0
 11
14751.34994267075
 21
-4236.728879170664
 31
0.0
 12
14753.84994267074
 22
-4236.312212503997
 32
0.0
 13
14753.84994267074
 23
-4236.312212503997
 33
0.0
  0
MTEXT
  5
338
330
332
100
AcDbEntity
  8
0
 62
     3
100
AcDbMText
 10
14739.84994267075
 20
-4233.812212503997
 30
0.0
 40
3.0
 41
0.0
 71
     5
 72
     1
  1
\A1;MAX. 28
1001
ACAD
1000
MTEXTBEGIN
1070
    73
1070
     1
1070
    44
1040
1.0
1070
    74
1070
     0
1000
MTEXTEND
  0
POINT
  5
339
330
332
100
AcDbEntity
  8
DEFPOINTS
 62
     0
100
AcDbPoint
 10
14725.84994267075
 20
-4251.351245988169
 30
0.0
  0
POINT
  5
33A
330
332
100
AcDbEntity
  8
DEFPOINTS
 62
     0
100
AcDbPoint
 10
14753.84994267074
 20
-4259.351245988169
 30
0.0
  0
POINT
  5
33B
330
332
100
AcDbEntity
  8
DEFPOINTS
 62
     0
100
AcDbPoint
 10
14753.84994267074
 20
-4236.312212503997
 30
0.0
  0
ENDBLK
  5
33D
330
332
100
AcDbEntity
  8
0
100
AcDbBlockEnd
  0
BLOCK
  5
304
330
2F8
100
AcDbEntity
  8
0
100
AcDbBlockBegin
  2
*D15
 70
     1
 10
0.0
 20
0.0
 30
0.0
  3
*D15
  1

  0
LINE
  5
2F9
330
2F8
100
AcDbEntity
  8
0
 62
   123
100
AcDbLine
 10
14644.85327567075
 20
-4290.351244988171
 30
0.0
 11
14644.85327567075
 21
-4235.695641483486
 31
0.0
  0
LINE
  5
2FA
330
2F8
100
AcDbEntity
  8
0
 62
   123
100
AcDbLine
 10
14650.85327567074
 20
-4281.651245988167
 30
0.0
 11
14650.85327567074
 21
-4235.695641483486
 31
0.0
  0
LINE
  5
2FB
330
2F8
100
AcDbEntity
  8
0
 62
   123
100
AcDbLine
 10
14642.35327567075
 20
-4236.295641483486
 30
0.0
 11
14639.85327567075
 21
-4236.295641483486
 31
0.0
  0
LINE
  5
2FC
330
2F8
100
AcDbEntity
  8
0
 62
   123
100
AcDbLine
 10
14653.35327567075
 20
-4236.295641483486
 30
0.0
 11
14655.85327567075
 21
-4236.295641483486
 31
0.0
  0
LINE
  5
2FD
330
2F8
100
AcDbEntity
  8
0
 62
   123
100
AcDbLine
 10
14644.85327567075
 20
-4236.295641483486
 30
0.0
 11
14650.85327567074
 21
-4236.295641483486
 31
0.0
  0
SOLID
  5
2FE
330
2F8
100
AcDbEntity
  8
0
 62
   123
100
AcDbTrace
 10
14642.35327567075
 20
-4235.878974816819
 30
0.0
 11
14642.35327567075
 21
-4236.712308150153
 31
0.0
 12
14644.85327567075
 22
-4236.295641483486
 32
0.0
 13
14644.85327567075
 23
-4236.295641483486
 33
0.0
  0
SOLID
  5
2FF
330
2F8
100
AcDbEntity
  8
0
 62
   123
100
AcDbTrace
 10
14653.35327567075
 20
-4235.878974816819
 30
0.0
 11
14653.35327567075
 21
-4236.712308150153
 31
0.0
 12
14650.85327567074
 22
-4236.295641483486
 32
0.0
 13
14650.85327567074
 23
-4236.295641483486
 33
0.0
  0
MTEXT
  5
300
330
2F8
100
AcDbEntity
  8
0
 62
     3
100
AcDbMText
 10
14647.85327567074
 20
-4233.795641483485
 30
0.0
 40
3.0
 41
0.0
 71
     5
 72
     1
  1
\A1;6
1001
ACAD
1000
MTEXTBEGIN
1070
    73
1070
     1
1070
    44
1040
1.0
1070
    74
1070
     0
1000
MTEXTEND
  0
POINT
  5
301
330
2F8
100
AcDbEntity
  8
DEFPOINTS
 62
     0
100
AcDbPoint
 10
14644.85327567075
 20
-4291.351244988169
 30
0.0
  0
POINT
  5
302
330
2F8
100
AcDbEntity
  8
DEFPOINTS
 62
     0
100
AcDbPoint
 10
14650.85327567074
 20
-4282.651245988168
 30
0.0
  0
POINT
  5
303
330
2F8
100
AcDbEntity
  8
DEFPOINTS
 62
     0
100
AcDbPoint
 10
14650.85327567074
 20
-4236.295641483486
 30
0.0
  0
ENDBLK
  5
305
330
2F8
100
AcDbEntity
  8
0
100
AcDbBlockEnd
  0
BLOCK
  5
2D1
330
2C7
100
AcDbEntity
  8
0
100
AcDbBlockBegin
  2
*D16
 70
     1
 10
0.0
 20
0.0
 30
0.0
  3
*D16
  1

  0
LINE
  5
2C8
330
2C7
100
AcDbEntity
  8
0
 62
   123
100
AcDbLine
 10
14650.85327567074
 20
-4281.651245988167
 30
0.0
 11
14650.85327567074
 21
-4235.695641483486
 31
0.0
  0
LINE
  5
2C9
330
2C7
100
AcDbEntity
  8
0
 62
   123
100
AcDbLine
 10
14725.84994267075
 20
-4250.351245988168
 30
0.0
 11
14725.84994267075
 21
-4235.695641483486
 31
0.0
  0
LINE
  5
2CA
330
2C7
100
AcDbEntity
  8
0
 62
   123
100
AcDbLine
 10
14653.35327567075
 20
-4236.295641483486
 30
0.0
 11
14723.34994267074
 21
-4236.295641483486
 31
0.0
  0
SOLID
  5
2CB
330
2C7
100
AcDbEntity
  8
0
 62
   123
100
AcDbTrace
 10
14653.35327567075
 20
-4235.878974816819
 30
0.0
 11
14653.35327567075
 21
-4236.712308150153
 31
0.0
 12
14650.85327567074
 22
-4236.295641483486
 32
0.0
 13
14650.85327567074
 23
-4236.295641483486
 33
0.0
  0
SOLID
  5
2CC
330
2C7
100
AcDbEntity
  8
0
 62
   123
100
AcDbTrace
 10
14723.34994267074
 20
-4235.878974816819
 30
0.0
 11
14723.34994267074
 21
-4236.712308150153
 31
0.0
 12
14725.84994267075
 22
-4236.295641483486
 32
0.0
 13
14725.84994267075
 23
-4236.295641483486
 33
0.0
  0
MTEXT
  5
2CD
330
2C7
100
AcDbEntity
  8
0
 62
     3
100
AcDbMText
 10
14681.7531529135
 20
-4233.795641483485
 30
0.0
 40
3.0
 41
0.0
 71
     5
 72
     1
  1
\A1;75
1001
ACAD
1000
MTEXTBEGIN
1070
    73
1070
     1
1070
    44
1040
1.0
1070
    74
1070
     0
1000
MTEXTEND
  0
POINT
  5
2CE
330
2C7
100
AcDbEntity
  8
DEFPOINTS
 62
     0
100
AcDbPoint
 10
14650.85327567074
 20
-4282.651245988168
 30
0.0
  0
POINT
  5
2CF
330
2C7
100
AcDbEntity
  8
DEFPOINTS
 62
     0
100
AcDbPoint
 10
14725.84994267075
 20
-4251.351245988169
 30
0.0
  0
POINT
  5
2D0
330
2C7
100
AcDbEntity
  8
DEFPOINTS
 62
     0
100
AcDbPoint
 10
14725.84994267075
 20
-4236.295641483486
 30
0.0
  0
ENDBLK
  5
2D2
330
2C7
100
AcDbEntity
  8
0
100
AcDbBlockEnd
  0
BLOCK
  5
106
330
FC
100
AcDbEntity
  8
0
100
AcDbBlockBegin
  2
*D17
 70
     1
 10
0.0
 20
0.0
 30
0.0
  3
*D17
  1

  0
LINE
  5
FD
330
FC
100
AcDbEntity
  8
0
 62
   123
100
AcDbLine
 10
14644.79264852426
 20
-4507.715842977144
 30
0.0
 11
14575.71150730299
 21
-4507.715842977144
 31
0.0
  0
LINE
  5
FE
330
FC
100
AcDbEntity
  8
0
 62
   123
100
AcDbLine
 10
14644.79264852426
 20
-4590.715842977144
 30
0.0
 11
14575.71150730299
 21
-4590.715842977144
 31
0.0
  0
LINE
  5
FF
330
FC
100
AcDbEntity
  8
0
 62
   123
100
AcDbLine
 10
14576.31150730299
 20
-4510.215842977144
 30
0.0
 11
14576.31150730299
 21
-4588.215842977144
 31
0.0
  0
SOLID
  5
100
330
FC
100
AcDbEntity
  8
0
 62
   123
100
AcDbTrace
 10
14575.89484063631
 20
-4510.215842977144
 30
0.0
 11
14576.72817396965
 21
-4510.215842977144
 31
0.0
 12
14576.31150730299
 22
-4507.715842977144
 32
0.0
 13
14576.31150730299
 23
-4507.715842977144
 33
0.0
  0
SOLID
  5
101
330
FC
100
AcDbEntity
  8
0
 62
   123
100
AcDbTrace
 10
14575.89484063631
 20
-4588.215842977144
 30
0.0
 11
14576.72817396965
 21
-4588.215842977144
 31
0.0
 12
14576.31150730299
 22
-4590.715842977144
 32
0.0
 13
14576.31150730299
 23
-4590.715842977144
 33
0.0
  0
MTEXT
  5
102
330
FC
100
AcDbEntity
  8
0
 62
     3
100
AcDbMText
 10
14572.36135730299
 20
-4551.235141417652
 30
0.0
 40
3.0
 41
0.0
 71
     5
 72
     1
  1
\A1;\A1;{\f??|b0|i0|c0|p49;%%c}83{\f??|b0|i0|c0|p49;\H0.7x;\S+0^ -0.035;\H1.429x;(h7)}
 11
0.0000000000000001
 21
1.0
 31
0.0
1001
ACAD
1000
MTEXTBEGIN
1070
    73
1070
     1
1070
    44
1040
1.0
1070
    74
1070
     0
1000
MTEXTEND
  0
POINT
  5
103
330
FC
100
AcDbEntity
  8
DEFPOINTS
 62
     0
100
AcDbPoint
 10
14645.79264852426
 20
-4507.715842977144
 30
0.0
  0
POINT
  5
104
330
FC
100
AcDbEntity
  8
DEFPOINTS
 62
     0
100
AcDbPoint
 10
14645.79264852426
 20
-4590.715842977144
 30
0.0
  0
POINT
  5
105
330
FC
100
AcDbEntity
  8
DEFPOINTS
 62
     0
100
AcDbPoint
 10
14576.31150730299
 20
-4590.715842977144
 30
0.0
  0
ENDBLK
  5
107
330
FC
100
AcDbEntity
  8
0
100
AcDbBlockEnd
  0
BLOCK
  5
AC
330
A1
100
AcDbEntity
  8
0
100
AcDbBlockBegin
  2
*D18
 70
     1
 10
0.0
 20
0.0
 30
0.0
  3
*D18
  1

  0
LINE
  5
A2
330
A1
100
AcDbEntity
  8
0
 62
   123
100
AcDbLine
 10
14610.79264852426
 20
-4556.215842977144
 30
0.0
 11
14610.79264852426
 21
-4619.268409177739
 31
0.0
  0
LINE
  5
A3
330
A1
100
AcDbEntity
  8
0
 62
   123
100
AcDbLine
 10
14647.79264852428
 20
-4595.215842977144
 30
0.0
 11
14647.79264852428
 21
-4619.268409177739
 31
0.0
  0
LINE
  5
A4
330
A1
100
AcDbEntity
  8
0
 62
   123
100
AcDbLine
 10
14613.29264852426
 20
-4618.66840917774
 30
0.0
 11
14645.29264852426
 21
-4618.66840917774
 31
0.0
  0
SOLID
  5
A5
330
A1
100
AcDbEntity
  8
0
 62
   123
100
AcDbTrace
 10
14613.29264852426
 20
-4618.251742511072
 30
0.0
 11
14613.29264852426
 21
-4619.085075844405
 31
0.0
 12
14610.79264852426
 22
-4618.66840917774
 32
0.0
 13
14610.79264852426
 23
-4618.66840917774
 33
0.0
  0
SOLID
  5
A6
330
A1
100
AcDbEntity
  8
0
 62
   123
100
AcDbTrace
 10
14645.29264852426
 20
-4618.251742511072
 30
0.0
 11
14645.29264852426
 21
-4619.085075844405
 31
0.0
 12
14647.79264852428
 22
-4618.66840917774
 32
0.0
 13
14647.79264852428
 23
-4618.66840917774
 33
0.0
  0
MTEXT
  5
A7
330
A1
100
AcDbEntity
  8
0
 62
     3
100
AcDbMText
 10
14629.29264852426
 20
-4616.168409177737
 30
0.0
 40
3.0
 41
0.0
 71
     5
 72
     1
  1
\A1;37
1001
ACAD
1000
MTEXTBEGIN
1070
    73
1070
     1
1070
    44
1040
1.0
1070
    74
1070
     0
1000
MTEXTEND
  0
POINT
  5
A8
330
A1
100
AcDbEntity
  8
DEFPOINTS
 62
     0
100
AcDbPoint
 10
14610.79264852426
 20
-4555.215842977144
 30
0.0
  0
POINT
  5
AA
330
A1
100
AcDbEntity
  8
DEFPOINTS
 62
     0
100
AcDbPoint
 10
14647.79264852428
 20
-4594.215842977145
 30
0.0
  0
POINT
  5
AB
330
A1
100
AcDbEntity
  8
DEFPOINTS
 62
     0
100
AcDbPoint
 10
14647.79264852428
 20
-4618.66840917774
 30
0.0
  0
ENDBLK
  5
AD
330
A1
100
AcDbEntity
  8
0
100
AcDbBlockEnd
  0
BLOCK
  5
151
330
147
100
AcDbEntity
  8
0
100
AcDbBlockBegin
  2
*D19
 70
     1
 10
0.0
 20
0.0
 30
0.0
  3
*D19
  1

  0
LINE
  5
148
330
147
100
AcDbEntity
  8
0
 62
   123
100
AcDbLine
 10
14647.79264852428
 20
-4595.215842977144
 30
0.0
 11
14647.79264852428
 21
-4609.256310659975
 31
0.0
  0
LINE
  5
149
330
147
100
AcDbEntity
  8
0
 62
   123
100
AcDbLine
 10
14655.29264852427
 20
-4593.814580318674
 30
0.0
 11
14655.29264852427
 21
-4609.256310659975
 31
0.0
  0
LINE
  5
14A
330
147
100
AcDbEntity
  8
0
 62
   123
100
AcDbLine
 10
14650.29264852426
 20
-4608.656310659975
 30
0.0
 11
14652.79264852426
 21
-4608.656310659975
 31
0.0
  0
SOLID
  5
14B
330
147
100
AcDbEntity
  8
0
 62
   123
100
AcDbTrace
 10
14650.29264852426
 20
-4608.239643993308
 30
0.0
 11
14650.29264852426
 21
-4609.072977326643
 31
0.0
 12
14647.79264852428
 22
-4608.656310659975
 32
0.0
 13
14647.79264852428
 23
-4608.656310659975
 33
0.0
  0
SOLID
  5
14C
330
147
100
AcDbEntity
  8
0
 62
   123
100
AcDbTrace
 10
14652.79264852426
 20
-4608.239643993308
 30
0.0
 11
14652.79264852426
 21
-4609.072977326643
 31
0.0
 12
14655.29264852427
 22
-4608.656310659975
 32
0.0
 13
14655.29264852427
 23
-4608.656310659975
 33
0.0
  0
MTEXT
  5
14D
330
147
100
AcDbEntity
  8
0
 62
     3
100
AcDbMText
 10
14651.54264852428
 20
-4606.156310659975
 30
0.0
 40
3.0
 41
0.0
 71
     5
 72
     1
  1
\A1;7.5
1001
ACAD
1000
MTEXTBEGIN
1070
    73
1070
     1
1070
    44
1040
1.0
1070
    74
1070
     0
1000
MTEXTEND
  0
POINT
  5
14E
330
147
100
AcDbEntity
  8
DEFPOINTS
 62
     0
100
AcDbPoint
 10
14647.79264852428
 20
-4594.215842977145
 30
0.0
  0
POINT
  5
14F
330
147
100
AcDbEntity
  8
DEFPOINTS
 62
     0
100
AcDbPoint
 10
14655.29264852427
 20
-4592.814580318671
 30
0.0
  0
POINT
  5
150
330
147
100
AcDbEntity
  8
DEFPOINTS
 62
     0
100
AcDbPoint
 10
14655.29264852427
 20
-4608.656310659975
 30
0.0
  0
ENDBLK
  5
152
330
147
100
AcDbEntity
  8
0
100
AcDbBlockEnd
  0
BLOCK
  5
140
330
134
100
AcDbEntity
  8
0
100
AcDbBlockBegin
  2
*D20
 70
     1
 10
0.0
 20
0.0
 30
0.0
  3
*D20
  1

  0
LINE
  5
135
330
134
100
AcDbEntity
  8
0
 62
   123
100
AcDbLine
 10
14645.79264852426
 20
-4591.715842977144
 30
0.0
 11
14645.79264852426
 21
-4609.256310659975
 31
0.0
  0
LINE
  5
136
330
134
100
AcDbEntity
  8
0
 62
   123
100
AcDbLine
 10
14647.79264852428
 20
-4595.215842977144
 30
0.0
 11
14647.79264852428
 21
-4609.256310659975
 31
0.0
  0
LINE
  5
137
330
134
100
AcDbEntity
  8
0
 62
   123
100
AcDbLine
 10
14650.29264852426
 20
-4608.656310659975
 30
0.0
 11
14652.79264852426
 21
-4608.656310659975
 31
0.0
  0
LINE
  5
138
330
134
100
AcDbEntity
  8
0
 62
   123
100
AcDbLine
 10
14643.29264852428
 20
-4608.656310659975
 30
0.0
 11
14634.79264852426
 21
-4608.656310659975
 31
0.0
  0
LINE
  5
139
330
134
100
AcDbEntity
  8
0
 62
   123
100
AcDbLine
 10
14647.79264852428
 20
-4608.656310659975
 30
0.0
 11
14645.79264852426
 21
-4608.656310659975
 31
0.0
  0
SOLID
  5
13A
330
134
100
AcDbEntity
  8
0
 62
   123
100
AcDbTrace
 10
14650.29264852426
 20
-4608.239643993308
 30
0.0
 11
14650.29264852426
 21
-4609.072977326643
 31
0.0
 12
14647.79264852428
 22
-4608.656310659975
 32
0.0
 13
14647.79264852428
 23
-4608.656310659975
 33
0.0
  0
SOLID
  5
13B
330
134
100
AcDbEntity
  8
0
 62
   123
100
AcDbTrace
 10
14643.29264852428
 20
-4608.239643993308
 30
0.0
 11
14643.29264852428
 21
-4609.072977326643
 31
0.0
 12
14645.79264852426
 22
-4608.656310659975
 32
0.0
 13
14645.79264852426
 23
-4608.656310659975
 33
0.0
  0
MTEXT
  5
13C
330
134
100
AcDbEntity
  8
0
 62
     3
100
AcDbMText
 10
14636.79264852426
 20
-4606.156310659975
 30
0.0
 40
3.0
 41
0.0
 71
     5
 72
     1
  1
\A1;2
1001
ACAD
1000
MTEXTBEGIN
1070
    73
1070
     1
1070
    44
1040
1.0
1070
    74
1070
     0
1000
MTEXTEND
  0
POINT
  5
13D
330
134
100
AcDbEntity
  8
DEFPOINTS
 62
     0
100
AcDbPoint
 10
14645.79264852426
 20
-4590.715842977144
 30
0.0
  0
POINT
  5
13E
330
134
100
AcDbEntity
  8
DEFPOINTS
 62
     0
100
AcDbPoint
 10
14647.79264852428
 20
-4594.215842977145
 30
0.0
  0
POINT
  5
13F
330
134
100
AcDbEntity
  8
DEFPOINTS
 62
     0
100
AcDbPoint
 10
14647.79264852428
 20
-4608.656310659975
 30
0.0
  0
ENDBLK
  5
141
330
134
100
AcDbEntity
  8
0
100
AcDbBlockEnd
  0
BLOCK
  5
12B
330
121
100
AcDbEntity
  8
0
100
AcDbBlockBegin
  2
*D21
 70
     1
 10
0.0
 20
0.0
 30
0.0
  3
*D21
  1

  0
LINE
  5
122
330
121
100
AcDbEntity
  8
0
 62
   123
100
AcDbLine
 10
14647.79264852428
 20
-4595.215842977144
 30
0.0
 11
14647.79264852428
 21
-4619.268409177739
 31
0.0
  0
LINE
  5
123
330
121
100
AcDbEntity
  8
0
 62
   123
100
AcDbLine
 10
14767.79264852428
 20
-4588.215842977144
 30
0.0
 11
14767.79264852428
 21
-4619.268409177739
 31
0.0
  0
LINE
  5
124
330
121
100
AcDbEntity
  8
0
 62
   123
100
AcDbLine
 10
14650.29264852426
 20
-4618.66840917774
 30
0.0
 11
14765.29264852428
 21
-4618.66840917774
 31
0.0
  0
SOLID
  5
125
330
121
100
AcDbEntity
  8
0
 62
   123
100
AcDbTrace
 10
14650.29264852426
 20
-4618.251742511072
 30
0.0
 11
14650.29264852426
 21
-4619.085075844405
 31
0.0
 12
14647.79264852428
 22
-4618.66840917774
 32
0.0
 13
14647.79264852428
 23
-4618.66840917774
 33
0.0
  0
SOLID
  5
126
330
121
100
AcDbEntity
  8
0
 62
   123
100
AcDbTrace
 10
14765.29264852428
 20
-4618.251742511072
 30
0.0
 11
14765.29264852428
 21
-4619.085075844405
 31
0.0
 12
14767.79264852428
 22
-4618.66840917774
 32
0.0
 13
14767.79264852428
 23
-4618.66840917774
 33
0.0
  0
MTEXT
  5
127
330
121
100
AcDbEntity
  8
0
 62
     3
100
AcDbMText
 10
14700.29264852428
 20
-4616.168409177737
 30
0.0
 40
3.0
 41
0.0
 71
     5
 72
     1
  1
\A1;120
1001
ACAD
1000
MTEXTBEGIN
1070
    73
1070
     1
1070
    44
1040
1.0
1070
    74
1070
     0
1000
MTEXTEND
  0
POINT
  5
128
330
121
100
AcDbEntity
  8
DEFPOINTS
 62
     0
100
AcDbPoint
 10
14647.79264852428
 20
-4594.215842977145
 30
0.0
  0
POINT
  5
129
330
121
100
AcDbEntity
  8
DEFPOINTS
 62
     0
100
AcDbPoint
 10
14767.79264852428
 20
-4587.215842977144
 30
0.0
  0
POINT
  5
12A
330
121
100
AcDbEntity
  8
DEFPOINTS
 62
     0
100
AcDbPoint
 10
14767.79264852428
 20
-4618.66840917774
 30
0.0
  0
ENDBLK
  5
12C
330
121
100
AcDbEntity
  8
0
100
AcDbBlockEnd
  0
BLOCK
  5
243
330
239
100
AcDbEntity
  8
0
100
AcDbBlockBegin
  2
*D22
 70
     1
 10
0.0
 20
0.0
 30
0.0
  3
*D22
  1

  0
LINE
  5
23A
330
239
100
AcDbEntity
  8
0
 62
   123
100
AcDbLine
 10
14728.78931552426
 20
-4463.215843977143
 30
0.0
 11
14728.78931552426
 21
-4448.57681049297
 31
0.0
  0
LINE
  5
23B
330
239
100
AcDbEntity
  8
0
 62
   123
100
AcDbLine
 10
14756.78931552428
 20
-4471.215843977143
 30
0.0
 11
14756.78931552428
 21
-4448.57681049297
 31
0.0
  0
LINE
  5
23C
330
239
100
AcDbEntity
  8
0
 62
   123
100
AcDbLine
 10
14731.28931552428
 20
-4449.17681049297
 30
0.0
 11
14754.28931552428
 21
-4449.17681049297
 31
0.0
  0
SOLID
  5
23D
330
239
100
AcDbEntity
  8
0
 62
   123
100
AcDbTrace
 10
14731.28931552428
 20
-4448.760143826302
 30
0.0
 11
14731.28931552428
 21
-4449.593477159637
 31
0.0
 12
14728.78931552426
 22
-4449.17681049297
 32
0.0
 13
14728.78931552426
 23
-4449.17681049297
 33
0.0
  0
SOLID
  5
23E
330
239
100
AcDbEntity
  8
0
 62
   123
100
AcDbTrace
 10
14754.28931552428
 20
-4448.760143826302
 30
0.0
 11
14754.28931552428
 21
-4449.593477159637
 31
0.0
 12
14756.78931552428
 22
-4449.17681049297
 32
0.0
 13
14756.78931552428
 23
-4449.17681049297
 33
0.0
  0
MTEXT
  5
23F
330
239
100
AcDbEntity
  8
0
 62
     3
100
AcDbMText
 10
14742.78931552428
 20
-4446.67681049297
 30
0.0
 40
3.0
 41
0.0
 71
     5
 72
     1
  1
\A1;MAX. 28
1001
ACAD
1000
MTEXTBEGIN
1070
    73
1070
     1
1070
    44
1040
1.0
1070
    74
1070
     0
1000
MTEXTEND
  0
POINT
  5
240
330
239
100
AcDbEntity
  8
DEFPOINTS
 62
     0
100
AcDbPoint
 10
14728.78931552426
 20
-4464.215843977142
 30
0.0
  0
POINT
  5
241
330
239
100
AcDbEntity
  8
DEFPOINTS
 62
     0
100
AcDbPoint
 10
14756.78931552428
 20
-4472.215843977141
 30
0.0
  0
POINT
  5
242
330
239
100
AcDbEntity
  8
DEFPOINTS
 62
     0
100
AcDbPoint
 10
14756.78931552428
 20
-4449.17681049297
 30
0.0
  0
ENDBLK
  5
244
330
239
100
AcDbEntity
  8
0
100
AcDbBlockEnd
  0
BLOCK
  5
1C0
330
1B6
100
AcDbEntity
  8
0
100
AcDbBlockBegin
  2
*D23
 70
     1
 10
0.0
 20
0.0
 30
0.0
  3
*D23
  1

  0
LINE
  5
1B7
330
1B6
100
AcDbEntity
  8
0
 62
   123
100
AcDbLine
 10
14480.20883397278
 20
-4495.215842977075
 30
0.0
 11
14480.20883397278
 21
-4446.70611338165
 31
0.0
  0
LINE
  5
1B8
330
1B6
100
AcDbEntity
  8
0
 62
   123
100
AcDbLine
 10
14542.20883397278
 20
-4495.215842977075
 30
0.0
 11
14542.20883397278
 21
-4446.70611338165
 31
0.0
  0
LINE
  5
1B9
330
1B6
100
AcDbEntity
  8
0
 62
   123
100
AcDbLine
 10
14482.70883397278
 20
-4447.30611338165
 30
0.0
 11
14539.70883397278
 21
-4447.30611338165
 31
0.0
  0
SOLID
  5
1BA
330
1B6
100
AcDbEntity
  8
0
 62
   123
100
AcDbTrace
 10
14482.70883397278
 20
-4446.889446714982
 30
0.0
 11
14482.70883397278
 21
-4447.722780048317
 31
0.0
 12
14480.20883397278
 22
-4447.30611338165
 32
0.0
 13
14480.20883397278
 23
-4447.30611338165
 33
0.0
  0
SOLID
  5
1BB
330
1B6
100
AcDbEntity
  8
0
 62
   123
100
AcDbTrace
 10
14539.70883397278
 20
-4446.889446714982
 30
0.0
 11
14539.70883397278
 21
-4447.722780048317
 31
0.0
 12
14542.20883397278
 22
-4447.30611338165
 32
0.0
 13
14542.20883397278
 23
-4447.30611338165
 33
0.0
  0
MTEXT
  5
1BC
330
1B6
100
AcDbEntity
  8
0
 62
     3
100
AcDbMText
 10
14511.20883397278
 20
-4444.80611338165
 30
0.0
 40
3.0
 41
0.0
 71
     5
 72
     1
  1
\A1;62
1001
ACAD
1000
MTEXTBEGIN
1070
    73
1070
     1
1070
    44
1040
1.0
1070
    74
1070
     0
1000
MTEXTEND
  0
POINT
  5
1BD
330
1B6
100
AcDbEntity
  8
DEFPOINTS
 62
     0
100
AcDbPoint
 10
14480.20883397278
 20
-4496.215842977075
 30
0.0
  0
POINT
  5
1BE
330
1B6
100
AcDbEntity
  8
DEFPOINTS
 62
     0
100
AcDbPoint
 10
14542.20883397278
 20
-4496.215842977075
 30
0.0
  0
POINT
  5
1BF
330
1B6
100
AcDbEntity
  8
DEFPOINTS
 62
     0
100
AcDbPoint
 10
14542.20883397278
 20
-4447.30611338165
 30
0.0
  0
ENDBLK
  5
1C1
330
1B6
100
AcDbEntity
  8
0
100
AcDbBlockEnd
  0
BLOCK
  5
226
330
21A
100
AcDbEntity
  8
0
100
AcDbBlockBegin
  2
*D24
 70
     1
 10
0.0
 20
0.0
 30
0.0
  3
*D24
  1

  0
LINE
  5
21B
330
21A
100
AcDbEntity
  8
0
 62
   123
100
AcDbLine
 10
14647.79264852428
 20
-4503.215842977144
 30
0.0
 11
14647.79264852428
 21
-4448.560239472459
 31
0.0
  0
LINE
  5
21C
330
21A
100
AcDbEntity
  8
0
 62
   123
100
AcDbLine
 10
14653.79264852426
 20
-4494.515843977143
 30
0.0
 11
14653.79264852426
 21
-4448.560239472459
 31
0.0
  0
LINE
  5
21D
330
21A
100
AcDbEntity
  8
0
 62
   123
100
AcDbLine
 10
14645.29264852426
 20
-4449.160239472458
 30
0.0
 11
14642.79264852426
 21
-4449.160239472458
 31
0.0
  0
LINE
  5
21E
330
21A
100
AcDbEntity
  8
0
 62
   123
100
AcDbLine
 10
14656.29264852426
 20
-4449.160239472458
 30
0.0
 11
14658.79264852426
 21
-4449.160239472458
 31
0.0
  0
LINE
  5
21F
330
21A
100
AcDbEntity
  8
0
 62
   123
100
AcDbLine
 10
14647.79264852428
 20
-4449.160239472458
 30
0.0
 11
14653.79264852426
 21
-4449.160239472458
 31
0.0
  0
SOLID
  5
220
330
21A
100
AcDbEntity
  8
0
 62
   123
100
AcDbTrace
 10
14645.29264852426
 20
-4448.743572805792
 30
0.0
 11
14645.29264852426
 21
-4449.576906139125
 31
0.0
 12
14647.79264852428
 22
-4449.160239472458
 32
0.0
 13
14647.79264852428
 23
-4449.160239472458
 33
0.0
  0
SOLID
  5
221
330
21A
100
AcDbEntity
  8
0
 62
   123
100
AcDbTrace
 10
14656.29264852426
 20
-4448.743572805792
 30
0.0
 11
14656.29264852426
 21
-4449.576906139125
 31
0.0
 12
14653.79264852426
 22
-4449.160239472458
 32
0.0
 13
14653.79264852426
 23
-4449.160239472458
 33
0.0
  0
MTEXT
  5
222
330
21A
100
AcDbEntity
  8
0
 62
     3
100
AcDbMText
 10
14650.79264852428
 20
-4446.66023947246
 30
0.0
 40
3.0
 41
0.0
 71
     5
 72
     1
  1
\A1;6
1001
ACAD
1000
MTEXTBEGIN
1070
    73
1070
     1
1070
    44
1040
1.0
1070
    74
1070
     0
1000
MTEXTEND
  0
POINT
  5
223
330
21A
100
AcDbEntity
  8
DEFPOINTS
 62
     0
100
AcDbPoint
 10
14647.79264852428
 20
-4504.215842977145
 30
0.0
  0
POINT
  5
224
330
21A
100
AcDbEntity
  8
DEFPOINTS
 62
     0
100
AcDbPoint
 10
14653.79264852426
 20
-4495.515843977142
 30
0.0
  0
POINT
  5
225
330
21A
100
AcDbEntity
  8
DEFPOINTS
 62
     0
100
AcDbPoint
 10
14653.79264852426
 20
-4449.160239472458
 30
0.0
  0
ENDBLK
  5
227
330
21A
100
AcDbEntity
  8
0
100
AcDbBlockEnd
  0
BLOCK
  5
1F4
330
1EA
100
AcDbEntity
  8
0
100
AcDbBlockBegin
  2
*D25
 70
     1
 10
0.0
 20
0.0
 30
0.0
  3
*D25
  1

  0
LINE
  5
1EB
330
1EA
100
AcDbEntity
  8
0
 62
   123
100
AcDbLine
 10
14609.79264852428
 20
-4555.215842977144
 30
0.0
 11
14597.72416764355
 21
-4555.215842977144
 31
0.0
  0
LINE
  5
1EC
330
1EA
100
AcDbEntity
  8
0
 62
   123
100
AcDbLine
 10
14609.79264852428
 20
-4544.215842977144
 30
0.0
 11
14597.72416764355
 21
-4544.215842977144
 31
0.0
  0
LINE
  5
1ED
330
1EA
100
AcDbEntity
  8
0
 62
   123
100
AcDbLine
 10
14598.32416764355
 20
-4552.715842977145
 30
0.0
 11
14598.32416764355
 21
-4546.715842977144
 31
0.0
  0
SOLID
  5
1EE
330
1EA
100
AcDbEntity
  8
0
 62
   123
100
AcDbTrace
 10
14597.90750097689
 20
-4552.715842977145
 30
0.0
 11
14598.74083431023
 21
-4552.715842977145
 31
0.0
 12
14598.32416764355
 22
-4555.215842977144
 32
0.0
 13
14598.32416764355
 23
-4555.215842977144
 33
0.0
  0
SOLID
  5
1EF
330
1EA
100
AcDbEntity
  8
0
 62
   123
100
AcDbTrace
 10
14597.90750097689
 20
-4546.715842977144
 30
0.0
 11
14598.74083431023
 21
-4546.715842977144
 31
0.0
 12
14598.32416764355
 22
-4544.215842977144
 32
0.0
 13
14598.32416764355
 23
-4544.215842977144
 33
0.0
  0
MTEXT
  5
1F0
330
1EA
100
AcDbEntity
  8
0
 62
     3
100
AcDbMText
 10
14595.82416764357
 20
-4549.715842977144
 30
0.0
 40
3.0
 41
0.0
 71
     5
 72
     1
  1
\A1;11
 11
0.0000000000000001
 21
1.0
 31
0.0
1001
ACAD
1000
MTEXTBEGIN
1070
    73
1070
     1
1070
    44
1040
1.0
1070
    74
1070
     0
1000
MTEXTEND
  0
POINT
  5
1F1
330
1EA
100
AcDbEntity
  8
DEFPOINTS
 62
     0
100
AcDbPoint
 10
14610.79264852426
 20
-4555.215842977144
 30
0.0
  0
POINT
  5
1F2
330
1EA
100
AcDbEntity
  8
DEFPOINTS
 62
     0
100
AcDbPoint
 10
14610.79264852426
 20
-4544.215842977144
 30
0.0
  0
POINT
  5
1F3
330
1EA
100
AcDbEntity
  8
DEFPOINTS
 62
     0
100
AcDbPoint
 10
14598.32416764355
 20
-4544.215842977144
 30
0.0
  0
ENDBLK
  5
1F5
330
1EA
100
AcDbEntity
  8
0
100
AcDbBlockEnd
  0
BLOCK
  5
CE
330
C4
100
AcDbEntity
  8
0
100
AcDbBlockBegin
  2
*D26
 70
     1
 10
0.0
 20
0.0
 30
0.0
  3
*D26
  1

  0
LINE
  5
C5
330
C4
100
AcDbEntity
  8
0
 62
   123
100
AcDbLine
 10
14609.79264852428
 20
-4555.215842977144
 30
0.0
 11
14588.01151269068
 21
-4555.215842977144
 31
0.0
  0
LINE
  5
C6
330
C4
100
AcDbEntity
  8
0
 62
   123
100
AcDbLine
 10
14639.79264852426
 20
-4543.215842977144
 30
0.0
 11
14588.01151269068
 21
-4543.215842977144
 31
0.0
  0
LINE
  5
C7
330
C4
100
AcDbEntity
  8
0
 62
   123
100
AcDbLine
 10
14588.61151269068
 20
-4552.715842977145
 30
0.0
 11
14588.61151269068
 21
-4545.715842977144
 31
0.0
  0
SOLID
  5
C8
330
C4
100
AcDbEntity
  8
0
 62
   123
100
AcDbTrace
 10
14588.194846024
 20
-4552.715842977145
 30
0.0
 11
14589.02817935734
 21
-4552.715842977145
 31
0.0
 12
14588.61151269068
 22
-4555.215842977144
 32
0.0
 13
14588.61151269068
 23
-4555.215842977144
 33
0.0
  0
SOLID
  5
C9
330
C4
100
AcDbEntity
  8
0
 62
   123
100
AcDbTrace
 10
14588.194846024
 20
-4545.715842977144
 30
0.0
 11
14589.02817935734
 21
-4545.715842977144
 31
0.0
 12
14588.61151269068
 22
-4543.215842977144
 32
0.0
 13
14588.61151269068
 23
-4543.215842977144
 33
0.0
  0
MTEXT
  5
CA
330
C4
100
AcDbEntity
  8
0
 62
     3
100
AcDbMText
 10
14584.66136269068
 20
-4549.21584297714
 30
0.0
 40
3.0
 41
0.0
 71
     5
 72
     1
  1
\A1;\A1;{\f??|b0|i0|c0|p49;%%C}12{\f??|b0|i0|c0|p49;\H0.7x;\S+0^ -0.018;\H1.429x;(h}7{\f??|b0|i0|c0|p49;)}
 11
0.0000000000000001
 21
1.0
 31
0.0
1001
ACAD
1000
MTEXTBEGIN
1070
    73
1070
     1
1070
    44
1040
1.0
1070
    74
1070
     0
1000
MTEXTEND
  0
POINT
  5
CB
330
C4
100
AcDbEntity
  8
DEFPOINTS
 62
     0
100
AcDbPoint
 10
14610.79264852426
 20
-4555.215842977144
 30
0.0
  0
POINT
  5
CC
330
C4
100
AcDbEntity
  8
DEFPOINTS
 62
     0
100
AcDbPoint
 10
14640.79264852426
 20
-4543.215842977144
 30
0.0
  0
POINT
  5
CD
330
C4
100
AcDbEntity
  8
DEFPOINTS
 62
     0
100
AcDbPoint
 10
14588.61151269068
 20
-4543.215842977144
 30
0.0
  0
ENDBLK
  5
CF
330
C4
100
AcDbEntity
  8
0
100
AcDbBlockEnd
  0
BLOCK
  5
1E3
330
1D9
100
AcDbEntity
  8
0
100
AcDbBlockBegin
  2
*D27
 70
     1
 10
0.0
 20
0.0
 30
0.0
  3
*D27
  1

  0
LINE
  5
1DA
330
1D9
100
AcDbEntity
  8
0
 62
   123
100
AcDbLine
 10
14610.79264852426
 20
-4543.215842977144
 30
0.0
 11
14610.79264852426
 21
-4532.54248556774
 31
0.0
  0
LINE
  5
1DB
330
1D9
100
AcDbEntity
  8
0
 62
   123
100
AcDbLine
 10
14640.79264852426
 20
-4542.215842977144
 30
0.0
 11
14640.79264852426
 21
-4532.54248556774
 31
0.0
  0
LINE
  5
1DC
330
1D9
100
AcDbEntity
  8
0
 62
   123
100
AcDbLine
 10
14613.29264852426
 20
-4533.142485567742
 30
0.0
 11
14638.29264852428
 21
-4533.142485567742
 31
0.0
  0
SOLID
  5
1DD
330
1D9
100
AcDbEntity
  8
0
 62
   123
100
AcDbTrace
 10
14613.29264852426
 20
-4532.725818901075
 30
0.0
 11
14613.29264852426
 21
-4533.559152234407
 31
0.0
 12
14610.79264852426
 22
-4533.142485567742
 32
0.0
 13
14610.79264852426
 23
-4533.142485567742
 33
0.0
  0
SOLID
  5
1DE
330
1D9
100
AcDbEntity
  8
0
 62
   123
100
AcDbTrace
 10
14638.29264852428
 20
-4532.725818901075
 30
0.0
 11
14638.29264852428
 21
-4533.559152234407
 31
0.0
 12
14640.79264852426
 22
-4533.142485567742
 32
0.0
 13
14640.79264852426
 23
-4533.142485567742
 33
0.0
  0
MTEXT
  5
1DF
330
1D9
100
AcDbEntity
  8
0
 62
     3
100
AcDbMText
 10
14627.05133288876
 20
-4530.642485567741
 30
0.0
 40
3.0
 41
0.0
 71
     5
 72
     1
  1
\A1;30
1001
ACAD
1000
MTEXTBEGIN
1070
    73
1070
     1
1070
    44
1040
1.0
1070
    74
1070
     0
1000
MTEXTEND
  0
POINT
  5
1E0
330
1D9
100
AcDbEntity
  8
DEFPOINTS
 62
     0
100
AcDbPoint
 10
14610.79264852426
 20
-4544.215842977144
 30
0.0
  0
POINT
  5
1E1
330
1D9
100
AcDbEntity
  8
DEFPOINTS
 62
     0
100
AcDbPoint
 10
14640.79264852426
 20
-4543.215842977144
 30
0.0
  0
POINT
  5
1E2
330
1D9
100
AcDbEntity
  8
DEFPOINTS
 62
     0
100
AcDbPoint
 10
14640.79264852426
 20
-4533.142485567742
 30
0.0
  0
ENDBLK
  5
1E4
330
1D9
100
AcDbEntity
  8
0
100
AcDbBlockEnd
  0
BLOCK
  5
208
330
1FE
100
AcDbEntity
  8
0
100
AcDbBlockBegin
  2
*D28
 70
     1
 10
0.0
 20
0.0
 30
0.0
  3
*D28
  1

  0
LINE
  5
1FF
330
1FE
100
AcDbEntity
  8
0
 62
   123
100
AcDbLine
 10
14653.79264852426
 20
-4494.515843977143
 30
0.0
 11
14653.79264852426
 21
-4448.560239472459
 31
0.0
  0
LINE
  5
200
330
1FE
100
AcDbEntity
  8
0
 62
   123
100
AcDbLine
 10
14728.78931552426
 20
-4463.215843977143
 30
0.0
 11
14728.78931552426
 21
-4448.560239472459
 31
0.0
  0
LINE
  5
201
330
1FE
100
AcDbEntity
  8
0
 62
   123
100
AcDbLine
 10
14656.29264852426
 20
-4449.160239472458
 30
0.0
 11
14726.28931552428
 21
-4449.160239472458
 31
0.0
  0
SOLID
  5
202
330
1FE
100
AcDbEntity
  8
0
 62
   123
100
AcDbTrace
 10
14656.29264852426
 20
-4448.743572805792
 30
0.0
 11
14656.29264852426
 21
-4449.576906139125
 31
0.0
 12
14653.79264852426
 22
-4449.160239472458
 32
0.0
 13
14653.79264852426
 23
-4449.160239472458
 33
0.0
  0
SOLID
  5
203
330
1FE
100
AcDbEntity
  8
0
 62
   123
100
AcDbTrace
 10
14726.28931552428
 20
-4448.743572805792
 30
0.0
 11
14726.28931552428
 21
-4449.576906139125
 31
0.0
 12
14728.78931552426
 22
-4449.160239472458
 32
0.0
 13
14728.78931552426
 23
-4449.160239472458
 33
0.0
  0
MTEXT
  5
204
330
1FE
100
AcDbEntity
  8
0
 62
     3
100
AcDbMText
 10
14684.69252576704
 20
-4446.66023947246
 30
0.0
 40
3.0
 41
0.0
 71
     5
 72
     1
  1
\A1;75
1001
ACAD
1000
MTEXTBEGIN
1070
    73
1070
     1
1070
    44
1040
1.0
1070
    74
1070
     0
1000
MTEXTEND
  0
POINT
  5
205
330
1FE
100
AcDbEntity
  8
DEFPOINTS
 62
     0
100
AcDbPoint
 10
14653.79264852426
 20
-4495.515843977142
 30
0.0
  0
POINT
  5
206
330
1FE
100
AcDbEntity
  8
DEFPOINTS
 62
     0
100
AcDbPoint
 10
14728.78931552426
 20
-4464.215843977142
 30
0.0
  0
POINT
  5
207
330
1FE
100
AcDbEntity
  8
DEFPOINTS
 62
     0
100
AcDbPoint
 10
14728.78931552426
 20
-4449.160239472458
 30
0.0
  0
ENDBLK
  5
209
330
1FE
100
AcDbEntity
  8
0
100
AcDbBlockEnd
  0
BLOCK
  5
3B9
330
3AF
100
AcDbEntity
  8
0
100
AcDbBlockBegin
  2
*D29
 70
     1
 10
0.0
 20
0.0
 30
0.0
  3
*D29
  1

  0
LINE
  5
3B0
330
3AF
100
AcDbEntity
  8
0
 62
   123
100
AcDbLine
 10
178.3365403003681
 20
102.7801806860288
 30
0.0
 11
109.2553990790915
 21
102.7801806860288
 31
0.0
  0
LINE
  5
3B1
330
3AF
100
AcDbEntity
  8
0
 62
   123
100
AcDbLine
 10
178.3365403003681
 20
19.78018068602887
 30
0.0
 11
109.2553990790915
 21
19.78018068602889
 31
0.0
  0
LINE
  5
3B2
330
3AF
100
AcDbEntity
  8
0
 62
   123
100
AcDbLine
 10
109.8553990790915
 20
100.2801806860288
 30
0.0
 11
109.8553990790915
 21
22.28018068602888
 31
0.0
  0
SOLID
  5
3B3
330
3AF
100
AcDbEntity
  8
0
 62
   123
100
AcDbTrace
 10
109.4387324124248
 20
100.2801806860288
 30
0.0
 11
110.2720657457582
 21
100.2801806860288
 31
0.0
 12
109.8553990790915
 22
102.7801806860288
 32
0.0
 13
109.8553990790915
 23
102.7801806860288
 33
0.0
  0
SOLID
  5
3B4
330
3AF
100
AcDbEntity
  8
0
 62
   123
100
AcDbTrace
 10
109.4387324124248
 20
22.28018068602888
 30
0.0
 11
110.2720657457581
 21
22.28018068602888
 31
0.0
 12
109.8553990790915
 22
19.78018068602889
 32
0.0
 13
109.8553990790915
 23
19.78018068602889
 33
0.0
  0
MTEXT
  5
3B5
330
3AF
100
AcDbEntity
  8
0
 62
     3
100
AcDbMText
 10
105.9052490790915
 20
59.2608822455204
 30
0.0
 40
3.0
 41
0.0
 71
     5
 72
     1
  1
\A1;\A1;{\f??|b0|i0|c0|p49;%%c}83{\f??|b0|i0|c0|p49;\H0.7x;\S+0^ -0.035;\H1.429x;(h7)}
 11
0.0000000000000001
 21
1.0
 31
0.0
1001
ACAD
1000
MTEXTBEGIN
1070
    73
1070
     1
1070
    44
1040
1.0
1070
    74
1070
     0
1000
MTEXTEND
  0
POINT
  5
3B6
330
3AF
100
AcDbEntity
  8
DEFPOINTS
 62
     0
100
AcDbPoint
 10
179.3365403003681
 20
102.7801806860288
 30
0.0
  0
POINT
  5
3B7
330
3AF
100
AcDbEntity
  8
DEFPOINTS
 62
     0
100
AcDbPoint
 10
179.3365403003681
 20
19.78018068602887
 30
0.0
  0
POINT
  5
3B8
330
3AF
100
AcDbEntity
  8
DEFPOINTS
 62
     0
100
AcDbPoint
 10
109.8553990790915
 20
19.78018068602889
 30
0.0
  0
ENDBLK
  5
3BA
330
3AF
100
AcDbEntity
  8
0
100
AcDbBlockEnd
  0
BLOCK
  5
3C5
330
3BB
100
AcDbEntity
  8
0
100
AcDbBlockBegin
  2
*D30
 70
     1
 10
0.0
 20
0.0
 30
0.0
  3
*D30
  1

  0
LINE
  5
3BC
330
3BB
100
AcDbEntity
  8
0
 62
   123
100
AcDbLine
 10
143.3365403003681
 20
55.28018068602888
 30
0.0
 11
121.5554044667809
 21
55.28018068602888
 31
0.0
  0
LINE
  5
3BD
330
3BB
100
AcDbEntity
  8
0
 62
   123
100
AcDbLine
 10
173.3365403003681
 20
67.28018068602887
 30
0.0
 11
121.5554044667809
 21
67.28018068602889
 31
0.0
  0
LINE
  5
3BE
330
3BB
100
AcDbEntity
  8
0
 62
   123
100
AcDbLine
 10
122.1554044667809
 20
57.78018068602888
 30
0.0
 11
122.1554044667809
 21
64.78018068602889
 31
0.0
  0
SOLID
  5
3BF
330
3BB
100
AcDbEntity
  8
0
 62
   123
100
AcDbTrace
 10
121.7387378001143
 20
57.78018068602888
 30
0.0
 11
122.5720711334476
 21
57.78018068602888
 31
0.0
 12
122.1554044667809
 22
55.28018068602888
 32
0.0
 13
122.1554044667809
 23
55.28018068602888
 33
0.0
  0
SOLID
  5
3C0
330
3BB
100
AcDbEntity
  8
0
 62
   123
100
AcDbTrace
 10
121.7387378001143
 20
64.78018068602889
 30
0.0
 11
122.5720711334476
 21
64.78018068602889
 31
0.0
 12
122.1554044667809
 22
67.28018068602889
 32
0.0
 13
122.1554044667809
 23
67.28018068602889
 33
0.0
  0
MTEXT
  5
3C1
330
3BB
100
AcDbEntity
  8
0
 62
     3
100
AcDbMText
 10
118.2052544667809
 20
61.28018068602891
 30
0.0
 40
3.0
 41
0.0
 71
     5
 72
     1
  1
\A1;\A1;{\f??|b0|i0|c0|p49;%%C}12{\f??|b0|i0|c0|p49;\H0.7x;\S+0^ -0.018;\H1.429x;(h}7{\f??|b0|i0|c0|p49;)}
 11
0.0000000000000001
 21
1.0
 31
0.0
1001
ACAD
1000
MTEXTBEGIN
1070
    73
1070
     1
1070
    44
1040
1.0
1070
    74
1070
     0
1000
MTEXTEND
  0
POINT
  5
3C2
330
3BB
100
AcDbEntity
  8
DEFPOINTS
 62
     0
100
AcDbPoint
 10
144.3365403003681
 20
55.28018068602887
 30
0.0
  0
POINT
  5
3C3
330
3BB
100
AcDbEntity
  8
DEFPOINTS
 62
     0
100
AcDbPoint
 10
174.3365403003681
 20
67.28018068602887
 30
0.0
  0
POINT
  5
3C4
330
3BB
100
AcDbEntity
  8
DEFPOINTS
 62
     0
100
AcDbPoint
 10
122.1554044667809
 20
67.28018068602889
 30
0.0
  0
ENDBLK
  5
3C6
330
3BB
100
AcDbEntity
  8
0
100
AcDbBlockEnd
  0
BLOCK
  5
3D1
330
3C7
100
AcDbEntity
  8
0
100
AcDbBlockBegin
  2
*D31
 70
     1
 10
0.0
 20
0.0
 30
0.0
  3
*D31
  1

  0
LINE
  5
3C8
330
3C7
100
AcDbEntity
  8
0
 62
   123
100
AcDbLine
 10
296.3365403003681
 20
106.2801806860288
 30
0.0
 11
315.6105507447606
 21
106.2801806860288
 31
0.0
  0
LINE
  5
3C9
330
3C7
100
AcDbEntity
  8
0
 62
   123
100
AcDbLine
 10
296.3365403003681
 20
16.28018068602886
 30
0.0
 11
315.6105507447606
 21
16.28018068602886
 31
0.0
  0
LINE
  5
3CA
330
3C7
100
AcDbEntity
  8
0
 62
   123
100
AcDbLine
 10
315.0105507447606
 20
103.7801806860288
 30
0.0
 11
315.0105507447606
 21
18.78018068602886
 31
0.0
  0
SOLID
  5
3CB
330
3C7
100
AcDbEntity
  8
0
 62
   123
100
AcDbTrace
 10
314.5938840780939
 20
103.7801806860288
 30
0.0
 11
315.4272174114272
 21
103.7801806860288
 31
0.0
 12
315.0105507447606
 22
106.2801806860288
 32
0.0
 13
315.0105507447606
 23
106.2801806860288
 33
0.0
  0
SOLID
  5
3CC
330
3C7
100
AcDbEntity
  8
0
 62
   123
100
AcDbTrace
 10
314.5938840780939
 20
18.78018068602886
 30
0.0
 11
315.4272174114272
 21
18.78018068602886
 31
0.0
 12
315.0105507447606
 22
16.28018068602886
 32
0.0
 13
315.0105507447606
 23
16.28018068602886
 33
0.0
  0
MTEXT
  5
3CD
330
3C7
100
AcDbEntity
  8
0
 62
     3
100
AcDbMText
 10
312.5105507447606
 20
61.28018068602887
 30
0.0
 40
3.0
 41
0.0
 71
     5
 72
     1
  1
\A1;90
 11
0.0000000000000001
 21
1.0
 31
0.0
1001
ACAD
1000
MTEXTBEGIN
1070
    73
1070
     1
1070
    44
1040
1.0
1070
    74
1070
     0
1000
MTEXTEND
  0
POINT
  5
3CE
330
3C7
100
AcDbEntity
  8
DEFPOINTS
 62
     0
100
AcDbPoint
 10
295.3365403003681
 20
106.2801806860288
 30
0.0
  0
POINT
  5
3CF
330
3C7
100
AcDbEntity
  8
DEFPOINTS
 62
     0
100
AcDbPoint
 10
295.3365403003681
 20
16.28018068602887
 30
0.0
  0
POINT
  5
3D0
330
3C7
100
AcDbEntity
  8
DEFPOINTS
 62
     0
100
AcDbPoint
 10
315.0105507447606
 20
16.28018068602886
 30
0.0
  0
ENDBLK
  5
3D2
330
3C7
100
AcDbEntity
  8
0
100
AcDbBlockEnd
  0
BLOCK
  5
3DD
330
3D3
100
AcDbEntity
  8
0
100
AcDbBlockBegin
  2
*D32
 70
     1
 10
0.0
 20
0.0
 30
0.0
  3
*D32
  1

  0
LINE
  5
3D4
330
3D3
100
AcDbEntity
  8
0
 62
   123
100
AcDbLine
 10
144.3365403003681
 20
54.28018068602887
 30
0.0
 11
144.3365403003681
 21
-8.772385514566479
 31
0.0
  0
LINE
  5
3D5
330
3D3
100
AcDbEntity
  8
0
 62
   123
100
AcDbLine
 10
181.3365403003826
 20
15.28018068602887
 30
0.0
 11
181.3365403003826
 21
-8.772385514566487
 31
0.0
  0
LINE
  5
3D6
330
3D3
100
AcDbEntity
  8
0
 62
   123
100
AcDbLine
 10
146.8365403003681
 20
-8.172385514566485
 30
0.0
 11
178.8365403003826
 21
-8.172385514566485
 31
0.0
  0
SOLID
  5
3D7
330
3D3
100
AcDbEntity
  8
0
 62
   123
100
AcDbTrace
 10
146.8365403003681
 20
-7.755718847899818
 30
0.0
 11
146.8365403003681
 21
-8.589052181233151
 31
0.0
 12
144.3365403003681
 22
-8.172385514566485
 32
0.0
 13
144.3365403003681
 23
-8.172385514566485
 33
0.0
  0
SOLID
  5
3D8
330
3D3
100
AcDbEntity
  8
0
 62
   123
100
AcDbTrace
 10
178.8365403003826
 20
-7.755718847899818
 30
0.0
 11
178.8365403003826
 21
-8.589052181233151
 31
0.0
 12
181.3365403003826
 22
-8.172385514566485
 32
0.0
 13
181.3365403003826
 23
-8.172385514566485
 33
0.0
  0
MTEXT
  5
3D9
330
3D3
100
AcDbEntity
  8
0
 62
     3
100
AcDbMText
 10
162.8365403003681
 20
-5.672385514566485
 30
0.0
 40
3.0
 41
0.0
 71
     5
 72
     1
  1
\A1;37
1001
ACAD
1000
MTEXTBEGIN
1070
    73
1070
     1
1070
    44
1040
1.0
1070
    74
1070
     0
1000
MTEXTEND
  0
POINT
  5
3DA
330
3D3
100
AcDbEntity
  8
DEFPOINTS
 62
     0
100
AcDbPoint
 10
144.3365403003681
 20
55.28018068602887
 30
0.0
  0
POINT
  5
3DB
330
3D3
100
AcDbEntity
  8
DEFPOINTS
 62
     0
100
AcDbPoint
 10
181.3365403003826
 20
16.28018068602887
 30
0.0
  0
POINT
  5
3DC
330
3D3
100
AcDbEntity
  8
DEFPOINTS
 62
     0
100
AcDbPoint
 10
181.3365403003826
 20
-8.172385514566485
 30
0.0
  0
ENDBLK
  5
3DE
330
3D3
100
AcDbEntity
  8
0
100
AcDbBlockEnd
  0
BLOCK
  5
3E9
330
3DF
100
AcDbEntity
  8
0
100
AcDbBlockBegin
  2
*D33
 70
     1
 10
0.0
 20
0.0
 30
0.0
  3
*D33
  1

  0
LINE
  5
3E0
330
3DF
100
AcDbEntity
  8
0
 62
   123
100
AcDbLine
 10
-0.0000000000000001
 20
20.28018068609799
 30
0.0
 11
-0.0000000000000013
 21
0.0000000000021814
 31
0.0
  0
LINE
  5
3E1
330
3DF
100
AcDbEntity
  8
0
 62
   123
100
AcDbLine
 10
90.0
 20
20.28018068609799
 30
0.0
 11
90.0
 21
0.0000000000021814
 31
0.0
  0
LINE
  5
3E2
330
3DF
100
AcDbEntity
  8
0
 62
   123
100
AcDbLine
 10
2.499999999999998
 20
0.6000000000021828
 30
0.0
 11
87.5
 21
0.6000000000021828
 31
0.0
  0
SOLID
  5
3E3
330
3DF
100
AcDbEntity
  8
0
 62
   123
100
AcDbTrace
 10
2.499999999999998
 20
1.016666666668849
 30
0.0
 11
2.499999999999998
 21
0.1833333333355161
 31
0.0
 12
-0.0000000000000013
 22
0.6000000000021828
 32
0.0
 13
-0.0000000000000013
 23
0.6000000000021828
 33
0.0
  0
SOLID
  5
3E4
330
3DF
100
AcDbEntity
  8
0
 62
   123
100
AcDbTrace
 10
87.5
 20
1.016666666668849
 30
0.0
 11
87.5
 21
0.1833333333355161
 31
0.0
 12
90.0
 22
0.6000000000021828
 32
0.0
 13
90.0
 23
0.6000000000021828
 33
0.0
  0
MTEXT
  5
3E5
330
3DF
100
AcDbEntity
  8
0
 62
     3
100
AcDbMText
 10
44.75272574888186
 20
3.100000000002183
 30
0.0
 40
3.0
 41
0.0
 71
     5
 72
     1
  1
\A1;90
1001
ACAD
1000
MTEXTBEGIN
1070
    73
1070
     1
1070
    44
1040
1.0
1070
    74
1070
     0
1000
MTEXTEND
  0
POINT
  5
3E6
330
3DF
100
AcDbEntity
  8
DEFPOINTS
 62
     0
100
AcDbPoint
 10
0.0
 20
21.28018068609799
 30
0.0
  0
POINT
  5
3E7
330
3DF
100
AcDbEntity
  8
DEFPOINTS
 62
     0
100
AcDbPoint
 10
90.0
 20
21.28018068609799
 30
0.0
  0
POINT
  5
3E8
330
3DF
100
AcDbEntity
  8
DEFPOINTS
 62
     0
100
AcDbPoint
 10
90.0
 20
0.6000000000021828
 30
0.0
  0
ENDBLK
  5
3EA
330
3DF
100
AcDbEntity
  8
0
100
AcDbBlockEnd
  0
BLOCK
  5
3F5
330
3EB
100
AcDbEntity
  8
0
100
AcDbBlockBegin
  2
*D34
 70
     1
 10
0.0
 20
0.0
 30
0.0
  3
*D34
  1

  0
LINE
  5
3EC
330
3EB
100
AcDbEntity
  8
0
 62
   123
100
AcDbLine
 10
181.3365403003826
 20
15.28018068602887
 30
0.0
 11
181.3365403003826
 21
1.239713003198085
 31
0.0
  0
LINE
  5
3ED
330
3EB
100
AcDbEntity
  8
0
 62
   123
100
AcDbLine
 10
188.8365403003681
 20
16.68144334450153
 30
0.0
 11
188.8365403003681
 21
1.239713003198083
 31
0.0
  0
LINE
  5
3EE
330
3EB
100
AcDbEntity
  8
0
 62
   123
100
AcDbLine
 10
183.8365403003827
 20
1.839713003198085
 30
0.0
 11
186.3365403003681
 21
1.839713003198085
 31
0.0
  0
SOLID
  5
3EF
330
3EB
100
AcDbEntity
  8
0
 62
   123
100
AcDbTrace
 10
183.8365403003827
 20
2.256379669864751
 30
0.0
 11
183.8365403003827
 21
1.423046336531418
 31
0.0
 12
181.3365403003826
 22
1.839713003198085
 32
0.0
 13
181.3365403003826
 23
1.839713003198085
 33
0.0
  0
SOLID
  5
3F0
330
3EB
100
AcDbEntity
  8
0
 62
   123
100
AcDbTrace
 10
186.3365403003681
 20
2.256379669864751
 30
0.0
 11
186.3365403003681
 21
1.423046336531418
 31
0.0
 12
188.8365403003681
 22
1.839713003198085
 32
0.0
 13
188.8365403003681
 23
1.839713003198085
 33
0.0
  0
MTEXT
  5
3F1
330
3EB
100
AcDbEntity
  8
0
 62
     3
100
AcDbMText
 10
185.0865403003754
 20
4.339713003198085
 30
0.0
 40
3.0
 41
0.0
 71
     5
 72
     1
  1
\A1;7.5
1001
ACAD
1000
MTEXTBEGIN
1070
    73
1070
     1
1070
    44
1040
1.0
1070
    74
1070
     0
1000
MTEXTEND
  0
POINT
  5
3F2
330
3EB
100
AcDbEntity
  8
DEFPOINTS
 62
     0
100
AcDbPoint
 10
181.3365403003826
 20
16.28018068602887
 30
0.0
  0
POINT
  5
3F3
330
3EB
100
AcDbEntity
  8
DEFPOINTS
 62
     0
100
AcDbPoint
 10
188.8365403003681
 20
17.68144334450153
 30
0.0
  0
POINT
  5
3F4
330
3EB
100
AcDbEntity
  8
DEFPOINTS
 62
     0
100
AcDbPoint
 10
188.8365403003681
 20
1.839713003198085
 30
0.0
  0
ENDBLK
  5
3F6
330
3EB
100
AcDbEntity
  8
0
100
AcDbBlockEnd
  0
BLOCK
  5
403
330
3F7
100
AcDbEntity
  8
0
100
AcDbBlockBegin
  2
*D35
 70
     1
 10
0.0
 20
0.0
 30
0.0
  3
*D35
  1

  0
LINE
  5
3F8
330
3F7
100
AcDbEntity
  8
0
 62
   123
100
AcDbLine
 10
179.3365403003681
 20
18.78018068602887
 30
0.0
 11
179.3365403003681
 21
1.239713003198083
 31
0.0
  0
LINE
  5
3F9
330
3F7
100
AcDbEntity
  8
0
 62
   123
100
AcDbLine
 10
181.3365403003826
 20
15.28018068602887
 30
0.0
 11
181.3365403003826
 21
1.239713003198085
 31
0.0
  0
LINE
  5
3FA
330
3F7
100
AcDbEntity
  8
0
 62
   123
100
AcDbLine
 10
183.8365403003827
 20
1.839713003198085
 30
0.0
 11
186.3365403003826
 21
1.839713003198085
 31
0.0
  0
LINE
  5
3FB
330
3F7
100
AcDbEntity
  8
0
 62
   123
100
AcDbLine
 10
176.8365403003681
 20
1.839713003198085
 30
0.0
 11
168.3365403003681
 21
1.839713003198085
 31
0.0
  0
LINE
  5
3FC
330
3F7
100
AcDbEntity
  8
0
 62
   123
100
AcDbLine
 10
181.3365403003826
 20
1.839713003198085
 30
0.0
 11
179.3365403003681
 21
1.839713003198085
 31
0.0
  0
SOLID
  5
3FD
330
3F7
100
AcDbEntity
  8
0
 62
   123
100
AcDbTrace
 10
183.8365403003827
 20
2.256379669864751
 30
0.0
 11
183.8365403003827
 21
1.423046336531418
 31
0.0
 12
181.3365403003826
 22
1.839713003198085
 32
0.0
 13
181.3365403003826
 23
1.839713003198085
 33
0.0
  0
SOLID
  5
3FE
330
3F7
100
AcDbEntity
  8
0
 62
   123
100
AcDbTrace
 10
176.8365403003681
 20
2.256379669864751
 30
0.0
 11
176.8365403003681
 21
1.423046336531418
 31
0.0
 12
179.3365403003681
 22
1.839713003198085
 32
0.0
 13
179.3365403003681
 23
1.839713003198085
 33
0.0
  0
MTEXT
  5
3FF
330
3F7
100
AcDbEntity
  8
0
 62
     3
100
AcDbMText
 10
170.3365403003681
 20
4.339713003198085
 30
0.0
 40
3.0
 41
0.0
 71
     5
 72
     1
  1
\A1;2
1001
ACAD
1000
MTEXTBEGIN
1070
    73
1070
     1
1070
    44
1040
1.0
1070
    74
1070
     0
1000
MTEXTEND
  0
POINT
  5
400
330
3F7
100
AcDbEntity
  8
DEFPOINTS
 62
     0
100
AcDbPoint
 10
179.3365403003681
 20
19.78018068602887
 30
0.0
  0
POINT
  5
401
330
3F7
100
AcDbEntity
  8
DEFPOINTS
 62
     0
100
AcDbPoint
 10
181.3365403003826
 20
16.28018068602887
 30
0.0
  0
POINT
  5
402
330
3F7
100
AcDbEntity
  8
DEFPOINTS
 62
     0
100
AcDbPoint
 10
181.3365403003826
 20
1.839713003198085
 30
0.0
  0
ENDBLK
  5
404
330
3F7
100
AcDbEntity
  8
0
100
AcDbBlockEnd
  0
BLOCK
  5
40F
330
405
100
AcDbEntity
  8
0
100
AcDbBlockBegin
  2
*D36
 70
     1
 10
0.0
 20
0.0
 30
0.0
  3
*D36
  1

  0
LINE
  5
406
330
405
100
AcDbEntity
  8
0
 62
   123
100
AcDbLine
 10
181.3365403003826
 20
15.28018068602887
 30
0.0
 11
181.3365403003826
 21
-8.772385514566487
 31
0.0
  0
LINE
  5
407
330
405
100
AcDbEntity
  8
0
 62
   123
100
AcDbLine
 10
301.3365403003827
 20
22.28018068602886
 30
0.0
 11
301.3365403003827
 21
-8.772385514566487
 31
0.0
  0
LINE
  5
408
330
405
100
AcDbEntity
  8
0
 62
   123
100
AcDbLine
 10
183.8365403003827
 20
-8.172385514566485
 30
0.0
 11
298.8365403003827
 21
-8.172385514566485
 31
0.0
  0
SOLID
  5
409
330
405
100
AcDbEntity
  8
0
 62
   123
100
AcDbTrace
 10
183.8365403003827
 20
-7.755718847899818
 30
0.0
 11
183.8365403003827
 21
-8.589052181233151
 31
0.0
 12
181.3365403003826
 22
-8.172385514566485
 32
0.0
 13
181.3365403003826
 23
-8.172385514566485
 33
0.0
  0
SOLID
  5
40A
330
405
100
AcDbEntity
  8
0
 62
   123
100
AcDbTrace
 10
298.8365403003827
 20
-7.755718847899818
 30
0.0
 11
298.8365403003827
 21
-8.589052181233151
 31
0.0
 12
301.3365403003827
 22
-8.172385514566485
 32
0.0
 13
301.3365403003827
 23
-8.172385514566485
 33
0.0
  0
MTEXT
  5
40B
330
405
100
AcDbEntity
  8
0
 62
     3
100
AcDbMText
 10
233.8365403003826
 20
-5.672385514566485
 30
0.0
 40
3.0
 41
0.0
 71
     5
 72
     1
  1
\A1;120
1001
ACAD
1000
MTEXTBEGIN
1070
    73
1070
     1
1070
    44
1040
1.0
1070
    74
1070
     0
1000
MTEXTEND
  0
POINT
  5
40C
330
405
100
AcDbEntity
  8
DEFPOINTS
 62
     0
100
AcDbPoint
 10
181.3365403003826
 20
16.28018068602887
 30
0.0
  0
POINT
  5
40D
330
405
100
AcDbEntity
  8
DEFPOINTS
 62
     0
100
AcDbPoint
 10
301.3365403003827
 20
23.28018068602887
 30
0.0
  0
POINT
  5
40E
330
405
100
AcDbEntity
  8
DEFPOINTS
 62
     0
100
AcDbPoint
 10
301.3365403003827
 20
-8.172385514566485
 30
0.0
  0
ENDBLK
  5
410
330
405
100
AcDbEntity
  8
0
100
AcDbBlockEnd
  0
BLOCK
  5
41B
330
411
100
AcDbEntity
  8
0
100
AcDbBlockBegin
  2
*D37
 70
     1
 10
0.0
 20
0.0
 30
0.0
  3
*D37
  1

  0
LINE
  5
412
330
411
100
AcDbEntity
  8
0
 62
   123
100
AcDbLine
 10
157.3971674468502
 20
268.4947786750026
 30
0.0
 11
157.3971674468502
 21
205.9059787145073
 31
0.0
  0
LINE
  5
413
330
411
100
AcDbEntity
  8
0
 62
   123
100
AcDbLine
 10
178.3971674468503
 20
228.1447786750022
 30
0.0
 11
178.3971674468503
 21
205.9059787145073
 31
0.0
  0
LINE
  5
414
330
411
100
AcDbEntity
  8
0
 62
   123
100
AcDbLine
 10
159.8971674468502
 20
206.5059787145073
 30
0.0
 11
175.8971674468502
 21
206.5059787145073
 31
0.0
  0
SOLID
  5
415
330
411
100
AcDbEntity
  8
0
 62
   123
100
AcDbTrace
 10
159.8971674468502
 20
206.922645381174
 30
0.0
 11
159.8971674468502
 21
206.0893120478406
 31
0.0
 12
157.3971674468502
 22
206.5059787145073
 32
0.0
 13
157.3971674468502
 23
206.5059787145073
 33
0.0
  0
SOLID
  5
416
330
411
100
AcDbEntity
  8
0
 62
   123
100
AcDbTrace
 10
175.8971674468502
 20
206.922645381174
 30
0.0
 11
175.8971674468502
 21
206.0893120478406
 31
0.0
 12
178.3971674468503
 22
206.5059787145073
 32
0.0
 13
178.3971674468503
 23
206.5059787145073
 33
0.0
  0
MTEXT
  5
417
330
411
100
AcDbEntity
  8
0
 62
     3
100
AcDbMText
 10
169.3971674468502
 20
209.0059787145073
 30
0.0
 40
3.0
 41
0.0
 71
     5
 72
     1
  1
\A1;21
1001
ACAD
1000
MTEXTBEGIN
1070
    73
1070
     1
1070
    44
1040
1.0
1070
    74
1070
     0
1000
MTEXTEND
  0
POINT
  5
418
330
411
100
AcDbEntity
  8
DEFPOINTS
 62
     0
100
AcDbPoint
 10
157.3971674468502
 20
269.4947786750026
 30
0.0
  0
POINT
  5
419
330
411
100
AcDbEntity
  8
DEFPOINTS
 62
     0
100
AcDbPoint
 10
178.3971674468503
 20
229.1447786750022
 30
0.0
  0
POINT
  5
41A
330
411
100
AcDbEntity
  8
DEFPOINTS
 62
     0
100
AcDbPoint
 10
178.3971674468503
 20
206.5059787145073
 30
0.0
  0
ENDBLK
  5
41C
330
411
100
AcDbEntity
  8
0
100
AcDbBlockEnd
  0
BLOCK
  5
427
330
41D
100
AcDbEntity
  8
0
100
AcDbBlockBegin
  2
*D38
 70
     1
 10
0.0
 20
0.0
 30
0.0
  3
*D38
  1

  0
LINE
  5
41E
330
41D
100
AcDbEntity
  8
0
 62
   123
100
AcDbLine
 10
-0.8012878982081021
 20
233.1447786750714
 30
0.0
 11
-0.8012878982081033
 21
212.8645979889737
 31
0.0
  0
LINE
  5
41F
330
41D
100
AcDbEntity
  8
0
 62
   123
100
AcDbLine
 10
89.1987121017919
 20
233.1447786750714
 30
0.0
 11
89.1987121017919
 21
212.8645979889737
 31
0.0
  0
LINE
  5
420
330
41D
100
AcDbEntity
  8
0
 62
   123
100
AcDbLine
 10
1.698712101791896
 20
213.4645979889737
 30
0.0
 11
86.6987121017919
 21
213.4645979889737
 31
0.0
  0
SOLID
  5
421
330
41D
100
AcDbEntity
  8
0
 62
   123
100
AcDbTrace
 10
1.698712101791896
 20
213.8812646556404
 30
0.0
 11
1.698712101791896
 21
213.0479313223071
 31
0.0
 12
-0.8012878982081032
 22
213.4645979889737
 32
0.0
 13
-0.8012878982081032
 23
213.4645979889737
 33
0.0
  0
SOLID
  5
422
330
41D
100
AcDbEntity
  8
0
 62
   123
100
AcDbTrace
 10
86.6987121017919
 20
213.8812646556404
 30
0.0
 11
86.6987121017919
 21
213.0479313223071
 31
0.0
 12
89.1987121017919
 22
213.4645979889737
 32
0.0
 13
89.1987121017919
 23
213.4645979889737
 33
0.0
  0
MTEXT
  5
423
330
41D
100
AcDbEntity
  8
0
 62
     3
100
AcDbMText
 10
43.9514378506683
 20
215.9645979889737
 30
0.0
 40
3.0
 41
0.0
 71
     5
 72
     1
  1
\A1;90
1001
ACAD
1000
MTEXTBEGIN
1070
    73
1070
     1
1070
    44
1040
1.0
1070
    74
1070
     0
1000
MTEXTEND
  0
POINT
  5
424
330
41D
100
AcDbEntity
  8
DEFPOINTS
 62
     0
100
AcDbPoint
 10
-0.8012878982081019
 20
234.1447786750713
 30
0.0
  0
POINT
  5
425
330
41D
100
AcDbEntity
  8
DEFPOINTS
 62
     0
100
AcDbPoint
 10
89.1987121017919
 20
234.1447786750713
 30
0.0
  0
POINT
  5
426
330
41D
100
AcDbEntity
  8
DEFPOINTS
 62
     0
100
AcDbPoint
 10
89.1987121017919
 20
213.4645979889737
 30
0.0
  0
ENDBLK
  5
428
330
41D
100
AcDbEntity
  8
0
100
AcDbBlockEnd
  0
BLOCK
  5
435
330
429
100
AcDbEntity
  8
0
100
AcDbBlockBegin
  2
*D39
 70
     1
 10
0.0
 20
0.0
 30
0.0
  3
*D39
  1

  0
LINE
  5
42A
330
429
100
AcDbEntity
  8
0
 62
   123
100
AcDbLine
 10
176.3971674468503
 20
231.6447786750031
 30
0.0
 11
176.3971674468503
 21
215.2701663409665
 31
0.0
  0
LINE
  5
42B
330
429
100
AcDbEntity
  8
0
 62
   123
100
AcDbLine
 10
178.3971674468503
 20
228.1447786750022
 30
0.0
 11
178.3971674468503
 21
215.2701663409665
 31
0.0
  0
LINE
  5
42C
330
429
100
AcDbEntity
  8
0
 62
   123
100
AcDbLine
 10
180.8971674468502
 20
215.8701663409665
 30
0.0
 11
183.3971674468502
 21
215.8701663409665
 31
0.0
  0
LINE
  5
42D
330
429
100
AcDbEntity
  8
0
 62
   123
100
AcDbLine
 10
173.8971674468502
 20
215.8701663409665
 30
0.0
 11
165.3971674468502
 21
215.8701663409665
 31
0.0
  0
LINE
  5
42E
330
429
100
AcDbEntity
  8
0
 62
   123
100
AcDbLine
 10
178.3971674468503
 20
215.8701663409665
 30
0.0
 11
176.3971674468503
 21
215.8701663409665
 31
0.0
  0
SOLID
  5
42F
330
429
100
AcDbEntity
  8
0
 62
   123
100
AcDbTrace
 10
180.8971674468502
 20
216.2868330076332
 30
0.0
 11
180.8971674468502
 21
215.4534996742998
 31
0.0
 12
178.3971674468503
 22
215.8701663409665
 32
0.0
 13
178.3971674468503
 23
215.8701663409665
 33
0.0
  0
SOLID
  5
430
330
429
100
AcDbEntity
  8
0
 62
   123
100
AcDbTrace
 10
173.8971674468502
 20
216.2868330076332
 30
0.0
 11
173.8971674468502
 21
215.4534996742998
 31
0.0
 12
176.3971674468503
 22
215.8701663409665
 32
0.0
 13
176.3971674468503
 23
215.8701663409665
 33
0.0
  0
MTEXT
  5
431
330
429
100
AcDbEntity
  8
0
 62
     3
100
AcDbMText
 10
167.3971674468502
 20
218.3701663409665
 30
0.0
 40
3.0
 41
0.0
 71
     5
 72
     1
  1
\A1;2
1001
ACAD
1000
MTEXTBEGIN
1070
    73
1070
     1
1070
    44
1040
1.0
1070
    74
1070
     0
1000
MTEXTEND
  0
POINT
  5
432
330
429
100
AcDbEntity
  8
DEFPOINTS
 62
     0
100
AcDbPoint
 10
176.3971674468503
 20
232.6447786750031
 30
0.0
  0
POINT
  5
433
330
429
100
AcDbEntity
  8
DEFPOINTS
 62
     0
100
AcDbPoint
 10
178.3971674468503
 20
229.1447786750022
 30
0.0
  0
POINT
  5
434
330
429
100
AcDbEntity
  8
DEFPOINTS
 62
     0
100
AcDbPoint
 10
178.3971674468503
 20
215.8701663409665
 30
0.0
  0
ENDBLK
  5
436
330
429
100
AcDbEntity
  8
0
100
AcDbBlockEnd
  0
BLOCK
  5
441
330
437
100
AcDbEntity
  8
0
100
AcDbBlockBegin
  2
*D40
 70
     1
 10
0.0
 20
0.0
 30
0.0
  3
*D40
  1

  0
LINE
  5
438
330
437
100
AcDbEntity
  8
0
 62
   123
100
AcDbLine
 10
178.3971674468503
 20
228.1447786750022
 30
0.0
 11
178.3971674468503
 21
215.2701663409665
 31
0.0
  0
LINE
  5
439
330
437
100
AcDbEntity
  8
0
 62
   123
100
AcDbLine
 10
185.8971674468502
 20
229.546041333474
 30
0.0
 11
185.8971674468502
 21
215.2701663409665
 31
0.0
  0
LINE
  5
43A
330
437
100
AcDbEntity
  8
0
 62
   123
100
AcDbLine
 10
180.8971674468502
 20
215.8701663409665
 30
0.0
 11
183.3971674468502
 21
215.8701663409665
 31
0.0
  0
SOLID
  5
43B
330
437
100
AcDbEntity
  8
0
 62
   123
100
AcDbTrace
 10
180.8971674468502
 20
216.2868330076332
 30
0.0
 11
180.8971674468502
 21
215.4534996742998
 31
0.0
 12
178.3971674468503
 22
215.8701663409665
 32
0.0
 13
178.3971674468503
 23
215.8701663409665
 33
0.0
  0
SOLID
  5
43C
330
437
100
AcDbEntity
  8
0
 62
   123
100
AcDbTrace
 10
183.3971674468502
 20
216.2868330076332
 30
0.0
 11
183.3971674468502
 21
215.4534996742998
 31
0.0
 12
185.8971674468502
 22
215.8701663409665
 32
0.0
 13
185.8971674468502
 23
215.8701663409665
 33
0.0
  0
MTEXT
  5
43D
330
437
100
AcDbEntity
  8
0
 62
     3
100
AcDbMText
 10
182.1471674468502
 20
218.3701663409665
 30
0.0
 40
3.0
 41
0.0
 71
     5
 72
     1
  1
\A1;7.5
1001
ACAD
1000
MTEXTBEGIN
1070
    73
1070
     1
1070
    44
1040
1.0
1070
    74
1070
     0
1000
MTEXTEND
  0
POINT
  5
43E
330
437
100
AcDbEntity
  8
DEFPOINTS
 62
     0
100
AcDbPoint
 10
178.3971674468503
 20
229.1447786750022
 30
0.0
  0
POINT
  5
43F
330
437
100
AcDbEntity
  8
DEFPOINTS
 62
     0
100
AcDbPoint
 10
185.8971674468502
 20
230.546041333474
 30
0.0
  0
POINT
  5
440
330
437
100
AcDbEntity
  8
DEFPOINTS
 62
     0
100
AcDbPoint
 10
185.8971674468502
 20
215.8701663409665
 30
0.0
  0
ENDBLK
  5
442
330
437
100
AcDbEntity
  8
0
100
AcDbBlockEnd
  0
BLOCK
  5
44D
330
443
100
AcDbEntity
  8
0
100
AcDbBlockBegin
  2
*D41
 70
     1
 10
0.0
 20
0.0
 30
0.0
  3
*D41
  1

  0
LINE
  5
444
330
443
100
AcDbEntity
  8
0
 62
   123
100
AcDbLine
 10
178.3971674468503
 20
228.1447786750022
 30
0.0
 11
178.3971674468503
 21
205.9059787145073
 31
0.0
  0
LINE
  5
445
330
443
100
AcDbEntity
  8
0
 62
   123
100
AcDbLine
 10
298.3971674468502
 20
235.1447786750022
 30
0.0
 11
298.3971674468502
 21
205.9059787145073
 31
0.0
  0
LINE
  5
446
330
443
100
AcDbEntity
  8
0
 62
   123
100
AcDbLine
 10
180.8971674468502
 20
206.5059787145073
 30
0.0
 11
295.8971674468502
 21
206.5059787145073
 31
0.0
  0
SOLID
  5
447
330
443
100
AcDbEntity
  8
0
 62
   123
100
AcDbTrace
 10
180.8971674468502
 20
206.922645381174
 30
0.0
 11
180.8971674468502
 21
206.0893120478406
 31
0.0
 12
178.3971674468503
 22
206.5059787145073
 32
0.0
 13
178.3971674468503
 23
206.5059787145073
 33
0.0
  0
SOLID
  5
448
330
443
100
AcDbEntity
  8
0
 62
   123
100
AcDbTrace
 10
295.8971674468502
 20
206.922645381174
 30
0.0
 11
295.8971674468502
 21
206.0893120478406
 31
0.0
 12
298.3971674468502
 22
206.5059787145073
 32
0.0
 13
298.3971674468502
 23
206.5059787145073
 33
0.0
  0
MTEXT
  5
449
330
443
100
AcDbEntity
  8
0
 62
     3
100
AcDbMText
 10
230.8971674468502
 20
209.0059787145073
 30
0.0
 40
3.0
 41
0.0
 71
     5
 72
     1
  1
\A1;120
1001
ACAD
1000
MTEXTBEGIN
1070
    73
1070
     1
1070
    44
1040
1.0
1070
    74
1070
     0
1000
MTEXTEND
  0
POINT
  5
44A
330
443
100
AcDbEntity
  8
DEFPOINTS
 62
     0
100
AcDbPoint
 10
178.3971674468503
 20
229.1447786750022
 30
0.0
  0
POINT
  5
44B
330
443
100
AcDbEntity
  8
DEFPOINTS
 62
     0
100
AcDbPoint
 10
298.3971674468502
 20
236.1447786750022
 30
0.0
  0
POINT
  5
44C
330
443
100
AcDbEntity
  8
DEFPOINTS
 62
     0
100
AcDbPoint
 10
298.3971674468502
 20
206.5059787145073
 30
0.0
  0
ENDBLK
  5
44E
330
443
100
AcDbEntity
  8
0
100
AcDbBlockEnd
  0
BLOCK
  5
459
330
44F
100
AcDbEntity
  8
0
100
AcDbBlockBegin
  2
*D42
 70
     1
 10
0.0
 20
0.0
 30
0.0
  3
*D42
  1

  0
LINE
  5
450
330
44F
100
AcDbEntity
  8
0
 62
   123
100
AcDbLine
 10
13.75272574888185
 20
115.2801806860979
 30
0.0
 11
13.75272574888186
 21
163.7899102815232
 31
0.0
  0
LINE
  5
451
330
44F
100
AcDbEntity
  8
0
 62
   123
100
AcDbLine
 10
75.75272574888185
 20
115.2801806860979
 30
0.0
 11
75.75272574888185
 21
163.7899102815232
 31
0.0
  0
LINE
  5
452
330
44F
100
AcDbEntity
  8
0
 62
   123
100
AcDbLine
 10
16.25272574888186
 20
163.1899102815232
 30
0.0
 11
73.25272574888185
 21
163.1899102815232
 31
0.0
  0
SOLID
  5
453
330
44F
100
AcDbEntity
  8
0
 62
   123
100
AcDbTrace
 10
16.25272574888186
 20
163.6065769481898
 30
0.0
 11
16.25272574888186
 21
162.7732436148565
 31
0.0
 12
13.75272574888186
 22
163.1899102815232
 32
0.0
 13
13.75272574888186
 23
163.1899102815232
 33
0.0
  0
SOLID
  5
454
330
44F
100
AcDbEntity
  8
0
 62
   123
100
AcDbTrace
 10
73.25272574888185
 20
163.6065769481898
 30
0.0
 11
73.25272574888185
 21
162.7732436148565
 31
0.0
 12
75.75272574888185
 22
163.1899102815232
 32
0.0
 13
75.75272574888185
 23
163.1899102815232
 33
0.0
  0
MTEXT
  5
455
330
44F
100
AcDbEntity
  8
0
 62
     3
100
AcDbMText
 10
44.75272574888186
 20
165.6899102815232
 30
0.0
 40
3.0
 41
0.0
 71
     5
 72
     1
  1
\A1;62
1001
ACAD
1000
MTEXTBEGIN
1070
    73
1070
     1
1070
    44
1040
1.0
1070
    74
1070
     0
1000
MTEXTEND
  0
POINT
  5
456
330
44F
100
AcDbEntity
  8
DEFPOINTS
 62
     0
100
AcDbPoint
 10
13.75272574888185
 20
114.2801806860979
 30
0.0
  0
POINT
  5
457
330
44F
100
AcDbEntity
  8
DEFPOINTS
 62
     0
100
AcDbPoint
 10
75.75272574888185
 20
114.2801806860979
 30
0.0
  0
POINT
  5
458
330
44F
100
AcDbEntity
  8
DEFPOINTS
 62
     0
100
AcDbPoint
 10
75.75272574888185
 20
163.1899102815232
 30
0.0
  0
ENDBLK
  5
45A
330
44F
100
AcDbEntity
  8
0
100
AcDbBlockEnd
  0
BLOCK
  5
465
330
45B
100
AcDbEntity
  8
0
100
AcDbBlockBegin
  2
*D43
 70
     1
 10
0.0
 20
0.0
 30
0.0
  3
*D43
  1

  0
LINE
  5
45C
330
45B
100
AcDbEntity
  8
0
 62
   123
100
AcDbLine
 10
86.30789442770947
 20
106.2801806860979
 30
0.0
 11
92.67207182013191
 21
106.2801806860979
 31
0.0
  0
LINE
  5
45D
330
45B
100
AcDbEntity
  8
0
 62
   123
100
AcDbLine
 10
73.91615543399166
 20
149.2801806860988
 30
0.0
 11
92.67207182013192
 21
149.2801806860988
 31
0.0
  0
LINE
  5
45E
330
45B
100
AcDbEntity
  8
0
 62
   123
100
AcDbLine
 10
92.0720718201319
 20
108.780180686098
 30
0.0
 11
92.0720718201319
 21
146.7801806860989
 31
0.0
  0
SOLID
  5
45F
330
45B
100
AcDbEntity
  8
0
 62
   123
100
AcDbTrace
 10
91.65540515346524
 20
108.780180686098
 30
0.0
 11
92.48873848679858
 21
108.780180686098
 31
0.0
 12
92.0720718201319
 22
106.2801806860979
 32
0.0
 13
92.0720718201319
 23
106.2801806860979
 33
0.0
  0
SOLID
  5
460
330
45B
100
AcDbEntity
  8
0
 62
   123
100
AcDbTrace
 10
91.65540515346524
 20
146.7801806860989
 30
0.0
 11
92.48873848679858
 21
146.7801806860989
 31
0.0
 12
92.0720718201319
 22
149.2801806860988
 32
0.0
 13
92.0720718201319
 23
149.2801806860988
 33
0.0
  0
MTEXT
  5
461
330
45B
100
AcDbEntity
  8
0
 62
     3
100
AcDbMText
 10
89.5720718201319
 20
129.3750164831835
 30
0.0
 40
3.0
 41
0.0
 71
     5
 72
     1
  1
\A1;43
 11
0.0000000000000001
 21
1.0
 31
0.0
1001
ACAD
1000
MTEXTBEGIN
1070
    73
1070
     1
1070
    44
1040
1.0
1070
    74
1070
     0
1000
MTEXTEND
  0
POINT
  5
462
330
45B
100
AcDbEntity
  8
DEFPOINTS
 62
     0
100
AcDbPoint
 10
85.30789442770947
 20
106.2801806860979
 30
0.0
  0
POINT
  5
463
330
45B
100
AcDbEntity
  8
DEFPOINTS
 62
     0
100
AcDbPoint
 10
72.91615543399166
 20
149.2801806860988
 30
0.0
  0
POINT
  5
464
330
45B
100
AcDbEntity
  8
DEFPOINTS
 62
     0
100
AcDbPoint
 10
92.0720718201319
 20
149.2801806860988
 30
0.0
  0
ENDBLK
  5
466
330
45B
100
AcDbEntity
  8
0
100
AcDbBlockEnd
  0
BLOCK
  5
471
330
467
100
AcDbEntity
  8
0
100
AcDbBlockBegin
  2
*D44
 70
     1
 10
0.0
 20
0.0
 30
0.0
  3
*D44
  1

  0
LINE
  5
468
330
467
100
AcDbEntity
  8
0
 62
   123
100
AcDbLine
 10
262.3332073003675
 20
147.2801796860312
 30
0.0
 11
262.3332073003675
 21
161.9192131702025
 31
0.0
  0
LINE
  5
469
330
467
100
AcDbEntity
  8
0
 62
   123
100
AcDbLine
 10
290.3332073003821
 20
139.2801796860312
 30
0.0
 11
290.3332073003821
 21
161.9192131702025
 31
0.0
  0
LINE
  5
46A
330
467
100
AcDbEntity
  8
0
 62
   123
100
AcDbLine
 10
264.8332073003675
 20
161.3192131702026
 30
0.0
 11
287.8332073003821
 21
161.3192131702026
 31
0.0
  0
SOLID
  5
46B
330
467
100
AcDbEntity
  8
0
 62
   123
100
AcDbTrace
 10
264.8332073003675
 20
161.7358798368692
 30
0.0
 11
264.8332073003675
 21
160.9025465035359
 31
0.0
 12
262.3332073003675
 22
161.3192131702026
 32
0.0
 13
262.3332073003675
 23
161.3192131702026
 33
0.0
  0
SOLID
  5
46C
330
467
100
AcDbEntity
  8
0
 62
   123
100
AcDbTrace
 10
287.8332073003821
 20
161.7358798368692
 30
0.0
 11
287.8332073003821
 21
160.9025465035359
 31
0.0
 12
290.3332073003821
 22
161.3192131702026
 32
0.0
 13
290.3332073003821
 23
161.3192131702026
 33
0.0
  0
MTEXT
  5
46D
330
467
100
AcDbEntity
  8
0
 62
     3
100
AcDbMText
 10
276.3332073003821
 20
163.8192131702026
 30
0.0
 40
3.0
 41
0.0
 71
     5
 72
     1
  1
\A1;MAX. 28
1001
ACAD
1000
MTEXTBEGIN
1070
    73
1070
     1
1070
    44
1040
1.0
1070
    74
1070
     0
1000
MTEXTEND
  0
POINT
  5
46E
330
467
100
AcDbEntity
  8
DEFPOINTS
 62
     0
100
AcDbPoint
 10
262.3332073003675
 20
146.2801796860312
 30
0.0
  0
POINT
  5
46F
330
467
100
AcDbEntity
  8
DEFPOINTS
 62
     0
100
AcDbPoint
 10
290.3332073003821
 20
138.2801796860312
 30
0.0
  0
POINT
  5
470
330
467
100
AcDbEntity
  8
DEFPOINTS
 62
     0
100
AcDbPoint
 10
290.3332073003821
 20
161.3192131702026
 30
0.0
  0
ENDBLK
  5
472
330
467
100
AcDbEntity
  8
0
100
AcDbBlockEnd
  0
BLOCK
  5
47F
330
473
100
AcDbEntity
  8
0
100
AcDbBlockBegin
  2
*D45
 70
     1
 10
0.0
 20
0.0
 30
0.0
  3
*D45
  1

  0
LINE
  5
474
330
473
100
AcDbEntity
  8
0
 62
   123
100
AcDbLine
 10
181.3365403003826
 20
107.2801806860288
 30
0.0
 11
181.3365403003826
 21
161.9357841907145
 31
0.0
  0
LINE
  5
475
330
473
100
AcDbEntity
  8
0
 62
   123
100
AcDbLine
 10
187.3365403003681
 20
115.980179686031
 30
0.0
 11
187.3365403003681
 21
161.9357841907145
 31
0.0
  0
LINE
  5
476
330
473
100
AcDbEntity
  8
0
 62
   123
100
AcDbLine
 10
178.8365403003826
 20
161.3357841907145
 30
0.0
 11
176.3365403003827
 21
161.3357841907145
 31
0.0
  0
LINE
  5
477
330
473
100
AcDbEntity
  8
0
 62
   123
100
AcDbLine
 10
189.8365403003681
 20
161.3357841907145
 30
0.0
 11
192.3365403003681
 21
161.3357841907145
 31
0.0
  0
LINE
  5
478
330
473
100
AcDbEntity
  8
0
 62
   123
100
AcDbLine
 10
181.3365403003826
 20
161.3357841907145
 30
0.0
 11
187.3365403003681
 21
161.3357841907145
 31
0.0
  0
SOLID
  5
479
330
473
100
AcDbEntity
  8
0
 62
   123
100
AcDbTrace
 10
178.8365403003826
 20
161.7524508573812
 30
0.0
 11
178.8365403003826
 21
160.9191175240479
 31
0.0
 12
181.3365403003826
 22
161.3357841907145
 32
0.0
 13
181.3365403003826
 23
161.3357841907145
 33
0.0
  0
SOLID
  5
47A
330
473
100
AcDbEntity
  8
0
 62
   123
100
AcDbTrace
 10
189.8365403003681
 20
161.7524508573812
 30
0.0
 11
189.8365403003681
 21
160.9191175240479
 31
0.0
 12
187.3365403003681
 22
161.3357841907145
 32
0.0
 13
187.3365403003681
 23
161.3357841907145
 33
0.0
  0
MTEXT
  5
47B
330
473
100
AcDbEntity
  8
0
 62
     3
100
AcDbMText
 10
184.3365403003754
 20
163.8357841907145
 30
0.0
 40
3.0
 41
0.0
 71
     5
 72
     1
  1
\A1;6
1001
ACAD
1000
MTEXTBEGIN
1070
    73
1070
     1
1070
    44
1040
1.0
1070
    74
1070
     0
1000
MTEXTEND
  0
POINT
  5
47C
330
473
100
AcDbEntity
  8
DEFPOINTS
 62
     0
100
AcDbPoint
 10
181.3365403003826
 20
106.2801806860288
 30
0.0
  0
POINT
  5
47D
330
473
100
AcDbEntity
  8
DEFPOINTS
 62
     0
100
AcDbPoint
 10
187.3365403003681
 20
114.980179686031
 30
0.0
  0
POINT
  5
47E
330
473
100
AcDbEntity
  8
DEFPOINTS
 62
     0
100
AcDbPoint
 10
187.3365403003681
 20
161.3357841907145
 30
0.0
  0
ENDBLK
  5
480
330
473
100
AcDbEntity
  8
0
100
AcDbBlockEnd
  0
BLOCK
  5
48B
330
481
100
AcDbEntity
  8
0
100
AcDbBlockBegin
  2
*D46
 70
     1
 10
0.0
 20
0.0
 30
0.0
  3
*D46
  1

  0
LINE
  5
482
330
481
100
AcDbEntity
  8
0
 62
   123
100
AcDbLine
 10
187.3365403003681
 20
115.980179686031
 30
0.0
 11
187.3365403003681
 21
161.9357841907145
 31
0.0
  0
LINE
  5
483
330
481
100
AcDbEntity
  8
0
 62
   123
100
AcDbLine
 10
262.3332073003675
 20
147.2801796860312
 30
0.0
 11
262.3332073003675
 21
161.9357841907145
 31
0.0
  0
LINE
  5
484
330
481
100
AcDbEntity
  8
0
 62
   123
100
AcDbLine
 10
189.8365403003681
 20
161.3357841907145
 30
0.0
 11
259.8332073003675
 21
161.3357841907145
 31
0.0
  0
SOLID
  5
485
330
481
100
AcDbEntity
  8
0
 62
   123
100
AcDbTrace
 10
189.8365403003681
 20
161.7524508573812
 30
0.0
 11
189.8365403003681
 21
160.9191175240479
 31
0.0
 12
187.3365403003681
 22
161.3357841907145
 32
0.0
 13
187.3365403003681
 23
161.3357841907145
 33
0.0
  0
SOLID
  5
486
330
481
100
AcDbEntity
  8
0
 62
   123
100
AcDbTrace
 10
259.8332073003675
 20
161.7524508573812
 30
0.0
 11
259.8332073003675
 21
160.9191175240479
 31
0.0
 12
262.3332073003675
 22
161.3357841907145
 32
0.0
 13
262.3332073003675
 23
161.3357841907145
 33
0.0
  0
MTEXT
  5
487
330
481
100
AcDbEntity
  8
0
 62
     3
100
AcDbMText
 10
218.2364175431412
 20
163.8357841907145
 30
0.0
 40
3.0
 41
0.0
 71
     5
 72
     1
  1
\A1;75
1001
ACAD
1000
MTEXTBEGIN
1070
    73
1070
     1
1070
    44
1040
1.0
1070
    74
1070
     0
1000
MTEXTEND
  0
POINT
  5
488
330
481
100
AcDbEntity
  8
DEFPOINTS
 62
     0
100
AcDbPoint
 10
187.3365403003681
 20
114.980179686031
 30
0.0
  0
POINT
  5
489
330
481
100
AcDbEntity
  8
DEFPOINTS
 62
     0
100
AcDbPoint
 10
262.3332073003675
 20
146.2801796860312
 30
0.0
  0
POINT
  5
48A
330
481
100
AcDbEntity
  8
DEFPOINTS
 62
     0
100
AcDbPoint
 10
262.3332073003675
 20
161.3357841907145
 30
0.0
  0
ENDBLK
  5
48C
330
481
100
AcDbEntity
  8
0
100
AcDbBlockEnd
  0
BLOCK
  5
497
330
48D
100
AcDbEntity
  8
0
100
AcDbBlockBegin
  2
*D47
 70
     1
 10
0.0
 20
0.0
 30
0.0
  3
*D47
  1

  0
LINE
  5
48E
330
48D
100
AcDbEntity
  8
0
 62
   123
100
AcDbLine
 10
143.3365403003681
 20
55.28018068602888
 30
0.0
 11
131.2680594196594
 21
55.28018068602888
 31
0.0
  0
LINE
  5
48F
330
48D
100
AcDbEntity
  8
0
 62
   123
100
AcDbLine
 10
143.3365403003681
 20
66.28018068602887
 30
0.0
 11
131.2680594196594
 21
66.28018068602887
 31
0.0
  0
LINE
  5
490
330
48D
100
AcDbEntity
  8
0
 62
   123
100
AcDbLine
 10
131.8680594196594
 20
57.78018068602888
 30
0.0
 11
131.8680594196594
 21
63.78018068602887
 31
0.0
  0
SOLID
  5
491
330
48D
100
AcDbEntity
  8
0
 62
   123
100
AcDbTrace
 10
131.4513927529927
 20
57.78018068602888
 30
0.0
 11
132.284726086326
 21
57.78018068602888
 31
0.0
 12
131.8680594196594
 22
55.28018068602888
 32
0.0
 13
131.8680594196594
 23
55.28018068602888
 33
0.0
  0
SOLID
  5
492
330
48D
100
AcDbEntity
  8
0
 62
   123
100
AcDbTrace
 10
131.4513927529927
 20
63.78018068602887
 30
0.0
 11
132.284726086326
 21
63.78018068602887
 31
0.0
 12
131.8680594196594
 22
66.28018068602887
 32
0.0
 13
131.8680594196594
 23
66.28018068602887
 33
0.0
  0
MTEXT
  5
493
330
48D
100
AcDbEntity
  8
0
 62
     3
100
AcDbMText
 10
129.3680594196594
 20
60.78018068602887
 30
0.0
 40
3.0
 41
0.0
 71
     5
 72
     1
  1
\A1;11
 11
0.0000000000000001
 21
1.0
 31
0.0
1001
ACAD
1000
MTEXTBEGIN
1070
    73
1070
     1
1070
    44
1040
1.0
1070
    74
1070
     0
1000
MTEXTEND
  0
POINT
  5
494
330
48D
100
AcDbEntity
  8
DEFPOINTS
 62
     0
100
AcDbPoint
 10
144.3365403003681
 20
55.28018068602887
 30
0.0
  0
POINT
  5
495
330
48D
100
AcDbEntity
  8
DEFPOINTS
 62
     0
100
AcDbPoint
 10
144.3365403003681
 20
66.28018068602887
 30
0.0
  0
POINT
  5
496
330
48D
100
AcDbEntity
  8
DEFPOINTS
 62
     0
100
AcDbPoint
 10
131.8680594196594
 20
66.28018068602887
 30
0.0
  0
ENDBLK
  5
498
330
48D
100
AcDbEntity
  8
0
100
AcDbBlockEnd
  0
BLOCK
  5
4A3
330
499
100
AcDbEntity
  8
0
100
AcDbBlockBegin
  2
*D48
 70
     1
 10
0.0
 20
0.0
 30
0.0
  3
*D48
  1

  0
LINE
  5
49A
330
499
100
AcDbEntity
  8
0
 62
   123
100
AcDbLine
 10
144.3365403003681
 20
67.28018068602887
 30
0.0
 11
144.3365403003681
 21
77.95353809543176
 31
0.0
  0
LINE
  5
49B
330
499
100
AcDbEntity
  8
0
 62
   123
100
AcDbLine
 10
174.3365403003681
 20
68.28018068602887
 30
0.0
 11
174.3365403003681
 21
77.95353809543176
 31
0.0
  0
LINE
  5
49C
330
499
100
AcDbEntity
  8
0
 62
   123
100
AcDbLine
 10
146.8365403003681
 20
77.35353809543176
 30
0.0
 11
171.8365403003681
 21
77.35353809543176
 31
0.0
  0
SOLID
  5
49D
330
499
100
AcDbEntity
  8
0
 62
   123
100
AcDbTrace
 10
146.8365403003681
 20
77.77020476209843
 30
0.0
 11
146.8365403003681
 21
76.93687142876509
 31
0.0
 12
144.3365403003681
 22
77.35353809543176
 32
0.0
 13
144.3365403003681
 23
77.35353809543176
 33
0.0
  0
SOLID
  5
49E
330
499
100
AcDbEntity
  8
0
 62
   123
100
AcDbTrace
 10
171.8365403003681
 20
77.77020476209843
 30
0.0
 11
171.8365403003681
 21
76.93687142876509
 31
0.0
 12
174.3365403003681
 22
77.35353809543176
 32
0.0
 13
174.3365403003681
 23
77.35353809543176
 33
0.0
  0
MTEXT
  5
49F
330
499
100
AcDbEntity
  8
0
 62
     3
100
AcDbMText
 10
160.5952246648703
 20
79.85353809543176
 30
0.0
 40
3.0
 41
0.0
 71
     5
 72
     1
  1
\A1;30
1001
ACAD
1000
MTEXTBEGIN
1070
    73
1070
     1
1070
    44
1040
1.0
1070
    74
1070
     0
1000
MTEXTEND
  0
POINT
  5
4A0
330
499
100
AcDbEntity
  8
DEFPOINTS
 62
     0
100
AcDbPoint
 10
144.3365403003681
 20
66.28018068602887
 30
0.0
  0
POINT
  5
4A1
330
499
100
AcDbEntity
  8
DEFPOINTS
 62
     0
100
AcDbPoint
 10
174.3365403003681
 20
67.28018068602887
 30
0.0
  0
POINT
  5
4A2
330
499
100
AcDbEntity
  8
DEFPOINTS
 62
     0
100
AcDbPoint
 10
174.3365403003681
 20
77.35353809543176
 30
0.0
  0
ENDBLK
  5
4A4
330
499
100
AcDbEntity
  8
0
100
AcDbBlockEnd
  0
BLOCK
  5
4AF
330
4A5
100
AcDbEntity
  8
0
100
AcDbBlockBegin
  2
*D49
 70
     1
 10
0.0
 20
0.0
 30
0.0
  3
*D49
  1

  0
LINE
  5
4A6
330
4A5
100
AcDbEntity
  8
0
 62
   123
100
AcDbLine
 10
12.95143785066829
 20
328.1447786750713
 30
0.0
 11
12.9514378506683
 21
376.6545082704966
 31
0.0
  0
LINE
  5
4A7
330
4A5
100
AcDbEntity
  8
0
 62
   123
100
AcDbLine
 10
74.95143785066829
 20
328.1447786750713
 30
0.0
 11
74.95143785066829
 21
376.6545082704966
 31
0.0
  0
LINE
  5
4A8
330
4A5
100
AcDbEntity
  8
0
 62
   123
100
AcDbLine
 10
15.4514378506683
 20
376.0545082704966
 30
0.0
 11
72.45143785066829
 21
376.0545082704966
 31
0.0
  0
SOLID
  5
4A9
330
4A5
100
AcDbEntity
  8
0
 62
   123
100
AcDbTrace
 10
15.4514378506683
 20
376.4711749371633
 30
0.0
 11
15.4514378506683
 21
375.6378416038299
 31
0.0
 12
12.9514378506683
 22
376.0545082704966
 32
0.0
 13
12.9514378506683
 23
376.0545082704966
 33
0.0
  0
SOLID
  5
4AA
330
4A5
100
AcDbEntity
  8
0
 62
   123
100
AcDbTrace
 10
72.45143785066829
 20
376.4711749371633
 30
0.0
 11
72.45143785066829
 21
375.6378416038299
 31
0.0
 12
74.95143785066829
 22
376.0545082704966
 32
0.0
 13
74.95143785066829
 23
376.0545082704966
 33
0.0
  0
MTEXT
  5
4AB
330
4A5
100
AcDbEntity
  8
0
 62
     3
100
AcDbMText
 10
43.9514378506683
 20
378.5545082704966
 30
0.0
 40
3.0
 41
0.0
 71
     5
 72
     1
  1
\A1;62
1001
ACAD
1000
MTEXTBEGIN
1070
    73
1070
     1
1070
    44
1040
1.0
1070
    74
1070
     0
1000
MTEXTEND
  0
POINT
  5
4AC
330
4A5
100
AcDbEntity
  8
DEFPOINTS
 62
     0
100
AcDbPoint
 10
12.95143785066829
 20
327.1447786750714
 30
0.0
  0
POINT
  5
4AD
330
4A5
100
AcDbEntity
  8
DEFPOINTS
 62
     0
100
AcDbPoint
 10
74.95143785066829
 20
327.1447786750714
 30
0.0
  0
POINT
  5
4AE
330
4A5
100
AcDbEntity
  8
DEFPOINTS
 62
     0
100
AcDbPoint
 10
74.95143785066829
 20
376.0545082704966
 30
0.0
  0
ENDBLK
  5
4B0
330
4A5
100
AcDbEntity
  8
0
100
AcDbBlockEnd
  0
BLOCK
  5
4BB
330
4B1
100
AcDbEntity
  8
0
100
AcDbBlockBegin
  2
*D50
 70
     1
 10
0.0
 20
0.0
 30
0.0
  3
*D50
  1

  0
LINE
  5
4B2
330
4B1
100
AcDbEntity
  8
0
 62
   123
100
AcDbLine
 10
293.3971674468502
 20
319.1447786750031
 30
0.0
 11
312.6711778912428
 21
319.1447786750031
 31
0.0
  0
LINE
  5
4B3
330
4B1
100
AcDbEntity
  8
0
 62
   123
100
AcDbLine
 10
293.3971674468502
 20
229.1447786750022
 30
0.0
 11
312.6711778912428
 21
229.1447786750022
 31
0.0
  0
LINE
  5
4B4
330
4B1
100
AcDbEntity
  8
0
 62
   123
100
AcDbLine
 10
312.0711778912428
 20
316.6447786750032
 30
0.0
 11
312.0711778912428
 21
231.6447786750022
 31
0.0
  0
SOLID
  5
4B5
330
4B1
100
AcDbEntity
  8
0
 62
   123
100
AcDbTrace
 10
311.6545112245761
 20
316.6447786750032
 30
0.0
 11
312.4878445579095
 21
316.6447786750032
 31
0.0
 12
312.0711778912428
 22
319.1447786750031
 32
0.0
 13
312.0711778912428
 23
319.1447786750031
 33
0.0
  0
SOLID
  5
4B6
330
4B1
100
AcDbEntity
  8
0
 62
   123
100
AcDbTrace
 10
311.6545112245761
 20
231.6447786750022
 30
0.0
 11
312.4878445579095
 21
231.6447786750022
 31
0.0
 12
312.0711778912428
 22
229.1447786750022
 32
0.0
 13
312.0711778912428
 23
229.1447786750022
 33
0.0
  0
MTEXT
  5
4B7
330
4B1
100
AcDbEntity
  8
0
 62
     3
100
AcDbMText
 10
309.5711778912427
 20
274.1447786750022
 30
0.0
 40
3.0
 41
0.0
 71
     5
 72
     1
  1
\A1;90
 11
0.0000000000000001
 21
1.0
 31
0.0
1001
ACAD
1000
MTEXTBEGIN
1070
    73
1070
     1
1070
    44
1040
1.0
1070
    74
1070
     0
1000
MTEXTEND
  0
POINT
  5
4B8
330
4B1
100
AcDbEntity
  8
DEFPOINTS
 62
     0
100
AcDbPoint
 10
292.3971674468503
 20
319.1447786750031
 30
0.0
  0
POINT
  5
4B9
330
4B1
100
AcDbEntity
  8
DEFPOINTS
 62
     0
100
AcDbPoint
 10
292.3971674468503
 20
229.1447786750022
 30
0.0
  0
POINT
  5
4BA
330
4B1
100
AcDbEntity
  8
DEFPOINTS
 62
     0
100
AcDbPoint
 10
312.0711778912428
 20
229.1447786750022
 30
0.0
  0
ENDBLK
  5
4BC
330
4B1
100
AcDbEntity
  8
0
100
AcDbBlockEnd
  0
BLOCK
  5
4C7
330
4BD
100
AcDbEntity
  8
0
100
AcDbBlockBegin
  2
*D51
 70
     1
 10
0.0
 20
0.0
 30
0.0
  3
*D51
  1

  0
LINE
  5
4BE
330
4BD
100
AcDbEntity
  8
0
 62
   123
100
AcDbLine
 10
175.3971674468503
 20
315.6447786750022
 30
0.0
 11
147.3054083285191
 21
315.6447786750022
 31
0.0
  0
LINE
  5
4BF
330
4BD
100
AcDbEntity
  8
0
 62
   123
100
AcDbLine
 10
175.3971674468503
 20
232.6447786750031
 30
0.0
 11
147.3054083285191
 21
232.6447786750031
 31
0.0
  0
LINE
  5
4C0
330
4BD
100
AcDbEntity
  8
0
 62
   123
100
AcDbLine
 10
147.9054083285191
 20
313.1447786750022
 30
0.0
 11
147.9054083285191
 21
235.1447786750032
 31
0.0
  0
SOLID
  5
4C1
330
4BD
100
AcDbEntity
  8
0
 62
   123
100
AcDbTrace
 10
147.4887416618524
 20
313.1447786750022
 30
0.0
 11
148.3220749951857
 21
313.1447786750022
 31
0.0
 12
147.9054083285191
 22
315.6447786750022
 32
0.0
 13
147.9054083285191
 23
315.6447786750022
 33
0.0
  0
SOLID
  5
4C2
330
4BD
100
AcDbEntity
  8
0
 62
   123
100
AcDbTrace
 10
147.4887416618524
 20
235.1447786750032
 30
0.0
 11
148.3220749951857
 21
235.1447786750032
 31
0.0
 12
147.9054083285191
 22
232.6447786750031
 32
0.0
 13
147.9054083285191
 23
232.6447786750031
 33
0.0
  0
MTEXT
  5
4C3
330
4BD
100
AcDbEntity
  8
0
 62
     3
100
AcDbMText
 10
143.9552583285191
 20
272.1254802344938
 30
0.0
 40
3.0
 41
0.0
 71
     5
 72
     1
  1
\A1;\A1;{\f??|b0|i0|c0|p49;%%c}83{\f??|b0|i0|c0|p49;\H0.7x;\S+0^ -0.035;\H1.429x;(h7)}
 11
0.0000000000000001
 21
1.0
 31
0.0
1001
ACAD
1000
MTEXTBEGIN
1070
    73
1070
     1
1070
    44
1040
1.0
1070
    74
1070
     0
1000
MTEXTEND
  0
POINT
  5
4C4
330
4BD
100
AcDbEntity
  8
DEFPOINTS
 62
     0
100
AcDbPoint
 10
176.3971674468503
 20
315.6447786750022
 30
0.0
  0
POINT
  5
4C5
330
4BD
100
AcDbEntity
  8
DEFPOINTS
 62
     0
100
AcDbPoint
 10
176.3971674468503
 20
232.6447786750031
 30
0.0
  0
POINT
  5
4C6
330
4BD
100
AcDbEntity
  8
DEFPOINTS
 62
     0
100
AcDbPoint
 10
147.9054083285191
 20
232.6447786750031
 30
0.0
  0
ENDBLK
  5
4C8
330
4BD
100
AcDbEntity
  8
0
100
AcDbBlockEnd
  0
BLOCK
  5
4D3
330
4C9
100
AcDbEntity
  8
0
100
AcDbBlockBegin
  2
*D52
 70
     1
 10
0.0
 20
0.0
 30
0.0
  3
*D52
  1

  0
LINE
  5
4CA
330
4C9
100
AcDbEntity
  8
0
 62
   123
100
AcDbLine
 10
85.50660652949227
 20
319.1447786750714
 30
0.0
 11
91.87078392191839
 21
319.1447786750714
 31
0.0
  0
LINE
  5
4CB
330
4C9
100
AcDbEntity
  8
0
 62
   123
100
AcDbLine
 10
73.11486753577992
 20
362.1447786750714
 30
0.0
 11
91.87078392191841
 21
362.1447786750714
 31
0.0
  0
LINE
  5
4CC
330
4C9
100
AcDbEntity
  8
0
 62
   123
100
AcDbLine
 10
91.27078392191839
 20
321.6447786750713
 30
0.0
 11
91.2707839219184
 21
359.6447786750713
 31
0.0
  0
SOLID
  5
4CD
330
4C9
100
AcDbEntity
  8
0
 62
   123
100
AcDbTrace
 10
90.85411725525172
 20
321.6447786750713
 30
0.0
 11
91.68745058858506
 21
321.6447786750713
 31
0.0
 12
91.27078392191839
 22
319.1447786750714
 32
0.0
 13
91.27078392191839
 23
319.1447786750714
 33
0.0
  0
SOLID
  5
4CE
330
4C9
100
AcDbEntity
  8
0
 62
   123
100
AcDbTrace
 10
90.85411725525174
 20
359.6447786750713
 30
0.0
 11
91.68745058858508
 21
359.6447786750713
 31
0.0
 12
91.2707839219184
 22
362.1447786750714
 32
0.0
 13
91.2707839219184
 23
362.1447786750714
 33
0.0
  0
MTEXT
  5
4CF
330
4C9
100
AcDbEntity
  8
0
 62
     3
100
AcDbMText
 10
88.77078392191833
 20
342.239614472156
 30
0.0
 40
3.0
 41
0.0
 71
     5
 72
     1
  1
\A1;43
 11
0.0000000000000001
 21
1.0
 31
0.0
1001
ACAD
1000
MTEXTBEGIN
1070
    73
1070
     1
1070
    44
1040
1.0
1070
    74
1070
     0
1000
MTEXTEND
  0
POINT
  5
4D0
330
4C9
100
AcDbEntity
  8
DEFPOINTS
 62
     0
100
AcDbPoint
 10
84.50660652949228
 20
319.1447786750714
 30
0.0
  0
POINT
  5
4D1
330
4C9
100
AcDbEntity
  8
DEFPOINTS
 62
     0
100
AcDbPoint
 10
72.11486753577992
 20
362.1447786750714
 30
0.0
  0
POINT
  5
4D2
330
4C9
100
AcDbEntity
  8
DEFPOINTS
 62
     0
100
AcDbPoint
 10
91.2707839219184
 20
362.1447786750714
 30
0.0
  0
ENDBLK
  5
4D4
330
4C9
100
AcDbEntity
  8
0
100
AcDbBlockEnd
  0
BLOCK
  5
4DF
330
4D5
100
AcDbEntity
  8
0
100
AcDbBlockBegin
  2
*D53
 70
     1
 10
0.0
 20
0.0
 30
0.0
  3
*D53
  1

  0
LINE
  5
4D6
330
4D5
100
AcDbEntity
  8
0
 62
   123
100
AcDbLine
 10
259.3938344468497
 20
360.1447776750046
 30
0.0
 11
259.3938344468497
 21
374.783811159176
 31
0.0
  0
LINE
  5
4D7
330
4D5
100
AcDbEntity
  8
0
 62
   123
100
AcDbLine
 10
287.3938344468497
 20
352.1447776750046
 30
0.0
 11
287.3938344468497
 21
374.783811159176
 31
0.0
  0
LINE
  5
4D8
330
4D5
100
AcDbEntity
  8
0
 62
   123
100
AcDbLine
 10
261.8938344468497
 20
374.183811159176
 30
0.0
 11
284.8938344468497
 21
374.183811159176
 31
0.0
  0
SOLID
  5
4D9
330
4D5
100
AcDbEntity
  8
0
 62
   123
100
AcDbTrace
 10
261.8938344468497
 20
374.6004778258427
 30
0.0
 11
261.8938344468497
 21
373.7671444925093
 31
0.0
 12
259.3938344468497
 22
374.183811159176
 32
0.0
 13
259.3938344468497
 23
374.183811159176
 33
0.0
  0
SOLID
  5
4DA
330
4D5
100
AcDbEntity
  8
0
 62
   123
100
AcDbTrace
 10
284.8938344468497
 20
374.6004778258427
 30
0.0
 11
284.8938344468497
 21
373.7671444925093
 31
0.0
 12
287.3938344468497
 22
374.183811159176
 32
0.0
 13
287.3938344468497
 23
374.183811159176
 33
0.0
  0
MTEXT
  5
4DB
330
4D5
100
AcDbEntity
  8
0
 62
     3
100
AcDbMText
 10
273.3938344468497
 20
376.683811159176
 30
0.0
 40
3.0
 41
0.0
 71
     5
 72
     1
  1
\A1;MAX. 28
1001
ACAD
1000
MTEXTBEGIN
1070
    73
1070
     1
1070
    44
1040
1.0
1070
    74
1070
     0
1000
MTEXTEND
  0
POINT
  5
4DC
330
4D5
100
AcDbEntity
  8
DEFPOINTS
 62
     0
100
AcDbPoint
 10
259.3938344468497
 20
359.1447776750046
 30
0.0
  0
POINT
  5
4DD
330
4D5
100
AcDbEntity
  8
DEFPOINTS
 62
     0
100
AcDbPoint
 10
287.3938344468497
 20
351.1447776750046
 30
0.0
  0
POINT
  5
4DE
330
4D5
100
AcDbEntity
  8
DEFPOINTS
 62
     0
100
AcDbPoint
 10
287.3938344468497
 20
374.183811159176
 30
0.0
  0
ENDBLK
  5
4E0
330
4D5
100
AcDbEntity
  8
0
100
AcDbBlockEnd
  0
BLOCK
  5
4ED
330
4E1
100
AcDbEntity
  8
0
100
AcDbBlockBegin
  2
*D54
 70
     1
 10
0.0
 20
0.0
 30
0.0
  3
*D54
  1

  0
LINE
  5
4E2
330
4E1
100
AcDbEntity
  8
0
 62
   123
100
AcDbLine
 10
178.3971674468503
 20
320.1447786750031
 30
0.0
 11
178.3971674468503
 21
374.8003821796879
 31
0.0
  0
LINE
  5
4E3
330
4E1
100
AcDbEntity
  8
0
 62
   123
100
AcDbLine
 10
184.3971674468502
 20
328.8447776750054
 30
0.0
 11
184.3971674468502
 21
374.8003821796879
 31
0.0
  0
LINE
  5
4E4
330
4E1
100
AcDbEntity
  8
0
 62
   123
100
AcDbLine
 10
175.8971674468502
 20
374.2003821796879
 30
0.0
 11
173.3971674468502
 21
374.2003821796879
 31
0.0
  0
LINE
  5
4E5
330
4E1
100
AcDbEntity
  8
0
 62
   123
100
AcDbLine
 10
186.8971674468502
 20
374.2003821796879
 30
0.0
 11
189.3971674468502
 21
374.2003821796879
 31
0.0
  0
LINE
  5
4E6
330
4E1
100
AcDbEntity
  8
0
 62
   123
100
AcDbLine
 10
178.3971674468503
 20
374.2003821796879
 30
0.0
 11
184.3971674468502
 21
374.2003821796879
 31
0.0
  0
SOLID
  5
4E7
330
4E1
100
AcDbEntity
  8
0
 62
   123
100
AcDbTrace
 10
175.8971674468502
 20
374.6170488463546
 30
0.0
 11
175.8971674468502
 21
373.7837155130212
 31
0.0
 12
178.3971674468503
 22
374.2003821796879
 32
0.0
 13
178.3971674468503
 23
374.2003821796879
 33
0.0
  0
SOLID
  5
4E8
330
4E1
100
AcDbEntity
  8
0
 62
   123
100
AcDbTrace
 10
186.8971674468502
 20
374.6170488463546
 30
0.0
 11
186.8971674468502
 21
373.7837155130212
 31
0.0
 12
184.3971674468502
 22
374.2003821796879
 32
0.0
 13
184.3971674468502
 23
374.2003821796879
 33
0.0
  0
MTEXT
  5
4E9
330
4E1
100
AcDbEntity
  8
0
 62
     3
100
AcDbMText
 10
181.3971674468502
 20
376.7003821796879
 30
0.0
 40
3.0
 41
0.0
 71
     5
 72
     1
  1
\A1;6
1001
ACAD
1000
MTEXTBEGIN
1070
    73
1070
     1
1070
    44
1040
1.0
1070
    74
1070
     0
1000
MTEXTEND
  0
POINT
  5
4EA
330
4E1
100
AcDbEntity
  8
DEFPOINTS
 62
     0
100
AcDbPoint
 10
178.3971674468503
 20
319.1447786750031
 30
0.0
  0
POINT
  5
4EB
330
4E1
100
AcDbEntity
  8
DEFPOINTS
 62
     0
100
AcDbPoint
 10
184.3971674468502
 20
327.8447776750053
 30
0.0
  0
POINT
  5
4EC
330
4E1
100
AcDbEntity
  8
DEFPOINTS
 62
     0
100
AcDbPoint
 10
184.3971674468502
 20
374.2003821796879
 30
0.0
  0
ENDBLK
  5
4EE
330
4E1
100
AcDbEntity
  8
0
100
AcDbBlockEnd
  0
BLOCK
  5
4F9
330
4EF
100
AcDbEntity
  8
0
100
AcDbBlockBegin
  2
*D55
 70
     1
 10
0.0
 20
0.0
 30
0.0
  3
*D55
  1

  0
LINE
  5
4F0
330
4EF
100
AcDbEntity
  8
0
 62
   123
100
AcDbLine
 10
184.3971674468502
 20
328.8447776750054
 30
0.0
 11
184.3971674468502
 21
374.8003821796879
 31
0.0
  0
LINE
  5
4F1
330
4EF
100
AcDbEntity
  8
0
 62
   123
100
AcDbLine
 10
259.3938344468497
 20
360.1447776750046
 30
0.0
 11
259.3938344468497
 21
374.8003821796879
 31
0.0
  0
LINE
  5
4F2
330
4EF
100
AcDbEntity
  8
0
 62
   123
100
AcDbLine
 10
186.8971674468502
 20
374.2003821796879
 30
0.0
 11
256.8938344468497
 21
374.2003821796879
 31
0.0
  0
SOLID
  5
4F3
330
4EF
100
AcDbEntity
  8
0
 62
   123
100
AcDbTrace
 10
186.8971674468502
 20
374.6170488463546
 30
0.0
 11
186.8971674468502
 21
373.7837155130212
 31
0.0
 12
184.3971674468502
 22
374.2003821796879
 32
0.0
 13
184.3971674468502
 23
374.2003821796879
 33
0.0
  0
SOLID
  5
4F4
330
4EF
100
AcDbEntity
  8
0
 62
   123
100
AcDbTrace
 10
256.8938344468497
 20
374.6170488463546
 30
0.0
 11
256.8938344468497
 21
373.7837155130212
 31
0.0
 12
259.3938344468497
 22
374.2003821796879
 32
0.0
 13
259.3938344468497
 23
374.2003821796879
 33
0.0
  0
MTEXT
  5
4F5
330
4EF
100
AcDbEntity
  8
0
 62
     3
100
AcDbMText
 10
215.2970446896087
 20
376.7003821796879
 30
0.0
 40
3.0
 41
0.0
 71
     5
 72
     1
  1
\A1;75
1001
ACAD
1000
MTEXTBEGIN
1070
    73
1070
     1
1070
    44
1040
1.0
1070
    74
1070
     0
1000
MTEXTEND
  0
POINT
  5
4F6
330
4EF
100
AcDbEntity
  8
DEFPOINTS
 62
     0
100
AcDbPoint
 10
184.3971674468502
 20
327.8447776750053
 30
0.0
  0
POINT
  5
4F7
330
4EF
100
AcDbEntity
  8
DEFPOINTS
 62
     0
100
AcDbPoint
 10
259.3938344468497
 20
359.1447776750046
 30
0.0
  0
POINT
  5
4F8
330
4EF
100
AcDbEntity
  8
DEFPOINTS
 62
     0
100
AcDbPoint
 10
259.3938344468497
 20
374.2003821796879
 30
0.0
  0
ENDBLK
  5
4FA
330
4EF
100
AcDbEntity
  8
0
100
AcDbBlockEnd
  0
ENDSEC
  0
SECTION
  2
ENTITIES
  0
DIMENSION
  5
9D
102
{ACAD_XDICTIONARY
360
9E
102
}
102
{ACAD_REACTORS
330
9F
102
}
330
2
100
AcDbEntity
  8
0
100
AcDbDimension
  2
*D32
 10
181.3365403003826
 20
-8.172385514566485
 30
0.0
 11
162.8365403003681
 21
-8.172385514566485
 31
0.0
 70
   160
  3
STANDARD
100
AcDbAlignedDimension
 13
144.3365403003681
 23
55.28018068602887
 33
0.0
 14
181.3365403003826
 24
16.28018068602887
 34
0.0
100
AcDbRotatedDimension
  0
LINE
  5
AE
330
2
100
AcDbEntity
  8
0
100
AcDbLine
 10
276.3365403003681
 20
16.78018068602887
 30
0.0
 11
276.3365403003681
 21
105.7801806860288
 31
0.0
  0
DIMENSION
  5
AF
330
2
100
AcDbEntity
  8
0
100
AcDbDimension
  2
*D31
 10
315.0105507447606
 20
16.28018068602886
 30
0.0
 11
315.0105507447606
 21
61.28018068602887
 31
0.0
 70
   160
  3
STANDARD
100
AcDbAlignedDimension
 13
295.3365403003681
 23
106.2801806860288
 33
0.0
 14
295.3365403003681
 24
16.28018068602887
 34
0.0
 50
90.0
100
AcDbRotatedDimension
  0
LINE
  5
BC
330
2
100
AcDbEntity
  8
0
100
AcDbLine
 10
187.9365403003685
 20
108.2801796860312
 30
0.0
 11
187.9365403003685
 21
16.28018068602887
 31
0.0
  0
LINE
  5
BD
330
2
100
AcDbEntity
  8
0
100
AcDbLine
 10
181.3365403003826
 20
106.2801806860288
 30
0.0
 11
181.3365403003826
 21
16.28018068602887
 31
0.0
  0
LINE
  5
BE
102
{ACAD_REACTORS
330
FB
102
}
330
2
100
AcDbEntity
  8
0
100
AcDbLine
 10
179.3365403003681
 20
102.7801806860288
 30
0.0
 11
179.3365403003681
 21
19.78018068602887
 31
0.0
  0
LINE
  5
BF
330
2
100
AcDbEntity
  8
0
100
AcDbLine
 10
301.3365403003827
 20
88.68410528778895
 30
0.0
 11
301.3365403003827
 21
33.87625608426606
 31
0.0
  0
LINE
  5
C0
330
2
100
AcDbEntity
  8
0
100
AcDbLine
 10
301.3365403003827
 20
74.68410528778895
 30
0.0
 11
301.3365403003827
 21
47.87625608426606
 31
0.0
  0
DIMENSION
  5
C1
102
{ACAD_XDICTIONARY
360
C2
102
}
102
{ACAD_REACTORS
330
C3
102
}
330
2
100
AcDbEntity
  8
0
100
AcDbDimension
  2
*D30
 10
122.1554044667809
 20
67.28018068602889
 30
0.0
 11
122.1554044667809
 21
61.28018068602891
 31
0.0
 70
   160
  1
\A1;{\f??|b0|i0|c0|p49;%%C}12{\f??|b0|i0|c0|p49;\H0.7x;\S+0^ -0.018;\H1.429x;(h}7{\f??|b0|i0|c0|p49;)}
  3
STANDARD
100
AcDbAlignedDimension
 13
144.3365403003681
 23
55.28018068602887
 33
0.0
 14
174.3365403003681
 24
67.28018068602887
 34
0.0
 50
90.0
100
AcDbRotatedDimension
  0
CIRCLE
  5
D0
330
2
100
AcDbEntity
  8
0
100
AcDbCircle
 10
45.0
 20
61.28018068602887
 30
0.0
 40
20.0
  0
INSERT
  5
D1
330
2
100
AcDbEntity
  8
0
100
AcDbBlockReference
  2
4
 10
44.75272574888186
 20
61.28018068602887
 30
0.0
  0
CIRCLE
  5
F2
330
2
100
AcDbEntity
  8
0
100
AcDbCircle
 10
44.75272574888186
 20
61.28018068602887
 30
0.0
 40
43.5
  0
CIRCLE
  5
F3
330
2
100
AcDbEntity
  8
0
100
AcDbCircle
 10
44.75272574888186
 20
61.28018068602887
 30
0.0
 40
42.00000000000005
  0
ARC
  5
F4
330
2
100
AcDbEntity
  8
0
100
AcDbCircle
 10
9.608313931410521
 20
50.07489164596427
 30
0.0
 40
3.067967999999998
100
AcDbArc
 50
321.9486744805936
 51
17.71980815279071
  0
LINE
  5
F5
330
2
100
AcDbEntity
  8
CEN
100
AcDbLine
 10
44.75272574888186
 20
10.0125604677969
 30
0.0
 11
44.75272574888186
 21
155.5316053608585
 31
0.0
  0
ARC
  5
F8
330
2
100
AcDbEntity
  8
0
100
AcDbCircle
 10
79.74620893798237
 20
50.07489164596427
 30
0.0
 40
3.067967999999998
100
AcDbArc
 50
162.2801918472091
 51
218.0513255194063
  0
DIMENSION
  5
F9
102
{ACAD_XDICTIONARY
360
FA
102
}
102
{ACAD_REACTORS
330
FB
102
}
330
2
100
AcDbEntity
  8
0
100
AcDbDimension
  2
*D29
 10
109.8553990790915
 20
19.78018068602889
 30
0.0
 11
109.8553990790915
 21
59.2608822455204
 31
0.0
 70
   160
  1
\A1;{\f??|b0|i0|c0|p49;%%c}<>{\f??|b0|i0|c0|p49;\H0.7x;\S+0^ -0.035;\H1.429x;(h7)}
  3
STANDARD
100
AcDbAlignedDimension
 13
179.3365403003681
 23
102.7801806860288
 33
0.0
 14
179.3365403003681
 24
19.78018068602887
 34
0.0
 50
90.0
100
AcDbRotatedDimension
  0
DIMENSION
  5
108
330
2
100
AcDbEntity
  8
0
100
AcDbDimension
  2
*D33
 10
90.0
 20
0.6000000000021828
 30
0.0
 11
44.75272574888186
 21
0.6000000000021828
 31
0.0
 70
   160
  3
STANDARD
100
AcDbAlignedDimension
 13
0.0
 23
21.28018068609799
 33
0.0
 14
90.0
 24
21.28018068609799
 34
0.0
100
AcDbRotatedDimension
  0
ARC
  5
115
330
2
100
AcDbEntity
  8
0
100
AcDbCircle
 10
44.67726143470099
 20
61.28018068602887
 30
0.0
 40
33.74764799999999
100
AcDbArc
 50
252.2801918471953
 51
287.7198081528046
  0
ARC
  5
116
330
2
100
AcDbEntity
  8
0
100
AcDbCircle
 10
29.68998314660166
 20
31.04303076996075
 30
0.0
 40
3.067967999999998
100
AcDbArc
 50
243.6343274967394
 51
308.0513255194166
  0
ARC
  5
117
330
2
100
AcDbEntity
  8
0
100
AcDbCircle
 10
44.67726143470099
 20
61.28018068602887
 30
0.0
 40
36.81561599999999
100
AcDbArc
 50
206.3656725032576
 51
243.6343274967394
  0
ARC
  5
118
330
2
100
AcDbEntity
  8
0
100
AcDbCircle
 10
14.44011151863196
 20
46.2929023979259
 30
0.0
 40
3.067967999999998
100
AcDbArc
 50
141.9486744805935
 51
206.3656725032576
  0
LWPOLYLINE
  5
119
330
2
100
AcDbEntity
  8
3
100
AcDbPolyline
 90
        4
 70
     1
 43
0.0
 10
37.7200439335902
 20
1.347349390711315
 10
41.0200439335913
 20
1.347349390711315
 10
41.0200439335913
 20
4.847349390710405
 10
37.7200439335902
 20
4.847349390710405
  0
ARC
  5
11B
330
2
100
AcDbEntity
  8
0
100
AcDbCircle
 10
33.47197239464003
 20
26.21123318274567
 30
0.0
 40
3.067967999999998
100
AcDbArc
 50
72.28019184719541
 51
128.0513255194166
  0
ARC
  5
11C
330
2
100
AcDbEntity
  8
0
100
AcDbCircle
 10
294.3365403003681
 20
47.87625608426606
 30
0.0
 40
7.0
100
AcDbArc
 50
270.0
 51
0.0
  0
LINE
  5
11D
330
2
100
AcDbEntity
  8
0
100
AcDbLine
 10
276.3365403003681
 20
40.87625608426515
 30
0.0
 11
294.3365403003681
 21
40.87625608426515
 31
0.0
  0
DIMENSION
  5
11E
102
{ACAD_XDICTIONARY
360
11F
102
}
102
{ACAD_REACTORS
330
120
102
}
330
2
100
AcDbEntity
  8
0
100
AcDbDimension
  2
*D36
 10
301.3365403003827
 20
-8.172385514566485
 30
0.0
 11
233.8365403003826
 21
-8.172385514566485
 31
0.0
 70
   160
  3
STANDARD
100
AcDbAlignedDimension
 13
181.3365403003826
 23
16.28018068602887
 33
0.0
 14
301.3365403003827
 24
23.28018068602887
 34
0.0
100
AcDbRotatedDimension
  0
LINE
  5
12D
330
2
100
AcDbEntity
  8
0
100
AcDbLine
 10
294.3365403003681
 20
16.28018068602705
 30
0.0
 11
187.9365403003685
 21
16.28018068602887
 31
0.0
  0
LINE
  5
12E
330
2
100
AcDbEntity
  8
0
100
AcDbLine
 10
188.8365403003681
 20
25.38144334450044
 30
0.0
 11
188.8365403003681
 21
17.68144334450153
 31
0.0
  0
LINE
  5
12F
102
{ACAD_REACTORS
330
133
102
}
330
2
100
AcDbEntity
  8
0
100
AcDbLine
 10
181.3365403003826
 20
19.78018068602887
 30
0.0
 11
179.3365403003681
 21
19.78018068602887
 31
0.0
  0
LINE
  5
130
102
{ACAD_REACTORS
330
120
330
146
330
133
330
9F
102
}
330
2
100
AcDbEntity
  8
0
100
AcDbLine
 10
181.3365403003826
 20
16.28018068602887
 30
0.0
 11
187.9365403003685
 21
16.28018068602887
 31
0.0
  0
DIMENSION
  5
131
102
{ACAD_XDICTIONARY
360
132
102
}
102
{ACAD_REACTORS
330
133
102
}
330
2
100
AcDbEntity
  8
0
100
AcDbDimension
  2
*D35
 10
181.3365403003826
 20
1.839713003198085
 30
0.0
 11
170.3365403003681
 21
1.839713003198085
 31
0.0
 70
   160
  3
STANDARD
100
AcDbAlignedDimension
 13
179.3365403003681
 23
19.78018068602887
 33
0.0
 14
181.3365403003826
 24
16.28018068602887
 34
0.0
100
AcDbRotatedDimension
  0
LINE
  5
142
102
{ACAD_REACTORS
330
146
102
}
330
2
100
AcDbEntity
  8
0
100
AcDbLine
 10
187.9365403003685
 20
17.68144334450153
 30
0.0
 11
188.8365403003681
 21
17.68144334450153
 31
0.0
  0
LINE
  5
143
330
2
100
AcDbEntity
  8
0
100
AcDbLine
 10
187.9365403003685
 20
25.38144334450044
 30
0.0
 11
188.8365403003681
 21
25.38144334450044
 31
0.0
  0
DIMENSION
  5
144
102
{ACAD_XDICTIONARY
360
145
102
}
102
{ACAD_REACTORS
330
146
102
}
330
2
100
AcDbEntity
  8
0
100
AcDbDimension
  2
*D34
 10
188.8365403003681
 20
1.839713003198085
 30
0.0
 11
185.0865403003754
 21
1.839713003198085
 31
0.0
 70
   160
  3
STANDARD
100
AcDbAlignedDimension
 13
181.3365403003826
 23
16.28018068602887
 33
0.0
 14
188.8365403003681
 24
17.68144334450153
 34
0.0
100
AcDbRotatedDimension
  0
LINE
  5
153
330
2
100
AcDbEntity
  8
0
100
AcDbLine
 10
284.2368997218109
 20
15.39124530038225
 30
0.0
 11
284.2368997218109
 21
16.28018068602887
 31
0.0
  0
ARC
  5
154
330
2
100
AcDbEntity
  8
0
100
AcDbCircle
 10
280.8035802492904
 20
15.39124530038225
 30
0.0
 40
1.0
100
AcDbArc
 50
180.0
 51
270.0
  0
LINE
  5
155
330
2
100
AcDbEntity
  8
0
100
AcDbLine
 10
280.8035802492904
 20
14.39124530038225
 30
0.0
 11
283.2368997218109
 21
14.39124530038225
 31
0.0
  0
LINE
  5
156
330
2
100
AcDbEntity
  8
0
100
AcDbLine
 10
279.8035802492904
 20
16.28018068602887
 30
0.0
 11
279.8035802492904
 21
15.39124530038225
 31
0.0
  0
ARC
  5
157
330
2
100
AcDbEntity
  8
0
100
AcDbCircle
 10
283.2368997218109
 20
15.39124530038225
 30
0.0
 40
1.0
100
AcDbArc
 50
270.0
 51
0.0
  0
ARC
  5
158
330
2
100
AcDbEntity
  8
0
100
AcDbCircle
 10
294.3365403003681
 20
23.28018068602887
 30
0.0
 40
7.0
100
AcDbArc
 50
270.0
 51
0.0
  0
LINE
  5
159
330
2
100
AcDbEntity
  8
0
100
AcDbLine
 10
301.3365403003827
 20
33.87625608426606
 30
0.0
 11
301.3365403003827
 21
23.28018068602887
 31
0.0
  0
ARC
  5
15A
330
2
100
AcDbEntity
  8
0
100
AcDbCircle
 10
294.3365403003681
 20
33.87625608426606
 30
0.0
 40
7.0
100
AcDbArc
 50
0.0
 51
90.0
  0
ARC
  5
15B
330
2
100
AcDbEntity
  8
0
100
AcDbCircle
 10
44.67726143470099
 20
61.28018068602887
 30
0.0
 40
36.81561599999999
100
AcDbArc
 50
296.3656725032604
 51
333.6343274967423
  0
ARC
  5
15C
330
2
100
AcDbEntity
  8
0
100
AcDbCircle
 10
59.66453972280032
 20
31.04303076996075
 30
0.0
 40
3.067967999999998
100
AcDbArc
 50
231.9486744805834
 51
296.3656725032604
  0
ARC
  5
15D
330
2
100
AcDbEntity
  8
0
100
AcDbCircle
 10
55.88255047476014
 20
26.21123318274567
 30
0.0
 40
3.067967999999998
100
AcDbArc
 50
51.9486744805834
 51
107.7198081528045
  0
ARC
  5
15E
330
2
100
AcDbEntity
  8
0
100
AcDbCircle
 10
74.9144113507682
 20
46.2929023979259
 30
0.0
 40
3.067967999999998
100
AcDbArc
 50
333.6343274967423
 51
38.05132551940634
  0
MTEXT
  5
15F
102
{ACAD_REACTORS
330
160
102
}
330
2
100
AcDbEntity
  8
0
 62
     3
100
AcDbMText
 10
97.03422336559924
 20
4.335732974209349
 30
0.0
 40
3.0
 41
0.0
 71
     4
 72
     1
  1
4-%%C6.5 hole
1001
ACAD
1000
MTEXTBEGIN
1070
    73
1070
     1
1070
    44
1040
1.0
1070
    74
1070
     0
1000
MTEXTEND
  0
LEADER
  5
160
330
2
100
AcDbEntity
  8
0
100
AcDbLeader
  3
STANDARD
 73
     0
 74
     0
 75
     1
 40
3.0
 41
26.65178571428571
 76
     3
 10
82.50397300420081
 20
21.64654257849906
 30
0.0
 10
93.53422336559924
 20
1.835732974209348
 30
0.0
 10
96.03422336559924
 20
1.835732974209348
 30
0.0
340
15F
1001
ACAD
1000
DSTYLE
1002
{
1070
     5
1000

1070
    77
1070
     1
1070
   147
1040
1.0
1070
   342
1005
0
1002
}
  0
DIMENSION
  5
161
102
{ACAD_XDICTIONARY
360
162
102
}
102
{ACAD_REACTORS
330
163
102
}
330
2
100
AcDbEntity
  8
0
100
AcDbDimension
  2
*D41
 10
298.3971674468502
 20
206.5059787145073
 30
0.0
 11
230.8971674468502
 21
206.5059787145073
 31
0.0
 70
   160
  3
STANDARD
100
AcDbAlignedDimension
 13
178.3971674468503
 23
229.1447786750022
 33
0.0
 14
298.3971674468502
 24
236.1447786750022
 34
0.0
100
AcDbRotatedDimension
  0
DIMENSION
  5
170
102
{ACAD_XDICTIONARY
360
171
102
}
102
{ACAD_REACTORS
330
172
102
}
330
2
100
AcDbEntity
  8
0
100
AcDbDimension
  2
*D40
 10
185.8971674468502
 20
215.8701663409665
 30
0.0
 11
182.1471674468502
 21
215.8701663409665
 31
0.0
 70
   160
  3
STANDARD
100
AcDbAlignedDimension
 13
178.3971674468503
 23
229.1447786750022
 33
0.0
 14
185.8971674468502
 24
230.546041333474
 34
0.0
100
AcDbRotatedDimension
  0
DIMENSION
  5
17F
102
{ACAD_XDICTIONARY
360
180
102
}
102
{ACAD_REACTORS
330
181
102
}
330
2
100
AcDbEntity
  8
0
100
AcDbDimension
  2
*D39
 10
178.3971674468503
 20
215.8701663409665
 30
0.0
 11
167.3971674468502
 21
215.8701663409665
 31
0.0
 70
   160
  3
STANDARD
100
AcDbAlignedDimension
 13
176.3971674468503
 23
232.6447786750031
 33
0.0
 14
178.3971674468503
 24
229.1447786750022
 34
0.0
100
AcDbRotatedDimension
  0
DIMENSION
  5
190
330
2
100
AcDbEntity
  8
0
100
AcDbDimension
  2
*D38
 10
89.1987121017919
 20
213.4645979889737
 30
0.0
 11
43.9514378506683
 21
213.4645979889737
 31
0.0
 70
   160
  3
STANDARD
100
AcDbAlignedDimension
 13
-0.8012878982081019
 23
234.1447786750713
 33
0.0
 14
89.1987121017919
 24
234.1447786750713
 34
0.0
100
AcDbRotatedDimension
  0
LEADER
  5
19D
330
2
100
AcDbEntity
  8
0
100
AcDbLeader
  3
STANDARD
 73
     0
 74
     0
 75
     1
 40
3.0
 41
26.65178571428571
 76
     3
 10
81.7026851059909
 20
234.5111405674715
 30
0.0
 10
92.73293546739115
 20
214.7003309631836
 30
0.0
 10
95.23293546739115
 20
214.7003309631836
 30
0.0
340
19E
1001
ACAD
1000
DSTYLE
1002
{
1070
     5
1000

1070
    77
1070
     1
1070
   147
1040
1.0
1070
   342
1005
0
1002
}
  0
MTEXT
  5
19E
102
{ACAD_REACTORS
330
19D
102
}
330
2
100
AcDbEntity
  8
0
 62
     3
100
AcDbMText
 10
96.23293546739114
 20
217.2003309631836
 30
0.0
 40
3.0
 41
0.0
 71
     4
 72
     1
  1
4-%%C6.5 hole
1001
ACAD
1000
MTEXTBEGIN
1070
    73
1070
     1
1070
    44
1040
1.0
1070
    74
1070
     0
1000
MTEXTEND
  0
DIMENSION
  5
19F
102
{ACAD_XDICTIONARY
360
1A0
102
}
102
{ACAD_REACTORS
330
1A1
102
}
330
2
100
AcDbEntity
  8
0
100
AcDbDimension
  2
*D37
 10
178.3971674468503
 20
206.5059787145073
 30
0.0
 11
169.3971674468502
 21
206.5059787145073
 31
0.0
 70
   160
  3
STANDARD
100
AcDbAlignedDimension
 13
157.3971674468502
 23
269.4947786750026
 33
0.0
 14
178.3971674468503
 24
229.1447786750022
 34
0.0
100
AcDbRotatedDimension
  0
LINE
  5
1AE
330
2
100
AcDbEntity
  8
CEN
100
AcDbLine
 10
43.9514378506683
 20
222.8771584567703
 30
0.0
 11
43.9514378506683
 21
368.396203349831
 31
0.0
  0
LINE
  5
1AF
330
2
100
AcDbEntity
  8
CEN
100
AcDbLine
 10
-4.500550465518244
 20
61.28018068602887
 30
0.0
 11
94.00600196328014
 21
61.28018068602887
 31
0.0
  0
LINE
  5
1B0
330
2
100
AcDbEntity
  8
0
100
AcDbLine
 10
44.75272574888186
 20
149.2801806860988
 30
0.0
 11
16.22442074888022
 21
149.2801806860988
 31
0.0
  0
LINE
  5
1B1
330
2
100
AcDbEntity
  8
0
100
AcDbLine
 10
75.75272574888185
 20
114.9801806860996
 30
0.0
 11
13.75272574888185
 21
114.9801806860996
 31
0.0
  0
LINE
  5
1B2
102
{ACAD_REACTORS
330
1B5
102
}
330
2
100
AcDbEntity
  8
0
100
AcDbLine
 10
44.75272574888186
 20
114.2801806860979
 30
0.0
 11
13.75272574888185
 21
114.2801806860979
 31
0.0
  0
DIMENSION
  5
1B3
102
{ACAD_XDICTIONARY
360
1B4
102
}
102
{ACAD_REACTORS
330
1B5
102
}
330
2
100
AcDbEntity
  8
0
100
AcDbDimension
  2
*D42
 10
75.75272574888185
 20
163.1899102815232
 30
0.0
 11
44.75272574888186
 21
163.1899102815232
 31
0.0
 70
   160
  3
STANDARD
100
AcDbAlignedDimension
 13
13.75272574888185
 23
114.2801806860979
 33
0.0
 14
75.75272574888185
 24
114.2801806860979
 34
0.0
100
AcDbRotatedDimension
  0
ARC
  5
1C2
330
2
100
AcDbEntity
  8
0
100
AcDbCircle
 10
44.67726143470099
 20
61.28018068602887
 30
0.0
 40
33.74764799999999
100
AcDbArc
 50
72.28019184719541
 51
107.7198081528045
  0
LINE
  5
1C3
330
2
100
AcDbEntity
  8
0
100
AcDbLine
 10
48.31662479036094
 20
66.28018068602887
 30
0.0
 11
41.68337520964996
 21
66.28018068602887
 31
0.0
  0
CIRCLE
  5
1C4
330
2
100
AcDbEntity
  8
0
100
AcDbCircle
 10
45.0
 20
61.28018068602887
 30
0.0
 40
6.0
  0
ARC
  5
1C5
330
2
100
AcDbEntity
  8
0
100
AcDbCircle
 10
29.68998314660166
 20
91.51733060209881
 30
0.0
 40
3.067967999999998
100
AcDbArc
 50
51.9486744805834
 51
116.3656725032604
  0
LINE
  5
1C6
330
2
100
AcDbEntity
  8
0
100
AcDbLine
 10
29.75272574888185
 20
108.2801806860979
 30
0.0
 11
15.17285874888148
 21
108.2801806860979
 31
0.0
  0
ARC
  5
1C7
330
2
100
AcDbEntity
  8
0
100
AcDbCircle
 10
16.22442074888022
 20
148.7801806860979
 30
0.0
 40
0.5
100
AcDbArc
 50
90.0
 51
176.6629169999623
  0
ARC
  5
1C8
330
2
100
AcDbEntity
  8
0
100
AcDbCircle
 10
9.608313931410521
 20
72.48546972609165
 30
0.0
 40
3.067967999999998
100
AcDbArc
 50
342.2801918472092
 51
38.05132551940634
  0
ARC
  5
1C9
330
2
100
AcDbEntity
  8
0
100
AcDbCircle
 10
44.67726143470099
 20
61.28018068602887
 30
0.0
 40
33.74764799999999
100
AcDbArc
 50
162.2801918472091
 51
197.7198081527907
  0
ARC
  5
1CA
330
2
100
AcDbEntity
  8
0
100
AcDbCircle
 10
44.67726143470099
 20
61.28018068602887
 30
0.0
 40
36.81561599999999
100
AcDbArc
 50
116.3656725032604
 51
153.6343274967423
  0
ARC
  5
1CB
330
2
100
AcDbEntity
  8
0
100
AcDbCircle
 10
14.44011151863196
 20
76.26745897413184
 30
0.0
 40
3.067967999999998
100
AcDbArc
 50
153.6343274967423
 51
218.0513255194063
  0
ARC
  5
1CC
330
2
100
AcDbEntity
  8
0
100
AcDbCircle
 10
15.17285874888148
 20
109.2801806860989
 30
0.0
 40
1.0
100
AcDbArc
 50
184.7636420000051
 51
270.0
  0
LINE
  5
1CD
330
2
100
AcDbEntity
  8
0
100
AcDbLine
 10
14.17631374888151
 20
109.1971356860995
 30
0.0
 11
13.75272574888185
 21
114.2801806860979
 31
0.0
  0
ARC
  5
1CE
330
2
100
AcDbEntity
  8
0
100
AcDbCircle
 10
16.75272574888185
 20
107.2801806860979
 30
0.0
 40
1.0
100
AcDbArc
 50
0.0
 51
90.0
  0
LINE
  5
1CF
330
2
100
AcDbEntity
  8
0
100
AcDbLine
 10
17.75272574888185
 20
107.2801806860979
 30
0.0
 11
17.75272574888185
 21
106.2801806860979
 31
0.0
  0
LINE
  5
1D0
330
2
100
AcDbEntity
  8
0
100
AcDbLine
 10
14.45272574888076
 20
114.9801806860996
 30
0.0
 11
14.45272574888076
 21
114.2801806860979
 31
0.0
  0
LINE
  5
1D1
330
2
100
AcDbEntity
  8
0
100
AcDbLine
 10
13.75272574888185
 20
114.9801806860996
 30
0.0
 11
15.72526874888171
 21
148.8092856860994
 31
0.0
  0
LWPOLYLINE
  5
1D2
330
2
100
AcDbEntity
  8
3
100
AcDbPolyline
 90
        4
 70
     1
 43
0.0
 10
36.9187560353821
 20
214.2119473796847
 10
40.21875603536864
 20
214.2119473796847
 10
40.21875603536864
 20
217.7119473796847
 10
36.9187560353821
 20
217.7119473796847
  0
ARC
  5
1D3
330
2
100
AcDbEntity
  8
0
100
AcDbCircle
 10
33.47197239464003
 20
96.34912818931207
 30
0.0
 40
3.067967999999998
100
AcDbArc
 50
231.9486744805834
 51
287.7198081528046
  0
LINE
  5
1D4
330
2
100
AcDbEntity
  8
0
100
AcDbLine
 10
29.75272574888185
 20
108.2801806860979
 30
0.0
 11
29.75272574888185
 21
106.2801806860979
 31
0.0
  0
LINE
  5
1D5
330
2
100
AcDbEntity
  8
CEN
100
AcDbLine
 10
294.4454400472496
 20
61.28018068602887
 30
0.0
 11
134.688831955209
 21
61.28018068602887
 31
0.0
  0
DIMENSION
  5
1D6
102
{ACAD_XDICTIONARY
360
1D7
102
}
102
{ACAD_REACTORS
330
1D8
102
}
330
2
100
AcDbEntity
  8
0
100
AcDbDimension
  2
*D48
 10
174.3365403003681
 20
77.35353809543176
 30
0.0
 11
160.5952246648703
 21
77.35353809543176
 31
0.0
 70
   160
  3
STANDARD
100
AcDbAlignedDimension
 13
144.3365403003681
 23
66.28018068602887
 33
0.0
 14
174.3365403003681
 24
67.28018068602887
 34
0.0
100
AcDbRotatedDimension
  0
LINE
  5
1E5
102
{ACAD_REACTORS
330
1D8
330
1E9
102
}
330
2
100
AcDbEntity
  8
CL
  6
BYBLOCK
 62
     0
100
AcDbLine
 10
174.3365403003681
 20
66.28018068602887
 30
0.0
 11
144.3365403003681
 21
66.28018068602887
 31
0.0
  0
LINE
  5
1E6
102
{ACAD_REACTORS
330
1E9
330
C3
102
}
330
2
100
AcDbEntity
  8
CL
  6
BYBLOCK
 62
     0
100
AcDbLine
 10
179.3365403003681
 20
55.28018068602887
 30
0.0
 11
144.3365403003681
 21
55.28018068602887
 31
0.0
  0
DIMENSION
  5
1E7
102
{ACAD_XDICTIONARY
360
1E8
102
}
102
{ACAD_REACTORS
330
1E9
102
}
330
2
100
AcDbEntity
  8
0
100
AcDbDimension
  2
*D47
 10
131.8680594196594
 20
66.28018068602887
 30
0.0
 11
131.8680594196594
 21
60.78018068602887
 31
0.0
 70
   160
  1
<>
  3
STANDARD
100
AcDbAlignedDimension
 13
144.3365403003681
 23
55.28018068602887
 33
0.0
 14
144.3365403003681
 24
66.28018068602887
 34
0.0
 50
90.0
100
AcDbRotatedDimension
  0
LINE
  5
1F6
330
2
100
AcDbEntity
  8
0
100
AcDbLine
 10
144.3365403003681
 20
66.28018068602887
 30
0.0
 11
144.3365403003681
 21
55.28018068602887
 31
0.0
  0
LINE
  5
1F7
330
2
100
AcDbEntity
  8
0
100
AcDbLine
 10
244.4532073003829
 20
96.44489802755835
 30
0.0
 11
187.9365403003685
 21
96.44489802755742
 31
0.0
  0
LINE
  5
1F8
330
2
100
AcDbEntity
  8
CEN
 48
0.6
100
AcDbLine
 10
296.1170013003829
 20
131.2801796860303
 30
0.0
 11
184.9078983472918
 21
131.2801796860303
 31
0.0
  0
LINE
  5
1F9
330
2
100
AcDbEntity
  8
0
100
AcDbLine
 10
294.3365403003681
 20
106.280180686027
 30
0.0
 11
187.9365403003685
 21
106.2801806860288
 31
0.0
  0
LINE
  5
1FA
330
2
100
AcDbEntity
  8
0
100
AcDbLine
 10
259.8615123003819
 20
149.2801796860312
 30
0.0
 11
189.9233033003674
 21
149.2801796860312
 31
0.0
  0
DIMENSION
  5
1FB
102
{ACAD_XDICTIONARY
360
1FC
102
}
102
{ACAD_REACTORS
330
1FD
102
}
330
2
100
AcDbEntity
  8
0
100
AcDbDimension
  2
*D46
 10
262.3332073003675
 20
161.3357841907145
 30
0.0
 11
218.2364175431412
 21
161.3357841907145
 31
0.0
 70
   160
  3
STANDARD
100
AcDbAlignedDimension
 13
187.3365403003681
 23
114.980179686031
 33
0.0
 14
262.3332073003675
 24
146.2801796860312
 34
0.0
100
AcDbRotatedDimension
  0
LINE
  5
20A
102
{ACAD_REACTORS
330
219
330
1FD
102
}
330
2
100
AcDbEntity
  8
0
100
AcDbLine
 10
262.3332073003675
 20
114.980179686031
 30
0.0
 11
187.3365403003681
 21
114.980179686031
 31
0.0
  0
LINE
  5
20B
330
2
100
AcDbEntity
  8
0
100
AcDbLine
 10
262.3332073003675
 20
114.2801796860312
 30
0.0
 11
187.4532073003829
 21
114.2801796860312
 31
0.0
  0
LINE
  5
20C
330
2
100
AcDbEntity
  8
0
100
AcDbLine
 10
260.4860803003684
 20
108.2801796860312
 30
0.0
 11
187.9365403003685
 21
108.2801796860312
 31
0.0
  0
LINE
  5
20D
330
2
100
AcDbEntity
  8
0
100
AcDbLine
 10
188.8365403003681
 20
97.17891802755822
 30
0.0
 11
188.8365403003681
 21
104.8789180275571
 31
0.0
  0
LINE
  5
20E
330
2
100
AcDbEntity
  8
0
100
AcDbLine
 10
174.3365403003681
 20
67.28018068602887
 30
0.0
 11
174.3365403003681
 21
66.28018068602887
 31
0.0
  0
LINE
  5
20F
102
{ACAD_REACTORS
330
1D8
330
C3
102
}
330
2
100
AcDbEntity
  8
CL
  6
BYBLOCK
 62
     0
100
AcDbLine
 10
179.3365403003681
 20
67.28018068602887
 30
0.0
 11
174.3365403003681
 21
67.28018068602887
 31
0.0
  0
LINE
  5
210
330
2
100
AcDbEntity
  8
0
100
AcDbLine
 10
181.3365403003826
 20
102.7801806860288
 30
0.0
 11
179.3365403003681
 21
102.7801806860288
 31
0.0
  0
LINE
  5
211
330
2
100
AcDbEntity
  8
0
100
AcDbLine
 10
187.9365403003685
 20
97.17891802755822
 30
0.0
 11
188.8365403003681
 21
97.17891802755822
 31
0.0
  0
LINE
  5
212
330
2
100
AcDbEntity
  8
0
100
AcDbLine
 10
188.1532073003672
 20
114.980179686031
 30
0.0
 11
188.1532073003672
 21
114.2801796860312
 31
0.0
  0
ARC
  5
213
330
2
100
AcDbEntity
  8
0
100
AcDbCircle
 10
189.9233033003674
 20
148.7801796860303
 30
0.0
 40
0.5
100
AcDbArc
 50
90.0
 51
176.4687330000435
  0
LINE
  5
214
330
2
100
AcDbEntity
  8
0
100
AcDbLine
 10
187.3365403003681
 20
114.980179686031
 30
0.0
 11
189.4242523003831
 21
148.8109766860288
 31
0.0
  0
LINE
  5
215
330
2
100
AcDbEntity
  8
0
100
AcDbLine
 10
181.3365403003826
 20
106.2801806860288
 30
0.0
 11
187.9365403003685
 21
106.2801806860288
 31
0.0
  0
LINE
  5
216
330
2
100
AcDbEntity
  8
0
100
AcDbLine
 10
187.9365403003685
 20
104.8789180275571
 30
0.0
 11
188.8365403003681
 21
104.8789180275571
 31
0.0
  0
DIMENSION
  5
217
102
{ACAD_XDICTIONARY
360
218
102
}
102
{ACAD_REACTORS
330
219
102
}
330
2
100
AcDbEntity
  8
0
100
AcDbDimension
  2
*D45
 10
187.3365403003681
 20
161.3357841907145
 30
0.0
 11
184.3365403003754
 21
161.3357841907145
 31
0.0
 70
   160
  3
STANDARD
100
AcDbAlignedDimension
 13
181.3365403003826
 23
106.2801806860288
 33
0.0
 14
187.3365403003681
 24
114.980179686031
 34
0.0
100
AcDbRotatedDimension
  0
LINE
  5
228
330
2
100
AcDbEntity
  8
0
100
AcDbLine
 10
187.4532073003829
 20
114.2801796860312
 30
0.0
 11
188.4532073003829
 21
108.2801796860312
 31
0.0
  0
ARC
  5
229
330
2
100
AcDbEntity
  8
0
100
AcDbCircle
 10
294.3365403003681
 20
99.28018068602888
 30
0.0
 40
7.0
100
AcDbArc
 50
0.0
 51
90.0
  0
LINE
  5
22A
330
2
100
AcDbEntity
  8
0
100
AcDbLine
 10
244.4532073003829
 20
106.7801796860312
 30
0.0
 11
244.4532073003829
 21
96.44489802755742
 31
0.0
  0
LINE
  5
22B
330
2
100
AcDbEntity
  8
0
100
AcDbLine
 10
276.3365403003681
 20
81.68410528778895
 30
0.0
 11
294.3365403003681
 21
81.68410528778895
 31
0.0
  0
LINE
  5
22C
330
2
100
AcDbEntity
  8
0
100
AcDbLine
 10
281.7763624814105
 20
62.13520369773596
 30
0.0
 11
283.4827697087421
 21
60.42879647040535
 31
0.0
  0
LINE
  5
22D
330
2
100
AcDbEntity
  8
0
100
AcDbLine
 10
283.4864085048302
 20
62.13520369773596
 30
0.0
 11
281.7800012774987
 21
60.42879647040535
 31
0.0
  0
CIRCLE
  5
22E
330
2
100
AcDbEntity
  8
0
100
AcDbCircle
 10
282.6313854931195
 20
61.28018068602887
 30
0.0
 40
2.147836038934201
  0
LWPOLYLINE
  5
22F
330
2
100
AcDbEntity
  8
3
100
AcDbPolyline
 90
        4
 70
     1
 43
0.0
 10
314.4968174692403
 20
54.99761573778778
 10
314.4968174692403
 20
58.29761573778796
 10
310.9968174692403
 20
58.29761573778796
 10
310.9968174692403
 20
54.99761573778778
  0
LINE
  5
230
330
2
100
AcDbEntity
  8
0
100
AcDbLine
 10
301.3365403003827
 20
99.28018068602888
 30
0.0
 11
301.3365403003827
 21
88.68410528778895
 31
0.0
  0
ARC
  5
231
330
2
100
AcDbEntity
  8
0
100
AcDbCircle
 10
294.3365403003681
 20
74.68410528778895
 30
0.0
 40
7.0
100
AcDbArc
 50
0.0
 51
90.0
  0
ARC
  5
232
330
2
100
AcDbEntity
  8
0
100
AcDbCircle
 10
294.3365403003681
 20
88.68410528778895
 30
0.0
 40
7.0
100
AcDbArc
 50
270.0
 51
0.0
  0
ARC
  5
233
330
2
100
AcDbEntity
  8
0
100
AcDbCircle
 10
283.8332073003821
 20
125.980179686031
 30
0.0
 40
6.718630999999999
100
AcDbArc
 50
274.2678929999499
 51
345.3432489999617
  0
ARC
  5
234
330
2
100
AcDbEntity
  8
0
100
AcDbCircle
 10
283.8332073003821
 20
136.5801796860287
 30
0.0
 40
6.718630999999999
100
AcDbArc
 50
14.65675100003822
 51
85.73210700004995
  0
LINE
  5
235
330
2
100
AcDbEntity
  8
0
100
AcDbLine
 10
262.3332073003675
 20
114.980179686031
 30
0.0
 11
260.360665300368
 21
148.8092846860299
 31
0.0
  0
DIMENSION
  5
236
102
{ACAD_XDICTIONARY
360
237
102
}
102
{ACAD_REACTORS
330
238
102
}
330
2
100
AcDbEntity
  8
0
100
AcDbDimension
  2
*D44
 10
290.3332073003821
 20
161.3192131702026
 30
0.0
 11
276.3332073003821
 21
161.3192131702026
 31
0.0
 70
   160
  1
MAX. <>
  3
STANDARD
100
AcDbAlignedDimension
 13
262.3332073003675
 23
146.2801796860312
 33
0.0
 14
290.3332073003821
 24
138.2801796860312
 34
0.0
100
AcDbRotatedDimension
  0
LINE
  5
245
102
{ACAD_REACTORS
330
238
102
}
330
2
100
AcDbEntity
  8
0
100
AcDbLine
 10
262.3332073003675
 20
146.2801796860312
 30
0.0
 11
262.3332073003675
 21
114.980179686031
 31
0.0
  0
ARC
  5
246
330
2
100
AcDbEntity
  8
0
100
AcDbCircle
 10
274.2498743003816
 20
131.2801796860303
 30
0.0
 40
9.083332999999999
100
AcDbArc
 50
326.601511999943
 51
33.398488000057
  0
LINE
  5
247
330
2
100
AcDbEntity
  8
0
100
AcDbLine
 10
273.3332073003821
 20
144.2801796860303
 30
0.0
 11
273.3332073003821
 21
118.2801796860303
 31
0.0
  0
LINE
  5
248
330
2
100
AcDbEntity
  8
0
100
AcDbLine
 10
283.3332073003821
 20
143.2801796860312
 30
0.0
 11
283.3332073003821
 21
119.2801796860303
 31
0.0
  0
LINE
  5
249
330
2
100
AcDbEntity
  8
0
100
AcDbLine
 10
267.3332073003821
 20
144.2801796860303
 30
0.0
 11
267.3332073003821
 21
118.2801796860303
 31
0.0
  0
LINE
  5
24A
102
{ACAD_REACTORS
330
238
102
}
330
2
100
AcDbEntity
  8
0
100
AcDbLine
 10
290.3332073003821
 20
138.2801796860312
 30
0.0
 11
290.3332073003821
 21
124.2801796860312
 31
0.0
  0
LINE
  5
24B
330
2
100
AcDbEntity
  8
0
100
AcDbLine
 10
267.3332073003821
 20
118.2801796860303
 30
0.0
 11
262.3332073003675
 21
118.2801796860303
 31
0.0
  0
LINE
  5
24C
330
2
100
AcDbEntity
  8
0
100
AcDbLine
 10
267.3332073003821
 20
123.2801796860303
 30
0.0
 11
262.3332073003675
 21
123.2801796860303
 31
0.0
  0
LINE
  5
24D
330
2
100
AcDbEntity
  8
0
100
AcDbLine
 10
267.3332073003821
 20
125.7801796860312
 30
0.0
 11
262.3332073003675
 21
125.7801796860312
 31
0.0
  0
LINE
  5
24E
330
2
100
AcDbEntity
  8
0
100
AcDbLine
 10
261.6332073003686
 20
114.980179686031
 30
0.0
 11
261.6332073003686
 21
114.2801796860312
 31
0.0
  0
LINE
  5
24F
330
2
100
AcDbEntity
  8
0
100
AcDbLine
 10
281.8332073003821
 20
126.2801796860303
 30
0.0
 11
273.3332073003821
 21
126.2801796860303
 31
0.0
  0
LINE
  5
250
330
2
100
AcDbEntity
  8
0
100
AcDbLine
 10
281.8332073003821
 20
118.2801796860303
 30
0.0
 11
283.3332073003821
 21
119.2801796860303
 31
0.0
  0
LINE
  5
251
330
2
100
AcDbEntity
  8
0
100
AcDbLine
 10
284.3332073003675
 20
119.2801796860303
 30
0.0
 11
283.3332073003821
 21
119.2801796860303
 31
0.0
  0
ARC
  5
252
330
2
100
AcDbEntity
  8
0
100
AcDbCircle
 10
274.2498743003816
 20
119.2801796860303
 30
0.0
 40
9.083332999999999
100
AcDbArc
 50
0.0
 51
33.398488000057
  0
LINE
  5
253
330
2
100
AcDbEntity
  8
0
100
AcDbLine
 10
281.8332073003821
 20
118.2801796860303
 30
0.0
 11
273.3332073003821
 21
118.2801796860303
 31
0.0
  0
LINE
  5
254
330
2
100
AcDbEntity
  8
0
100
AcDbLine
 10
283.3332073003821
 20
119.2801796860303
 30
0.0
 11
273.3332073003821
 21
119.2801796860303
 31
0.0
  0
LINE
  5
255
330
2
100
AcDbEntity
  8
0
100
AcDbLine
 10
281.8332073003821
 20
124.2801796860312
 30
0.0
 11
273.3332073003821
 21
124.2801796860312
 31
0.0
  0
LINE
  5
256
330
2
100
AcDbEntity
  8
0
100
AcDbLine
 10
282.2509333003818
 20
123.5801796860305
 30
0.0
 11
273.3332073003821
 21
123.5801796860305
 31
0.0
  0
LINE
  5
257
330
2
100
AcDbEntity
  8
0
100
AcDbLine
 10
281.8332073003821
 20
126.2801796860303
 30
0.0
 11
281.8332073003821
 21
124.2801796860312
 31
0.0
  0
LINE
  5
258
330
2
100
AcDbEntity
  8
0
100
AcDbLine
 10
273.3332073003821
 20
122.2801796860303
 30
0.0
 11
267.3332073003821
 21
122.2801796860303
 31
0.0
  0
LINE
  5
259
330
2
100
AcDbEntity
  8
0
100
AcDbLine
 10
273.3332073003821
 20
121.2801796860303
 30
0.0
 11
267.3332073003821
 21
121.2801796860303
 31
0.0
  0
LINE
  5
25A
330
2
100
AcDbEntity
  8
0
100
AcDbLine
 10
267.3332073003821
 20
136.7801796860312
 30
0.0
 11
262.3332073003675
 21
136.7801796860312
 31
0.0
  0
LINE
  5
25B
330
2
100
AcDbEntity
  8
0
100
AcDbLine
 10
267.3332073003821
 20
139.2801796860303
 30
0.0
 11
262.3332073003675
 21
139.2801796860303
 31
0.0
  0
LINE
  5
25C
330
2
100
AcDbEntity
  8
0
100
AcDbLine
 10
267.3332073003821
 20
144.2801796860303
 30
0.0
 11
262.3332073003675
 21
144.2801796860303
 31
0.0
  0
LINE
  5
25D
102
{ACAD_REACTORS
330
1FD
102
}
330
2
100
AcDbEntity
  8
0
100
AcDbLine
 10
262.3332073003675
 20
146.2801796860312
 30
0.0
 11
260.9798293003823
 21
146.2801796860312
 31
0.0
  0
ARC
  5
25E
330
2
100
AcDbEntity
  8
0
100
AcDbCircle
 10
260.9798293003823
 20
146.7801796860303
 30
0.0
 40
0.5
100
AcDbArc
 50
183.3370830000376
 51
270.0
  0
LINE
  5
25F
330
2
100
AcDbEntity
  8
0
100
AcDbLine
 10
281.8332073003821
 20
144.2801796860303
 30
0.0
 11
283.3332073003821
 21
143.2801796860312
 31
0.0
  0
LINE
  5
260
330
2
100
AcDbEntity
  8
0
100
AcDbLine
 10
284.3332073003675
 20
143.2801796860312
 30
0.0
 11
283.3332073003821
 21
143.2801796860312
 31
0.0
  0
LINE
  5
261
330
2
100
AcDbEntity
  8
0
100
AcDbLine
 10
281.8332073003821
 20
144.2801796860303
 30
0.0
 11
273.3332073003821
 21
144.2801796860303
 31
0.0
  0
LINE
  5
262
330
2
100
AcDbEntity
  8
0
100
AcDbLine
 10
283.3332073003821
 20
143.2801796860312
 30
0.0
 11
273.3332073003821
 21
143.2801796860312
 31
0.0
  0
LINE
  5
263
330
2
100
AcDbEntity
  8
0
100
AcDbLine
 10
281.8332073003821
 20
138.2801796860312
 30
0.0
 11
281.8332073003821
 21
136.2801796860303
 31
0.0
  0
LINE
  5
264
330
2
100
AcDbEntity
  8
0
100
AcDbLine
 10
281.8332073003821
 20
136.2801796860303
 30
0.0
 11
273.3332073003821
 21
136.2801796860303
 31
0.0
  0
LINE
  5
265
330
2
100
AcDbEntity
  8
0
100
AcDbLine
 10
281.8332073003821
 20
138.2801796860312
 30
0.0
 11
273.3332073003821
 21
138.2801796860312
 31
0.0
  0
LINE
  5
266
330
2
100
AcDbEntity
  8
0
100
AcDbLine
 10
282.2509333003818
 20
138.980179686031
 30
0.0
 11
273.3332073003821
 21
138.980179686031
 31
0.0
  0
LINE
  5
267
330
2
100
AcDbEntity
  8
0
100
AcDbLine
 10
282.631815300383
 20
134.7801796860303
 30
0.0
 11
273.3332073003821
 21
134.7801796860303
 31
0.0
  0
LINE
  5
268
330
2
100
AcDbEntity
  8
0
100
AcDbLine
 10
282.631815300383
 20
127.7801796860303
 30
0.0
 11
273.3332073003821
 21
127.7801796860303
 31
0.0
  0
ARC
  5
269
330
2
100
AcDbEntity
  8
0
100
AcDbCircle
 10
274.2498743003816
 20
143.2801796860312
 30
0.0
 40
9.083332999999999
100
AcDbArc
 50
326.601511999943
 51
0.0
  0
LINE
  5
26A
330
2
100
AcDbEntity
  8
0
100
AcDbLine
 10
273.3332073003821
 20
140.2801796860312
 30
0.0
 11
267.3332073003821
 21
140.2801796860312
 31
0.0
  0
LINE
  5
26B
330
2
100
AcDbEntity
  8
0
100
AcDbLine
 10
273.3332073003821
 20
141.2801796860303
 30
0.0
 11
267.3332073003821
 21
141.2801796860303
 31
0.0
  0
ARC
  5
26C
330
2
100
AcDbEntity
  8
0
100
AcDbCircle
 10
259.8615123003819
 20
148.7801796860303
 30
0.0
 40
0.5
100
AcDbArc
 50
3.337083000037623
 51
90.0
  0
LINE
  5
26D
330
2
100
AcDbEntity
  8
0
100
AcDbLine
 10
284.2368997218109
 20
107.1691160716727
 30
0.0
 11
284.2368997218109
 21
106.2801806860288
 31
0.0
  0
ARC
  5
26E
330
2
100
AcDbEntity
  8
0
100
AcDbCircle
 10
280.8035802492904
 20
107.1691160716727
 30
0.0
 40
1.0
100
AcDbArc
 50
90.0
 51
180.0
  0
LINE
  5
26F
330
2
100
AcDbEntity
  8
0
100
AcDbLine
 10
279.8035802492904
 20
106.2801806860288
 30
0.0
 11
279.8035802492904
 21
107.1691160716727
 31
0.0
  0
LINE
  5
270
330
2
100
AcDbEntity
  8
0
100
AcDbLine
 10
280.8035802492904
 20
108.1691160716727
 30
0.0
 11
283.2368997218109
 21
108.1691160716727
 31
0.0
  0
ARC
  5
271
330
2
100
AcDbEntity
  8
0
100
AcDbCircle
 10
283.2368997218109
 20
107.1691160716727
 30
0.0
 40
1.0
100
AcDbArc
 50
0.0
 51
90.0
  0
ARC
  5
272
330
2
100
AcDbEntity
  8
0
100
AcDbCircle
 10
260.4860803003684
 20
109.2801796860303
 30
0.0
 40
1.0
100
AcDbArc
 50
270.0
 51
350.5376779999607
  0
ARC
  5
273
330
2
100
AcDbEntity
  8
0
100
AcDbCircle
 10
245.9532073003829
 20
106.7801796860312
 30
0.0
 40
1.5
100
AcDbArc
 50
90.0
 51
180.0
  0
LINE
  5
274
330
2
100
AcDbEntity
  8
0
100
AcDbLine
 10
262.3332073003675
 20
114.2801796860312
 30
0.0
 11
261.472474300368
 21
109.1157806860319
 31
0.0
  0
LINE
  5
275
330
2
100
AcDbEntity
  8
0
100
AcDbLine
 10
44.75272574888186
 20
149.2801806860988
 30
0.0
 11
73.2810317488802
 21
149.2801806860988
 31
0.0
  0
ARC
  5
276
330
2
100
AcDbEntity
  8
0
100
AcDbCircle
 10
73.2810317488802
 20
148.7801806860979
 30
0.0
 40
0.5
100
AcDbArc
 50
3.337083000037623
 51
90.0
  0
ARC
  5
277
330
2
100
AcDbEntity
  8
0
100
AcDbCircle
 10
44.67726143470099
 20
61.28018068602887
 30
0.0
 40
36.81561599999999
100
AcDbArc
 50
26.36567250325756
 51
63.63432749673943
  0
ARC
  5
278
330
2
100
AcDbEntity
  8
0
100
AcDbCircle
 10
55.88255047476014
 20
96.34912818931207
 30
0.0
 40
3.067967999999998
100
AcDbArc
 50
252.2801918471953
 51
308.0513255194166
  0
ARC
  5
279
330
2
100
AcDbEntity
  8
0
100
AcDbCircle
 10
59.66453972280032
 20
91.51733060209881
 30
0.0
 40
3.067967999999998
100
AcDbArc
 50
63.63432749673943
 51
128.0513255194166
  0
ARC
  5
27A
330
2
100
AcDbEntity
  8
0
100
AcDbCircle
 10
79.74620893798237
 20
72.48546972609165
 30
0.0
 40
3.067967999999998
100
AcDbArc
 50
141.9486744805935
 51
197.7198081527907
  0
ARC
  5
27B
330
2
100
AcDbEntity
  8
0
100
AcDbCircle
 10
44.67726143470099
 20
61.28018068602887
 30
0.0
 40
33.74764799999999
100
AcDbArc
 50
342.2801918472092
 51
17.71980815279071
  0
ARC
  5
27C
330
2
100
AcDbEntity
  8
0
100
AcDbCircle
 10
74.9144113507682
 20
76.26745897413184
 30
0.0
 40
3.067967999999998
100
AcDbArc
 50
321.9486744805936
 51
26.36567250325756
  0
LINE
  5
27D
330
2
100
AcDbEntity
  8
0
100
AcDbLine
 10
59.75272574888186
 20
108.2801806860979
 30
0.0
 11
74.33259374888075
 21
108.2801806860979
 31
0.0
  0
LINE
  5
27E
330
2
100
AcDbEntity
  8
0
100
AcDbLine
 10
44.75272574888186
 20
114.2801806860979
 30
0.0
 11
75.75272574888185
 21
114.2801806860979
 31
0.0
  0
LINE
  5
27F
330
2
100
AcDbEntity
  8
0
100
AcDbLine
 10
59.75272574888186
 20
108.2801806860979
 30
0.0
 11
59.75272574888186
 21
106.2801806860979
 31
0.0
  0
ARC
  5
280
330
2
100
AcDbEntity
  8
0
100
AcDbCircle
 10
72.75272574888186
 20
107.2801806860979
 30
0.0
 40
1.0
100
AcDbArc
 50
90.0
 51
180.0
  0
ARC
  5
281
330
2
100
AcDbEntity
  8
0
100
AcDbCircle
 10
74.33259374888075
 20
109.2801806860989
 30
0.0
 40
1.0
100
AcDbArc
 50
270.0
 51
355.2363579999948
  0
LINE
  5
282
102
{ACAD_REACTORS
330
1B5
102
}
330
2
100
AcDbEntity
  8
0
100
AcDbLine
 10
75.32913874888072
 20
109.1971356860995
 30
0.0
 11
75.75272574888185
 21
114.2801806860979
 31
0.0
  0
LINE
  5
283
330
2
100
AcDbEntity
  8
0
100
AcDbLine
 10
75.05272574888113
 20
114.9801806860996
 30
0.0
 11
75.05272574888113
 21
114.2801806860979
 31
0.0
  0
LINE
  5
284
330
2
100
AcDbEntity
  8
0
100
AcDbLine
 10
71.75272574888186
 20
107.2801806860979
 30
0.0
 11
71.75272574888186
 21
106.2801806860979
 31
0.0
  0
LINE
  5
285
330
2
100
AcDbEntity
  8
0
100
AcDbLine
 10
75.75272574888185
 20
114.9801806860996
 30
0.0
 11
73.78018374888052
 21
148.8092856860994
 31
0.0
  0
DIMENSION
  5
286
330
2
100
AcDbEntity
  8
0
100
AcDbDimension
  2
*D43
 10
92.0720718201319
 20
149.2801806860988
 30
0.0
 11
92.0720718201319
 21
129.3750164831835
 31
0.0
 70
   160
  3
STANDARD
100
AcDbAlignedDimension
 13
85.30789442770947
 23
106.2801806860979
 33
0.0
 14
72.91615543399166
 24
149.2801806860988
 34
0.0
 50
90.0
100
AcDbRotatedDimension
  0
CIRCLE
  5
293
330
2
100
AcDbEntity
  8
0
100
AcDbCircle
 10
44.1987121017919
 20
274.1447786750022
 30
0.0
 40
20.0
  0
LINE
  5
294
330
2
100
AcDbEntity
  8
0
100
AcDbLine
 10
43.9514378506683
 20
362.1447786750714
 30
0.0
 11
15.42313285066848
 21
362.1447786750714
 31
0.0
  0
LINE
  5
295
102
{ACAD_REACTORS
330
29A
102
}
330
2
100
AcDbEntity
  8
0
100
AcDbLine
 10
43.9514378506683
 20
327.1447786750714
 30
0.0
 11
12.95143785066829
 21
327.1447786750714
 31
0.0
  0
LINE
  5
296
330
2
100
AcDbEntity
  8
CEN
100
AcDbLine
 10
-5.301838363731803
 20
274.1447786750022
 30
0.0
 11
93.20471406507023
 21
274.1447786750022
 31
0.0
  0
LINE
  5
297
330
2
100
AcDbEntity
  8
0
100
AcDbLine
 10
74.95143785066829
 20
327.8447786750721
 30
0.0
 11
12.95143785066829
 21
327.8447786750721
 31
0.0
  0
DIMENSION
  5
298
102
{ACAD_XDICTIONARY
360
299
102
}
102
{ACAD_REACTORS
330
29A
102
}
330
2
100
AcDbEntity
  8
0
100
AcDbDimension
  2
*D49
 10
74.95143785066829
 20
376.0545082704966
 30
0.0
 11
43.9514378506683
 21
376.0545082704966
 31
0.0
 70
   160
  3
STANDARD
100
AcDbAlignedDimension
 13
12.95143785066829
 23
327.1447786750714
 33
0.0
 14
74.95143785066829
 24
327.1447786750714
 34
0.0
100
AcDbRotatedDimension
  0
CIRCLE
  5
2A7
330
2
100
AcDbEntity
  8
0
100
AcDbCircle
 10
43.9514378506683
 20
274.1447786750022
 30
0.0
 40
4.235
  0
CIRCLE
  5
2A8
330
2
100
AcDbEntity
  8
0
100
AcDbCircle
 10
43.9514378506683
 20
274.1447786750022
 30
0.0
 40
3.198036349121024
  0
ARC
  5
2A9
330
2
100
AcDbEntity
  8
0
100
AcDbCircle
 10
43.87597353649107
 20
274.1447786750022
 30
0.0
 40
33.74764799999999
100
AcDbArc
 50
72.28019184719541
 51
107.7198081528045
  0
ARC
  5
2AA
330
2
100
AcDbEntity
  8
0
100
AcDbCircle
 10
43.87597353649107
 20
274.1447786750022
 30
0.0
 40
33.74764799999999
100
AcDbArc
 50
252.2801918471953
 51
287.7198081528046
  0
INSERT
  5
2AB
330
2
100
AcDbEntity
  8
0
100
AcDbBlockReference
  2
4
 10
43.9514378506683
 20
274.1447786750022
 30
0.0
  0
CIRCLE
  5
2AC
330
2
100
AcDbEntity
  8
0
100
AcDbCircle
 10
43.9514378506683
 20
274.1447786750022
 30
0.0
 40
43.5
  0
CIRCLE
  5
2AD
330
2
100
AcDbEntity
  8
0
100
AcDbCircle
 10
43.9514378506683
 20
274.1447786750022
 30
0.0
 40
42.00000000000005
  0
ARC
  5
2AE
330
2
100
AcDbEntity
  8
0
100
AcDbCircle
 10
28.88869524838082
 20
304.3819285910712
 30
0.0
 40
3.067967999999998
100
AcDbArc
 50
51.9486744805834
 51
116.3656725032604
  0
LINE
  5
2AF
330
2
100
AcDbEntity
  8
0
100
AcDbLine
 10
28.9514378506683
 20
321.1447786750714
 30
0.0
 11
14.37157085066792
 21
321.1447786750714
 31
0.0
  0
ARC
  5
2B0
330
2
100
AcDbEntity
  8
0
100
AcDbCircle
 10
15.42313285066848
 20
361.6447786750723
 30
0.0
 40
0.5
100
AcDbArc
 50
90.0
 51
176.6629169999623
  0
ARC
  5
2B1
330
2
100
AcDbEntity
  8
0
100
AcDbCircle
 10
8.8070260332006
 20
285.350067715065
 30
0.0
 40
3.067967999999998
100
AcDbArc
 50
342.2801918472092
 51
38.05132551940634
  0
ARC
  5
2B2
330
2
100
AcDbEntity
  8
0
100
AcDbCircle
 10
43.87597353649107
 20
274.1447786750022
 30
0.0
 40
33.74764799999999
100
AcDbArc
 50
162.2801918472091
 51
197.7198081527907
  0
ARC
  5
2B3
330
2
100
AcDbEntity
  8
0
100
AcDbCircle
 10
8.8070260332006
 20
262.9394896349385
 30
0.0
 40
3.067967999999998
100
AcDbArc
 50
321.9486744805936
 51
17.71980815279071
  0
ARC
  5
2B4
330
2
100
AcDbEntity
  8
0
100
AcDbCircle
 10
13.6388236204184
 20
259.1575003868992
 30
0.0
 40
3.067967999999998
100
AcDbArc
 50
141.9486744805935
 51
206.3656725032576
  0
ARC
  5
2B5
330
2
100
AcDbEntity
  8
0
100
AcDbCircle
 10
43.87597353649107
 20
274.1447786750022
 30
0.0
 40
36.81561599999999
100
AcDbArc
 50
116.3656725032604
 51
153.6343274967423
  0
ARC
  5
2B6
330
2
100
AcDbEntity
  8
0
100
AcDbCircle
 10
13.6388236204184
 20
289.1320569631052
 30
0.0
 40
3.067967999999998
100
AcDbArc
 50
153.6343274967423
 51
218.0513255194063
  0
ARC
  5
2B7
330
2
100
AcDbEntity
  8
0
100
AcDbCircle
 10
14.37157085066792
 20
322.1447786750713
 30
0.0
 40
1.0
100
AcDbArc
 50
184.7636420000051
 51
270.0
  0
LINE
  5
2B8
330
2
100
AcDbEntity
  8
0
100
AcDbLine
 10
13.37502585066795
 20
322.061733675072
 30
0.0
 11
12.95143785066829
 21
327.1447786750714
 31
0.0
  0
ARC
  5
2B9
330
2
100
AcDbEntity
  8
0
100
AcDbCircle
 10
15.95143785066829
 20
320.1447786750713
 30
0.0
 40
1.0
100
AcDbArc
 50
0.0
 51
90.0
  0
LINE
  5
2BA
330
2
100
AcDbEntity
  8
0
100
AcDbLine
 10
16.9514378506683
 20
320.1447786750713
 30
0.0
 11
16.9514378506683
 21
319.1447786750714
 31
0.0
  0
LINE
  5
2BB
330
2
100
AcDbEntity
  8
0
100
AcDbLine
 10
13.65143785066902
 20
327.8447786750721
 30
0.0
 11
13.65143785066902
 21
327.1447786750714
 31
0.0
  0
LINE
  5
2BC
330
2
100
AcDbEntity
  8
0
100
AcDbLine
 10
12.95143785066829
 20
327.8447786750721
 30
0.0
 11
14.92398085066815
 21
361.6738836750728
 31
0.0
  0
ARC
  5
2BD
330
2
100
AcDbEntity
  8
0
100
AcDbCircle
 10
32.67068449643193
 20
309.2137261782863
 30
0.0
 40
3.067967999999998
100
AcDbArc
 50
231.9486744805834
 51
287.7198081528046
  0
LINE
  5
2BE
330
2
100
AcDbEntity
  8
0
100
AcDbLine
 10
28.9514378506683
 20
321.1447786750714
 30
0.0
 11
28.9514378506683
 21
319.1447786750714
 31
0.0
  0
ARC
  5
2BF
330
2
100
AcDbEntity
  8
0
100
AcDbCircle
 10
28.88869524838082
 20
243.9076287589332
 30
0.0
 40
3.067967999999998
100
AcDbArc
 50
243.6343274967394
 51
308.0513255194166
  0
ARC
  5
2C0
330
2
100
AcDbEntity
  8
0
100
AcDbCircle
 10
43.87597353649107
 20
274.1447786750022
 30
0.0
 40
36.81561599999999
100
AcDbArc
 50
206.3656725032576
 51
243.6343274967394
  0
ARC
  5
2C1
330
2
100
AcDbEntity
  8
0
100
AcDbCircle
 10
32.67068449643193
 20
239.075831171719
 30
0.0
 40
3.067967999999998
100
AcDbArc
 50
72.28019184719541
 51
128.0513255194166
  0
LINE
  5
2C2
330
2
100
AcDbEntity
  8
CEN
 48
0.6
100
AcDbLine
 10
293.1776284468596
 20
344.1447776750046
 30
0.0
 11
181.9685254937685
 21
344.1447776750046
 31
0.0
  0
LINE
  5
2C3
330
2
100
AcDbEntity
  8
CEN
100
AcDbLine
 10
291.5060671937317
 20
274.1447786750022
 30
0.0
 11
154.2526950064493
 21
274.1447786750022
 31
0.0
  0
DIMENSION
  5
2C4
102
{ACAD_XDICTIONARY
360
2C5
102
}
102
{ACAD_REACTORS
330
2C6
102
}
330
2
100
AcDbEntity
  8
0
100
AcDbDimension
  2
*D55
 10
259.3938344468497
 20
374.2003821796879
 30
0.0
 11
215.2970446896087
 21
374.2003821796879
 31
0.0
 70
   160
  3
STANDARD
100
AcDbAlignedDimension
 13
184.3971674468502
 23
327.8447776750053
 33
0.0
 14
259.3938344468497
 24
359.1447776750046
 34
0.0
100
AcDbRotatedDimension
  0
LINE
  5
2D3
102
{ACAD_REACTORS
330
2F7
330
2C6
102
}
330
2
100
AcDbEntity
  8
0
100
AcDbLine
 10
259.3938344468497
 20
327.8447776750053
 30
0.0
 11
184.3971674468502
 21
327.8447776750053
 31
0.0
  0
LINE
  5
2D4
330
2
100
AcDbEntity
  8
0
100
AcDbLine
 10
259.3938344468497
 20
327.1447776750046
 30
0.0
 11
184.5138344468505
 21
327.1447776750046
 31
0.0
  0
LINE
  5
2D5
330
2
100
AcDbEntity
  8
0
100
AcDbLine
 10
256.9221394468495
 20
362.1447776750046
 30
0.0
 11
186.9839304468496
 21
362.1447776750046
 31
0.0
  0
LINE
  5
2D6
330
2
100
AcDbEntity
  8
0
100
AcDbLine
 10
291.3971674468502
 20
319.1447786750004
 30
0.0
 11
184.9971674468506
 21
319.1447786750031
 31
0.0
  0
LINE
  5
2D7
330
2
100
AcDbEntity
  8
0
100
AcDbLine
 10
257.5467074468506
 20
321.1447776750028
 30
0.0
 11
184.9971674468506
 21
321.1447776750028
 31
0.0
  0
LINE
  5
2D8
330
2
100
AcDbEntity
  8
0
100
AcDbLine
 10
241.5138344468505
 20
309.3094960165317
 30
0.0
 11
184.9971674468506
 21
309.3094960165299
 31
0.0
  0
LINE
  5
2D9
330
2
100
AcDbEntity
  8
0
100
AcDbLine
 10
185.8971674468502
 20
310.0435160165316
 30
0.0
 11
185.8971674468502
 21
317.7435160165305
 31
0.0
  0
LINE
  5
2DA
330
2
100
AcDbEntity
  8
2
 48
0.6
100
AcDbLine
 10
171.3971674468503
 20
278.8947786750022
 30
0.0
 11
171.3971674468503
 21
269.3947786750022
 31
0.0
  0
ARC
  5
2DC
330
2
100
AcDbEntity
  8
0
 48
0.6
100
AcDbCircle
 10
171.4403543576918
 20
305.7110095640219
 30
0.0
 40
26.81626566475105
100
AcDbArc
 50
269.907726570802
 51
280.6520097393286
  0
ARC
  5
2DD
330
2
100
AcDbEntity
  8
0
 48
0.6
100
AcDbCircle
 10
171.4403543576827
 20
242.5785477859526
 30
0.0
 40
26.81626566478071
100
AcDbArc
 50
79.34799026067249
 51
90.09227342919791
  0
LINE
  5
2DE
330
2
100
AcDbEntity
  8
0
 48
0.6
100
AcDbLine
 10
157.3971674468502
 20
278.7947786750028
 30
0.0
 11
158.3971674468502
 21
279.7947786750028
 31
0.0
  0
LINE
  5
2DF
330
2
100
AcDbEntity
  8
0
 48
0.6
100
AcDbLine
 10
157.3971674468502
 20
269.4947786750026
 30
0.0
 11
158.3971674468502
 21
268.4947786750026
 31
0.0
  0
LINE
  5
2E0
330
2
100
AcDbEntity
  8
2
 48
0.6
100
AcDbLine
 10
158.3971674468502
 20
279.7947786750028
 30
0.0
 11
158.3971674468502
 21
268.4947786750008
 31
0.0
  0
LINE
  5
2E1
330
2
100
AcDbEntity
  8
0
 48
0.6
100
AcDbLine
 10
157.3971674468502
 20
278.7947786750028
 30
0.0
 11
157.3971674468502
 21
269.4947786750026
 31
0.0
  0
LINE
  5
2E2
330
2
100
AcDbEntity
  8
2
 48
0.6
100
AcDbLine
 10
171.3971674468503
 20
276.7648680520133
 30
0.0
 11
158.3971674468502
 21
269.8847773441694
 31
0.0
  0
LINE
  5
2E3
330
2
100
AcDbEntity
  8
0
 48
0.6
100
AcDbLine
 10
158.3971674468502
 20
279.7947786750028
 30
0.0
 11
176.3971674468503
 21
279.7947786750028
 31
0.0
  0
LINE
  5
2E4
330
2
100
AcDbEntity
  8
0
 48
0.6
100
AcDbLine
 10
158.3971674468502
 20
278.8947786750022
 30
0.0
 11
171.3971674468503
 21
278.8947786750022
 31
0.0
  0
LINE
  5
2E5
330
2
100
AcDbEntity
  8
0
 48
0.6
100
AcDbLine
 10
165.3971674468502
 20
279.7947786750028
 30
0.0
 11
176.3971674468503
 21
279.7947786750028
 31
0.0
  0
LINE
  5
2E6
330
2
100
AcDbEntity
  8
CEN
 48
0.6
100
AcDbLine
 10
155.8363355252095
 20
279.2842786750016
 30
0.0
 11
179.3971674468503
 21
279.2842786750016
 31
0.0
  0
LINE
  5
2E7
330
2
100
AcDbEntity
  8
0
 48
0.6
100
AcDbLine
 10
158.3971674468502
 20
268.4947786750026
 30
0.0
 11
176.3971674468503
 21
268.4947786750026
 31
0.0
  0
LINE
  5
2E8
330
2
100
AcDbEntity
  8
0
 48
0.6
100
AcDbLine
 10
158.3971674468502
 20
269.3947786750022
 30
0.0
 11
171.3971674468503
 21
269.3947786750022
 31
0.0
  0
LINE
  5
2E9
330
2
100
AcDbEntity
  8
0
 48
0.6
100
AcDbLine
 10
165.3971674468502
 20
268.4947786750026
 30
0.0
 11
176.3971674468503
 21
268.4947786750026
 31
0.0
  0
LINE
  5
2EA
330
2
100
AcDbEntity
  8
CEN
 48
0.6
100
AcDbLine
 10
155.6428902995012
 20
269.0052786750011
 30
0.0
 11
179.3971674468503
 21
269.0052786750011
 31
0.0
  0
LINE
  5
2EB
330
2
100
AcDbEntity
  8
2
 48
0.6
100
AcDbLine
 10
171.3971674468503
 20
275.5996785593524
 30
0.0
 11
159.4946196097498
 21
269.3947786750022
 31
0.0
  0
LINE
  5
2EC
330
2
100
AcDbEntity
  8
2
 48
0.6
100
AcDbLine
 10
171.3971674468503
 20
277.743408778685
 30
0.0
 11
158.3971674468502
 21
271.1760494666541
 31
0.0
  0
LINE
  5
2ED
330
2
100
AcDbEntity
  8
0
100
AcDbLine
 10
184.9971674468506
 20
310.0435160165316
 30
0.0
 11
185.8971674468502
 21
310.0435160165316
 31
0.0
  0
LINE
  5
2EE
330
2
100
AcDbEntity
  8
0
100
AcDbLine
 10
178.3971674468503
 20
315.6447786750022
 30
0.0
 11
176.3971674468503
 21
315.6447786750022
 31
0.0
  0
LINE
  5
2EF
330
2
100
AcDbEntity
  8
0
100
AcDbLine
 10
184.3971674468502
 20
327.8447776750053
 30
0.0
 11
186.4848794468489
 21
361.6755746750031
 31
0.0
  0
LINE
  5
2F0
330
2
100
AcDbEntity
  8
0
100
AcDbLine
 10
185.2138344468494
 20
327.8447776750053
 30
0.0
 11
185.2138344468494
 21
327.1447776750046
 31
0.0
  0
ARC
  5
2F1
330
2
100
AcDbEntity
  8
0
100
AcDbCircle
 10
186.9839304468496
 20
361.6447776750046
 30
0.0
 40
0.5
100
AcDbArc
 50
90.0
 51
176.4687330000435
  0
LINE
  5
2F2
330
2
100
AcDbEntity
  8
0
100
AcDbLine
 10
184.9971674468506
 20
317.7435160165305
 30
0.0
 11
185.8971674468502
 21
317.7435160165305
 31
0.0
  0
LINE
  5
2F3
330
2
100
AcDbEntity
  8
0
100
AcDbLine
 10
184.5138344468505
 20
327.1447776750046
 30
0.0
 11
185.5138344468505
 21
321.1447776750028
 31
0.0
  0
LINE
  5
2F4
330
2
100
AcDbEntity
  8
0
100
AcDbLine
 10
178.3971674468503
 20
319.1447786750031
 30
0.0
 11
184.9971674468506
 21
319.1447786750031
 31
0.0
  0
DIMENSION
  5
2F5
102
{ACAD_XDICTIONARY
360
2F6
102
}
102
{ACAD_REACTORS
330
2F7
102
}
330
2
100
AcDbEntity
  8
0
100
AcDbDimension
  2
*D54
 10
184.3971674468502
 20
374.2003821796879
 30
0.0
 11
181.3971674468502
 21
374.2003821796879
 31
0.0
 70
   160
  3
STANDARD
100
AcDbAlignedDimension
 13
178.3971674468503
 23
319.1447786750031
 33
0.0
 14
184.3971674468502
 24
327.8447776750053
 34
0.0
100
AcDbRotatedDimension
  0
LINE
  5
306
330
2
100
AcDbEntity
  8
0
100
AcDbLine
 10
241.5138344468505
 20
319.6447776750028
 30
0.0
 11
241.5138344468505
 21
309.3094960165299
 31
0.0
  0
ARC
  5
307
330
2
100
AcDbEntity
  8
0
100
AcDbCircle
 10
243.0138344468596
 20
319.6447776750028
 30
0.0
 40
1.5
100
AcDbArc
 50
90.0
 51
180.0
  0
ARC
  5
308
330
2
100
AcDbEntity
  8
0
100
AcDbCircle
 10
291.3971674468502
 20
260.7408540732376
 30
0.0
 40
7.0
100
AcDbArc
 50
270.0
 51
0.0
  0
LINE
  5
309
330
2
100
AcDbEntity
  8
0
100
AcDbLine
 10
298.3971674468502
 20
301.5487032767623
 30
0.0
 11
298.3971674468502
 21
246.7408540732376
 31
0.0
  0
LINE
  5
30A
330
2
100
AcDbEntity
  8
0
100
AcDbLine
 10
273.3971674468502
 20
253.7408540732394
 30
0.0
 11
291.3971674468502
 21
253.7408540732394
 31
0.0
  0
ARC
  5
30B
330
2
100
AcDbEntity
  8
0
100
AcDbCircle
 10
291.3971674468502
 20
246.7408540732376
 30
0.0
 40
7.0
100
AcDbArc
 50
0.0
 51
90.0
  0
ARC
  5
30C
330
2
100
AcDbEntity
  8
0
100
AcDbCircle
 10
291.3971674468502
 20
312.1447786750022
 30
0.0
 40
7.0
100
AcDbArc
 50
0.0
 51
90.0
  0
ARC
  5
30D
330
2
100
AcDbEntity
  8
0
100
AcDbCircle
 10
291.3971674468502
 20
287.5487032767632
 30
0.0
 40
7.0
100
AcDbArc
 50
0.0
 51
90.0
  0
ARC
  5
30E
330
2
100
AcDbEntity
  8
0
100
AcDbCircle
 10
291.3971674468502
 20
301.5487032767623
 30
0.0
 40
7.0
100
AcDbArc
 50
270.0
 51
0.0
  0
LINE
  5
30F
330
2
100
AcDbEntity
  8
0
100
AcDbLine
 10
273.3971674468502
 20
294.5487032767623
 30
0.0
 11
291.3971674468502
 21
294.5487032767623
 31
0.0
  0
LINE
  5
310
330
2
100
AcDbEntity
  8
0
100
AcDbLine
 10
278.8369896278891
 20
274.9998016867102
 30
0.0
 11
280.5433968552188
 21
273.2933944593778
 31
0.0
  0
LINE
  5
311
330
2
100
AcDbEntity
  8
0
100
AcDbLine
 10
280.5470356512996
 20
274.9998016867102
 30
0.0
 11
278.8406284239808
 21
273.2933944593778
 31
0.0
  0
CIRCLE
  5
312
330
2
100
AcDbEntity
  8
0
100
AcDbCircle
 10
279.6920126396016
 20
274.1447786750022
 30
0.0
 40
2.147836038934201
  0
LINE
  5
313
330
2
100
AcDbEntity
  8
0
100
AcDbLine
 10
281.2975268682803
 20
320.0337140606452
 30
0.0
 11
281.2975268682803
 21
319.1447786750031
 31
0.0
  0
ARC
  5
314
330
2
100
AcDbEntity
  8
0
100
AcDbCircle
 10
277.8642073957689
 20
320.0337140606452
 30
0.0
 40
1.0
100
AcDbArc
 50
90.0
 51
180.0
  0
LINE
  5
315
330
2
100
AcDbEntity
  8
0
100
AcDbLine
 10
276.864207395758
 20
319.1447786750031
 30
0.0
 11
276.864207395758
 21
320.0337140606452
 31
0.0
  0
LINE
  5
316
330
2
100
AcDbEntity
  8
0
100
AcDbLine
 10
277.8642073957689
 20
321.0337140606461
 30
0.0
 11
280.2975268682803
 21
321.0337140606461
 31
0.0
  0
ARC
  5
317
330
2
100
AcDbEntity
  8
0
100
AcDbCircle
 10
280.2975268682803
 20
320.0337140606452
 30
0.0
 40
1.0
100
AcDbArc
 50
0.0
 51
90.0
  0
LINE
  5
318
102
{ACAD_REACTORS
330
331
102
}
330
2
100
AcDbEntity
  8
0
100
AcDbLine
 10
259.3938344468497
 20
359.1447776750046
 30
0.0
 11
259.3938344468497
 21
327.8447776750053
 31
0.0
  0
LINE
  5
319
330
2
100
AcDbEntity
  8
0
100
AcDbLine
 10
259.3938344468497
 20
327.8447776750053
 30
0.0
 11
257.4212924468501
 21
361.6738826750033
 31
0.0
  0
ARC
  5
31A
330
2
100
AcDbEntity
  8
0
100
AcDbCircle
 10
271.3105014468492
 20
344.1447776750046
 30
0.0
 40
9.083332999999999
100
AcDbArc
 50
326.601511999943
 51
33.398488000057
  0
LINE
  5
31B
330
2
100
AcDbEntity
  8
0
100
AcDbLine
 10
270.3938344468588
 20
357.1447776750046
 30
0.0
 11
270.3938344468588
 21
331.1447776750046
 31
0.0
  0
LINE
  5
31C
330
2
100
AcDbEntity
  8
0
100
AcDbLine
 10
280.3938344468497
 20
356.1447776750028
 30
0.0
 11
280.3938344468497
 21
332.1447776750028
 31
0.0
  0
LINE
  5
31D
330
2
100
AcDbEntity
  8
0
100
AcDbLine
 10
264.3938344468497
 20
357.1447776750046
 30
0.0
 11
264.3938344468497
 21
331.1447776750046
 31
0.0
  0
LINE
  5
31E
102
{ACAD_REACTORS
330
331
102
}
330
2
100
AcDbEntity
  8
0
100
AcDbLine
 10
287.3938344468497
 20
351.1447776750046
 30
0.0
 11
287.3938344468497
 21
337.1447776750046
 31
0.0
  0
ARC
  5
31F
330
2
100
AcDbEntity
  8
0
100
AcDbCircle
 10
280.8938344468497
 20
338.8447776750044
 30
0.0
 40
6.718630999999999
100
AcDbArc
 50
274.2678929999499
 51
345.3432489999617
  0
LINE
  5
320
330
2
100
AcDbEntity
  8
0
100
AcDbLine
 10
264.3938344468497
 20
331.1447776750046
 30
0.0
 11
259.3938344468497
 21
331.1447776750046
 31
0.0
  0
LINE
  5
321
330
2
100
AcDbEntity
  8
0
100
AcDbLine
 10
264.3938344468497
 20
336.1447776750046
 30
0.0
 11
259.3938344468497
 21
336.1447776750046
 31
0.0
  0
LINE
  5
322
330
2
100
AcDbEntity
  8
0
100
AcDbLine
 10
264.3938344468497
 20
338.6447776750046
 30
0.0
 11
259.3938344468497
 21
338.6447776750046
 31
0.0
  0
LINE
  5
323
330
2
100
AcDbEntity
  8
0
100
AcDbLine
 10
258.693834446849
 20
327.8447776750053
 30
0.0
 11
258.693834446849
 21
327.1447776750046
 31
0.0
  0
LINE
  5
324
330
2
100
AcDbEntity
  8
0
100
AcDbLine
 10
278.8938344468588
 20
339.1447776750028
 30
0.0
 11
270.3938344468588
 21
339.1447776750028
 31
0.0
  0
LINE
  5
325
330
2
100
AcDbEntity
  8
0
100
AcDbLine
 10
278.8938344468588
 20
331.1447776750046
 30
0.0
 11
280.3938344468497
 21
332.1447776750028
 31
0.0
  0
LINE
  5
326
330
2
100
AcDbEntity
  8
0
100
AcDbLine
 10
281.3938344468497
 20
332.1447776750028
 30
0.0
 11
280.3938344468497
 21
332.1447776750028
 31
0.0
  0
ARC
  5
327
330
2
100
AcDbEntity
  8
0
100
AcDbCircle
 10
271.3105014468492
 20
332.1447776750028
 30
0.0
 40
9.083332999999999
100
AcDbArc
 50
0.0
 51
33.398488000057
  0
LINE
  5
328
330
2
100
AcDbEntity
  8
0
100
AcDbLine
 10
278.8938344468588
 20
331.1447776750046
 30
0.0
 11
270.3938344468588
 21
331.1447776750046
 31
0.0
  0
LINE
  5
329
330
2
100
AcDbEntity
  8
0
100
AcDbLine
 10
280.3938344468497
 20
332.1447776750028
 30
0.0
 11
270.3938344468588
 21
332.1447776750028
 31
0.0
  0
LINE
  5
32A
330
2
100
AcDbEntity
  8
0
100
AcDbLine
 10
278.8938344468588
 20
337.1447776750046
 30
0.0
 11
270.3938344468588
 21
337.1447776750046
 31
0.0
  0
LINE
  5
32B
330
2
100
AcDbEntity
  8
0
100
AcDbLine
 10
279.3115604468494
 20
336.444777675003
 30
0.0
 11
270.3938344468588
 21
336.444777675003
 31
0.0
  0
LINE
  5
32C
330
2
100
AcDbEntity
  8
0
100
AcDbLine
 10
278.8938344468588
 20
339.1447776750028
 30
0.0
 11
278.8938344468588
 21
337.1447776750046
 31
0.0
  0
LINE
  5
32D
330
2
100
AcDbEntity
  8
0
100
AcDbLine
 10
270.3938344468588
 20
335.1447776750046
 30
0.0
 11
264.3938344468497
 21
335.1447776750046
 31
0.0
  0
LINE
  5
32E
330
2
100
AcDbEntity
  8
0
100
AcDbLine
 10
270.3938344468588
 20
334.1447776750046
 30
0.0
 11
264.3938344468497
 21
334.1447776750046
 31
0.0
  0
DIMENSION
  5
32F
102
{ACAD_XDICTIONARY
360
330
102
}
102
{ACAD_REACTORS
330
331
102
}
330
2
100
AcDbEntity
  8
0
100
AcDbDimension
  2
*D53
 10
287.3938344468497
 20
374.183811159176
 30
0.0
 11
273.3938344468497
 21
374.183811159176
 31
0.0
 70
   160
  1
MAX. <>
  3
STANDARD
100
AcDbAlignedDimension
 13
259.3938344468497
 23
359.1447776750046
 33
0.0
 14
287.3938344468497
 24
351.1447776750046
 34
0.0
100
AcDbRotatedDimension
  0
ARC
  5
33E
330
2
100
AcDbEntity
  8
0
100
AcDbCircle
 10
280.8938344468497
 20
349.444777675003
 30
0.0
 40
6.718630999999999
100
AcDbArc
 50
14.65675100003822
 51
85.73210700004995
  0
ARC
  5
33F
330
2
100
AcDbEntity
  8
0
100
AcDbCircle
 10
256.9221394468495
 20
361.6447776750046
 30
0.0
 40
0.5
100
AcDbArc
 50
3.337083000037623
 51
90.0
  0
LINE
  5
340
330
2
100
AcDbEntity
  8
0
100
AcDbLine
 10
264.3938344468497
 20
349.6447776750046
 30
0.0
 11
259.3938344468497
 21
349.6447776750046
 31
0.0
  0
LINE
  5
341
330
2
100
AcDbEntity
  8
0
100
AcDbLine
 10
264.3938344468497
 20
352.1447776750046
 30
0.0
 11
259.3938344468497
 21
352.1447776750046
 31
0.0
  0
LINE
  5
342
330
2
100
AcDbEntity
  8
0
100
AcDbLine
 10
264.3938344468497
 20
357.1447776750046
 30
0.0
 11
259.3938344468497
 21
357.1447776750046
 31
0.0
  0
LINE
  5
343
102
{ACAD_REACTORS
330
2C6
102
}
330
2
100
AcDbEntity
  8
0
100
AcDbLine
 10
259.3938344468497
 20
359.1447776750046
 30
0.0
 11
258.0404564468499
 21
359.1447776750046
 31
0.0
  0
ARC
  5
344
330
2
100
AcDbEntity
  8
0
100
AcDbCircle
 10
258.0404564468499
 20
359.6447776750046
 30
0.0
 40
0.5
100
AcDbArc
 50
183.3370830000376
 51
270.0
  0
LINE
  5
345
330
2
100
AcDbEntity
  8
0
100
AcDbLine
 10
278.8938344468588
 20
357.1447776750046
 30
0.0
 11
280.3938344468497
 21
356.1447776750028
 31
0.0
  0
LINE
  5
346
330
2
100
AcDbEntity
  8
0
100
AcDbLine
 10
281.3938344468497
 20
356.1447776750028
 30
0.0
 11
280.3938344468497
 21
356.1447776750028
 31
0.0
  0
LINE
  5
347
330
2
100
AcDbEntity
  8
0
100
AcDbLine
 10
278.8938344468588
 20
357.1447776750046
 30
0.0
 11
270.3938344468588
 21
357.1447776750046
 31
0.0
  0
LINE
  5
348
330
2
100
AcDbEntity
  8
0
100
AcDbLine
 10
280.3938344468497
 20
356.1447776750028
 30
0.0
 11
270.3938344468588
 21
356.1447776750028
 31
0.0
  0
LINE
  5
349
330
2
100
AcDbEntity
  8
0
100
AcDbLine
 10
278.8938344468588
 20
351.1447776750046
 30
0.0
 11
278.8938344468588
 21
349.1447776750046
 31
0.0
  0
LINE
  5
34A
330
2
100
AcDbEntity
  8
0
100
AcDbLine
 10
278.8938344468588
 20
349.1447776750046
 30
0.0
 11
270.3938344468588
 21
349.1447776750046
 31
0.0
  0
LINE
  5
34B
330
2
100
AcDbEntity
  8
0
100
AcDbLine
 10
278.8938344468588
 20
351.1447776750046
 30
0.0
 11
270.3938344468588
 21
351.1447776750046
 31
0.0
  0
LINE
  5
34C
330
2
100
AcDbEntity
  8
0
100
AcDbLine
 10
279.3115604468494
 20
351.8447776750054
 30
0.0
 11
270.3938344468588
 21
351.8447776750054
 31
0.0
  0
LINE
  5
34D
330
2
100
AcDbEntity
  8
0
100
AcDbLine
 10
279.6924424468506
 20
347.6447776750046
 30
0.0
 11
270.3938344468588
 21
347.6447776750046
 31
0.0
  0
LINE
  5
34E
330
2
100
AcDbEntity
  8
0
100
AcDbLine
 10
279.6924424468506
 20
340.6447776750028
 30
0.0
 11
270.3938344468588
 21
340.6447776750028
 31
0.0
  0
ARC
  5
34F
330
2
100
AcDbEntity
  8
0
100
AcDbCircle
 10
271.3105014468492
 20
356.1447776750028
 30
0.0
 40
9.083332999999999
100
AcDbArc
 50
326.601511999943
 51
0.0
  0
LINE
  5
350
330
2
100
AcDbEntity
  8
0
100
AcDbLine
 10
270.3938344468588
 20
353.1447776750028
 30
0.0
 11
264.3938344468497
 21
353.1447776750028
 31
0.0
  0
LINE
  5
351
330
2
100
AcDbEntity
  8
0
100
AcDbLine
 10
270.3938344468588
 20
354.1447776750046
 30
0.0
 11
264.3938344468497
 21
354.1447776750046
 31
0.0
  0
ARC
  5
352
330
2
100
AcDbEntity
  8
0
100
AcDbCircle
 10
257.5467074468506
 20
322.1447776750046
 30
0.0
 40
1.0
100
AcDbArc
 50
270.0
 51
350.5376779999607
  0
LINE
  5
353
330
2
100
AcDbEntity
  8
0
100
AcDbLine
 10
259.3938344468497
 20
327.1447776750046
 30
0.0
 11
258.5331014468501
 21
321.9803786750053
 31
0.0
  0
LINE
  5
354
330
2
100
AcDbEntity
  8
0
100
AcDbLine
 10
298.3971674468502
 20
312.1447786750022
 30
0.0
 11
298.3971674468502
 21
301.5487032767623
 31
0.0
  0
LINE
  5
355
330
2
100
AcDbEntity
  8
0
100
AcDbLine
 10
298.3971674468502
 20
287.5487032767632
 30
0.0
 11
298.3971674468502
 21
260.7408540732376
 31
0.0
  0
LWPOLYLINE
  5
356
330
2
100
AcDbEntity
  8
3
100
AcDbPolyline
 90
        4
 70
     1
 43
0.0
 10
311.5574446157097
 20
267.8622137267621
 10
311.5574446157097
 20
271.1622137267613
 10
308.0574446157097
 20
271.1622137267613
 10
308.0574446157097
 20
267.8622137267621
  0
ARC
  5
357
330
2
100
AcDbEntity
  8
0
100
AcDbCircle
 10
72.47974385066846
 20
361.6447786750723
 30
0.0
 40
0.5
100
AcDbArc
 50
3.337083000037623
 51
90.0
  0
ARC
  5
358
330
2
100
AcDbEntity
  8
0
100
AcDbCircle
 10
43.87597353649107
 20
274.1447786750022
 30
0.0
 40
36.81561599999999
100
AcDbArc
 50
26.36567250325756
 51
63.63432749673943
  0
ARC
  5
359
330
2
100
AcDbEntity
  8
0
100
AcDbCircle
 10
55.08126257655021
 20
309.2137261782863
 30
0.0
 40
3.067967999999998
100
AcDbArc
 50
252.2801918471953
 51
308.0513255194166
  0
ARC
  5
35A
330
2
100
AcDbEntity
  8
0
100
AcDbCircle
 10
58.86325182459223
 20
304.3819285910712
 30
0.0
 40
3.067967999999998
100
AcDbArc
 50
63.63432749673943
 51
128.0513255194166
  0
ARC
  5
35B
330
2
100
AcDbEntity
  8
0
100
AcDbCircle
 10
78.94492103976881
 20
285.350067715065
 30
0.0
 40
3.067967999999998
100
AcDbArc
 50
141.9486744805935
 51
197.7198081527907
  0
ARC
  5
35C
330
2
100
AcDbEntity
  8
0
100
AcDbCircle
 10
43.87597353649107
 20
274.1447786750022
 30
0.0
 40
33.74764799999999
100
AcDbArc
 50
342.2801918472092
 51
17.71980815279071
  0
ARC
  5
35D
330
2
100
AcDbEntity
  8
0
100
AcDbCircle
 10
78.94492103976881
 20
262.9394896349385
 30
0.0
 40
3.067967999999998
100
AcDbArc
 50
162.2801918472091
 51
218.0513255194063
  0
ARC
  5
35E
330
2
100
AcDbEntity
  8
0
100
AcDbCircle
 10
74.11312345256011
 20
259.1575003868992
 30
0.0
 40
3.067967999999998
100
AcDbArc
 50
333.6343274967423
 51
38.05132551940634
  0
ARC
  5
35F
330
2
100
AcDbEntity
  8
0
100
AcDbCircle
 10
74.11312345256011
 20
289.1320569631052
 30
0.0
 40
3.067967999999998
100
AcDbArc
 50
321.9486744805936
 51
26.36567250325756
  0
LINE
  5
360
330
2
100
AcDbEntity
  8
0
100
AcDbLine
 10
58.9514378506683
 20
321.1447786750714
 30
0.0
 11
73.53130585066901
 21
321.1447786750714
 31
0.0
  0
LINE
  5
361
330
2
100
AcDbEntity
  8
0
100
AcDbLine
 10
58.9514378506683
 20
321.1447786750714
 30
0.0
 11
58.9514378506683
 21
319.1447786750714
 31
0.0
  0
ARC
  5
362
330
2
100
AcDbEntity
  8
0
100
AcDbCircle
 10
71.9514378506683
 20
320.1447786750713
 30
0.0
 40
1.0
100
AcDbArc
 50
90.0
 51
180.0
  0
ARC
  5
363
330
2
100
AcDbEntity
  8
0
100
AcDbCircle
 10
73.53130585066901
 20
322.1447786750713
 30
0.0
 40
1.0
100
AcDbArc
 50
270.0
 51
355.2363579999948
  0
LINE
  5
364
102
{ACAD_REACTORS
330
29A
102
}
330
2
100
AcDbEntity
  8
0
100
AcDbLine
 10
74.52785085066898
 20
322.061733675072
 30
0.0
 11
74.95143785066829
 21
327.1447786750714
 31
0.0
  0
LINE
  5
365
330
2
100
AcDbEntity
  8
0
100
AcDbLine
 10
74.25143785066757
 20
327.8447786750721
 30
0.0
 11
74.25143785066757
 21
327.1447786750714
 31
0.0
  0
LINE
  5
366
330
2
100
AcDbEntity
  8
0
100
AcDbLine
 10
70.9514378506683
 20
320.1447786750713
 30
0.0
 11
70.9514378506683
 21
319.1447786750714
 31
0.0
  0
LINE
  5
367
330
2
100
AcDbEntity
  8
0
100
AcDbLine
 10
74.95143785066829
 20
327.8447786750721
 30
0.0
 11
72.97889585066878
 21
361.6738836750728
 31
0.0
  0
DIMENSION
  5
368
330
2
100
AcDbEntity
  8
0
100
AcDbDimension
  2
*D52
 10
91.2707839219184
 20
362.1447786750714
 30
0.0
 11
91.27078392191833
 21
342.239614472156
 31
0.0
 70
   160
  3
STANDARD
100
AcDbAlignedDimension
 13
84.50660652949228
 23
319.1447786750714
 33
0.0
 14
72.11486753577992
 24
362.1447786750714
 34
0.0
 50
90.0
100
AcDbRotatedDimension
  0
LINE
  5
375
330
2
100
AcDbEntity
  8
0
100
AcDbLine
 10
43.9514378506683
 20
362.1447786750714
 30
0.0
 11
72.47974385066846
 21
362.1447786750714
 31
0.0
  0
LINE
  5
376
330
2
100
AcDbEntity
  8
0
100
AcDbLine
 10
43.9514378506683
 20
327.1447786750714
 30
0.0
 11
74.95143785066829
 21
327.1447786750714
 31
0.0
  0
LINE
  5
377
330
2
100
AcDbEntity
  8
0
100
AcDbLine
 10
291.3971674468502
 20
229.1447786750004
 30
0.0
 11
184.9971674468506
 21
229.1447786750022
 31
0.0
  0
LINE
  5
378
330
2
100
AcDbEntity
  8
0
100
AcDbLine
 10
185.8971674468502
 20
238.246041333472
 30
0.0
 11
185.8971674468502
 21
230.546041333474
 31
0.0
  0
LINE
  5
379
102
{ACAD_REACTORS
330
172
102
}
330
2
100
AcDbEntity
  8
0
100
AcDbLine
 10
184.9971674468506
 20
230.546041333474
 30
0.0
 11
185.8971674468502
 21
230.546041333474
 31
0.0
  0
LINE
  5
37A
330
2
100
AcDbEntity
  8
0
100
AcDbLine
 10
184.9971674468506
 20
238.246041333472
 30
0.0
 11
185.8971674468502
 21
238.246041333472
 31
0.0
  0
LINE
  5
37B
102
{ACAD_REACTORS
330
181
102
}
330
2
100
AcDbEntity
  8
0
100
AcDbLine
 10
178.3971674468503
 20
232.6447786750031
 30
0.0
 11
176.3971674468503
 21
232.6447786750031
 31
0.0
  0
LINE
  5
37C
102
{ACAD_REACTORS
330
163
330
172
330
181
330
1A1
102
}
330
2
100
AcDbEntity
  8
0
100
AcDbLine
 10
178.3971674468503
 20
229.1447786750022
 30
0.0
 11
184.9971674468506
 21
229.1447786750022
 31
0.0
  0
ARC
  5
37D
330
2
100
AcDbEntity
  8
0
100
AcDbCircle
 10
291.3971674468502
 20
236.1447786750022
 30
0.0
 40
7.0
100
AcDbArc
 50
270.0
 51
0.0
  0
LINE
  5
37E
330
2
100
AcDbEntity
  8
0
100
AcDbLine
 10
281.2975268682803
 20
228.2558432893556
 30
0.0
 11
281.2975268682803
 21
229.1447786750022
 31
0.0
  0
ARC
  5
37F
330
2
100
AcDbEntity
  8
0
100
AcDbCircle
 10
277.8642073957689
 20
228.2558432893556
 30
0.0
 40
1.0
100
AcDbArc
 50
180.0
 51
270.0
  0
LINE
  5
380
330
2
100
AcDbEntity
  8
0
100
AcDbLine
 10
277.8642073957689
 20
227.2558432893556
 30
0.0
 11
280.2975268682803
 21
227.2558432893556
 31
0.0
  0
LINE
  5
381
330
2
100
AcDbEntity
  8
0
100
AcDbLine
 10
276.864207395758
 20
229.1447786750022
 30
0.0
 11
276.864207395758
 21
228.2558432893556
 31
0.0
  0
ARC
  5
382
330
2
100
AcDbEntity
  8
0
100
AcDbCircle
 10
280.2975268682803
 20
228.2558432893556
 30
0.0
 40
1.0
100
AcDbArc
 50
270.0
 51
0.0
  0
ARC
  5
383
330
2
100
AcDbEntity
  8
0
100
AcDbCircle
 10
58.86325182459223
 20
243.9076287589332
 30
0.0
 40
3.067967999999998
100
AcDbArc
 50
231.9486744805834
 51
296.3656725032604
  0
LINE
  5
384
330
2
100
AcDbEntity
  8
0
100
AcDbLine
 10
184.9971674468506
 20
321.1447776750028
 30
0.0
 11
184.9971674468506
 21
229.1447786750022
 31
0.0
  0
LINE
  5
385
330
2
100
AcDbEntity
  8
0
100
AcDbLine
 10
178.3971674468503
 20
319.1447786750031
 30
0.0
 11
178.3971674468503
 21
229.1447786750022
 31
0.0
  0
DIMENSION
  5
386
102
{ACAD_XDICTIONARY
360
387
102
}
102
{ACAD_REACTORS
330
388
102
}
330
2
100
AcDbEntity
  8
0
100
AcDbDimension
  2
*D51
 10
147.9054083285191
 20
232.6447786750031
 30
0.0
 11
147.9054083285191
 21
272.1254802344938
 31
0.0
 70
   160
  1
\A1;{\f??|b0|i0|c0|p49;%%c}<>{\f??|b0|i0|c0|p49;\H0.7x;\S+0^ -0.035;\H1.429x;(h7)}
  3
STANDARD
100
AcDbAlignedDimension
 13
176.3971674468503
 23
315.6447786750022
 33
0.0
 14
176.3971674468503
 24
232.6447786750031
 34
0.0
 50
90.0
100
AcDbRotatedDimension
  0
LINE
  5
395
102
{ACAD_REACTORS
330
388
102
}
330
2
100
AcDbEntity
  8
0
100
AcDbLine
 10
176.3971674468503
 20
315.6447786750022
 30
0.0
 11
176.3971674468503
 21
232.6447786750031
 31
0.0
  0
ARC
  5
396
330
2
100
AcDbEntity
  8
0
100
AcDbCircle
 10
43.87597353649107
 20
274.1447786750022
 30
0.0
 40
36.81561599999999
100
AcDbArc
 50
296.3656725032604
 51
333.6343274967423
  0
ARC
  5
397
330
2
100
AcDbEntity
  8
0
100
AcDbCircle
 10
55.08126257655021
 20
239.075831171719
 30
0.0
 40
3.067967999999998
100
AcDbArc
 50
51.9486744805834
 51
107.7198081528045
  0
LINE
  5
398
330
2
100
AcDbEntity
  8
0
100
AcDbLine
 10
273.3971674468502
 20
229.6447786750031
 30
0.0
 11
273.3971674468502
 21
318.6447786750022
 31
0.0
  0
DIMENSION
  5
399
330
2
100
AcDbEntity
  8
0
100
AcDbDimension
  2
*D50
 10
312.0711778912428
 20
229.1447786750022
 30
0.0
 11
312.0711778912427
 21
274.1447786750022
 31
0.0
 70
   160
  3
STANDARD
100
AcDbAlignedDimension
 13
292.3971674468503
 23
319.1447786750031
 33
0.0
 14
292.3971674468503
 24
229.1447786750022
 34
0.0
 50
90.0
100
AcDbRotatedDimension
  0
LINE
  5
3A6
330
2
100
AcDbEntity
  8
0
100
AcDbLine
 10
298.3971674468502
 20
246.7408540732376
 30
0.0
 11
298.3971674468502
 21
236.1447786750022
 31
0.0
  0
ENDSEC
  0
SECTION
  2
OBJECTS
  0
DICTIONARY
  5
9
330
0
100
AcDbDictionary
  3
ACAD_GROUP
350
98
  3
ACAD_LAYOUT
350
D
  3
ACAD_MLINESTYLE
350
99
  3
ACAD_PLOTSETTINGS
350
9A
  3
ACAD_PLOTSTYLENAME
350
8
  3
ACDBHEADERROUNDTRIPXREC
350
4FC
  3
ACDBVARIABLEDICTIONARY
350
3A7
  0
DICTIONARY
  5
15
330
14
100
AcDbDictionary
280
     1
  3
ACAD_LAYERFILTERS
360
16
  3
ACAD_LAYERSTATES
360
89
  0
DICTIONARY
  5
3
330
2
100
AcDbDictionary
280
     1
  3
ACAD_LAYOUTSELFREF
360
51D
  0
DICTIONARY
  5
F
330
E
100
AcDbDictionary
280
     1
  3
ACAD_LAYOUTSELFREF
360
51E
  0
DICTIONARY
  5
DA
330
D9
100
AcDbDictionary
280
     1
  3
ACAD_DIMASSOC
360
DB
  0
DICTIONARY
  5
9E
330
9D
100
AcDbDictionary
280
     1
  3
ACAD_DIMASSOC
360
9F
  0
DICTIONARY
  5
C2
330
C1
100
AcDbDictionary
280
     1
  3
ACAD_DIMASSOC
360
C3
  0
DICTIONARY
  5
FA
330
F9
100
AcDbDictionary
280
     1
  3
ACAD_DIMASSOC
360
FB
  0
DICTIONARY
  5
11F
330
11E
100
AcDbDictionary
280
     1
  3
ACAD_DIMASSOC
360
120
  0
DICTIONARY
  5
132
330
131
100
AcDbDictionary
280
     1
  3
ACAD_DIMASSOC
360
133
  0
DICTIONARY
  5
145
330
144
100
AcDbDictionary
280
     1
  3
ACAD_DIMASSOC
360
146
  0
DICTIONARY
  5
162
330
161
100
AcDbDictionary
280
     1
  3
ACAD_DIMASSOC
360
163
  0
DICTIONARY
  5
171
330
170
100
AcDbDictionary
280
     1
  3
ACAD_DIMASSOC
360
172
  0
DICTIONARY
  5
180
330
17F
100
AcDbDictionary
280
     1
  3
ACAD_DIMASSOC
360
181
  0
DICTIONARY
  5
1A0
330
19F
100
AcDbDictionary
280
     1
  3
ACAD_DIMASSOC
360
1A1
  0
DICTIONARY
  5
1B4
330
1B3
100
AcDbDictionary
280
     1
  3
ACAD_DIMASSOC
360
1B5
  0
DICTIONARY
  5
1D7
330
1D6
100
AcDbDictionary
280
     1
  3
ACAD_DIMASSOC
360
1D8
  0
DICTIONARY
  5
1E8
330
1E7
100
AcDbDictionary
280
     1
  3
ACAD_DIMASSOC
360
1E9
  0
DICTIONARY
  5
1FC
330
1FB
100
AcDbDictionary
280
     1
  3
ACAD_DIMASSOC
360
1FD
  0
DICTIONARY
  5
218
330
217
100
AcDbDictionary
280
     1
  3
ACAD_DIMASSOC
360
219
  0
DICTIONARY
  5
237
330
236
100
AcDbDictionary
280
     1
  3
ACAD_DIMASSOC
360
238
  0
DICTIONARY
  5
299
330
298
100
AcDbDictionary
280
     1
  3
ACAD_DIMASSOC
360
29A
  0
DICTIONARY
  5
2C5
330
2C4
100
AcDbDictionary
280
     1
  3
ACAD_DIMASSOC
360
2C6
  0
DICTIONARY
  5
2F6
330
2F5
100
AcDbDictionary
280
     1
  3
ACAD_DIMASSOC
360
2F7
  0
DICTIONARY
  5
330
330
32F
100
AcDbDictionary
280
     1
  3
ACAD_DIMASSOC
360
331
  0
DICTIONARY
  5
387
330
386
100
AcDbDictionary
280
     1
  3
ACAD_DIMASSOC
360
388
  0
DICTIONARY
  5
98
102
{ACAD_REACTORS
330
9
102
}
330
9
100
AcDbDictionary
  0
DICTIONARY
  5
D
102
{ACAD_REACTORS
330
9
102
}
330
9
100
AcDbDictionary
  0
DICTIONARY
  5
99
102
{ACAD_REACTORS
330
9
102
}
330
9
100
AcDbDictionary
  3
STANDARD
350
9B
  0
DICTIONARY
  5
9A
102
{ACAD_REACTORS
330
9
102
}
330
9
100
AcDbDictionary
  0
ACDBDICTIONARYWDFLT
  5
8
102
{ACAD_REACTORS
330
9
102
}
330
9
100
AcDbDictionary
281
     1
  3
Normal
350
7
100
AcDbDictionaryWithDefault
340
7
  0
DICTIONARY
  5
4FC
102
{ACAD_REACTORS
330
9
102
}
330
9
100
AcDbDictionary
  3
CEPSNTYPE
350
506
  3
DIMSTYLEDATA
350
50A
  3
FINGERPRINTGUID
350
507
  3
HYPERLINKBASE
350
4FF
  3
INSUNITS
350
505
  3
LAYOUTDICT
350
501
  3
LWETCUNION
350
504
  3
PLOTSETDICT
350
502
  3
PLOTSTYLNAMDICT
350
503
  3
PSVPSCALE
350
509
  3
PUCSBASE
350
50D
  3
PUCSORGBACK
350
513
  3
PUCSORGBOTTOM
350
50F
  3
PUCSORGFRONT
350
512
  3
PUCSORGLEFT
350
510
  3
PUCSORGRIGHT
350
511
  3
PUCSORGTOP
350
50E
  3
PUCSORTHOREF
350
50B
  3
PUCSORTHOVIEW
350
50C
  3
STYLESHEET
350
500
  3
TSTACKALIGN
350
4FD
  3
TSTACKSIZE
350
4FE
  3
UCSBASE
350
516
  3
UCSORGBACK
350
51C
  3
UCSORGBOTTOM
350
518
  3
UCSORGFRONT
350
51B
  3
UCSORGLEFT
350
519
  3
UCSORGRIGHT
350
51A
  3
UCSORGTOP
350
517
  3
UCSORTHOREF
350
514
  3
UCSORTHOVIEW
350
515
  3
VERSIONGUID
350
508
  0
DICTIONARY
  5
3A7
102
{ACAD_REACTORS
330
9
102
}
330
9
100
AcDbDictionary
  3
DIMASSOC
350
3A9
  3
HIDETEXT
350
3A8
  0
DICTIONARY
  5
16
102
{ACAD_REACTORS
330
15
102
}
330
15
100
AcDbDictionary
280
     1
  3
$LAYERS
360
17
  3
-_UND_0
360
18
  3
-PEGC
360
19
  3
101
360
1A
  3
102
360
1B
  3
1DUC
360
1C
  3
1EQ
360
1D
  3
1TUB
360
1E
  3
2
360
1F
  3
2000
360
20
  3
50
360
21
  3
58J
360
22
  3
65
360
23
  3
AA
360
24
  3
ACABADOS
360
25
  3
AGUA_Y_DREN
360
26
  3
AIRE
360
27
  3
ALLE_AUS
360
28
  3
ALLES_MIT_S
360
29
  3
AMARILLO
360
2A
  3
APAGADOS
360
2B
  3
ARR
360
2C
  3
BA
360
2D
  3
BACKS
360
2E
  3
BASE
360
2F
  3
BLOQ_INUTIL
360
30
  3
CADKON
360
31
  3
CARPINTERIA
360
32
  3
CERRADOS
360
33
  3
COL
360
34
  3
COLOR
360
35
  3
COLOR_250
360
36
  3
COLORES
360
37
  3
CONGELADOS
360
38
  3
CONJUNTO
360
39
  3
D1
360
3A
  3
DA_
360
3B
  3
DET-
360
3C
  3
DOR-H
360
3D
  3
EJES
360
3E
  3
ELECTRICO
360
3F
  3
F1
360
40
  3
FROZEN
360
41
  3
GRID
360
42
  3
GRIDTXT
360
43
  3
HATCH
360
44
  3
HCAD
360
45
  3
INSTALACIONES
360
46
  3
JIZNI
360
47
  3
KCK
360
48
  3
KKK
360
49
  3
LAY
360
4A
  3
LAYER-0
360
4E
  3
LAYER-1
360
4F
  3
LAYER_1_UND_0
360
4B
  3
LAYER_2_UND_0
360
4C
  3
LAYER_9_UND_0_SCHRAFFUR
360
4D
  3
LOCK
360
50
  3
LOCKED
360
51
  3
LOTES
360
52
  3
LUNAR
360
53
  3
LUNAR2
360
54
  3
M
360
55
  3
MIS_LAYERS
360
56
  3
MRKCK
360
57
  3
NECADKON
360
58
  3
NI_LH
360
59
  3
NI_RH
360
5A
  3
NUM
360
5B
  3
OFF
360
5C
  3
ON
360
5D
  3
PBASE
360
5E
  3
PEGC
360
5F
  3
PEGCT
360
60
  3
PFRAME
360
61
  3
PGRID
360
62
  3
PGRIDT
360
63
  3
PLAFONES
360
64
  3
PLANTAS
360
65
  3
PLOT
360
66
  3
PRENDIDAS
360
67
  3
PRENDIDOS
360
68
  3
PRINT
360
69
  3
PT
360
6A
  3
PTH
360
6B
  3
PVGRID
360
6C
  3
RED_DE_AGUA_POTABLE
360
6D
  3
RED_DE_ENERGIA_ELECTRICA
360
6E
  3
SEVERNI
360
6F
  3
SHIN
360
70
  3
SHOW_ALL_LAYER
360
71
  3
SIN
360
72
  3
STORAGE-CART
360
73
  3
T
360
74
  3
TEXTOS
360
75
  3
TEXTURAS
360
76
  3
TUBERIAS
360
77
  3
UNFRZ
360
78
  3
V\U+0160ECHNY_NEPOU\U+017D\U+00CDVAN\U+00C9
360
79
  3
VA
360
7A
  3
VENTILACI\U+00D3N
360
7B
  3
VYHODNI
360
7C
  3
YO
360
7D
  3
ZAPADNI
360
7E
  3
사용
360
7F
  3
신규
360
80
  3
실박스
360
81
  3
우리토목
360
82
  3
주차
360
83
  3
지상정밀
360
84
  3
쩜선
360
85
  3
플로터_작업층
360
86
  3
현재_작업층
360
87
  3
현재_잠금
360
88
  0
DICTIONARY
  5
89
102
{ACAD_REACTORS
330
15
102
}
330
15
100
AcDbDictionary
  0
XRECORD
  5
51D
102
{ACAD_REACTORS
330
3
102
}
330
3
100
AcDbXrecord
340
2
  0
XRECORD
  5
51E
102
{ACAD_REACTORS
330
F
102
}
330
F
100
AcDbXrecord
340
E
  0
DIMASSOC
  5
DB
102
{ACAD_REACTORS
330
DA
102
}
330
DA
100
AcDbDimAssoc
330
D9
 90
        2
 70
     0
 71
     0
  1
AcDbOsnapPointRef
 72
     3
331
D8
 73
     2
 91
        0
 40
0.0
 10
0.0
 20
0.0
 30
0.0
 75
     0
  0
DIMASSOC
  5
9F
102
{ACAD_REACTORS
330
9E
102
}
330
9E
100
AcDbDimAssoc
330
9D
 90
        2
 70
     0
 71
     0
  1
AcDbOsnapPointRef
 72
    13
331
130
 73
     2
 91
        0
 40
0.0
 10
181.3365403003826
 20
16.28018068602887
 30
0.0
 75
     0
  0
DIMASSOC
  5
C3
102
{ACAD_REACTORS
330
C2
102
}
330
C2
100
AcDbDimAssoc
330
C1
 90
        3
 70
     0
 71
     0
  1
AcDbOsnapPointRef
 72
     1
331
1E6
 73
     2
 91
        0
 40
1.0
 10
144.3365403003681
 20
55.28018068602887
 30
0.0
 75
     0
  1
AcDbOsnapPointRef
 72
     1
331
20F
 73
     2
 91
        0
 40
1.0
 10
174.3365403003681
 20
67.28018068602887
 30
0.0
 75
     0
  0
DIMASSOC
  5
FB
102
{ACAD_REACTORS
330
FA
102
}
330
FA
100
AcDbDimAssoc
330
F9
 90
        3
 70
     0
 71
     0
  1
AcDbOsnapPointRef
 72
    13
331
BE
 73
     2
 91
        0
 40
0.0
 10
179.3365403003681
 20
102.7801806860288
 30
0.0
 75
     0
  1
AcDbOsnapPointRef
 72
     1
331
BE
 73
     2
 91
        0
 40
1.0
 10
179.3365403003681
 20
19.78018068602887
 30
0.0
 75
     0
  0
DIMASSOC
  5
120
102
{ACAD_REACTORS
330
11F
102
}
330
11F
100
AcDbDimAssoc
330
11E
 90
        1
 70
     0
 71
     0
  1
AcDbOsnapPointRef
 72
    13
331
130
 73
     2
 91
        0
 40
0.0
 10
181.3365403003826
 20
16.28018068602887
 30
0.0
 75
     0
  0
DIMASSOC
  5
133
102
{ACAD_REACTORS
330
132
102
}
330
132
100
AcDbDimAssoc
330
131
 90
        3
 70
     0
 71
     0
  1
AcDbOsnapPointRef
 72
     1
331
12F
 73
     2
 91
        0
 40
1.0
 10
179.3365403003681
 20
19.78018068602887
 30
0.0
 75
     0
  1
AcDbOsnapPointRef
 72
    13
331
130
 73
     2
 91
        0
 40
0.0
 10
181.3365403003826
 20
16.28018068602887
 30
0.0
 75
     0
  0
DIMASSOC
  5
146
102
{ACAD_REACTORS
330
145
102
}
330
145
100
AcDbDimAssoc
330
144
 90
        3
 70
     0
 71
     0
  1
AcDbOsnapPointRef
 72
    13
331
130
 73
     2
 91
        0
 40
0.0
 10
181.3365403003826
 20
16.28018068602887
 30
0.0
 75
     0
  1
AcDbOsnapPointRef
 72
     1
331
142
 73
     2
 91
        0
 40
1.0
 10
188.8365403003681
 20
17.68144334450153
 30
0.0
 75
     0
  0
DIMASSOC
  5
163
102
{ACAD_REACTORS
330
162
102
}
330
162
100
AcDbDimAssoc
330
161
 90
        1
 70
     0
 71
     0
  1
AcDbOsnapPointRef
 72
    13
331
37C
 73
     2
 91
        0
 40
0.0
 10
178.3971674468503
 20
229.1447786750022
 30
0.0
 75
     0
  0
DIMASSOC
  5
172
102
{ACAD_REACTORS
330
171
102
}
330
171
100
AcDbDimAssoc
330
170
 90
        3
 70
     0
 71
     0
  1
AcDbOsnapPointRef
 72
    13
331
37C
 73
     2
 91
        0
 40
0.0
 10
178.3971674468503
 20
229.1447786750022
 30
0.0
 75
     0
  1
AcDbOsnapPointRef
 72
     1
331
379
 73
     2
 91
        0
 40
1.0
 10
185.8971674468502
 20
230.546041333474
 30
0.0
 75
     0
  0
DIMASSOC
  5
181
102
{ACAD_REACTORS
330
180
102
}
330
180
100
AcDbDimAssoc
330
17F
 90
        3
 70
     0
 71
     0
  1
AcDbOsnapPointRef
 72
     1
331
37B
 73
     2
 91
        0
 40
1.0
 10
176.3971674468503
 20
232.6447786750031
 30
0.0
 75
     0
  1
AcDbOsnapPointRef
 72
    13
331
37C
 73
     2
 91
        0
 40
0.0
 10
178.3971674468503
 20
229.1447786750022
 30
0.0
 75
     0
  0
DIMASSOC
  5
1A1
102
{ACAD_REACTORS
330
1A0
102
}
330
1A0
100
AcDbDimAssoc
330
19F
 90
        2
 70
     0
 71
     0
  1
AcDbOsnapPointRef
 72
    13
331
37C
 73
     2
 91
        0
 40
0.0
 10
178.3971674468503
 20
229.1447786750022
 30
0.0
 75
     0
  0
DIMASSOC
  5
1B5
102
{ACAD_REACTORS
330
1B4
102
}
330
1B4
100
AcDbDimAssoc
330
1B3
 90
        3
 70
     0
 71
     0
  1
AcDbOsnapPointRef
 72
     1
331
1B2
 73
     2
 91
        0
 40
1.0
 10
13.75272574888185
 20
114.2801806860979
 30
0.0
 75
     0
  1
AcDbOsnapPointRef
 72
     1
331
282
 73
     2
 91
        0
 40
1.0
 10
75.75272574888185
 20
114.2801806860979
 30
0.0
 75
     0
  0
DIMASSOC
  5
1D8
102
{ACAD_REACTORS
330
1D7
102
}
330
1D7
100
AcDbDimAssoc
330
1D6
 90
        3
 70
     0
 71
     0
  1
AcDbOsnapPointRef
 72
     1
331
1E5
 73
     2
 91
        0
 40
1.0
 10
144.3365403003681
 20
66.28018068602887
 30
0.0
 75
     0
  1
AcDbOsnapPointRef
 72
     1
331
20F
 73
     2
 91
        0
 40
1.0
 10
174.3365403003681
 20
67.28018068602887
 30
0.0
 75
     0
  0
DIMASSOC
  5
1E9
102
{ACAD_REACTORS
330
1E8
102
}
330
1E8
100
AcDbDimAssoc
330
1E7
 90
        3
 70
     0
 71
     0
  1
AcDbOsnapPointRef
 72
     1
331
1E6
 73
     2
 91
        0
 40
1.0
 10
144.3365403003681
 20
55.28018068602887
 30
0.0
 75
     0
  1
AcDbOsnapPointRef
 72
     1
331
1E5
 73
     2
 91
        0
 40
1.0
 10
144.3365403003681
 20
66.28018068602887
 30
0.0
 75
     0
  0
DIMASSOC
  5
1FD
102
{ACAD_REACTORS
330
1FC
102
}
330
1FC
100
AcDbDimAssoc
330
1FB
 90
        3
 70
     0
 71
     0
  1
AcDbOsnapPointRef
 72
     1
331
20A
 73
     2
 91
        0
 40
1.0
 10
187.3365403003681
 20
114.980179686031
 30
0.0
 75
     0
  1
AcDbOsnapPointRef
 72
    13
331
25D
 73
     2
 91
        0
 40
0.0
 10
262.3332073003675
 20
146.2801796860312
 30
0.0
 75
     0
  0
DIMASSOC
  5
219
102
{ACAD_REACTORS
330
218
102
}
330
218
100
AcDbDimAssoc
330
217
 90
        2
 70
     0
 71
     0
  1
AcDbOsnapPointRef
 72
     1
331
20A
 73
     2
 91
        0
 40
1.0
 10
187.3365403003681
 20
114.980179686031
 30
0.0
 75
     0
  0
DIMASSOC
  5
238
102
{ACAD_REACTORS
330
237
102
}
330
237
100
AcDbDimAssoc
330
236
 90
        3
 70
     0
 71
     0
  1
AcDbOsnapPointRef
 72
    13
331
245
 73
     2
 91
        0
 40
0.0
 10
262.3332073003675
 20
146.2801796860312
 30
0.0
 75
     0
  1
AcDbOsnapPointRef
 72
    13
331
24A
 73
     2
 91
        0
 40
0.0
 10
290.3332073003821
 20
138.2801796860312
 30
0.0
 75
     0
  0
DIMASSOC
  5
29A
102
{ACAD_REACTORS
330
299
102
}
330
299
100
AcDbDimAssoc
330
298
 90
        3
 70
     0
 71
     0
  1
AcDbOsnapPointRef
 72
     1
331
295
 73
     2
 91
        0
 40
1.0
 10
12.95143785066829
 20
327.1447786750714
 30
0.0
 75
     0
  1
AcDbOsnapPointRef
 72
     1
331
364
 73
     2
 91
        0
 40
1.0
 10
74.95143785066829
 20
327.1447786750714
 30
0.0
 75
     0
  0
DIMASSOC
  5
2C6
102
{ACAD_REACTORS
330
2C5
102
}
330
2C5
100
AcDbDimAssoc
330
2C4
 90
        3
 70
     0
 71
     0
  1
AcDbOsnapPointRef
 72
     1
331
2D3
 73
     2
 91
        0
 40
1.0
 10
184.3971674468502
 20
327.8447776750053
 30
0.0
 75
     0
  1
AcDbOsnapPointRef
 72
    13
331
343
 73
     2
 91
        0
 40
0.0
 10
259.3938344468497
 20
359.1447776750046
 30
0.0
 75
     0
  0
DIMASSOC
  5
2F7
102
{ACAD_REACTORS
330
2F6
102
}
330
2F6
100
AcDbDimAssoc
330
2F5
 90
        2
 70
     0
 71
     0
  1
AcDbOsnapPointRef
 72
     1
331
2D3
 73
     2
 91
        0
 40
1.0
 10
184.3971674468502
 20
327.8447776750053
 30
0.0
 75
     0
  0
DIMASSOC
  5
331
102
{ACAD_REACTORS
330
330
102
}
330
330
100
AcDbDimAssoc
330
32F
 90
        3
 70
     0
 71
     0
  1
AcDbOsnapPointRef
 72
    13
331
318
 73
     2
 91
        0
 40
0.0
 10
259.3938344468497
 20
359.1447776750046
 30
0.0
 75
     0
  1
AcDbOsnapPointRef
 72
    13
331
31E
 73
     2
 91
        0
 40
0.0
 10
287.3938344468497
 20
351.1447776750046
 30
0.0
 75
     0
  0
DIMASSOC
  5
388
102
{ACAD_REACTORS
330
387
102
}
330
387
100
AcDbDimAssoc
330
386
 90
        3
 70
     0
 71
     0
  1
AcDbOsnapPointRef
 72
    13
331
395
 73
     2
 91
        0
 40
0.0
 10
176.3971674468503
 20
315.6447786750022
 30
0.0
 75
     0
  1
AcDbOsnapPointRef
 72
     1
331
395
 73
     2
 91
        0
 40
1.0
 10
176.3971674468503
 20
232.6447786750031
 30
0.0
 75
     0
  0
MLINESTYLE
  5
9B
102
{ACAD_REACTORS
330
99
102
}
330
99
100
AcDbMlineStyle
  2
STANDARD
 70
     0
  3

 62
   256
 51
90.0
 52
90.0
 71
     2
 49
0.5
 62
   256
  6
BYLAYER
 49
-0.5
 62
   256
  6
BYLAYER
  0
ACDBPLACEHOLDER
  5
7
102
{ACAD_REACTORS
330
8
102
}
330
8
100
AcDbPlaceHolder
280
     0
  0
XRECORD
  5
506
102
{ACAD_REACTORS
330
4FC
102
}
330
4FC
100
AcDbXrecord
 90
        0
  0
XRECORD
  5
50A
102
{ACAD_REACTORS
330
4FC
102
}
330
4FC
100
AcDbXrecord
1000
DSTYLE
1002
{
1070
    79
 70
     2
1070
   179
 70
     1
1070
   289
 70
     0
1002
}
  0
XRECORD
  5
507
102
{ACAD_REACTORS
330
4FC
102
}
330
4FC
100
AcDbXrecord
  1
{FDEAD578-A652-11D2-9A35-0060089B3A3F}
  0
XRECORD
  5
4FF
102
{ACAD_REACTORS
330
4FC
102
}
330
4FC
100
AcDbXrecord
  1

  0
XRECORD
  5
505
102
{ACAD_REACTORS
330
4FC
102
}
330
4FC
100
AcDbXrecord
 90
        4
  0
XRECORD
  5
501
102
{ACAD_REACTORS
330
4FC
102
}
330
4FC
100
AcDbXrecord
340
D
  0
XRECORD
  5
504
102
{ACAD_REACTORS
330
4FC
102
}
330
4FC
100
AcDbXrecord
 90
    10781
  0
XRECORD
  5
502
102
{ACAD_REACTORS
330
4FC
102
}
330
4FC
100
AcDbXrecord
340
9A
  0
XRECORD
  5
503
102
{ACAD_REACTORS
330
4FC
102
}
330
4FC
100
AcDbXrecord
340
8
  0
XRECORD
  5
509
102
{ACAD_REACTORS
330
4FC
102
}
330
4FC
100
AcDbXrecord
 40
0.0
  0
XRECORD
  5
50D
102
{ACAD_REACTORS
330
4FC
102
}
330
4FC
100
AcDbXrecord
340
0
  0
XRECORD
  5
513
102
{ACAD_REACTORS
330
4FC
102
}
330
4FC
100
AcDbXrecord
 10
0.0
 20
0.0
 30
0.0
  0
XRECORD
  5
50F
102
{ACAD_REACTORS
330
4FC
102
}
330
4FC
100
AcDbXrecord
 10
0.0
 20
0.0
 30
0.0
  0
XRECORD
  5
512
102
{ACAD_REACTORS
330
4FC
102
}
330
4FC
100
AcDbXrecord
 10
0.0
 20
0.0
 30
0.0
  0
XRECORD
  5
510
102
{ACAD_REACTORS
330
4FC
102
}
330
4FC
100
AcDbXrecord
 10
0.0
 20
0.0
 30
0.0
  0
XRECORD
  5
511
102
{ACAD_REACTORS
330
4FC
102
}
330
4FC
100
AcDbXrecord
 10
0.0
 20
0.0
 30
0.0
  0
XRECORD
  5
50E
102
{ACAD_REACTORS
330
4FC
102
}
330
4FC
100
AcDbXrecord
 10
0.0
 20
0.0
 30
0.0
  0
XRECORD
  5
50B
102
{ACAD_REACTORS
330
4FC
102
}
330
4FC
100
AcDbXrecord
340
0
  0
XRECORD
  5
50C
102
{ACAD_REACTORS
330
4FC
102
}
330
4FC
100
AcDbXrecord
 70
     0
  0
XRECORD
  5
500
102
{ACAD_REACTORS
330
4FC
102
}
330
4FC
100
AcDbXrecord
  1

  0
XRECORD
  5
4FD
102
{ACAD_REACTORS
330
4FC
102
}
330
4FC
100
AcDbXrecord
 90
        1
  0
XRECORD
  5
4FE
102
{ACAD_REACTORS
330
4FC
102
}
330
4FC
100
AcDbXrecord
 90
       70
  0
XRECORD
  5
516
102
{ACAD_REACTORS
330
4FC
102
}
330
4FC
100
AcDbXrecord
340
0
  0
XRECORD
  5
51C
102
{ACAD_REACTORS
330
4FC
102
}
330
4FC
100
AcDbXrecord
 10
0.0
 20
0.0
 30
0.0
  0
XRECORD
  5
518
102
{ACAD_REACTORS
330
4FC
102
}
330
4FC
100
AcDbXrecord
 10
0.0
 20
0.0
 30
0.0
  0
XRECORD
  5
51B
102
{ACAD_REACTORS
330
4FC
102
}
330
4FC
100
AcDbXrecord
 10
0.0
 20
0.0
 30
0.0
  0
XRECORD
  5
519
102
{ACAD_REACTORS
330
4FC
102
}
330
4FC
100
AcDbXrecord
 10
0.0
 20
0.0
 30
0.0
  0
XRECORD
  5
51A
102
{ACAD_REACTORS
330
4FC
102
}
330
4FC
100
AcDbXrecord
 10
0.0
 20
0.0
 30
0.0
  0
XRECORD
  5
517
102
{ACAD_REACTORS
330
4FC
102
}
330
4FC
100
AcDbXrecord
 10
0.0
 20
0.0
 30
0.0
  0
XRECORD
  5
514
102
{ACAD_REACTORS
330
4FC
102
}
330
4FC
100
AcDbXrecord
340
0
  0
XRECORD
  5
515
102
{ACAD_REACTORS
330
4FC
102
}
330
4FC
100
AcDbXrecord
 70
     0
  0
XRECORD
  5
508
102
{ACAD_REACTORS
330
4FC
102
}
330
4FC
100
AcDbXrecord
  1
{96A0D716-5F92-4F30-AA99-FBDFB40C0A72}
  0
DICTIONARYVAR
  5
3A9
102
{ACAD_REACTORS
330
3A7
102
}
330
3A7
100
DictionaryVariables
280
     0
  1
2
  0
DICTIONARYVAR
  5
3A8
102
{ACAD_REACTORS
330
3A7
102
}
330
3A7
100
DictionaryVariables
280
     0
  1
1
  0
XRECORD
  5
17
102
{ACAD_REACTORS
330
16
102
}
330
16
100
AcDbXrecord
  1
$layers
  1
*
  1
*
  1
*
 70
     0
  1
*
  1
*
  0
XRECORD
  5
18
102
{ACAD_REACTORS
330
16
102
}
330
16
100
AcDbXrecord
  1
- und 0
  1
-*,0
  1
*
  1
*
 70
     0
  1
*
  1
*
  0
XRECORD
  5
19
102
{ACAD_REACTORS
330
16
102
}
330
16
100
AcDbXrecord
  1
-pegc
  1
*-pegc
  1
*
  1
*
 70
     0
  1
*
  1
*
  0
XRECORD
  5
1A
102
{ACAD_REACTORS
330
16
102
}
330
16
100
AcDbXrecord
  1
101
  1
*101
  1
*
  1
*
 70
   256
  1
*
  1
*
  0
XRECORD
  5
1B
102
{ACAD_REACTORS
330
16
102
}
330
16
100
AcDbXrecord
  1
102
  1
102*
  1
*
  1
*
 70
     0
  1
*
  1
*
  0
XRECORD
  5
1C
102
{ACAD_REACTORS
330
16
102
}
330
16
100
AcDbXrecord
  1
1duc
  1
*1duc*
  1
*
  1
*
 70
     0
  1
*
  1
*
  0
XRECORD
  5
1D
102
{ACAD_REACTORS
330
16
102
}
330
16
100
AcDbXrecord
  1
1eq
  1
*1eq*
  1
*
  1
*
 70
     0
  1
*
  1
*
  0
XRECORD
  5
1E
102
{ACAD_REACTORS
330
16
102
}
330
16
100
AcDbXrecord
  1
1tub
  1
*1t*
  1
*
  1
*
 70
     0
  1
*
  1
*
  0
XRECORD
  5
1F
102
{ACAD_REACTORS
330
16
102
}
330
16
100
AcDbXrecord
  1
2
  1
*
  1
2
  1
*
 70
     0
  1
*
  1
*
  0
XRECORD
  5
20
102
{ACAD_REACTORS
330
16
102
}
330
16
100
AcDbXrecord
  1
2000
  1
2000*
  1
*
  1
*
 70
     0
  1
*
  1
*
  0
XRECORD
  5
21
102
{ACAD_REACTORS
330
16
102
}
330
16
100
AcDbXrecord
  1
50
  1
*-50
  1
*
  1
*
 70
     0
  1
*
  1
*
  0
XRECORD
  5
22
102
{ACAD_REACTORS
330
16
102
}
330
16
100
AcDbXrecord
  1
58J
  1
*58*
  1
*
  1
*
 70
     0
  1
*
  1
*
  0
XRECORD
  5
23
102
{ACAD_REACTORS
330
16
102
}
330
16
100
AcDbXrecord
  1
65
  1
*65
  1
*
  1
*
 70
     0
  1
*
  1
*
  0
XRECORD
  5
24
102
{ACAD_REACTORS
330
16
102
}
330
16
100
AcDbXrecord
  1
aa
  1
aa*
  1
*
  1
*
 70
     0
  1
*
  1
*
  0
XRECORD
  5
25
102
{ACAD_REACTORS
330
16
102
}
330
16
100
AcDbXrecord
  1
acabados
  1
a-*
  1
*
  1
*
 70
     5
  1
*
  1
*
  0
XRECORD
  5
26
102
{ACAD_REACTORS
330
16
102
}
330
16
100
AcDbXrecord
  1
AGUA Y DREN
  1
A-DS-*
  1
*
  1
*
 70
     0
  1
*
  1
*
  0
XRECORD
  5
27
102
{ACAD_REACTORS
330
16
102
}
330
16
100
AcDbXrecord
  1
Aire
  1
*
  1
*
  1
*
 70
     0
  1
*
  1
*
  0
XRECORD
  5
28
102
{ACAD_REACTORS
330
16
102
}
330
16
100
AcDbXrecord
  1
alle aus
  1
99999999999
  1
*
  1
*
 70
     0
  1
*
  1
*
  0
XRECORD
  5
29
102
{ACAD_REACTORS
330
16
102
}
330
16
100
AcDbXrecord
  1
Alles mit S
  1
s*
  1
*
  1
*
 70
     0
  1
*
  1
*
  0
XRECORD
  5
2A
102
{ACAD_REACTORS
330
16
102
}
330
16
100
AcDbXrecord
  1
amarillo
  1
*
  1
yellow
  1
*
 70
     0
  1
*
  1
*
  0
XRECORD
  5
2B
102
{ACAD_REACTORS
330
16
102
}
330
16
100
AcDbXrecord
  1
APAGADOS
  1
*
  1
*
  1
*
 70
     4
  1
*
  1
*
  0
XRECORD
  5
2C
102
{ACAD_REACTORS
330
16
102
}
330
16
100
AcDbXrecord
  1
ARR
  1
ARR*
  1
*
  1
*
 70
     0
  1
*
  1
*
  0
XRECORD
  5
2D
102
{ACAD_REACTORS
330
16
102
}
330
16
100
AcDbXrecord
  1
ba
  1
*
  1
*
  1
*
 70
     0
  1
*
  1
*
  0
XRECORD
  5
2E
102
{ACAD_REACTORS
330
16
102
}
330
16
100
AcDbXrecord
  1
BACKS
  1
*-H
  1
*
  1
*
 70
     0
  1
*
  1
*
  0
XRECORD
  5
2F
102
{ACAD_REACTORS
330
16
102
}
330
16
100
AcDbXrecord
  1
BASE
  1
*-PBASE
  1
*
  1
*
 70
     0
  1
*
  1
*
  0
XRECORD
  5
30
102
{ACAD_REACTORS
330
16
102
}
330
16
100
AcDbXrecord
  1
BLOQ_INUTIL
  1
*
  1
*
  1
*
 70
     0
  1
*
  1
*
  0
XRECORD
  5
31
102
{ACAD_REACTORS
330
16
102
}
330
16
100
AcDbXrecord
  1
CADKON
  1
?[KAHBSM]?????[23M],?[KAHBSM]?????[23M][1456A-DGHILN-SU-Z]
  1
*
  1
*
 70
     0
  1
*
  1
*
  0
XRECORD
  5
32
102
{ACAD_REACTORS
330
16
102
}
330
16
100
AcDbXrecord
  1
carpinteria
  1
carp*
  1
*
  1
*
 70
     0
  1
*
  1
*
  0
XRECORD
  5
33
102
{ACAD_REACTORS
330
16
102
}
330
16
100
AcDbXrecord
  1
cerrados
  1
*
  1
*
  1
*
 70
   256
  1
*
  1
*
  0
XRECORD
  5
34
102
{ACAD_REACTORS
330
16
102
}
330
16
100
AcDbXrecord
  1
COL
  1
*
  1
*
  1
*
 70
     1
  1
*
  1
*
  0
XRECORD
  5
35
102
{ACAD_REACTORS
330
16
102
}
330
16
100
AcDbXrecord
  1
COLOR
  1
*
  1
253
  1
*
 70
     0
  1
*
  1
*
  0
XRECORD
  5
36
102
{ACAD_REACTORS
330
16
102
}
330
16
100
AcDbXrecord
  1
color 250
  1
*
  1
250
  1
*
 70
     0
  1
*
  1
*
  0
XRECORD
  5
37
102
{ACAD_REACTORS
330
16
102
}
330
16
100
AcDbXrecord
  1
COLORES
  1
*
  1
6
  1
*
 70
     0
  1
*
  1
*
  0
XRECORD
  5
38
102
{ACAD_REACTORS
330
16
102
}
330
16
100
AcDbXrecord
  1
Congelados
  1
*
  1
*
  1
*
 70
     4
  1
*
  1
*
  0
XRECORD
  5
39
102
{ACAD_REACTORS
330
16
102
}
330
16
100
AcDbXrecord
  1
CONJUNTO
  1
CON-*
  1
*
  1
*
 70
     0
  1
*
  1
*
  0
XRECORD
  5
3A
102
{ACAD_REACTORS
330
16
102
}
330
16
100
AcDbXrecord
  1
d1
  1
achurados
  1
*
  1
*
 70
     0
  1
*
  1
*
  0
XRECORD
  5
3B
102
{ACAD_REACTORS
330
16
102
}
330
16
100
AcDbXrecord
  1
DA_
  1
DA*
  1
*
  1
*
 70
     0
  1
*
  1
*
  0
XRECORD
  5
3C
102
{ACAD_REACTORS
330
16
102
}
330
16
100
AcDbXrecord
  1
DET-
  1
*
  1
*
  1
*
 70
     0
  1
*
  1
*
  0
XRECORD
  5
3D
102
{ACAD_REACTORS
330
16
102
}
330
16
100
AcDbXrecord
  1
DOR-H
  1
*
  1
7
  1
*
 70
     0
  1
*
  1
*
  0
XRECORD
  5
3E
102
{ACAD_REACTORS
330
16
102
}
330
16
100
AcDbXrecord
  1
ejes
  1
eje*
  1
*
  1
*
 70
     0
  1
*
  1
*
  0
XRECORD
  5
3F
102
{ACAD_REACTORS
330
16
102
}
330
16
100
AcDbXrecord
  1
ELECTRICO
  1
ELEC-*
  1
*
  1
*
 70
     0
  1
*
  1
*
  0
XRECORD
  5
40
102
{ACAD_REACTORS
330
16
102
}
330
16
100
AcDbXrecord
  1
F1
  1
Halaxref*
  1
*
  1
*
 70
     0
  1
*
  1
*
  0
XRECORD
  5
41
102
{ACAD_REACTORS
330
16
102
}
330
16
100
AcDbXrecord
  1
frozen
  1
*
  1
*
  1
*
 70
     4
  1
*
  1
*
  0
XRECORD
  5
42
102
{ACAD_REACTORS
330
16
102
}
330
16
100
AcDbXrecord
  1
grid
  1
*-PGRID
  1
*
  1
*
 70
     1
  1
*
  1
*
  0
XRECORD
  5
43
102
{ACAD_REACTORS
330
16
102
}
330
16
100
AcDbXrecord
  1
GRIDTXT
  1
*-PGRIDT
  1
*
  1
*
 70
     0
  1
*
  1
*
  0
XRECORD
  5
44
102
{ACAD_REACTORS
330
16
102
}
330
16
100
AcDbXrecord
  1
HATCH
  1
HAT*
  1
*
  1
*
 70
     0
  1
*
  1
*
  0
XRECORD
  5
45
102
{ACAD_REACTORS
330
16
102
}
330
16
100
AcDbXrecord
  1
HCAD
  1
1HCAD-*
  1
*
  1
*
 70
    13
  1
*
  1
*
  0
XRECORD
  5
46
102
{ACAD_REACTORS
330
16
102
}
330
16
100
AcDbXrecord
  1
INSTALACIONES
  1
I-*
  1
*
  1
*
 70
     0
  1
*
  1
*
  0
XRECORD
  5
47
102
{ACAD_REACTORS
330
16
102
}
330
16
100
AcDbXrecord
  1
JIZNI
  1
*-J
  1
*
  1
*
 70
     0
  1
*
  1
*
  0
XRECORD
  5
48
102
{ACAD_REACTORS
330
16
102
}
330
16
100
AcDbXrecord
  1
kck
  1
*
  1
*
  1
*
 70
     0
  1
*
  1
*
  0
XRECORD
  5
49
102
{ACAD_REACTORS
330
16
102
}
330
16
100
AcDbXrecord
  1
kkk
  1
k
  1
*
  1
*
 70
     0
  1
*
  1
*
  0
XRECORD
  5
4A
102
{ACAD_REACTORS
330
16
102
}
330
16
100
AcDbXrecord
  1
lay
  1
??-*
  1
*
  1
*
 70
     0
  1
*
  1
*
  0
XRECORD
  5
4E
102
{ACAD_REACTORS
330
16
102
}
330
16
100
AcDbXrecord
  1
Layer-0
  1
0*
  1
*
  1
*
 70
     0
  1
*
  1
*
  0
XRECORD
  5
4F
102
{ACAD_REACTORS
330
16
102
}
330
16
100
AcDbXrecord
  1
Layer-1
  1
1*
  1
*
  1
*
 70
     0
  1
*
  1
*
  0
XRECORD
  5
4B
102
{ACAD_REACTORS
330
16
102
}
330
16
100
AcDbXrecord
  1
Layer 1 und 0
  1
1*,0
  1
*
  1
*
 70
     0
  1
*
  1
*
  0
XRECORD
  5
4C
102
{ACAD_REACTORS
330
16
102
}
330
16
100
AcDbXrecord
  1
Layer 2 und 0
  1
2*,0
  1
*
  1
*
 70
     0
  1
*
  1
*
  0
XRECORD
  5
4D
102
{ACAD_REACTORS
330
16
102
}
330
16
100
AcDbXrecord
  1
Layer 9 und 0 Schraffur
  1
9*,0
  1
*
  1
*
 70
     0
  1
*
  1
*
  0
XRECORD
  5
50
102
{ACAD_REACTORS
330
16
102
}
330
16
100
AcDbXrecord
  1
LOCK
  1
*
  1
*
  1
*
 70
   256
  1
*
  1
*
  0
XRECORD
  5
51
102
{ACAD_REACTORS
330
16
102
}
330
16
100
AcDbXrecord
  1
locked
  1
*
  1
*
  1
*
 70
   256
  1
*
  1
*
  0
XRECORD
  5
52
102
{ACAD_REACTORS
330
16
102
}
330
16
100
AcDbXrecord
  1
Lotes
  1
*
  1
*
  1
*
 70
     1
  1
*
  1
*
  0
XRECORD
  5
53
102
{ACAD_REACTORS
330
16
102
}
330
16
100
AcDbXrecord
  1
LUNAR
  1
*
  1
*
  1
*
 70
    48
  1
*
  1
*
  0
XRECORD
  5
54
102
{ACAD_REACTORS
330
16
102
}
330
16
100
AcDbXrecord
  1
LUNAR2
  1
*
  1
*
  1
*
 70
    12
  1
*
  1
*
  0
XRECORD
  5
55
102
{ACAD_REACTORS
330
16
102
}
330
16
100
AcDbXrecord
  1
M
  1
M*
  1
*
  1
*
 70
     0
  1
*
  1
*
  0
XRECORD
  5
56
102
{ACAD_REACTORS
330
16
102
}
330
16
100
AcDbXrecord
  1
mis_layers
  1
mis_*
  1
*
  1
*
 70
     0
  1
*
  1
*
  0
XRECORD
  5
57
102
{ACAD_REACTORS
330
16
102
}
330
16
100
AcDbXrecord
  1
MRKCK
  1
*
  1
*
  1
*
 70
     0
  1
*
  1
*
  0
XRECORD
  5
58
102
{ACAD_REACTORS
330
16
102
}
330
16
100
AcDbXrecord
  1
NECADKON
  1
~*?[KAHBSM]?????[23M]*
  1
*
  1
*
 70
     0
  1
*
  1
*
  0
XRECORD
  5
59
102
{ACAD_REACTORS
330
16
102
}
330
16
100
AcDbXrecord
  1
NI_LH
  1
NI_LH*
  1
*
  1
*
 70
     0
  1
*
  1
*
  0
XRECORD
  5
5A
102
{ACAD_REACTORS
330
16
102
}
330
16
100
AcDbXrecord
  1
NI_RH
  1
NI_RH*
  1
*
  1
*
 70
     0
  1
*
  1
*
  0
XRECORD
  5
5B
102
{ACAD_REACTORS
330
16
102
}
330
16
100
AcDbXrecord
  1
NUM
  1
NUM*
  1
*
  1
*
 70
     0
  1
*
  1
*
  0
XRECORD
  5
5C
102
{ACAD_REACTORS
330
16
102
}
330
16
100
AcDbXrecord
  1
off
  1
*
  1
*
  1
*
 70
     3
  1
*
  1
*
  0
XRECORD
  5
5D
102
{ACAD_REACTORS
330
16
102
}
330
16
100
AcDbXrecord
  1
on
  1
*
  1
*
  1
*
 70
     0
  1
*
  1
*
  0
XRECORD
  5
5E
102
{ACAD_REACTORS
330
16
102
}
330
16
100
AcDbXrecord
  1
PBASE
  1
*PBASE
  1
*
  1
*
 70
     0
  1
*
  1
*
  0
XRECORD
  5
5F
102
{ACAD_REACTORS
330
16
102
}
330
16
100
AcDbXrecord
  1
PEGC
  1
*PEGC
  1
*
  1
*
 70
     0
  1
*
  1
*
  0
XRECORD
  5
60
102
{ACAD_REACTORS
330
16
102
}
330
16
100
AcDbXrecord
  1
PEGCT
  1
*PEGCT
  1
*
  1
*
 70
     0
  1
*
  1
*
  0
XRECORD
  5
61
102
{ACAD_REACTORS
330
16
102
}
330
16
100
AcDbXrecord
  1
PFRAME
  1
PFRAME*
  1
*
  1
*
 70
     0
  1
*
  1
*
  0
XRECORD
  5
62
102
{ACAD_REACTORS
330
16
102
}
330
16
100
AcDbXrecord
  1
PGRID
  1
*PGRID
  1
*
  1
*
 70
     0
  1
*
  1
*
  0
XRECORD
  5
63
102
{ACAD_REACTORS
330
16
102
}
330
16
100
AcDbXrecord
  1
PGRIDT
  1
*PGRIDT
  1
*
  1
*
 70
     0
  1
*
  1
*
  0
XRECORD
  5
64
102
{ACAD_REACTORS
330
16
102
}
330
16
100
AcDbXrecord
  1
PLAFONES
  1
0-*
  1
*
  1
*
 70
     0
  1
*
  1
*
  0
XRECORD
  5
65
102
{ACAD_REACTORS
330
16
102
}
330
16
100
AcDbXrecord
  1
PLANTAS
  1
P-*
  1
*
  1
*
 70
     0
  1
*
  1
*
  0
XRECORD
  5
66
102
{ACAD_REACTORS
330
16
102
}
330
16
100
AcDbXrecord
  1
Plot
  1
*
  1
*
  1
*
 70
  1024
  1
*
  1
*
  0
XRECORD
  5
67
102
{ACAD_REACTORS
330
16
102
}
330
16
100
AcDbXrecord
  1
PRENDIDAS
  1
*
  1
*
  1
*
 70
    13
  1
*
  1
*
  0
XRECORD
  5
68
102
{ACAD_REACTORS
330
16
102
}
330
16
100
AcDbXrecord
  1
PRENDIDOS
  1
*
  1
*
  1
*
 70
    12
  1
*
  1
*
  0
XRECORD
  5
69
102
{ACAD_REACTORS
330
16
102
}
330
16
100
AcDbXrecord
  1
print
  1
*
  1
7
  1
*
 70
  1280
  1
*
  1
*
  0
XRECORD
  5
6A
102
{ACAD_REACTORS
330
16
102
}
330
16
100
AcDbXrecord
  1
PT
  1
PT-*
  1
*
  1
*
 70
     0
  1
*
  1
*
  0
XRECORD
  5
6B
102
{ACAD_REACTORS
330
16
102
}
330
16
100
AcDbXrecord
  1
PTH
  1
PTH*
  1
*
  1
*
 70
     0
  1
*
  1
*
  0
XRECORD
  5
6C
102
{ACAD_REACTORS
330
16
102
}
330
16
100
AcDbXrecord
  1
PVGRID
  1
*PVGRID
  1
*
  1
*
 70
     0
  1
*
  1
*
  0
XRECORD
  5
6D
102
{ACAD_REACTORS
330
16
102
}
330
16
100
AcDbXrecord
  1
Red de Agua Potable
  1
Red de Agua Potable
  1
*
  1
*
 70
     1
  1
*
  1
*
  0
XRECORD
  5
6E
102
{ACAD_REACTORS
330
16
102
}
330
16
100
AcDbXrecord
  1
Red de Energia Electrica
  1
Lotes
  1
*
  1
*
 70
     1
  1
*
  1
*
  0
XRECORD
  5
6F
102
{ACAD_REACTORS
330
16
102
}
330
16
100
AcDbXrecord
  1
SEVERNI
  1
*-S
  1
*
  1
*
 70
     0
  1
*
  1
*
  0
XRECORD
  5
70
102
{ACAD_REACTORS
330
16
102
}
330
16
100
AcDbXrecord
  1
shin
  1
일*
  1
*
  1
*
 70
     0
  1
*
  1
*
  0
XRECORD
  5
71
102
{ACAD_REACTORS
330
16
102
}
330
16
100
AcDbXrecord
  1
SHOW ALL LAYER
  1
*
  1
*
  1
*
 70
     0
  1
*
  1
*
  0
XRECORD
  5
72
102
{ACAD_REACTORS
330
16
102
}
330
16
100
AcDbXrecord
  1
sin
  1
sin
  1
*
  1
*
 70
     0
  1
*
  1
*
  0
XRECORD
  5
73
102
{ACAD_REACTORS
330
16
102
}
330
16
100
AcDbXrecord
  1
STORAGE-CART
  1
STORAGE-CART*
  1
*
  1
*
 70
     0
  1
*
  1
*
  0
XRECORD
  5
74
102
{ACAD_REACTORS
330
16
102
}
330
16
100
AcDbXrecord
  1
T
  1
T*
  1
*
  1
*
 70
     0
  1
*
  1
*
  0
XRECORD
  5
75
102
{ACAD_REACTORS
330
16
102
}
330
16
100
AcDbXrecord
  1
TEXTOS
  1
TXT*
  1
*
  1
*
 70
     0
  1
*
  1
*
  0
XRECORD
  5
76
102
{ACAD_REACTORS
330
16
102
}
330
16
100
AcDbXrecord
  1
TEXTURAS
  1
*TEXTURAS
  1
*
  1
*
 70
     0
  1
*
  1
*
  0
XRECORD
  5
77
102
{ACAD_REACTORS
330
16
102
}
330
16
100
AcDbXrecord
  1
TUBERIAS
  1
T*
  1
*
  1
*
 70
     0
  1
*
  1
*
  0
XRECORD
  5
78
102
{ACAD_REACTORS
330
16
102
}
330
16
100
AcDbXrecord
  1
UNFRZ
  1
*
  1
*
  1
*
 70
    12
  1
*
  1
*
  0
XRECORD
  5
79
102
{ACAD_REACTORS
330
16
102
}
330
16
100
AcDbXrecord
  1
v\U+0161echny nepou\U+017E\U+00EDvan\U+00E9
  1
*
  1
*
  1
*
 70
     0
  1
*
  1
*
  0
XRECORD
  5
7A
102
{ACAD_REACTORS
330
16
102
}
330
16
100
AcDbXrecord
  1
VA
  1
VA*
  1
*
  1
*
 70
     0
  1
*
  1
*
  0
XRECORD
  5
7B
102
{ACAD_REACTORS
330
16
102
}
330
16
100
AcDbXrecord
  1
Ventilaci\U+00F3n
  1
*
  1
*
  1
*
 70
     0
  1
*
  1
*
  0
XRECORD
  5
7C
102
{ACAD_REACTORS
330
16
102
}
330
16
100
AcDbXrecord
  1
VYHODNI
  1
*-V
  1
*
  1
*
 70
     0
  1
*
  1
*
  0
XRECORD
  5
7D
102
{ACAD_REACTORS
330
16
102
}
330
16
100
AcDbXrecord
  1
Yo
  1
Muros
  1
*
  1
*
 70
     0
  1
*
  1
*
  0
XRECORD
  5
7E
102
{ACAD_REACTORS
330
16
102
}
330
16
100
AcDbXrecord
  1
ZAPADNI
  1
*-Z
  1
*
  1
*
 70
     0
  1
*
  1
*
  0
XRECORD
  5
7F
102
{ACAD_REACTORS
330
16
102
}
330
16
100
AcDbXrecord
  1
사용
  1
*
  1
*
  1
*
 70
   256
  1
*
  1
*
  0
XRECORD
  5
80
102
{ACAD_REACTORS
330
16
102
}
330
16
100
AcDbXrecord
  1
신규
  1
신규
  1
*
  1
*
 70
     0
  1
*
  1
*
  0
XRECORD
  5
81
102
{ACAD_REACTORS
330
16
102
}
330
16
100
AcDbXrecord
  1
실박스
  1
BLO,SYM,SYM1,SYM2
  1
*
  1
*
 70
     0
  1
*
  1
*
  0
XRECORD
  5
82
102
{ACAD_REACTORS
330
16
102
}
330
16
100
AcDbXrecord
  1
우리토목
  1
w-*
  1
*
  1
*
 70
     0
  1
*
  1
*
  0
XRECORD
  5
83
102
{ACAD_REACTORS
330
16
102
}
330
16
100
AcDbXrecord
  1
주차
  1
car*
  1
*
  1
*
 70
     0
  1
*
  1
*
  0
XRECORD
  5
84
102
{ACAD_REACTORS
330
16
102
}
330
16
100
AcDbXrecord
  1
지상정밀
  1
*
  1
*
  1
*
 70
     0
  1
*
  1
*
  0
XRECORD
  5
85
102
{ACAD_REACTORS
330
16
102
}
330
16
100
AcDbXrecord
  1
쩜선
  1
*
  1
*
  1
*
 70
     0
  1
*
  1
*
  0
XRECORD
  5
86
102
{ACAD_REACTORS
330
16
102
}
330
16
100
AcDbXrecord
  1
플로터 작업층
  1
*
  1
*
  1
*
 70
  1025
  1
*
  1
*
  0
XRECORD
  5
87
102
{ACAD_REACTORS
330
16
102
}
330
16
100
AcDbXrecord
  1
현재 작업층
  1
*
  1
*
  1
*
 70
     1
  1
*
  1
*
  0
XRECORD
  5
88
102
{ACAD_REACTORS
330
16
102
}
330
16
100
AcDbXrecord
  1
현재 잠금
  1
*
  1
*
  1
*
 70
   257
  1
*
  1
*
  0
ENDSEC
  0
EOF
