  0
SECTION
  2
HEADER
  9
$ACADVER
  1
AC1014
  9
$ACADMAINTVER
 70
     9
  9
$DWGCODEPAGE
  3
ANSI_949
  9
$INSBASE
 10
0.0
 20
0.0
 30
0.0
  9
$EXTMIN
 10
-5.213482378487242
 20
-7.232096374555112
 30
-0.0015258207003583
  9
$EXTMAX
 10
285.4953102886065
 20
329.5815909264492
 30
0.0000000349246037
  9
$LIMMIN
 10
0.0
 20
0.0
  9
$LIMMAX
 10
420.0
 20
297.0
  9
$ORTHOMODE
 70
     0
  9
$REGENMODE
 70
     1
  9
$FILLMODE
 70
     1
  9
$QTEXTMODE
 70
     0
  9
$MIRRTEXT
 70
     0
  9
$DRAGMODE
 70
     2
  9
$LTSCALE
 40
0.2
  9
$OSMODE
 70
   567
  9
$ATTMODE
 70
     1
  9
$TEXTSIZE
 40
5.777225951253058
  9
$TRACEWID
 40
1.0
  9
$TEXTSTYLE
  7
STANDARD
  9
$CLAYER
  8
0
  9
$CELTYPE
  6
BYLAYER
  9
$CECOLOR
 62
   256
  9
$CELTSCALE
 40
1.0
  9
$DELOBJ
 70
     1
  9
$DISPSILH
 70
     0
  9
$DIMSCALE
 40
1.0
  9
$DIMASZ
 40
3.0
  9
$DIMEXO
 40
1.0
  9
$DIMDLI
 40
10.0
  9
$DIMRND
 40
0.0
  9
$DIMDLE
 40
0.0
  9
$DIMEXE
 40
0.6
  9
$DIMTP
 40
0.0
  9
$DIMTM
 40
0.0
  9
$DIMTXT
 40
3.5
  9
$DIMCEN
 40
0.09
  9
$DIMTSZ
 40
0.0
  9
$DIMTOL
 70
     0
  9
$DIMLIM
 70
     0
  9
$DIMTIH
 70
     0
  9
$DIMTOH
 70
     0
  9
$DIMSE1
 70
     0
  9
$DIMSE2
 70
     0
  9
$DIMTAD
 70
     1
  9
$DIMZIN
 70
     8
  9
$DIMBLK
  1

  9
$DIMASO
 70
     1
  9
$DIMSHO
 70
     1
  9
$DIMPOST
  1

  9
$DIMAPOST
  1

  9
$DIMALT
 70
     0
  9
$DIMALTD
 70
     2
  9
$DIMALTF
 40
25.4
  9
$DIMLFAC
 40
1.0
  9
$DIMTOFL
 70
     1
  9
$DIMTVP
 40
0.0
  9
$DIMTIX
 70
     1
  9
$DIMSOXD
 70
     0
  9
$DIMSAH
 70
     0
  9
$DIMBLK1
  1

  9
$DIMBLK2
  1

  9
$DIMSTYLE
  2
1_1_2
  9
$DIMCLRD
 70
   123
  9
$DIMCLRE
 70
   123
  9
$DIMCLRT
 70
     3
  9
$DIMTFAC
 40
1.0
  9
$DIMGAP
 40
1.0
  9
$DIMJUST
 70
     0
  9
$DIMSD1
 70
     0
  9
$DIMSD2
 70
     0
  9
$DIMTOLJ
 70
     1
  9
$DIMTZIN
 70
     0
  9
$DIMALTZ
 70
     0
  9
$DIMALTTZ
 70
     0
  9
$DIMFIT
 70
     0
  9
$DIMUPT
 70
     1
  9
$DIMUNIT
 70
     2
  9
$DIMDEC
 70
     2
  9
$DIMTDEC
 70
     2
  9
$DIMALTU
 70
     2
  9
$DIMALTTD
 70
     2
  9
$DIMTXSTY
  7
STANDARD
  9
$DIMAUNIT
 70
     1
  9
$LUNITS
 70
     2
  9
$LUPREC
 70
     4
  9
$SKETCHINC
 40
1.0
  9
$FILLETRAD
 40
0.5
  9
$AUNITS
 70
     0
  9
$AUPREC
 70
     0
  9
$MENU
  1
.
  9
$ELEVATION
 40
0.0
  9
$PELEVATION
 40
0.0
  9
$THICKNESS
 40
0.0
  9
$LIMCHECK
 70
     0
  9
$BLIPMODE
 70
     1
  9
$CHAMFERA
 40
1.0
  9
$CHAMFERB
 40
1.0
  9
$CHAMFERC
 40
20.0
  9
$CHAMFERD
 40
0.0
  9
$SKPOLY
 70
     0
  9
$TDCREATE
 40
2452839.586179271
  9
$TDUPDATE
 40
2453376.720992106
  9
$TDINDWG
 40
11.1146861574
  9
$TDUSRTIMER
 40
11.1146861574
  9
$USRTIMER
 70
     1
  9
$ANGBASE
 50
0.0
  9
$ANGDIR
 70
     0
  9
$PDMODE
 70
     0
  9
$PDSIZE
 40
0.0
  9
$PLINEWID
 40
0.0
  9
$COORDS
 70
     2
  9
$SPLFRAME
 70
     0
  9
$SPLINETYPE
 70
     6
  9
$SPLINESEGS
 70
   800
  9
$ATTDIA
 70
     0
  9
$ATTREQ
 70
     1
  9
$HANDLING
 70
 22529
  9
$HANDSEED
  5
508
  9
$SURFTAB1
 70
     6
  9
$SURFTAB2
 70
     6
  9
$SURFTYPE
 70
     6
  9
$SURFU
 70
     6
  9
$SURFV
 70
     6
  9
$UCSNAME
  2

  9
$UCSORG
 10
0.0
 20
0.0
 30
0.0
  9
$UCSXDIR
 10
1.0
 20
0.0
 30
0.0
  9
$UCSYDIR
 10
0.0
 20
1.0
 30
0.0
  9
$PUCSNAME
  2

  9
$PUCSORG
 10
0.0
 20
0.0
 30
0.0
  9
$PUCSXDIR
 10
1.0
 20
0.0
 30
0.0
  9
$PUCSYDIR
 10
0.0
 20
1.0
 30
0.0
  9
$USERI1
 70
     0
  9
$USERI2
 70
     0
  9
$USERI3
 70
     0
  9
$USERI4
 70
     0
  9
$USERI5
 70
     0
  9
$USERR1
 40
0.0
  9
$USERR2
 40
0.0
  9
$USERR3
 40
0.0
  9
$USERR4
 40
0.0
  9
$USERR5
 40
0.0
  9
$WORLDVIEW
 70
     1
  9
$SHADEDGE
 70
     3
  9
$SHADEDIF
 70
    70
  9
$TILEMODE
 70
     1
  9
$MAXACTVP
 70
    48
  9
$PINSBASE
 10
0.0
 20
0.0
 30
0.0
  9
$PLIMCHECK
 70
     0
  9
$PEXTMIN
 10
0.0
 20
0.0
 30
0.0
  9
$PEXTMAX
 10
0.0
 20
0.0
 30
0.0
  9
$PLIMMIN
 10
0.0
 20
0.0
  9
$PLIMMAX
 10
12.0
 20
9.0
  9
$UNITMODE
 70
     0
  9
$VISRETAIN
 70
     1
  9
$PLINEGEN
 70
     0
  9
$PSLTSCALE
 70
     1
  9
$TREEDEPTH
 70
  3020
  9
$PICKSTYLE
 70
     0
  9
$CMLSTYLE
  2
STANDARD
  9
$CMLJUST
 70
     0
  9
$CMLSCALE
 40
20.0
  9
$PROXYGRAPHICS
 70
     1
  9
$MEASUREMENT
 70
     1
  0
ENDSEC
  0
SECTION
  2
CLASSES
  0
CLASS
  1
ACDBDICTIONARYWDFLT
  2
AcDbDictionaryWithDefault
  3
AutoCAD 2000
 90
        0
280
     0
281
     0
  0
CLASS
  1
ACDBPLACEHOLDER
  2
AcDbPlaceHolder
  3
AutoCAD 2000
 90
        0
280
     0
281
     0
  0
CLASS
  1
LAYOUT
  2
AcDbLayout
  3
AutoCAD 2000
 90
        0
280
     0
281
     0
  0
CLASS
  1
DICTIONARYVAR
  2
AcDbDictionaryVar
  3
AutoCAD 2000
 90
        0
280
     0
281
     0
  0
CLASS
  1
DIMASSOC
  2
AcDbDimAssoc
  3
"AcDbDimAssoc|Product Desc:     AcDim ARX App For Dimension|Company:          Autodesk, Inc.|WEB Address:      www.autodesk.com"
 90
        0
280
     0
281
     0
  0
CLASS
  1
LONG_TRANSACTION
  2
AcDbLongTransaction
  3
AutoCAD 2000
 90
        0
280
     0
281
     0
  0
CLASS
  1
LWPOLYLINE
  2
AcDbPolyline
  3
AutoCAD 2000
 90
        0
280
     0
281
     1
  0
CLASS
  1
HATCH
  2
AcDbHatch
  3
AutoCAD 2000
 90
        0
280
     0
281
     1
  0
CLASS
  1
XRECORD
  2
AcDbXrecord
  3
AutoCAD 2000
 90
        0
280
     0
281
     0
  0
CLASS
  1
LONG_TRANSACTION
  2
AcDbLongTransaction
  3
AutoCAD 2000
 90
        0
280
     0
281
     0
  0
CLASS
  1
LWPOLYLINE
  2
AcDbPolyline
  3
AutoCAD 2000
 90
        0
280
     0
281
     1
  0
CLASS
  1
HATCH
  2
AcDbHatch
  3
AutoCAD 2000
 90
        0
280
     0
281
     1
  0
CLASS
  1
XRECORD
  2
AcDbXrecord
  3
AutoCAD 2000
 90
        0
280
     0
281
     0
  0
CLASS
  1
LONG_TRANSACTION
  2
AcDbLongTransaction
  3
AutoCAD 2000
 90
        0
280
     0
281
     0
  0
CLASS
  1
LWPOLYLINE
  2
AcDbPolyline
  3
AutoCAD 2000
 90
        0
280
     0
281
     1
  0
CLASS
  1
HATCH
  2
AcDbHatch
  3
AutoCAD 2000
 90
        0
280
     0
281
     1
  0
CLASS
  1
XRECORD
  2
AcDbXrecord
  3
AutoCAD 2000
 90
        0
280
     0
281
     0
  0
CLASS
  1
LONG_TRANSACTION
  2
AcDbLongTransaction
  3
AutoCAD 2000
 90
        0
280
     0
281
     0
  0
CLASS
  1
LWPOLYLINE
  2
AcDbPolyline
  3
AutoCAD 2000
 90
        0
280
     0
281
     1
  0
CLASS
  1
HATCH
  2
AcDbHatch
  3
AutoCAD 2000
 90
        0
280
     0
281
     1
  0
CLASS
  1
XRECORD
  2
AcDbXrecord
  3
AutoCAD 2000
 90
        0
280
     0
281
     0
  0
CLASS
  1
LONG_TRANSACTION
  2
AcDbLongTransaction
  3
AutoCAD 2000
 90
        0
280
     0
281
     0
  0
CLASS
  1
LWPOLYLINE
  2
AcDbPolyline
  3
AutoCAD 2000
 90
        0
280
     0
281
     1
  0
CLASS
  1
HATCH
  2
AcDbHatch
  3
AutoCAD 2000
 90
        0
280
     0
281
     1
  0
CLASS
  1
XRECORD
  2
AcDbXrecord
  3
AutoCAD 2000
 90
        0
280
     0
281
     0
  0
CLASS
  1
LONG_TRANSACTION
  2
AcDbLongTransaction
  3
AutoCAD 2000
 90
        0
280
     0
281
     0
  0
CLASS
  1
LWPOLYLINE
  2
AcDbPolyline
  3
AutoCAD 2000
 90
        0
280
     0
281
     1
  0
CLASS
  1
HATCH
  2
AcDbHatch
  3
AutoCAD 2000
 90
        0
280
     0
281
     1
  0
CLASS
  1
XRECORD
  2
AcDbXrecord
  3
AutoCAD 2000
 90
        0
280
     0
281
     0
  0
CLASS
  1
LONG_TRANSACTION
  2
AcDbLongTransaction
  3
AutoCAD 2000
 90
        0
280
     0
281
     0
  0
CLASS
  1
LWPOLYLINE
  2
AcDbPolyline
  3
AutoCAD 2000
 90
        0
280
     0
281
     1
  0
CLASS
  1
HATCH
  2
AcDbHatch
  3
AutoCAD 2000
 90
        0
280
     0
281
     1
  0
CLASS
  1
XRECORD
  2
AcDbXrecord
  3
AutoCAD 2000
 90
        0
280
     0
281
     0
  0
CLASS
  1
LONG_TRANSACTION
  2
AcDbLongTransaction
  3
AutoCAD 2000
 90
        0
280
     0
281
     0
  0
CLASS
  1
LWPOLYLINE
  2
AcDbPolyline
  3
AutoCAD 2000
 90
        0
280
     0
281
     1
  0
CLASS
  1
HATCH
  2
AcDbHatch
  3
AutoCAD 2000
 90
        0
280
     0
281
     1
  0
CLASS
  1
XRECORD
  2
AcDbXrecord
  3
AutoCAD 2000
 90
        0
280
     0
281
     0
  0
CLASS
  1
LONG_TRANSACTION
  2
AcDbLongTransaction
  3
AutoCAD 2000
 90
        0
280
     0
281
     0
  0
CLASS
  1
LWPOLYLINE
  2
AcDbPolyline
  3
AutoCAD 2000
 90
        0
280
     0
281
     1
  0
CLASS
  1
HATCH
  2
AcDbHatch
  3
AutoCAD 2000
 90
        0
280
     0
281
     1
  0
CLASS
  1
XRECORD
  2
AcDbXrecord
  3
AutoCAD 2000
 90
        0
280
     0
281
     0
  0
CLASS
  1
LONG_TRANSACTION
  2
AcDbLongTransaction
  3
AutoCAD 2000
 90
        0
280
     0
281
     0
  0
CLASS
  1
LWPOLYLINE
  2
AcDbPolyline
  3
AutoCAD 2000
 90
        0
280
     0
281
     1
  0
CLASS
  1
HATCH
  2
AcDbHatch
  3
AutoCAD 2000
 90
        0
280
     0
281
     1
  0
CLASS
  1
XRECORD
  2
AcDbXrecord
  3
AutoCAD 2000
 90
        0
280
     0
281
     0
  0
CLASS
  1
LONG_TRANSACTION
  2
AcDbLongTransaction
  3
AutoCAD 2000
 90
        0
280
     0
281
     0
  0
CLASS
  1
LWPOLYLINE
  2
AcDbPolyline
  3
AutoCAD 2000
 90
        0
280
     0
281
     1
  0
CLASS
  1
HATCH
  2
AcDbHatch
  3
AutoCAD 2000
 90
        0
280
     0
281
     1
  0
CLASS
  1
XRECORD
  2
AcDbXrecord
  3
AutoCAD 2000
 90
        0
280
     0
281
     0
  0
CLASS
  1
LONG_TRANSACTION
  2
AcDbLongTransaction
  3
AutoCAD 2000
 90
        0
280
     0
281
     0
  0
CLASS
  1
LWPOLYLINE
  2
AcDbPolyline
  3
AutoCAD 2000
 90
        0
280
     0
281
     1
  0
CLASS
  1
HATCH
  2
AcDbHatch
  3
AutoCAD 2000
 90
        0
280
     0
281
     1
  0
CLASS
  1
XRECORD
  2
AcDbXrecord
  3
AutoCAD 2000
 90
        0
280
     0
281
     0
  0
CLASS
  1
LONG_TRANSACTION
  2
AcDbLongTransaction
  3
AutoCAD 2000
 90
        0
280
     0
281
     0
  0
CLASS
  1
LWPOLYLINE
  2
AcDbPolyline
  3
AutoCAD 2000
 90
        0
280
     0
281
     1
  0
CLASS
  1
HATCH
  2
AcDbHatch
  3
AutoCAD 2000
 90
        0
280
     0
281
     1
  0
CLASS
  1
XRECORD
  2
AcDbXrecord
  3
AutoCAD 2000
 90
        0
280
     0
281
     0
  0
CLASS
  1
LONG_TRANSACTION
  2
AcDbLongTransaction
  3
AutoCAD 2000
 90
        0
280
     0
281
     0
  0
CLASS
  1
LWPOLYLINE
  2
AcDbPolyline
  3
AutoCAD 2000
 90
        0
280
     0
281
     1
  0
CLASS
  1
HATCH
  2
AcDbHatch
  3
AutoCAD 2000
 90
        0
280
     0
281
     1
  0
CLASS
  1
XRECORD
  2
AcDbXrecord
  3
AutoCAD 2000
 90
        0
280
     0
281
     0
  0
CLASS
  1
LONG_TRANSACTION
  2
AcDbLongTransaction
  3
AutoCAD 2000
 90
        0
280
     0
281
     0
  0
CLASS
  1
LWPOLYLINE
  2
AcDbPolyline
  3
AutoCAD 2000
 90
        0
280
     0
281
     1
  0
CLASS
  1
HATCH
  2
AcDbHatch
  3
AutoCAD 2000
 90
        0
280
     0
281
     1
  0
CLASS
  1
XRECORD
  2
AcDbXrecord
  3
AutoCAD 2000
 90
        0
280
     0
281
     0
  0
CLASS
  1
LONG_TRANSACTION
  2
AcDbLongTransaction
  3
AutoCAD 2000
 90
        0
280
     0
281
     0
  0
CLASS
  1
LWPOLYLINE
  2
AcDbPolyline
  3
AutoCAD 2000
 90
        0
280
     0
281
     1
  0
CLASS
  1
HATCH
  2
AcDbHatch
  3
AutoCAD 2000
 90
        0
280
     0
281
     1
  0
CLASS
  1
XRECORD
  2
AcDbXrecord
  3
AutoCAD 2000
 90
        0
280
     0
281
     0
  0
CLASS
  1
LONG_TRANSACTION
  2
AcDbLongTransaction
  3
AutoCAD 2000
 90
        0
280
     0
281
     0
  0
CLASS
  1
LWPOLYLINE
  2
AcDbPolyline
  3
AutoCAD 2000
 90
        0
280
     0
281
     1
  0
CLASS
  1
HATCH
  2
AcDbHatch
  3
AutoCAD 2000
 90
        0
280
     0
281
     1
  0
CLASS
  1
XRECORD
  2
AcDbXrecord
  3
AutoCAD 2000
 90
        0
280
     0
281
     0
  0
CLASS
  1
LONG_TRANSACTION
  2
AcDbLongTransaction
  3
AutoCAD 2000
 90
        0
280
     0
281
     0
  0
CLASS
  1
LWPOLYLINE
  2
AcDbPolyline
  3
AutoCAD 2000
 90
        0
280
     0
281
     1
  0
CLASS
  1
HATCH
  2
AcDbHatch
  3
AutoCAD 2000
 90
        0
280
     0
281
     1
  0
CLASS
  1
XRECORD
  2
AcDbXrecord
  3
AutoCAD 2000
 90
        0
280
     0
281
     0
  0
CLASS
  1
LONG_TRANSACTION
  2
AcDbLongTransaction
  3
AutoCAD 2000
 90
        0
280
     0
281
     0
  0
CLASS
  1
LWPOLYLINE
  2
AcDbPolyline
  3
AutoCAD 2000
 90
        0
280
     0
281
     1
  0
CLASS
  1
HATCH
  2
AcDbHatch
  3
AutoCAD 2000
 90
        0
280
     0
281
     1
  0
CLASS
  1
XRECORD
  2
AcDbXrecord
  3
AutoCAD 2000
 90
        0
280
     0
281
     0
  0
CLASS
  1
LONG_TRANSACTION
  2
AcDbLongTransaction
  3
AutoCAD 2000
 90
        0
280
     0
281
     0
  0
CLASS
  1
LWPOLYLINE
  2
AcDbPolyline
  3
AutoCAD 2000
 90
        0
280
     0
281
     1
  0
CLASS
  1
HATCH
  2
AcDbHatch
  3
AutoCAD 2000
 90
        0
280
     0
281
     1
  0
CLASS
  1
XRECORD
  2
AcDbXrecord
  3
AutoCAD 2000
 90
        0
280
     0
281
     0
  0
CLASS
  1
LONG_TRANSACTION
  2
AcDbLongTransaction
  3
AutoCAD 2000
 90
        0
280
     0
281
     0
  0
CLASS
  1
LWPOLYLINE
  2
AcDbPolyline
  3
AutoCAD 2000
 90
        0
280
     0
281
     1
  0
CLASS
  1
HATCH
  2
AcDbHatch
  3
AutoCAD 2000
 90
        0
280
     0
281
     1
  0
CLASS
  1
XRECORD
  2
AcDbXrecord
  3
AutoCAD 2000
 90
        0
280
     0
281
     0
  0
CLASS
  1
LONG_TRANSACTION
  2
AcDbLongTransaction
  3
AutoCAD 2000
 90
        0
280
     0
281
     0
  0
CLASS
  1
LWPOLYLINE
  2
AcDbPolyline
  3
AutoCAD 2000
 90
        0
280
     0
281
     1
  0
CLASS
  1
HATCH
  2
AcDbHatch
  3
AutoCAD 2000
 90
        0
280
     0
281
     1
  0
CLASS
  1
XRECORD
  2
AcDbXrecord
  3
AutoCAD 2000
 90
        0
280
     0
281
     0
  0
CLASS
  1
LONG_TRANSACTION
  2
AcDbLongTransaction
  3
AutoCAD 2000
 90
        0
280
     0
281
     0
  0
CLASS
  1
LWPOLYLINE
  2
AcDbPolyline
  3
AutoCAD 2000
 90
        0
280
     0
281
     1
  0
CLASS
  1
HATCH
  2
AcDbHatch
  3
AutoCAD 2000
 90
        0
280
     0
281
     1
  0
CLASS
  1
XRECORD
  2
AcDbXrecord
  3
AutoCAD 2000
 90
        0
280
     0
281
     0
  0
CLASS
  1
LONG_TRANSACTION
  2
AcDbLongTransaction
  3
AutoCAD 2000
 90
        0
280
     0
281
     0
  0
CLASS
  1
LWPOLYLINE
  2
AcDbPolyline
  3
AutoCAD 2000
 90
        0
280
     0
281
     1
  0
CLASS
  1
HATCH
  2
AcDbHatch
  3
AutoCAD 2000
 90
        0
280
     0
281
     1
  0
CLASS
  1
XRECORD
  2
AcDbXrecord
  3
AutoCAD 2000
 90
        0
280
     0
281
     0
  0
CLASS
  1
LONG_TRANSACTION
  2
AcDbLongTransaction
  3
AutoCAD 2000
 90
        0
280
     0
281
     0
  0
CLASS
  1
LWPOLYLINE
  2
AcDbPolyline
  3
AutoCAD 2000
 90
        0
280
     0
281
     1
  0
CLASS
  1
HATCH
  2
AcDbHatch
  3
AutoCAD 2000
 90
        0
280
     0
281
     1
  0
CLASS
  1
XRECORD
  2
AcDbXrecord
  3
AutoCAD 2000
 90
        0
280
     0
281
     0
  0
CLASS
  1
LONG_TRANSACTION
  2
AcDbLongTransaction
  3
AutoCAD 2000
 90
        0
280
     0
281
     0
  0
CLASS
  1
LWPOLYLINE
  2
AcDbPolyline
  3
AutoCAD 2000
 90
        0
280
     0
281
     1
  0
CLASS
  1
HATCH
  2
AcDbHatch
  3
AutoCAD 2000
 90
        0
280
     0
281
     1
  0
CLASS
  1
XRECORD
  2
AcDbXrecord
  3
AutoCAD 2000
 90
        0
280
     0
281
     0
  0
CLASS
  1
LONG_TRANSACTION
  2
AcDbLongTransaction
  3
AutoCAD 2000
 90
        0
280
     0
281
     0
  0
CLASS
  1
LWPOLYLINE
  2
AcDbPolyline
  3
AutoCAD 2000
 90
        0
280
     0
281
     1
  0
CLASS
  1
HATCH
  2
AcDbHatch
  3
AutoCAD 2000
 90
        0
280
     0
281
     1
  0
CLASS
  1
XRECORD
  2
AcDbXrecord
  3
AutoCAD 2000
 90
        0
280
     0
281
     0
  0
CLASS
  1
LONG_TRANSACTION
  2
AcDbLongTransaction
  3
AutoCAD 2000
 90
        0
280
     0
281
     0
  0
CLASS
  1
LWPOLYLINE
  2
AcDbPolyline
  3
AutoCAD 2000
 90
        0
280
     0
281
     1
  0
CLASS
  1
HATCH
  2
AcDbHatch
  3
AutoCAD 2000
 90
        0
280
     0
281
     1
  0
CLASS
  1
XRECORD
  2
AcDbXrecord
  3
AutoCAD 2000
 90
        0
280
     0
281
     0
  0
CLASS
  1
LONG_TRANSACTION
  2
AcDbLongTransaction
  3
AutoCAD 2000
 90
        0
280
     0
281
     0
  0
CLASS
  1
LWPOLYLINE
  2
AcDbPolyline
  3
AutoCAD 2000
 90
        0
280
     0
281
     1
  0
CLASS
  1
HATCH
  2
AcDbHatch
  3
AutoCAD 2000
 90
        0
280
     0
281
     1
  0
CLASS
  1
XRECORD
  2
AcDbXrecord
  3
AutoCAD 2000
 90
        0
280
     0
281
     0
  0
CLASS
  1
LONG_TRANSACTION
  2
AcDbLongTransaction
  3
AutoCAD 2000
 90
        0
280
     0
281
     0
  0
CLASS
  1
LWPOLYLINE
  2
AcDbPolyline
  3
AutoCAD 2000
 90
        0
280
     0
281
     1
  0
CLASS
  1
HATCH
  2
AcDbHatch
  3
AutoCAD 2000
 90
        0
280
     0
281
     1
  0
CLASS
  1
XRECORD
  2
AcDbXrecord
  3
AutoCAD 2000
 90
        0
280
     0
281
     0
  0
CLASS
  1
LONG_TRANSACTION
  2
AcDbLongTransaction
  3
AutoCAD 2000
 90
        0
280
     0
281
     0
  0
CLASS
  1
LWPOLYLINE
  2
AcDbPolyline
  3
AutoCAD 2000
 90
        0
280
     0
281
     1
  0
CLASS
  1
HATCH
  2
AcDbHatch
  3
AutoCAD 2000
 90
        0
280
     0
281
     1
  0
CLASS
  1
XRECORD
  2
AcDbXrecord
  3
AutoCAD 2000
 90
        0
280
     0
281
     0
  0
CLASS
  1
LONG_TRANSACTION
  2
AcDbLongTransaction
  3
AutoCAD 2000
 90
        0
280
     0
281
     0
  0
CLASS
  1
LWPOLYLINE
  2
AcDbPolyline
  3
AutoCAD 2000
 90
        0
280
     0
281
     1
  0
CLASS
  1
HATCH
  2
AcDbHatch
  3
AutoCAD 2000
 90
        0
280
     0
281
     1
  0
CLASS
  1
XRECORD
  2
AcDbXrecord
  3
AutoCAD 2000
 90
        0
280
     0
281
     0
  0
CLASS
  1
LONG_TRANSACTION
  2
AcDbLongTransaction
  3
AutoCAD 2000
 90
        0
280
     0
281
     0
  0
CLASS
  1
LWPOLYLINE
  2
AcDbPolyline
  3
AutoCAD 2000
 90
        0
280
     0
281
     1
  0
CLASS
  1
HATCH
  2
AcDbHatch
  3
AutoCAD 2000
 90
        0
280
     0
281
     1
  0
CLASS
  1
XRECORD
  2
AcDbXrecord
  3
AutoCAD 2000
 90
        0
280
     0
281
     0
  0
CLASS
  1
LONG_TRANSACTION
  2
AcDbLongTransaction
  3
AutoCAD 2000
 90
        0
280
     0
281
     0
  0
CLASS
  1
LWPOLYLINE
  2
AcDbPolyline
  3
AutoCAD 2000
 90
        0
280
     0
281
     1
  0
CLASS
  1
HATCH
  2
AcDbHatch
  3
AutoCAD 2000
 90
        0
280
     0
281
     1
  0
CLASS
  1
XRECORD
  2
AcDbXrecord
  3
AutoCAD 2000
 90
        0
280
     0
281
     0
  0
CLASS
  1
LONG_TRANSACTION
  2
AcDbLongTransaction
  3
AutoCAD 2000
 90
        0
280
     0
281
     0
  0
CLASS
  1
LWPOLYLINE
  2
AcDbPolyline
  3
AutoCAD 2000
 90
        0
280
     0
281
     1
  0
CLASS
  1
HATCH
  2
AcDbHatch
  3
AutoCAD 2000
 90
        0
280
     0
281
     1
  0
CLASS
  1
XRECORD
  2
AcDbXrecord
  3
AutoCAD 2000
 90
        0
280
     0
281
     0
  0
CLASS
  1
LONG_TRANSACTION
  2
AcDbLongTransaction
  3
AutoCAD 2000
 90
        0
280
     0
281
     0
  0
CLASS
  1
LWPOLYLINE
  2
AcDbPolyline
  3
AutoCAD 2000
 90
        0
280
     0
281
     1
  0
CLASS
  1
HATCH
  2
AcDbHatch
  3
AutoCAD 2000
 90
        0
280
     0
281
     1
  0
CLASS
  1
XRECORD
  2
AcDbXrecord
  3
AutoCAD 2000
 90
        0
280
     0
281
     0
  0
CLASS
  1
LONG_TRANSACTION
  2
AcDbLongTransaction
  3
AutoCAD 2000
 90
        0
280
     0
281
     0
  0
CLASS
  1
LWPOLYLINE
  2
AcDbPolyline
  3
AutoCAD 2000
 90
        0
280
     0
281
     1
  0
CLASS
  1
HATCH
  2
AcDbHatch
  3
AutoCAD 2000
 90
        0
280
     0
281
     1
  0
CLASS
  1
XRECORD
  2
AcDbXrecord
  3
AutoCAD 2000
 90
        0
280
     0
281
     0
  0
CLASS
  1
LONG_TRANSACTION
  2
AcDbLongTransaction
  3
AutoCAD 2000
 90
        0
280
     0
281
     0
  0
CLASS
  1
LWPOLYLINE
  2
AcDbPolyline
  3
AutoCAD 2000
 90
        0
280
     0
281
     1
  0
CLASS
  1
HATCH
  2
AcDbHatch
  3
AutoCAD 2000
 90
        0
280
     0
281
     1
  0
CLASS
  1
XRECORD
  2
AcDbXrecord
  3
AutoCAD 2000
 90
        0
280
     0
281
     0
  0
CLASS
  1
LONG_TRANSACTION
  2
AcDbLongTransaction
  3
AutoCAD 2000
 90
        0
280
     0
281
     0
  0
CLASS
  1
LWPOLYLINE
  2
AcDbPolyline
  3
AutoCAD 2000
 90
        0
280
     0
281
     1
  0
CLASS
  1
HATCH
  2
AcDbHatch
  3
AutoCAD 2000
 90
        0
280
     0
281
     1
  0
CLASS
  1
XRECORD
  2
AcDbXrecord
  3
AutoCAD 2000
 90
        0
280
     0
281
     0
  0
CLASS
  1
LONG_TRANSACTION
  2
AcDbLongTransaction
  3
AutoCAD 2000
 90
        0
280
     0
281
     0
  0
CLASS
  1
LWPOLYLINE
  2
AcDbPolyline
  3
AutoCAD 2000
 90
        0
280
     0
281
     1
  0
CLASS
  1
HATCH
  2
AcDbHatch
  3
AutoCAD 2000
 90
        0
280
     0
281
     1
  0
CLASS
  1
XRECORD
  2
AcDbXrecord
  3
AutoCAD 2000
 90
        0
280
     0
281
     0
  0
CLASS
  1
LONG_TRANSACTION
  2
AcDbLongTransaction
  3
AutoCAD 2000
 90
        0
280
     0
281
     0
  0
CLASS
  1
LWPOLYLINE
  2
AcDbPolyline
  3
AutoCAD 2000
 90
        0
280
     0
281
     1
  0
CLASS
  1
HATCH
  2
AcDbHatch
  3
AutoCAD 2000
 90
        0
280
     0
281
     1
  0
CLASS
  1
XRECORD
  2
AcDbXrecord
  3
AutoCAD 2000
 90
        0
280
     0
281
     0
  0
CLASS
  1
LONG_TRANSACTION
  2
AcDbLongTransaction
  3
AutoCAD 2000
 90
        0
280
     0
281
     0
  0
CLASS
  1
LWPOLYLINE
  2
AcDbPolyline
  3
AutoCAD 2000
 90
        0
280
     0
281
     1
  0
CLASS
  1
HATCH
  2
AcDbHatch
  3
AutoCAD 2000
 90
        0
280
     0
281
     1
  0
CLASS
  1
XRECORD
  2
AcDbXrecord
  3
AutoCAD 2000
 90
        0
280
     0
281
     0
  0
CLASS
  1
LONG_TRANSACTION
  2
AcDbLongTransaction
  3
AutoCAD 2000
 90
        0
280
     0
281
     0
  0
CLASS
  1
LWPOLYLINE
  2
AcDbPolyline
  3
AutoCAD 2000
 90
        0
280
     0
281
     1
  0
CLASS
  1
HATCH
  2
AcDbHatch
  3
AutoCAD 2000
 90
        0
280
     0
281
     1
  0
CLASS
  1
XRECORD
  2
AcDbXrecord
  3
AutoCAD 2000
 90
        0
280
     0
281
     0
  0
CLASS
  1
LONG_TRANSACTION
  2
AcDbLongTransaction
  3
AutoCAD 2000
 90
        0
280
     0
281
     0
  0
CLASS
  1
LWPOLYLINE
  2
AcDbPolyline
  3
AutoCAD 2000
 90
        0
280
     0
281
     1
  0
CLASS
  1
HATCH
  2
AcDbHatch
  3
AutoCAD 2000
 90
        0
280
     0
281
     1
  0
CLASS
  1
XRECORD
  2
AcDbXrecord
  3
AutoCAD 2000
 90
        0
280
     0
281
     0
  0
CLASS
  1
LONG_TRANSACTION
  2
AcDbLongTransaction
  3
AutoCAD 2000
 90
        0
280
     0
281
     0
  0
CLASS
  1
LWPOLYLINE
  2
AcDbPolyline
  3
AutoCAD 2000
 90
        0
280
     0
281
     1
  0
CLASS
  1
HATCH
  2
AcDbHatch
  3
AutoCAD 2000
 90
        0
280
     0
281
     1
  0
CLASS
  1
XRECORD
  2
AcDbXrecord
  3
AutoCAD 2000
 90
        0
280
     0
281
     0
  0
CLASS
  1
LONG_TRANSACTION
  2
AcDbLongTransaction
  3
AutoCAD 2000
 90
        0
280
     0
281
     0
  0
CLASS
  1
LWPOLYLINE
  2
AcDbPolyline
  3
AutoCAD 2000
 90
        0
280
     0
281
     1
  0
CLASS
  1
HATCH
  2
AcDbHatch
  3
AutoCAD 2000
 90
        0
280
     0
281
     1
  0
CLASS
  1
XRECORD
  2
AcDbXrecord
  3
AutoCAD 2000
 90
        0
280
     0
281
     0
  0
CLASS
  1
LONG_TRANSACTION
  2
AcDbLongTransaction
  3
AutoCAD 2000
 90
        0
280
     0
281
     0
  0
CLASS
  1
LWPOLYLINE
  2
AcDbPolyline
  3
AutoCAD 2000
 90
        0
280
     0
281
     1
  0
CLASS
  1
HATCH
  2
AcDbHatch
  3
AutoCAD 2000
 90
        0
280
     0
281
     1
  0
CLASS
  1
XRECORD
  2
AcDbXrecord
  3
AutoCAD 2000
 90
        0
280
     0
281
     0
  0
CLASS
  1
LONG_TRANSACTION
  2
AcDbLongTransaction
  3
AutoCAD 2000
 90
        0
280
     0
281
     0
  0
CLASS
  1
LWPOLYLINE
  2
AcDbPolyline
  3
AutoCAD 2000
 90
        0
280
     0
281
     1
  0
CLASS
  1
HATCH
  2
AcDbHatch
  3
AutoCAD 2000
 90
        0
280
     0
281
     1
  0
CLASS
  1
XRECORD
  2
AcDbXrecord
  3
AutoCAD 2000
 90
        0
280
     0
281
     0
  0
CLASS
  1
LONG_TRANSACTION
  2
AcDbLongTransaction
  3
AutoCAD 2000
 90
        0
280
     0
281
     0
  0
CLASS
  1
LWPOLYLINE
  2
AcDbPolyline
  3
AutoCAD 2000
 90
        0
280
     0
281
     1
  0
CLASS
  1
HATCH
  2
AcDbHatch
  3
AutoCAD 2000
 90
        0
280
     0
281
     1
  0
CLASS
  1
XRECORD
  2
AcDbXrecord
  3
AutoCAD 2000
 90
        0
280
     0
281
     0
  0
CLASS
  1
LONG_TRANSACTION
  2
AcDbLongTransaction
  3
AutoCAD 2000
 90
        0
280
     0
281
     0
  0
CLASS
  1
LWPOLYLINE
  2
AcDbPolyline
  3
AutoCAD 2000
 90
        0
280
     0
281
     1
  0
CLASS
  1
HATCH
  2
AcDbHatch
  3
AutoCAD 2000
 90
        0
280
     0
281
     1
  0
CLASS
  1
XRECORD
  2
AcDbXrecord
  3
AutoCAD 2000
 90
        0
280
     0
281
     0
  0
CLASS
  1
LONG_TRANSACTION
  2
AcDbLongTransaction
  3
AutoCAD 2000
 90
        0
280
     0
281
     0
  0
CLASS
  1
LWPOLYLINE
  2
AcDbPolyline
  3
AutoCAD 2000
 90
        0
280
     0
281
     1
  0
CLASS
  1
HATCH
  2
AcDbHatch
  3
AutoCAD 2000
 90
        0
280
     0
281
     1
  0
CLASS
  1
XRECORD
  2
AcDbXrecord
  3
AutoCAD 2000
 90
        0
280
     0
281
     0
  0
CLASS
  1
LONG_TRANSACTION
  2
AcDbLongTransaction
  3
AutoCAD 2000
 90
        0
280
     0
281
     0
  0
CLASS
  1
LWPOLYLINE
  2
AcDbPolyline
  3
AutoCAD 2000
 90
        0
280
     0
281
     1
  0
CLASS
  1
HATCH
  2
AcDbHatch
  3
AutoCAD 2000
 90
        0
280
     0
281
     1
  0
CLASS
  1
XRECORD
  2
AcDbXrecord
  3
AutoCAD 2000
 90
        0
280
     0
281
     0
  0
CLASS
  1
LONG_TRANSACTION
  2
AcDbLongTransaction
  3
AutoCAD 2000
 90
        0
280
     0
281
     0
  0
CLASS
  1
LWPOLYLINE
  2
AcDbPolyline
  3
AutoCAD 2000
 90
        0
280
     0
281
     1
  0
CLASS
  1
HATCH
  2
AcDbHatch
  3
AutoCAD 2000
 90
        0
280
     0
281
     1
  0
CLASS
  1
XRECORD
  2
AcDbXrecord
  3
AutoCAD 2000
 90
        0
280
     0
281
     0
  0
CLASS
  1
LONG_TRANSACTION
  2
AcDbLongTransaction
  3
AutoCAD 2000
 90
        0
280
     0
281
     0
  0
CLASS
  1
LWPOLYLINE
  2
AcDbPolyline
  3
AutoCAD 2000
 90
        0
280
     0
281
     1
  0
CLASS
  1
HATCH
  2
AcDbHatch
  3
AutoCAD 2000
 90
        0
280
     0
281
     1
  0
CLASS
  1
XRECORD
  2
AcDbXrecord
  3
AutoCAD 2000
 90
        0
280
     0
281
     0
  0
CLASS
  1
LONG_TRANSACTION
  2
AcDbLongTransaction
  3
AutoCAD 2000
 90
        0
280
     0
281
     0
  0
CLASS
  1
LWPOLYLINE
  2
AcDbPolyline
  3
AutoCAD 2000
 90
        0
280
     0
281
     1
  0
CLASS
  1
HATCH
  2
AcDbHatch
  3
AutoCAD 2000
 90
        0
280
     0
281
     1
  0
CLASS
  1
XRECORD
  2
AcDbXrecord
  3
AutoCAD 2000
 90
        0
280
     0
281
     0
  0
CLASS
  1
LONG_TRANSACTION
  2
AcDbLongTransaction
  3
AutoCAD 2000
 90
        0
280
     0
281
     0
  0
CLASS
  1
LWPOLYLINE
  2
AcDbPolyline
  3
AutoCAD 2000
 90
        0
280
     0
281
     1
  0
CLASS
  1
HATCH
  2
AcDbHatch
  3
AutoCAD 2000
 90
        0
280
     0
281
     1
  0
CLASS
  1
XRECORD
  2
AcDbXrecord
  3
AutoCAD 2000
 90
        0
280
     0
281
     0
  0
CLASS
  1
LONG_TRANSACTION
  2
AcDbLongTransaction
  3
AutoCAD 2000
 90
        0
280
     0
281
     0
  0
CLASS
  1
LWPOLYLINE
  2
AcDbPolyline
  3
AutoCAD 2000
 90
        0
280
     0
281
     1
  0
CLASS
  1
HATCH
  2
AcDbHatch
  3
AutoCAD 2000
 90
        0
280
     0
281
     1
  0
CLASS
  1
XRECORD
  2
AcDbXrecord
  3
AutoCAD 2000
 90
        0
280
     0
281
     0
  0
CLASS
  1
LONG_TRANSACTION
  2
AcDbLongTransaction
  3
AutoCAD 2000
 90
        0
280
     0
281
     0
  0
CLASS
  1
LWPOLYLINE
  2
AcDbPolyline
  3
AutoCAD 2000
 90
        0
280
     0
281
     1
  0
CLASS
  1
HATCH
  2
AcDbHatch
  3
AutoCAD 2000
 90
        0
280
     0
281
     1
  0
CLASS
  1
XRECORD
  2
AcDbXrecord
  3
AutoCAD 2000
 90
        0
280
     0
281
     0
  0
CLASS
  1
LONG_TRANSACTION
  2
AcDbLongTransaction
  3
AutoCAD 2000
 90
        0
280
     0
281
     0
  0
CLASS
  1
LWPOLYLINE
  2
AcDbPolyline
  3
AutoCAD 2000
 90
        0
280
     0
281
     1
  0
CLASS
  1
HATCH
  2
AcDbHatch
  3
AutoCAD 2000
 90
        0
280
     0
281
     1
  0
CLASS
  1
XRECORD
  2
AcDbXrecord
  3
AutoCAD 2000
 90
        0
280
     0
281
     0
  0
CLASS
  1
LONG_TRANSACTION
  2
AcDbLongTransaction
  3
AutoCAD 2000
 90
        0
280
     0
281
     0
  0
CLASS
  1
LWPOLYLINE
  2
AcDbPolyline
  3
AutoCAD 2000
 90
        0
280
     0
281
     1
  0
CLASS
  1
HATCH
  2
AcDbHatch
  3
AutoCAD 2000
 90
        0
280
     0
281
     1
  0
CLASS
  1
XRECORD
  2
AcDbXrecord
  3
AutoCAD 2000
 90
        0
280
     0
281
     0
  0
CLASS
  1
LONG_TRANSACTION
  2
AcDbLongTransaction
  3
AutoCAD 2000
 90
        0
280
     0
281
     0
  0
CLASS
  1
LWPOLYLINE
  2
AcDbPolyline
  3
AutoCAD 2000
 90
        0
280
     0
281
     1
  0
CLASS
  1
HATCH
  2
AcDbHatch
  3
AutoCAD 2000
 90
        0
280
     0
281
     1
  0
CLASS
  1
XRECORD
  2
AcDbXrecord
  3
AutoCAD 2000
 90
        0
280
     0
281
     0
  0
CLASS
  1
LONG_TRANSACTION
  2
AcDbLongTransaction
  3
AutoCAD 2000
 90
        0
280
     0
281
     0
  0
CLASS
  1
LWPOLYLINE
  2
AcDbPolyline
  3
AutoCAD 2000
 90
        0
280
     0
281
     1
  0
CLASS
  1
HATCH
  2
AcDbHatch
  3
AutoCAD 2000
 90
        0
280
     0
281
     1
  0
CLASS
  1
XRECORD
  2
AcDbXrecord
  3
AutoCAD 2000
 90
        0
280
     0
281
     0
  0
CLASS
  1
LONG_TRANSACTION
  2
AcDbLongTransaction
  3
AutoCAD 2000
 90
        0
280
     0
281
     0
  0
CLASS
  1
LWPOLYLINE
  2
AcDbPolyline
  3
AutoCAD 2000
 90
        0
280
     0
281
     1
  0
CLASS
  1
HATCH
  2
AcDbHatch
  3
AutoCAD 2000
 90
        0
280
     0
281
     1
  0
CLASS
  1
XRECORD
  2
AcDbXrecord
  3
AutoCAD 2000
 90
        0
280
     0
281
     0
  0
CLASS
  1
LONG_TRANSACTION
  2
AcDbLongTransaction
  3
AutoCAD 2000
 90
        0
280
     0
281
     0
  0
CLASS
  1
LWPOLYLINE
  2
AcDbPolyline
  3
AutoCAD 2000
 90
        0
280
     0
281
     1
  0
CLASS
  1
HATCH
  2
AcDbHatch
  3
AutoCAD 2000
 90
        0
280
     0
281
     1
  0
CLASS
  1
XRECORD
  2
AcDbXrecord
  3
AutoCAD 2000
 90
        0
280
     0
281
     0
  0
CLASS
  1
LONG_TRANSACTION
  2
AcDbLongTransaction
  3
AutoCAD 2000
 90
        0
280
     0
281
     0
  0
CLASS
  1
LWPOLYLINE
  2
AcDbPolyline
  3
AutoCAD 2000
 90
        0
280
     0
281
     1
  0
CLASS
  1
HATCH
  2
AcDbHatch
  3
AutoCAD 2000
 90
        0
280
     0
281
     1
  0
CLASS
  1
XRECORD
  2
AcDbXrecord
  3
AutoCAD 2000
 90
        0
280
     0
281
     0
  0
CLASS
  1
LONG_TRANSACTION
  2
AcDbLongTransaction
  3
AutoCAD 2000
 90
        0
280
     0
281
     0
  0
CLASS
  1
LWPOLYLINE
  2
AcDbPolyline
  3
AutoCAD 2000
 90
        0
280
     0
281
     1
  0
CLASS
  1
HATCH
  2
AcDbHatch
  3
AutoCAD 2000
 90
        0
280
     0
281
     1
  0
CLASS
  1
XRECORD
  2
AcDbXrecord
  3
AutoCAD 2000
 90
        0
280
     0
281
     0
  0
CLASS
  1
LONG_TRANSACTION
  2
AcDbLongTransaction
  3
AutoCAD 2000
 90
        0
280
     0
281
     0
  0
CLASS
  1
LWPOLYLINE
  2
AcDbPolyline
  3
AutoCAD 2000
 90
        0
280
     0
281
     1
  0
CLASS
  1
HATCH
  2
AcDbHatch
  3
AutoCAD 2000
 90
        0
280
     0
281
     1
  0
CLASS
  1
XRECORD
  2
AcDbXrecord
  3
AutoCAD 2000
 90
        0
280
     0
281
     0
  0
CLASS
  1
LONG_TRANSACTION
  2
AcDbLongTransaction
  3
AutoCAD 2000
 90
        0
280
     0
281
     0
  0
CLASS
  1
LWPOLYLINE
  2
AcDbPolyline
  3
AutoCAD 2000
 90
        0
280
     0
281
     1
  0
CLASS
  1
HATCH
  2
AcDbHatch
  3
AutoCAD 2000
 90
        0
280
     0
281
     1
  0
CLASS
  1
XRECORD
  2
AcDbXrecord
  3
AutoCAD 2000
 90
        0
280
     0
281
     0
  0
CLASS
  1
LONG_TRANSACTION
  2
AcDbLongTransaction
  3
AutoCAD 2000
 90
        0
280
     0
281
     0
  0
CLASS
  1
LWPOLYLINE
  2
AcDbPolyline
  3
AutoCAD 2000
 90
        0
280
     0
281
     1
  0
CLASS
  1
HATCH
  2
AcDbHatch
  3
AutoCAD 2000
 90
        0
280
     0
281
     1
  0
CLASS
  1
XRECORD
  2
AcDbXrecord
  3
AutoCAD 2000
 90
        0
280
     0
281
     0
  0
CLASS
  1
LONG_TRANSACTION
  2
AcDbLongTransaction
  3
AutoCAD 2000
 90
        0
280
     0
281
     0
  0
CLASS
  1
LWPOLYLINE
  2
AcDbPolyline
  3
AutoCAD 2000
 90
        0
280
     0
281
     1
  0
CLASS
  1
HATCH
  2
AcDbHatch
  3
AutoCAD 2000
 90
        0
280
     0
281
     1
  0
CLASS
  1
XRECORD
  2
AcDbXrecord
  3
AutoCAD 2000
 90
        0
280
     0
281
     0
  0
CLASS
  1
LONG_TRANSACTION
  2
AcDbLongTransaction
  3
AutoCAD 2000
 90
        0
280
     0
281
     0
  0
CLASS
  1
LWPOLYLINE
  2
AcDbPolyline
  3
AutoCAD 2000
 90
        0
280
     0
281
     1
  0
CLASS
  1
HATCH
  2
AcDbHatch
  3
AutoCAD 2000
 90
        0
280
     0
281
     1
  0
CLASS
  1
XRECORD
  2
AcDbXrecord
  3
AutoCAD 2000
 90
        0
280
     0
281
     0
  0
CLASS
  1
LONG_TRANSACTION
  2
AcDbLongTransaction
  3
AutoCAD 2000
 90
        0
280
     0
281
     0
  0
CLASS
  1
LWPOLYLINE
  2
AcDbPolyline
  3
AutoCAD 2000
 90
        0
280
     0
281
     1
  0
CLASS
  1
HATCH
  2
AcDbHatch
  3
AutoCAD 2000
 90
        0
280
     0
281
     1
  0
CLASS
  1
XRECORD
  2
AcDbXrecord
  3
AutoCAD 2000
 90
        0
280
     0
281
     0
  0
CLASS
  1
LONG_TRANSACTION
  2
AcDbLongTransaction
  3
AutoCAD 2000
 90
        0
280
     0
281
     0
  0
CLASS
  1
LWPOLYLINE
  2
AcDbPolyline
  3
AutoCAD 2000
 90
        0
280
     0
281
     1
  0
CLASS
  1
HATCH
  2
AcDbHatch
  3
AutoCAD 2000
 90
        0
280
     0
281
     1
  0
CLASS
  1
XRECORD
  2
AcDbXrecord
  3
AutoCAD 2000
 90
        0
280
     0
281
     0
  0
CLASS
  1
LONG_TRANSACTION
  2
AcDbLongTransaction
  3
AutoCAD 2000
 90
        0
280
     0
281
     0
  0
CLASS
  1
LWPOLYLINE
  2
AcDbPolyline
  3
AutoCAD 2000
 90
        0
280
     0
281
     1
  0
CLASS
  1
HATCH
  2
AcDbHatch
  3
AutoCAD 2000
 90
        0
280
     0
281
     1
  0
CLASS
  1
XRECORD
  2
AcDbXrecord
  3
AutoCAD 2000
 90
        0
280
     0
281
     0
  0
CLASS
  1
LONG_TRANSACTION
  2
AcDbLongTransaction
  3
AutoCAD 2000
 90
        0
280
     0
281
     0
  0
CLASS
  1
LWPOLYLINE
  2
AcDbPolyline
  3
AutoCAD 2000
 90
        0
280
     0
281
     1
  0
CLASS
  1
HATCH
  2
AcDbHatch
  3
AutoCAD 2000
 90
        0
280
     0
281
     1
  0
CLASS
  1
XRECORD
  2
AcDbXrecord
  3
AutoCAD 2000
 90
        0
280
     0
281
     0
  0
CLASS
  1
LONG_TRANSACTION
  2
AcDbLongTransaction
  3
AutoCAD 2000
 90
        0
280
     0
281
     0
  0
CLASS
  1
LWPOLYLINE
  2
AcDbPolyline
  3
AutoCAD 2000
 90
        0
280
     0
281
     1
  0
CLASS
  1
HATCH
  2
AcDbHatch
  3
AutoCAD 2000
 90
        0
280
     0
281
     1
  0
CLASS
  1
XRECORD
  2
AcDbXrecord
  3
AutoCAD 2000
 90
        0
280
     0
281
     0
  0
CLASS
  1
LONG_TRANSACTION
  2
AcDbLongTransaction
  3
AutoCAD 2000
 90
        0
280
     0
281
     0
  0
CLASS
  1
LWPOLYLINE
  2
AcDbPolyline
  3
AutoCAD 2000
 90
        0
280
     0
281
     1
  0
CLASS
  1
HATCH
  2
AcDbHatch
  3
AutoCAD 2000
 90
        0
280
     0
281
     1
  0
CLASS
  1
XRECORD
  2
AcDbXrecord
  3
AutoCAD 2000
 90
        0
280
     0
281
     0
  0
CLASS
  1
LONG_TRANSACTION
  2
AcDbLongTransaction
  3
AutoCAD 2000
 90
        0
280
     0
281
     0
  0
CLASS
  1
LWPOLYLINE
  2
AcDbPolyline
  3
AutoCAD 2000
 90
        0
280
     0
281
     1
  0
CLASS
  1
HATCH
  2
AcDbHatch
  3
AutoCAD 2000
 90
        0
280
     0
281
     1
  0
CLASS
  1
XRECORD
  2
AcDbXrecord
  3
AutoCAD 2000
 90
        0
280
     0
281
     0
  0
CLASS
  1
LONG_TRANSACTION
  2
AcDbLongTransaction
  3
AutoCAD 2000
 90
        0
280
     0
281
     0
  0
CLASS
  1
LWPOLYLINE
  2
AcDbPolyline
  3
AutoCAD 2000
 90
        0
280
     0
281
     1
  0
CLASS
  1
HATCH
  2
AcDbHatch
  3
AutoCAD 2000
 90
        0
280
     0
281
     1
  0
CLASS
  1
XRECORD
  2
AcDbXrecord
  3
AutoCAD 2000
 90
        0
280
     0
281
     0
  0
CLASS
  1
LONG_TRANSACTION
  2
AcDbLongTransaction
  3
AutoCAD 2000
 90
        0
280
     0
281
     0
  0
CLASS
  1
LWPOLYLINE
  2
AcDbPolyline
  3
AutoCAD 2000
 90
        0
280
     0
281
     1
  0
CLASS
  1
HATCH
  2
AcDbHatch
  3
AutoCAD 2000
 90
        0
280
     0
281
     1
  0
CLASS
  1
XRECORD
  2
AcDbXrecord
  3
AutoCAD 2000
 90
        0
280
     0
281
     0
  0
CLASS
  1
LONG_TRANSACTION
  2
AcDbLongTransaction
  3
AutoCAD 2000
 90
        0
280
     0
281
     0
  0
CLASS
  1
LWPOLYLINE
  2
AcDbPolyline
  3
AutoCAD 2000
 90
        0
280
     0
281
     1
  0
CLASS
  1
HATCH
  2
AcDbHatch
  3
AutoCAD 2000
 90
        0
280
     0
281
     1
  0
CLASS
  1
XRECORD
  2
AcDbXrecord
  3
AutoCAD 2000
 90
        0
280
     0
281
     0
  0
CLASS
  1
LONG_TRANSACTION
  2
AcDbLongTransaction
  3
AutoCAD 2000
 90
        0
280
     0
281
     0
  0
CLASS
  1
LWPOLYLINE
  2
AcDbPolyline
  3
AutoCAD 2000
 90
        0
280
     0
281
     1
  0
CLASS
  1
HATCH
  2
AcDbHatch
  3
AutoCAD 2000
 90
        0
280
     0
281
     1
  0
CLASS
  1
XRECORD
  2
AcDbXrecord
  3
AutoCAD 2000
 90
        0
280
     0
281
     0
  0
CLASS
  1
LONG_TRANSACTION
  2
AcDbLongTransaction
  3
AutoCAD 2000
 90
        0
280
     0
281
     0
  0
CLASS
  1
LWPOLYLINE
  2
AcDbPolyline
  3
AutoCAD 2000
 90
        0
280
     0
281
     1
  0
CLASS
  1
HATCH
  2
AcDbHatch
  3
AutoCAD 2000
 90
        0
280
     0
281
     1
  0
CLASS
  1
XRECORD
  2
AcDbXrecord
  3
AutoCAD 2000
 90
        0
280
     0
281
     0
  0
CLASS
  1
LONG_TRANSACTION
  2
AcDbLongTransaction
  3
AutoCAD 2000
 90
        0
280
     0
281
     0
  0
CLASS
  1
LWPOLYLINE
  2
AcDbPolyline
  3
AutoCAD 2000
 90
        0
280
     0
281
     1
  0
CLASS
  1
HATCH
  2
AcDbHatch
  3
AutoCAD 2000
 90
        0
280
     0
281
     1
  0
CLASS
  1
XRECORD
  2
AcDbXrecord
  3
AutoCAD 2000
 90
        0
280
     0
281
     0
  0
CLASS
  1
LONG_TRANSACTION
  2
AcDbLongTransaction
  3
AutoCAD 2000
 90
        0
280
     0
281
     0
  0
CLASS
  1
LWPOLYLINE
  2
AcDbPolyline
  3
AutoCAD 2000
 90
        0
280
     0
281
     1
  0
CLASS
  1
HATCH
  2
AcDbHatch
  3
AutoCAD 2000
 90
        0
280
     0
281
     1
  0
CLASS
  1
XRECORD
  2
AcDbXrecord
  3
AutoCAD 2000
 90
        0
280
     0
281
     0
  0
CLASS
  1
LONG_TRANSACTION
  2
AcDbLongTransaction
  3
AutoCAD 2000
 90
        0
280
     0
281
     0
  0
CLASS
  1
LWPOLYLINE
  2
AcDbPolyline
  3
AutoCAD 2000
 90
        0
280
     0
281
     1
  0
CLASS
  1
HATCH
  2
AcDbHatch
  3
AutoCAD 2000
 90
        0
280
     0
281
     1
  0
CLASS
  1
XRECORD
  2
AcDbXrecord
  3
AutoCAD 2000
 90
        0
280
     0
281
     0
  0
CLASS
  1
LONG_TRANSACTION
  2
AcDbLongTransaction
  3
AutoCAD 2000
 90
        0
280
     0
281
     0
  0
CLASS
  1
LWPOLYLINE
  2
AcDbPolyline
  3
AutoCAD 2000
 90
        0
280
     0
281
     1
  0
CLASS
  1
HATCH
  2
AcDbHatch
  3
AutoCAD 2000
 90
        0
280
     0
281
     1
  0
CLASS
  1
XRECORD
  2
AcDbXrecord
  3
AutoCAD 2000
 90
        0
280
     0
281
     0
  0
CLASS
  1
LONG_TRANSACTION
  2
AcDbLongTransaction
  3
AutoCAD 2000
 90
        0
280
     0
281
     0
  0
CLASS
  1
LWPOLYLINE
  2
AcDbPolyline
  3
AutoCAD 2000
 90
        0
280
     0
281
     1
  0
CLASS
  1
HATCH
  2
AcDbHatch
  3
AutoCAD 2000
 90
        0
280
     0
281
     1
  0
CLASS
  1
XRECORD
  2
AcDbXrecord
  3
AutoCAD 2000
 90
        0
280
     0
281
     0
  0
CLASS
  1
LONG_TRANSACTION
  2
AcDbLongTransaction
  3
AutoCAD 2000
 90
        0
280
     0
281
     0
  0
CLASS
  1
LWPOLYLINE
  2
AcDbPolyline
  3
AutoCAD 2000
 90
        0
280
     0
281
     1
  0
CLASS
  1
HATCH
  2
AcDbHatch
  3
AutoCAD 2000
 90
        0
280
     0
281
     1
  0
CLASS
  1
XRECORD
  2
AcDbXrecord
  3
AutoCAD 2000
 90
        0
280
     0
281
     0
  0
CLASS
  1
LONG_TRANSACTION
  2
AcDbLongTransaction
  3
AutoCAD 2000
 90
        0
280
     0
281
     0
  0
CLASS
  1
LWPOLYLINE
  2
AcDbPolyline
  3
AutoCAD 2000
 90
        0
280
     0
281
     1
  0
CLASS
  1
HATCH
  2
AcDbHatch
  3
AutoCAD 2000
 90
        0
280
     0
281
     1
  0
CLASS
  1
XRECORD
  2
AcDbXrecord
  3
AutoCAD 2000
 90
        0
280
     0
281
     0
  0
CLASS
  1
LONG_TRANSACTION
  2
AcDbLongTransaction
  3
AutoCAD 2000
 90
        0
280
     0
281
     0
  0
CLASS
  1
LWPOLYLINE
  2
AcDbPolyline
  3
AutoCAD 2000
 90
        0
280
     0
281
     1
  0
CLASS
  1
HATCH
  2
AcDbHatch
  3
AutoCAD 2000
 90
        0
280
     0
281
     1
  0
CLASS
  1
XRECORD
  2
AcDbXrecord
  3
AutoCAD 2000
 90
        0
280
     0
281
     0
  0
CLASS
  1
LONG_TRANSACTION
  2
AcDbLongTransaction
  3
AutoCAD 2000
 90
        0
280
     0
281
     0
  0
CLASS
  1
LWPOLYLINE
  2
AcDbPolyline
  3
AutoCAD 2000
 90
        0
280
     0
281
     1
  0
CLASS
  1
HATCH
  2
AcDbHatch
  3
AutoCAD 2000
 90
        0
280
     0
281
     1
  0
CLASS
  1
XRECORD
  2
AcDbXrecord
  3
AutoCAD 2000
 90
        0
280
     0
281
     0
  0
CLASS
  1
LONG_TRANSACTION
  2
AcDbLongTransaction
  3
AutoCAD 2000
 90
        0
280
     0
281
     0
  0
CLASS
  1
LWPOLYLINE
  2
AcDbPolyline
  3
AutoCAD 2000
 90
        0
280
     0
281
     1
  0
CLASS
  1
HATCH
  2
AcDbHatch
  3
AutoCAD 2000
 90
        0
280
     0
281
     1
  0
CLASS
  1
XRECORD
  2
AcDbXrecord
  3
AutoCAD 2000
 90
        0
280
     0
281
     0
  0
CLASS
  1
LONG_TRANSACTION
  2
AcDbLongTransaction
  3
AutoCAD 2000
 90
        0
280
     0
281
     0
  0
CLASS
  1
LWPOLYLINE
  2
AcDbPolyline
  3
AutoCAD 2000
 90
        0
280
     0
281
     1
  0
CLASS
  1
HATCH
  2
AcDbHatch
  3
AutoCAD 2000
 90
        0
280
     0
281
     1
  0
CLASS
  1
XRECORD
  2
AcDbXrecord
  3
AutoCAD 2000
 90
        0
280
     0
281
     0
  0
CLASS
  1
LONG_TRANSACTION
  2
AcDbLongTransaction
  3
AutoCAD 2000
 90
        0
280
     0
281
     0
  0
CLASS
  1
LWPOLYLINE
  2
AcDbPolyline
  3
AutoCAD 2000
 90
        0
280
     0
281
     1
  0
CLASS
  1
HATCH
  2
AcDbHatch
  3
AutoCAD 2000
 90
        0
280
     0
281
     1
  0
CLASS
  1
XRECORD
  2
AcDbXrecord
  3
AutoCAD 2000
 90
        0
280
     0
281
     0
  0
CLASS
  1
LONG_TRANSACTION
  2
AcDbLongTransaction
  3
AutoCAD 2000
 90
        0
280
     0
281
     0
  0
CLASS
  1
LWPOLYLINE
  2
AcDbPolyline
  3
AutoCAD 2000
 90
        0
280
     0
281
     1
  0
CLASS
  1
HATCH
  2
AcDbHatch
  3
AutoCAD 2000
 90
        0
280
     0
281
     1
  0
CLASS
  1
XRECORD
  2
AcDbXrecord
  3
AutoCAD 2000
 90
        0
280
     0
281
     0
  0
CLASS
  1
LONG_TRANSACTION
  2
AcDbLongTransaction
  3
AutoCAD 2000
 90
        0
280
     0
281
     0
  0
CLASS
  1
LWPOLYLINE
  2
AcDbPolyline
  3
AutoCAD 2000
 90
        0
280
     0
281
     1
  0
CLASS
  1
HATCH
  2
AcDbHatch
  3
AutoCAD 2000
 90
        0
280
     0
281
     1
  0
CLASS
  1
XRECORD
  2
AcDbXrecord
  3
AutoCAD 2000
 90
        0
280
     0
281
     0
  0
CLASS
  1
LONG_TRANSACTION
  2
AcDbLongTransaction
  3
AutoCAD 2000
 90
        0
280
     0
281
     0
  0
CLASS
  1
LWPOLYLINE
  2
AcDbPolyline
  3
AutoCAD 2000
 90
        0
280
     0
281
     1
  0
CLASS
  1
HATCH
  2
AcDbHatch
  3
AutoCAD 2000
 90
        0
280
     0
281
     1
  0
CLASS
  1
XRECORD
  2
AcDbXrecord
  3
AutoCAD 2000
 90
        0
280
     0
281
     0
  0
CLASS
  1
LONG_TRANSACTION
  2
AcDbLongTransaction
  3
AutoCAD 2000
 90
        0
280
     0
281
     0
  0
CLASS
  1
LWPOLYLINE
  2
AcDbPolyline
  3
AutoCAD 2000
 90
        0
280
     0
281
     1
  0
CLASS
  1
HATCH
  2
AcDbHatch
  3
AutoCAD 2000
 90
        0
280
     0
281
     1
  0
CLASS
  1
XRECORD
  2
AcDbXrecord
  3
AutoCAD 2000
 90
        0
280
     0
281
     0
  0
CLASS
  1
LONG_TRANSACTION
  2
AcDbLongTransaction
  3
AutoCAD 2000
 90
        0
280
     0
281
     0
  0
CLASS
  1
LWPOLYLINE
  2
AcDbPolyline
  3
AutoCAD 2000
 90
        0
280
     0
281
     1
  0
CLASS
  1
HATCH
  2
AcDbHatch
  3
AutoCAD 2000
 90
        0
280
     0
281
     1
  0
CLASS
  1
XRECORD
  2
AcDbXrecord
  3
AutoCAD 2000
 90
        0
280
     0
281
     0
  0
ENDSEC
  0
SECTION
  2
TABLES
  0
TABLE
  2
VPORT
  5
92
330
0
100
AcDbSymbolTable
 70
     2
  0
VPORT
  5
4E4
330
92
100
AcDbSymbolTableRecord
100
AcDbViewportTableRecord
  2
*ACTIVE
 70
     0
 10
0.0
 20
0.0
 11
1.0
 21
1.0
 12
140.1409139550597
 22
161.1747472759471
 13
0.0
 23
0.0
 14
10.0
 24
10.0
 15
10.0
 25
10.0
 16
0.0
 26
0.0
 36
1.0
 17
0.0
 27
0.0
 37
0.0
 40
339.3685319581549
 41
1.549367088607595
 42
50.0
 43
0.0
 44
0.0
 50
0.0
 51
0.0
 71
     0
 72
 10000
 73
     1
 74
     3
 75
     0
 76
     0
 77
     0
 78
     1
  0
ENDTAB
  0
TABLE
  2
LTYPE
  5
8D
330
0
100
AcDbSymbolTable
 70
     2
  0
LTYPE
  5
8E
330
8D
100
AcDbSymbolTableRecord
100
AcDbLinetypeTableRecord
  2
BYBLOCK
 70
     0
  3

 72
    65
 73
     0
 40
0.0
  0
LTYPE
  5
8F
330
8D
100
AcDbSymbolTableRecord
100
AcDbLinetypeTableRecord
  2
BYLAYER
 70
     0
  3

 72
    65
 73
     0
 40
0.0
  0
LTYPE
  5
A
330
8D
100
AcDbSymbolTableRecord
100
AcDbLinetypeTableRecord
  2
CONTINUOUS
 70
     0
  3
Solid line
 72
    65
 73
     0
 40
0.0
  0
LTYPE
  5
B2
330
8D
100
AcDbSymbolTableRecord
100
AcDbLinetypeTableRecord
  2
CENTER
 70
     0
  3
Center ____ _ ____ _ ____ _ ____ _ ____ _ ____
 72
    65
 73
     4
 40
50.8
 49
31.75
 74
     0
 49
-6.349999999999998
 74
     0
 49
6.349999999999998
 74
     0
 49
-6.349999999999998
 74
     0
  0
ENDTAB
  0
TABLE
  2
LAYER
  5
14
102
{ACAD_XDICTIONARY
360
15
102
}
330
0
100
AcDbSymbolTable
 70
     4
  0
LAYER
  5
6
330
14
100
AcDbSymbolTableRecord
100
AcDbLayerTableRecord
  2
0
 70
     0
 62
     7
  6
CONTINUOUS
  0
LAYER
  5
A9
330
14
100
AcDbSymbolTableRecord
100
AcDbLayerTableRecord
  2
DEFPOINTS
 70
     0
 62
     7
  6
CONTINUOUS
  0
LAYER
  5
B1
330
14
100
AcDbSymbolTableRecord
100
AcDbLayerTableRecord
  2
CEN
 70
     0
 62
     1
  6
CENTER
  0
LAYER
  5
136
330
14
100
AcDbSymbolTableRecord
100
AcDbLayerTableRecord
  2
2
 70
     0
 62
     2
  6
CONTINUOUS
  0
ENDTAB
  0
TABLE
  2
STYLE
  5
8A
330
0
100
AcDbSymbolTable
 70
     1
  0
STYLE
  5
8B
330
8A
100
AcDbSymbolTableRecord
100
AcDbTextStyleTableRecord
  2
STANDARD
 70
     0
 40
0.0
 41
1.0
 50
0.0
 71
     0
 42
5.777225951253058
  3
romans.shx
  4
whgtxt.shx
  0
ENDTAB
  0
TABLE
  2
VIEW
  5
90
330
0
100
AcDbSymbolTable
 70
     0
  0
ENDTAB
  0
TABLE
  2
UCS
  5
91
330
0
100
AcDbSymbolTable
 70
     0
  0
ENDTAB
  0
TABLE
  2
APPID
  5
94
330
0
100
AcDbSymbolTable
 70
     1
  0
APPID
  5
95
330
94
100
AcDbSymbolTableRecord
100
AcDbRegAppTableRecord
  2
ACAD
 70
     0
  0
ENDTAB
  0
TABLE
  2
DIMSTYLE
  5
96
330
0
100
AcDbSymbolTable
 70
     2
  0
DIMSTYLE
105
A0
102
{ACAD_REACTORS
330
1CB
330
1BA
330
165
330
2D2
330
2E6
330
2FA
330
309
330
212
330
221
330
23E
330
24D
330
199
330
183
330
C9
330
9D
330
BD
330
154
330
F6
330
10D
330
13A
330
E7
330
D8
330
2A2
330
1AC
330
2B8
330
36A
330
27F
102
}
330
96
100
AcDbSymbolTableRecord
100
AcDbDimStyleTableRecord
  2
STANDARD
 70
     0
  3

  4

  5

  6

  7

 40
1.0
 41
2.5
 42
1.0
 43
10.0
 44
0.6
 45
0.0
 46
0.0
 47
0.0
 48
0.0
140
3.0
141
0.09
142
0.0
143
25.4
144
1.0
145
0.0
146
1.0
147
1.0
 71
     0
 72
     0
 73
     0
 74
     0
 75
     0
 76
     0
 77
     1
 78
     8
170
     0
171
     2
172
     1
173
     0
174
     1
175
     0
176
   123
177
   123
178
     3
270
     2
271
     2
272
     2
273
     2
274
     2
340
8B
275
     1
280
     0
281
     0
282
     0
283
     1
284
     0
285
     0
286
     0
287
     0
288
     1
  0
DIMSTYLE
105
9C
330
96
100
AcDbSymbolTableRecord
100
AcDbDimStyleTableRecord
  2
1_1_2
 70
     0
  3

  4

  5

  6

  7

 40
1.0
 41
3.0
 42
1.0
 43
10.0
 44
0.6
 45
0.0
 46
0.0
 47
0.0
 48
0.0
140
3.5
141
0.09
142
0.0
143
25.4
144
1.0
145
0.0
146
1.0
147
1.0
 71
     0
 72
     0
 73
     0
 74
     0
 75
     0
 76
     0
 77
     1
 78
     8
170
     0
171
     2
172
     1
173
     0
174
     1
175
     0
176
   123
177
   123
178
     3
270
     2
271
     2
272
     2
273
     2
274
     2
340
8B
275
     1
280
     0
281
     0
282
     0
283
     1
284
     0
285
     0
286
     0
287
     0
288
     1
  0
ENDTAB
  0
TABLE
  2
BLOCK_RECORD
  5
1
330
0
100
AcDbSymbolTable
 70
    54
  0
BLOCK_RECORD
  5
2
102
{ACAD_XDICTIONARY
360
3
102
}
330
1
100
AcDbSymbolTableRecord
100
AcDbBlockTableRecord
  2
*MODEL_SPACE
  0
BLOCK_RECORD
  5
E
102
{ACAD_XDICTIONARY
360
F
102
}
330
1
100
AcDbSymbolTableRecord
100
AcDbBlockTableRecord
  2
*PAPER_SPACE
  0
BLOCK_RECORD
  5
2D3
330
1
100
AcDbSymbolTableRecord
100
AcDbBlockTableRecord
  2
*D0
  0
BLOCK_RECORD
  5
BE
330
1
100
AcDbSymbolTableRecord
100
AcDbBlockTableRecord
  2
*D1
  0
BLOCK_RECORD
  5
155
330
1
100
AcDbSymbolTableRecord
100
AcDbBlockTableRecord
  2
*D2
  0
BLOCK_RECORD
  5
10E
330
1
100
AcDbSymbolTableRecord
100
AcDbBlockTableRecord
  2
*D3
  0
BLOCK_RECORD
  5
2B9
330
1
100
AcDbSymbolTableRecord
100
AcDbBlockTableRecord
  2
*D4
  0
BLOCK_RECORD
  5
280
330
1
100
AcDbSymbolTableRecord
100
AcDbBlockTableRecord
  2
*D5
  0
BLOCK_RECORD
  5
1CE
330
1
100
AcDbSymbolTableRecord
100
AcDbBlockTableRecord
  2
*D6
  0
BLOCK_RECORD
  5
1BD
330
1
100
AcDbSymbolTableRecord
100
AcDbBlockTableRecord
  2
*D7
  0
BLOCK_RECORD
  5
168
330
1
100
AcDbSymbolTableRecord
100
AcDbBlockTableRecord
  2
*D8
  0
BLOCK_RECORD
  5
2E9
330
1
100
AcDbSymbolTableRecord
100
AcDbBlockTableRecord
  2
*D9
  0
BLOCK_RECORD
  5
2FD
330
1
100
AcDbSymbolTableRecord
100
AcDbBlockTableRecord
  2
*D10
  0
BLOCK_RECORD
  5
30C
330
1
100
AcDbSymbolTableRecord
100
AcDbBlockTableRecord
  2
*D11
  0
BLOCK_RECORD
  5
215
330
1
100
AcDbSymbolTableRecord
100
AcDbBlockTableRecord
  2
*D12
  0
BLOCK_RECORD
  5
224
330
1
100
AcDbSymbolTableRecord
100
AcDbBlockTableRecord
  2
*D13
  0
BLOCK_RECORD
  5
241
330
1
100
AcDbSymbolTableRecord
100
AcDbBlockTableRecord
  2
*D14
  0
BLOCK_RECORD
  5
250
330
1
100
AcDbSymbolTableRecord
100
AcDbBlockTableRecord
  2
*D15
  0
BLOCK_RECORD
  5
19C
330
1
100
AcDbSymbolTableRecord
100
AcDbBlockTableRecord
  2
*D16
  0
BLOCK_RECORD
  5
186
330
1
100
AcDbSymbolTableRecord
100
AcDbBlockTableRecord
  2
*D17
  0
BLOCK_RECORD
  5
CC
330
1
100
AcDbSymbolTableRecord
100
AcDbBlockTableRecord
  2
*D18
  0
BLOCK_RECORD
  5
A1
330
1
100
AcDbSymbolTableRecord
100
AcDbBlockTableRecord
  2
*D19
  0
BLOCK_RECORD
  5
F9
330
1
100
AcDbSymbolTableRecord
100
AcDbBlockTableRecord
  2
*D20
  0
BLOCK_RECORD
  5
13D
330
1
100
AcDbSymbolTableRecord
100
AcDbBlockTableRecord
  2
*D21
  0
BLOCK_RECORD
  5
EA
330
1
100
AcDbSymbolTableRecord
100
AcDbBlockTableRecord
  2
*D22
  0
BLOCK_RECORD
  5
DB
330
1
100
AcDbSymbolTableRecord
100
AcDbBlockTableRecord
  2
*D23
  0
BLOCK_RECORD
  5
2A5
330
1
100
AcDbSymbolTableRecord
100
AcDbBlockTableRecord
  2
*D24
  0
BLOCK_RECORD
  5
1AF
330
1
100
AcDbSymbolTableRecord
100
AcDbBlockTableRecord
  2
*D25
  0
BLOCK_RECORD
  5
36D
330
1
100
AcDbSymbolTableRecord
100
AcDbBlockTableRecord
  2
*D26
  0
BLOCK_RECORD
  5
390
330
1
100
AcDbSymbolTableRecord
100
AcDbBlockTableRecord
  2
*D27
  0
BLOCK_RECORD
  5
39C
330
1
100
AcDbSymbolTableRecord
100
AcDbBlockTableRecord
  2
*D28
  0
BLOCK_RECORD
  5
3A7
330
1
100
AcDbSymbolTableRecord
100
AcDbBlockTableRecord
  2
*D29
  0
BLOCK_RECORD
  5
3B3
330
1
100
AcDbSymbolTableRecord
100
AcDbBlockTableRecord
  2
*D30
  0
BLOCK_RECORD
  5
3BF
330
1
100
AcDbSymbolTableRecord
100
AcDbBlockTableRecord
  2
*D31
  0
BLOCK_RECORD
  5
3CD
330
1
100
AcDbSymbolTableRecord
100
AcDbBlockTableRecord
  2
*D32
  0
BLOCK_RECORD
  5
3DB
330
1
100
AcDbSymbolTableRecord
100
AcDbBlockTableRecord
  2
*D33
  0
BLOCK_RECORD
  5
3E7
330
1
100
AcDbSymbolTableRecord
100
AcDbBlockTableRecord
  2
*D34
  0
BLOCK_RECORD
  5
3F3
330
1
100
AcDbSymbolTableRecord
100
AcDbBlockTableRecord
  2
*D35
  0
BLOCK_RECORD
  5
3FF
330
1
100
AcDbSymbolTableRecord
100
AcDbBlockTableRecord
  2
*D36
  0
BLOCK_RECORD
  5
40B
330
1
100
AcDbSymbolTableRecord
100
AcDbBlockTableRecord
  2
*D37
  0
BLOCK_RECORD
  5
416
330
1
100
AcDbSymbolTableRecord
100
AcDbBlockTableRecord
  2
*D38
  0
BLOCK_RECORD
  5
422
330
1
100
AcDbSymbolTableRecord
100
AcDbBlockTableRecord
  2
*D39
  0
BLOCK_RECORD
  5
42E
330
1
100
AcDbSymbolTableRecord
100
AcDbBlockTableRecord
  2
*D40
  0
BLOCK_RECORD
  5
43A
330
1
100
AcDbSymbolTableRecord
100
AcDbBlockTableRecord
  2
*D41
  0
BLOCK_RECORD
  5
446
330
1
100
AcDbSymbolTableRecord
100
AcDbBlockTableRecord
  2
*D42
  0
BLOCK_RECORD
  5
452
330
1
100
AcDbSymbolTableRecord
100
AcDbBlockTableRecord
  2
*D43
  0
BLOCK_RECORD
  5
45E
330
1
100
AcDbSymbolTableRecord
100
AcDbBlockTableRecord
  2
*D44
  0
BLOCK_RECORD
  5
46A
330
1
100
AcDbSymbolTableRecord
100
AcDbBlockTableRecord
  2
*D45
  0
BLOCK_RECORD
  5
478
330
1
100
AcDbSymbolTableRecord
100
AcDbBlockTableRecord
  2
*D46
  0
BLOCK_RECORD
  5
484
330
1
100
AcDbSymbolTableRecord
100
AcDbBlockTableRecord
  2
*D47
  0
BLOCK_RECORD
  5
490
330
1
100
AcDbSymbolTableRecord
100
AcDbBlockTableRecord
  2
*D48
  0
BLOCK_RECORD
  5
49E
330
1
100
AcDbSymbolTableRecord
100
AcDbBlockTableRecord
  2
*D49
  0
BLOCK_RECORD
  5
4AA
330
1
100
AcDbSymbolTableRecord
100
AcDbBlockTableRecord
  2
*D50
  0
BLOCK_RECORD
  5
4B8
330
1
100
AcDbSymbolTableRecord
100
AcDbBlockTableRecord
  2
*D51
  0
BLOCK_RECORD
  5
4C4
330
1
100
AcDbSymbolTableRecord
100
AcDbBlockTableRecord
  2
*D52
  0
BLOCK_RECORD
  5
4D0
330
1
100
AcDbSymbolTableRecord
100
AcDbBlockTableRecord
  2
*D53
  0
ENDTAB
  0
ENDSEC
  0
SECTION
  2
BLOCKS
  0
BLOCK
  5
5
330
2
100
AcDbEntity
  8
0
100
AcDbBlockBegin
  2
*MODEL_SPACE
 70
     0
 10
0.0
 20
0.0
 30
0.0
  3
*MODEL_SPACE
  1

  0
ENDBLK
  5
B
330
2
100
AcDbEntity
  8
0
100
AcDbBlockEnd
  0
BLOCK
  5
11
330
E
100
AcDbEntity
 67
     1
  8
0
100
AcDbBlockBegin
  2
*PAPER_SPACE
 70
     0
 10
0.0
 20
0.0
 30
0.0
  3
*PAPER_SPACE
  1

  0
ENDBLK
  5
12
330
E
100
AcDbEntity
 67
     1
  8
0
100
AcDbBlockEnd
  0
BLOCK
  5
2DD
330
2D3
100
AcDbEntity
  8
0
100
AcDbBlockBegin
  2
*D0
 70
     1
 10
0.0
 20
0.0
 30
0.0
  3
*D0
  1

  0
LINE
  5
2D4
330
2D3
100
AcDbEntity
  8
0
 62
   123
100
AcDbLine
 10
14634.53149402084
 20
-1897.476235995671
 30
0.0
 11
14651.4508400921
 21
-1897.476235995671
 31
0.0
  0
LINE
  5
2D5
330
2D3
100
AcDbEntity
  8
0
 62
   123
100
AcDbLine
 10
14633.05980002085
 20
-1854.476235995672
 30
0.0
 11
14651.4508400921
 21
-1854.476235995672
 31
0.0
  0
LINE
  5
2D6
330
2D3
100
AcDbEntity
  8
0
 62
   123
100
AcDbLine
 10
14650.8508400921
 20
-1894.976235995671
 30
0.0
 11
14650.8508400921
 21
-1856.976235995673
 31
0.0
  0
SOLID
  5
2D7
330
2D3
100
AcDbEntity
  8
0
 62
   123
100
AcDbTrace
 10
14650.43417342543
 20
-1894.976235995671
 30
0.0
 11
14651.26750675876
 21
-1894.976235995671
 31
0.0
 12
14650.8508400921
 22
-1897.476235995671
 32
0.0
 13
14650.8508400921
 23
-1897.476235995671
 33
0.0
  0
SOLID
  5
2D8
330
2D3
100
AcDbEntity
  8
0
 62
   123
100
AcDbTrace
 10
14650.43417342543
 20
-1856.976235995673
 30
0.0
 11
14651.26750675876
 21
-1856.976235995673
 31
0.0
 12
14650.8508400921
 22
-1854.476235995672
 32
0.0
 13
14650.8508400921
 23
-1854.476235995672
 33
0.0
  0
MTEXT
  5
2D9
330
2D3
100
AcDbEntity
  8
0
 62
     3
100
AcDbMText
 10
14648.3508400921
 20
-1874.338606439718
 30
0.0
 40
3.0
 41
0.0
 71
     5
 72
     1
  1
\A1;43
 11
0.0000000000000001
 21
1.0
 31
0.0
1001
ACAD
1000
MTEXTBEGIN
1070
    73
1070
     1
1070
    44
1040
1.0
1070
    74
1070
     0
1000
MTEXTEND
  0
POINT
  5
2DA
330
2D3
100
AcDbEntity
  8
DEFPOINTS
 62
     0
100
AcDbPoint
 10
14633.53149402085
 20
-1897.476235995671
 30
0.0
  0
POINT
  5
2DB
330
2D3
100
AcDbEntity
  8
DEFPOINTS
 62
     0
100
AcDbPoint
 10
14632.05980002085
 20
-1854.476235995672
 30
0.0
  0
POINT
  5
2DC
330
2D3
100
AcDbEntity
  8
DEFPOINTS
 62
     0
100
AcDbPoint
 10
14650.8508400921
 20
-1854.476235995672
 30
0.0
  0
ENDBLK
  5
2DE
330
2D3
100
AcDbEntity
  8
0
100
AcDbBlockEnd
  0
BLOCK
  5
C7
330
BE
100
AcDbEntity
  8
0
100
AcDbBlockBegin
  2
*D1
 70
     1
 10
0.0
 20
0.0
 30
0.0
  3
*D1
  1

  0
LINE
  5
BF
330
BE
100
AcDbEntity
  8
0
 62
   123
100
AcDbLine
 10
14563.21110517495
 20
-2141.072438885341
 30
0.0
 11
14561.15491670429
 21
-2142.49444063397
 31
0.0
  0
LINE
  5
C0
330
BE
100
AcDbEntity
  8
0
 62
   123
100
AcDbLine
 10
14634.76646395411
 20
-2091.586778033063
 30
0.0
 11
14666.39645778399
 21
-2069.712369545287
 31
0.0
  0
LINE
  5
C1
330
BE
100
AcDbEntity
  8
0
 62
   123
100
AcDbLine
 10
14565.26729364561
 20
-2139.650437136713
 30
0.0
 11
14632.71027548345
 21
-2093.008779781692
 31
0.0
  0
SOLID
  5
C2
330
BE
100
AcDbEntity
  8
0
 62
   123
100
AcDbTrace
 10
14562.97410488351
 20
-2140.729740806897
 30
0.0
 11
14563.44810546639
 21
-2141.415136963784
 31
0.0
 12
14565.26729364561
 22
-2139.650437136713
 32
0.0
 13
14565.26729364561
 23
-2139.650437136713
 33
0.0
  0
SOLID
  5
C3
330
BE
100
AcDbEntity
  8
0
 62
   123
100
AcDbTrace
 10
14634.52946366268
 20
-2091.244079954619
 30
0.0
 11
14635.00346424555
 21
-2091.929476111506
 31
0.0
 12
14632.71027548345
 22
-2093.008779781692
 32
0.0
 13
14632.71027548345
 23
-2093.008779781692
 33
0.0
  0
MTEXT
  5
C4
330
BE
100
AcDbEntity
  8
0
 62
     3
100
AcDbMText
 10
14656.57345742665
 20
-2073.466073933304
 30
0.0
 40
3.0
 41
0.0
 71
     5
 72
     1
  1
\A1;\U+220582%%P0.5
 11
0.8224753882661447
 21
0.5688006994514465
 31
0.0
1001
ACAD
1000
MTEXTBEGIN
1070
    73
1070
     1
1070
    44
1040
1.0
1070
    74
1070
     0
1000
MTEXTEND
  0
POINT
  5
C5
330
BE
100
AcDbEntity
  8
DEFPOINTS
 62
     0
100
AcDbPoint
 10
14632.71027548345
 20
-2093.008779781692
 30
0.0
  0
POINT
  5
C6
330
BE
100
AcDbEntity
  8
DEFPOINTS
 62
     0
100
AcDbPoint
 10
14565.26729364561
 20
-2139.650437136713
 30
0.0
  0
ENDBLK
  5
C8
330
BE
100
AcDbEntity
  8
0
100
AcDbBlockEnd
  0
BLOCK
  5
15F
330
155
100
AcDbEntity
  8
0
100
AcDbBlockBegin
  2
*D2
 70
     1
 10
0.0
 20
0.0
 30
0.0
  3
*D2
  1

  0
LINE
  5
156
330
155
100
AcDbEntity
  8
0
 62
   123
100
AcDbLine
 10
14563.98878456453
 20
-2148.329608459211
 30
0.0
 11
14563.98878456453
 21
-2167.166413013692
 31
0.0
  0
LINE
  5
157
330
155
100
AcDbEntity
  8
0
 62
   123
100
AcDbLine
 10
14633.98878456453
 20
-2148.968364434155
 30
0.0
 11
14633.98878456453
 21
-2167.166413013692
 31
0.0
  0
LINE
  5
158
330
155
100
AcDbEntity
  8
0
 62
   123
100
AcDbLine
 10
14566.48878456453
 20
-2166.566413013692
 30
0.0
 11
14631.48878456453
 21
-2166.566413013692
 31
0.0
  0
SOLID
  5
159
330
155
100
AcDbEntity
  8
0
 62
   123
100
AcDbTrace
 10
14566.48878456453
 20
-2166.149746347025
 30
0.0
 11
14566.48878456453
 21
-2166.983079680359
 31
0.0
 12
14563.98878456453
 22
-2166.566413013692
 32
0.0
 13
14563.98878456453
 23
-2166.566413013692
 33
0.0
  0
SOLID
  5
15A
330
155
100
AcDbEntity
  8
0
 62
   123
100
AcDbTrace
 10
14631.48878456453
 20
-2166.149746347025
 30
0.0
 11
14631.48878456453
 21
-2166.983079680359
 31
0.0
 12
14633.98878456453
 22
-2166.566413013692
 32
0.0
 13
14633.98878456453
 23
-2166.566413013692
 33
0.0
  0
MTEXT
  5
15B
330
155
100
AcDbEntity
  8
0
 62
     3
100
AcDbMText
 10
14599.20754516836
 20
-2164.066413013692
 30
0.0
 40
3.0
 41
0.0
 71
     5
 72
     1
  1
\A1;70
1001
ACAD
1000
MTEXTBEGIN
1070
    73
1070
     1
1070
    44
1040
1.0
1070
    74
1070
     0
1000
MTEXTEND
  0
POINT
  5
15C
330
155
100
AcDbEntity
  8
DEFPOINTS
 62
     0
100
AcDbPoint
 10
14563.98878456453
 20
-2147.329608459211
 30
0.0
  0
POINT
  5
15D
330
155
100
AcDbEntity
  8
DEFPOINTS
 62
     0
100
AcDbPoint
 10
14633.98878456453
 20
-2147.968364434154
 30
0.0
  0
POINT
  5
15E
330
155
100
AcDbEntity
  8
DEFPOINTS
 62
     0
100
AcDbPoint
 10
14633.98878456453
 20
-2166.566413013692
 30
0.0
  0
ENDBLK
  5
160
330
155
100
AcDbEntity
  8
0
100
AcDbBlockEnd
  0
BLOCK
  5
11A
330
10E
100
AcDbEntity
  8
0
100
AcDbBlockBegin
  2
*D3
 70
     1
 10
0.0
 20
0.0
 30
0.0
  3
*D3
  1

  0
LINE
  5
10F
330
10E
100
AcDbEntity
  8
0
 62
   123
100
AcDbLine
 10
14708.98130390393
 20
-2113.329718844667
 30
0.0
 11
14699.40414985156
 21
-2113.329718844667
 31
0.0
  0
LINE
  5
110
330
10E
100
AcDbEntity
  8
0
 62
   123
100
AcDbLine
 10
14708.98130390393
 20
-2119.329498073756
 30
0.0
 11
14699.40414985156
 21
-2119.329498073756
 31
0.0
  0
LINE
  5
111
330
10E
100
AcDbEntity
  8
0
 62
   123
100
AcDbLine
 10
14700.00414985157
 20
-2110.829718844667
 30
0.0
 11
14700.00414985157
 21
-2108.329718844667
 31
0.0
  0
LINE
  5
112
330
10E
100
AcDbEntity
  8
0
 62
   123
100
AcDbLine
 10
14700.00414985157
 20
-2121.829498073755
 30
0.0
 11
14700.00414985157
 21
-2124.329498073755
 31
0.0
  0
LINE
  5
113
330
10E
100
AcDbEntity
  8
0
 62
   123
100
AcDbLine
 10
14700.00414985157
 20
-2113.329718844667
 30
0.0
 11
14700.00414985157
 21
-2119.329498073756
 31
0.0
  0
SOLID
  5
114
330
10E
100
AcDbEntity
  8
0
 62
   123
100
AcDbTrace
 10
14699.58748318491
 20
-2110.829718844667
 30
0.0
 11
14700.42081651824
 21
-2110.829718844667
 31
0.0
 12
14700.00414985157
 22
-2113.329718844667
 32
0.0
 13
14700.00414985157
 23
-2113.329718844667
 33
0.0
  0
SOLID
  5
115
330
10E
100
AcDbEntity
  8
0
 62
   123
100
AcDbTrace
 10
14699.58748318491
 20
-2121.829498073755
 30
0.0
 11
14700.42081651824
 21
-2121.829498073755
 31
0.0
 12
14700.00414985157
 22
-2119.329498073756
 32
0.0
 13
14700.00414985157
 23
-2119.329498073756
 33
0.0
  0
MTEXT
  5
116
330
10E
100
AcDbEntity
  8
0
 62
     3
100
AcDbMText
 10
14696.05399985157
 20
-2116.329608459209
 30
0.0
 40
3.0
 41
0.0
 71
     5
 72
     1
  1
\A1;\A1;%%c6{\H0.7x;\S+0^ -0.012;\f??|b0|i0|c0|p49;\H1.429x;(h7)}  
 11
0.0000000000000001
 21
1.0
 31
0.0
1001
ACAD
1000
MTEXTBEGIN
1070
    73
1070
     1
1070
    44
1040
1.0
1070
    74
1070
     0
1000
MTEXTEND
  0
POINT
  5
117
330
10E
100
AcDbEntity
  8
DEFPOINTS
 62
     0
100
AcDbPoint
 10
14709.98130390393
 20
-2113.329718844667
 30
0.0
  0
POINT
  5
118
330
10E
100
AcDbEntity
  8
DEFPOINTS
 62
     0
100
AcDbPoint
 10
14709.98130390393
 20
-2119.329498073756
 30
0.0
  0
POINT
  5
119
330
10E
100
AcDbEntity
  8
DEFPOINTS
 62
     0
100
AcDbPoint
 10
14700.00414985157
 20
-2119.329498073756
 30
0.0
  0
ENDBLK
  5
11B
330
10E
100
AcDbEntity
  8
0
100
AcDbBlockEnd
  0
BLOCK
  5
2C3
330
2B9
100
AcDbEntity
  8
0
100
AcDbBlockBegin
  2
*D4
 70
     1
 10
0.0
 20
0.0
 30
0.0
  3
*D4
  1

  0
LINE
  5
2BA
330
2B9
100
AcDbEntity
  8
0
 62
   123
100
AcDbLine
 10
14568.53149402085
 20
-1964.476235995671
 30
0.0
 11
14568.53149402085
 21
-1983.313040550152
 31
0.0
  0
LINE
  5
2BB
330
2B9
100
AcDbEntity
  8
0
 62
   123
100
AcDbLine
 10
14638.53149402084
 20
-1965.114991970613
 30
0.0
 11
14638.53149402084
 21
-1983.313040550152
 31
0.0
  0
LINE
  5
2BC
330
2B9
100
AcDbEntity
  8
0
 62
   123
100
AcDbLine
 10
14571.03149402084
 20
-1982.713040550152
 30
0.0
 11
14636.03149402085
 21
-1982.713040550152
 31
0.0
  0
SOLID
  5
2BD
330
2B9
100
AcDbEntity
  8
0
 62
   123
100
AcDbTrace
 10
14571.03149402084
 20
-1982.296373883485
 30
0.0
 11
14571.03149402084
 21
-1983.129707216818
 31
0.0
 12
14568.53149402085
 22
-1982.713040550152
 32
0.0
 13
14568.53149402085
 23
-1982.713040550152
 33
0.0
  0
SOLID
  5
2BE
330
2B9
100
AcDbEntity
  8
0
 62
   123
100
AcDbTrace
 10
14636.03149402085
 20
-1982.296373883485
 30
0.0
 11
14636.03149402085
 21
-1983.129707216818
 31
0.0
 12
14638.53149402084
 22
-1982.713040550152
 32
0.0
 13
14638.53149402084
 23
-1982.713040550152
 33
0.0
  0
MTEXT
  5
2BF
330
2B9
100
AcDbEntity
  8
0
 62
     3
100
AcDbMText
 10
14603.75025462468
 20
-1980.213040550152
 30
0.0
 40
3.0
 41
0.0
 71
     5
 72
     1
  1
\A1;70
1001
ACAD
1000
MTEXTBEGIN
1070
    73
1070
     1
1070
    44
1040
1.0
1070
    74
1070
     0
1000
MTEXTEND
  0
POINT
  5
2C0
330
2B9
100
AcDbEntity
  8
DEFPOINTS
 62
     0
100
AcDbPoint
 10
14568.53149402085
 20
-1963.476235995671
 30
0.0
  0
POINT
  5
2C1
330
2B9
100
AcDbEntity
  8
DEFPOINTS
 62
     0
100
AcDbPoint
 10
14638.53149402084
 20
-1964.114991970614
 30
0.0
  0
POINT
  5
2C2
330
2B9
100
AcDbEntity
  8
DEFPOINTS
 62
     0
100
AcDbPoint
 10
14638.53149402084
 20
-1982.713040550152
 30
0.0
  0
ENDBLK
  5
2C4
330
2B9
100
AcDbEntity
  8
0
100
AcDbBlockEnd
  0
BLOCK
  5
28A
330
280
100
AcDbEntity
  8
0
100
AcDbBlockBegin
  2
*D5
 70
     1
 10
0.0
 20
0.0
 30
0.0
  3
*D5
  1

  0
LINE
  5
281
330
280
100
AcDbEntity
  8
0
 62
   123
100
AcDbLine
 10
14629.98878456453
 20
-2081.329608459211
 30
0.0
 11
14646.90813063579
 21
-2081.329608459211
 31
0.0
  0
LINE
  5
282
330
280
100
AcDbEntity
  8
0
 62
   123
100
AcDbLine
 10
14628.51709056453
 20
-2038.329608459212
 30
0.0
 11
14646.90813063579
 21
-2038.329608459212
 31
0.0
  0
LINE
  5
283
330
280
100
AcDbEntity
  8
0
 62
   123
100
AcDbLine
 10
14646.30813063578
 20
-2078.829608459211
 30
0.0
 11
14646.30813063578
 21
-2040.829608459213
 31
0.0
  0
SOLID
  5
284
330
280
100
AcDbEntity
  8
0
 62
   123
100
AcDbTrace
 10
14645.89146396912
 20
-2078.829608459211
 30
0.0
 11
14646.72479730245
 21
-2078.829608459211
 31
0.0
 12
14646.30813063578
 22
-2081.329608459211
 32
0.0
 13
14646.30813063578
 23
-2081.329608459211
 33
0.0
  0
SOLID
  5
285
330
280
100
AcDbEntity
  8
0
 62
   123
100
AcDbTrace
 10
14645.89146396912
 20
-2040.829608459213
 30
0.0
 11
14646.72479730245
 21
-2040.829608459213
 31
0.0
 12
14646.30813063578
 22
-2038.329608459212
 32
0.0
 13
14646.30813063578
 23
-2038.329608459212
 33
0.0
  0
MTEXT
  5
286
330
280
100
AcDbEntity
  8
0
 62
     3
100
AcDbMText
 10
14643.80813063578
 20
-2058.19197890326
 30
0.0
 40
3.0
 41
0.0
 71
     5
 72
     1
  1
\A1;43
 11
0.0000000000000001
 21
1.0
 31
0.0
1001
ACAD
1000
MTEXTBEGIN
1070
    73
1070
     1
1070
    44
1040
1.0
1070
    74
1070
     0
1000
MTEXTEND
  0
POINT
  5
287
330
280
100
AcDbEntity
  8
DEFPOINTS
 62
     0
100
AcDbPoint
 10
14628.98878456453
 20
-2081.329608459211
 30
0.0
  0
POINT
  5
288
330
280
100
AcDbEntity
  8
DEFPOINTS
 62
     0
100
AcDbPoint
 10
14627.51709056453
 20
-2038.329608459212
 30
0.0
  0
POINT
  5
289
330
280
100
AcDbEntity
  8
DEFPOINTS
 62
     0
100
AcDbPoint
 10
14646.30813063578
 20
-2038.329608459212
 30
0.0
  0
ENDBLK
  5
28B
330
280
100
AcDbEntity
  8
0
100
AcDbBlockEnd
  0
BLOCK
  5
1D8
330
1CE
100
AcDbEntity
  8
0
100
AcDbBlockBegin
  2
*D6
 70
     1
 10
0.0
 20
0.0
 30
0.0
  3
*D6
  1

  0
LINE
  5
1CF
330
1CE
100
AcDbEntity
  8
0
 62
   123
100
AcDbLine
 10
14738.98130390393
 20
-2071.629609459209
 30
0.0
 11
14738.98130390393
 21
-2025.674004954526
 31
0.0
  0
LINE
  5
1D0
330
1CE
100
AcDbEntity
  8
0
 62
   123
100
AcDbLine
 10
14813.97797090393
 20
-2040.329609459209
 30
0.0
 11
14813.97797090393
 21
-2025.674004954526
 31
0.0
  0
LINE
  5
1D1
330
1CE
100
AcDbEntity
  8
0
 62
   123
100
AcDbLine
 10
14741.48130390393
 20
-2026.274004954526
 30
0.0
 11
14811.47797090392
 21
-2026.274004954526
 31
0.0
  0
SOLID
  5
1D2
330
1CE
100
AcDbEntity
  8
0
 62
   123
100
AcDbTrace
 10
14741.48130390393
 20
-2025.857338287859
 30
0.0
 11
14741.48130390393
 21
-2026.690671621193
 31
0.0
 12
14738.98130390393
 22
-2026.274004954526
 32
0.0
 13
14738.98130390393
 23
-2026.274004954526
 33
0.0
  0
SOLID
  5
1D3
330
1CE
100
AcDbEntity
  8
0
 62
   123
100
AcDbTrace
 10
14811.47797090392
 20
-2025.857338287859
 30
0.0
 11
14811.47797090392
 21
-2026.690671621193
 31
0.0
 12
14813.97797090393
 22
-2026.274004954526
 32
0.0
 13
14813.97797090393
 23
-2026.274004954526
 33
0.0
  0
MTEXT
  5
1D4
330
1CE
100
AcDbEntity
  8
0
 62
     3
100
AcDbMText
 10
14769.88118114668
 20
-2023.774004954526
 30
0.0
 40
3.0
 41
0.0
 71
     5
 72
     1
  1
\A1;75
1001
ACAD
1000
MTEXTBEGIN
1070
    73
1070
     1
1070
    44
1040
1.0
1070
    74
1070
     0
1000
MTEXTEND
  0
POINT
  5
1D5
330
1CE
100
AcDbEntity
  8
DEFPOINTS
 62
     0
100
AcDbPoint
 10
14738.98130390393
 20
-2072.629609459208
 30
0.0
  0
POINT
  5
1D6
330
1CE
100
AcDbEntity
  8
DEFPOINTS
 62
     0
100
AcDbPoint
 10
14813.97797090393
 20
-2041.329609459209
 30
0.0
  0
POINT
  5
1D7
330
1CE
100
AcDbEntity
  8
DEFPOINTS
 62
     0
100
AcDbPoint
 10
14813.97797090393
 20
-2026.274004954526
 30
0.0
  0
ENDBLK
  5
1D9
330
1CE
100
AcDbEntity
  8
0
100
AcDbBlockEnd
  0
BLOCK
  5
1C9
330
1BD
100
AcDbEntity
  8
0
100
AcDbBlockBegin
  2
*D7
 70
     1
 10
0.0
 20
0.0
 30
0.0
  3
*D7
  1

  0
LINE
  5
1BE
330
1BD
100
AcDbEntity
  8
0
 62
   123
100
AcDbLine
 10
14733.48130390393
 20
-2080.329608459211
 30
0.0
 11
14733.48130390393
 21
-2025.674004954526
 31
0.0
  0
LINE
  5
1BF
330
1BD
100
AcDbEntity
  8
0
 62
   123
100
AcDbLine
 10
14738.98130390393
 20
-2071.629609459209
 30
0.0
 11
14738.98130390393
 21
-2025.674004954526
 31
0.0
  0
LINE
  5
1C0
330
1BD
100
AcDbEntity
  8
0
 62
   123
100
AcDbLine
 10
14730.98130390393
 20
-2026.274004954526
 30
0.0
 11
14728.48130390393
 21
-2026.274004954526
 31
0.0
  0
LINE
  5
1C1
330
1BD
100
AcDbEntity
  8
0
 62
   123
100
AcDbLine
 10
14741.48130390393
 20
-2026.274004954526
 30
0.0
 11
14743.98130390393
 21
-2026.274004954526
 31
0.0
  0
LINE
  5
1C2
330
1BD
100
AcDbEntity
  8
0
 62
   123
100
AcDbLine
 10
14733.48130390393
 20
-2026.274004954526
 30
0.0
 11
14738.98130390393
 21
-2026.274004954526
 31
0.0
  0
SOLID
  5
1C3
330
1BD
100
AcDbEntity
  8
0
 62
   123
100
AcDbTrace
 10
14730.98130390393
 20
-2025.857338287859
 30
0.0
 11
14730.98130390393
 21
-2026.690671621193
 31
0.0
 12
14733.48130390393
 22
-2026.274004954526
 32
0.0
 13
14733.48130390393
 23
-2026.274004954526
 33
0.0
  0
SOLID
  5
1C4
330
1BD
100
AcDbEntity
  8
0
 62
   123
100
AcDbTrace
 10
14741.48130390393
 20
-2025.857338287859
 30
0.0
 11
14741.48130390393
 21
-2026.690671621193
 31
0.0
 12
14738.98130390393
 22
-2026.274004954526
 32
0.0
 13
14738.98130390393
 23
-2026.274004954526
 33
0.0
  0
MTEXT
  5
1C5
330
1BD
100
AcDbEntity
  8
0
 62
     3
100
AcDbMText
 10
14736.23130390393
 20
-2023.774004954526
 30
0.0
 40
3.0
 41
0.0
 71
     5
 72
     1
  1
\A1;5.5
1001
ACAD
1000
MTEXTBEGIN
1070
    73
1070
     1
1070
    44
1040
1.0
1070
    74
1070
     0
1000
MTEXTEND
  0
POINT
  5
1C6
330
1BD
100
AcDbEntity
  8
DEFPOINTS
 62
     0
100
AcDbPoint
 10
14733.48130390393
 20
-2081.329608459211
 30
0.0
  0
POINT
  5
1C7
330
1BD
100
AcDbEntity
  8
DEFPOINTS
 62
     0
100
AcDbPoint
 10
14738.98130390393
 20
-2072.629609459208
 30
0.0
  0
POINT
  5
1C8
330
1BD
100
AcDbEntity
  8
DEFPOINTS
 62
     0
100
AcDbPoint
 10
14738.98130390393
 20
-2026.274004954526
 30
0.0
  0
ENDBLK
  5
1CA
330
1BD
100
AcDbEntity
  8
0
100
AcDbBlockEnd
  0
BLOCK
  5
172
330
168
100
AcDbEntity
  8
0
100
AcDbBlockBegin
  2
*D8
 70
     1
 10
0.0
 20
0.0
 30
0.0
  3
*D8
  1

  0
LINE
  5
169
330
168
100
AcDbEntity
  8
0
 62
   123
100
AcDbLine
 10
14813.97797090393
 20
-2040.329609459209
 30
0.0
 11
14813.97797090393
 21
-2025.690575975036
 31
0.0
  0
LINE
  5
16A
330
168
100
AcDbEntity
  8
0
 62
   123
100
AcDbLine
 10
14841.97797090392
 20
-2048.32960945921
 30
0.0
 11
14841.97797090392
 21
-2025.690575975036
 31
0.0
  0
LINE
  5
16B
330
168
100
AcDbEntity
  8
0
 62
   123
100
AcDbLine
 10
14816.47797090393
 20
-2026.290575975037
 30
0.0
 11
14839.47797090393
 21
-2026.290575975037
 31
0.0
  0
SOLID
  5
16C
330
168
100
AcDbEntity
  8
0
 62
   123
100
AcDbTrace
 10
14816.47797090393
 20
-2025.873909308371
 30
0.0
 11
14816.47797090393
 21
-2026.707242641704
 31
0.0
 12
14813.97797090393
 22
-2026.290575975037
 32
0.0
 13
14813.97797090393
 23
-2026.290575975037
 33
0.0
  0
SOLID
  5
16D
330
168
100
AcDbEntity
  8
0
 62
   123
100
AcDbTrace
 10
14839.47797090393
 20
-2025.873909308371
 30
0.0
 11
14839.47797090393
 21
-2026.707242641704
 31
0.0
 12
14841.97797090392
 22
-2026.290575975037
 32
0.0
 13
14841.97797090392
 23
-2026.290575975037
 33
0.0
  0
MTEXT
  5
16E
330
168
100
AcDbEntity
  8
0
 62
     3
100
AcDbMText
 10
14827.97797090393
 20
-2023.790575975036
 30
0.0
 40
3.0
 41
0.0
 71
     5
 72
     1
  1
\A1;MAX. 28
1001
ACAD
1000
MTEXTBEGIN
1070
    73
1070
     1
1070
    44
1040
1.0
1070
    74
1070
     0
1000
MTEXTEND
  0
POINT
  5
16F
330
168
100
AcDbEntity
  8
DEFPOINTS
 62
     0
100
AcDbPoint
 10
14813.97797090393
 20
-2041.329609459209
 30
0.0
  0
POINT
  5
170
330
168
100
AcDbEntity
  8
DEFPOINTS
 62
     0
100
AcDbPoint
 10
14841.97797090392
 20
-2049.329609459209
 30
0.0
  0
POINT
  5
171
330
168
100
AcDbEntity
  8
DEFPOINTS
 62
     0
100
AcDbPoint
 10
14841.97797090392
 20
-2026.290575975037
 30
0.0
  0
ENDBLK
  5
173
330
168
100
AcDbEntity
  8
0
100
AcDbBlockEnd
  0
BLOCK
  5
2F3
330
2E9
100
AcDbEntity
  8
0
100
AcDbBlockBegin
  2
*D9
 70
     1
 10
0.0
 20
0.0
 30
0.0
  3
*D9
  1

  0
LINE
  5
2EA
330
2E9
100
AcDbEntity
  8
0
 62
   123
100
AcDbLine
 10
14796.69082378194
 20
-1856.476236995669
 30
0.0
 11
14796.69082378194
 21
-1841.837203511497
 31
0.0
  0
LINE
  5
2EB
330
2E9
100
AcDbEntity
  8
0
 62
   123
100
AcDbLine
 10
14824.69082378194
 20
-1864.476236995668
 30
0.0
 11
14824.69082378194
 21
-1841.837203511497
 31
0.0
  0
LINE
  5
2EC
330
2E9
100
AcDbEntity
  8
0
 62
   123
100
AcDbLine
 10
14799.19082378194
 20
-1842.437203511496
 30
0.0
 11
14822.19082378194
 21
-1842.437203511496
 31
0.0
  0
SOLID
  5
2ED
330
2E9
100
AcDbEntity
  8
0
 62
   123
100
AcDbTrace
 10
14799.19082378194
 20
-1842.02053684483
 30
0.0
 11
14799.19082378194
 21
-1842.853870178164
 31
0.0
 12
14796.69082378194
 22
-1842.437203511496
 32
0.0
 13
14796.69082378194
 23
-1842.437203511496
 33
0.0
  0
SOLID
  5
2EE
330
2E9
100
AcDbEntity
  8
0
 62
   123
100
AcDbTrace
 10
14822.19082378194
 20
-1842.02053684483
 30
0.0
 11
14822.19082378194
 21
-1842.853870178164
 31
0.0
 12
14824.69082378194
 22
-1842.437203511496
 32
0.0
 13
14824.69082378194
 23
-1842.437203511496
 33
0.0
  0
MTEXT
  5
2EF
330
2E9
100
AcDbEntity
  8
0
 62
     3
100
AcDbMText
 10
14810.69082378194
 20
-1839.937203511496
 30
0.0
 40
3.0
 41
0.0
 71
     5
 72
     1
  1
\A1;MAX. 28
1001
ACAD
1000
MTEXTBEGIN
1070
    73
1070
     1
1070
    44
1040
1.0
1070
    74
1070
     0
1000
MTEXTEND
  0
POINT
  5
2F0
330
2E9
100
AcDbEntity
  8
DEFPOINTS
 62
     0
100
AcDbPoint
 10
14796.69082378194
 20
-1857.476236995668
 30
0.0
  0
POINT
  5
2F1
330
2E9
100
AcDbEntity
  8
DEFPOINTS
 62
     0
100
AcDbPoint
 10
14824.69082378194
 20
-1865.476236995668
 30
0.0
  0
POINT
  5
2F2
330
2E9
100
AcDbEntity
  8
DEFPOINTS
 62
     0
100
AcDbPoint
 10
14824.69082378194
 20
-1842.437203511496
 30
0.0
  0
ENDBLK
  5
2F4
330
2E9
100
AcDbEntity
  8
0
100
AcDbBlockEnd
  0
BLOCK
  5
307
330
2FD
100
AcDbEntity
  8
0
100
AcDbBlockBegin
  2
*D10
 70
     1
 10
0.0
 20
0.0
 30
0.0
  3
*D10
  1

  0
LINE
  5
2FE
330
2FD
100
AcDbEntity
  8
0
 62
   123
100
AcDbLine
 10
14721.69415678194
 20
-1887.776236995669
 30
0.0
 11
14721.69415678194
 21
-1841.820632490986
 31
0.0
  0
LINE
  5
2FF
330
2FD
100
AcDbEntity
  8
0
 62
   123
100
AcDbLine
 10
14796.69082378194
 20
-1856.476236995669
 30
0.0
 11
14796.69082378194
 21
-1841.820632490986
 31
0.0
  0
LINE
  5
300
330
2FD
100
AcDbEntity
  8
0
 62
   123
100
AcDbLine
 10
14724.19415678194
 20
-1842.420632490986
 30
0.0
 11
14794.19082378194
 21
-1842.420632490986
 31
0.0
  0
SOLID
  5
301
330
2FD
100
AcDbEntity
  8
0
 62
   123
100
AcDbTrace
 10
14724.19415678194
 20
-1842.003965824318
 30
0.0
 11
14724.19415678194
 21
-1842.837299157653
 31
0.0
 12
14721.69415678194
 22
-1842.420632490986
 32
0.0
 13
14721.69415678194
 23
-1842.420632490986
 33
0.0
  0
SOLID
  5
302
330
2FD
100
AcDbEntity
  8
0
 62
   123
100
AcDbTrace
 10
14794.19082378194
 20
-1842.003965824318
 30
0.0
 11
14794.19082378194
 21
-1842.837299157653
 31
0.0
 12
14796.69082378194
 22
-1842.420632490986
 32
0.0
 13
14796.69082378194
 23
-1842.420632490986
 33
0.0
  0
MTEXT
  5
303
330
2FD
100
AcDbEntity
  8
0
 62
     3
100
AcDbMText
 10
14752.59403402469
 20
-1839.920632490986
 30
0.0
 40
3.0
 41
0.0
 71
     5
 72
     1
  1
\A1;75
1001
ACAD
1000
MTEXTBEGIN
1070
    73
1070
     1
1070
    44
1040
1.0
1070
    74
1070
     0
1000
MTEXTEND
  0
POINT
  5
304
330
2FD
100
AcDbEntity
  8
DEFPOINTS
 62
     0
100
AcDbPoint
 10
14721.69415678194
 20
-1888.776236995669
 30
0.0
  0
POINT
  5
305
330
2FD
100
AcDbEntity
  8
DEFPOINTS
 62
     0
100
AcDbPoint
 10
14796.69082378194
 20
-1857.476236995668
 30
0.0
  0
POINT
  5
306
330
2FD
100
AcDbEntity
  8
DEFPOINTS
 62
     0
100
AcDbPoint
 10
14796.69082378194
 20
-1842.420632490986
 30
0.0
  0
ENDBLK
  5
308
330
2FD
100
AcDbEntity
  8
0
100
AcDbBlockEnd
  0
BLOCK
  5
318
330
30C
100
AcDbEntity
  8
0
100
AcDbBlockBegin
  2
*D11
 70
     1
 10
0.0
 20
0.0
 30
0.0
  3
*D11
  1

  0
LINE
  5
30D
330
30C
100
AcDbEntity
  8
0
 62
   123
100
AcDbLine
 10
14716.19415678194
 20
-1896.476235995671
 30
0.0
 11
14716.19415678194
 21
-1841.820632490986
 31
0.0
  0
LINE
  5
30E
330
30C
100
AcDbEntity
  8
0
 62
   123
100
AcDbLine
 10
14721.69415678194
 20
-1887.776236995669
 30
0.0
 11
14721.69415678194
 21
-1841.820632490986
 31
0.0
  0
LINE
  5
30F
330
30C
100
AcDbEntity
  8
0
 62
   123
100
AcDbLine
 10
14713.69415678194
 20
-1842.420632490986
 30
0.0
 11
14711.19415678194
 21
-1842.420632490986
 31
0.0
  0
LINE
  5
310
330
30C
100
AcDbEntity
  8
0
 62
   123
100
AcDbLine
 10
14724.19415678194
 20
-1842.420632490986
 30
0.0
 11
14726.69415678194
 21
-1842.420632490986
 31
0.0
  0
LINE
  5
311
330
30C
100
AcDbEntity
  8
0
 62
   123
100
AcDbLine
 10
14716.19415678194
 20
-1842.420632490986
 30
0.0
 11
14721.69415678194
 21
-1842.420632490986
 31
0.0
  0
SOLID
  5
312
330
30C
100
AcDbEntity
  8
0
 62
   123
100
AcDbTrace
 10
14713.69415678194
 20
-1842.003965824318
 30
0.0
 11
14713.69415678194
 21
-1842.837299157653
 31
0.0
 12
14716.19415678194
 22
-1842.420632490986
 32
0.0
 13
14716.19415678194
 23
-1842.420632490986
 33
0.0
  0
SOLID
  5
313
330
30C
100
AcDbEntity
  8
0
 62
   123
100
AcDbTrace
 10
14724.19415678194
 20
-1842.003965824318
 30
0.0
 11
14724.19415678194
 21
-1842.837299157653
 31
0.0
 12
14721.69415678194
 22
-1842.420632490986
 32
0.0
 13
14721.69415678194
 23
-1842.420632490986
 33
0.0
  0
MTEXT
  5
314
330
30C
100
AcDbEntity
  8
0
 62
     3
100
AcDbMText
 10
14718.94415678194
 20
-1839.920632490986
 30
0.0
 40
3.0
 41
0.0
 71
     5
 72
     1
  1
\A1;5.5
1001
ACAD
1000
MTEXTBEGIN
1070
    73
1070
     1
1070
    44
1040
1.0
1070
    74
1070
     0
1000
MTEXTEND
  0
POINT
  5
315
330
30C
100
AcDbEntity
  8
DEFPOINTS
 62
     0
100
AcDbPoint
 10
14716.19415678194
 20
-1897.476235995671
 30
0.0
  0
POINT
  5
316
330
30C
100
AcDbEntity
  8
DEFPOINTS
 62
     0
100
AcDbPoint
 10
14721.69415678194
 20
-1888.776236995669
 30
0.0
  0
POINT
  5
317
330
30C
100
AcDbEntity
  8
DEFPOINTS
 62
     0
100
AcDbPoint
 10
14721.69415678194
 20
-1842.420632490986
 30
0.0
  0
ENDBLK
  5
319
330
30C
100
AcDbEntity
  8
0
100
AcDbBlockEnd
  0
BLOCK
  5
21F
330
215
100
AcDbEntity
  8
0
100
AcDbBlockBegin
  2
*D12
 70
     1
 10
0.0
 20
0.0
 30
0.0
  3
*D12
  1

  0
LINE
  5
216
330
215
100
AcDbEntity
  8
0
 62
   123
100
AcDbLine
 10
14703.19415678194
 20
-1936.326235995671
 30
0.0
 11
14703.19415678194
 21
-1989.685478521971
 31
0.0
  0
LINE
  5
217
330
215
100
AcDbEntity
  8
0
 62
   123
100
AcDbLine
 10
14716.19415678194
 20
-1968.476235995671
 30
0.0
 11
14716.19415678194
 21
-1989.685478521971
 31
0.0
  0
LINE
  5
218
330
215
100
AcDbEntity
  8
0
 62
   123
100
AcDbLine
 10
14705.69415678194
 20
-1989.085478521969
 30
0.0
 11
14713.69415678194
 21
-1989.085478521969
 31
0.0
  0
SOLID
  5
219
330
215
100
AcDbEntity
  8
0
 62
   123
100
AcDbTrace
 10
14705.69415678194
 20
-1988.668811855304
 30
0.0
 11
14705.69415678194
 21
-1989.502145188637
 31
0.0
 12
14703.19415678194
 22
-1989.085478521969
 32
0.0
 13
14703.19415678194
 23
-1989.085478521969
 33
0.0
  0
SOLID
  5
21A
330
215
100
AcDbEntity
  8
0
 62
   123
100
AcDbTrace
 10
14713.69415678194
 20
-1988.668811855304
 30
0.0
 11
14713.69415678194
 21
-1989.502145188637
 31
0.0
 12
14716.19415678194
 22
-1989.085478521969
 32
0.0
 13
14716.19415678194
 23
-1989.085478521969
 33
0.0
  0
MTEXT
  5
21B
330
215
100
AcDbEntity
  8
0
 62
     3
100
AcDbMText
 10
14709.69415678194
 20
-1986.58547852197
 30
0.0
 40
3.0
 41
0.0
 71
     5
 72
     1
  1
\A1;13
1001
ACAD
1000
MTEXTBEGIN
1070
    73
1070
     1
1070
    44
1040
1.0
1070
    74
1070
     0
1000
MTEXTEND
  0
POINT
  5
21C
330
215
100
AcDbEntity
  8
DEFPOINTS
 62
     0
100
AcDbPoint
 10
14703.19415678194
 20
-1935.326235995671
 30
0.0
  0
POINT
  5
21D
330
215
100
AcDbEntity
  8
DEFPOINTS
 62
     0
100
AcDbPoint
 10
14716.19415678194
 20
-1967.47623599567
 30
0.0
  0
POINT
  5
21E
330
215
100
AcDbEntity
  8
DEFPOINTS
 62
     0
100
AcDbPoint
 10
14716.19415678194
 20
-1989.085478521969
 30
0.0
  0
ENDBLK
  5
220
330
215
100
AcDbEntity
  8
0
100
AcDbBlockEnd
  0
BLOCK
  5
230
330
224
100
AcDbEntity
  8
0
100
AcDbBlockBegin
  2
*D13
 70
     1
 10
0.0
 20
0.0
 30
0.0
  3
*D13
  1

  0
LINE
  5
225
330
224
100
AcDbEntity
  8
0
 62
   123
100
AcDbLine
 10
14714.19415678194
 20
-1965.47623599567
 30
0.0
 11
14714.19415678194
 21
-1980.035260671925
 31
0.0
  0
LINE
  5
226
330
224
100
AcDbEntity
  8
0
 62
   123
100
AcDbLine
 10
14716.19415678194
 20
-1968.476235995671
 30
0.0
 11
14716.19415678194
 21
-1980.035260671925
 31
0.0
  0
LINE
  5
227
330
224
100
AcDbEntity
  8
0
 62
   123
100
AcDbLine
 10
14718.69415678194
 20
-1979.435260671925
 30
0.0
 11
14721.19415678194
 21
-1979.435260671925
 31
0.0
  0
LINE
  5
228
330
224
100
AcDbEntity
  8
0
 62
   123
100
AcDbLine
 10
14711.69415678194
 20
-1979.435260671925
 30
0.0
 11
14703.19415678194
 21
-1979.435260671925
 31
0.0
  0
LINE
  5
229
330
224
100
AcDbEntity
  8
0
 62
   123
100
AcDbLine
 10
14716.19415678194
 20
-1979.435260671925
 30
0.0
 11
14714.19415678194
 21
-1979.435260671925
 31
0.0
  0
SOLID
  5
22A
330
224
100
AcDbEntity
  8
0
 62
   123
100
AcDbTrace
 10
14718.69415678194
 20
-1979.018594005259
 30
0.0
 11
14718.69415678194
 21
-1979.851927338591
 31
0.0
 12
14716.19415678194
 22
-1979.435260671925
 32
0.0
 13
14716.19415678194
 23
-1979.435260671925
 33
0.0
  0
SOLID
  5
22B
330
224
100
AcDbEntity
  8
0
 62
   123
100
AcDbTrace
 10
14711.69415678194
 20
-1979.018594005259
 30
0.0
 11
14711.69415678194
 21
-1979.851927338591
 31
0.0
 12
14714.19415678194
 22
-1979.435260671925
 32
0.0
 13
14714.19415678194
 23
-1979.435260671925
 33
0.0
  0
MTEXT
  5
22C
330
224
100
AcDbEntity
  8
0
 62
     3
100
AcDbMText
 10
14705.19415678194
 20
-1976.935260671925
 30
0.0
 40
3.0
 41
0.0
 71
     5
 72
     1
  1
\A1;2
1001
ACAD
1000
MTEXTBEGIN
1070
    73
1070
     1
1070
    44
1040
1.0
1070
    74
1070
     0
1000
MTEXTEND
  0
POINT
  5
22D
330
224
100
AcDbEntity
  8
DEFPOINTS
 62
     0
100
AcDbPoint
 10
14714.19415678194
 20
-1964.476235995671
 30
0.0
  0
POINT
  5
22E
330
224
100
AcDbEntity
  8
DEFPOINTS
 62
     0
100
AcDbPoint
 10
14716.19415678194
 20
-1967.47623599567
 30
0.0
  0
POINT
  5
22F
330
224
100
AcDbEntity
  8
DEFPOINTS
 62
     0
100
AcDbPoint
 10
14716.19415678194
 20
-1979.435260671925
 30
0.0
  0
ENDBLK
  5
231
330
224
100
AcDbEntity
  8
0
100
AcDbBlockEnd
  0
BLOCK
  5
24B
330
241
100
AcDbEntity
  8
0
100
AcDbBlockBegin
  2
*D14
 70
     1
 10
0.0
 20
0.0
 30
0.0
  3
*D14
  1

  0
LINE
  5
242
330
241
100
AcDbEntity
  8
0
 62
   123
100
AcDbLine
 10
14716.19415678194
 20
-1968.476235995671
 30
0.0
 11
14716.19415678194
 21
-1980.035260671925
 31
0.0
  0
LINE
  5
243
330
241
100
AcDbEntity
  8
0
 62
   123
100
AcDbLine
 10
14723.19415678194
 20
-1967.074973337201
 30
0.0
 11
14723.19415678194
 21
-1980.035260671925
 31
0.0
  0
LINE
  5
244
330
241
100
AcDbEntity
  8
0
 62
   123
100
AcDbLine
 10
14718.69415678194
 20
-1979.435260671925
 30
0.0
 11
14720.69415678194
 21
-1979.435260671925
 31
0.0
  0
SOLID
  5
245
330
241
100
AcDbEntity
  8
0
 62
   123
100
AcDbTrace
 10
14718.69415678194
 20
-1979.018594005259
 30
0.0
 11
14718.69415678194
 21
-1979.851927338591
 31
0.0
 12
14716.19415678194
 22
-1979.435260671925
 32
0.0
 13
14716.19415678194
 23
-1979.435260671925
 33
0.0
  0
SOLID
  5
246
330
241
100
AcDbEntity
  8
0
 62
   123
100
AcDbTrace
 10
14720.69415678194
 20
-1979.018594005259
 30
0.0
 11
14720.69415678194
 21
-1979.851927338591
 31
0.0
 12
14723.19415678194
 22
-1979.435260671925
 32
0.0
 13
14723.19415678194
 23
-1979.435260671925
 33
0.0
  0
MTEXT
  5
247
330
241
100
AcDbEntity
  8
0
 62
     3
100
AcDbMText
 10
14719.69415678194
 20
-1976.935260671925
 30
0.0
 40
3.0
 41
0.0
 71
     5
 72
     1
  1
\A1;7
1001
ACAD
1000
MTEXTBEGIN
1070
    73
1070
     1
1070
    44
1040
1.0
1070
    74
1070
     0
1000
MTEXTEND
  0
POINT
  5
248
330
241
100
AcDbEntity
  8
DEFPOINTS
 62
     0
100
AcDbPoint
 10
14716.19415678194
 20
-1967.47623599567
 30
0.0
  0
POINT
  5
249
330
241
100
AcDbEntity
  8
DEFPOINTS
 62
     0
100
AcDbPoint
 10
14723.19415678194
 20
-1966.0749733372
 30
0.0
  0
POINT
  5
24A
330
241
100
AcDbEntity
  8
DEFPOINTS
 62
     0
100
AcDbPoint
 10
14723.19415678194
 20
-1979.435260671925
 30
0.0
  0
ENDBLK
  5
24C
330
241
100
AcDbEntity
  8
0
100
AcDbBlockEnd
  0
BLOCK
  5
25A
330
250
100
AcDbEntity
  8
0
100
AcDbBlockBegin
  2
*D15
 70
     1
 10
0.0
 20
0.0
 30
0.0
  3
*D15
  1

  0
LINE
  5
251
330
250
100
AcDbEntity
  8
0
 62
   123
100
AcDbLine
 10
14796.19415678194
 20
-1965.47623599567
 30
0.0
 11
14796.19415678194
 21
-1989.685478521971
 31
0.0
  0
LINE
  5
252
330
250
100
AcDbEntity
  8
0
 62
   123
100
AcDbLine
 10
14716.19415678194
 20
-1968.476235995671
 30
0.0
 11
14716.19415678194
 21
-1989.685478521971
 31
0.0
  0
LINE
  5
253
330
250
100
AcDbEntity
  8
0
 62
   123
100
AcDbLine
 10
14793.69415678194
 20
-1989.085478521969
 30
0.0
 11
14718.69415678194
 21
-1989.085478521969
 31
0.0
  0
SOLID
  5
254
330
250
100
AcDbEntity
  8
0
 62
   123
100
AcDbTrace
 10
14793.69415678194
 20
-1988.668811855304
 30
0.0
 11
14793.69415678194
 21
-1989.502145188637
 31
0.0
 12
14796.19415678194
 22
-1989.085478521969
 32
0.0
 13
14796.19415678194
 23
-1989.085478521969
 33
0.0
  0
SOLID
  5
255
330
250
100
AcDbEntity
  8
0
 62
   123
100
AcDbTrace
 10
14718.69415678194
 20
-1988.668811855304
 30
0.0
 11
14718.69415678194
 21
-1989.502145188637
 31
0.0
 12
14716.19415678194
 22
-1989.085478521969
 32
0.0
 13
14716.19415678194
 23
-1989.085478521969
 33
0.0
  0
MTEXT
  5
256
330
250
100
AcDbEntity
  8
0
 62
     3
100
AcDbMText
 10
14755.20313861598
 20
-1986.58547852197
 30
0.0
 40
3.0
 41
0.0
 71
     5
 72
     1
  1
\A1;80
1001
ACAD
1000
MTEXTBEGIN
1070
    73
1070
     1
1070
    44
1040
1.0
1070
    74
1070
     0
1000
MTEXTEND
  0
POINT
  5
257
330
250
100
AcDbEntity
  8
DEFPOINTS
 62
     0
100
AcDbPoint
 10
14796.19415678194
 20
-1964.476235995671
 30
0.0
  0
POINT
  5
258
330
250
100
AcDbEntity
  8
DEFPOINTS
 62
     0
100
AcDbPoint
 10
14716.19415678194
 20
-1967.47623599567
 30
0.0
  0
POINT
  5
259
330
250
100
AcDbEntity
  8
DEFPOINTS
 62
     0
100
AcDbPoint
 10
14716.19415678194
 20
-1989.085478521969
 30
0.0
  0
ENDBLK
  5
25B
330
250
100
AcDbEntity
  8
0
100
AcDbBlockEnd
  0
BLOCK
  5
1A6
330
19C
100
AcDbEntity
  8
0
100
AcDbBlockBegin
  2
*D16
 70
     1
 10
0.0
 20
0.0
 30
0.0
  3
*D16
  1

  0
LINE
  5
19D
330
19C
100
AcDbEntity
  8
0
 62
   123
100
AcDbLine
 10
14713.19415678194
 20
-1900.476235995671
 30
0.0
 11
14688.73670320491
 21
-1900.476235995671
 31
0.0
  0
LINE
  5
19E
330
19C
100
AcDbEntity
  8
0
 62
   123
100
AcDbLine
 10
14713.19415678194
 20
-1964.476235995671
 30
0.0
 11
14688.73670320491
 21
-1964.476235995671
 31
0.0
  0
LINE
  5
19F
330
19C
100
AcDbEntity
  8
0
 62
   123
100
AcDbLine
 10
14689.33670320492
 20
-1902.97623599567
 30
0.0
 11
14689.33670320492
 21
-1961.97623599567
 31
0.0
  0
SOLID
  5
1A0
330
19C
100
AcDbEntity
  8
0
 62
   123
100
AcDbTrace
 10
14688.92003653825
 20
-1902.97623599567
 30
0.0
 11
14689.75336987159
 21
-1902.97623599567
 31
0.0
 12
14689.33670320492
 22
-1900.476235995671
 32
0.0
 13
14689.33670320492
 23
-1900.476235995671
 33
0.0
  0
SOLID
  5
1A1
330
19C
100
AcDbEntity
  8
0
 62
   123
100
AcDbTrace
 10
14688.92003653825
 20
-1961.97623599567
 30
0.0
 11
14689.75336987159
 21
-1961.97623599567
 31
0.0
 12
14689.33670320492
 22
-1964.476235995671
 32
0.0
 13
14689.33670320492
 23
-1964.476235995671
 33
0.0
  0
MTEXT
  5
1A2
330
19C
100
AcDbEntity
  8
0
 62
     3
100
AcDbMText
 10
14685.38655320491
 20
-1932.476235995671
 30
0.0
 40
3.0
 41
0.0
 71
     5
 72
     1
  1
\A1;\A1;%%C{\f??|b0|i0|c0|p49;64\H0.7x;\S+0^ -0.030;\H1.429x;(h7)} 
 11
0.0000000000000001
 21
1.0
 31
0.0
1001
ACAD
1000
MTEXTBEGIN
1070
    73
1070
     1
1070
    44
1040
1.0
1070
    74
1070
     0
1000
MTEXTEND
  0
POINT
  5
1A3
330
19C
100
AcDbEntity
  8
DEFPOINTS
 62
     0
100
AcDbPoint
 10
14714.19415678194
 20
-1900.476235995671
 30
0.0
  0
POINT
  5
1A4
330
19C
100
AcDbEntity
  8
DEFPOINTS
 62
     0
100
AcDbPoint
 10
14714.19415678194
 20
-1964.476235995671
 30
0.0
  0
POINT
  5
1A5
330
19C
100
AcDbEntity
  8
DEFPOINTS
 62
     0
100
AcDbPoint
 10
14689.33670320492
 20
-1964.476235995671
 30
0.0
  0
ENDBLK
  5
1A7
330
19C
100
AcDbEntity
  8
0
100
AcDbBlockEnd
  0
BLOCK
  5
190
330
186
100
AcDbEntity
  8
0
100
AcDbBlockBegin
  2
*D17
 70
     1
 10
0.0
 20
0.0
 30
0.0
  3
*D17
  1

  0
LINE
  5
187
330
186
100
AcDbEntity
  8
0
 62
   123
100
AcDbLine
 10
14790.19415678194
 20
-1897.97623599567
 30
0.0
 11
14813.45482647481
 21
-1897.97623599567
 31
0.0
  0
LINE
  5
188
330
186
100
AcDbEntity
  8
0
 62
   123
100
AcDbLine
 10
14790.19415678194
 20
-1966.976235995671
 30
0.0
 11
14813.45482647481
 21
-1966.976235995671
 31
0.0
  0
LINE
  5
189
330
186
100
AcDbEntity
  8
0
 62
   123
100
AcDbLine
 10
14812.85482647481
 20
-1900.476235995671
 30
0.0
 11
14812.85482647481
 21
-1964.476235995671
 31
0.0
  0
SOLID
  5
18A
330
186
100
AcDbEntity
  8
0
 62
   123
100
AcDbTrace
 10
14812.43815980815
 20
-1900.476235995671
 30
0.0
 11
14813.27149314149
 21
-1900.476235995671
 31
0.0
 12
14812.85482647481
 22
-1897.97623599567
 32
0.0
 13
14812.85482647481
 23
-1897.97623599567
 33
0.0
  0
SOLID
  5
18B
330
186
100
AcDbEntity
  8
0
 62
   123
100
AcDbTrace
 10
14812.43815980815
 20
-1964.476235995671
 30
0.0
 11
14813.27149314149
 21
-1964.476235995671
 31
0.0
 12
14812.85482647481
 22
-1966.976235995671
 32
0.0
 13
14812.85482647481
 23
-1966.976235995671
 33
0.0
  0
MTEXT
  5
18C
330
186
100
AcDbEntity
  8
0
 62
     3
100
AcDbMText
 10
14810.35482647481
 20
-1934.63231698576
 30
0.0
 40
3.0
 41
0.0
 71
     5
 72
     1
  1
\A1;%%C69
 11
0.0000000000000001
 21
1.0
 31
0.0
1001
ACAD
1000
MTEXTBEGIN
1070
    73
1070
     1
1070
    44
1040
1.0
1070
    74
1070
     0
1000
MTEXTEND
  0
POINT
  5
18D
330
186
100
AcDbEntity
  8
DEFPOINTS
 62
     0
100
AcDbPoint
 10
14789.19415678194
 20
-1897.97623599567
 30
0.0
  0
POINT
  5
18E
330
186
100
AcDbEntity
  8
DEFPOINTS
 62
     0
100
AcDbPoint
 10
14789.19415678194
 20
-1966.976235995671
 30
0.0
  0
POINT
  5
18F
330
186
100
AcDbEntity
  8
DEFPOINTS
 62
     0
100
AcDbPoint
 10
14812.85482647481
 20
-1966.976235995671
 30
0.0
  0
ENDBLK
  5
191
330
186
100
AcDbEntity
  8
0
100
AcDbBlockEnd
  0
BLOCK
  5
D6
330
CC
100
AcDbEntity
  8
0
100
AcDbBlockBegin
  2
*D18
 70
     1
 10
0.0
 20
0.0
 30
0.0
  3
*D18
  1

  0
LINE
  5
CD
330
CC
100
AcDbEntity
  8
0
 62
   123
100
AcDbLine
 10
14730.48130390393
 20
-2084.329608459211
 30
0.0
 11
14688.35092663973
 21
-2084.329608459211
 31
0.0
  0
LINE
  5
CE
330
CC
100
AcDbEntity
  8
0
 62
   123
100
AcDbLine
 10
14730.48130390393
 20
-2148.329608459211
 30
0.0
 11
14688.35092663973
 21
-2148.329608459211
 31
0.0
  0
LINE
  5
CF
330
CC
100
AcDbEntity
  8
0
 62
   123
100
AcDbLine
 10
14688.95092663973
 20
-2086.829608459211
 30
0.0
 11
14688.95092663973
 21
-2145.829608459211
 31
0.0
  0
SOLID
  5
D0
330
CC
100
AcDbEntity
  8
0
 62
   123
100
AcDbTrace
 10
14688.53425997306
 20
-2086.829608459211
 30
0.0
 11
14689.36759330639
 21
-2086.829608459211
 31
0.0
 12
14688.95092663973
 22
-2084.329608459211
 32
0.0
 13
14688.95092663973
 23
-2084.329608459211
 33
0.0
  0
SOLID
  5
D1
330
CC
100
AcDbEntity
  8
0
 62
   123
100
AcDbTrace
 10
14688.53425997306
 20
-2145.829608459211
 30
0.0
 11
14689.36759330639
 21
-2145.829608459211
 31
0.0
 12
14688.95092663973
 22
-2148.329608459211
 32
0.0
 13
14688.95092663973
 23
-2148.329608459211
 33
0.0
  0
MTEXT
  5
D2
330
CC
100
AcDbEntity
  8
0
 62
     3
100
AcDbMText
 10
14685.00077663973
 20
-2116.32960845921
 30
0.0
 40
3.0
 41
0.0
 71
     5
 72
     1
  1
\A1;\A1;%%C{\f??|b0|i0|c0|p49;64\H0.7x;\S+0^ -0.030;\H1.429x;(h7)} 
 11
0.0000000000000001
 21
1.0
 31
0.0
1001
ACAD
1000
MTEXTBEGIN
1070
    73
1070
     1
1070
    44
1040
1.0
1070
    74
1070
     0
1000
MTEXTEND
  0
POINT
  5
D3
330
CC
100
AcDbEntity
  8
DEFPOINTS
 62
     0
100
AcDbPoint
 10
14731.48130390393
 20
-2084.329608459211
 30
0.0
  0
POINT
  5
D4
330
CC
100
AcDbEntity
  8
DEFPOINTS
 62
     0
100
AcDbPoint
 10
14731.48130390393
 20
-2148.329608459211
 30
0.0
  0
POINT
  5
D5
330
CC
100
AcDbEntity
  8
DEFPOINTS
 62
     0
100
AcDbPoint
 10
14688.95092663973
 20
-2148.329608459211
 30
0.0
  0
ENDBLK
  5
D7
330
CC
100
AcDbEntity
  8
0
100
AcDbBlockEnd
  0
BLOCK
  5
AC
330
A1
100
AcDbEntity
  8
0
100
AcDbBlockBegin
  2
*D19
 70
     1
 10
0.0
 20
0.0
 30
0.0
  3
*D19
  1

  0
LINE
  5
A2
330
A1
100
AcDbEntity
  8
0
 62
   123
100
AcDbLine
 10
14807.48130390393
 20
-2081.829608459211
 30
0.0
 11
14830.74197359681
 21
-2081.829608459211
 31
0.0
  0
LINE
  5
A3
330
A1
100
AcDbEntity
  8
0
 62
   123
100
AcDbLine
 10
14807.48130390393
 20
-2150.829608459211
 30
0.0
 11
14830.74197359681
 21
-2150.829608459211
 31
0.0
  0
LINE
  5
A4
330
A1
100
AcDbEntity
  8
0
 62
   123
100
AcDbLine
 10
14830.1419735968
 20
-2084.329608459211
 30
0.0
 11
14830.1419735968
 21
-2148.329608459211
 31
0.0
  0
SOLID
  5
A5
330
A1
100
AcDbEntity
  8
0
 62
   123
100
AcDbTrace
 10
14829.72530693014
 20
-2084.329608459211
 30
0.0
 11
14830.55864026346
 21
-2084.329608459211
 31
0.0
 12
14830.1419735968
 22
-2081.829608459211
 32
0.0
 13
14830.1419735968
 23
-2081.829608459211
 33
0.0
  0
SOLID
  5
A6
330
A1
100
AcDbEntity
  8
0
 62
   123
100
AcDbTrace
 10
14829.72530693014
 20
-2148.329608459211
 30
0.0
 11
14830.55864026346
 21
-2148.329608459211
 31
0.0
 12
14830.1419735968
 22
-2150.829608459211
 32
0.0
 13
14830.1419735968
 23
-2150.829608459211
 33
0.0
  0
MTEXT
  5
A7
330
A1
100
AcDbEntity
  8
0
 62
     3
100
AcDbMText
 10
14827.64197359681
 20
-2118.4856894493
 30
0.0
 40
3.0
 41
0.0
 71
     5
 72
     1
  1
\A1;%%C69
 11
0.0000000000000001
 21
1.0
 31
0.0
1001
ACAD
1000
MTEXTBEGIN
1070
    73
1070
     1
1070
    44
1040
1.0
1070
    74
1070
     0
1000
MTEXTEND
  0
POINT
  5
A8
330
A1
100
AcDbEntity
  8
DEFPOINTS
 62
     0
100
AcDbPoint
 10
14806.48130390393
 20
-2081.829608459211
 30
0.0
  0
POINT
  5
AA
330
A1
100
AcDbEntity
  8
DEFPOINTS
 62
     0
100
AcDbPoint
 10
14806.48130390393
 20
-2150.829608459211
 30
0.0
  0
POINT
  5
AB
330
A1
100
AcDbEntity
  8
DEFPOINTS
 62
     0
100
AcDbPoint
 10
14830.1419735968
 20
-2150.829608459211
 30
0.0
  0
ENDBLK
  5
AD
330
A1
100
AcDbEntity
  8
0
100
AcDbBlockEnd
  0
BLOCK
  5
103
330
F9
100
AcDbEntity
  8
0
100
AcDbBlockBegin
  2
*D20
 70
     1
 10
0.0
 20
0.0
 30
0.0
  3
*D20
  1

  0
LINE
  5
FA
330
F9
100
AcDbEntity
  8
0
 62
   123
100
AcDbLine
 10
14709.48130390393
 20
-2119.829498073755
 30
0.0
 11
14709.48130390393
 21
-2173.744067464147
 31
0.0
  0
LINE
  5
FB
330
F9
100
AcDbEntity
  8
0
 62
   123
100
AcDbLine
 10
14733.48130390393
 20
-2152.329608459211
 30
0.0
 11
14733.48130390393
 21
-2173.744067464147
 31
0.0
  0
LINE
  5
FC
330
F9
100
AcDbEntity
  8
0
 62
   123
100
AcDbLine
 10
14711.98130390393
 20
-2173.144067464147
 30
0.0
 11
14730.98130390393
 21
-2173.144067464147
 31
0.0
  0
SOLID
  5
FD
330
F9
100
AcDbEntity
  8
0
 62
   123
100
AcDbTrace
 10
14711.98130390393
 20
-2172.72740079748
 30
0.0
 11
14711.98130390393
 21
-2173.560734130812
 31
0.0
 12
14709.48130390393
 22
-2173.144067464147
 32
0.0
 13
14709.48130390393
 23
-2173.144067464147
 33
0.0
  0
SOLID
  5
FE
330
F9
100
AcDbEntity
  8
0
 62
   123
100
AcDbTrace
 10
14730.98130390393
 20
-2172.72740079748
 30
0.0
 11
14730.98130390393
 21
-2173.560734130812
 31
0.0
 12
14733.48130390393
 22
-2173.144067464147
 32
0.0
 13
14733.48130390393
 23
-2173.144067464147
 33
0.0
  0
MTEXT
  5
FF
330
F9
100
AcDbEntity
  8
0
 62
     3
100
AcDbMText
 10
14721.72878191265
 20
-2170.644067464146
 30
0.0
 40
3.0
 41
0.0
 71
     5
 72
     1
  1
\A1;24
1001
ACAD
1000
MTEXTBEGIN
1070
    73
1070
     1
1070
    44
1040
1.0
1070
    74
1070
     0
1000
MTEXTEND
  0
POINT
  5
100
330
F9
100
AcDbEntity
  8
DEFPOINTS
 62
     0
100
AcDbPoint
 10
14709.48130390393
 20
-2118.829498073755
 30
0.0
  0
POINT
  5
101
330
F9
100
AcDbEntity
  8
DEFPOINTS
 62
     0
100
AcDbPoint
 10
14733.48130390393
 20
-2151.329608459211
 30
0.0
  0
POINT
  5
102
330
F9
100
AcDbEntity
  8
DEFPOINTS
 62
     0
100
AcDbPoint
 10
14733.48130390393
 20
-2173.144067464147
 30
0.0
  0
ENDBLK
  5
104
330
F9
100
AcDbEntity
  8
0
100
AcDbBlockEnd
  0
BLOCK
  5
149
330
13D
100
AcDbEntity
  8
0
100
AcDbBlockBegin
  2
*D21
 70
     1
 10
0.0
 20
0.0
 30
0.0
  3
*D21
  1

  0
LINE
  5
13E
330
13D
100
AcDbEntity
  8
0
 62
   123
100
AcDbLine
 10
14731.48130390393
 20
-2149.329608459211
 30
0.0
 11
14731.48130390393
 21
-2163.263017071264
 31
0.0
  0
LINE
  5
13F
330
13D
100
AcDbEntity
  8
0
 62
   123
100
AcDbLine
 10
14733.48130390393
 20
-2152.329608459211
 30
0.0
 11
14733.48130390393
 21
-2163.263017071264
 31
0.0
  0
LINE
  5
140
330
13D
100
AcDbEntity
  8
0
 62
   123
100
AcDbLine
 10
14735.98130390393
 20
-2162.663017071265
 30
0.0
 11
14738.48130390393
 21
-2162.663017071265
 31
0.0
  0
LINE
  5
141
330
13D
100
AcDbEntity
  8
0
 62
   123
100
AcDbLine
 10
14728.98130390393
 20
-2162.663017071265
 30
0.0
 11
14720.48130390393
 21
-2162.663017071265
 31
0.0
  0
LINE
  5
142
330
13D
100
AcDbEntity
  8
0
 62
   123
100
AcDbLine
 10
14733.48130390393
 20
-2162.663017071265
 30
0.0
 11
14731.48130390393
 21
-2162.663017071265
 31
0.0
  0
SOLID
  5
143
330
13D
100
AcDbEntity
  8
0
 62
   123
100
AcDbTrace
 10
14735.98130390393
 20
-2162.246350404598
 30
0.0
 11
14735.98130390393
 21
-2163.07968373793
 31
0.0
 12
14733.48130390393
 22
-2162.663017071265
 32
0.0
 13
14733.48130390393
 23
-2162.663017071265
 33
0.0
  0
SOLID
  5
144
330
13D
100
AcDbEntity
  8
0
 62
   123
100
AcDbTrace
 10
14728.98130390393
 20
-2162.246350404598
 30
0.0
 11
14728.98130390393
 21
-2163.07968373793
 31
0.0
 12
14731.48130390393
 22
-2162.663017071265
 32
0.0
 13
14731.48130390393
 23
-2162.663017071265
 33
0.0
  0
MTEXT
  5
145
330
13D
100
AcDbEntity
  8
0
 62
     3
100
AcDbMText
 10
14722.48130390393
 20
-2160.163017071264
 30
0.0
 40
3.0
 41
0.0
 71
     5
 72
     1
  1
\A1;2
1001
ACAD
1000
MTEXTBEGIN
1070
    73
1070
     1
1070
    44
1040
1.0
1070
    74
1070
     0
1000
MTEXTEND
  0
POINT
  5
146
330
13D
100
AcDbEntity
  8
DEFPOINTS
 62
     0
100
AcDbPoint
 10
14731.48130390393
 20
-2148.329608459211
 30
0.0
  0
POINT
  5
147
330
13D
100
AcDbEntity
  8
DEFPOINTS
 62
     0
100
AcDbPoint
 10
14733.48130390393
 20
-2151.329608459211
 30
0.0
  0
POINT
  5
148
330
13D
100
AcDbEntity
  8
DEFPOINTS
 62
     0
100
AcDbPoint
 10
14733.48130390393
 20
-2162.663017071265
 30
0.0
  0
ENDBLK
  5
14A
330
13D
100
AcDbEntity
  8
0
100
AcDbBlockEnd
  0
BLOCK
  5
F4
330
EA
100
AcDbEntity
  8
0
100
AcDbBlockBegin
  2
*D22
 70
     1
 10
0.0
 20
0.0
 30
0.0
  3
*D22
  1

  0
LINE
  5
EB
330
EA
100
AcDbEntity
  8
0
 62
   123
100
AcDbLine
 10
14813.48130390393
 20
-2149.329608459211
 30
0.0
 11
14813.48130390393
 21
-2173.744067464147
 31
0.0
  0
LINE
  5
EC
330
EA
100
AcDbEntity
  8
0
 62
   123
100
AcDbLine
 10
14733.48130390393
 20
-2152.329608459211
 30
0.0
 11
14733.48130390393
 21
-2173.744067464147
 31
0.0
  0
LINE
  5
ED
330
EA
100
AcDbEntity
  8
0
 62
   123
100
AcDbLine
 10
14810.98130390393
 20
-2173.144067464147
 30
0.0
 11
14735.98130390393
 21
-2173.144067464147
 31
0.0
  0
SOLID
  5
EE
330
EA
100
AcDbEntity
  8
0
 62
   123
100
AcDbTrace
 10
14810.98130390393
 20
-2172.72740079748
 30
0.0
 11
14810.98130390393
 21
-2173.560734130812
 31
0.0
 12
14813.48130390393
 22
-2173.144067464147
 32
0.0
 13
14813.48130390393
 23
-2173.144067464147
 33
0.0
  0
SOLID
  5
EF
330
EA
100
AcDbEntity
  8
0
 62
   123
100
AcDbTrace
 10
14735.98130390393
 20
-2172.72740079748
 30
0.0
 11
14735.98130390393
 21
-2173.560734130812
 31
0.0
 12
14733.48130390393
 22
-2173.144067464147
 32
0.0
 13
14733.48130390393
 23
-2173.144067464147
 33
0.0
  0
MTEXT
  5
F0
330
EA
100
AcDbEntity
  8
0
 62
     3
100
AcDbMText
 10
14772.49028573796
 20
-2170.644067464146
 30
0.0
 40
3.0
 41
0.0
 71
     5
 72
     1
  1
\A1;80
1001
ACAD
1000
MTEXTBEGIN
1070
    73
1070
     1
1070
    44
1040
1.0
1070
    74
1070
     0
1000
MTEXTEND
  0
POINT
  5
F1
330
EA
100
AcDbEntity
  8
DEFPOINTS
 62
     0
100
AcDbPoint
 10
14813.48130390393
 20
-2148.329608459211
 30
0.0
  0
POINT
  5
F2
330
EA
100
AcDbEntity
  8
DEFPOINTS
 62
     0
100
AcDbPoint
 10
14733.48130390393
 20
-2151.329608459211
 30
0.0
  0
POINT
  5
F3
330
EA
100
AcDbEntity
  8
DEFPOINTS
 62
     0
100
AcDbPoint
 10
14733.48130390393
 20
-2173.144067464147
 30
0.0
  0
ENDBLK
  5
F5
330
EA
100
AcDbEntity
  8
0
100
AcDbBlockEnd
  0
BLOCK
  5
E5
330
DB
100
AcDbEntity
  8
0
100
AcDbBlockBegin
  2
*D23
 70
     1
 10
0.0
 20
0.0
 30
0.0
  3
*D23
  1

  0
LINE
  5
DC
330
DB
100
AcDbEntity
  8
0
 62
   123
100
AcDbLine
 10
14733.48130390393
 20
-2152.329608459211
 30
0.0
 11
14733.48130390393
 21
-2163.263017071265
 31
0.0
  0
LINE
  5
DD
330
DB
100
AcDbEntity
  8
0
 62
   123
100
AcDbLine
 10
14740.48130390393
 20
-2150.92834580074
 30
0.0
 11
14740.48130390393
 21
-2163.263017071265
 31
0.0
  0
LINE
  5
DE
330
DB
100
AcDbEntity
  8
0
 62
   123
100
AcDbLine
 10
14735.98130390393
 20
-2162.663017071265
 30
0.0
 11
14737.98130390393
 21
-2162.663017071265
 31
0.0
  0
SOLID
  5
DF
330
DB
100
AcDbEntity
  8
0
 62
   123
100
AcDbTrace
 10
14735.98130390393
 20
-2162.246350404598
 30
0.0
 11
14735.98130390393
 21
-2163.07968373793
 31
0.0
 12
14733.48130390393
 22
-2162.663017071265
 32
0.0
 13
14733.48130390393
 23
-2162.663017071265
 33
0.0
  0
SOLID
  5
E0
330
DB
100
AcDbEntity
  8
0
 62
   123
100
AcDbTrace
 10
14737.98130390393
 20
-2162.246350404598
 30
0.0
 11
14737.98130390393
 21
-2163.07968373793
 31
0.0
 12
14740.48130390393
 22
-2162.663017071265
 32
0.0
 13
14740.48130390393
 23
-2162.663017071265
 33
0.0
  0
MTEXT
  5
E1
330
DB
100
AcDbEntity
  8
0
 62
     3
100
AcDbMText
 10
14736.98130390393
 20
-2160.163017071265
 30
0.0
 40
3.0
 41
0.0
 71
     5
 72
     1
  1
\A1;7
1001
ACAD
1000
MTEXTBEGIN
1070
    73
1070
     1
1070
    44
1040
1.0
1070
    74
1070
     0
1000
MTEXTEND
  0
POINT
  5
E2
330
DB
100
AcDbEntity
  8
DEFPOINTS
 62
     0
100
AcDbPoint
 10
14733.48130390393
 20
-2151.329608459211
 30
0.0
  0
POINT
  5
E3
330
DB
100
AcDbEntity
  8
DEFPOINTS
 62
     0
100
AcDbPoint
 10
14740.48130390393
 20
-2149.92834580074
 30
0.0
  0
POINT
  5
E4
330
DB
100
AcDbEntity
  8
DEFPOINTS
 62
     0
100
AcDbPoint
 10
14740.48130390393
 20
-2162.663017071265
 30
0.0
  0
ENDBLK
  5
E6
330
DB
100
AcDbEntity
  8
0
100
AcDbBlockEnd
  0
BLOCK
  5
2AF
330
2A5
100
AcDbEntity
  8
0
100
AcDbBlockBegin
  2
*D24
 70
     1
 10
0.0
 20
0.0
 30
0.0
  3
*D24
  1

  0
LINE
  5
2A6
330
2A5
100
AcDbEntity
  8
0
 62
   123
100
AcDbLine
 10
14567.98878456453
 20
-2072.329608459211
 30
0.0
 11
14567.98878456453
 21
-2025.437634747756
 31
0.0
  0
LINE
  5
2A7
330
2A5
100
AcDbEntity
  8
0
 62
   123
100
AcDbLine
 10
14629.98878456453
 20
-2072.329608459211
 30
0.0
 11
14629.98878456453
 21
-2025.437634747756
 31
0.0
  0
LINE
  5
2A8
330
2A5
100
AcDbEntity
  8
0
 62
   123
100
AcDbLine
 10
14570.48878456453
 20
-2026.037634747756
 30
0.0
 11
14627.48878456453
 21
-2026.037634747756
 31
0.0
  0
SOLID
  5
2A9
330
2A5
100
AcDbEntity
  8
0
 62
   123
100
AcDbTrace
 10
14570.48878456453
 20
-2025.620968081089
 30
0.0
 11
14570.48878456453
 21
-2026.454301414422
 31
0.0
 12
14567.98878456453
 22
-2026.037634747756
 32
0.0
 13
14567.98878456453
 23
-2026.037634747756
 33
0.0
  0
SOLID
  5
2AA
330
2A5
100
AcDbEntity
  8
0
 62
   123
100
AcDbTrace
 10
14627.48878456453
 20
-2025.620968081089
 30
0.0
 11
14627.48878456453
 21
-2026.454301414422
 31
0.0
 12
14629.98878456453
 22
-2026.037634747756
 32
0.0
 13
14629.98878456453
 23
-2026.037634747756
 33
0.0
  0
MTEXT
  5
2AB
330
2A5
100
AcDbEntity
  8
0
 62
     3
100
AcDbMText
 10
14598.98878456453
 20
-2023.537634747755
 30
0.0
 40
3.0
 41
0.0
 71
     5
 72
     1
  1
\A1;62
1001
ACAD
1000
MTEXTBEGIN
1070
    73
1070
     1
1070
    44
1040
1.0
1070
    74
1070
     0
1000
MTEXTEND
  0
POINT
  5
2AC
330
2A5
100
AcDbEntity
  8
DEFPOINTS
 62
     0
100
AcDbPoint
 10
14567.98878456453
 20
-2073.329608459211
 30
0.0
  0
POINT
  5
2AD
330
2A5
100
AcDbEntity
  8
DEFPOINTS
 62
     0
100
AcDbPoint
 10
14629.98878456453
 20
-2073.329608459211
 30
0.0
  0
POINT
  5
2AE
330
2A5
100
AcDbEntity
  8
DEFPOINTS
 62
     0
100
AcDbPoint
 10
14629.98878456453
 20
-2026.037634747756
 30
0.0
  0
ENDBLK
  5
2B0
330
2A5
100
AcDbEntity
  8
0
100
AcDbBlockEnd
  0
BLOCK
  5
1B8
330
1AF
100
AcDbEntity
  8
0
100
AcDbBlockBegin
  2
*D25
 70
     1
 10
0.0
 20
0.0
 30
0.0
  3
*D25
  1

  0
LINE
  5
1B0
330
1AF
100
AcDbEntity
  8
0
 62
   123
100
AcDbLine
 10
14567.75381463127
 20
-1957.219066421797
 30
0.0
 11
14565.69762616061
 21
-1958.641068170426
 31
0.0
  0
LINE
  5
1B1
330
1AF
100
AcDbEntity
  8
0
 62
   123
100
AcDbLine
 10
14639.30917341043
 20
-1907.733405569527
 30
0.0
 11
14670.93916724031
 21
-1885.858997081748
 31
0.0
  0
LINE
  5
1B2
330
1AF
100
AcDbEntity
  8
0
 62
   123
100
AcDbLine
 10
14569.81000310194
 20
-1955.797064673168
 30
0.0
 11
14637.25298493975
 21
-1909.155407318157
 31
0.0
  0
SOLID
  5
1B3
330
1AF
100
AcDbEntity
  8
0
 62
   123
100
AcDbTrace
 10
14567.51681433983
 20
-1956.876368343354
 30
0.0
 11
14567.99081492271
 21
-1957.56176450024
 31
0.0
 12
14569.81000310194
 22
-1955.797064673168
 32
0.0
 13
14569.81000310194
 23
-1955.797064673168
 33
0.0
  0
SOLID
  5
1B4
330
1AF
100
AcDbEntity
  8
0
 62
   123
100
AcDbTrace
 10
14639.07217311899
 20
-1907.390707491083
 30
0.0
 11
14639.54617370186
 21
-1908.076103647971
 31
0.0
 12
14637.25298493975
 22
-1909.155407318157
 32
0.0
 13
14637.25298493975
 23
-1909.155407318157
 33
0.0
  0
MTEXT
  5
1B5
330
1AF
100
AcDbEntity
  8
0
 62
     3
100
AcDbMText
 10
14661.11616688295
 20
-1889.612701469765
 30
0.0
 40
3.0
 41
0.0
 71
     5
 72
     1
  1
\A1;\U+220582%%P0.5
 11
0.822475388266177
 21
0.5688006994513996
 31
0.0
1001
ACAD
1000
MTEXTBEGIN
1070
    73
1070
     1
1070
    44
1040
1.0
1070
    74
1070
     0
1000
MTEXTEND
  0
POINT
  5
1B6
330
1AF
100
AcDbEntity
  8
DEFPOINTS
 62
     0
100
AcDbPoint
 10
14637.25298493975
 20
-1909.155407318157
 30
0.0
  0
POINT
  5
1B7
330
1AF
100
AcDbEntity
  8
DEFPOINTS
 62
     0
100
AcDbPoint
 10
14569.81000310194
 20
-1955.797064673168
 30
0.0
  0
ENDBLK
  5
1B9
330
1AF
100
AcDbEntity
  8
0
100
AcDbBlockEnd
  0
BLOCK
  5
377
330
36D
100
AcDbEntity
  8
0
100
AcDbBlockBegin
  2
*D26
 70
     1
 10
0.0
 20
0.0
 30
0.0
  3
*D26
  1

  0
LINE
  5
36E
330
36D
100
AcDbEntity
  8
0
 62
   123
100
AcDbLine
 10
14572.53149402085
 20
-1888.476235995671
 30
0.0
 11
14572.53149402085
 21
-1841.584262284215
 31
0.0
  0
LINE
  5
36F
330
36D
100
AcDbEntity
  8
0
 62
   123
100
AcDbLine
 10
14634.53149402084
 20
-1888.476235995671
 30
0.0
 11
14634.53149402084
 21
-1841.584262284215
 31
0.0
  0
LINE
  5
370
330
36D
100
AcDbEntity
  8
0
 62
   123
100
AcDbLine
 10
14575.03149402085
 20
-1842.184262284216
 30
0.0
 11
14632.03149402085
 21
-1842.184262284216
 31
0.0
  0
SOLID
  5
371
330
36D
100
AcDbEntity
  8
0
 62
   123
100
AcDbTrace
 10
14575.03149402085
 20
-1841.767595617549
 30
0.0
 11
14575.03149402085
 21
-1842.600928950881
 31
0.0
 12
14572.53149402085
 22
-1842.184262284216
 32
0.0
 13
14572.53149402085
 23
-1842.184262284216
 33
0.0
  0
SOLID
  5
372
330
36D
100
AcDbEntity
  8
0
 62
   123
100
AcDbTrace
 10
14632.03149402085
 20
-1841.767595617549
 30
0.0
 11
14632.03149402085
 21
-1842.600928950881
 31
0.0
 12
14634.53149402084
 22
-1842.184262284216
 32
0.0
 13
14634.53149402084
 23
-1842.184262284216
 33
0.0
  0
MTEXT
  5
373
330
36D
100
AcDbEntity
  8
0
 62
     3
100
AcDbMText
 10
14603.53149402085
 20
-1839.684262284216
 30
0.0
 40
3.0
 41
0.0
 71
     5
 72
     1
  1
\A1;62
1001
ACAD
1000
MTEXTBEGIN
1070
    73
1070
     1
1070
    44
1040
1.0
1070
    74
1070
     0
1000
MTEXTEND
  0
POINT
  5
374
330
36D
100
AcDbEntity
  8
DEFPOINTS
 62
     0
100
AcDbPoint
 10
14572.53149402085
 20
-1889.476235995671
 30
0.0
  0
POINT
  5
375
330
36D
100
AcDbEntity
  8
DEFPOINTS
 62
     0
100
AcDbPoint
 10
14634.53149402084
 20
-1889.476235995671
 30
0.0
  0
POINT
  5
376
330
36D
100
AcDbEntity
  8
DEFPOINTS
 62
     0
100
AcDbPoint
 10
14634.53149402084
 20
-1842.184262284216
 30
0.0
  0
ENDBLK
  5
378
330
36D
100
AcDbEntity
  8
0
100
AcDbBlockEnd
  0
BLOCK
  5
39A
330
390
100
AcDbEntity
  8
0
100
AcDbBlockBegin
  2
*D27
 70
     1
 10
0.0
 20
0.0
 30
0.0
  3
*D27
  1

  0
LINE
  5
391
330
390
100
AcDbEntity
  8
0
 62
   123
100
AcDbLine
 10
166.4925193393992
 20
82.83680455448076
 30
0.0
 11
124.3621420751991
 21
82.83680455448076
 31
0.0
  0
LINE
  5
392
330
390
100
AcDbEntity
  8
0
 62
   123
100
AcDbLine
 10
166.4925193393992
 20
18.83680455448075
 30
0.0
 11
124.3621420751991
 21
18.83680455448076
 31
0.0
  0
LINE
  5
393
330
390
100
AcDbEntity
  8
0
 62
   123
100
AcDbLine
 10
124.9621420751991
 20
80.33680455448076
 30
0.0
 11
124.9621420751991
 21
21.33680455448076
 31
0.0
  0
SOLID
  5
394
330
390
100
AcDbEntity
  8
0
 62
   123
100
AcDbTrace
 10
124.5454754085324
 20
80.33680455448076
 30
0.0
 11
125.3788087418658
 21
80.33680455448076
 31
0.0
 12
124.9621420751991
 22
82.83680455448076
 32
0.0
 13
124.9621420751991
 23
82.83680455448076
 33
0.0
  0
SOLID
  5
395
330
390
100
AcDbEntity
  8
0
 62
   123
100
AcDbTrace
 10
124.5454754085324
 20
21.33680455448076
 30
0.0
 11
125.3788087418658
 21
21.33680455448076
 31
0.0
 12
124.9621420751991
 22
18.83680455448076
 32
0.0
 13
124.9621420751991
 23
18.83680455448076
 33
0.0
  0
MTEXT
  5
396
330
390
100
AcDbEntity
  8
0
 62
     3
100
AcDbMText
 10
121.0119920751991
 20
50.83680455448166
 30
0.0
 40
3.0
 41
0.0
 71
     5
 72
     1
  1
\A1;\A1;%%C{\f??|b0|i0|c0|p49;64\H0.7x;\S+0^ -0.030;\H1.429x;(h7)} 
 11
0.0000000000000001
 21
1.0
 31
0.0
1001
ACAD
1000
MTEXTBEGIN
1070
    73
1070
     1
1070
    44
1040
1.0
1070
    74
1070
     0
1000
MTEXTEND
  0
POINT
  5
397
330
390
100
AcDbEntity
  8
DEFPOINTS
 62
     0
100
AcDbPoint
 10
167.4925193393992
 20
82.83680455448076
 30
0.0
  0
POINT
  5
398
330
390
100
AcDbEntity
  8
DEFPOINTS
 62
     0
100
AcDbPoint
 10
167.4925193393992
 20
18.83680455448075
 30
0.0
  0
POINT
  5
399
330
390
100
AcDbEntity
  8
DEFPOINTS
 62
     0
100
AcDbPoint
 10
124.9621420751991
 20
18.83680455448076
 30
0.0
  0
ENDBLK
  5
39B
330
390
100
AcDbEntity
  8
0
100
AcDbBlockEnd
  0
BLOCK
  5
3A5
330
39C
100
AcDbEntity
  8
0
100
AcDbBlockBegin
  2
*D28
 70
     1
 10
0.0
 20
0.0
 30
0.0
  3
*D28
  1

  0
LINE
  5
39D
330
39C
100
AcDbEntity
  8
0
 62
   123
100
AcDbLine
 10
-0.7776793895775321
 20
26.09397412834883
 30
0.0
 11
-2.833867860242872
 21
24.67197237972018
 31
0.0
  0
LINE
  5
39E
330
39C
100
AcDbEntity
  8
0
 62
   123
100
AcDbLine
 10
70.77767938958299
 20
75.57963498063043
 30
0.0
 11
102.4076732194551
 21
97.4540434684077
 31
0.0
  0
LINE
  5
39F
330
39C
100
AcDbEntity
  8
0
 62
   123
100
AcDbLine
 10
1.278509081087806
 20
27.51597587697748
 30
0.0
 11
68.72149091891765
 21
74.15763323200176
 31
0.0
  0
SOLID
  5
3A0
330
39C
100
AcDbEntity
  8
0
 62
   123
100
AcDbTrace
 10
-1.014679681015641
 20
26.43667220679305
 30
0.0
 11
-0.5406790981394228
 21
25.75127604990461
 31
0.0
 12
1.278509081087806
 22
27.51597587697748
 32
0.0
 13
1.278509081087806
 23
27.51597587697748
 33
0.0
  0
SOLID
  5
3A1
330
39C
100
AcDbEntity
  8
0
 62
   123
100
AcDbTrace
 10
70.54067909814489
 20
75.92233305907463
 30
0.0
 11
71.0146796810211
 21
75.23693690218618
 31
0.0
 12
68.72149091891765
 22
74.15763323200176
 32
0.0
 13
68.72149091891765
 23
74.15763323200176
 33
0.0
  0
MTEXT
  5
3A2
330
39C
100
AcDbEntity
  8
0
 62
     3
100
AcDbMText
 10
92.58467286210814
 20
93.70033908039022
 30
0.0
 40
3.0
 41
0.0
 71
     5
 72
     1
  1
\A1;\U+220582%%P0.5
 11
0.8224753882661357
 21
0.5688006994514594
 31
0.0
1001
ACAD
1000
MTEXTBEGIN
1070
    73
1070
     1
1070
    44
1040
1.0
1070
    74
1070
     0
1000
MTEXTEND
  0
POINT
  5
3A3
330
39C
100
AcDbEntity
  8
DEFPOINTS
 62
     0
100
AcDbPoint
 10
68.72149091891765
 20
74.15763323200176
 30
0.0
  0
POINT
  5
3A4
330
39C
100
AcDbEntity
  8
DEFPOINTS
 62
     0
100
AcDbPoint
 10
1.278509081087806
 20
27.51597587697748
 30
0.0
  0
ENDBLK
  5
3A6
330
39C
100
AcDbEntity
  8
0
100
AcDbBlockEnd
  0
BLOCK
  5
3B1
330
3A7
100
AcDbEntity
  8
0
100
AcDbBlockBegin
  2
*D29
 70
     1
 10
0.0
 20
0.0
 30
0.0
  3
*D29
  1

  0
LINE
  5
3A8
330
3A7
100
AcDbEntity
  8
0
 62
   123
100
AcDbLine
 10
243.4925193393992
 20
85.33680455448076
 30
0.0
 11
266.7531890322767
 21
85.33680455448076
 31
0.0
  0
LINE
  5
3A9
330
3A7
100
AcDbEntity
  8
0
 62
   123
100
AcDbLine
 10
243.4925193393992
 20
16.33680455448075
 30
0.0
 11
266.7531890322767
 21
16.33680455448074
 31
0.0
  0
LINE
  5
3AA
330
3A7
100
AcDbEntity
  8
0
 62
   123
100
AcDbLine
 10
266.1531890322767
 20
82.83680455448076
 30
0.0
 11
266.1531890322767
 21
18.83680455448074
 31
0.0
  0
SOLID
  5
3AB
330
3A7
100
AcDbEntity
  8
0
 62
   123
100
AcDbTrace
 10
265.73652236561
 20
82.83680455448076
 30
0.0
 11
266.5698556989434
 21
82.83680455448076
 31
0.0
 12
266.1531890322767
 22
85.33680455448076
 32
0.0
 13
266.1531890322767
 23
85.33680455448076
 33
0.0
  0
SOLID
  5
3AC
330
3A7
100
AcDbEntity
  8
0
 62
   123
100
AcDbTrace
 10
265.73652236561
 20
18.83680455448074
 30
0.0
 11
266.5698556989434
 21
18.83680455448074
 31
0.0
 12
266.1531890322767
 22
16.33680455448074
 32
0.0
 13
266.1531890322767
 23
16.33680455448074
 33
0.0
  0
MTEXT
  5
3AD
330
3A7
100
AcDbEntity
  8
0
 62
     3
100
AcDbMText
 10
263.6531890322767
 20
48.68072356439189
 30
0.0
 40
3.0
 41
0.0
 71
     5
 72
     1
  1
\A1;%%C69
 11
0.0000000000000001
 21
1.0
 31
0.0
1001
ACAD
1000
MTEXTBEGIN
1070
    73
1070
     1
1070
    44
1040
1.0
1070
    74
1070
     0
1000
MTEXTEND
  0
POINT
  5
3AE
330
3A7
100
AcDbEntity
  8
DEFPOINTS
 62
     0
100
AcDbPoint
 10
242.4925193393992
 20
85.33680455448076
 30
0.0
  0
POINT
  5
3AF
330
3A7
100
AcDbEntity
  8
DEFPOINTS
 62
     0
100
AcDbPoint
 10
242.4925193393992
 20
16.33680455448075
 30
0.0
  0
POINT
  5
3B0
330
3A7
100
AcDbEntity
  8
DEFPOINTS
 62
     0
100
AcDbPoint
 10
266.1531890322767
 20
16.33680455448074
 30
0.0
  0
ENDBLK
  5
3B2
330
3A7
100
AcDbEntity
  8
0
100
AcDbBlockEnd
  0
BLOCK
  5
3BD
330
3B3
100
AcDbEntity
  8
0
100
AcDbBlockBegin
  2
*D30
 70
     1
 10
0.0
 20
0.0
 30
0.0
  3
*D30
  1

  0
LINE
  5
3B4
330
3B3
100
AcDbEntity
  8
0
 62
   123
100
AcDbLine
 10
-0.0000000000000001
 20
18.83680455448075
 30
0.0
 11
-0.0000000000000012
 21
-0.0000000000000924
 31
0.0
  0
LINE
  5
3B5
330
3B3
100
AcDbEntity
  8
0
 62
   123
100
AcDbLine
 10
70.0
 20
18.19804857953704
 30
0.0
 11
70.0
 21
-0.0000000000000924
 31
0.0
  0
LINE
  5
3B6
330
3B3
100
AcDbEntity
  8
0
 62
   123
100
AcDbLine
 10
2.499999999999998
 20
0.5999999999999091
 30
0.0
 11
67.5
 21
0.5999999999999091
 31
0.0
  0
SOLID
  5
3B7
330
3B3
100
AcDbEntity
  8
0
 62
   123
100
AcDbTrace
 10
2.499999999999998
 20
1.016666666666575
 30
0.0
 11
2.499999999999998
 21
0.1833333333332424
 31
0.0
 12
-0.0000000000000012
 22
0.5999999999999091
 32
0.0
 13
-0.0000000000000012
 23
0.5999999999999091
 33
0.0
  0
SOLID
  5
3B8
330
3B3
100
AcDbEntity
  8
0
 62
   123
100
AcDbTrace
 10
67.5
 20
1.016666666666575
 30
0.0
 11
67.5
 21
0.1833333333332424
 31
0.0
 12
70.0
 22
0.5999999999999091
 32
0.0
 13
70.0
 23
0.5999999999999091
 33
0.0
  0
MTEXT
  5
3B9
330
3B3
100
AcDbEntity
  8
0
 62
     3
100
AcDbMText
 10
35.21876060383692
 20
3.099999999999909
 30
0.0
 40
3.0
 41
0.0
 71
     5
 72
     1
  1
\A1;70
1001
ACAD
1000
MTEXTBEGIN
1070
    73
1070
     1
1070
    44
1040
1.0
1070
    74
1070
     0
1000
MTEXTEND
  0
POINT
  5
3BA
330
3B3
100
AcDbEntity
  8
DEFPOINTS
 62
     0
100
AcDbPoint
 10
0.0
 20
19.83680455448075
 30
0.0
  0
POINT
  5
3BB
330
3B3
100
AcDbEntity
  8
DEFPOINTS
 62
     0
100
AcDbPoint
 10
70.0
 20
19.19804857953704
 30
0.0
  0
POINT
  5
3BC
330
3B3
100
AcDbEntity
  8
DEFPOINTS
 62
     0
100
AcDbPoint
 10
70.0
 20
0.5999999999999091
 30
0.0
  0
ENDBLK
  5
3BE
330
3B3
100
AcDbEntity
  8
0
100
AcDbBlockEnd
  0
BLOCK
  5
3CB
330
3BF
100
AcDbEntity
  8
0
100
AcDbBlockBegin
  2
*D31
 70
     1
 10
0.0
 20
0.0
 30
0.0
  3
*D31
  1

  0
LINE
  5
3C0
330
3BF
100
AcDbEntity
  8
0
 62
   123
100
AcDbLine
 10
167.4925193393992
 20
17.83680455448075
 30
0.0
 11
167.4925193393992
 21
3.903395942426778
 31
0.0
  0
LINE
  5
3C1
330
3BF
100
AcDbEntity
  8
0
 62
   123
100
AcDbLine
 10
169.4925193393992
 20
14.83680455448075
 30
0.0
 11
169.4925193393992
 21
3.903395942426778
 31
0.0
  0
LINE
  5
3C2
330
3BF
100
AcDbEntity
  8
0
 62
   123
100
AcDbLine
 10
171.9925193393992
 20
4.503395942426777
 30
0.0
 11
174.4925193393992
 21
4.503395942426777
 31
0.0
  0
LINE
  5
3C3
330
3BF
100
AcDbEntity
  8
0
 62
   123
100
AcDbLine
 10
164.9925193393992
 20
4.503395942426777
 30
0.0
 11
156.4925193393992
 21
4.503395942426777
 31
0.0
  0
LINE
  5
3C4
330
3BF
100
AcDbEntity
  8
0
 62
   123
100
AcDbLine
 10
169.4925193393992
 20
4.503395942426777
 30
0.0
 11
167.4925193393992
 21
4.503395942426777
 31
0.0
  0
SOLID
  5
3C5
330
3BF
100
AcDbEntity
  8
0
 62
   123
100
AcDbTrace
 10
171.9925193393992
 20
4.920062609093444
 30
0.0
 11
171.9925193393992
 21
4.08672927576011
 31
0.0
 12
169.4925193393992
 22
4.503395942426777
 32
0.0
 13
169.4925193393992
 23
4.503395942426777
 33
0.0
  0
SOLID
  5
3C6
330
3BF
100
AcDbEntity
  8
0
 62
   123
100
AcDbTrace
 10
164.9925193393992
 20
4.920062609093444
 30
0.0
 11
164.9925193393992
 21
4.08672927576011
 31
0.0
 12
167.4925193393992
 22
4.503395942426777
 32
0.0
 13
167.4925193393992
 23
4.503395942426777
 33
0.0
  0
MTEXT
  5
3C7
330
3BF
100
AcDbEntity
  8
0
 62
     3
100
AcDbMText
 10
158.4925193393992
 20
7.003395942426777
 30
0.0
 40
3.0
 41
0.0
 71
     5
 72
     1
  1
\A1;2
1001
ACAD
1000
MTEXTBEGIN
1070
    73
1070
     1
1070
    44
1040
1.0
1070
    74
1070
     0
1000
MTEXTEND
  0
POINT
  5
3C8
330
3BF
100
AcDbEntity
  8
DEFPOINTS
 62
     0
100
AcDbPoint
 10
167.4925193393992
 20
18.83680455448075
 30
0.0
  0
POINT
  5
3C9
330
3BF
100
AcDbEntity
  8
DEFPOINTS
 62
     0
100
AcDbPoint
 10
169.4925193393992
 20
15.83680455448075
 30
0.0
  0
POINT
  5
3CA
330
3BF
100
AcDbEntity
  8
DEFPOINTS
 62
     0
100
AcDbPoint
 10
169.4925193393992
 20
4.503395942426777
 30
0.0
  0
ENDBLK
  5
3CC
330
3BF
100
AcDbEntity
  8
0
100
AcDbBlockEnd
  0
BLOCK
  5
3D9
330
3CD
100
AcDbEntity
  8
0
100
AcDbBlockBegin
  2
*D32
 70
     1
 10
0.0
 20
0.0
 30
0.0
  3
*D32
  1

  0
LINE
  5
3CE
330
3CD
100
AcDbEntity
  8
0
 62
   123
100
AcDbLine
 10
144.9925193393992
 20
53.83669416902467
 30
0.0
 11
135.4153652870376
 21
53.83669416902467
 31
0.0
  0
LINE
  5
3CF
330
3CD
100
AcDbEntity
  8
0
 62
   123
100
AcDbLine
 10
144.9925193393992
 20
47.83691493993592
 30
0.0
 11
135.4153652870376
 21
47.83691493993592
 31
0.0
  0
LINE
  5
3D0
330
3CD
100
AcDbEntity
  8
0
 62
   123
100
AcDbLine
 10
136.0153652870376
 20
56.33669416902467
 30
0.0
 11
136.0153652870376
 21
58.83669416902467
 31
0.0
  0
LINE
  5
3D1
330
3CD
100
AcDbEntity
  8
0
 62
   123
100
AcDbLine
 10
136.0153652870376
 20
45.33691493993592
 30
0.0
 11
136.0153652870376
 21
42.83691493993592
 31
0.0
  0
LINE
  5
3D2
330
3CD
100
AcDbEntity
  8
0
 62
   123
100
AcDbLine
 10
136.0153652870376
 20
53.83669416902467
 30
0.0
 11
136.0153652870376
 21
47.83691493993592
 31
0.0
  0
SOLID
  5
3D3
330
3CD
100
AcDbEntity
  8
0
 62
   123
100
AcDbTrace
 10
135.5986986203709
 20
56.33669416902467
 30
0.0
 11
136.4320319537043
 21
56.33669416902467
 31
0.0
 12
136.0153652870376
 22
53.83669416902467
 32
0.0
 13
136.0153652870376
 23
53.83669416902467
 33
0.0
  0
SOLID
  5
3D4
330
3CD
100
AcDbEntity
  8
0
 62
   123
100
AcDbTrace
 10
135.5986986203709
 20
45.33691493993592
 30
0.0
 11
136.4320319537043
 21
45.33691493993592
 31
0.0
 12
136.0153652870376
 22
47.83691493993592
 32
0.0
 13
136.0153652870376
 23
47.83691493993592
 33
0.0
  0
MTEXT
  5
3D5
330
3CD
100
AcDbEntity
  8
0
 62
     3
100
AcDbMText
 10
132.0652152870376
 20
50.83680455448032
 30
0.0
 40
3.0
 41
0.0
 71
     5
 72
     1
  1
\A1;\A1;%%c6{\H0.7x;\S+0^ -0.012;\f??|b0|i0|c0|p49;\H1.429x;(h7)}  
 11
0.0000000000000001
 21
1.0
 31
0.0
1001
ACAD
1000
MTEXTBEGIN
1070
    73
1070
     1
1070
    44
1040
1.0
1070
    74
1070
     0
1000
MTEXTEND
  0
POINT
  5
3D6
330
3CD
100
AcDbEntity
  8
DEFPOINTS
 62
     0
100
AcDbPoint
 10
145.9925193393992
 20
53.83669416902467
 30
0.0
  0
POINT
  5
3D7
330
3CD
100
AcDbEntity
  8
DEFPOINTS
 62
     0
100
AcDbPoint
 10
145.9925193393992
 20
47.83691493993592
 30
0.0
  0
POINT
  5
3D8
330
3CD
100
AcDbEntity
  8
DEFPOINTS
 62
     0
100
AcDbPoint
 10
136.0153652870376
 20
47.83691493993592
 30
0.0
  0
ENDBLK
  5
3DA
330
3CD
100
AcDbEntity
  8
0
100
AcDbBlockEnd
  0
BLOCK
  5
3E5
330
3DB
100
AcDbEntity
  8
0
100
AcDbBlockBegin
  2
*D33
 70
     1
 10
0.0
 20
0.0
 30
0.0
  3
*D33
  1

  0
LINE
  5
3DC
330
3DB
100
AcDbEntity
  8
0
 62
   123
100
AcDbLine
 10
145.4925193393992
 20
47.33691493993683
 30
0.0
 11
145.4925193393992
 21
-6.577654450455248
 31
0.0
  0
LINE
  5
3DD
330
3DB
100
AcDbEntity
  8
0
 62
   123
100
AcDbLine
 10
169.4925193393992
 20
14.83680455448075
 30
0.0
 11
169.4925193393992
 21
-6.577654450455248
 31
0.0
  0
LINE
  5
3DE
330
3DB
100
AcDbEntity
  8
0
 62
   123
100
AcDbLine
 10
147.9925193393992
 20
-5.977654450455247
 30
0.0
 11
166.9925193393992
 21
-5.977654450455247
 31
0.0
  0
SOLID
  5
3DF
330
3DB
100
AcDbEntity
  8
0
 62
   123
100
AcDbTrace
 10
147.9925193393992
 20
-5.56098778378858
 30
0.0
 11
147.9925193393992
 21
-6.394321117121914
 31
0.0
 12
145.4925193393992
 22
-5.977654450455247
 32
0.0
 13
145.4925193393992
 23
-5.977654450455247
 33
0.0
  0
SOLID
  5
3E0
330
3DB
100
AcDbEntity
  8
0
 62
   123
100
AcDbTrace
 10
166.9925193393992
 20
-5.56098778378858
 30
0.0
 11
166.9925193393992
 21
-6.394321117121914
 31
0.0
 12
169.4925193393992
 22
-5.977654450455247
 32
0.0
 13
169.4925193393992
 23
-5.977654450455247
 33
0.0
  0
MTEXT
  5
3E1
330
3DB
100
AcDbEntity
  8
0
 62
     3
100
AcDbMText
 10
157.7399973481278
 20
-3.477654450455247
 30
0.0
 40
3.0
 41
0.0
 71
     5
 72
     1
  1
\A1;24
1001
ACAD
1000
MTEXTBEGIN
1070
    73
1070
     1
1070
    44
1040
1.0
1070
    74
1070
     0
1000
MTEXTEND
  0
POINT
  5
3E2
330
3DB
100
AcDbEntity
  8
DEFPOINTS
 62
     0
100
AcDbPoint
 10
145.4925193393992
 20
48.33691493993683
 30
0.0
  0
POINT
  5
3E3
330
3DB
100
AcDbEntity
  8
DEFPOINTS
 62
     0
100
AcDbPoint
 10
169.4925193393992
 20
15.83680455448075
 30
0.0
  0
POINT
  5
3E4
330
3DB
100
AcDbEntity
  8
DEFPOINTS
 62
     0
100
AcDbPoint
 10
169.4925193393992
 20
-5.977654450455247
 30
0.0
  0
ENDBLK
  5
3E6
330
3DB
100
AcDbEntity
  8
0
100
AcDbBlockEnd
  0
BLOCK
  5
3F1
330
3E7
100
AcDbEntity
  8
0
100
AcDbBlockBegin
  2
*D34
 70
     1
 10
0.0
 20
0.0
 30
0.0
  3
*D34
  1

  0
LINE
  5
3E8
330
3E7
100
AcDbEntity
  8
0
 62
   123
100
AcDbLine
 10
249.4925193393992
 20
17.83680455448075
 30
0.0
 11
249.4925193393992
 21
-6.577654450455248
 31
0.0
  0
LINE
  5
3E9
330
3E7
100
AcDbEntity
  8
0
 62
   123
100
AcDbLine
 10
169.4925193393992
 20
14.83680455448075
 30
0.0
 11
169.4925193393992
 21
-6.577654450455248
 31
0.0
  0
LINE
  5
3EA
330
3E7
100
AcDbEntity
  8
0
 62
   123
100
AcDbLine
 10
246.9925193393992
 20
-5.977654450455247
 30
0.0
 11
171.9925193393992
 21
-5.977654450455247
 31
0.0
  0
SOLID
  5
3EB
330
3E7
100
AcDbEntity
  8
0
 62
   123
100
AcDbTrace
 10
246.9925193393992
 20
-5.56098778378858
 30
0.0
 11
246.9925193393992
 21
-6.394321117121914
 31
0.0
 12
249.4925193393992
 22
-5.977654450455247
 32
0.0
 13
249.4925193393992
 23
-5.977654450455247
 33
0.0
  0
SOLID
  5
3EC
330
3E7
100
AcDbEntity
  8
0
 62
   123
100
AcDbTrace
 10
171.9925193393992
 20
-5.56098778378858
 30
0.0
 11
171.9925193393992
 21
-6.394321117121914
 31
0.0
 12
169.4925193393992
 22
-5.977654450455247
 32
0.0
 13
169.4925193393992
 23
-5.977654450455247
 33
0.0
  0
MTEXT
  5
3ED
330
3E7
100
AcDbEntity
  8
0
 62
     3
100
AcDbMText
 10
208.5015011734376
 20
-3.477654450455247
 30
0.0
 40
3.0
 41
0.0
 71
     5
 72
     1
  1
\A1;80
1001
ACAD
1000
MTEXTBEGIN
1070
    73
1070
     1
1070
    44
1040
1.0
1070
    74
1070
     0
1000
MTEXTEND
  0
POINT
  5
3EE
330
3E7
100
AcDbEntity
  8
DEFPOINTS
 62
     0
100
AcDbPoint
 10
249.4925193393992
 20
18.83680455448075
 30
0.0
  0
POINT
  5
3EF
330
3E7
100
AcDbEntity
  8
DEFPOINTS
 62
     0
100
AcDbPoint
 10
169.4925193393992
 20
15.83680455448075
 30
0.0
  0
POINT
  5
3F0
330
3E7
100
AcDbEntity
  8
DEFPOINTS
 62
     0
100
AcDbPoint
 10
169.4925193393992
 20
-5.977654450455247
 30
0.0
  0
ENDBLK
  5
3F2
330
3E7
100
AcDbEntity
  8
0
100
AcDbBlockEnd
  0
BLOCK
  5
3FD
330
3F3
100
AcDbEntity
  8
0
100
AcDbBlockBegin
  2
*D35
 70
     1
 10
0.0
 20
0.0
 30
0.0
  3
*D35
  1

  0
LINE
  5
3F4
330
3F3
100
AcDbEntity
  8
0
 62
   123
100
AcDbLine
 10
169.4925193393992
 20
14.83680455448075
 30
0.0
 11
169.4925193393992
 21
3.903395942426778
 31
0.0
  0
LINE
  5
3F5
330
3F3
100
AcDbEntity
  8
0
 62
   123
100
AcDbLine
 10
176.4925193393992
 20
16.23806721295113
 30
0.0
 11
176.4925193393992
 21
3.903395942426778
 31
0.0
  0
LINE
  5
3F6
330
3F3
100
AcDbEntity
  8
0
 62
   123
100
AcDbLine
 10
171.9925193393992
 20
4.503395942426777
 30
0.0
 11
173.9925193393992
 21
4.503395942426777
 31
0.0
  0
SOLID
  5
3F7
330
3F3
100
AcDbEntity
  8
0
 62
   123
100
AcDbTrace
 10
171.9925193393992
 20
4.920062609093444
 30
0.0
 11
171.9925193393992
 21
4.08672927576011
 31
0.0
 12
169.4925193393992
 22
4.503395942426777
 32
0.0
 13
169.4925193393992
 23
4.503395942426777
 33
0.0
  0
SOLID
  5
3F8
330
3F3
100
AcDbEntity
  8
0
 62
   123
100
AcDbTrace
 10
173.9925193393992
 20
4.920062609093444
 30
0.0
 11
173.9925193393992
 21
4.08672927576011
 31
0.0
 12
176.4925193393992
 22
4.503395942426777
 32
0.0
 13
176.4925193393992
 23
4.503395942426777
 33
0.0
  0
MTEXT
  5
3F9
330
3F3
100
AcDbEntity
  8
0
 62
     3
100
AcDbMText
 10
172.9925193393992
 20
7.003395942426777
 30
0.0
 40
3.0
 41
0.0
 71
     5
 72
     1
  1
\A1;7
1001
ACAD
1000
MTEXTBEGIN
1070
    73
1070
     1
1070
    44
1040
1.0
1070
    74
1070
     0
1000
MTEXTEND
  0
POINT
  5
3FA
330
3F3
100
AcDbEntity
  8
DEFPOINTS
 62
     0
100
AcDbPoint
 10
169.4925193393992
 20
15.83680455448075
 30
0.0
  0
POINT
  5
3FB
330
3F3
100
AcDbEntity
  8
DEFPOINTS
 62
     0
100
AcDbPoint
 10
176.4925193393992
 20
17.23806721295113
 30
0.0
  0
POINT
  5
3FC
330
3F3
100
AcDbEntity
  8
DEFPOINTS
 62
     0
100
AcDbPoint
 10
176.4925193393992
 20
4.503395942426777
 30
0.0
  0
ENDBLK
  5
3FE
330
3F3
100
AcDbEntity
  8
0
100
AcDbBlockEnd
  0
BLOCK
  5
409
330
3FF
100
AcDbEntity
  8
0
100
AcDbBlockBegin
  2
*D36
 70
     1
 10
0.0
 20
0.0
 30
0.0
  3
*D36
  1

  0
LINE
  5
400
330
3FF
100
AcDbEntity
  8
0
 62
   123
100
AcDbLine
 10
249.9891863393986
 20
126.8368035544829
 30
0.0
 11
249.9891863393986
 21
141.4758370386549
 31
0.0
  0
LINE
  5
401
330
3FF
100
AcDbEntity
  8
0
 62
   123
100
AcDbLine
 10
277.9891863393986
 20
118.8368035544831
 30
0.0
 11
277.9891863393986
 21
141.4758370386549
 31
0.0
  0
LINE
  5
402
330
3FF
100
AcDbEntity
  8
0
 62
   123
100
AcDbLine
 10
252.4891863393986
 20
140.8758370386549
 30
0.0
 11
275.4891863393986
 21
140.8758370386549
 31
0.0
  0
SOLID
  5
403
330
3FF
100
AcDbEntity
  8
0
 62
   123
100
AcDbTrace
 10
252.4891863393986
 20
141.2925037053216
 30
0.0
 11
252.4891863393986
 21
140.4591703719882
 31
0.0
 12
249.9891863393986
 22
140.8758370386549
 32
0.0
 13
249.9891863393986
 23
140.8758370386549
 33
0.0
  0
SOLID
  5
404
330
3FF
100
AcDbEntity
  8
0
 62
   123
100
AcDbTrace
 10
275.4891863393986
 20
141.2925037053216
 30
0.0
 11
275.4891863393986
 21
140.4591703719882
 31
0.0
 12
277.9891863393986
 22
140.8758370386549
 32
0.0
 13
277.9891863393986
 23
140.8758370386549
 33
0.0
  0
MTEXT
  5
405
330
3FF
100
AcDbEntity
  8
0
 62
     3
100
AcDbMText
 10
263.9891863393986
 20
143.3758370386549
 30
0.0
 40
3.0
 41
0.0
 71
     5
 72
     1
  1
\A1;MAX. 28
1001
ACAD
1000
MTEXTBEGIN
1070
    73
1070
     1
1070
    44
1040
1.0
1070
    74
1070
     0
1000
MTEXTEND
  0
POINT
  5
406
330
3FF
100
AcDbEntity
  8
DEFPOINTS
 62
     0
100
AcDbPoint
 10
249.9891863393986
 20
125.8368035544829
 30
0.0
  0
POINT
  5
407
330
3FF
100
AcDbEntity
  8
DEFPOINTS
 62
     0
100
AcDbPoint
 10
277.9891863393986
 20
117.8368035544831
 30
0.0
  0
POINT
  5
408
330
3FF
100
AcDbEntity
  8
DEFPOINTS
 62
     0
100
AcDbPoint
 10
277.9891863393986
 20
140.8758370386549
 30
0.0
  0
ENDBLK
  5
40A
330
3FF
100
AcDbEntity
  8
0
100
AcDbBlockEnd
  0
BLOCK
  5
414
330
40B
100
AcDbEntity
  8
0
100
AcDbBlockBegin
  2
*D37
 70
     1
 10
0.0
 20
0.0
 30
0.0
  3
*D37
  1

  0
LINE
  5
4DC
330
40B
100
AcDbEntity
  8
0
 62
   123
100
AcDbLine
 10
3.765030066746405
 20
209.9473465918981
 30
0.0
 11
1.70884159608093
 21
208.5253448432696
 31
0.0
  0
LINE
  5
4DD
330
40B
100
AcDbEntity
  8
0
 62
   123
100
AcDbLine
 10
75.32038884589771
 20
259.4330074441628
 30
0.0
 11
106.9503826757842
 21
281.3074159319453
 31
0.0
  0
LINE
  5
4DE
330
40B
100
AcDbEntity
  8
0
 62
   123
100
AcDbLine
 10
5.82121853741188
 20
211.3693483405266
 30
0.0
 11
73.2642003752322
 21
258.0110056955344
 31
0.0
  0
SOLID
  5
4DF
330
40B
100
AcDbEntity
  8
0
 62
   123
100
AcDbTrace
 10
3.52802977530834
 20
210.2900446703424
 30
0.0
 11
4.00203035818447
 21
209.6046485134539
 31
0.0
 12
5.82121853741188
 22
211.3693483405266
 32
0.0
 13
5.82121853741188
 23
211.3693483405266
 33
0.0
  0
SOLID
  5
4E0
330
40B
100
AcDbEntity
  8
0
 62
   123
100
AcDbTrace
 10
75.08338855445963
 20
259.7757055226071
 30
0.0
 11
75.55738913733576
 21
259.0903093657186
 31
0.0
 12
73.2642003752322
 22
258.0110056955344
 32
0.0
 13
73.2642003752322
 23
258.0110056955344
 33
0.0
  0
MTEXT
  5
4E1
330
40B
100
AcDbEntity
  8
0
 62
     3
100
AcDbMText
 10
97.1273823184368
 20
277.553711543929
 30
0.0
 40
3.0
 41
0.0
 71
     5
 72
     1
  1
\A1;\U+220582%%P0.5
 11
0.8224753882661921
 21
0.5688006994513776
 31
0.0
1001
ACAD
1000
MTEXTBEGIN
1070
    73
1070
     1
1070
    44
1040
1.0
1070
    74
1070
     0
1000
MTEXTEND
  0
POINT
  5
4E2
330
40B
100
AcDbEntity
  8
DEFPOINTS
 62
     0
100
AcDbPoint
 10
73.2642003752322
 20
258.0110056955344
 30
0.0
  0
POINT
  5
4E3
330
40B
100
AcDbEntity
  8
DEFPOINTS
 62
     0
100
AcDbPoint
 10
5.82121853741188
 20
211.3693483405266
 30
0.0
  0
ENDBLK
  5
415
330
40B
100
AcDbEntity
  8
0
100
AcDbBlockEnd
  0
BLOCK
  5
420
330
416
100
AcDbEntity
  8
0
100
AcDbBlockBegin
  2
*D38
 70
     1
 10
0.0
 20
0.0
 30
0.0
  3
*D38
  1

  0
LINE
  5
417
330
416
100
AcDbEntity
  8
0
 62
   123
100
AcDbLine
 10
149.2053722174096
 20
266.6901770180209
 30
0.0
 11
124.7479186403874
 21
266.6901770180209
 31
0.0
  0
LINE
  5
418
330
416
100
AcDbEntity
  8
0
 62
   123
100
AcDbLine
 10
149.2053722174096
 20
202.6901770180209
 30
0.0
 11
124.7479186403874
 21
202.6901770180209
 31
0.0
  0
LINE
  5
419
330
416
100
AcDbEntity
  8
0
 62
   123
100
AcDbLine
 10
125.3479186403874
 20
264.1901770180209
 30
0.0
 11
125.3479186403874
 21
205.1901770180208
 31
0.0
  0
SOLID
  5
41A
330
416
100
AcDbEntity
  8
0
 62
   123
100
AcDbTrace
 10
124.9312519737208
 20
264.1901770180209
 30
0.0
 11
125.7645853070541
 21
264.1901770180209
 31
0.0
 12
125.3479186403874
 22
266.6901770180209
 32
0.0
 13
125.3479186403874
 23
266.6901770180209
 33
0.0
  0
SOLID
  5
41B
330
416
100
AcDbEntity
  8
0
 62
   123
100
AcDbTrace
 10
124.9312519737207
 20
205.1901770180208
 30
0.0
 11
125.7645853070541
 21
205.1901770180208
 31
0.0
 12
125.3479186403874
 22
202.6901770180209
 32
0.0
 13
125.3479186403874
 23
202.6901770180209
 33
0.0
  0
MTEXT
  5
41C
330
416
100
AcDbEntity
  8
0
 62
     3
100
AcDbMText
 10
121.3977686403874
 20
234.6901770180209
 30
0.0
 40
3.0
 41
0.0
 71
     5
 72
     1
  1
\A1;\A1;%%C{\f??|b0|i0|c0|p49;64\H0.7x;\S+0^ -0.030;\H1.429x;(h7)} 
 11
0.0000000000000001
 21
1.0
 31
0.0
1001
ACAD
1000
MTEXTBEGIN
1070
    73
1070
     1
1070
    44
1040
1.0
1070
    74
1070
     0
1000
MTEXTEND
  0
POINT
  5
41D
330
416
100
AcDbEntity
  8
DEFPOINTS
 62
     0
100
AcDbPoint
 10
150.2053722174096
 20
266.6901770180209
 30
0.0
  0
POINT
  5
41E
330
416
100
AcDbEntity
  8
DEFPOINTS
 62
     0
100
AcDbPoint
 10
150.2053722174096
 20
202.6901770180209
 30
0.0
  0
POINT
  5
41F
330
416
100
AcDbEntity
  8
DEFPOINTS
 62
     0
100
AcDbPoint
 10
125.3479186403874
 20
202.6901770180209
 30
0.0
  0
ENDBLK
  5
421
330
416
100
AcDbEntity
  8
0
100
AcDbBlockEnd
  0
BLOCK
  5
42C
330
422
100
AcDbEntity
  8
0
100
AcDbBlockBegin
  2
*D39
 70
     1
 10
0.0
 20
0.0
 30
0.0
  3
*D39
  1

  0
LINE
  5
423
330
422
100
AcDbEntity
  8
0
 62
   123
100
AcDbLine
 10
226.2053722174095
 20
269.1901770180209
 30
0.0
 11
249.4660419102871
 21
269.1901770180209
 31
0.0
  0
LINE
  5
424
330
422
100
AcDbEntity
  8
0
 62
   123
100
AcDbLine
 10
226.2053722174095
 20
200.1901770180209
 30
0.0
 11
249.4660419102871
 21
200.1901770180209
 31
0.0
  0
LINE
  5
425
330
422
100
AcDbEntity
  8
0
 62
   123
100
AcDbLine
 10
248.8660419102871
 20
266.6901770180209
 30
0.0
 11
248.8660419102871
 21
202.6901770180209
 31
0.0
  0
SOLID
  5
426
330
422
100
AcDbEntity
  8
0
 62
   123
100
AcDbTrace
 10
248.4493752436204
 20
266.6901770180209
 30
0.0
 11
249.2827085769537
 21
266.6901770180209
 31
0.0
 12
248.8660419102871
 22
269.1901770180209
 32
0.0
 13
248.8660419102871
 23
269.1901770180209
 33
0.0
  0
SOLID
  5
427
330
422
100
AcDbEntity
  8
0
 62
   123
100
AcDbTrace
 10
248.4493752436204
 20
202.6901770180209
 30
0.0
 11
249.2827085769537
 21
202.6901770180209
 31
0.0
 12
248.8660419102871
 22
200.1901770180209
 32
0.0
 13
248.8660419102871
 23
200.1901770180209
 33
0.0
  0
MTEXT
  5
428
330
422
100
AcDbEntity
  8
0
 62
     3
100
AcDbMText
 10
246.3660419102871
 20
232.5340960279318
 30
0.0
 40
3.0
 41
0.0
 71
     5
 72
     1
  1
\A1;%%C69
 11
0.0000000000000001
 21
1.0
 31
0.0
1001
ACAD
1000
MTEXTBEGIN
1070
    73
1070
     1
1070
    44
1040
1.0
1070
    74
1070
     0
1000
MTEXTEND
  0
POINT
  5
429
330
422
100
AcDbEntity
  8
DEFPOINTS
 62
     0
100
AcDbPoint
 10
225.2053722174096
 20
269.1901770180209
 30
0.0
  0
POINT
  5
42A
330
422
100
AcDbEntity
  8
DEFPOINTS
 62
     0
100
AcDbPoint
 10
225.2053722174096
 20
200.1901770180209
 30
0.0
  0
POINT
  5
42B
330
422
100
AcDbEntity
  8
DEFPOINTS
 62
     0
100
AcDbPoint
 10
248.8660419102871
 20
200.1901770180209
 30
0.0
  0
ENDBLK
  5
42D
330
422
100
AcDbEntity
  8
0
100
AcDbBlockEnd
  0
BLOCK
  5
438
330
42E
100
AcDbEntity
  8
0
100
AcDbBlockBegin
  2
*D40
 70
     1
 10
0.0
 20
0.0
 30
0.0
  3
*D40
  1

  0
LINE
  5
42F
330
42E
100
AcDbEntity
  8
0
 62
   123
100
AcDbLine
 10
4.542709456318334
 20
202.6901770180209
 30
0.0
 11
4.542709456318333
 21
183.8533724635398
 31
0.0
  0
LINE
  5
430
330
42E
100
AcDbEntity
  8
0
 62
   123
100
AcDbLine
 10
74.54270945631833
 20
202.0514210430778
 30
0.0
 11
74.54270945631833
 21
183.8533724635398
 31
0.0
  0
LINE
  5
431
330
42E
100
AcDbEntity
  8
0
 62
   123
100
AcDbLine
 10
7.042709456318333
 20
184.4533724635398
 30
0.0
 11
72.04270945631833
 21
184.4533724635398
 31
0.0
  0
SOLID
  5
432
330
42E
100
AcDbEntity
  8
0
 62
   123
100
AcDbTrace
 10
7.042709456318333
 20
184.8700391302065
 30
0.0
 11
7.042709456318333
 21
184.0367057968731
 31
0.0
 12
4.542709456318333
 22
184.4533724635398
 32
0.0
 13
4.542709456318333
 23
184.4533724635398
 33
0.0
  0
SOLID
  5
433
330
42E
100
AcDbEntity
  8
0
 62
   123
100
AcDbTrace
 10
72.04270945631833
 20
184.8700391302065
 30
0.0
 11
72.04270945631833
 21
184.0367057968731
 31
0.0
 12
74.54270945631833
 22
184.4533724635398
 32
0.0
 13
74.54270945631833
 23
184.4533724635398
 33
0.0
  0
MTEXT
  5
434
330
42E
100
AcDbEntity
  8
0
 62
     3
100
AcDbMText
 10
39.76147006014798
 20
186.9533724635398
 30
0.0
 40
3.0
 41
0.0
 71
     5
 72
     1
  1
\A1;70
1001
ACAD
1000
MTEXTBEGIN
1070
    73
1070
     1
1070
    44
1040
1.0
1070
    74
1070
     0
1000
MTEXTEND
  0
POINT
  5
435
330
42E
100
AcDbEntity
  8
DEFPOINTS
 62
     0
100
AcDbPoint
 10
4.542709456318334
 20
203.6901770180209
 30
0.0
  0
POINT
  5
436
330
42E
100
AcDbEntity
  8
DEFPOINTS
 62
     0
100
AcDbPoint
 10
74.54270945631833
 20
203.0514210430778
 30
0.0
  0
POINT
  5
437
330
42E
100
AcDbEntity
  8
DEFPOINTS
 62
     0
100
AcDbPoint
 10
74.54270945631833
 20
184.4533724635398
 30
0.0
  0
ENDBLK
  5
439
330
42E
100
AcDbEntity
  8
0
100
AcDbBlockEnd
  0
BLOCK
  5
444
330
43A
100
AcDbEntity
  8
0
100
AcDbBlockBegin
  2
*D41
 70
     1
 10
0.0
 20
0.0
 30
0.0
  3
*D41
  1

  0
LINE
  5
43B
330
43A
100
AcDbEntity
  8
0
 62
   123
100
AcDbLine
 10
4.0
 20
94.83680455448075
 30
0.0
 11
4.000000000000002
 21
141.7287782659357
 31
0.0
  0
LINE
  5
43C
330
43A
100
AcDbEntity
  8
0
 62
   123
100
AcDbLine
 10
66.0
 20
94.83680455448075
 30
0.0
 11
66.0
 21
141.7287782659357
 31
0.0
  0
LINE
  5
43D
330
43A
100
AcDbEntity
  8
0
 62
   123
100
AcDbLine
 10
6.500000000000002
 20
141.1287782659358
 30
0.0
 11
63.5
 21
141.1287782659358
 31
0.0
  0
SOLID
  5
43E
330
43A
100
AcDbEntity
  8
0
 62
   123
100
AcDbTrace
 10
6.500000000000002
 20
141.5454449326024
 30
0.0
 11
6.500000000000002
 21
140.7121115992691
 31
0.0
 12
4.000000000000002
 22
141.1287782659358
 32
0.0
 13
4.000000000000002
 23
141.1287782659358
 33
0.0
  0
SOLID
  5
43F
330
43A
100
AcDbEntity
  8
0
 62
   123
100
AcDbTrace
 10
63.5
 20
141.5454449326024
 30
0.0
 11
63.5
 21
140.7121115992691
 31
0.0
 12
66.0
 22
141.1287782659358
 32
0.0
 13
66.0
 23
141.1287782659358
 33
0.0
  0
MTEXT
  5
440
330
43A
100
AcDbEntity
  8
0
 62
     3
100
AcDbMText
 10
35.0
 20
143.6287782659358
 30
0.0
 40
3.0
 41
0.0
 71
     5
 72
     1
  1
\A1;62
1001
ACAD
1000
MTEXTBEGIN
1070
    73
1070
     1
1070
    44
1040
1.0
1070
    74
1070
     0
1000
MTEXTEND
  0
POINT
  5
441
330
43A
100
AcDbEntity
  8
DEFPOINTS
 62
     0
100
AcDbPoint
 10
4.0
 20
93.83680455448075
 30
0.0
  0
POINT
  5
442
330
43A
100
AcDbEntity
  8
DEFPOINTS
 62
     0
100
AcDbPoint
 10
66.0
 20
93.83680455448075
 30
0.0
  0
POINT
  5
443
330
43A
100
AcDbEntity
  8
DEFPOINTS
 62
     0
100
AcDbPoint
 10
66.0
 20
141.1287782659358
 30
0.0
  0
ENDBLK
  5
445
330
43A
100
AcDbEntity
  8
0
100
AcDbBlockEnd
  0
BLOCK
  5
450
330
446
100
AcDbEntity
  8
0
100
AcDbBlockBegin
  2
*D42
 70
     1
 10
0.0
 20
0.0
 30
0.0
  3
*D42
  1

  0
LINE
  5
447
330
446
100
AcDbEntity
  8
0
 62
   123
100
AcDbLine
 10
66.0
 20
85.83680455448075
 30
0.0
 11
82.91934607125005
 21
85.83680455448075
 31
0.0
  0
LINE
  5
448
330
446
100
AcDbEntity
  8
0
 62
   123
100
AcDbLine
 10
64.52830600000016
 20
128.8368045544789
 30
0.0
 11
82.91934607125005
 21
128.8368045544789
 31
0.0
  0
LINE
  5
449
330
446
100
AcDbEntity
  8
0
 62
   123
100
AcDbLine
 10
82.31934607125005
 20
88.33680455448075
 30
0.0
 11
82.31934607125007
 21
126.3368045544789
 31
0.0
  0
SOLID
  5
44A
330
446
100
AcDbEntity
  8
0
 62
   123
100
AcDbTrace
 10
81.90267940458339
 20
88.33680455448075
 30
0.0
 11
82.73601273791673
 21
88.33680455448075
 31
0.0
 12
82.31934607125005
 22
85.83680455448075
 32
0.0
 13
82.31934607125005
 23
85.83680455448075
 33
0.0
  0
SOLID
  5
44B
330
446
100
AcDbEntity
  8
0
 62
   123
100
AcDbTrace
 10
81.90267940458339
 20
126.3368045544789
 30
0.0
 11
82.73601273791674
 21
126.3368045544789
 31
0.0
 12
82.31934607125007
 22
128.8368045544789
 32
0.0
 13
82.31934607125007
 23
128.8368045544789
 33
0.0
  0
MTEXT
  5
44C
330
446
100
AcDbEntity
  8
0
 62
     3
100
AcDbMText
 10
79.81934607125004
 20
108.9744341104315
 30
0.0
 40
3.0
 41
0.0
 71
     5
 72
     1
  1
\A1;43
 11
0.0000000000000001
 21
1.0
 31
0.0
1001
ACAD
1000
MTEXTBEGIN
1070
    73
1070
     1
1070
    44
1040
1.0
1070
    74
1070
     0
1000
MTEXTEND
  0
POINT
  5
44D
330
446
100
AcDbEntity
  8
DEFPOINTS
 62
     0
100
AcDbPoint
 10
65.0
 20
85.83680455448075
 30
0.0
  0
POINT
  5
44E
330
446
100
AcDbEntity
  8
DEFPOINTS
 62
     0
100
AcDbPoint
 10
63.52830600000015
 20
128.8368045544789
 30
0.0
  0
POINT
  5
44F
330
446
100
AcDbEntity
  8
DEFPOINTS
 62
     0
100
AcDbPoint
 10
82.31934607125007
 20
128.8368045544789
 30
0.0
  0
ENDBLK
  5
451
330
446
100
AcDbEntity
  8
0
100
AcDbBlockEnd
  0
BLOCK
  5
45C
330
452
100
AcDbEntity
  8
0
100
AcDbBlockBegin
  2
*D43
 70
     1
 10
0.0
 20
0.0
 30
0.0
  3
*D43
  1

  0
LINE
  5
453
330
452
100
AcDbEntity
  8
0
 62
   123
100
AcDbLine
 10
232.2053722174096
 20
201.6901770180209
 30
0.0
 11
232.2053722174096
 21
177.480934491722
 31
0.0
  0
LINE
  5
454
330
452
100
AcDbEntity
  8
0
 62
   123
100
AcDbLine
 10
152.2053722174096
 20
198.6901770180209
 30
0.0
 11
152.2053722174096
 21
177.480934491722
 31
0.0
  0
LINE
  5
455
330
452
100
AcDbEntity
  8
0
 62
   123
100
AcDbLine
 10
229.7053722174096
 20
178.080934491722
 30
0.0
 11
154.7053722174096
 21
178.080934491722
 31
0.0
  0
SOLID
  5
456
330
452
100
AcDbEntity
  8
0
 62
   123
100
AcDbTrace
 10
229.7053722174096
 20
178.4976011583886
 30
0.0
 11
229.7053722174096
 21
177.6642678250553
 31
0.0
 12
232.2053722174096
 22
178.080934491722
 32
0.0
 13
232.2053722174096
 23
178.080934491722
 33
0.0
  0
SOLID
  5
457
330
452
100
AcDbEntity
  8
0
 62
   123
100
AcDbTrace
 10
154.7053722174096
 20
178.4976011583886
 30
0.0
 11
154.7053722174096
 21
177.6642678250553
 31
0.0
 12
152.2053722174096
 22
178.080934491722
 32
0.0
 13
152.2053722174096
 23
178.080934491722
 33
0.0
  0
MTEXT
  5
458
330
452
100
AcDbEntity
  8
0
 62
     3
100
AcDbMText
 10
191.2143540514498
 20
180.580934491722
 30
0.0
 40
3.0
 41
0.0
 71
     5
 72
     1
  1
\A1;80
1001
ACAD
1000
MTEXTBEGIN
1070
    73
1070
     1
1070
    44
1040
1.0
1070
    74
1070
     0
1000
MTEXTEND
  0
POINT
  5
459
330
452
100
AcDbEntity
  8
DEFPOINTS
 62
     0
100
AcDbPoint
 10
232.2053722174096
 20
202.6901770180209
 30
0.0
  0
POINT
  5
45A
330
452
100
AcDbEntity
  8
DEFPOINTS
 62
     0
100
AcDbPoint
 10
152.2053722174096
 20
199.6901770180208
 30
0.0
  0
POINT
  5
45B
330
452
100
AcDbEntity
  8
DEFPOINTS
 62
     0
100
AcDbPoint
 10
152.2053722174096
 20
178.080934491722
 30
0.0
  0
ENDBLK
  5
45D
330
452
100
AcDbEntity
  8
0
100
AcDbBlockEnd
  0
BLOCK
  5
468
330
45E
100
AcDbEntity
  8
0
100
AcDbBlockBegin
  2
*D44
 70
     1
 10
0.0
 20
0.0
 30
0.0
  3
*D44
  1

  0
LINE
  5
45F
330
45E
100
AcDbEntity
  8
0
 62
   123
100
AcDbLine
 10
152.2053722174096
 20
198.6901770180209
 30
0.0
 11
152.2053722174096
 21
187.1311523417667
 31
0.0
  0
LINE
  5
460
330
45E
100
AcDbEntity
  8
0
 62
   123
100
AcDbLine
 10
159.2053722174096
 20
200.091439676491
 30
0.0
 11
159.2053722174096
 21
187.1311523417667
 31
0.0
  0
LINE
  5
461
330
45E
100
AcDbEntity
  8
0
 62
   123
100
AcDbLine
 10
154.7053722174096
 20
187.7311523417668
 30
0.0
 11
156.7053722174096
 21
187.7311523417668
 31
0.0
  0
SOLID
  5
462
330
45E
100
AcDbEntity
  8
0
 62
   123
100
AcDbTrace
 10
154.7053722174096
 20
188.1478190084334
 30
0.0
 11
154.7053722174096
 21
187.3144856751001
 31
0.0
 12
152.2053722174096
 22
187.7311523417668
 32
0.0
 13
152.2053722174096
 23
187.7311523417668
 33
0.0
  0
SOLID
  5
463
330
45E
100
AcDbEntity
  8
0
 62
   123
100
AcDbTrace
 10
156.7053722174096
 20
188.1478190084334
 30
0.0
 11
156.7053722174096
 21
187.3144856751001
 31
0.0
 12
159.2053722174096
 22
187.7311523417668
 32
0.0
 13
159.2053722174096
 23
187.7311523417668
 33
0.0
  0
MTEXT
  5
464
330
45E
100
AcDbEntity
  8
0
 62
     3
100
AcDbMText
 10
155.7053722174096
 20
190.2311523417667
 30
0.0
 40
3.0
 41
0.0
 71
     5
 72
     1
  1
\A1;7
1001
ACAD
1000
MTEXTBEGIN
1070
    73
1070
     1
1070
    44
1040
1.0
1070
    74
1070
     0
1000
MTEXTEND
  0
POINT
  5
465
330
45E
100
AcDbEntity
  8
DEFPOINTS
 62
     0
100
AcDbPoint
 10
152.2053722174096
 20
199.6901770180208
 30
0.0
  0
POINT
  5
466
330
45E
100
AcDbEntity
  8
DEFPOINTS
 62
     0
100
AcDbPoint
 10
159.2053722174096
 20
201.091439676491
 30
0.0
  0
POINT
  5
467
330
45E
100
AcDbEntity
  8
DEFPOINTS
 62
     0
100
AcDbPoint
 10
159.2053722174096
 20
187.7311523417668
 30
0.0
  0
ENDBLK
  5
469
330
45E
100
AcDbEntity
  8
0
100
AcDbBlockEnd
  0
BLOCK
  5
476
330
46A
100
AcDbEntity
  8
0
100
AcDbBlockBegin
  2
*D45
 70
     1
 10
0.0
 20
0.0
 30
0.0
  3
*D45
  1

  0
LINE
  5
46B
330
46A
100
AcDbEntity
  8
0
 62
   123
100
AcDbLine
 10
150.2053722174096
 20
201.6901770180209
 30
0.0
 11
150.2053722174096
 21
187.1311523417667
 31
0.0
  0
LINE
  5
46C
330
46A
100
AcDbEntity
  8
0
 62
   123
100
AcDbLine
 10
152.2053722174096
 20
198.6901770180209
 30
0.0
 11
152.2053722174096
 21
187.1311523417667
 31
0.0
  0
LINE
  5
46D
330
46A
100
AcDbEntity
  8
0
 62
   123
100
AcDbLine
 10
154.7053722174096
 20
187.7311523417668
 30
0.0
 11
157.2053722174096
 21
187.7311523417668
 31
0.0
  0
LINE
  5
46E
330
46A
100
AcDbEntity
  8
0
 62
   123
100
AcDbLine
 10
147.7053722174096
 20
187.7311523417668
 30
0.0
 11
139.2053722174096
 21
187.7311523417668
 31
0.0
  0
LINE
  5
46F
330
46A
100
AcDbEntity
  8
0
 62
   123
100
AcDbLine
 10
152.2053722174096
 20
187.7311523417668
 30
0.0
 11
150.2053722174096
 21
187.7311523417668
 31
0.0
  0
SOLID
  5
470
330
46A
100
AcDbEntity
  8
0
 62
   123
100
AcDbTrace
 10
154.7053722174096
 20
188.1478190084334
 30
0.0
 11
154.7053722174096
 21
187.3144856751001
 31
0.0
 12
152.2053722174096
 22
187.7311523417668
 32
0.0
 13
152.2053722174096
 23
187.7311523417668
 33
0.0
  0
SOLID
  5
471
330
46A
100
AcDbEntity
  8
0
 62
   123
100
AcDbTrace
 10
147.7053722174096
 20
188.1478190084334
 30
0.0
 11
147.7053722174096
 21
187.3144856751001
 31
0.0
 12
150.2053722174096
 22
187.7311523417668
 32
0.0
 13
150.2053722174096
 23
187.7311523417668
 33
0.0
  0
MTEXT
  5
472
330
46A
100
AcDbEntity
  8
0
 62
     3
100
AcDbMText
 10
141.2053722174096
 20
190.2311523417667
 30
0.0
 40
3.0
 41
0.0
 71
     5
 72
     1
  1
\A1;2
1001
ACAD
1000
MTEXTBEGIN
1070
    73
1070
     1
1070
    44
1040
1.0
1070
    74
1070
     0
1000
MTEXTEND
  0
POINT
  5
473
330
46A
100
AcDbEntity
  8
DEFPOINTS
 62
     0
100
AcDbPoint
 10
150.2053722174096
 20
202.6901770180209
 30
0.0
  0
POINT
  5
474
330
46A
100
AcDbEntity
  8
DEFPOINTS
 62
     0
100
AcDbPoint
 10
152.2053722174096
 20
199.6901770180208
 30
0.0
  0
POINT
  5
475
330
46A
100
AcDbEntity
  8
DEFPOINTS
 62
     0
100
AcDbPoint
 10
152.2053722174096
 20
187.7311523417668
 30
0.0
  0
ENDBLK
  5
477
330
46A
100
AcDbEntity
  8
0
100
AcDbBlockEnd
  0
BLOCK
  5
482
330
478
100
AcDbEntity
  8
0
100
AcDbBlockBegin
  2
*D46
 70
     1
 10
0.0
 20
0.0
 30
0.0
  3
*D46
  1

  0
LINE
  5
479
330
478
100
AcDbEntity
  8
0
 62
   123
100
AcDbLine
 10
139.2053722174096
 20
230.8401770180207
 30
0.0
 11
139.2053722174096
 21
177.480934491722
 31
0.0
  0
LINE
  5
47A
330
478
100
AcDbEntity
  8
0
 62
   123
100
AcDbLine
 10
152.2053722174096
 20
198.6901770180209
 30
0.0
 11
152.2053722174096
 21
177.480934491722
 31
0.0
  0
LINE
  5
47B
330
478
100
AcDbEntity
  8
0
 62
   123
100
AcDbLine
 10
141.7053722174095
 20
178.080934491722
 30
0.0
 11
149.7053722174096
 21
178.080934491722
 31
0.0
  0
SOLID
  5
47C
330
478
100
AcDbEntity
  8
0
 62
   123
100
AcDbTrace
 10
141.7053722174095
 20
178.4976011583886
 30
0.0
 11
141.7053722174095
 21
177.6642678250553
 31
0.0
 12
139.2053722174096
 22
178.080934491722
 32
0.0
 13
139.2053722174096
 23
178.080934491722
 33
0.0
  0
SOLID
  5
47D
330
478
100
AcDbEntity
  8
0
 62
   123
100
AcDbTrace
 10
149.7053722174096
 20
178.4976011583886
 30
0.0
 11
149.7053722174096
 21
177.6642678250553
 31
0.0
 12
152.2053722174096
 22
178.080934491722
 32
0.0
 13
152.2053722174096
 23
178.080934491722
 33
0.0
  0
MTEXT
  5
47E
330
478
100
AcDbEntity
  8
0
 62
     3
100
AcDbMText
 10
145.7053722174095
 20
180.580934491722
 30
0.0
 40
3.0
 41
0.0
 71
     5
 72
     1
  1
\A1;13
1001
ACAD
1000
MTEXTBEGIN
1070
    73
1070
     1
1070
    44
1040
1.0
1070
    74
1070
     0
1000
MTEXTEND
  0
POINT
  5
47F
330
478
100
AcDbEntity
  8
DEFPOINTS
 62
     0
100
AcDbPoint
 10
139.2053722174096
 20
231.8401770180207
 30
0.0
  0
POINT
  5
480
330
478
100
AcDbEntity
  8
DEFPOINTS
 62
     0
100
AcDbPoint
 10
152.2053722174096
 20
199.6901770180208
 30
0.0
  0
POINT
  5
481
330
478
100
AcDbEntity
  8
DEFPOINTS
 62
     0
100
AcDbPoint
 10
152.2053722174096
 20
178.080934491722
 30
0.0
  0
ENDBLK
  5
483
330
478
100
AcDbEntity
  8
0
100
AcDbBlockEnd
  0
BLOCK
  5
48E
330
484
100
AcDbEntity
  8
0
100
AcDbBlockBegin
  2
*D47
 70
     1
 10
0.0
 20
0.0
 30
0.0
  3
*D47
  1

  0
LINE
  5
485
330
484
100
AcDbEntity
  8
0
 62
   123
100
AcDbLine
 10
174.9925193393992
 20
95.53680355448387
 30
0.0
 11
174.9925193393992
 21
141.4924080591657
 31
0.0
  0
LINE
  5
486
330
484
100
AcDbEntity
  8
0
 62
   123
100
AcDbLine
 10
249.9891863393986
 20
126.8368035544829
 30
0.0
 11
249.9891863393986
 21
141.4924080591657
 31
0.0
  0
LINE
  5
487
330
484
100
AcDbEntity
  8
0
 62
   123
100
AcDbLine
 10
177.4925193393992
 20
140.8924080591657
 30
0.0
 11
247.4891863393986
 21
140.8924080591657
 31
0.0
  0
SOLID
  5
488
330
484
100
AcDbEntity
  8
0
 62
   123
100
AcDbTrace
 10
177.4925193393992
 20
141.3090747258324
 30
0.0
 11
177.4925193393992
 21
140.4757413924991
 31
0.0
 12
174.9925193393992
 22
140.8924080591657
 32
0.0
 13
174.9925193393992
 23
140.8924080591657
 33
0.0
  0
SOLID
  5
489
330
484
100
AcDbEntity
  8
0
 62
   123
100
AcDbTrace
 10
247.4891863393986
 20
141.3090747258324
 30
0.0
 11
247.4891863393986
 21
140.4757413924991
 31
0.0
 12
249.9891863393986
 22
140.8924080591657
 32
0.0
 13
249.9891863393986
 23
140.8924080591657
 33
0.0
  0
MTEXT
  5
48A
330
484
100
AcDbEntity
  8
0
 62
     3
100
AcDbMText
 10
205.8923965821577
 20
143.3924080591657
 30
0.0
 40
3.0
 41
0.0
 71
     5
 72
     1
  1
\A1;75
1001
ACAD
1000
MTEXTBEGIN
1070
    73
1070
     1
1070
    44
1040
1.0
1070
    74
1070
     0
1000
MTEXTEND
  0
POINT
  5
48B
330
484
100
AcDbEntity
  8
DEFPOINTS
 62
     0
100
AcDbPoint
 10
174.9925193393992
 20
94.53680355448387
 30
0.0
  0
POINT
  5
48C
330
484
100
AcDbEntity
  8
DEFPOINTS
 62
     0
100
AcDbPoint
 10
249.9891863393986
 20
125.8368035544829
 30
0.0
  0
POINT
  5
48D
330
484
100
AcDbEntity
  8
DEFPOINTS
 62
     0
100
AcDbPoint
 10
249.9891863393986
 20
140.8924080591657
 30
0.0
  0
ENDBLK
  5
48F
330
484
100
AcDbEntity
  8
0
100
AcDbBlockEnd
  0
BLOCK
  5
49C
330
490
100
AcDbEntity
  8
0
100
AcDbBlockBegin
  2
*D48
 70
     1
 10
0.0
 20
0.0
 30
0.0
  3
*D48
  1

  0
LINE
  5
491
330
490
100
AcDbEntity
  8
0
 62
   123
100
AcDbLine
 10
169.4925193393992
 20
86.83680455448074
 30
0.0
 11
169.4925193393992
 21
141.4924080591657
 31
0.0
  0
LINE
  5
492
330
490
100
AcDbEntity
  8
0
 62
   123
100
AcDbLine
 10
174.9925193393992
 20
95.53680355448387
 30
0.0
 11
174.9925193393992
 21
141.4924080591657
 31
0.0
  0
LINE
  5
493
330
490
100
AcDbEntity
  8
0
 62
   123
100
AcDbLine
 10
166.9925193393992
 20
140.8924080591657
 30
0.0
 11
164.4925193393992
 21
140.8924080591657
 31
0.0
  0
LINE
  5
494
330
490
100
AcDbEntity
  8
0
 62
   123
100
AcDbLine
 10
177.4925193393992
 20
140.8924080591657
 30
0.0
 11
179.9925193393992
 21
140.8924080591657
 31
0.0
  0
LINE
  5
495
330
490
100
AcDbEntity
  8
0
 62
   123
100
AcDbLine
 10
169.4925193393992
 20
140.8924080591657
 30
0.0
 11
174.9925193393992
 21
140.8924080591657
 31
0.0
  0
SOLID
  5
496
330
490
100
AcDbEntity
  8
0
 62
   123
100
AcDbTrace
 10
166.9925193393992
 20
141.3090747258324
 30
0.0
 11
166.9925193393992
 21
140.4757413924991
 31
0.0
 12
169.4925193393992
 22
140.8924080591657
 32
0.0
 13
169.4925193393992
 23
140.8924080591657
 33
0.0
  0
SOLID
  5
497
330
490
100
AcDbEntity
  8
0
 62
   123
100
AcDbTrace
 10
177.4925193393992
 20
141.3090747258324
 30
0.0
 11
177.4925193393992
 21
140.4757413924991
 31
0.0
 12
174.9925193393992
 22
140.8924080591657
 32
0.0
 13
174.9925193393992
 23
140.8924080591657
 33
0.0
  0
MTEXT
  5
498
330
490
100
AcDbEntity
  8
0
 62
     3
100
AcDbMText
 10
172.2425193393992
 20
143.3924080591657
 30
0.0
 40
3.0
 41
0.0
 71
     5
 72
     1
  1
\A1;5.5
1001
ACAD
1000
MTEXTBEGIN
1070
    73
1070
     1
1070
    44
1040
1.0
1070
    74
1070
     0
1000
MTEXTEND
  0
POINT
  5
499
330
490
100
AcDbEntity
  8
DEFPOINTS
 62
     0
100
AcDbPoint
 10
169.4925193393992
 20
85.83680455448075
 30
0.0
  0
POINT
  5
49A
330
490
100
AcDbEntity
  8
DEFPOINTS
 62
     0
100
AcDbPoint
 10
174.9925193393992
 20
94.53680355448387
 30
0.0
  0
POINT
  5
49B
330
490
100
AcDbEntity
  8
DEFPOINTS
 62
     0
100
AcDbPoint
 10
174.9925193393992
 20
140.8924080591657
 30
0.0
  0
ENDBLK
  5
49D
330
490
100
AcDbEntity
  8
0
100
AcDbBlockEnd
  0
BLOCK
  5
4A8
330
49E
100
AcDbEntity
  8
0
100
AcDbBlockBegin
  2
*D49
 70
     1
 10
0.0
 20
0.0
 30
0.0
  3
*D49
  1

  0
LINE
  5
49F
330
49E
100
AcDbEntity
  8
0
 62
   123
100
AcDbLine
 10
8.542709456318334
 20
278.6901770180209
 30
0.0
 11
8.542709456318338
 21
325.582150729476
 31
0.0
  0
LINE
  5
4A0
330
49E
100
AcDbEntity
  8
0
 62
   123
100
AcDbLine
 10
70.54270945631833
 20
278.6901770180209
 30
0.0
 11
70.54270945631833
 21
325.582150729476
 31
0.0
  0
LINE
  5
4A1
330
49E
100
AcDbEntity
  8
0
 62
   123
100
AcDbLine
 10
11.04270945631833
 20
324.9821507294759
 30
0.0
 11
68.04270945631833
 21
324.9821507294759
 31
0.0
  0
SOLID
  5
4A2
330
49E
100
AcDbEntity
  8
0
 62
   123
100
AcDbTrace
 10
11.04270945631833
 20
325.3988173961426
 30
0.0
 11
11.04270945631833
 21
324.5654840628092
 31
0.0
 12
8.542709456318338
 22
324.9821507294759
 32
0.0
 13
8.542709456318338
 23
324.9821507294759
 33
0.0
  0
SOLID
  5
4A3
330
49E
100
AcDbEntity
  8
0
 62
   123
100
AcDbTrace
 10
68.04270945631833
 20
325.3988173961426
 30
0.0
 11
68.04270945631833
 21
324.5654840628092
 31
0.0
 12
70.54270945631833
 22
324.9821507294759
 32
0.0
 13
70.54270945631833
 23
324.9821507294759
 33
0.0
  0
MTEXT
  5
4A4
330
49E
100
AcDbEntity
  8
0
 62
     3
100
AcDbMText
 10
39.54270945631833
 20
327.4821507294759
 30
0.0
 40
3.0
 41
0.0
 71
     5
 72
     1
  1
\A1;62
1001
ACAD
1000
MTEXTBEGIN
1070
    73
1070
     1
1070
    44
1040
1.0
1070
    74
1070
     0
1000
MTEXTEND
  0
POINT
  5
4A5
330
49E
100
AcDbEntity
  8
DEFPOINTS
 62
     0
100
AcDbPoint
 10
8.542709456318334
 20
277.6901770180209
 30
0.0
  0
POINT
  5
4A6
330
49E
100
AcDbEntity
  8
DEFPOINTS
 62
     0
100
AcDbPoint
 10
70.54270945631833
 20
277.6901770180209
 30
0.0
  0
POINT
  5
4A7
330
49E
100
AcDbEntity
  8
DEFPOINTS
 62
     0
100
AcDbPoint
 10
70.54270945631833
 20
324.9821507294759
 30
0.0
  0
ENDBLK
  5
4A9
330
49E
100
AcDbEntity
  8
0
100
AcDbBlockEnd
  0
BLOCK
  5
4B6
330
4AA
100
AcDbEntity
  8
0
100
AcDbBlockBegin
  2
*D50
 70
     1
 10
0.0
 20
0.0
 30
0.0
  3
*D50
  1

  0
LINE
  5
4AB
330
4AA
100
AcDbEntity
  8
0
 62
   123
100
AcDbLine
 10
152.2053722174096
 20
270.6901770180209
 30
0.0
 11
152.2053722174096
 21
325.3457805227059
 31
0.0
  0
LINE
  5
4AC
330
4AA
100
AcDbEntity
  8
0
 62
   123
100
AcDbLine
 10
157.7053722174096
 20
279.3901760180228
 30
0.0
 11
157.7053722174096
 21
325.3457805227059
 31
0.0
  0
LINE
  5
4AD
330
4AA
100
AcDbEntity
  8
0
 62
   123
100
AcDbLine
 10
149.7053722174096
 20
324.7457805227059
 30
0.0
 11
147.2053722174096
 21
324.7457805227059
 31
0.0
  0
LINE
  5
4AE
330
4AA
100
AcDbEntity
  8
0
 62
   123
100
AcDbLine
 10
160.2053722174096
 20
324.7457805227059
 30
0.0
 11
162.7053722174096
 21
324.7457805227059
 31
0.0
  0
LINE
  5
4AF
330
4AA
100
AcDbEntity
  8
0
 62
   123
100
AcDbLine
 10
152.2053722174096
 20
324.7457805227059
 30
0.0
 11
157.7053722174096
 21
324.7457805227059
 31
0.0
  0
SOLID
  5
4B0
330
4AA
100
AcDbEntity
  8
0
 62
   123
100
AcDbTrace
 10
149.7053722174096
 20
325.1624471893725
 30
0.0
 11
149.7053722174096
 21
324.3291138560392
 31
0.0
 12
152.2053722174096
 22
324.7457805227059
 32
0.0
 13
152.2053722174096
 23
324.7457805227059
 33
0.0
  0
SOLID
  5
4B1
330
4AA
100
AcDbEntity
  8
0
 62
   123
100
AcDbTrace
 10
160.2053722174096
 20
325.1624471893725
 30
0.0
 11
160.2053722174096
 21
324.3291138560392
 31
0.0
 12
157.7053722174096
 22
324.7457805227059
 32
0.0
 13
157.7053722174096
 23
324.7457805227059
 33
0.0
  0
MTEXT
  5
4B2
330
4AA
100
AcDbEntity
  8
0
 62
     3
100
AcDbMText
 10
154.9553722174096
 20
327.2457805227058
 30
0.0
 40
3.0
 41
0.0
 71
     5
 72
     1
  1
\A1;5.5
1001
ACAD
1000
MTEXTBEGIN
1070
    73
1070
     1
1070
    44
1040
1.0
1070
    74
1070
     0
1000
MTEXTEND
  0
POINT
  5
4B3
330
4AA
100
AcDbEntity
  8
DEFPOINTS
 62
     0
100
AcDbPoint
 10
152.2053722174096
 20
269.6901770180208
 30
0.0
  0
POINT
  5
4B4
330
4AA
100
AcDbEntity
  8
DEFPOINTS
 62
     0
100
AcDbPoint
 10
157.7053722174096
 20
278.3901760180228
 30
0.0
  0
POINT
  5
4B5
330
4AA
100
AcDbEntity
  8
DEFPOINTS
 62
     0
100
AcDbPoint
 10
157.7053722174096
 20
324.7457805227059
 30
0.0
  0
ENDBLK
  5
4B7
330
4AA
100
AcDbEntity
  8
0
100
AcDbBlockEnd
  0
BLOCK
  5
4C2
330
4B8
100
AcDbEntity
  8
0
100
AcDbBlockBegin
  2
*D51
 70
     1
 10
0.0
 20
0.0
 30
0.0
  3
*D51
  1

  0
LINE
  5
4B9
330
4B8
100
AcDbEntity
  8
0
 62
   123
100
AcDbLine
 10
157.7053722174096
 20
279.3901760180228
 30
0.0
 11
157.7053722174096
 21
325.3457805227059
 31
0.0
  0
LINE
  5
4BA
330
4B8
100
AcDbEntity
  8
0
 62
   123
100
AcDbLine
 10
232.702039217409
 20
310.690176018023
 30
0.0
 11
232.702039217409
 21
325.3457805227059
 31
0.0
  0
LINE
  5
4BB
330
4B8
100
AcDbEntity
  8
0
 62
   123
100
AcDbLine
 10
160.2053722174096
 20
324.7457805227059
 30
0.0
 11
230.202039217409
 21
324.7457805227059
 31
0.0
  0
SOLID
  5
4BC
330
4B8
100
AcDbEntity
  8
0
 62
   123
100
AcDbTrace
 10
160.2053722174096
 20
325.1624471893725
 30
0.0
 11
160.2053722174096
 21
324.3291138560392
 31
0.0
 12
157.7053722174096
 22
324.7457805227059
 32
0.0
 13
157.7053722174096
 23
324.7457805227059
 33
0.0
  0
SOLID
  5
4BD
330
4B8
100
AcDbEntity
  8
0
 62
   123
100
AcDbTrace
 10
230.202039217409
 20
325.1624471893725
 30
0.0
 11
230.202039217409
 21
324.3291138560392
 31
0.0
 12
232.702039217409
 22
324.7457805227059
 32
0.0
 13
232.702039217409
 23
324.7457805227059
 33
0.0
  0
MTEXT
  5
4BE
330
4B8
100
AcDbEntity
  8
0
 62
     3
100
AcDbMText
 10
188.6052494601681
 20
327.2457805227058
 30
0.0
 40
3.0
 41
0.0
 71
     5
 72
     1
  1
\A1;75
1001
ACAD
1000
MTEXTBEGIN
1070
    73
1070
     1
1070
    44
1040
1.0
1070
    74
1070
     0
1000
MTEXTEND
  0
POINT
  5
4BF
330
4B8
100
AcDbEntity
  8
DEFPOINTS
 62
     0
100
AcDbPoint
 10
157.7053722174096
 20
278.3901760180228
 30
0.0
  0
POINT
  5
4C0
330
4B8
100
AcDbEntity
  8
DEFPOINTS
 62
     0
100
AcDbPoint
 10
232.702039217409
 20
309.690176018023
 30
0.0
  0
POINT
  5
4C1
330
4B8
100
AcDbEntity
  8
DEFPOINTS
 62
     0
100
AcDbPoint
 10
232.702039217409
 20
324.7457805227059
 30
0.0
  0
ENDBLK
  5
4C3
330
4B8
100
AcDbEntity
  8
0
100
AcDbBlockEnd
  0
BLOCK
  5
4CE
330
4C4
100
AcDbEntity
  8
0
100
AcDbBlockBegin
  2
*D52
 70
     1
 10
0.0
 20
0.0
 30
0.0
  3
*D52
  1

  0
LINE
  5
4C5
330
4C4
100
AcDbEntity
  8
0
 62
   123
100
AcDbLine
 10
232.702039217409
 20
310.690176018023
 30
0.0
 11
232.702039217409
 21
325.3292095021951
 31
0.0
  0
LINE
  5
4C6
330
4C4
100
AcDbEntity
  8
0
 62
   123
100
AcDbLine
 10
260.702039217409
 20
302.690176018023
 30
0.0
 11
260.702039217409
 21
325.3292095021951
 31
0.0
  0
LINE
  5
4C7
330
4C4
100
AcDbEntity
  8
0
 62
   123
100
AcDbLine
 10
235.202039217409
 20
324.7292095021951
 30
0.0
 11
258.202039217409
 21
324.7292095021951
 31
0.0
  0
SOLID
  5
4C8
330
4C4
100
AcDbEntity
  8
0
 62
   123
100
AcDbTrace
 10
235.202039217409
 20
325.1458761688617
 30
0.0
 11
235.202039217409
 21
324.3125428355284
 31
0.0
 12
232.702039217409
 22
324.7292095021951
 32
0.0
 13
232.702039217409
 23
324.7292095021951
 33
0.0
  0
SOLID
  5
4C9
330
4C4
100
AcDbEntity
  8
0
 62
   123
100
AcDbTrace
 10
258.202039217409
 20
325.1458761688617
 30
0.0
 11
258.202039217409
 21
324.3125428355284
 31
0.0
 12
260.702039217409
 22
324.7292095021951
 32
0.0
 13
260.702039217409
 23
324.7292095021951
 33
0.0
  0
MTEXT
  5
4CA
330
4C4
100
AcDbEntity
  8
0
 62
     3
100
AcDbMText
 10
246.702039217409
 20
327.229209502195
 30
0.0
 40
3.0
 41
0.0
 71
     5
 72
     1
  1
\A1;MAX. 28
1001
ACAD
1000
MTEXTBEGIN
1070
    73
1070
     1
1070
    44
1040
1.0
1070
    74
1070
     0
1000
MTEXTEND
  0
POINT
  5
4CB
330
4C4
100
AcDbEntity
  8
DEFPOINTS
 62
     0
100
AcDbPoint
 10
232.702039217409
 20
309.690176018023
 30
0.0
  0
POINT
  5
4CC
330
4C4
100
AcDbEntity
  8
DEFPOINTS
 62
     0
100
AcDbPoint
 10
260.702039217409
 20
301.690176018023
 30
0.0
  0
POINT
  5
4CD
330
4C4
100
AcDbEntity
  8
DEFPOINTS
 62
     0
100
AcDbPoint
 10
260.702039217409
 20
324.7292095021951
 30
0.0
  0
ENDBLK
  5
4CF
330
4C4
100
AcDbEntity
  8
0
100
AcDbBlockEnd
  0
BLOCK
  5
4DA
330
4D0
100
AcDbEntity
  8
0
100
AcDbBlockBegin
  2
*D53
 70
     1
 10
0.0
 20
0.0
 30
0.0
  3
*D53
  1

  0
LINE
  5
4D1
330
4D0
100
AcDbEntity
  8
0
 62
   123
100
AcDbLine
 10
70.54270945631833
 20
269.6901770180208
 30
0.0
 11
87.46205552756842
 21
269.6901770180208
 31
0.0
  0
LINE
  5
4D2
330
4D0
100
AcDbEntity
  8
0
 62
   123
100
AcDbLine
 10
69.07101545631849
 20
312.690177018019
 30
0.0
 11
87.46205552756844
 21
312.690177018019
 31
0.0
  0
LINE
  5
4D3
330
4D0
100
AcDbEntity
  8
0
 62
   123
100
AcDbLine
 10
86.86205552756842
 20
272.1901770180209
 30
0.0
 11
86.86205552756844
 21
310.190177018019
 31
0.0
  0
SOLID
  5
4D4
330
4D0
100
AcDbEntity
  8
0
 62
   123
100
AcDbTrace
 10
86.44538886090174
 20
272.1901770180209
 30
0.0
 11
87.27872219423508
 21
272.1901770180209
 31
0.0
 12
86.86205552756842
 22
269.6901770180208
 32
0.0
 13
86.86205552756842
 23
269.6901770180208
 33
0.0
  0
SOLID
  5
4D5
330
4D0
100
AcDbEntity
  8
0
 62
   123
100
AcDbTrace
 10
86.44538886090176
 20
310.190177018019
 30
0.0
 11
87.2787221942351
 21
310.190177018019
 31
0.0
 12
86.86205552756844
 22
312.690177018019
 32
0.0
 13
86.86205552756844
 23
312.690177018019
 33
0.0
  0
MTEXT
  5
4D6
330
4D0
100
AcDbEntity
  8
0
 62
     3
100
AcDbMText
 10
84.36205552756836
 20
292.827806573973
 30
0.0
 40
3.0
 41
0.0
 71
     5
 72
     1
  1
\A1;43
 11
0.0000000000000001
 21
1.0
 31
0.0
1001
ACAD
1000
MTEXTBEGIN
1070
    73
1070
     1
1070
    44
1040
1.0
1070
    74
1070
     0
1000
MTEXTEND
  0
POINT
  5
4D7
330
4D0
100
AcDbEntity
  8
DEFPOINTS
 62
     0
100
AcDbPoint
 10
69.54270945631833
 20
269.6901770180208
 30
0.0
  0
POINT
  5
4D8
330
4D0
100
AcDbEntity
  8
DEFPOINTS
 62
     0
100
AcDbPoint
 10
68.07101545631849
 20
312.690177018019
 30
0.0
  0
POINT
  5
4D9
330
4D0
100
AcDbEntity
  8
DEFPOINTS
 62
     0
100
AcDbPoint
 10
86.86205552756844
 20
312.690177018019
 30
0.0
  0
ENDBLK
  5
4DB
330
4D0
100
AcDbEntity
  8
0
100
AcDbBlockEnd
  0
ENDSEC
  0
SECTION
  2
ENTITIES
  0
DIMENSION
  5
9D
102
{ACAD_XDICTIONARY
360
9E
102
}
102
{ACAD_REACTORS
330
9F
102
}
330
2
100
AcDbEntity
  8
0
100
AcDbDimension
  2
*D29
 10
266.1531890322767
 20
16.33680455448074
 30
0.0
 11
266.1531890322767
 21
48.68072356439189
 31
0.0
 70
   160
  1
%%C<>
  3
STANDARD
100
AcDbAlignedDimension
 13
242.4925193393992
 23
85.33680455448076
 33
0.0
 14
242.4925193393992
 24
16.33680455448075
 34
0.0
 50
90.0
100
AcDbRotatedDimension
  0
ARC
  5
AE
330
2
100
AcDbEntity
  8
0
 48
0.6
100
AcDbCircle
 10
35.0
 20
50.83680455448075
 30
0.0
 40
27.83999999999998
100
AcDbArc
 50
26.36567250326923
 51
63.63432749673076
  0
ARC
  5
AF
330
2
100
AcDbEntity
  8
0
 48
0.6
100
AcDbCircle
 10
35.0
 20
50.83680455448075
 30
0.0
 40
27.83999999999998
100
AcDbArc
 50
116.3656725032691
 51
153.6343274967307
  0
LINE
  5
B0
330
2
100
AcDbEntity
  8
CEN
 48
0.6
100
AcDbLine
 10
35.0
 20
10.21346768469402
 30
0.0
 11
35.0
 21
133.747214091202
 31
0.0
  0
LINE
  5
B3
330
2
100
AcDbEntity
  8
0
 48
0.6
100
AcDbLine
 10
70.0
 20
80.83680455448075
 30
0.0
 11
70.0
 21
20.83680455448075
 31
0.0
  0
LINE
  5
B4
330
2
100
AcDbEntity
  8
0
 48
0.6
100
AcDbLine
 10
0.0
 20
80.83680455448075
 30
0.0
 11
0.0
 21
20.83680455448075
 31
0.0
  0
CIRCLE
  5
B5
330
2
100
AcDbEntity
  8
0
 48
0.6
100
AcDbCircle
 10
35.0
 20
50.83680455448075
 30
0.0
 40
32.00000000000005
  0
CIRCLE
  5
B6
330
2
100
AcDbEntity
  8
0
 48
0.6
100
AcDbCircle
 10
35.0
 20
50.83680455448075
 30
0.0
 40
33.5
  0
LINE
  5
B7
102
{ACAD_REACTORS
330
CB
330
13C
102
}
330
2
100
AcDbEntity
  8
0
100
AcDbLine
 10
167.4925193393992
 20
82.83680455448076
 30
0.0
 11
167.4925193393992
 21
18.83680455448075
 31
0.0
  0
LINE
  5
B8
102
{ACAD_REACTORS
330
E9
330
DA
102
}
330
2
100
AcDbEntity
  8
0
100
AcDbLine
 10
169.4925193393992
 20
85.83680455448075
 30
0.0
 11
169.4925193393992
 21
15.83680455448075
 31
0.0
  0
LINE
  5
B9
330
2
100
AcDbEntity
  8
0
100
AcDbLine
 10
175.5925193393995
 20
87.83680355448087
 30
0.0
 11
175.5925193393995
 21
15.83680455448075
 31
0.0
  0
LINE
  5
BA
102
{ACAD_REACTORS
330
E9
102
}
330
2
100
AcDbEntity
  8
0
100
AcDbLine
 10
249.4925193393992
 20
82.83680455448076
 30
0.0
 11
249.4925193393992
 21
18.83680455448075
 31
0.0
  0
LINE
  5
BB
102
{ACAD_REACTORS
330
9F
102
}
330
2
100
AcDbEntity
  8
0
100
AcDbLine
 10
242.4925193393992
 20
16.33680455448075
 30
0.0
 11
242.4925193393992
 21
85.33680455448076
 31
0.0
  0
LINE
  5
BC
330
2
100
AcDbEntity
  8
0
100
AcDbLine
 10
248.4925193393992
 20
83.83680455448075
 30
0.0
 11
248.4925193393992
 21
17.83680455448075
 31
0.0
  0
DIMENSION
  5
BD
330
2
100
AcDbEntity
  8
0
100
AcDbDimension
  2
*D28
 10
1.278509081087806
 20
27.51597587697748
 30
0.0
 11
94.00667461073679
 21
91.64415060972487
 31
0.0
 70
   163
  1
<>%%P0.5
  3
STANDARD
100
AcDbDiametricDimension
 15
68.72149091891765
 25
74.15763323200176
 35
0.0
 40
0.0
  0
DIMENSION
  5
C9
102
{ACAD_XDICTIONARY
360
CA
102
}
102
{ACAD_REACTORS
330
CB
102
}
330
2
100
AcDbEntity
  8
0
100
AcDbDimension
  2
*D27
 10
124.9621420751991
 20
18.83680455448076
 30
0.0
 11
124.9621420751991
 21
50.83680455448166
 31
0.0
 70
   160
  1
\A1;%%C{\f??|b0|i0|c0|p49;64\H0.7x;\S+0^ -0.030;\H1.429x;(h7)} 
  3
STANDARD
100
AcDbAlignedDimension
 13
167.4925193393992
 23
82.83680455448076
 33
0.0
 14
167.4925193393992
 24
18.83680455448075
 34
0.0
 50
90.0
100
AcDbRotatedDimension
  0
DIMENSION
  5
D8
102
{ACAD_XDICTIONARY
360
D9
102
}
102
{ACAD_REACTORS
330
DA
102
}
330
2
100
AcDbEntity
  8
0
100
AcDbDimension
  2
*D35
 10
176.4925193393992
 20
4.503395942426777
 30
0.0
 11
172.9925193393992
 21
4.503395942426777
 31
0.0
 70
   160
  3
STANDARD
100
AcDbAlignedDimension
 13
169.4925193393992
 23
15.83680455448075
 33
0.0
 14
176.4925193393992
 24
17.23806721295113
 34
0.0
100
AcDbRotatedDimension
  0
DIMENSION
  5
E7
102
{ACAD_XDICTIONARY
360
E8
102
}
102
{ACAD_REACTORS
330
E9
102
}
330
2
100
AcDbEntity
  8
0
100
AcDbDimension
  2
*D34
 10
169.4925193393992
 20
-5.977654450455247
 30
0.0
 11
208.5015011734376
 21
-5.977654450455247
 31
0.0
 70
   160
  3
STANDARD
100
AcDbAlignedDimension
 13
249.4925193393992
 23
18.83680455448075
 33
0.0
 14
169.4925193393992
 24
15.83680455448075
 34
0.0
100
AcDbRotatedDimension
  0
DIMENSION
  5
F6
102
{ACAD_XDICTIONARY
360
F7
102
}
102
{ACAD_REACTORS
330
F8
102
}
330
2
100
AcDbEntity
  8
0
100
AcDbDimension
  2
*D33
 10
169.4925193393992
 20
-5.977654450455247
 30
0.0
 11
157.7399973481278
 21
-5.977654450455247
 31
0.0
 70
   160
  3
STANDARD
100
AcDbAlignedDimension
 13
145.4925193393992
 23
48.33691493993683
 33
0.0
 14
169.4925193393992
 24
15.83680455448075
 34
0.0
100
AcDbRotatedDimension
  0
CIRCLE
  5
105
330
2
100
AcDbEntity
  8
0
 48
0.6
100
AcDbCircle
 10
35.0
 20
50.83680455448075
 30
0.0
 40
13.0
  0
ARC
  5
106
330
2
100
AcDbEntity
  8
0
 48
0.6
100
AcDbCircle
 10
35.0
 20
50.83680455448075
 30
0.0
 40
25.52
100
AcDbArc
 50
252.2801918471933
 51
287.7198081528065
  0
CIRCLE
  5
107
330
2
100
AcDbEntity
  8
0
 48
0.6
100
AcDbCircle
 10
35.0
 20
50.83680455448075
 30
0.0
 40
2.000000000000055
  0
CIRCLE
  5
108
330
2
100
AcDbEntity
  8
0
 48
0.6
100
AcDbCircle
 10
35.0
 20
50.83680455448075
 30
0.0
 40
3.000000000000055
  0
ARC
  5
109
330
2
100
AcDbEntity
  8
0
 48
0.6
100
AcDbCircle
 10
23.66660746513662
 20
27.97144617874801
 30
0.0
 40
2.319999999999998
100
AcDbArc
 50
243.6343274967307
 51
308.0513255194166
  0
ARC
  5
10A
330
2
100
AcDbEntity
  8
0
 48
0.6
100
AcDbCircle
 10
26.52655093763678
 20
24.31763675103002
 30
0.0
 40
2.319999999999998
100
AcDbArc
 50
72.28019184719342
 51
128.0513255194166
  0
LWPOLYLINE
  5
10B
330
2
100
AcDbEntity
  8
0
 62
   123
100
AcDbPolyline
 90
        4
 70
     1
 43
0.0
 10
28.723853618887
 20
1.39348770675997
 10
32.02385361887718
 20
1.39348770675997
 10
32.02385361887718
 20
4.89348770675997
 10
28.723853618887
 20
4.89348770675997
  0
ARC
  5
10C
330
2
100
AcDbEntity
  8
0
 48
0.6
100
AcDbCircle
 10
35.0
 20
50.83680455448075
 30
0.0
 40
25.52
100
AcDbArc
 50
342.2801918472341
 51
17.7198081527659
  0
DIMENSION
  5
10D
330
2
100
AcDbEntity
  8
0
 48
0.6
100
AcDbDimension
  2
*D32
 10
136.0153652870376
 20
47.83691493993592
 30
0.0
 11
136.0153652870376
 21
50.83680455448032
 31
0.0
 70
   160
  1
\A1;%%c<>{\H0.7x;\S+0^ -0.012;\f??|b0|i0|c0|p49;\H1.429x;(h7)}  
  3
STANDARD
100
AcDbAlignedDimension
 13
145.9925193393992
 23
53.83669416902467
 33
0.0
 14
145.9925193393992
 24
47.83691493993592
 34
0.0
 50
90.0
100
AcDbRotatedDimension
  0
LINE
  5
11C
330
2
100
AcDbEntity
  8
0
 48
0.6
100
AcDbLine
 10
52.37948010727814
 20
15.83680455448075
 30
0.0
 11
46.63842988074975
 21
15.83680455448075
 31
0.0
  0
ARC
  5
11D
330
2
100
AcDbEntity
  8
0
 48
0.6
100
AcDbCircle
 10
61.51916780344982
 20
42.36335549212071
 30
0.0
 40
2.319999999999998
100
AcDbArc
 50
162.2801918472339
 51
218.051325519396
  0
ARC
  5
11E
330
2
100
AcDbEntity
  8
0
 48
0.6
100
AcDbCircle
 10
65.0
 20
20.83680455448075
 30
0.0
 40
5.0
100
AcDbArc
 50
270.0
 51
0.0
  0
ARC
  5
11F
330
2
100
AcDbEntity
  8
0
 48
0.6
100
AcDbCircle
 10
43.47344906235775
 20
24.31763675103002
 30
0.0
 40
2.319999999999998
100
AcDbArc
 50
51.9486744805834
 51
107.7198081528065
  0
ARC
  5
120
330
2
100
AcDbEntity
  8
0
 48
0.6
100
AcDbCircle
 10
46.33339253486702
 20
27.97144617874801
 30
0.0
 40
2.319999999999998
100
AcDbArc
 50
231.9486744805834
 51
296.3656725032691
  0
ARC
  5
121
330
2
100
AcDbEntity
  8
0
 48
0.6
100
AcDbCircle
 10
35.0
 20
50.83680455448075
 30
0.0
 40
27.83999999999998
100
AcDbArc
 50
296.3656725032691
 51
333.6343274967308
  0
ARC
  5
122
330
2
100
AcDbEntity
  8
0
 48
0.6
100
AcDbCircle
 10
57.86535837572774
 20
39.50341201961782
 30
0.0
 40
2.319999999999998
100
AcDbArc
 50
333.6343274967308
 51
38.05132551939607
  0
CIRCLE
  5
123
330
2
100
AcDbEntity
  8
0
100
AcDbCircle
 10
63.9913780286588
 20
21.84542652584104
 30
0.0
 40
2.75
  0
LINE
  5
124
330
2
100
AcDbEntity
  8
CEN
 48
0.6
100
AcDbLine
 10
60.63262081801804
 20
25.20418373647498
 30
0.0
 11
67.35013523928683
 21
18.48666931520392
 31
0.0
  0
ARC
  5
125
330
2
100
AcDbEntity
  8
CEN
 48
0.6
100
AcDbCircle
 10
35.0
 20
50.83680455447893
 30
0.0
 40
41.0
100
AcDbArc
 50
308.3583564286569
 51
321.6416435713429
  0
LINE
  5
126
102
{ACAD_REACTORS
330
9F
102
}
330
2
100
AcDbEntity
  8
0
100
AcDbLine
 10
242.4925193393992
 20
16.33680455448075
 30
0.0
 11
175.5925193393995
 21
16.33680455448075
 31
0.0
  0
LINE
  5
127
330
2
100
AcDbEntity
  8
0
100
AcDbLine
 10
175.5925193393995
 20
24.93806721295232
 30
0.0
 11
176.4925193393992
 21
24.93806721295232
 31
0.0
  0
LINE
  5
128
330
2
100
AcDbEntity
  8
0
100
AcDbLine
 10
175.5925193393995
 20
17.23806721295113
 30
0.0
 11
176.4925193393992
 21
17.23806721295113
 31
0.0
  0
LINE
  5
129
330
2
100
AcDbEntity
  8
0
100
AcDbLine
 10
169.4925193393992
 20
18.83680455448075
 30
0.0
 11
167.4925193393992
 21
18.83680455448075
 31
0.0
  0
LINE
  5
12A
102
{ACAD_REACTORS
330
F8
102
}
330
2
100
AcDbEntity
  8
0
100
AcDbLine
 10
169.4925193393992
 20
15.83680455448075
 30
0.0
 11
175.5925193393995
 21
15.83680455448075
 31
0.0
  0
LINE
  5
12B
102
{ACAD_REACTORS
330
DA
102
}
330
2
100
AcDbEntity
  8
0
100
AcDbLine
 10
176.4925193393992
 20
24.93806721295232
 30
0.0
 11
176.4925193393992
 21
17.23806721295113
 31
0.0
  0
LINE
  5
12C
330
2
100
AcDbEntity
  8
0
100
AcDbLine
 10
249.4925193393992
 20
18.83680455448075
 30
0.0
 11
248.4925193393992
 21
17.83680455448075
 31
0.0
  0
LINE
  5
12D
330
2
100
AcDbEntity
  8
0
100
AcDbLine
 10
248.4925193393992
 20
17.83680455448075
 30
0.0
 11
242.4925193393992
 21
17.83680455448075
 31
0.0
  0
LINE
  5
12E
330
2
100
AcDbEntity
  8
CEN
 48
0.6
100
AcDbLine
 10
255.0308182664593
 20
50.83680455448075
 30
0.0
 11
140.2759400874583
 21
50.83680455448075
 31
0.0
  0
LINE
  5
12F
330
2
100
AcDbEntity
  8
0
 48
0.6
100
AcDbLine
 10
145.9925193393992
 20
53.83669416902467
 30
0.0
 11
167.4925193393992
 21
53.83681415323917
 31
0.0
  0
LINE
  5
130
330
2
100
AcDbEntity
  8
0
 48
0.6
100
AcDbLine
 10
145.9925193393992
 20
47.83691493993683
 30
0.0
 11
167.4925193393992
 21
47.83681415319688
 31
0.0
  0
ARC
  5
131
330
2
100
AcDbEntity
  8
0
 48
0.6
100
AcDbCircle
 10
61.51916780344982
 20
59.31025361684124
 30
0.0
 40
2.319999999999998
100
AcDbArc
 50
141.9486744806039
 51
197.7198081527659
  0
ARC
  5
132
330
2
100
AcDbEntity
  8
0
 48
0.6
100
AcDbCircle
 10
57.86535837572774
 20
62.17019708934367
 30
0.0
 40
2.319999999999998
100
AcDbArc
 50
321.9486744806038
 51
26.36567250326923
  0
LINE
  5
133
330
2
100
AcDbEntity
  8
0
 48
0.6
100
AcDbLine
 10
145.4925193393992
 20
53.33669416902558
 30
0.0
 11
145.9925193393992
 21
53.83669416902467
 31
0.0
  0
LINE
  5
134
102
{ACAD_REACTORS
330
F8
102
}
330
2
100
AcDbEntity
  8
0
 48
0.6
100
AcDbLine
 10
145.4925193393992
 20
48.33691493993683
 30
0.0
 11
145.9925193393992
 21
47.83691493993683
 31
0.0
  0
LINE
  5
135
330
2
100
AcDbEntity
  8
2
 48
0.6
100
AcDbLine
 10
145.9925193393992
 20
53.83669416902375
 30
0.0
 11
145.9925193393992
 21
47.83691493993683
 31
0.0
  0
LINE
  5
137
330
2
100
AcDbEntity
  8
0
 48
0.6
100
AcDbLine
 10
145.4925193393992
 20
53.33669416902558
 30
0.0
 11
145.4925193393992
 21
48.33691493993683
 31
0.0
  0
MTEXT
  5
138
102
{ACAD_REACTORS
330
139
102
}
330
2
100
AcDbEntity
  8
0
 62
     3
100
AcDbMText
 10
82.09972056085826
 20
4.833677549769618
 30
0.0
 40
3.0
 41
0.0
 71
     4
 72
     1
  1
4-%%c5.5 hole
1001
ACAD
1000
MTEXTBEGIN
1070
    73
1070
     1
1070
    44
1040
1.0
1070
    74
1070
     0
1000
MTEXTEND
  0
LEADER
  5
139
330
2
100
AcDbEntity
  8
0
100
AcDbLeader
  3
STANDARD
 73
     0
 74
     0
 75
     1
 40
3.0
 41
26.65178571428571
 76
     3
 10
64.70773037810977
 20
19.74235103116279
 30
0.0
 10
78.59972056085826
 20
2.333677549769617
 30
0.0
 10
81.09972056085826
 20
2.333677549769617
 30
0.0
340
138
1001
ACAD
1000
DSTYLE
1002
{
1070
     5
1000

1070
    77
1070
     1
1070
   147
1040
1.0
1070
   342
1005
0
1002
}
  0
DIMENSION
  5
13A
102
{ACAD_XDICTIONARY
360
13B
102
}
102
{ACAD_REACTORS
330
13C
102
}
330
2
100
AcDbEntity
  8
0
100
AcDbDimension
  2
*D31
 10
169.4925193393992
 20
4.503395942426777
 30
0.0
 11
158.4925193393992
 21
4.503395942426777
 31
0.0
 70
   160
  3
STANDARD
100
AcDbAlignedDimension
 13
167.4925193393992
 23
18.83680455448075
 33
0.0
 14
169.4925193393992
 24
15.83680455448075
 34
0.0
100
AcDbRotatedDimension
  0
ARC
  5
14B
330
2
100
AcDbEntity
  8
0
 48
0.6
100
AcDbCircle
 10
35.0
 20
50.83680455448075
 30
0.0
 40
25.52
100
AcDbArc
 50
162.2801918472339
 51
197.7198081527659
  0
ARC
  5
14C
330
2
100
AcDbEntity
  8
0
 48
0.6
100
AcDbCircle
 10
8.480832196550181
 20
42.36335549212071
 30
0.0
 40
2.319999999999998
100
AcDbArc
 50
321.9486744806038
 51
17.7198081527659
  0
ARC
  5
14D
330
2
100
AcDbEntity
  8
0
 48
0.6
100
AcDbCircle
 10
5.0
 20
20.83680455448075
 30
0.0
 40
5.0
100
AcDbArc
 50
180.0
 51
270.0
  0
ARC
  5
14E
330
2
100
AcDbEntity
  8
0
 48
0.6
100
AcDbCircle
 10
12.1346416242668
 20
39.50341201961782
 30
0.0
 40
2.319999999999998
100
AcDbArc
 50
141.9486744806039
 51
206.3656725032691
  0
ARC
  5
14F
330
2
100
AcDbEntity
  8
CEN
 48
0.6
100
AcDbCircle
 10
34.99999999998726
 20
50.83680455448484
 30
0.0
 40
41.0
100
AcDbArc
 50
214.1535113474703
 51
235.8464886524934
  0
CIRCLE
  5
150
330
2
100
AcDbEntity
  8
0
100
AcDbCircle
 10
6.008621971350294
 20
21.84542652582695
 30
0.0
 40
2.75
  0
LINE
  5
151
330
2
100
AcDbEntity
  8
CEN
 48
0.6
100
AcDbLine
 10
9.367379181987416
 20
25.20418373646498
 30
0.0
 11
2.649864760716809
 21
18.48666931519074
 31
0.0
  0
ARC
  5
152
330
2
100
AcDbEntity
  8
0
 48
0.6
100
AcDbCircle
 10
8.480832196550181
 20
59.31025361684124
 30
0.0
 40
2.319999999999998
100
AcDbArc
 50
342.2801918472341
 51
38.05132551939607
  0
ARC
  5
153
330
2
100
AcDbEntity
  8
0
 48
0.6
100
AcDbCircle
 10
12.1346416242668
 20
62.17019708934367
 30
0.0
 40
2.319999999999998
100
AcDbArc
 50
153.6343274967307
 51
218.051325519396
  0
DIMENSION
  5
154
330
2
100
AcDbEntity
  8
0
100
AcDbDimension
  2
*D30
 10
70.0
 20
0.5999999999999091
 30
0.0
 11
35.21876060383692
 21
0.5999999999999091
 31
0.0
 70
   160
  3
STANDARD
100
AcDbAlignedDimension
 13
0.0
 23
19.83680455448075
 33
0.0
 14
70.0
 24
19.19804857953704
 34
0.0
100
AcDbRotatedDimension
  0
LINE
  5
161
330
2
100
AcDbEntity
  8
0
 48
0.6
100
AcDbLine
 10
5.0
 20
15.83680455448075
 30
0.0
 11
65.0
 21
15.83680455448075
 31
0.0
  0
LINE
  5
162
330
2
100
AcDbEntity
  8
CEN
 48
0.6
100
AcDbLine
 10
-4.597634719852067
 20
50.83680455448075
 30
0.0
 11
74.59763471985024
 21
50.83680455448075
 31
0.0
  0
ARC
  5
163
330
2
100
AcDbEntity
  8
0
 48
0.6
100
AcDbCircle
 10
35.0
 20
50.83680455448075
 30
0.0
 40
27.83999999999998
100
AcDbArc
 50
206.3656725032691
 51
243.6343274967307
  0
LINE
  5
164
330
2
100
AcDbEntity
  8
CEN
 48
0.6
100
AcDbLine
 10
283.7729803393995
 20
110.8368035544831
 30
0.0
 11
172.5638773863174
 21
110.8368035544831
 31
0.0
  0
DIMENSION
  5
165
102
{ACAD_XDICTIONARY
360
166
102
}
102
{ACAD_REACTORS
330
167
102
}
330
2
100
AcDbEntity
  8
0
100
AcDbDimension
  2
*D36
 10
277.9891863393986
 20
140.8758370386549
 30
0.0
 11
263.9891863393986
 21
140.8758370386549
 31
0.0
 70
   160
  1
MAX. <>
  3
STANDARD
100
AcDbAlignedDimension
 13
249.9891863393986
 23
125.8368035544829
 33
0.0
 14
277.9891863393986
 24
117.8368035544831
 34
0.0
100
AcDbRotatedDimension
  0
LINE
  5
174
330
2
100
AcDbEntity
  8
0
100
AcDbLine
 10
269.9069123393983
 20
103.1368035544815
 30
0.0
 11
260.9891863393986
 21
103.1368035544815
 31
0.0
  0
LINE
  5
175
330
2
100
AcDbEntity
  8
0
100
AcDbLine
 10
269.4891863393986
 20
103.8368035544831
 30
0.0
 11
260.9891863393986
 21
103.8368035544831
 31
0.0
  0
LINE
  5
176
330
2
100
AcDbEntity
  8
0
100
AcDbLine
 10
270.9891863393986
 20
98.83680355448177
 30
0.0
 11
260.9891863393986
 21
98.83680355448177
 31
0.0
  0
LINE
  5
177
330
2
100
AcDbEntity
  8
0
100
AcDbLine
 10
269.4891863393986
 20
97.83680355448314
 30
0.0
 11
260.9891863393986
 21
97.83680355448314
 31
0.0
  0
LINE
  5
178
330
2
100
AcDbEntity
  8
0
100
AcDbLine
 10
270.2877943393996
 20
107.3368035544831
 30
0.0
 11
260.9891863393986
 21
107.3368035544831
 31
0.0
  0
LINE
  5
179
330
2
100
AcDbEntity
  8
0
100
AcDbLine
 10
269.4891863393986
 20
105.8368035544831
 30
0.0
 11
260.9891863393986
 21
105.8368035544831
 31
0.0
  0
LINE
  5
17A
330
2
100
AcDbEntity
  8
0
100
AcDbLine
 10
270.2877943393996
 20
114.3368035544831
 30
0.0
 11
260.9891863393986
 21
114.3368035544831
 31
0.0
  0
LINE
  5
17B
330
2
100
AcDbEntity
  8
0
100
AcDbLine
 10
269.9069123393983
 20
118.5368035544838
 30
0.0
 11
260.9891863393986
 21
118.5368035544838
 31
0.0
  0
LINE
  5
17C
330
2
100
AcDbEntity
  8
0
100
AcDbLine
 10
269.4891863393986
 20
117.8368035544831
 30
0.0
 11
260.9891863393986
 21
117.8368035544831
 31
0.0
  0
LINE
  5
17D
330
2
100
AcDbEntity
  8
0
100
AcDbLine
 10
269.4891863393986
 20
115.8368035544831
 30
0.0
 11
260.9891863393986
 21
115.8368035544831
 31
0.0
  0
LINE
  5
17E
330
2
100
AcDbEntity
  8
0
100
AcDbLine
 10
270.9891863393986
 20
122.8368035544829
 30
0.0
 11
260.9891863393986
 21
122.8368035544829
 31
0.0
  0
LINE
  5
17F
330
2
100
AcDbEntity
  8
0
100
AcDbLine
 10
269.4891863393986
 20
123.8368035544829
 30
0.0
 11
260.9891863393986
 21
123.8368035544829
 31
0.0
  0
LINE
  5
180
330
2
100
AcDbEntity
  8
0
 48
0.6
100
AcDbLine
 10
74.54270945631833
 20
264.6901770180209
 30
0.0
 11
74.54270945631833
 21
204.6901770180209
 31
0.0
  0
ARC
  5
181
330
2
100
AcDbEntity
  8
0
 48
0.6
100
AcDbCircle
 10
62.40806783204971
 20
246.0235695528849
 30
0.0
 40
2.319999999999998
100
AcDbArc
 50
321.9486744806038
 51
26.36567250326923
  0
LINE
  5
182
330
2
100
AcDbEntity
  8
CEN
 48
0.6
100
AcDbLine
 10
39.54270945631833
 20
193.503682222441
 30
0.0
 11
39.54270945631833
 21
318.119748422662
 31
0.0
  0
DIMENSION
  5
183
102
{ACAD_XDICTIONARY
360
184
102
}
102
{ACAD_REACTORS
330
185
102
}
330
2
100
AcDbEntity
  8
0
100
AcDbDimension
  2
*D39
 10
248.8660419102871
 20
200.1901770180209
 30
0.0
 11
248.866041910287
 21
232.5340960279318
 31
0.0
 70
   160
  1
%%C<>
  3
STANDARD
100
AcDbAlignedDimension
 13
225.2053722174096
 23
269.1901770180209
 33
0.0
 14
225.2053722174096
 24
200.1901770180209
 34
0.0
 50
90.0
100
AcDbRotatedDimension
  0
LINE
  5
192
102
{ACAD_REACTORS
330
24F
102
}
330
2
100
AcDbEntity
  8
0
100
AcDbLine
 10
232.2053722174096
 20
266.6901770180209
 30
0.0
 11
232.2053722174096
 21
202.6901770180209
 31
0.0
  0
LINE
  5
193
102
{ACAD_REACTORS
330
185
102
}
330
2
100
AcDbEntity
  8
0
100
AcDbLine
 10
225.2053722174096
 20
200.1901770180209
 30
0.0
 11
225.2053722174096
 21
269.1901770180209
 31
0.0
  0
LINE
  5
194
330
2
100
AcDbEntity
  8
0
100
AcDbLine
 10
231.2053722174096
 20
267.6901770180208
 30
0.0
 11
231.2053722174096
 21
201.6901770180209
 31
0.0
  0
LINE
  5
195
102
{ACAD_REACTORS
330
19B
330
223
102
}
330
2
100
AcDbEntity
  8
0
100
AcDbLine
 10
150.2053722174096
 20
266.6901770180209
 30
0.0
 11
150.2053722174096
 21
202.6901770180209
 31
0.0
  0
LINE
  5
196
330
2
100
AcDbEntity
  8
0
100
AcDbLine
 10
158.3053722174099
 20
269.6901770180208
 30
0.0
 11
158.3053722174099
 21
199.6901770180208
 31
0.0
  0
LINE
  5
197
102
{ACAD_REACTORS
330
24F
330
240
330
214
102
}
330
2
100
AcDbEntity
  8
0
100
AcDbLine
 10
152.2053722174096
 20
269.6901770180208
 30
0.0
 11
152.2053722174096
 21
199.6901770180208
 31
0.0
  0
CIRCLE
  5
198
330
2
100
AcDbEntity
  8
0
 48
0.6
100
AcDbCircle
 10
39.54270945631833
 20
234.6901770180209
 30
0.0
 40
13.0
  0
DIMENSION
  5
199
102
{ACAD_XDICTIONARY
360
19A
102
}
102
{ACAD_REACTORS
330
19B
102
}
330
2
100
AcDbEntity
  8
0
100
AcDbDimension
  2
*D38
 10
125.3479186403874
 20
202.6901770180209
 30
0.0
 11
125.3479186403874
 21
234.6901770180209
 31
0.0
 70
   160
  1
\A1;%%C{\f??|b0|i0|c0|p49;64\H0.7x;\S+0^ -0.030;\H1.429x;(h7)} 
  3
STANDARD
100
AcDbAlignedDimension
 13
150.2053722174096
 23
266.6901770180209
 33
0.0
 14
150.2053722174096
 24
202.6901770180209
 34
0.0
 50
90.0
100
AcDbRotatedDimension
  0
LINE
  5
1A8
330
2
100
AcDbEntity
  8
0
 48
0.6
100
AcDbLine
 10
4.542709456318334
 20
264.6901770180209
 30
0.0
 11
4.542709456318334
 21
204.6901770180209
 31
0.0
  0
ARC
  5
1A9
330
2
100
AcDbEntity
  8
0
 48
0.6
100
AcDbCircle
 10
16.67735108057786
 20
246.0235695528849
 30
0.0
 40
2.319999999999998
100
AcDbArc
 50
153.6343274967307
 51
218.051325519396
  0
CIRCLE
  5
1AA
330
2
100
AcDbEntity
  8
0
 48
0.6
100
AcDbCircle
 10
39.54270945631833
 20
234.6901770180209
 30
0.0
 40
33.5
  0
CIRCLE
  5
1AB
330
2
100
AcDbEntity
  8
0
 48
0.6
100
AcDbCircle
 10
39.54270945631833
 20
234.6901770180209
 30
0.0
 40
32.00000000000005
  0
DIMENSION
  5
1AC
102
{ACAD_XDICTIONARY
360
1AD
102
}
102
{ACAD_REACTORS
330
1AE
102
}
330
2
100
AcDbEntity
  8
0
100
AcDbDimension
  2
*D37
 10
5.82121853741188
 20
211.3693483405266
 30
0.0
 11
98.54938406706525
 21
275.4975230732635
 31
0.0
 70
   163
  1
<>%%P0.5
  3
STANDARD
100
AcDbDiametricDimension
 15
73.2642003752322
 25
258.0110056955344
 35
0.0
 40
0.0
  0
DIMENSION
  5
1BA
102
{ACAD_XDICTIONARY
360
1BB
102
}
102
{ACAD_REACTORS
330
1BC
102
}
330
2
100
AcDbEntity
  8
0
100
AcDbDimension
  2
*D48
 10
174.9925193393992
 20
140.8924080591657
 30
0.0
 11
172.2425193393992
 21
140.8924080591657
 31
0.0
 70
   160
  3
STANDARD
100
AcDbAlignedDimension
 13
169.4925193393992
 23
85.83680455448075
 33
0.0
 14
174.9925193393992
 24
94.53680355448387
 34
0.0
100
AcDbRotatedDimension
  0
DIMENSION
  5
1CB
102
{ACAD_XDICTIONARY
360
1CC
102
}
102
{ACAD_REACTORS
330
1CD
102
}
330
2
100
AcDbEntity
  8
0
100
AcDbDimension
  2
*D47
 10
249.9891863393986
 20
140.8924080591657
 30
0.0
 11
205.8923965821577
 21
140.8924080591657
 31
0.0
 70
   160
  3
STANDARD
100
AcDbAlignedDimension
 13
174.9925193393992
 23
94.53680355448387
 33
0.0
 14
249.9891863393986
 24
125.8368035544829
 34
0.0
100
AcDbRotatedDimension
  0
LINE
  5
1DA
102
{ACAD_REACTORS
330
1BC
330
1CD
102
}
330
2
100
AcDbEntity
  8
0
100
AcDbLine
 10
249.9891863393986
 20
94.53680355448387
 30
0.0
 11
174.9925193393992
 21
94.53680355448387
 31
0.0
  0
LINE
  5
1DB
330
2
100
AcDbEntity
  8
0
100
AcDbLine
 10
247.5174913393984
 20
128.8368035544829
 30
0.0
 11
177.5792823393985
 21
128.8368035544829
 31
0.0
  0
LINE
  5
1DC
330
2
100
AcDbEntity
  8
0
100
AcDbLine
 10
248.1420593393995
 20
87.83680355448314
 30
0.0
 11
175.5925193393995
 21
87.83680355448314
 31
0.0
  0
LINE
  5
1DD
330
2
100
AcDbEntity
  8
0
100
AcDbLine
 10
175.5925193393995
 20
84.43554189601082
 30
0.0
 11
176.4925193393992
 21
84.43554189601082
 31
0.0
  0
LINE
  5
1DE
330
2
100
AcDbEntity
  8
0
100
AcDbLine
 10
169.4925193393992
 20
82.83680455448076
 30
0.0
 11
167.4925193393992
 21
82.83680455448076
 31
0.0
  0
LINE
  5
1DF
102
{ACAD_REACTORS
330
1BC
102
}
330
2
100
AcDbEntity
  8
0
100
AcDbLine
 10
169.4925193393992
 20
85.83680455448075
 30
0.0
 11
175.5925193393995
 21
85.83680455448075
 31
0.0
  0
ARC
  5
1E0
330
2
100
AcDbEntity
  8
0
100
AcDbCircle
 10
233.6091863393994
 20
86.33680355448314
 30
0.0
 40
1.5
100
AcDbArc
 50
90.0
 51
180.0
  0
LINE
  5
1E1
330
2
100
AcDbEntity
  8
0
100
AcDbLine
 10
175.1091863393994
 20
93.83680355448314
 30
0.0
 11
176.1091863393994
 21
87.83680355448314
 31
0.0
  0
LINE
  5
1E2
330
2
100
AcDbEntity
  8
0
100
AcDbLine
 10
175.8091863393983
 20
94.53680355448387
 30
0.0
 11
175.8091863393983
 21
93.83680355448314
 31
0.0
  0
LINE
  5
1E3
330
2
100
AcDbEntity
  8
0
100
AcDbLine
 10
174.9925193393992
 20
94.53680355448387
 30
0.0
 11
177.0802313393996
 21
128.3676005544816
 31
0.0
  0
ARC
  5
1E4
330
2
100
AcDbEntity
  8
0
100
AcDbCircle
 10
177.5792823393985
 20
128.3368035544829
 30
0.0
 40
0.5
100
AcDbArc
 50
90.0
 51
176.4687330000435
  0
LINE
  5
1E5
330
2
100
AcDbEntity
  8
0
100
AcDbLine
 10
249.4925193393992
 20
82.83680455448076
 30
0.0
 11
248.4925193393992
 21
83.83680455448075
 31
0.0
  0
LINE
  5
1E6
330
2
100
AcDbEntity
  8
0
100
AcDbLine
 10
248.4925193393992
 20
83.83680455448075
 30
0.0
 11
242.4925193393992
 21
83.83680455448075
 31
0.0
  0
LINE
  5
1E7
330
2
100
AcDbEntity
  8
0
100
AcDbLine
 10
254.9891863393986
 20
123.8368035544829
 30
0.0
 11
254.9891863393986
 21
97.83680355448314
 31
0.0
  0
LINE
  5
1E8
330
2
100
AcDbEntity
  8
0
100
AcDbLine
 10
260.9891863393986
 20
100.8368035544831
 30
0.0
 11
254.9891863393986
 21
100.8368035544831
 31
0.0
  0
LINE
  5
1E9
330
2
100
AcDbEntity
  8
0
100
AcDbLine
 10
260.9891863393986
 20
101.8368035544831
 30
0.0
 11
254.9891863393986
 21
101.8368035544831
 31
0.0
  0
LINE
  5
1EA
330
2
100
AcDbEntity
  8
0
100
AcDbLine
 10
260.9891863393986
 20
120.8368035544829
 30
0.0
 11
254.9891863393986
 21
120.8368035544829
 31
0.0
  0
LINE
  5
1EB
330
2
100
AcDbEntity
  8
0
100
AcDbLine
 10
260.9891863393986
 20
119.8368035544829
 30
0.0
 11
254.9891863393986
 21
119.8368035544829
 31
0.0
  0
LINE
  5
1EC
330
2
100
AcDbEntity
  8
0
100
AcDbLine
 10
260.9891863393986
 20
123.8368035544829
 30
0.0
 11
260.9891863393986
 21
97.83680355448314
 31
0.0
  0
LINE
  5
1ED
330
2
100
AcDbEntity
  8
0
100
AcDbLine
 10
249.9891863393986
 20
93.83680355448314
 30
0.0
 11
249.1284533393991
 21
88.67240455448381
 31
0.0
  0
ARC
  5
1EE
330
2
100
AcDbEntity
  8
0
100
AcDbCircle
 10
248.6358083393988
 20
126.3368035544829
 30
0.0
 40
0.5
100
AcDbArc
 50
183.3370830000376
 51
270.0
  0
LINE
  5
1EF
102
{ACAD_REACTORS
330
1CD
102
}
330
2
100
AcDbEntity
  8
0
100
AcDbLine
 10
249.9891863393986
 20
125.8368035544829
 30
0.0
 11
248.6358083393988
 21
125.8368035544829
 31
0.0
  0
LINE
  5
1F0
330
2
100
AcDbEntity
  8
0
100
AcDbLine
 10
249.2891863393997
 20
94.53680355448387
 30
0.0
 11
249.2891863393997
 21
93.83680355448314
 31
0.0
  0
LINE
  5
1F1
330
2
100
AcDbEntity
  8
0
100
AcDbLine
 10
249.9891863393986
 20
94.53680355448387
 30
0.0
 11
248.0166443393991
 21
128.3659085544816
 31
0.0
  0
LINE
  5
1F2
102
{ACAD_REACTORS
330
167
102
}
330
2
100
AcDbEntity
  8
0
100
AcDbLine
 10
249.9891863393986
 20
125.8368035544829
 30
0.0
 11
249.9891863393986
 21
94.53680355448387
 31
0.0
  0
LINE
  5
1F3
330
2
100
AcDbEntity
  8
0
100
AcDbLine
 10
254.9891863393986
 20
123.8368035544829
 30
0.0
 11
249.9891863393986
 21
123.8368035544829
 31
0.0
  0
LINE
  5
1F4
330
2
100
AcDbEntity
  8
0
100
AcDbLine
 10
254.9891863393986
 20
118.8368035544817
 30
0.0
 11
249.9891863393986
 21
118.8368035544817
 31
0.0
  0
LINE
  5
1F5
330
2
100
AcDbEntity
  8
0
100
AcDbLine
 10
254.9891863393986
 20
116.3368035544817
 30
0.0
 11
249.9891863393986
 21
116.3368035544817
 31
0.0
  0
LINE
  5
1F6
330
2
100
AcDbEntity
  8
0
100
AcDbLine
 10
254.9891863393986
 20
105.3368035544831
 30
0.0
 11
249.9891863393986
 21
105.3368035544831
 31
0.0
  0
LINE
  5
1F7
330
2
100
AcDbEntity
  8
0
100
AcDbLine
 10
254.9891863393986
 20
102.8368035544817
 30
0.0
 11
249.9891863393986
 21
102.8368035544817
 31
0.0
  0
LINE
  5
1F8
330
2
100
AcDbEntity
  8
0
100
AcDbLine
 10
254.9891863393986
 20
97.83680355448314
 30
0.0
 11
249.9891863393986
 21
97.83680355448314
 31
0.0
  0
ARC
  5
1F9
330
2
100
AcDbEntity
  8
0
100
AcDbCircle
 10
247.5174913393984
 20
128.3368035544829
 30
0.0
 40
0.5
100
AcDbArc
 50
3.337083000037623
 51
90.0
  0
ARC
  5
1FA
330
2
100
AcDbEntity
  8
0
100
AcDbCircle
 10
248.1420594149676
 20
88.83680353820773
 30
0.0
 40
1.0
100
AcDbArc
 50
270.0
 51
350.5376779999607
  0
ARC
  5
1FB
330
2
100
AcDbEntity
  8
0
 48
0.6
100
AcDbCircle
 10
43.47344906235775
 20
77.35597235793284
 30
0.0
 40
2.319999999999998
100
AcDbArc
 50
252.2801918471933
 51
308.0513255194166
  0
ARC
  5
1FC
330
2
100
AcDbEntity
  8
0
 48
0.6
100
AcDbCircle
 10
46.33339253486702
 20
73.70216293021485
 30
0.0
 40
2.319999999999998
100
AcDbArc
 50
63.63432749673076
 51
128.0513255194166
  0
LINE
  5
1FD
330
2
100
AcDbEntity
  8
0
100
AcDbLine
 10
175.5925193393995
 20
76.735541896011
 30
0.0
 11
176.4925193393992
 21
76.735541896011
 31
0.0
  0
LINE
  5
1FE
330
2
100
AcDbEntity
  8
0
100
AcDbLine
 10
232.1091863393994
 20
76.00152189601113
 30
0.0
 11
175.5925193393995
 21
76.00152189600885
 31
0.0
  0
ARC
  5
1FF
330
2
100
AcDbEntity
  8
CEN
 48
0.6
100
AcDbCircle
 10
35.0
 20
50.83680455448803
 30
0.0
 40
41.0
100
AcDbArc
 50
34.15351134747047
 51
55.84648865249334
  0
LINE
  5
200
330
2
100
AcDbEntity
  8
CEN
 48
0.6
100
AcDbLine
 10
60.63262081800894
 20
76.46942537250606
 30
0.0
 11
67.35013523927773
 21
83.18693979378123
 31
0.0
  0
CIRCLE
  5
201
330
2
100
AcDbEntity
  8
0
100
AcDbCircle
 10
63.99137802863697
 20
79.82818258314501
 30
0.0
 40
2.75
  0
LINE
  5
202
330
2
100
AcDbEntity
  8
0
100
AcDbLine
 10
176.4925193393992
 20
76.735541896011
 30
0.0
 11
176.4925193393992
 21
84.43554189601082
 31
0.0
  0
LINE
  5
203
330
2
100
AcDbEntity
  8
0
100
AcDbLine
 10
232.1091863393994
 20
86.33680355448314
 30
0.0
 11
232.1091863393994
 21
76.00152189600885
 31
0.0
  0
ARC
  5
204
330
2
100
AcDbEntity
  8
0
 48
0.6
100
AcDbCircle
 10
66.06187725976815
 20
243.1636260803811
 30
0.0
 40
2.319999999999998
100
AcDbArc
 50
141.9486744806039
 51
197.7198081527659
  0
ARC
  5
205
330
2
100
AcDbEntity
  8
CEN
 48
0.6
100
AcDbCircle
 10
39.54270945631833
 20
234.6901770180199
 30
0.0
 40
41.0
100
AcDbArc
 50
308.3583564286569
 51
321.6416435713429
  0
LINE
  5
206
330
2
100
AcDbEntity
  8
CEN
 48
0.6
100
AcDbLine
 10
65.1753302743291
 20
209.0575562000158
 30
0.0
 11
71.89284469561062
 21
202.340041778745
 31
0.0
  0
CIRCLE
  5
207
330
2
100
AcDbEntity
  8
0
100
AcDbCircle
 10
68.53408748496804
 20
205.6987989893809
 30
0.0
 40
2.75
  0
ARC
  5
208
330
2
100
AcDbEntity
  8
0
 48
0.6
100
AcDbCircle
 10
62.40806783204971
 20
223.3567844831577
 30
0.0
 40
2.319999999999998
100
AcDbArc
 50
333.6343274967308
 51
38.05132551939607
  0
ARC
  5
209
330
2
100
AcDbEntity
  8
0
 48
0.6
100
AcDbCircle
 10
69.54270945631833
 20
204.6901770180209
 30
0.0
 40
5.0
100
AcDbArc
 50
270.0
 51
0.0
  0
ARC
  5
20A
330
2
100
AcDbEntity
  8
0
 48
0.6
100
AcDbCircle
 10
66.06187725976815
 20
226.2167279556617
 30
0.0
 40
2.319999999999998
100
AcDbArc
 50
162.2801918472339
 51
218.051325519396
  0
ARC
  5
20B
330
2
100
AcDbEntity
  8
0
 48
0.6
100
AcDbCircle
 10
39.54270945631833
 20
234.6901770180209
 30
0.0
 40
25.52
100
AcDbArc
 50
342.2801918472341
 51
17.7198081527659
  0
CIRCLE
  5
20C
330
2
100
AcDbEntity
  8
0
 48
0.6
100
AcDbCircle
 10
39.54270945631833
 20
234.6901770180209
 30
0.0
 40
3.000000000000055
  0
CIRCLE
  5
20D
330
2
100
AcDbEntity
  8
0
 48
0.6
100
AcDbCircle
 10
39.54270945631833
 20
234.6901770180209
 30
0.0
 40
2.000000000000055
  0
ARC
  5
20E
330
2
100
AcDbEntity
  8
0
 48
0.6
100
AcDbCircle
 10
50.87610199117808
 20
211.8248186422877
 30
0.0
 40
2.319999999999998
100
AcDbArc
 50
231.9486744805834
 51
296.3656725032691
  0
ARC
  5
20F
330
2
100
AcDbEntity
  8
0
 48
0.6
100
AcDbCircle
 10
48.01615851867791
 20
208.171009214569
 30
0.0
 40
2.319999999999998
100
AcDbArc
 50
51.9486744805834
 51
107.7198081528065
  0
ARC
  5
210
330
2
100
AcDbEntity
  8
0
 48
0.6
100
AcDbCircle
 10
39.54270945631833
 20
234.6901770180209
 30
0.0
 40
27.83999999999998
100
AcDbArc
 50
296.3656725032691
 51
333.6343274967308
  0
LINE
  5
211
330
2
100
AcDbEntity
  8
0
 48
0.6
100
AcDbLine
 10
56.92218956358556
 20
199.6901770180208
 30
0.0
 11
51.18113933706808
 21
199.6901770180208
 31
0.0
  0
DIMENSION
  5
212
102
{ACAD_XDICTIONARY
360
213
102
}
102
{ACAD_REACTORS
330
214
102
}
330
2
100
AcDbEntity
  8
0
100
AcDbDimension
  2
*D46
 10
152.2053722174096
 20
178.080934491722
 30
0.0
 11
145.7053722174095
 21
178.080934491722
 31
0.0
 70
   160
  3
STANDARD
100
AcDbAlignedDimension
 13
139.2053722174096
 23
231.8401770180207
 33
0.0
 14
152.2053722174096
 24
199.6901770180208
 34
0.0
100
AcDbRotatedDimension
  0
DIMENSION
  5
221
102
{ACAD_XDICTIONARY
360
222
102
}
102
{ACAD_REACTORS
330
223
102
}
330
2
100
AcDbEntity
  8
0
100
AcDbDimension
  2
*D45
 10
152.2053722174096
 20
187.7311523417668
 30
0.0
 11
141.2053722174096
 21
187.7311523417668
 31
0.0
 70
   160
  3
STANDARD
100
AcDbAlignedDimension
 13
150.2053722174096
 23
202.6901770180209
 33
0.0
 14
152.2053722174096
 24
199.6901770180208
 34
0.0
100
AcDbRotatedDimension
  0
LINE
  5
232
330
2
100
AcDbEntity
  8
0
100
AcDbLine
 10
139.2053722174096
 20
237.1401770180221
 30
0.0
 11
146.2053722174096
 21
237.1401770180221
 31
0.0
  0
LINE
  5
233
330
2
100
AcDbEntity
  8
0
100
AcDbLine
 10
139.2053722174096
 20
232.2401770180199
 30
0.0
 11
146.2053722174096
 21
232.2401770180199
 31
0.0
  0
LINE
  5
234
330
2
100
AcDbEntity
  8
2
100
AcDbLine
 10
146.2053722174096
 20
235.4554764796428
 30
0.0
 11
140.0376247330277
 21
232.2401770180199
 31
0.0
  0
LINE
  5
235
330
2
100
AcDbEntity
  8
0
100
AcDbLine
 10
139.7053722174095
 20
238.0401770180219
 30
0.0
 11
150.2053722174096
 21
238.0401770180219
 31
0.0
  0
LINE
  5
236
330
2
100
AcDbEntity
  8
CEN
 48
0.6
100
AcDbLine
 10
137.7053722174096
 20
237.5296770180207
 30
0.0
 11
153.2053722174095
 21
237.5296770180207
 31
0.0
  0
LINE
  5
237
330
2
100
AcDbEntity
  8
0
100
AcDbLine
 10
139.7053722174095
 20
231.3401770180207
 30
0.0
 11
150.2053722174096
 21
231.3401770180207
 31
0.0
  0
LINE
  5
238
330
2
100
AcDbEntity
  8
CEN
 48
0.6
100
AcDbLine
 10
137.7053722174096
 20
231.8506770180208
 30
0.0
 11
153.2053722174095
 21
231.8506770180208
 31
0.0
  0
LINE
  5
239
330
2
100
AcDbEntity
  8
CEN
 48
0.6
100
AcDbLine
 10
237.743671144477
 20
234.6901770180209
 30
0.0
 11
134.5782775701773
 21
234.6901770180209
 31
0.0
  0
LINE
  5
23A
330
2
100
AcDbEntity
  8
0
100
AcDbLine
 10
139.7053722174095
 20
238.0401770180219
 30
0.0
 11
139.2053722174096
 21
237.5401770180208
 31
0.0
  0
LINE
  5
23B
102
{ACAD_REACTORS
330
214
102
}
330
2
100
AcDbEntity
  8
0
100
AcDbLine
 10
139.2053722174096
 20
231.8401770180207
 30
0.0
 11
139.7053722174095
 21
231.3401770180207
 31
0.0
  0
LINE
  5
23C
330
2
100
AcDbEntity
  8
0
100
AcDbLine
 10
139.2053722174096
 20
237.5401770180208
 30
0.0
 11
139.2053722174096
 21
231.8506770180208
 31
0.0
  0
LINE
  5
23D
330
2
100
AcDbEntity
  8
2
100
AcDbLine
 10
139.7053722174095
 20
238.0401770180219
 30
0.0
 11
139.7053722174095
 21
231.3401770180207
 31
0.0
  0
DIMENSION
  5
23E
102
{ACAD_XDICTIONARY
360
23F
102
}
102
{ACAD_REACTORS
330
240
102
}
330
2
100
AcDbEntity
  8
0
100
AcDbDimension
  2
*D44
 10
159.2053722174096
 20
187.7311523417668
 30
0.0
 11
155.7053722174096
 21
187.7311523417668
 31
0.0
 70
   160
  3
STANDARD
100
AcDbAlignedDimension
 13
152.2053722174096
 23
199.6901770180208
 33
0.0
 14
159.2053722174096
 24
201.091439676491
 34
0.0
100
AcDbRotatedDimension
  0
DIMENSION
  5
24D
102
{ACAD_XDICTIONARY
360
24E
102
}
102
{ACAD_REACTORS
330
24F
102
}
330
2
100
AcDbEntity
  8
0
100
AcDbDimension
  2
*D43
 10
152.2053722174096
 20
178.080934491722
 30
0.0
 11
191.2143540514498
 21
178.080934491722
 31
0.0
 70
   160
  3
STANDARD
100
AcDbAlignedDimension
 13
232.2053722174096
 23
202.6901770180209
 33
0.0
 14
152.2053722174096
 24
199.6901770180208
 34
0.0
100
AcDbRotatedDimension
  0
LINE
  5
25C
330
2
100
AcDbEntity
  8
0
100
AcDbLine
 10
232.2053722174096
 20
202.6901770180209
 30
0.0
 11
231.2053722174096
 21
201.6901770180209
 31
0.0
  0
LINE
  5
25D
330
2
100
AcDbEntity
  8
0
100
AcDbLine
 10
231.2053722174096
 20
201.6901770180209
 30
0.0
 11
225.2053722174096
 21
201.6901770180209
 31
0.0
  0
LINE
  5
25E
330
2
100
AcDbEntity
  8
0
100
AcDbLine
 10
158.3053722174099
 20
208.7914396764917
 30
0.0
 11
159.2053722174096
 21
208.7914396764917
 31
0.0
  0
LINE
  5
25F
330
2
100
AcDbEntity
  8
0
100
AcDbLine
 10
158.3053722174099
 20
201.091439676491
 30
0.0
 11
159.2053722174096
 21
201.091439676491
 31
0.0
  0
LINE
  5
260
330
2
100
AcDbEntity
  8
0
100
AcDbLine
 10
152.2053722174096
 20
202.6901770180209
 30
0.0
 11
150.2053722174096
 21
202.6901770180209
 31
0.0
  0
LINE
  5
261
330
2
100
AcDbEntity
  8
0
100
AcDbLine
 10
152.2053722174096
 20
199.6901770180208
 30
0.0
 11
158.3053722174099
 21
199.6901770180208
 31
0.0
  0
LINE
  5
262
102
{ACAD_REACTORS
330
240
102
}
330
2
100
AcDbEntity
  8
0
100
AcDbLine
 10
159.2053722174096
 20
208.7914396764917
 30
0.0
 11
159.2053722174096
 21
201.091439676491
 31
0.0
  0
LINE
  5
263
102
{ACAD_REACTORS
330
185
102
}
330
2
100
AcDbEntity
  8
0
100
AcDbLine
 10
225.2053722174096
 20
200.1901770180209
 30
0.0
 11
158.3053722174099
 21
200.1901770180209
 31
0.0
  0
LINE
  5
264
330
2
100
AcDbEntity
  8
0
100
AcDbLine
 10
152.2053722174096
 20
237.5101770180208
 30
0.0
 11
152.2053722174096
 21
231.8701770180207
 31
0.0
  0
LINE
  5
265
330
2
100
AcDbEntity
  8
0
100
AcDbLine
 10
152.2053722174096
 20
237.5101770180208
 30
0.0
 11
152.2053722174096
 21
231.8701770180207
 31
0.0
  0
LINE
  5
266
330
2
100
AcDbEntity
  8
2
100
AcDbLine
 10
146.2053722174096
 20
237.1401770180221
 30
0.0
 11
146.2053722174096
 21
232.2401770180199
 31
0.0
  0
LINE
  5
267
330
2
100
AcDbEntity
  8
2
100
AcDbLine
 10
145.2545001351354
 20
237.1401770180221
 30
0.0
 11
140.2053722174096
 21
234.5894510758569
 31
0.0
  0
LINE
  5
268
330
2
100
AcDbEntity
  8
2
100
AcDbLine
 10
146.2053722174096
 20
236.6101770180207
 30
0.0
 11
140.2053722174096
 21
233.4347505374769
 31
0.0
  0
ARC
  5
269
330
2
100
AcDbEntity
  8
0
100
AcDbCircle
 10
144.7454999519504
 20
267.3226587877159
 30
0.0
 40
30.21776684021192
100
AcDbArc
 50
272.7691355264801
 51
280.4096135785584
  0
ARC
  5
26A
330
2
100
AcDbEntity
  8
0
100
AcDbCircle
 10
144.7454999519504
 20
202.057695248322
 30
0.0
 40
30.21776684021463
100
AcDbArc
 50
79.59038642144166
 51
87.23086447351985
  0
ARC
  5
26B
330
2
100
AcDbEntity
  8
0
 48
0.6
100
AcDbCircle
 10
35.0
 20
50.83680455448075
 30
0.0
 40
25.52
100
AcDbArc
 50
72.28019184719342
 51
107.7198081528065
  0
ARC
  5
26C
330
2
100
AcDbEntity
  8
0
 48
0.6
100
AcDbCircle
 10
39.54270945631833
 20
234.6901770180209
 30
0.0
 40
25.52
100
AcDbArc
 50
252.2801918471933
 51
287.7198081528065
  0
LWPOLYLINE
  5
26D
330
2
100
AcDbEntity
  8
0
 62
   123
100
AcDbPolyline
 90
        4
 70
     1
 43
0.0
 10
33.26656307519988
 20
185.2468601703008
 10
36.56656307519915
 20
185.2468601703008
 10
36.56656307519915
 20
188.7468601702998
 10
33.26656307519988
 20
188.7468601702998
  0
LINE
  5
26E
330
2
100
AcDbEntity
  8
0
100
AcDbLine
 10
20.0
 20
87.83680455448166
 30
0.0
 11
20.0
 21
85.83680455448075
 31
0.0
  0
ARC
  5
26F
330
2
100
AcDbEntity
  8
0
 48
0.6
100
AcDbCircle
 10
23.66660746513662
 20
73.70216293021485
 30
0.0
 40
2.319999999999998
100
AcDbArc
 50
51.9486744805834
 51
116.3656725032691
  0
ARC
  5
270
330
2
100
AcDbEntity
  8
0
 48
0.6
100
AcDbCircle
 10
26.52655093763678
 20
77.35597235793284
 30
0.0
 40
2.319999999999998
100
AcDbArc
 50
231.9486744805834
 51
287.7198081528065
  0
ARC
  5
271
330
2
100
AcDbEntity
  8
0
 48
0.6
100
AcDbCircle
 10
31.06926039395875
 20
208.171009214569
 30
0.0
 40
2.319999999999998
100
AcDbArc
 50
72.28019184719342
 51
128.0513255194166
  0
ARC
  5
272
330
2
100
AcDbEntity
  8
0
 48
0.6
100
AcDbCircle
 10
28.2093169214495
 20
211.8248186422877
 30
0.0
 40
2.319999999999998
100
AcDbArc
 50
243.6343274967307
 51
308.0513255194166
  0
LINE
  5
273
330
2
100
AcDbEntity
  8
0
100
AcDbLine
 10
65.29999999999927
 20
94.53680455448148
 30
0.0
 11
65.29999999999927
 21
93.83680455448075
 31
0.0
  0
LINE
  5
274
102
{ACAD_REACTORS
330
2A4
102
}
330
2
100
AcDbEntity
  8
0
100
AcDbLine
 10
65.57641299999886
 20
88.75375955448181
 30
0.0
 11
66.0
 21
93.83680455448075
 31
0.0
  0
LINE
  5
275
330
2
100
AcDbEntity
  8
0
100
AcDbLine
 10
66.0
 20
94.53680455448148
 30
0.0
 11
64.02745800000047
 21
128.3659095544817
 31
0.0
  0
ARC
  5
276
330
2
100
AcDbEntity
  8
0
100
AcDbCircle
 10
64.5798679999989
 20
88.83680455448075
 30
0.0
 40
1.0
100
AcDbArc
 50
270.0
 51
355.2363579999948
  0
LINE
  5
277
330
2
100
AcDbEntity
  8
0
100
AcDbLine
 10
35.0
 20
128.8368045544807
 30
0.0
 11
63.52830600000015
 21
128.8368045544807
 31
0.0
  0
LINE
  5
278
330
2
100
AcDbEntity
  8
0
100
AcDbLine
 10
62.0
 20
86.83680455448074
 30
0.0
 11
62.0
 21
85.83680455448075
 31
0.0
  0
LINE
  5
279
330
2
100
AcDbEntity
  8
0
100
AcDbLine
 10
50.0
 20
87.83680455448166
 30
0.0
 11
50.0
 21
85.83680455448075
 31
0.0
  0
ARC
  5
27A
330
2
100
AcDbEntity
  8
0
100
AcDbCircle
 10
63.0
 20
86.83680455448074
 30
0.0
 40
1.0
100
AcDbArc
 50
90.0
 51
180.0
  0
ARC
  5
27B
330
2
100
AcDbEntity
  8
0
100
AcDbCircle
 10
63.52830600000015
 20
128.3368045544807
 30
0.0
 40
0.5
100
AcDbArc
 50
3.337083000037623
 51
90.0
  0
LINE
  5
27C
330
2
100
AcDbEntity
  8
0
100
AcDbLine
 10
35.0
 20
93.83680455448075
 30
0.0
 11
66.0
 21
93.83680455448075
 31
0.0
  0
LINE
  5
27D
330
2
100
AcDbEntity
  8
0
100
AcDbLine
 10
50.0
 20
87.83680455448166
 30
0.0
 11
64.5798679999989
 21
87.83680455448166
 31
0.0
  0
ARC
  5
27E
330
2
100
AcDbEntity
  8
0
 48
0.6
100
AcDbCircle
 10
65.0
 20
80.83680455448075
 30
0.0
 40
5.0
100
AcDbArc
 50
0.0
 51
90.0
  0
DIMENSION
  5
27F
330
2
100
AcDbEntity
  8
0
100
AcDbDimension
  2
*D42
 10
82.31934607125007
 20
128.8368045544789
 30
0.0
 11
82.31934607125003
 21
108.9744341104315
 31
0.0
 70
   160
  3
STANDARD
100
AcDbAlignedDimension
 13
65.0
 23
85.83680455448075
 33
0.0
 14
63.52830600000015
 24
128.8368045544789
 34
0.0
 50
90.0
100
AcDbRotatedDimension
  0
LINE
  5
28C
330
2
100
AcDbEntity
  8
0
100
AcDbLine
 10
242.4925193393992
 20
85.33680455448076
 30
0.0
 11
175.5925193393995
 21
85.33680455448076
 31
0.0
  0
LINE
  5
28D
330
2
100
AcDbEntity
  8
0
100
AcDbLine
 10
249.9891863393986
 20
93.83680355448314
 30
0.0
 11
175.1091863393994
 21
93.83680355448314
 31
0.0
  0
MTEXT
  5
28E
102
{ACAD_REACTORS
330
28F
102
}
330
2
100
AcDbEntity
  8
0
 62
     3
100
AcDbMText
 10
86.6424300171675
 20
188.6870500133097
 30
0.0
 40
3.0
 41
0.0
 71
     4
 72
     1
  1
4-%%c5.5 hole
1001
ACAD
1000
MTEXTBEGIN
1070
    73
1070
     1
1070
    44
1040
1.0
1070
    74
1070
     0
1000
MTEXTEND
  0
LEADER
  5
28F
330
2
100
AcDbEntity
  8
0
100
AcDbLeader
  3
STANDARD
 73
     0
 74
     0
 75
     1
 40
3.0
 41
26.65178571428571
 76
     3
 10
69.25043983441901
 20
203.5957234947038
 30
0.0
 10
83.1424300171675
 20
186.1870500133097
 30
0.0
 10
85.6424300171675
 20
186.1870500133097
 30
0.0
340
28E
1001
ACAD
1000
DSTYLE
1002
{
1070
     5
1000

1070
    77
1070
     1
1070
   147
1040
1.0
1070
   342
1005
0
1002
}
  0
ARC
  5
290
330
2
100
AcDbEntity
  8
0
100
AcDbCircle
 10
6.471695000000181
 20
128.3368045544807
 30
0.0
 40
0.5
100
AcDbArc
 50
90.0
 51
176.6629169999623
  0
LINE
  5
291
330
2
100
AcDbEntity
  8
0
100
AcDbLine
 10
8.0
 20
86.83680455448074
 30
0.0
 11
8.0
 21
85.83680455448075
 31
0.0
  0
ARC
  5
292
330
2
100
AcDbEntity
  8
0
100
AcDbCircle
 10
7.0
 20
86.83680455448074
 30
0.0
 40
1.0
100
AcDbArc
 50
0.0
 51
90.0
  0
LINE
  5
293
330
2
100
AcDbEntity
  8
0
100
AcDbLine
 10
4.699999999998908
 20
94.53680455448148
 30
0.0
 11
4.699999999998908
 21
93.83680455448075
 31
0.0
  0
LINE
  5
294
330
2
100
AcDbEntity
  8
0
100
AcDbLine
 10
4.423587999999654
 20
88.75375955448181
 30
0.0
 11
4.0
 21
93.83680455448075
 31
0.0
  0
ARC
  5
295
330
2
100
AcDbEntity
  8
0
100
AcDbCircle
 10
5.420132999999623
 20
88.83680455448075
 30
0.0
 40
1.0
100
AcDbArc
 50
184.7636420000051
 51
270.0
  0
LINE
  5
296
330
2
100
AcDbEntity
  8
0
100
AcDbLine
 10
4.0
 20
94.53680455448148
 30
0.0
 11
5.972542999999859
 21
128.3659095544817
 31
0.0
  0
ARC
  5
297
330
2
100
AcDbEntity
  8
0
 48
0.6
100
AcDbCircle
 10
5.0
 20
80.83680455448075
 30
0.0
 40
5.0
100
AcDbArc
 50
90.0
 51
180.0
  0
CIRCLE
  5
298
330
2
100
AcDbEntity
  8
0
100
AcDbCircle
 10
6.008621971337561
 20
79.82818258312864
 30
0.0
 40
2.75
  0
LINE
  5
299
330
2
100
AcDbEntity
  8
CEN
 48
0.6
100
AcDbLine
 10
9.367379181976502
 20
76.46942537249606
 30
0.0
 11
2.649864760700438
 21
83.18693979376712
 31
0.0
  0
ARC
  5
29A
330
2
100
AcDbEntity
  8
CEN
 48
0.6
100
AcDbCircle
 10
35.0
 20
50.83680455448984
 30
0.0
 40
41.0
100
AcDbArc
 50
128.358356428657
 51
141.6416435713428
  0
ARC
  5
29B
330
2
100
AcDbEntity
  8
0
 48
0.6
100
AcDbCircle
 10
13.02354165286851
 20
243.1636260803811
 30
0.0
 40
2.319999999999998
100
AcDbArc
 50
342.2801918472341
 51
38.05132551939607
  0
LINE
  5
29C
330
2
100
AcDbEntity
  8
CEN
 48
0.6
100
AcDbLine
 10
13.91008863830029
 20
209.057556200006
 30
0.0
 11
7.192574217027868
 21
202.3400417787318
 31
0.0
  0
CIRCLE
  5
29D
330
2
100
AcDbEntity
  8
0
100
AcDbCircle
 10
10.55133142766862
 20
205.6987989893678
 30
0.0
 40
2.75
  0
ARC
  5
29E
330
2
100
AcDbEntity
  8
0
 48
0.6
100
AcDbCircle
 10
16.67735108057786
 20
223.3567844831577
 30
0.0
 40
2.319999999999998
100
AcDbArc
 50
141.9486744806039
 51
206.3656725032691
  0
ARC
  5
29F
330
2
100
AcDbEntity
  8
0
 48
0.6
100
AcDbCircle
 10
9.542709456318334
 20
204.6901770180209
 30
0.0
 40
5.0
100
AcDbArc
 50
180.0
 51
270.0
  0
ARC
  5
2A0
330
2
100
AcDbEntity
  8
0
 48
0.6
100
AcDbCircle
 10
13.02354165286851
 20
226.2167279556617
 30
0.0
 40
2.319999999999998
100
AcDbArc
 50
321.9486744806038
 51
17.7198081527659
  0
ARC
  5
2A1
330
2
100
AcDbEntity
  8
0
 48
0.6
100
AcDbCircle
 10
39.54270945631833
 20
234.6901770180209
 30
0.0
 40
25.52
100
AcDbArc
 50
162.2801918472339
 51
197.7198081527659
  0
DIMENSION
  5
2A2
102
{ACAD_XDICTIONARY
360
2A3
102
}
102
{ACAD_REACTORS
330
2A4
102
}
330
2
100
AcDbEntity
  8
0
100
AcDbDimension
  2
*D41
 10
66.0
 20
141.1287782659358
 30
0.0
 11
35.0
 21
141.1287782659358
 31
0.0
 70
   160
  3
STANDARD
100
AcDbAlignedDimension
 13
4.0
 23
93.83680455448075
 33
0.0
 14
66.0
 24
93.83680455448075
 34
0.0
100
AcDbRotatedDimension
  0
ARC
  5
2B1
330
2
100
AcDbEntity
  8
CEN
 48
0.6
100
AcDbCircle
 10
39.54270945630742
 20
234.6901770180247
 30
0.0
 40
41.0
100
AcDbArc
 50
214.1535113474703
 51
235.8464886524934
  0
LINE
  5
2B2
330
2
100
AcDbEntity
  8
0
100
AcDbLine
 10
35.0
 20
128.8368045544807
 30
0.0
 11
6.471695000000181
 21
128.8368045544807
 31
0.0
  0
LINE
  5
2B3
102
{ACAD_REACTORS
330
2A4
102
}
330
2
100
AcDbEntity
  8
0
100
AcDbLine
 10
35.0
 20
93.83680455448075
 30
0.0
 11
4.0
 21
93.83680455448075
 31
0.0
  0
LINE
  5
2B4
330
2
100
AcDbEntity
  8
0
100
AcDbLine
 10
66.0
 20
94.53680455448148
 30
0.0
 11
4.0
 21
94.53680455448148
 31
0.0
  0
LINE
  5
2B5
330
2
100
AcDbEntity
  8
0
 48
0.6
100
AcDbLine
 10
5.0
 20
85.83680455448075
 30
0.0
 11
65.0
 21
85.83680455448075
 31
0.0
  0
LINE
  5
2B6
330
2
100
AcDbEntity
  8
CEN
 48
0.6
100
AcDbLine
 10
-0.0549252635300945
 20
234.6901770180209
 30
0.0
 11
79.14034417615948
 21
234.6901770180209
 31
0.0
  0
LINE
  5
2B7
330
2
100
AcDbEntity
  8
0
 48
0.6
100
AcDbLine
 10
9.542709456318334
 20
199.6901770180208
 30
0.0
 11
69.54270945631833
 21
199.6901770180208
 31
0.0
  0
DIMENSION
  5
2B8
330
2
100
AcDbEntity
  8
0
100
AcDbDimension
  2
*D40
 10
74.54270945631833
 20
184.4533724635398
 30
0.0
 11
39.76147006014798
 21
184.4533724635398
 31
0.0
 70
   160
  3
STANDARD
100
AcDbAlignedDimension
 13
4.542709456318334
 23
203.6901770180209
 33
0.0
 14
74.54270945631833
 24
203.0514210430778
 34
0.0
100
AcDbRotatedDimension
  0
LINE
  5
2C5
330
2
100
AcDbEntity
  8
0
100
AcDbLine
 10
20.0
 20
87.83680455448166
 30
0.0
 11
5.420132999999623
 21
87.83680455448166
 31
0.0
  0
ARC
  5
2C6
330
2
100
AcDbEntity
  8
0
 48
0.6
100
AcDbCircle
 10
39.54270945631833
 20
234.6901770180209
 30
0.0
 40
27.83999999999998
100
AcDbArc
 50
206.3656725032691
 51
243.6343274967307
  0
CIRCLE
  5
2C7
330
2
100
AcDbEntity
  8
0
100
AcDbCircle
 10
68.53408748495894
 20
263.681555046686
 30
0.0
 40
2.75
  0
LINE
  5
2C8
330
2
100
AcDbEntity
  8
CEN
 48
0.6
100
AcDbLine
 10
65.17533027431818
 20
260.3227978360469
 30
0.0
 11
71.89284469558879
 21
267.040312257322
 31
0.0
  0
ARC
  5
2C9
102
{ACAD_REACTORS
330
1AE
102
}
330
2
100
AcDbEntity
  8
CEN
 48
0.6
100
AcDbCircle
 10
39.54270945631833
 20
234.6901770180279
 30
0.0
 40
41.0
100
AcDbArc
 50
34.15351134747047
 51
55.84648865249334
  0
ARC
  5
2CA
330
2
100
AcDbEntity
  8
0
 48
0.6
100
AcDbCircle
 10
69.54270945631833
 20
264.6901770180209
 30
0.0
 40
5.0
100
AcDbArc
 50
0.0
 51
90.0
  0
ARC
  5
2CB
330
2
100
AcDbEntity
  8
0
100
AcDbCircle
 10
68.07101545631849
 20
312.1901770180209
 30
0.0
 40
0.5
100
AcDbArc
 50
3.337083000037623
 51
90.0
  0
ARC
  5
2CC
330
2
100
AcDbEntity
  8
0
100
AcDbCircle
 10
67.54270945631834
 20
270.6901770180209
 30
0.0
 40
1.0
100
AcDbArc
 50
90.0
 51
180.0
  0
LINE
  5
2CD
330
2
100
AcDbEntity
  8
0
100
AcDbLine
 10
66.54270945631833
 20
270.6901770180209
 30
0.0
 11
66.54270945631833
 21
269.6901770180208
 31
0.0
  0
ARC
  5
2CE
330
2
100
AcDbEntity
  8
0
100
AcDbCircle
 10
69.12257745631723
 20
272.6901770180209
 30
0.0
 40
1.0
100
AcDbArc
 50
270.0
 51
355.2363579999948
  0
LINE
  5
2CF
330
2
100
AcDbEntity
  8
0
100
AcDbLine
 10
70.54270945631833
 20
278.3901770180221
 30
0.0
 11
68.57016745631881
 21
312.219282018023
 31
0.0
  0
LINE
  5
2D0
102
{ACAD_REACTORS
330
36C
102
}
330
2
100
AcDbEntity
  8
0
100
AcDbLine
 10
70.11912245631719
 20
272.6071320180219
 30
0.0
 11
70.54270945631833
 21
277.6901770180209
 31
0.0
  0
LINE
  5
2D1
330
2
100
AcDbEntity
  8
0
100
AcDbLine
 10
69.8427094563176
 20
278.3901770180221
 30
0.0
 11
69.8427094563176
 21
277.6901770180209
 31
0.0
  0
DIMENSION
  5
2D2
330
2
100
AcDbEntity
  8
0
100
AcDbDimension
  2
*D53
 10
86.86205552756844
 20
312.690177018019
 30
0.0
 11
86.86205552756836
 21
292.827806573973
 31
0.0
 70
   160
  3
STANDARD
100
AcDbAlignedDimension
 13
69.54270945631833
 23
269.6901770180208
 33
0.0
 14
68.07101545631849
 24
312.690177018019
 34
0.0
 50
90.0
100
AcDbRotatedDimension
  0
ARC
  5
2DF
330
2
100
AcDbEntity
  8
0
 48
0.6
100
AcDbCircle
 10
50.87610199117808
 20
257.5555353937538
 30
0.0
 40
2.319999999999998
100
AcDbArc
 50
63.63432749673076
 51
128.0513255194166
  0
ARC
  5
2E0
330
2
100
AcDbEntity
  8
0
 48
0.6
100
AcDbCircle
 10
48.01615851867791
 20
261.2093448214729
 30
0.0
 40
2.319999999999998
100
AcDbArc
 50
252.2801918471933
 51
308.0513255194166
  0
LINE
  5
2E1
330
2
100
AcDbEntity
  8
0
100
AcDbLine
 10
54.54270945631833
 20
271.6901770180208
 30
0.0
 11
54.54270945631833
 21
269.6901770180208
 31
0.0
  0
ARC
  5
2E2
330
2
100
AcDbEntity
  8
0
 48
0.6
100
AcDbCircle
 10
39.54270945631833
 20
234.6901770180209
 30
0.0
 40
27.83999999999998
100
AcDbArc
 50
26.36567250326923
 51
63.63432749673076
  0
LINE
  5
2E3
330
2
100
AcDbEntity
  8
0
100
AcDbLine
 10
54.54270945631833
 20
271.6901770180208
 30
0.0
 11
69.12257745631723
 21
271.6901770180208
 31
0.0
  0
LINE
  5
2E4
330
2
100
AcDbEntity
  8
0
100
AcDbLine
 10
39.54270945631833
 20
277.6901770180209
 30
0.0
 11
70.54270945631833
 21
277.6901770180209
 31
0.0
  0
LINE
  5
2E5
330
2
100
AcDbEntity
  8
0
100
AcDbLine
 10
39.54270945631833
 20
312.6901770180209
 30
0.0
 11
68.07101545631849
 21
312.6901770180209
 31
0.0
  0
DIMENSION
  5
2E6
102
{ACAD_XDICTIONARY
360
2E7
102
}
102
{ACAD_REACTORS
330
2E8
102
}
330
2
100
AcDbEntity
  8
0
100
AcDbDimension
  2
*D52
 10
260.702039217409
 20
324.7292095021951
 30
0.0
 11
246.702039217409
 21
324.7292095021951
 31
0.0
 70
   160
  1
MAX. <>
  3
STANDARD
100
AcDbAlignedDimension
 13
232.702039217409
 23
309.690176018023
 33
0.0
 14
260.702039217409
 24
301.690176018023
 34
0.0
100
AcDbRotatedDimension
  0
LINE
  5
2F5
330
2
100
AcDbEntity
  8
0
100
AcDbLine
 10
243.702039217409
 20
284.690176018023
 30
0.0
 11
237.702039217409
 21
284.690176018023
 31
0.0
  0
LINE
  5
2F6
330
2
100
AcDbEntity
  8
0
100
AcDbLine
 10
243.702039217409
 20
285.690176018023
 30
0.0
 11
237.702039217409
 21
285.690176018023
 31
0.0
  0
LINE
  5
2F7
330
2
100
AcDbEntity
  8
0
100
AcDbLine
 10
243.702039217409
 20
304.6901760180221
 30
0.0
 11
237.702039217409
 21
304.6901760180221
 31
0.0
  0
LINE
  5
2F8
330
2
100
AcDbEntity
  8
0
100
AcDbLine
 10
243.702039217409
 20
303.690176018023
 30
0.0
 11
237.702039217409
 21
303.690176018023
 31
0.0
  0
LINE
  5
2F9
330
2
100
AcDbEntity
  8
CEN
 48
0.6
100
AcDbLine
 10
266.4858332174099
 20
294.690176018023
 30
0.0
 11
155.2767302643278
 21
294.690176018023
 31
0.0
  0
DIMENSION
  5
2FA
102
{ACAD_XDICTIONARY
360
2FB
102
}
102
{ACAD_REACTORS
330
2FC
102
}
330
2
100
AcDbEntity
  8
0
100
AcDbDimension
  2
*D51
 10
232.702039217409
 20
324.7457805227059
 30
0.0
 11
188.6052494601681
 21
324.7457805227059
 31
0.0
 70
   160
  3
STANDARD
100
AcDbAlignedDimension
 13
157.7053722174096
 23
278.3901760180228
 33
0.0
 14
232.702039217409
 24
309.690176018023
 34
0.0
100
AcDbRotatedDimension
  0
DIMENSION
  5
309
102
{ACAD_XDICTIONARY
360
30A
102
}
102
{ACAD_REACTORS
330
30B
102
}
330
2
100
AcDbEntity
  8
0
100
AcDbDimension
  2
*D50
 10
157.7053722174096
 20
324.7457805227059
 30
0.0
 11
154.9553722174096
 21
324.7457805227059
 31
0.0
 70
   160
  3
STANDARD
100
AcDbAlignedDimension
 13
152.2053722174096
 23
269.6901770180208
 33
0.0
 14
157.7053722174096
 24
278.3901760180228
 34
0.0
100
AcDbRotatedDimension
  0
ARC
  5
31A
330
2
100
AcDbEntity
  8
0
100
AcDbCircle
 10
230.854912292978
 20
272.6901760017478
 30
0.0
 40
1.0
100
AcDbArc
 50
270.0
 51
350.5376779999607
  0
LINE
  5
31B
330
2
100
AcDbEntity
  8
0
100
AcDbLine
 10
230.8549122174099
 20
271.690176018023
 30
0.0
 11
158.8220392174098
 21
271.6901760180208
 31
0.0
  0
ARC
  5
31C
330
2
100
AcDbEntity
  8
0
100
AcDbCircle
 10
216.3220392174098
 20
270.190176018023
 30
0.0
 40
1.5
100
AcDbArc
 50
90.0
 51
180.0
  0
LINE
  5
31D
330
2
100
AcDbEntity
  8
0
100
AcDbLine
 10
173.8220392174098
 20
271.690176018023
 30
0.0
 11
173.8220392174098
 21
269.1901770180209
 31
0.0
  0
LINE
  5
31E
330
2
100
AcDbEntity
  8
0
100
AcDbLine
 10
230.2303442174088
 20
312.690176018023
 30
0.0
 11
160.2921352174089
 21
312.690176018023
 31
0.0
  0
LINE
  5
31F
102
{ACAD_REACTORS
330
30B
330
2FC
102
}
330
2
100
AcDbEntity
  8
0
100
AcDbLine
 10
232.702039217409
 20
278.3901760180228
 30
0.0
 11
157.7053722174096
 21
278.3901760180228
 31
0.0
  0
LINE
  5
320
330
2
100
AcDbEntity
  8
0
100
AcDbLine
 10
232.702039217409
 20
277.690176018023
 30
0.0
 11
157.8220392174098
 21
277.690176018023
 31
0.0
  0
LINE
  5
321
330
2
100
AcDbEntity
  8
0
100
AcDbLine
 10
237.702039217409
 20
281.690176018023
 30
0.0
 11
232.702039217409
 21
281.690176018023
 31
0.0
  0
LINE
  5
322
330
2
100
AcDbEntity
  8
0
100
AcDbLine
 10
237.702039217409
 20
286.6901760180221
 30
0.0
 11
232.702039217409
 21
286.6901760180221
 31
0.0
  0
LINE
  5
323
330
2
100
AcDbEntity
  8
0
100
AcDbLine
 10
237.702039217409
 20
289.190176018023
 30
0.0
 11
232.702039217409
 21
289.190176018023
 31
0.0
  0
LINE
  5
324
330
2
100
AcDbEntity
  8
0
100
AcDbLine
 10
237.702039217409
 20
300.190176018023
 30
0.0
 11
232.702039217409
 21
300.190176018023
 31
0.0
  0
LINE
  5
325
330
2
100
AcDbEntity
  8
0
100
AcDbLine
 10
237.702039217409
 20
302.690176018023
 30
0.0
 11
232.702039217409
 21
302.690176018023
 31
0.0
  0
LINE
  5
326
330
2
100
AcDbEntity
  8
0
100
AcDbLine
 10
237.702039217409
 20
307.690176018023
 30
0.0
 11
232.702039217409
 21
307.690176018023
 31
0.0
  0
LINE
  5
327
330
2
100
AcDbEntity
  8
0
100
AcDbLine
 10
237.702039217409
 20
307.690176018023
 30
0.0
 11
237.702039217409
 21
281.690176018023
 31
0.0
  0
LINE
  5
328
102
{ACAD_REACTORS
330
2E8
102
}
330
2
100
AcDbEntity
  8
0
100
AcDbLine
 10
232.702039217409
 20
309.690176018023
 30
0.0
 11
232.702039217409
 21
278.3901760180228
 31
0.0
  0
LINE
  5
329
330
2
100
AcDbEntity
  8
0
100
AcDbLine
 10
232.702039217409
 20
278.3901760180228
 30
0.0
 11
230.7294972174095
 21
312.2192810180219
 31
0.0
  0
LINE
  5
32A
330
2
100
AcDbEntity
  8
0
100
AcDbLine
 10
232.702039217409
 20
277.690176018023
 30
0.0
 11
231.8413062174095
 21
272.525777018023
 31
0.0
  0
LINE
  5
32B
330
2
100
AcDbEntity
  8
0
100
AcDbLine
 10
232.0020392174101
 20
278.3901760180228
 30
0.0
 11
232.0020392174101
 21
277.690176018023
 31
0.0
  0
LINE
  5
32C
102
{ACAD_REACTORS
330
2FC
102
}
330
2
100
AcDbEntity
  8
0
100
AcDbLine
 10
232.702039217409
 20
309.690176018023
 30
0.0
 11
231.3486612174092
 21
309.690176018023
 31
0.0
  0
ARC
  5
32D
330
2
100
AcDbEntity
  8
0
100
AcDbCircle
 10
231.3486612174092
 20
310.190176018023
 30
0.0
 40
0.5
100
AcDbArc
 50
183.3370830000376
 51
270.0
  0
ARC
  5
32E
330
2
100
AcDbEntity
  8
0
100
AcDbCircle
 10
230.2303442174088
 20
312.190176018023
 30
0.0
 40
0.5
100
AcDbArc
 50
3.337083000037623
 51
90.0
  0
LINE
  5
32F
330
2
100
AcDbEntity
  8
0
100
AcDbLine
 10
157.8220392174098
 20
277.690176018023
 30
0.0
 11
158.8220392174098
 21
271.690176018023
 31
0.0
  0
LINE
  5
330
330
2
100
AcDbEntity
  8
0
100
AcDbLine
 10
157.7053722174096
 20
278.3901760180228
 30
0.0
 11
159.79308421741
 21
312.220973018022
 31
0.0
  0
LINE
  5
331
330
2
100
AcDbEntity
  8
0
100
AcDbLine
 10
158.5220392174087
 20
278.3901760180228
 30
0.0
 11
158.5220392174087
 21
277.690176018023
 31
0.0
  0
ARC
  5
332
330
2
100
AcDbEntity
  8
0
100
AcDbCircle
 10
160.2921352174089
 20
312.190176018023
 30
0.0
 40
0.5
100
AcDbArc
 50
90.0
 51
176.4687330000435
  0
LINE
  5
333
330
2
100
AcDbEntity
  8
0
100
AcDbLine
 10
232.2053722174096
 20
266.6901770180209
 30
0.0
 11
231.2053722174096
 21
267.6901770180208
 31
0.0
  0
LINE
  5
334
330
2
100
AcDbEntity
  8
0
100
AcDbLine
 10
231.2053722174096
 20
267.6901770180208
 30
0.0
 11
225.2053722174096
 21
267.6901770180208
 31
0.0
  0
LINE
  5
335
330
2
100
AcDbEntity
  8
0
100
AcDbLine
 10
158.3053722174099
 20
268.2889143595509
 30
0.0
 11
159.2053722174096
 21
268.2889143595509
 31
0.0
  0
LINE
  5
336
330
2
100
AcDbEntity
  8
0
100
AcDbLine
 10
152.2053722174096
 20
266.6901770180209
 30
0.0
 11
150.2053722174096
 21
266.6901770180209
 31
0.0
  0
LINE
  5
337
102
{ACAD_REACTORS
330
30B
102
}
330
2
100
AcDbEntity
  8
0
100
AcDbLine
 10
152.2053722174096
 20
269.6901770180208
 30
0.0
 11
158.3053722174099
 21
269.6901770180208
 31
0.0
  0
LINE
  5
338
330
2
100
AcDbEntity
  8
0
100
AcDbLine
 10
225.2053722174096
 20
269.1901770180209
 30
0.0
 11
158.3053722174099
 21
269.1901770180209
 31
0.0
  0
LINE
  5
339
102
{ACAD_REACTORS
330
2E8
102
}
330
2
100
AcDbEntity
  8
0
100
AcDbLine
 10
260.702039217409
 20
301.690176018023
 30
0.0
 11
260.702039217409
 21
287.690176018023
 31
0.0
  0
ARC
  5
33A
330
2
100
AcDbEntity
  8
0
100
AcDbCircle
 10
244.6187062174085
 20
306.690176018023
 30
0.0
 40
9.083332999999999
100
AcDbArc
 50
326.6015119999376
 51
0.0
  0
LINE
  5
33B
330
2
100
AcDbEntity
  8
0
100
AcDbLine
 10
253.702039217409
 20
306.690176018023
 30
0.0
 11
253.702039217409
 21
282.690176018023
 31
0.0
  0
LINE
  5
33C
330
2
100
AcDbEntity
  8
0
100
AcDbLine
 10
243.702039217409
 20
307.690176018023
 30
0.0
 11
243.702039217409
 21
281.690176018023
 31
0.0
  0
LINE
  5
33D
330
2
100
AcDbEntity
  8
0
100
AcDbLine
 10
252.202039217409
 20
289.6901760180231
 30
0.0
 11
252.202039217409
 21
287.690176018023
 31
0.0
  0
LINE
  5
33E
330
2
100
AcDbEntity
  8
0
100
AcDbLine
 10
252.6197652174086
 20
286.9901760180221
 30
0.0
 11
243.702039217409
 21
286.9901760180221
 31
0.0
  0
LINE
  5
33F
330
2
100
AcDbEntity
  8
0
100
AcDbLine
 10
252.202039217409
 20
287.690176018023
 30
0.0
 11
243.702039217409
 21
287.690176018023
 31
0.0
  0
LINE
  5
340
330
2
100
AcDbEntity
  8
0
100
AcDbLine
 10
253.702039217409
 20
282.690176018023
 30
0.0
 11
243.702039217409
 21
282.690176018023
 31
0.0
  0
LINE
  5
341
330
2
100
AcDbEntity
  8
0
100
AcDbLine
 10
252.202039217409
 20
281.690176018023
 30
0.0
 11
243.702039217409
 21
281.690176018023
 31
0.0
  0
ARC
  5
342
330
2
100
AcDbEntity
  8
0
100
AcDbCircle
 10
244.6187062174085
 20
282.690176018023
 30
0.0
 40
9.083332999999999
100
AcDbArc
 50
0.0
 51
33.39848800006242
  0
LINE
  5
343
330
2
100
AcDbEntity
  8
0
100
AcDbLine
 10
254.702039217409
 20
282.690176018023
 30
0.0
 11
253.702039217409
 21
282.690176018023
 31
0.0
  0
LINE
  5
344
330
2
100
AcDbEntity
  8
0
100
AcDbLine
 10
252.202039217409
 20
281.690176018023
 30
0.0
 11
253.702039217409
 21
282.690176018023
 31
0.0
  0
ARC
  5
345
330
2
100
AcDbEntity
  8
0
100
AcDbCircle
 10
244.6187062174085
 20
294.690176018023
 30
0.0
 40
9.083332999999999
100
AcDbArc
 50
326.6015119999376
 51
33.39848800006242
  0
LINE
  5
346
330
2
100
AcDbEntity
  8
0
100
AcDbLine
 10
253.00064721741
 20
291.190176018023
 30
0.0
 11
243.702039217409
 21
291.190176018023
 31
0.0
  0
LINE
  5
347
330
2
100
AcDbEntity
  8
0
100
AcDbLine
 10
252.202039217409
 20
289.6901760180231
 30
0.0
 11
243.702039217409
 21
289.6901760180231
 31
0.0
  0
LINE
  5
348
330
2
100
AcDbEntity
  8
0
100
AcDbLine
 10
253.00064721741
 20
298.190176018023
 30
0.0
 11
243.702039217409
 21
298.190176018023
 31
0.0
  0
LINE
  5
349
330
2
100
AcDbEntity
  8
0
100
AcDbLine
 10
252.6197652174086
 20
302.3901760180228
 30
0.0
 11
243.702039217409
 21
302.3901760180228
 31
0.0
  0
LINE
  5
34A
330
2
100
AcDbEntity
  8
0
100
AcDbLine
 10
252.202039217409
 20
301.690176018023
 30
0.0
 11
243.702039217409
 21
301.690176018023
 31
0.0
  0
LINE
  5
34B
330
2
100
AcDbEntity
  8
0
100
AcDbLine
 10
252.202039217409
 20
299.6901760180221
 30
0.0
 11
243.702039217409
 21
299.6901760180221
 31
0.0
  0
LINE
  5
34C
330
2
100
AcDbEntity
  8
0
100
AcDbLine
 10
252.202039217409
 20
301.690176018023
 30
0.0
 11
252.202039217409
 21
299.6901760180221
 31
0.0
  0
LINE
  5
34D
330
2
100
AcDbEntity
  8
0
100
AcDbLine
 10
253.702039217409
 20
306.690176018023
 30
0.0
 11
243.702039217409
 21
306.690176018023
 31
0.0
  0
LINE
  5
34E
330
2
100
AcDbEntity
  8
0
100
AcDbLine
 10
252.202039217409
 20
307.690176018023
 30
0.0
 11
243.702039217409
 21
307.690176018023
 31
0.0
  0
LINE
  5
34F
330
2
100
AcDbEntity
  8
0
100
AcDbLine
 10
254.702039217409
 20
306.690176018023
 30
0.0
 11
253.702039217409
 21
306.690176018023
 31
0.0
  0
LINE
  5
350
330
2
100
AcDbEntity
  8
0
100
AcDbLine
 10
252.202039217409
 20
307.690176018023
 30
0.0
 11
253.702039217409
 21
306.690176018023
 31
0.0
  0
ARC
  5
351
330
2
100
AcDbEntity
  8
0
100
AcDbCircle
 10
254.202039217409
 20
299.9901760180221
 30
0.0
 40
6.718630999999999
100
AcDbArc
 50
14.65675100003822
 51
85.7321070000504
  0
ARC
  5
352
330
2
100
AcDbEntity
  8
0
100
AcDbCircle
 10
254.202039217409
 20
289.3901760180229
 30
0.0
 40
6.718630999999999
100
AcDbArc
 50
274.2678929999494
 51
345.3432489999617
  0
LINE
  5
353
330
2
100
AcDbEntity
  8
0
100
AcDbLine
 10
214.8220392174098
 20
259.854894359551
 30
0.0
 11
158.3053722174099
 21
259.8548943595488
 31
0.0
  0
LINE
  5
354
330
2
100
AcDbEntity
  8
0
100
AcDbLine
 10
158.3053722174099
 20
260.5889143595498
 30
0.0
 11
159.2053722174096
 21
260.5889143595498
 31
0.0
  0
LINE
  5
355
330
2
100
AcDbEntity
  8
0
100
AcDbLine
 10
214.8220392174098
 20
270.190176018023
 30
0.0
 11
214.8220392174098
 21
259.8548943595488
 31
0.0
  0
LINE
  5
356
330
2
100
AcDbEntity
  8
0
100
AcDbLine
 10
159.2053722174096
 20
260.5889143595498
 30
0.0
 11
159.2053722174096
 21
268.2889143595509
 31
0.0
  0
ARC
  5
357
330
2
100
AcDbEntity
  8
0
 48
0.6
100
AcDbCircle
 10
39.54270945631833
 20
234.6901770180209
 30
0.0
 40
25.52
100
AcDbArc
 50
72.28019184719342
 51
107.7198081528065
  0
ARC
  5
358
330
2
100
AcDbEntity
  8
0
 48
0.6
100
AcDbCircle
 10
31.06926039395875
 20
261.2093448214729
 30
0.0
 40
2.319999999999998
100
AcDbArc
 50
231.9486744805834
 51
287.7198081528065
  0
ARC
  5
359
330
2
100
AcDbEntity
  8
0
 48
0.6
100
AcDbCircle
 10
28.2093169214495
 20
257.5555353937538
 30
0.0
 40
2.319999999999998
100
AcDbArc
 50
51.9486744805834
 51
116.3656725032691
  0
LINE
  5
35A
330
2
100
AcDbEntity
  8
0
100
AcDbLine
 10
24.54270945631833
 20
271.6901770180208
 30
0.0
 11
24.54270945631833
 21
269.6901770180208
 31
0.0
  0
ARC
  5
35B
330
2
100
AcDbEntity
  8
CEN
 48
0.6
100
AcDbCircle
 10
39.54270945630742
 20
234.6901770180299
 30
0.0
 40
41.0
100
AcDbArc
 50
128.358356428657
 51
141.6416435713428
  0
LINE
  5
35C
330
2
100
AcDbEntity
  8
CEN
 48
0.6
100
AcDbLine
 10
13.91008863828756
 20
260.3227978360378
 30
0.0
 11
7.192574217018773
 21
267.0403122573079
 31
0.0
  0
CIRCLE
  5
35D
330
2
100
AcDbEntity
  8
0
100
AcDbCircle
 10
10.55133142764862
 20
263.6815550466697
 30
0.0
 40
2.75
  0
ARC
  5
35E
330
2
100
AcDbEntity
  8
0
 48
0.6
100
AcDbCircle
 10
9.542709456318334
 20
264.6901770180209
 30
0.0
 40
5.0
100
AcDbArc
 50
90.0
 51
180.0
  0
LINE
  5
35F
330
2
100
AcDbEntity
  8
0
100
AcDbLine
 10
8.542709456318334
 20
278.3901770180221
 30
0.0
 11
10.51525245631819
 21
312.219282018023
 31
0.0
  0
ARC
  5
360
330
2
100
AcDbEntity
  8
0
100
AcDbCircle
 10
9.962842456317957
 20
272.6901770180209
 30
0.0
 40
1.0
100
AcDbArc
 50
184.7636420000051
 51
270.0
  0
LINE
  5
361
330
2
100
AcDbEntity
  8
0
100
AcDbLine
 10
8.966297456317988
 20
272.6071320180219
 30
0.0
 11
8.542709456318334
 21
277.6901770180209
 31
0.0
  0
LINE
  5
362
330
2
100
AcDbEntity
  8
0
100
AcDbLine
 10
9.242709456317243
 20
278.3901770180221
 30
0.0
 11
9.242709456317243
 21
277.6901770180209
 31
0.0
  0
ARC
  5
363
330
2
100
AcDbEntity
  8
0
100
AcDbCircle
 10
11.54270945631833
 20
270.6901770180209
 30
0.0
 40
1.0
100
AcDbArc
 50
0.0
 51
90.0
  0
LINE
  5
364
330
2
100
AcDbEntity
  8
0
100
AcDbLine
 10
12.54270945631833
 20
270.6901770180209
 30
0.0
 11
12.54270945631833
 21
269.6901770180208
 31
0.0
  0
ARC
  5
365
330
2
100
AcDbEntity
  8
0
100
AcDbCircle
 10
11.01440445631851
 20
312.1901770180209
 30
0.0
 40
0.5
100
AcDbArc
 50
90.0
 51
176.6629169999623
  0
LINE
  5
366
102
{ACAD_REACTORS
330
36C
102
}
330
2
100
AcDbEntity
  8
0
100
AcDbLine
 10
39.54270945631833
 20
277.6901770180209
 30
0.0
 11
8.542709456318334
 21
277.6901770180209
 31
0.0
  0
LINE
  5
367
330
2
100
AcDbEntity
  8
0
100
AcDbLine
 10
39.54270945631833
 20
312.6901770180209
 30
0.0
 11
11.01440445631851
 21
312.6901770180209
 31
0.0
  0
LINE
  5
368
330
2
100
AcDbEntity
  8
0
 48
0.6
100
AcDbLine
 10
9.542709456318334
 20
269.6901770180208
 30
0.0
 11
69.54270945631833
 21
269.6901770180208
 31
0.0
  0
LINE
  5
369
330
2
100
AcDbEntity
  8
0
100
AcDbLine
 10
70.54270945631833
 20
278.3901770180221
 30
0.0
 11
8.542709456318334
 21
278.3901770180221
 31
0.0
  0
DIMENSION
  5
36A
102
{ACAD_XDICTIONARY
360
36B
102
}
102
{ACAD_REACTORS
330
36C
102
}
330
2
100
AcDbEntity
  8
0
100
AcDbDimension
  2
*D49
 10
70.54270945631833
 20
324.9821507294759
 30
0.0
 11
39.54270945631833
 21
324.9821507294759
 31
0.0
 70
   160
  3
STANDARD
100
AcDbAlignedDimension
 13
8.542709456318334
 23
277.6901770180209
 33
0.0
 14
70.54270945631833
 24
277.6901770180209
 34
0.0
100
AcDbRotatedDimension
  0
ARC
  5
379
330
2
100
AcDbEntity
  8
0
 48
0.6
100
AcDbCircle
 10
39.54270945631833
 20
234.6901770180209
 30
0.0
 40
27.83999999999998
100
AcDbArc
 50
116.3656725032691
 51
153.6343274967307
  0
LINE
  5
37A
330
2
100
AcDbEntity
  8
0
100
AcDbLine
 10
24.54270945631833
 20
271.6901770180208
 30
0.0
 11
9.962842456317957
 21
271.6901770180208
 31
0.0
  0
LINE
  5
37B
102
{ACAD_REACTORS
330
167
102
}
330
2
100
AcDbEntity
  8
0
100
AcDbLine
 10
277.9891863393986
 20
117.8368035544831
 30
0.0
 11
277.9891863393986
 21
103.8368035544831
 31
0.0
  0
ARC
  5
37C
330
2
100
AcDbEntity
  8
0
100
AcDbCircle
 10
261.9058533393981
 20
122.8368035544829
 30
0.0
 40
9.083332999999999
100
AcDbArc
 50
326.6015119999376
 51
0.0
  0
LINE
  5
37D
330
2
100
AcDbEntity
  8
0
100
AcDbLine
 10
270.9891863393986
 20
122.8368035544829
 30
0.0
 11
270.9891863393986
 21
98.83680355448177
 31
0.0
  0
LINE
  5
37E
330
2
100
AcDbEntity
  8
0
100
AcDbLine
 10
269.4891863393986
 20
105.8368035544831
 30
0.0
 11
269.4891863393986
 21
103.8368035544831
 31
0.0
  0
ARC
  5
37F
330
2
100
AcDbEntity
  8
0
100
AcDbCircle
 10
261.9058533393981
 20
98.83680355448177
 30
0.0
 40
9.083332999999999
100
AcDbArc
 50
0.0
 51
33.39848800006242
  0
LINE
  5
380
330
2
100
AcDbEntity
  8
0
100
AcDbLine
 10
271.9891863393986
 20
98.83680355448177
 30
0.0
 11
270.9891863393986
 21
98.83680355448177
 31
0.0
  0
LINE
  5
381
330
2
100
AcDbEntity
  8
0
100
AcDbLine
 10
269.4891863393986
 20
97.83680355448314
 30
0.0
 11
270.9891863393986
 21
98.83680355448177
 31
0.0
  0
ARC
  5
382
330
2
100
AcDbEntity
  8
0
100
AcDbCircle
 10
261.9058533393981
 20
110.8368035544831
 30
0.0
 40
9.083332999999999
100
AcDbArc
 50
326.6015119999376
 51
33.39848800006242
  0
LINE
  5
383
330
2
100
AcDbEntity
  8
0
100
AcDbLine
 10
269.4891863393986
 20
117.8368035544831
 30
0.0
 11
269.4891863393986
 21
115.8368035544831
 31
0.0
  0
LINE
  5
384
330
2
100
AcDbEntity
  8
0
100
AcDbLine
 10
271.9891863393986
 20
122.8368035544829
 30
0.0
 11
270.9891863393986
 21
122.8368035544829
 31
0.0
  0
LINE
  5
385
330
2
100
AcDbEntity
  8
0
100
AcDbLine
 10
269.4891863393986
 20
123.8368035544829
 30
0.0
 11
270.9891863393986
 21
122.8368035544829
 31
0.0
  0
ARC
  5
386
330
2
100
AcDbEntity
  8
0
100
AcDbCircle
 10
271.4891863393986
 20
116.1368035544815
 30
0.0
 40
6.718630999999999
100
AcDbArc
 50
14.65675100003822
 51
85.7321070000504
  0
ARC
  5
387
330
2
100
AcDbEntity
  8
0
100
AcDbCircle
 10
271.4891863393986
 20
105.5368035544829
 30
0.0
 40
6.718630999999999
100
AcDbArc
 50
274.2678929999494
 51
345.3432489999617
  0
ENDSEC
  0
SECTION
  2
OBJECTS
  0
DICTIONARY
  5
9
330
0
100
AcDbDictionary
  3
ACAD_GROUP
350
98
  3
ACAD_LAYOUT
350
D
  3
ACAD_MLINESTYLE
350
99
  3
ACAD_PLOTSETTINGS
350
9A
  3
ACAD_PLOTSTYLENAME
350
8
  3
ACDBHEADERROUNDTRIPXREC
350
4E5
  3
ACDBVARIABLEDICTIONARY
350
388
  0
DICTIONARY
  5
15
330
14
100
AcDbDictionary
280
     1
  3
ACAD_LAYERFILTERS
360
16
  3
ACAD_LAYERSTATES
360
89
  0
DICTIONARY
  5
3
330
2
100
AcDbDictionary
280
     1
  3
ACAD_LAYOUTSELFREF
360
506
  0
DICTIONARY
  5
F
330
E
100
AcDbDictionary
280
     1
  3
ACAD_LAYOUTSELFREF
360
507
  0
DICTIONARY
  5
9E
330
9D
100
AcDbDictionary
280
     1
  3
ACAD_DIMASSOC
360
9F
  0
DICTIONARY
  5
CA
330
C9
100
AcDbDictionary
280
     1
  3
ACAD_DIMASSOC
360
CB
  0
DICTIONARY
  5
D9
330
D8
100
AcDbDictionary
280
     1
  3
ACAD_DIMASSOC
360
DA
  0
DICTIONARY
  5
E8
330
E7
100
AcDbDictionary
280
     1
  3
ACAD_DIMASSOC
360
E9
  0
DICTIONARY
  5
F7
330
F6
100
AcDbDictionary
280
     1
  3
ACAD_DIMASSOC
360
F8
  0
DICTIONARY
  5
13B
330
13A
100
AcDbDictionary
280
     1
  3
ACAD_DIMASSOC
360
13C
  0
DICTIONARY
  5
166
330
165
100
AcDbDictionary
280
     1
  3
ACAD_DIMASSOC
360
167
  0
DICTIONARY
  5
184
330
183
100
AcDbDictionary
280
     1
  3
ACAD_DIMASSOC
360
185
  0
DICTIONARY
  5
19A
330
199
100
AcDbDictionary
280
     1
  3
ACAD_DIMASSOC
360
19B
  0
DICTIONARY
  5
1AD
330
1AC
100
AcDbDictionary
280
     1
  3
ACAD_DIMASSOC
360
1AE
  0
DICTIONARY
  5
1BB
330
1BA
100
AcDbDictionary
280
     1
  3
ACAD_DIMASSOC
360
1BC
  0
DICTIONARY
  5
1CC
330
1CB
100
AcDbDictionary
280
     1
  3
ACAD_DIMASSOC
360
1CD
  0
DICTIONARY
  5
213
330
212
100
AcDbDictionary
280
     1
  3
ACAD_DIMASSOC
360
214
  0
DICTIONARY
  5
222
330
221
100
AcDbDictionary
280
     1
  3
ACAD_DIMASSOC
360
223
  0
DICTIONARY
  5
23F
330
23E
100
AcDbDictionary
280
     1
  3
ACAD_DIMASSOC
360
240
  0
DICTIONARY
  5
24E
330
24D
100
AcDbDictionary
280
     1
  3
ACAD_DIMASSOC
360
24F
  0
DICTIONARY
  5
2A3
330
2A2
100
AcDbDictionary
280
     1
  3
ACAD_DIMASSOC
360
2A4
  0
DICTIONARY
  5
2E7
330
2E6
100
AcDbDictionary
280
     1
  3
ACAD_DIMASSOC
360
2E8
  0
DICTIONARY
  5
2FB
330
2FA
100
AcDbDictionary
280
     1
  3
ACAD_DIMASSOC
360
2FC
  0
DICTIONARY
  5
30A
330
309
100
AcDbDictionary
280
     1
  3
ACAD_DIMASSOC
360
30B
  0
DICTIONARY
  5
36B
330
36A
100
AcDbDictionary
280
     1
  3
ACAD_DIMASSOC
360
36C
  0
DICTIONARY
  5
98
102
{ACAD_REACTORS
330
9
102
}
330
9
100
AcDbDictionary
  0
DICTIONARY
  5
D
102
{ACAD_REACTORS
330
9
102
}
330
9
100
AcDbDictionary
  0
DICTIONARY
  5
99
102
{ACAD_REACTORS
330
9
102
}
330
9
100
AcDbDictionary
  3
STANDARD
350
9B
  0
DICTIONARY
  5
9A
102
{ACAD_REACTORS
330
9
102
}
330
9
100
AcDbDictionary
  0
ACDBDICTIONARYWDFLT
  5
8
102
{ACAD_REACTORS
330
9
102
}
330
9
100
AcDbDictionary
281
     1
  3
Normal
350
7
100
AcDbDictionaryWithDefault
340
7
  0
DICTIONARY
  5
4E5
102
{ACAD_REACTORS
330
9
102
}
330
9
100
AcDbDictionary
  3
CEPSNTYPE
350
4EF
  3
DIMSTYLEDATA
350
4F3
  3
FINGERPRINTGUID
350
4F0
  3
HYPERLINKBASE
350
4E8
  3
INSUNITS
350
4EE
  3
LAYOUTDICT
350
4EA
  3
LWETCUNION
350
4ED
  3
PLOTSETDICT
350
4EB
  3
PLOTSTYLNAMDICT
350
4EC
  3
PSVPSCALE
350
4F2
  3
PUCSBASE
350
4F6
  3
PUCSORGBACK
350
4FC
  3
PUCSORGBOTTOM
350
4F8
  3
PUCSORGFRONT
350
4FB
  3
PUCSORGLEFT
350
4F9
  3
PUCSORGRIGHT
350
4FA
  3
PUCSORGTOP
350
4F7
  3
PUCSORTHOREF
350
4F4
  3
PUCSORTHOVIEW
350
4F5
  3
STYLESHEET
350
4E9
  3
TSTACKALIGN
350
4E6
  3
TSTACKSIZE
350
4E7
  3
UCSBASE
350
4FF
  3
UCSORGBACK
350
505
  3
UCSORGBOTTOM
350
501
  3
UCSORGFRONT
350
504
  3
UCSORGLEFT
350
502
  3
UCSORGRIGHT
350
503
  3
UCSORGTOP
350
500
  3
UCSORTHOREF
350
4FD
  3
UCSORTHOVIEW
350
4FE
  3
VERSIONGUID
350
4F1
  0
DICTIONARY
  5
388
102
{ACAD_REACTORS
330
9
102
}
330
9
100
AcDbDictionary
  3
DIMASSOC
350
38A
  3
HIDETEXT
350
389
  0
DICTIONARY
  5
16
102
{ACAD_REACTORS
330
15
102
}
330
15
100
AcDbDictionary
280
     1
  3
$LAYERS
360
17
  3
-_UND_0
360
18
  3
-PEGC
360
19
  3
101
360
1A
  3
102
360
1B
  3
1DUC
360
1C
  3
1EQ
360
1D
  3
1TUB
360
1E
  3
2
360
1F
  3
2000
360
20
  3
50
360
21
  3
58J
360
22
  3
65
360
23
  3
AA
360
24
  3
ACABADOS
360
25
  3
AGUA_Y_DREN
360
26
  3
AIRE
360
27
  3
ALLE_AUS
360
28
  3
ALLES_MIT_S
360
29
  3
AMARILLO
360
2A
  3
APAGADOS
360
2B
  3
ARR
360
2C
  3
BA
360
2D
  3
BACKS
360
2E
  3
BASE
360
2F
  3
BLOQ_INUTIL
360
30
  3
CADKON
360
31
  3
CARPINTERIA
360
32
  3
CERRADOS
360
33
  3
COL
360
34
  3
COLOR
360
35
  3
COLOR_250
360
36
  3
COLORES
360
37
  3
CONGELADOS
360
38
  3
CONJUNTO
360
39
  3
D1
360
3A
  3
DA_
360
3B
  3
DET-
360
3C
  3
DOR-H
360
3D
  3
EJES
360
3E
  3
ELECTRICO
360
3F
  3
F1
360
40
  3
FROZEN
360
41
  3
GRID
360
42
  3
GRIDTXT
360
43
  3
HATCH
360
44
  3
HCAD
360
45
  3
INSTALACIONES
360
46
  3
JIZNI
360
47
  3
KCK
360
48
  3
KKK
360
49
  3
LAY
360
4A
  3
LAYER-0
360
4E
  3
LAYER-1
360
4F
  3
LAYER_1_UND_0
360
4B
  3
LAYER_2_UND_0
360
4C
  3
LAYER_9_UND_0_SCHRAFFUR
360
4D
  3
LOCK
360
50
  3
LOCKED
360
51
  3
LOTES
360
52
  3
LUNAR
360
53
  3
LUNAR2
360
54
  3
M
360
55
  3
MIS_LAYERS
360
56
  3
MRKCK
360
57
  3
NECADKON
360
58
  3
NI_LH
360
59
  3
NI_RH
360
5A
  3
NUM
360
5B
  3
OFF
360
5C
  3
ON
360
5D
  3
PBASE
360
5E
  3
PEGC
360
5F
  3
PEGCT
360
60
  3
PFRAME
360
61
  3
PGRID
360
62
  3
PGRIDT
360
63
  3
PLAFONES
360
64
  3
PLANTAS
360
65
  3
PLOT
360
66
  3
PRENDIDAS
360
67
  3
PRENDIDOS
360
68
  3
PRINT
360
69
  3
PT
360
6A
  3
PTH
360
6B
  3
PVGRID
360
6C
  3
RED_DE_AGUA_POTABLE
360
6D
  3
RED_DE_ENERGIA_ELECTRICA
360
6E
  3
SEVERNI
360
6F
  3
SHIN
360
70
  3
SHOW_ALL_LAYER
360
71
  3
SIN
360
72
  3
STORAGE-CART
360
73
  3
T
360
74
  3
TEXTOS
360
75
  3
TEXTURAS
360
76
  3
TUBERIAS
360
77
  3
UNFRZ
360
78
  3
V\U+0160ECHNY_NEPOU\U+017D\U+00CDVAN\U+00C9
360
79
  3
VA
360
7A
  3
VENTILACI\U+00D3N
360
7B
  3
VYHODNI
360
7C
  3
YO
360
7D
  3
ZAPADNI
360
7E
  3
사용
360
7F
  3
신규
360
80
  3
실박스
360
81
  3
우리토목
360
82
  3
주차
360
83
  3
지상정밀
360
84
  3
쩜선
360
85
  3
플로터_작업층
360
86
  3
현재_작업층
360
87
  3
현재_잠금
360
88
  0
DICTIONARY
  5
89
102
{ACAD_REACTORS
330
15
102
}
330
15
100
AcDbDictionary
  0
XRECORD
  5
506
102
{ACAD_REACTORS
330
3
102
}
330
3
100
AcDbXrecord
340
2
  0
XRECORD
  5
507
102
{ACAD_REACTORS
330
F
102
}
330
F
100
AcDbXrecord
340
E
  0
DIMASSOC
  5
9F
102
{ACAD_REACTORS
330
9E
102
}
330
9E
100
AcDbDimAssoc
330
9D
 90
        3
 70
     0
 71
     0
  1
AcDbOsnapPointRef
 72
     1
331
BB
 73
     2
 91
        0
 40
1.0
 10
242.4925193393992
 20
85.33680455448076
 30
0.0
 75
     0
  1
AcDbOsnapPointRef
 72
    13
331
126
 73
     2
 91
        0
 40
0.0
 10
242.4925193393992
 20
16.33680455448075
 30
0.0
 75
     0
  0
DIMASSOC
  5
CB
102
{ACAD_REACTORS
330
CA
102
}
330
CA
100
AcDbDimAssoc
330
C9
 90
        1
 70
     0
 71
     0
  1
AcDbOsnapPointRef
 72
    13
331
B7
 73
     2
 91
        0
 40
0.0
 10
167.4925193393992
 20
82.83680455448076
 30
0.0
 75
     0
  0
DIMASSOC
  5
DA
102
{ACAD_REACTORS
330
D9
102
}
330
D9
100
AcDbDimAssoc
330
D8
 90
        3
 70
     0
 71
     0
  1
AcDbOsnapPointRef
 72
     1
331
B8
 73
     2
 91
        0
 40
1.0
 10
169.4925193393992
 20
15.83680455448075
 30
0.0
 75
     0
  1
AcDbOsnapPointRef
 72
     1
331
12B
 73
     2
 91
        0
 40
1.0
 10
176.4925193393992
 20
17.23806721295113
 30
0.0
 75
     0
  0
DIMASSOC
  5
E9
102
{ACAD_REACTORS
330
E8
102
}
330
E8
100
AcDbDimAssoc
330
E7
 90
        3
 70
     0
 71
     0
  1
AcDbOsnapPointRef
 72
     1
331
BA
 73
     2
 91
        0
 40
1.0
 10
249.4925193393992
 20
18.83680455448075
 30
0.0
 75
     0
  1
AcDbOsnapPointRef
 72
     1
331
B8
 73
     2
 91
        0
 40
1.0
 10
169.4925193393992
 20
15.83680455448075
 30
0.0
 75
     0
  0
DIMASSOC
  5
F8
102
{ACAD_REACTORS
330
F7
102
}
330
F7
100
AcDbDimAssoc
330
F6
 90
        3
 70
     0
 71
     0
  1
AcDbOsnapPointRef
 72
    13
331
134
 73
     2
 91
        0
 40
0.0
 10
145.4925193393992
 20
48.33691493993683
 30
0.0
 75
     0
  1
AcDbOsnapPointRef
 72
    13
331
12A
 73
     2
 91
        0
 40
0.0
 10
169.4925193393992
 20
15.83680455448075
 30
0.0
 75
     0
  0
DIMASSOC
  5
13C
102
{ACAD_REACTORS
330
13B
102
}
330
13B
100
AcDbDimAssoc
330
13A
 90
        1
 70
     0
 71
     0
  1
AcDbOsnapPointRef
 72
     1
331
B7
 73
     2
 91
        0
 40
1.0
 10
167.4925193393992
 20
18.83680455448075
 30
0.0
 75
     0
  0
DIMASSOC
  5
167
102
{ACAD_REACTORS
330
166
102
}
330
166
100
AcDbDimAssoc
330
165
 90
        3
 70
     0
 71
     0
  1
AcDbOsnapPointRef
 72
    13
331
1F2
 73
     2
 91
        0
 40
0.0
 10
249.9891863393986
 20
125.8368035544829
 30
0.0
 75
     0
  1
AcDbOsnapPointRef
 72
    13
331
37B
 73
     2
 91
        0
 40
0.0
 10
277.9891863393986
 20
117.8368035544831
 30
0.0
 75
     0
  0
DIMASSOC
  5
185
102
{ACAD_REACTORS
330
184
102
}
330
184
100
AcDbDimAssoc
330
183
 90
        3
 70
     0
 71
     0
  1
AcDbOsnapPointRef
 72
     1
331
193
 73
     2
 91
        0
 40
1.0
 10
225.2053722174096
 20
269.1901770180209
 30
0.0
 75
     0
  1
AcDbOsnapPointRef
 72
    13
331
263
 73
     2
 91
        0
 40
0.0
 10
225.2053722174096
 20
200.1901770180209
 30
0.0
 75
     0
  0
DIMASSOC
  5
19B
102
{ACAD_REACTORS
330
19A
102
}
330
19A
100
AcDbDimAssoc
330
199
 90
        1
 70
     0
 71
     0
  1
AcDbOsnapPointRef
 72
    13
331
195
 73
     2
 91
        0
 40
0.0
 10
150.2053722174096
 20
266.6901770180209
 30
0.0
 75
     0
  0
DIMASSOC
  5
1AE
102
{ACAD_REACTORS
330
1AD
102
}
330
1AD
100
AcDbDimAssoc
330
1AC
 90
        2
 70
     0
 71
     0
  1
AcDbOsnapPointRef
 72
     3
331
2C9
 73
     2
 91
        0
 40
0.0
 10
39.54270945631833
 20
234.6901770180279
 30
0.0
 75
     0
  0
DIMASSOC
  5
1BC
102
{ACAD_REACTORS
330
1BB
102
}
330
1BB
100
AcDbDimAssoc
330
1BA
 90
        3
 70
     0
 71
     0
  1
AcDbOsnapPointRef
 72
    13
331
1DF
 73
     2
 91
        0
 40
0.0
 10
169.4925193393992
 20
85.83680455448075
 30
0.0
 75
     0
  1
AcDbOsnapPointRef
 72
     1
331
1DA
 73
     2
 91
        0
 40
1.0
 10
174.9925193393992
 20
94.53680355448387
 30
0.0
 75
     0
  0
DIMASSOC
  5
1CD
102
{ACAD_REACTORS
330
1CC
102
}
330
1CC
100
AcDbDimAssoc
330
1CB
 90
        3
 70
     0
 71
     0
  1
AcDbOsnapPointRef
 72
     1
331
1DA
 73
     2
 91
        0
 40
1.0
 10
174.9925193393992
 20
94.53680355448387
 30
0.0
 75
     0
  1
AcDbOsnapPointRef
 72
    13
331
1EF
 73
     2
 91
        0
 40
0.0
 10
249.9891863393986
 20
125.8368035544829
 30
0.0
 75
     0
  0
DIMASSOC
  5
214
102
{ACAD_REACTORS
330
213
102
}
330
213
100
AcDbDimAssoc
330
212
 90
        3
 70
     0
 71
     0
  1
AcDbOsnapPointRef
 72
    13
331
23B
 73
     2
 91
        0
 40
0.0
 10
139.2053722174096
 20
231.8401770180207
 30
0.0
 75
     0
  1
AcDbOsnapPointRef
 72
     1
331
197
 73
     2
 91
        0
 40
1.0
 10
152.2053722174096
 20
199.6901770180208
 30
0.0
 75
     0
  0
DIMASSOC
  5
223
102
{ACAD_REACTORS
330
222
102
}
330
222
100
AcDbDimAssoc
330
221
 90
        1
 70
     0
 71
     0
  1
AcDbOsnapPointRef
 72
     1
331
195
 73
     2
 91
        0
 40
1.0
 10
150.2053722174096
 20
202.6901770180209
 30
0.0
 75
     0
  0
DIMASSOC
  5
240
102
{ACAD_REACTORS
330
23F
102
}
330
23F
100
AcDbDimAssoc
330
23E
 90
        3
 70
     0
 71
     0
  1
AcDbOsnapPointRef
 72
     1
331
197
 73
     2
 91
        0
 40
1.0
 10
152.2053722174096
 20
199.6901770180208
 30
0.0
 75
     0
  1
AcDbOsnapPointRef
 72
     1
331
262
 73
     2
 91
        0
 40
1.0
 10
159.2053722174096
 20
201.091439676491
 30
0.0
 75
     0
  0
DIMASSOC
  5
24F
102
{ACAD_REACTORS
330
24E
102
}
330
24E
100
AcDbDimAssoc
330
24D
 90
        3
 70
     0
 71
     0
  1
AcDbOsnapPointRef
 72
     1
331
192
 73
     2
 91
        0
 40
1.0
 10
232.2053722174096
 20
202.6901770180209
 30
0.0
 75
     0
  1
AcDbOsnapPointRef
 72
     1
331
197
 73
     2
 91
        0
 40
1.0
 10
152.2053722174096
 20
199.6901770180208
 30
0.0
 75
     0
  0
DIMASSOC
  5
2A4
102
{ACAD_REACTORS
330
2A3
102
}
330
2A3
100
AcDbDimAssoc
330
2A2
 90
        3
 70
     0
 71
     0
  1
AcDbOsnapPointRef
 72
     1
331
2B3
 73
     2
 91
        0
 40
1.0
 10
4.0
 20
93.83680455448075
 30
0.0
 75
     0
  1
AcDbOsnapPointRef
 72
     1
331
274
 73
     2
 91
        0
 40
1.0
 10
66.0
 20
93.83680455448075
 30
0.0
 75
     0
  0
DIMASSOC
  5
2E8
102
{ACAD_REACTORS
330
2E7
102
}
330
2E7
100
AcDbDimAssoc
330
2E6
 90
        3
 70
     0
 71
     0
  1
AcDbOsnapPointRef
 72
    13
331
328
 73
     2
 91
        0
 40
0.0
 10
232.702039217409
 20
309.690176018023
 30
0.0
 75
     0
  1
AcDbOsnapPointRef
 72
    13
331
339
 73
     2
 91
        0
 40
0.0
 10
260.702039217409
 20
301.690176018023
 30
0.0
 75
     0
  0
DIMASSOC
  5
2FC
102
{ACAD_REACTORS
330
2FB
102
}
330
2FB
100
AcDbDimAssoc
330
2FA
 90
        3
 70
     0
 71
     0
  1
AcDbOsnapPointRef
 72
     1
331
31F
 73
     2
 91
        0
 40
1.0
 10
157.7053722174096
 20
278.3901760180228
 30
0.0
 75
     0
  1
AcDbOsnapPointRef
 72
    13
331
32C
 73
     2
 91
        0
 40
0.0
 10
232.702039217409
 20
309.690176018023
 30
0.0
 75
     0
  0
DIMASSOC
  5
30B
102
{ACAD_REACTORS
330
30A
102
}
330
30A
100
AcDbDimAssoc
330
309
 90
        3
 70
     0
 71
     0
  1
AcDbOsnapPointRef
 72
    13
331
337
 73
     2
 91
        0
 40
0.0
 10
152.2053722174096
 20
269.6901770180208
 30
0.0
 75
     0
  1
AcDbOsnapPointRef
 72
     1
331
31F
 73
     2
 91
        0
 40
1.0
 10
157.7053722174096
 20
278.3901760180228
 30
0.0
 75
     0
  0
DIMASSOC
  5
36C
102
{ACAD_REACTORS
330
36B
102
}
330
36B
100
AcDbDimAssoc
330
36A
 90
        3
 70
     0
 71
     0
  1
AcDbOsnapPointRef
 72
     1
331
366
 73
     2
 91
        0
 40
1.0
 10
8.542709456318334
 20
277.6901770180209
 30
0.0
 75
     0
  1
AcDbOsnapPointRef
 72
     1
331
2D0
 73
     2
 91
        0
 40
1.0
 10
70.54270945631833
 20
277.6901770180209
 30
0.0
 75
     0
  0
MLINESTYLE
  5
9B
102
{ACAD_REACTORS
330
99
102
}
330
99
100
AcDbMlineStyle
  2
STANDARD
 70
     0
  3

 62
   256
 51
90.0
 52
90.0
 71
     2
 49
0.5
 62
   256
  6
BYLAYER
 49
-0.5
 62
   256
  6
BYLAYER
  0
ACDBPLACEHOLDER
  5
7
102
{ACAD_REACTORS
330
8
102
}
330
8
100
AcDbPlaceHolder
280
     0
  0
XRECORD
  5
4EF
102
{ACAD_REACTORS
330
4E5
102
}
330
4E5
100
AcDbXrecord
 90
        0
  0
XRECORD
  5
4F3
102
{ACAD_REACTORS
330
4E5
102
}
330
4E5
100
AcDbXrecord
1000
DSTYLE
1002
{
1070
    79
 70
     2
1070
   179
 70
     1
1070
   289
 70
     0
1002
}
  0
XRECORD
  5
4F0
102
{ACAD_REACTORS
330
4E5
102
}
330
4E5
100
AcDbXrecord
  1
{FDEAD578-A652-11D2-9A35-0060089B3A3F}
  0
XRECORD
  5
4E8
102
{ACAD_REACTORS
330
4E5
102
}
330
4E5
100
AcDbXrecord
  1

  0
XRECORD
  5
4EE
102
{ACAD_REACTORS
330
4E5
102
}
330
4E5
100
AcDbXrecord
 90
        4
  0
XRECORD
  5
4EA
102
{ACAD_REACTORS
330
4E5
102
}
330
4E5
100
AcDbXrecord
340
D
  0
XRECORD
  5
4ED
102
{ACAD_REACTORS
330
4E5
102
}
330
4E5
100
AcDbXrecord
 90
    10781
  0
XRECORD
  5
4EB
102
{ACAD_REACTORS
330
4E5
102
}
330
4E5
100
AcDbXrecord
340
9A
  0
XRECORD
  5
4EC
102
{ACAD_REACTORS
330
4E5
102
}
330
4E5
100
AcDbXrecord
340
8
  0
XRECORD
  5
4F2
102
{ACAD_REACTORS
330
4E5
102
}
330
4E5
100
AcDbXrecord
 40
0.0
  0
XRECORD
  5
4F6
102
{ACAD_REACTORS
330
4E5
102
}
330
4E5
100
AcDbXrecord
340
0
  0
XRECORD
  5
4FC
102
{ACAD_REACTORS
330
4E5
102
}
330
4E5
100
AcDbXrecord
 10
0.0
 20
0.0
 30
0.0
  0
XRECORD
  5
4F8
102
{ACAD_REACTORS
330
4E5
102
}
330
4E5
100
AcDbXrecord
 10
0.0
 20
0.0
 30
0.0
  0
XRECORD
  5
4FB
102
{ACAD_REACTORS
330
4E5
102
}
330
4E5
100
AcDbXrecord
 10
0.0
 20
0.0
 30
0.0
  0
XRECORD
  5
4F9
102
{ACAD_REACTORS
330
4E5
102
}
330
4E5
100
AcDbXrecord
 10
0.0
 20
0.0
 30
0.0
  0
XRECORD
  5
4FA
102
{ACAD_REACTORS
330
4E5
102
}
330
4E5
100
AcDbXrecord
 10
0.0
 20
0.0
 30
0.0
  0
XRECORD
  5
4F7
102
{ACAD_REACTORS
330
4E5
102
}
330
4E5
100
AcDbXrecord
 10
0.0
 20
0.0
 30
0.0
  0
XRECORD
  5
4F4
102
{ACAD_REACTORS
330
4E5
102
}
330
4E5
100
AcDbXrecord
340
0
  0
XRECORD
  5
4F5
102
{ACAD_REACTORS
330
4E5
102
}
330
4E5
100
AcDbXrecord
 70
     0
  0
XRECORD
  5
4E9
102
{ACAD_REACTORS
330
4E5
102
}
330
4E5
100
AcDbXrecord
  1

  0
XRECORD
  5
4E6
102
{ACAD_REACTORS
330
4E5
102
}
330
4E5
100
AcDbXrecord
 90
        1
  0
XRECORD
  5
4E7
102
{ACAD_REACTORS
330
4E5
102
}
330
4E5
100
AcDbXrecord
 90
       70
  0
XRECORD
  5
4FF
102
{ACAD_REACTORS
330
4E5
102
}
330
4E5
100
AcDbXrecord
340
0
  0
XRECORD
  5
505
102
{ACAD_REACTORS
330
4E5
102
}
330
4E5
100
AcDbXrecord
 10
0.0
 20
0.0
 30
0.0
  0
XRECORD
  5
501
102
{ACAD_REACTORS
330
4E5
102
}
330
4E5
100
AcDbXrecord
 10
0.0
 20
0.0
 30
0.0
  0
XRECORD
  5
504
102
{ACAD_REACTORS
330
4E5
102
}
330
4E5
100
AcDbXrecord
 10
0.0
 20
0.0
 30
0.0
  0
XRECORD
  5
502
102
{ACAD_REACTORS
330
4E5
102
}
330
4E5
100
AcDbXrecord
 10
0.0
 20
0.0
 30
0.0
  0
XRECORD
  5
503
102
{ACAD_REACTORS
330
4E5
102
}
330
4E5
100
AcDbXrecord
 10
0.0
 20
0.0
 30
0.0
  0
XRECORD
  5
500
102
{ACAD_REACTORS
330
4E5
102
}
330
4E5
100
AcDbXrecord
 10
0.0
 20
0.0
 30
0.0
  0
XRECORD
  5
4FD
102
{ACAD_REACTORS
330
4E5
102
}
330
4E5
100
AcDbXrecord
340
0
  0
XRECORD
  5
4FE
102
{ACAD_REACTORS
330
4E5
102
}
330
4E5
100
AcDbXrecord
 70
     0
  0
XRECORD
  5
4F1
102
{ACAD_REACTORS
330
4E5
102
}
330
4E5
100
AcDbXrecord
  1
{9EA8E845-0AD0-4DE9-B7F9-8FCCF669FCF2}
  0
DICTIONARYVAR
  5
38A
102
{ACAD_REACTORS
330
388
102
}
330
388
100
DictionaryVariables
280
     0
  1
2
  0
DICTIONARYVAR
  5
389
102
{ACAD_REACTORS
330
388
102
}
330
388
100
DictionaryVariables
280
     0
  1
1
  0
XRECORD
  5
17
102
{ACAD_REACTORS
330
16
102
}
330
16
100
AcDbXrecord
  1
$layers
  1
*
  1
*
  1
*
 70
     0
  1
*
  1
*
  0
XRECORD
  5
18
102
{ACAD_REACTORS
330
16
102
}
330
16
100
AcDbXrecord
  1
- und 0
  1
-*,0
  1
*
  1
*
 70
     0
  1
*
  1
*
  0
XRECORD
  5
19
102
{ACAD_REACTORS
330
16
102
}
330
16
100
AcDbXrecord
  1
-pegc
  1
*-pegc
  1
*
  1
*
 70
     0
  1
*
  1
*
  0
XRECORD
  5
1A
102
{ACAD_REACTORS
330
16
102
}
330
16
100
AcDbXrecord
  1
101
  1
*101
  1
*
  1
*
 70
   256
  1
*
  1
*
  0
XRECORD
  5
1B
102
{ACAD_REACTORS
330
16
102
}
330
16
100
AcDbXrecord
  1
102
  1
102*
  1
*
  1
*
 70
     0
  1
*
  1
*
  0
XRECORD
  5
1C
102
{ACAD_REACTORS
330
16
102
}
330
16
100
AcDbXrecord
  1
1duc
  1
*1duc*
  1
*
  1
*
 70
     0
  1
*
  1
*
  0
XRECORD
  5
1D
102
{ACAD_REACTORS
330
16
102
}
330
16
100
AcDbXrecord
  1
1eq
  1
*1eq*
  1
*
  1
*
 70
     0
  1
*
  1
*
  0
XRECORD
  5
1E
102
{ACAD_REACTORS
330
16
102
}
330
16
100
AcDbXrecord
  1
1tub
  1
*1t*
  1
*
  1
*
 70
     0
  1
*
  1
*
  0
XRECORD
  5
1F
102
{ACAD_REACTORS
330
16
102
}
330
16
100
AcDbXrecord
  1
2
  1
*
  1
2
  1
*
 70
     0
  1
*
  1
*
  0
XRECORD
  5
20
102
{ACAD_REACTORS
330
16
102
}
330
16
100
AcDbXrecord
  1
2000
  1
2000*
  1
*
  1
*
 70
     0
  1
*
  1
*
  0
XRECORD
  5
21
102
{ACAD_REACTORS
330
16
102
}
330
16
100
AcDbXrecord
  1
50
  1
*-50
  1
*
  1
*
 70
     0
  1
*
  1
*
  0
XRECORD
  5
22
102
{ACAD_REACTORS
330
16
102
}
330
16
100
AcDbXrecord
  1
58J
  1
*58*
  1
*
  1
*
 70
     0
  1
*
  1
*
  0
XRECORD
  5
23
102
{ACAD_REACTORS
330
16
102
}
330
16
100
AcDbXrecord
  1
65
  1
*65
  1
*
  1
*
 70
     0
  1
*
  1
*
  0
XRECORD
  5
24
102
{ACAD_REACTORS
330
16
102
}
330
16
100
AcDbXrecord
  1
aa
  1
aa*
  1
*
  1
*
 70
     0
  1
*
  1
*
  0
XRECORD
  5
25
102
{ACAD_REACTORS
330
16
102
}
330
16
100
AcDbXrecord
  1
acabados
  1
a-*
  1
*
  1
*
 70
     5
  1
*
  1
*
  0
XRECORD
  5
26
102
{ACAD_REACTORS
330
16
102
}
330
16
100
AcDbXrecord
  1
AGUA Y DREN
  1
A-DS-*
  1
*
  1
*
 70
     0
  1
*
  1
*
  0
XRECORD
  5
27
102
{ACAD_REACTORS
330
16
102
}
330
16
100
AcDbXrecord
  1
Aire
  1
*
  1
*
  1
*
 70
     0
  1
*
  1
*
  0
XRECORD
  5
28
102
{ACAD_REACTORS
330
16
102
}
330
16
100
AcDbXrecord
  1
alle aus
  1
99999999999
  1
*
  1
*
 70
     0
  1
*
  1
*
  0
XRECORD
  5
29
102
{ACAD_REACTORS
330
16
102
}
330
16
100
AcDbXrecord
  1
Alles mit S
  1
s*
  1
*
  1
*
 70
     0
  1
*
  1
*
  0
XRECORD
  5
2A
102
{ACAD_REACTORS
330
16
102
}
330
16
100
AcDbXrecord
  1
amarillo
  1
*
  1
yellow
  1
*
 70
     0
  1
*
  1
*
  0
XRECORD
  5
2B
102
{ACAD_REACTORS
330
16
102
}
330
16
100
AcDbXrecord
  1
APAGADOS
  1
*
  1
*
  1
*
 70
     4
  1
*
  1
*
  0
XRECORD
  5
2C
102
{ACAD_REACTORS
330
16
102
}
330
16
100
AcDbXrecord
  1
ARR
  1
ARR*
  1
*
  1
*
 70
     0
  1
*
  1
*
  0
XRECORD
  5
2D
102
{ACAD_REACTORS
330
16
102
}
330
16
100
AcDbXrecord
  1
ba
  1
*
  1
*
  1
*
 70
     0
  1
*
  1
*
  0
XRECORD
  5
2E
102
{ACAD_REACTORS
330
16
102
}
330
16
100
AcDbXrecord
  1
BACKS
  1
*-H
  1
*
  1
*
 70
     0
  1
*
  1
*
  0
XRECORD
  5
2F
102
{ACAD_REACTORS
330
16
102
}
330
16
100
AcDbXrecord
  1
BASE
  1
*-PBASE
  1
*
  1
*
 70
     0
  1
*
  1
*
  0
XRECORD
  5
30
102
{ACAD_REACTORS
330
16
102
}
330
16
100
AcDbXrecord
  1
BLOQ_INUTIL
  1
*
  1
*
  1
*
 70
     0
  1
*
  1
*
  0
XRECORD
  5
31
102
{ACAD_REACTORS
330
16
102
}
330
16
100
AcDbXrecord
  1
CADKON
  1
?[KAHBSM]?????[23M],?[KAHBSM]?????[23M][1456A-DGHILN-SU-Z]
  1
*
  1
*
 70
     0
  1
*
  1
*
  0
XRECORD
  5
32
102
{ACAD_REACTORS
330
16
102
}
330
16
100
AcDbXrecord
  1
carpinteria
  1
carp*
  1
*
  1
*
 70
     0
  1
*
  1
*
  0
XRECORD
  5
33
102
{ACAD_REACTORS
330
16
102
}
330
16
100
AcDbXrecord
  1
cerrados
  1
*
  1
*
  1
*
 70
   256
  1
*
  1
*
  0
XRECORD
  5
34
102
{ACAD_REACTORS
330
16
102
}
330
16
100
AcDbXrecord
  1
COL
  1
*
  1
*
  1
*
 70
     1
  1
*
  1
*
  0
XRECORD
  5
35
102
{ACAD_REACTORS
330
16
102
}
330
16
100
AcDbXrecord
  1
COLOR
  1
*
  1
253
  1
*
 70
     0
  1
*
  1
*
  0
XRECORD
  5
36
102
{ACAD_REACTORS
330
16
102
}
330
16
100
AcDbXrecord
  1
color 250
  1
*
  1
250
  1
*
 70
     0
  1
*
  1
*
  0
XRECORD
  5
37
102
{ACAD_REACTORS
330
16
102
}
330
16
100
AcDbXrecord
  1
COLORES
  1
*
  1
6
  1
*
 70
     0
  1
*
  1
*
  0
XRECORD
  5
38
102
{ACAD_REACTORS
330
16
102
}
330
16
100
AcDbXrecord
  1
Congelados
  1
*
  1
*
  1
*
 70
     4
  1
*
  1
*
  0
XRECORD
  5
39
102
{ACAD_REACTORS
330
16
102
}
330
16
100
AcDbXrecord
  1
CONJUNTO
  1
CON-*
  1
*
  1
*
 70
     0
  1
*
  1
*
  0
XRECORD
  5
3A
102
{ACAD_REACTORS
330
16
102
}
330
16
100
AcDbXrecord
  1
d1
  1
achurados
  1
*
  1
*
 70
     0
  1
*
  1
*
  0
XRECORD
  5
3B
102
{ACAD_REACTORS
330
16
102
}
330
16
100
AcDbXrecord
  1
DA_
  1
DA*
  1
*
  1
*
 70
     0
  1
*
  1
*
  0
XRECORD
  5
3C
102
{ACAD_REACTORS
330
16
102
}
330
16
100
AcDbXrecord
  1
DET-
  1
*
  1
*
  1
*
 70
     0
  1
*
  1
*
  0
XRECORD
  5
3D
102
{ACAD_REACTORS
330
16
102
}
330
16
100
AcDbXrecord
  1
DOR-H
  1
*
  1
7
  1
*
 70
     0
  1
*
  1
*
  0
XRECORD
  5
3E
102
{ACAD_REACTORS
330
16
102
}
330
16
100
AcDbXrecord
  1
ejes
  1
eje*
  1
*
  1
*
 70
     0
  1
*
  1
*
  0
XRECORD
  5
3F
102
{ACAD_REACTORS
330
16
102
}
330
16
100
AcDbXrecord
  1
ELECTRICO
  1
ELEC-*
  1
*
  1
*
 70
     0
  1
*
  1
*
  0
XRECORD
  5
40
102
{ACAD_REACTORS
330
16
102
}
330
16
100
AcDbXrecord
  1
F1
  1
Halaxref*
  1
*
  1
*
 70
     0
  1
*
  1
*
  0
XRECORD
  5
41
102
{ACAD_REACTORS
330
16
102
}
330
16
100
AcDbXrecord
  1
frozen
  1
*
  1
*
  1
*
 70
     4
  1
*
  1
*
  0
XRECORD
  5
42
102
{ACAD_REACTORS
330
16
102
}
330
16
100
AcDbXrecord
  1
grid
  1
*-PGRID
  1
*
  1
*
 70
     1
  1
*
  1
*
  0
XRECORD
  5
43
102
{ACAD_REACTORS
330
16
102
}
330
16
100
AcDbXrecord
  1
GRIDTXT
  1
*-PGRIDT
  1
*
  1
*
 70
     0
  1
*
  1
*
  0
XRECORD
  5
44
102
{ACAD_REACTORS
330
16
102
}
330
16
100
AcDbXrecord
  1
HATCH
  1
HAT*
  1
*
  1
*
 70
     0
  1
*
  1
*
  0
XRECORD
  5
45
102
{ACAD_REACTORS
330
16
102
}
330
16
100
AcDbXrecord
  1
HCAD
  1
1HCAD-*
  1
*
  1
*
 70
    13
  1
*
  1
*
  0
XRECORD
  5
46
102
{ACAD_REACTORS
330
16
102
}
330
16
100
AcDbXrecord
  1
INSTALACIONES
  1
I-*
  1
*
  1
*
 70
     0
  1
*
  1
*
  0
XRECORD
  5
47
102
{ACAD_REACTORS
330
16
102
}
330
16
100
AcDbXrecord
  1
JIZNI
  1
*-J
  1
*
  1
*
 70
     0
  1
*
  1
*
  0
XRECORD
  5
48
102
{ACAD_REACTORS
330
16
102
}
330
16
100
AcDbXrecord
  1
kck
  1
*
  1
*
  1
*
 70
     0
  1
*
  1
*
  0
XRECORD
  5
49
102
{ACAD_REACTORS
330
16
102
}
330
16
100
AcDbXrecord
  1
kkk
  1
k
  1
*
  1
*
 70
     0
  1
*
  1
*
  0
XRECORD
  5
4A
102
{ACAD_REACTORS
330
16
102
}
330
16
100
AcDbXrecord
  1
lay
  1
??-*
  1
*
  1
*
 70
     0
  1
*
  1
*
  0
XRECORD
  5
4E
102
{ACAD_REACTORS
330
16
102
}
330
16
100
AcDbXrecord
  1
Layer-0
  1
0*
  1
*
  1
*
 70
     0
  1
*
  1
*
  0
XRECORD
  5
4F
102
{ACAD_REACTORS
330
16
102
}
330
16
100
AcDbXrecord
  1
Layer-1
  1
1*
  1
*
  1
*
 70
     0
  1
*
  1
*
  0
XRECORD
  5
4B
102
{ACAD_REACTORS
330
16
102
}
330
16
100
AcDbXrecord
  1
Layer 1 und 0
  1
1*,0
  1
*
  1
*
 70
     0
  1
*
  1
*
  0
XRECORD
  5
4C
102
{ACAD_REACTORS
330
16
102
}
330
16
100
AcDbXrecord
  1
Layer 2 und 0
  1
2*,0
  1
*
  1
*
 70
     0
  1
*
  1
*
  0
XRECORD
  5
4D
102
{ACAD_REACTORS
330
16
102
}
330
16
100
AcDbXrecord
  1
Layer 9 und 0 Schraffur
  1
9*,0
  1
*
  1
*
 70
     0
  1
*
  1
*
  0
XRECORD
  5
50
102
{ACAD_REACTORS
330
16
102
}
330
16
100
AcDbXrecord
  1
LOCK
  1
*
  1
*
  1
*
 70
   256
  1
*
  1
*
  0
XRECORD
  5
51
102
{ACAD_REACTORS
330
16
102
}
330
16
100
AcDbXrecord
  1
locked
  1
*
  1
*
  1
*
 70
   256
  1
*
  1
*
  0
XRECORD
  5
52
102
{ACAD_REACTORS
330
16
102
}
330
16
100
AcDbXrecord
  1
Lotes
  1
*
  1
*
  1
*
 70
     1
  1
*
  1
*
  0
XRECORD
  5
53
102
{ACAD_REACTORS
330
16
102
}
330
16
100
AcDbXrecord
  1
LUNAR
  1
*
  1
*
  1
*
 70
    48
  1
*
  1
*
  0
XRECORD
  5
54
102
{ACAD_REACTORS
330
16
102
}
330
16
100
AcDbXrecord
  1
LUNAR2
  1
*
  1
*
  1
*
 70
    12
  1
*
  1
*
  0
XRECORD
  5
55
102
{ACAD_REACTORS
330
16
102
}
330
16
100
AcDbXrecord
  1
M
  1
M*
  1
*
  1
*
 70
     0
  1
*
  1
*
  0
XRECORD
  5
56
102
{ACAD_REACTORS
330
16
102
}
330
16
100
AcDbXrecord
  1
mis_layers
  1
mis_*
  1
*
  1
*
 70
     0
  1
*
  1
*
  0
XRECORD
  5
57
102
{ACAD_REACTORS
330
16
102
}
330
16
100
AcDbXrecord
  1
MRKCK
  1
*
  1
*
  1
*
 70
     0
  1
*
  1
*
  0
XRECORD
  5
58
102
{ACAD_REACTORS
330
16
102
}
330
16
100
AcDbXrecord
  1
NECADKON
  1
~*?[KAHBSM]?????[23M]*
  1
*
  1
*
 70
     0
  1
*
  1
*
  0
XRECORD
  5
59
102
{ACAD_REACTORS
330
16
102
}
330
16
100
AcDbXrecord
  1
NI_LH
  1
NI_LH*
  1
*
  1
*
 70
     0
  1
*
  1
*
  0
XRECORD
  5
5A
102
{ACAD_REACTORS
330
16
102
}
330
16
100
AcDbXrecord
  1
NI_RH
  1
NI_RH*
  1
*
  1
*
 70
     0
  1
*
  1
*
  0
XRECORD
  5
5B
102
{ACAD_REACTORS
330
16
102
}
330
16
100
AcDbXrecord
  1
NUM
  1
NUM*
  1
*
  1
*
 70
     0
  1
*
  1
*
  0
XRECORD
  5
5C
102
{ACAD_REACTORS
330
16
102
}
330
16
100
AcDbXrecord
  1
off
  1
*
  1
*
  1
*
 70
     3
  1
*
  1
*
  0
XRECORD
  5
5D
102
{ACAD_REACTORS
330
16
102
}
330
16
100
AcDbXrecord
  1
on
  1
*
  1
*
  1
*
 70
     0
  1
*
  1
*
  0
XRECORD
  5
5E
102
{ACAD_REACTORS
330
16
102
}
330
16
100
AcDbXrecord
  1
PBASE
  1
*PBASE
  1
*
  1
*
 70
     0
  1
*
  1
*
  0
XRECORD
  5
5F
102
{ACAD_REACTORS
330
16
102
}
330
16
100
AcDbXrecord
  1
PEGC
  1
*PEGC
  1
*
  1
*
 70
     0
  1
*
  1
*
  0
XRECORD
  5
60
102
{ACAD_REACTORS
330
16
102
}
330
16
100
AcDbXrecord
  1
PEGCT
  1
*PEGCT
  1
*
  1
*
 70
     0
  1
*
  1
*
  0
XRECORD
  5
61
102
{ACAD_REACTORS
330
16
102
}
330
16
100
AcDbXrecord
  1
PFRAME
  1
PFRAME*
  1
*
  1
*
 70
     0
  1
*
  1
*
  0
XRECORD
  5
62
102
{ACAD_REACTORS
330
16
102
}
330
16
100
AcDbXrecord
  1
PGRID
  1
*PGRID
  1
*
  1
*
 70
     0
  1
*
  1
*
  0
XRECORD
  5
63
102
{ACAD_REACTORS
330
16
102
}
330
16
100
AcDbXrecord
  1
PGRIDT
  1
*PGRIDT
  1
*
  1
*
 70
     0
  1
*
  1
*
  0
XRECORD
  5
64
102
{ACAD_REACTORS
330
16
102
}
330
16
100
AcDbXrecord
  1
PLAFONES
  1
0-*
  1
*
  1
*
 70
     0
  1
*
  1
*
  0
XRECORD
  5
65
102
{ACAD_REACTORS
330
16
102
}
330
16
100
AcDbXrecord
  1
PLANTAS
  1
P-*
  1
*
  1
*
 70
     0
  1
*
  1
*
  0
XRECORD
  5
66
102
{ACAD_REACTORS
330
16
102
}
330
16
100
AcDbXrecord
  1
Plot
  1
*
  1
*
  1
*
 70
  1024
  1
*
  1
*
  0
XRECORD
  5
67
102
{ACAD_REACTORS
330
16
102
}
330
16
100
AcDbXrecord
  1
PRENDIDAS
  1
*
  1
*
  1
*
 70
    13
  1
*
  1
*
  0
XRECORD
  5
68
102
{ACAD_REACTORS
330
16
102
}
330
16
100
AcDbXrecord
  1
PRENDIDOS
  1
*
  1
*
  1
*
 70
    12
  1
*
  1
*
  0
XRECORD
  5
69
102
{ACAD_REACTORS
330
16
102
}
330
16
100
AcDbXrecord
  1
print
  1
*
  1
7
  1
*
 70
  1280
  1
*
  1
*
  0
XRECORD
  5
6A
102
{ACAD_REACTORS
330
16
102
}
330
16
100
AcDbXrecord
  1
PT
  1
PT-*
  1
*
  1
*
 70
     0
  1
*
  1
*
  0
XRECORD
  5
6B
102
{ACAD_REACTORS
330
16
102
}
330
16
100
AcDbXrecord
  1
PTH
  1
PTH*
  1
*
  1
*
 70
     0
  1
*
  1
*
  0
XRECORD
  5
6C
102
{ACAD_REACTORS
330
16
102
}
330
16
100
AcDbXrecord
  1
PVGRID
  1
*PVGRID
  1
*
  1
*
 70
     0
  1
*
  1
*
  0
XRECORD
  5
6D
102
{ACAD_REACTORS
330
16
102
}
330
16
100
AcDbXrecord
  1
Red de Agua Potable
  1
Red de Agua Potable
  1
*
  1
*
 70
     1
  1
*
  1
*
  0
XRECORD
  5
6E
102
{ACAD_REACTORS
330
16
102
}
330
16
100
AcDbXrecord
  1
Red de Energia Electrica
  1
Lotes
  1
*
  1
*
 70
     1
  1
*
  1
*
  0
XRECORD
  5
6F
102
{ACAD_REACTORS
330
16
102
}
330
16
100
AcDbXrecord
  1
SEVERNI
  1
*-S
  1
*
  1
*
 70
     0
  1
*
  1
*
  0
XRECORD
  5
70
102
{ACAD_REACTORS
330
16
102
}
330
16
100
AcDbXrecord
  1
shin
  1
일*
  1
*
  1
*
 70
     0
  1
*
  1
*
  0
XRECORD
  5
71
102
{ACAD_REACTORS
330
16
102
}
330
16
100
AcDbXrecord
  1
SHOW ALL LAYER
  1
*
  1
*
  1
*
 70
     0
  1
*
  1
*
  0
XRECORD
  5
72
102
{ACAD_REACTORS
330
16
102
}
330
16
100
AcDbXrecord
  1
sin
  1
sin
  1
*
  1
*
 70
     0
  1
*
  1
*
  0
XRECORD
  5
73
102
{ACAD_REACTORS
330
16
102
}
330
16
100
AcDbXrecord
  1
STORAGE-CART
  1
STORAGE-CART*
  1
*
  1
*
 70
     0
  1
*
  1
*
  0
XRECORD
  5
74
102
{ACAD_REACTORS
330
16
102
}
330
16
100
AcDbXrecord
  1
T
  1
T*
  1
*
  1
*
 70
     0
  1
*
  1
*
  0
XRECORD
  5
75
102
{ACAD_REACTORS
330
16
102
}
330
16
100
AcDbXrecord
  1
TEXTOS
  1
TXT*
  1
*
  1
*
 70
     0
  1
*
  1
*
  0
XRECORD
  5
76
102
{ACAD_REACTORS
330
16
102
}
330
16
100
AcDbXrecord
  1
TEXTURAS
  1
*TEXTURAS
  1
*
  1
*
 70
     0
  1
*
  1
*
  0
XRECORD
  5
77
102
{ACAD_REACTORS
330
16
102
}
330
16
100
AcDbXrecord
  1
TUBERIAS
  1
T*
  1
*
  1
*
 70
     0
  1
*
  1
*
  0
XRECORD
  5
78
102
{ACAD_REACTORS
330
16
102
}
330
16
100
AcDbXrecord
  1
UNFRZ
  1
*
  1
*
  1
*
 70
    12
  1
*
  1
*
  0
XRECORD
  5
79
102
{ACAD_REACTORS
330
16
102
}
330
16
100
AcDbXrecord
  1
v\U+0161echny nepou\U+017E\U+00EDvan\U+00E9
  1
*
  1
*
  1
*
 70
     0
  1
*
  1
*
  0
XRECORD
  5
7A
102
{ACAD_REACTORS
330
16
102
}
330
16
100
AcDbXrecord
  1
VA
  1
VA*
  1
*
  1
*
 70
     0
  1
*
  1
*
  0
XRECORD
  5
7B
102
{ACAD_REACTORS
330
16
102
}
330
16
100
AcDbXrecord
  1
Ventilaci\U+00F3n
  1
*
  1
*
  1
*
 70
     0
  1
*
  1
*
  0
XRECORD
  5
7C
102
{ACAD_REACTORS
330
16
102
}
330
16
100
AcDbXrecord
  1
VYHODNI
  1
*-V
  1
*
  1
*
 70
     0
  1
*
  1
*
  0
XRECORD
  5
7D
102
{ACAD_REACTORS
330
16
102
}
330
16
100
AcDbXrecord
  1
Yo
  1
Muros
  1
*
  1
*
 70
     0
  1
*
  1
*
  0
XRECORD
  5
7E
102
{ACAD_REACTORS
330
16
102
}
330
16
100
AcDbXrecord
  1
ZAPADNI
  1
*-Z
  1
*
  1
*
 70
     0
  1
*
  1
*
  0
XRECORD
  5
7F
102
{ACAD_REACTORS
330
16
102
}
330
16
100
AcDbXrecord
  1
사용
  1
*
  1
*
  1
*
 70
   256
  1
*
  1
*
  0
XRECORD
  5
80
102
{ACAD_REACTORS
330
16
102
}
330
16
100
AcDbXrecord
  1
신규
  1
신규
  1
*
  1
*
 70
     0
  1
*
  1
*
  0
XRECORD
  5
81
102
{ACAD_REACTORS
330
16
102
}
330
16
100
AcDbXrecord
  1
실박스
  1
BLO,SYM,SYM1,SYM2
  1
*
  1
*
 70
     0
  1
*
  1
*
  0
XRECORD
  5
82
102
{ACAD_REACTORS
330
16
102
}
330
16
100
AcDbXrecord
  1
우리토목
  1
w-*
  1
*
  1
*
 70
     0
  1
*
  1
*
  0
XRECORD
  5
83
102
{ACAD_REACTORS
330
16
102
}
330
16
100
AcDbXrecord
  1
주차
  1
car*
  1
*
  1
*
 70
     0
  1
*
  1
*
  0
XRECORD
  5
84
102
{ACAD_REACTORS
330
16
102
}
330
16
100
AcDbXrecord
  1
지상정밀
  1
*
  1
*
  1
*
 70
     0
  1
*
  1
*
  0
XRECORD
  5
85
102
{ACAD_REACTORS
330
16
102
}
330
16
100
AcDbXrecord
  1
쩜선
  1
*
  1
*
  1
*
 70
     0
  1
*
  1
*
  0
XRECORD
  5
86
102
{ACAD_REACTORS
330
16
102
}
330
16
100
AcDbXrecord
  1
플로터 작업층
  1
*
  1
*
  1
*
 70
  1025
  1
*
  1
*
  0
XRECORD
  5
87
102
{ACAD_REACTORS
330
16
102
}
330
16
100
AcDbXrecord
  1
현재 작업층
  1
*
  1
*
  1
*
 70
     1
  1
*
  1
*
  0
XRECORD
  5
88
102
{ACAD_REACTORS
330
16
102
}
330
16
100
AcDbXrecord
  1
현재 잠금
  1
*
  1
*
  1
*
 70
   257
  1
*
  1
*
  0
ENDSEC
  0
EOF
