  0
SECTION
  2
HEADER
  9
$ACADVER
  1
AC1014
  9
$ACADMAINTVER
 70
     9
  9
$DWGCODEPAGE
  3
ANSI_949
  9
$INSBASE
 10
0.0
 20
0.0
 30
0.0
  9
$EXTMIN
 10
-5.213482378487242
 20
-7.91947126800369
 30
-0.0015258207003583
  9
$EXTMAX
 10
330.9975621348421
 20
372.8862092136732
 30
0.0000000349246037
  9
$LIMMIN
 10
0.0
 20
0.0
  9
$LIMMAX
 10
420.0
 20
297.0
  9
$ORTHOMODE
 70
     0
  9
$REGENMODE
 70
     1
  9
$FILLMODE
 70
     1
  9
$QTEXTMODE
 70
     0
  9
$MIRRTEXT
 70
     0
  9
$DRAGMODE
 70
     2
  9
$LTSCALE
 40
0.2
  9
$OSMODE
 70
   567
  9
$ATTMODE
 70
     1
  9
$TEXTSIZE
 40
5.777225951253058
  9
$TRACEWID
 40
1.0
  9
$TEXTSTYLE
  7
STANDARD
  9
$CLAYER
  8
0
  9
$CELTYPE
  6
BYLAYER
  9
$CECOLOR
 62
   256
  9
$CELTSCALE
 40
1.0
  9
$DELOBJ
 70
     1
  9
$DISPSILH
 70
     0
  9
$DIMSCALE
 40
1.0
  9
$DIMASZ
 40
3.0
  9
$DIMEXO
 40
1.0
  9
$DIMDLI
 40
10.0
  9
$DIMRND
 40
0.0
  9
$DIMDLE
 40
0.0
  9
$DIMEXE
 40
0.6
  9
$DIMTP
 40
0.0
  9
$DIMTM
 40
0.0
  9
$DIMTXT
 40
3.5
  9
$DIMCEN
 40
0.09
  9
$DIMTSZ
 40
0.0
  9
$DIMTOL
 70
     0
  9
$DIMLIM
 70
     0
  9
$DIMTIH
 70
     0
  9
$DIMTOH
 70
     0
  9
$DIMSE1
 70
     0
  9
$DIMSE2
 70
     0
  9
$DIMTAD
 70
     1
  9
$DIMZIN
 70
     8
  9
$DIMBLK
  1

  9
$DIMASO
 70
     1
  9
$DIMSHO
 70
     1
  9
$DIMPOST
  1

  9
$DIMAPOST
  1

  9
$DIMALT
 70
     0
  9
$DIMALTD
 70
     2
  9
$DIMALTF
 40
25.4
  9
$DIMLFAC
 40
1.0
  9
$DIMTOFL
 70
     1
  9
$DIMTVP
 40
0.0
  9
$DIMTIX
 70
     1
  9
$DIMSOXD
 70
     0
  9
$DIMSAH
 70
     0
  9
$DIMBLK1
  1

  9
$DIMBLK2
  1

  9
$DIMSTYLE
  2
1_1_2
  9
$DIMCLRD
 70
   123
  9
$DIMCLRE
 70
   123
  9
$DIMCLRT
 70
     3
  9
$DIMTFAC
 40
1.0
  9
$DIMGAP
 40
1.0
  9
$DIMJUST
 70
     0
  9
$DIMSD1
 70
     0
  9
$DIMSD2
 70
     0
  9
$DIMTOLJ
 70
     1
  9
$DIMTZIN
 70
     0
  9
$DIMALTZ
 70
     0
  9
$DIMALTTZ
 70
     0
  9
$DIMFIT
 70
     0
  9
$DIMUPT
 70
     1
  9
$DIMUNIT
 70
     2
  9
$DIMDEC
 70
     2
  9
$DIMTDEC
 70
     2
  9
$DIMALTU
 70
     2
  9
$DIMALTTD
 70
     2
  9
$DIMTXSTY
  7
STANDARD
  9
$DIMAUNIT
 70
     1
  9
$LUNITS
 70
     2
  9
$LUPREC
 70
     4
  9
$SKETCHINC
 40
1.0
  9
$FILLETRAD
 40
0.5
  9
$AUNITS
 70
     0
  9
$AUPREC
 70
     0
  9
$MENU
  1
.
  9
$ELEVATION
 40
0.0
  9
$PELEVATION
 40
0.0
  9
$THICKNESS
 40
0.0
  9
$LIMCHECK
 70
     0
  9
$BLIPMODE
 70
     1
  9
$CHAMFERA
 40
1.0
  9
$CHAMFERB
 40
1.0
  9
$CHAMFERC
 40
20.0
  9
$CHAMFERD
 40
0.0
  9
$SKPOLY
 70
     0
  9
$TDCREATE
 40
2452839.586179271
  9
$TDUPDATE
 40
2453376.721403529
  9
$TDINDWG
 40
11.1154967014
  9
$TDUSRTIMER
 40
11.1154965162
  9
$USRTIMER
 70
     1
  9
$ANGBASE
 50
0.0
  9
$ANGDIR
 70
     0
  9
$PDMODE
 70
     0
  9
$PDSIZE
 40
0.0
  9
$PLINEWID
 40
0.0
  9
$COORDS
 70
     2
  9
$SPLFRAME
 70
     0
  9
$SPLINETYPE
 70
     6
  9
$SPLINESEGS
 70
   800
  9
$ATTDIA
 70
     0
  9
$ATTREQ
 70
     1
  9
$HANDLING
 70
 22529
  9
$HANDSEED
  5
4EB
  9
$SURFTAB1
 70
     6
  9
$SURFTAB2
 70
     6
  9
$SURFTYPE
 70
     6
  9
$SURFU
 70
     6
  9
$SURFV
 70
     6
  9
$UCSNAME
  2

  9
$UCSORG
 10
0.0
 20
0.0
 30
0.0
  9
$UCSXDIR
 10
1.0
 20
0.0
 30
0.0
  9
$UCSYDIR
 10
0.0
 20
1.0
 30
0.0
  9
$PUCSNAME
  2

  9
$PUCSORG
 10
0.0
 20
0.0
 30
0.0
  9
$PUCSXDIR
 10
1.0
 20
0.0
 30
0.0
  9
$PUCSYDIR
 10
0.0
 20
1.0
 30
0.0
  9
$USERI1
 70
     0
  9
$USERI2
 70
     0
  9
$USERI3
 70
     0
  9
$USERI4
 70
     0
  9
$USERI5
 70
     0
  9
$USERR1
 40
0.0
  9
$USERR2
 40
0.0
  9
$USERR3
 40
0.0
  9
$USERR4
 40
0.0
  9
$USERR5
 40
0.0
  9
$WORLDVIEW
 70
     1
  9
$SHADEDGE
 70
     3
  9
$SHADEDIF
 70
    70
  9
$TILEMODE
 70
     1
  9
$MAXACTVP
 70
    48
  9
$PINSBASE
 10
0.0
 20
0.0
 30
0.0
  9
$PLIMCHECK
 70
     0
  9
$PEXTMIN
 10
0.0
 20
0.0
 30
0.0
  9
$PEXTMAX
 10
0.0
 20
0.0
 30
0.0
  9
$PLIMMIN
 10
0.0
 20
0.0
  9
$PLIMMAX
 10
12.0
 20
9.0
  9
$UNITMODE
 70
     0
  9
$VISRETAIN
 70
     1
  9
$PLINEGEN
 70
     0
  9
$PSLTSCALE
 70
     1
  9
$TREEDEPTH
 70
  3020
  9
$PICKSTYLE
 70
     0
  9
$CMLSTYLE
  2
STANDARD
  9
$CMLJUST
 70
     0
  9
$CMLSCALE
 40
20.0
  9
$PROXYGRAPHICS
 70
     1
  9
$MEASUREMENT
 70
     1
  0
ENDSEC
  0
SECTION
  2
CLASSES
  0
CLASS
  1
ACDBDICTIONARYWDFLT
  2
AcDbDictionaryWithDefault
  3
AutoCAD 2000
 90
        0
280
     0
281
     0
  0
CLASS
  1
ACDBPLACEHOLDER
  2
AcDbPlaceHolder
  3
AutoCAD 2000
 90
        0
280
     0
281
     0
  0
CLASS
  1
LAYOUT
  2
AcDbLayout
  3
AutoCAD 2000
 90
        0
280
     0
281
     0
  0
CLASS
  1
DICTIONARYVAR
  2
AcDbDictionaryVar
  3
AutoCAD 2000
 90
        0
280
     0
281
     0
  0
CLASS
  1
DIMASSOC
  2
AcDbDimAssoc
  3
"AcDbDimAssoc|Product Desc:     AcDim ARX App For Dimension|Company:          Autodesk, Inc.|WEB Address:      www.autodesk.com"
 90
        0
280
     0
281
     0
  0
CLASS
  1
LONG_TRANSACTION
  2
AcDbLongTransaction
  3
AutoCAD 2000
 90
        0
280
     0
281
     0
  0
CLASS
  1
LWPOLYLINE
  2
AcDbPolyline
  3
AutoCAD 2000
 90
        0
280
     0
281
     1
  0
CLASS
  1
HATCH
  2
AcDbHatch
  3
AutoCAD 2000
 90
        0
280
     0
281
     1
  0
CLASS
  1
XRECORD
  2
AcDbXrecord
  3
AutoCAD 2000
 90
        0
280
     0
281
     0
  0
CLASS
  1
LONG_TRANSACTION
  2
AcDbLongTransaction
  3
AutoCAD 2000
 90
        0
280
     0
281
     0
  0
CLASS
  1
LWPOLYLINE
  2
AcDbPolyline
  3
AutoCAD 2000
 90
        0
280
     0
281
     1
  0
CLASS
  1
HATCH
  2
AcDbHatch
  3
AutoCAD 2000
 90
        0
280
     0
281
     1
  0
CLASS
  1
XRECORD
  2
AcDbXrecord
  3
AutoCAD 2000
 90
        0
280
     0
281
     0
  0
CLASS
  1
LONG_TRANSACTION
  2
AcDbLongTransaction
  3
AutoCAD 2000
 90
        0
280
     0
281
     0
  0
CLASS
  1
LWPOLYLINE
  2
AcDbPolyline
  3
AutoCAD 2000
 90
        0
280
     0
281
     1
  0
CLASS
  1
HATCH
  2
AcDbHatch
  3
AutoCAD 2000
 90
        0
280
     0
281
     1
  0
CLASS
  1
XRECORD
  2
AcDbXrecord
  3
AutoCAD 2000
 90
        0
280
     0
281
     0
  0
CLASS
  1
LONG_TRANSACTION
  2
AcDbLongTransaction
  3
AutoCAD 2000
 90
        0
280
     0
281
     0
  0
CLASS
  1
LWPOLYLINE
  2
AcDbPolyline
  3
AutoCAD 2000
 90
        0
280
     0
281
     1
  0
CLASS
  1
HATCH
  2
AcDbHatch
  3
AutoCAD 2000
 90
        0
280
     0
281
     1
  0
CLASS
  1
XRECORD
  2
AcDbXrecord
  3
AutoCAD 2000
 90
        0
280
     0
281
     0
  0
CLASS
  1
LONG_TRANSACTION
  2
AcDbLongTransaction
  3
AutoCAD 2000
 90
        0
280
     0
281
     0
  0
CLASS
  1
LWPOLYLINE
  2
AcDbPolyline
  3
AutoCAD 2000
 90
        0
280
     0
281
     1
  0
CLASS
  1
HATCH
  2
AcDbHatch
  3
AutoCAD 2000
 90
        0
280
     0
281
     1
  0
CLASS
  1
XRECORD
  2
AcDbXrecord
  3
AutoCAD 2000
 90
        0
280
     0
281
     0
  0
CLASS
  1
LONG_TRANSACTION
  2
AcDbLongTransaction
  3
AutoCAD 2000
 90
        0
280
     0
281
     0
  0
CLASS
  1
LWPOLYLINE
  2
AcDbPolyline
  3
AutoCAD 2000
 90
        0
280
     0
281
     1
  0
CLASS
  1
HATCH
  2
AcDbHatch
  3
AutoCAD 2000
 90
        0
280
     0
281
     1
  0
CLASS
  1
XRECORD
  2
AcDbXrecord
  3
AutoCAD 2000
 90
        0
280
     0
281
     0
  0
CLASS
  1
LONG_TRANSACTION
  2
AcDbLongTransaction
  3
AutoCAD 2000
 90
        0
280
     0
281
     0
  0
CLASS
  1
LWPOLYLINE
  2
AcDbPolyline
  3
AutoCAD 2000
 90
        0
280
     0
281
     1
  0
CLASS
  1
HATCH
  2
AcDbHatch
  3
AutoCAD 2000
 90
        0
280
     0
281
     1
  0
CLASS
  1
XRECORD
  2
AcDbXrecord
  3
AutoCAD 2000
 90
        0
280
     0
281
     0
  0
CLASS
  1
LONG_TRANSACTION
  2
AcDbLongTransaction
  3
AutoCAD 2000
 90
        0
280
     0
281
     0
  0
CLASS
  1
LWPOLYLINE
  2
AcDbPolyline
  3
AutoCAD 2000
 90
        0
280
     0
281
     1
  0
CLASS
  1
HATCH
  2
AcDbHatch
  3
AutoCAD 2000
 90
        0
280
     0
281
     1
  0
CLASS
  1
XRECORD
  2
AcDbXrecord
  3
AutoCAD 2000
 90
        0
280
     0
281
     0
  0
CLASS
  1
LONG_TRANSACTION
  2
AcDbLongTransaction
  3
AutoCAD 2000
 90
        0
280
     0
281
     0
  0
CLASS
  1
LWPOLYLINE
  2
AcDbPolyline
  3
AutoCAD 2000
 90
        0
280
     0
281
     1
  0
CLASS
  1
HATCH
  2
AcDbHatch
  3
AutoCAD 2000
 90
        0
280
     0
281
     1
  0
CLASS
  1
XRECORD
  2
AcDbXrecord
  3
AutoCAD 2000
 90
        0
280
     0
281
     0
  0
CLASS
  1
LONG_TRANSACTION
  2
AcDbLongTransaction
  3
AutoCAD 2000
 90
        0
280
     0
281
     0
  0
CLASS
  1
LWPOLYLINE
  2
AcDbPolyline
  3
AutoCAD 2000
 90
        0
280
     0
281
     1
  0
CLASS
  1
HATCH
  2
AcDbHatch
  3
AutoCAD 2000
 90
        0
280
     0
281
     1
  0
CLASS
  1
XRECORD
  2
AcDbXrecord
  3
AutoCAD 2000
 90
        0
280
     0
281
     0
  0
CLASS
  1
LONG_TRANSACTION
  2
AcDbLongTransaction
  3
AutoCAD 2000
 90
        0
280
     0
281
     0
  0
CLASS
  1
LWPOLYLINE
  2
AcDbPolyline
  3
AutoCAD 2000
 90
        0
280
     0
281
     1
  0
CLASS
  1
HATCH
  2
AcDbHatch
  3
AutoCAD 2000
 90
        0
280
     0
281
     1
  0
CLASS
  1
XRECORD
  2
AcDbXrecord
  3
AutoCAD 2000
 90
        0
280
     0
281
     0
  0
CLASS
  1
LONG_TRANSACTION
  2
AcDbLongTransaction
  3
AutoCAD 2000
 90
        0
280
     0
281
     0
  0
CLASS
  1
LWPOLYLINE
  2
AcDbPolyline
  3
AutoCAD 2000
 90
        0
280
     0
281
     1
  0
CLASS
  1
HATCH
  2
AcDbHatch
  3
AutoCAD 2000
 90
        0
280
     0
281
     1
  0
CLASS
  1
XRECORD
  2
AcDbXrecord
  3
AutoCAD 2000
 90
        0
280
     0
281
     0
  0
CLASS
  1
LONG_TRANSACTION
  2
AcDbLongTransaction
  3
AutoCAD 2000
 90
        0
280
     0
281
     0
  0
CLASS
  1
LWPOLYLINE
  2
AcDbPolyline
  3
AutoCAD 2000
 90
        0
280
     0
281
     1
  0
CLASS
  1
HATCH
  2
AcDbHatch
  3
AutoCAD 2000
 90
        0
280
     0
281
     1
  0
CLASS
  1
XRECORD
  2
AcDbXrecord
  3
AutoCAD 2000
 90
        0
280
     0
281
     0
  0
CLASS
  1
LONG_TRANSACTION
  2
AcDbLongTransaction
  3
AutoCAD 2000
 90
        0
280
     0
281
     0
  0
CLASS
  1
LWPOLYLINE
  2
AcDbPolyline
  3
AutoCAD 2000
 90
        0
280
     0
281
     1
  0
CLASS
  1
HATCH
  2
AcDbHatch
  3
AutoCAD 2000
 90
        0
280
     0
281
     1
  0
CLASS
  1
XRECORD
  2
AcDbXrecord
  3
AutoCAD 2000
 90
        0
280
     0
281
     0
  0
CLASS
  1
LONG_TRANSACTION
  2
AcDbLongTransaction
  3
AutoCAD 2000
 90
        0
280
     0
281
     0
  0
CLASS
  1
LWPOLYLINE
  2
AcDbPolyline
  3
AutoCAD 2000
 90
        0
280
     0
281
     1
  0
CLASS
  1
HATCH
  2
AcDbHatch
  3
AutoCAD 2000
 90
        0
280
     0
281
     1
  0
CLASS
  1
XRECORD
  2
AcDbXrecord
  3
AutoCAD 2000
 90
        0
280
     0
281
     0
  0
CLASS
  1
LONG_TRANSACTION
  2
AcDbLongTransaction
  3
AutoCAD 2000
 90
        0
280
     0
281
     0
  0
CLASS
  1
LWPOLYLINE
  2
AcDbPolyline
  3
AutoCAD 2000
 90
        0
280
     0
281
     1
  0
CLASS
  1
HATCH
  2
AcDbHatch
  3
AutoCAD 2000
 90
        0
280
     0
281
     1
  0
CLASS
  1
XRECORD
  2
AcDbXrecord
  3
AutoCAD 2000
 90
        0
280
     0
281
     0
  0
CLASS
  1
LONG_TRANSACTION
  2
AcDbLongTransaction
  3
AutoCAD 2000
 90
        0
280
     0
281
     0
  0
CLASS
  1
LWPOLYLINE
  2
AcDbPolyline
  3
AutoCAD 2000
 90
        0
280
     0
281
     1
  0
CLASS
  1
HATCH
  2
AcDbHatch
  3
AutoCAD 2000
 90
        0
280
     0
281
     1
  0
CLASS
  1
XRECORD
  2
AcDbXrecord
  3
AutoCAD 2000
 90
        0
280
     0
281
     0
  0
CLASS
  1
LONG_TRANSACTION
  2
AcDbLongTransaction
  3
AutoCAD 2000
 90
        0
280
     0
281
     0
  0
CLASS
  1
LWPOLYLINE
  2
AcDbPolyline
  3
AutoCAD 2000
 90
        0
280
     0
281
     1
  0
CLASS
  1
HATCH
  2
AcDbHatch
  3
AutoCAD 2000
 90
        0
280
     0
281
     1
  0
CLASS
  1
XRECORD
  2
AcDbXrecord
  3
AutoCAD 2000
 90
        0
280
     0
281
     0
  0
CLASS
  1
LONG_TRANSACTION
  2
AcDbLongTransaction
  3
AutoCAD 2000
 90
        0
280
     0
281
     0
  0
CLASS
  1
LWPOLYLINE
  2
AcDbPolyline
  3
AutoCAD 2000
 90
        0
280
     0
281
     1
  0
CLASS
  1
HATCH
  2
AcDbHatch
  3
AutoCAD 2000
 90
        0
280
     0
281
     1
  0
CLASS
  1
XRECORD
  2
AcDbXrecord
  3
AutoCAD 2000
 90
        0
280
     0
281
     0
  0
CLASS
  1
LONG_TRANSACTION
  2
AcDbLongTransaction
  3
AutoCAD 2000
 90
        0
280
     0
281
     0
  0
CLASS
  1
LWPOLYLINE
  2
AcDbPolyline
  3
AutoCAD 2000
 90
        0
280
     0
281
     1
  0
CLASS
  1
HATCH
  2
AcDbHatch
  3
AutoCAD 2000
 90
        0
280
     0
281
     1
  0
CLASS
  1
XRECORD
  2
AcDbXrecord
  3
AutoCAD 2000
 90
        0
280
     0
281
     0
  0
CLASS
  1
LONG_TRANSACTION
  2
AcDbLongTransaction
  3
AutoCAD 2000
 90
        0
280
     0
281
     0
  0
CLASS
  1
LWPOLYLINE
  2
AcDbPolyline
  3
AutoCAD 2000
 90
        0
280
     0
281
     1
  0
CLASS
  1
HATCH
  2
AcDbHatch
  3
AutoCAD 2000
 90
        0
280
     0
281
     1
  0
CLASS
  1
XRECORD
  2
AcDbXrecord
  3
AutoCAD 2000
 90
        0
280
     0
281
     0
  0
CLASS
  1
LONG_TRANSACTION
  2
AcDbLongTransaction
  3
AutoCAD 2000
 90
        0
280
     0
281
     0
  0
CLASS
  1
LWPOLYLINE
  2
AcDbPolyline
  3
AutoCAD 2000
 90
        0
280
     0
281
     1
  0
CLASS
  1
HATCH
  2
AcDbHatch
  3
AutoCAD 2000
 90
        0
280
     0
281
     1
  0
CLASS
  1
XRECORD
  2
AcDbXrecord
  3
AutoCAD 2000
 90
        0
280
     0
281
     0
  0
CLASS
  1
LONG_TRANSACTION
  2
AcDbLongTransaction
  3
AutoCAD 2000
 90
        0
280
     0
281
     0
  0
CLASS
  1
LWPOLYLINE
  2
AcDbPolyline
  3
AutoCAD 2000
 90
        0
280
     0
281
     1
  0
CLASS
  1
HATCH
  2
AcDbHatch
  3
AutoCAD 2000
 90
        0
280
     0
281
     1
  0
CLASS
  1
XRECORD
  2
AcDbXrecord
  3
AutoCAD 2000
 90
        0
280
     0
281
     0
  0
CLASS
  1
LONG_TRANSACTION
  2
AcDbLongTransaction
  3
AutoCAD 2000
 90
        0
280
     0
281
     0
  0
CLASS
  1
LWPOLYLINE
  2
AcDbPolyline
  3
AutoCAD 2000
 90
        0
280
     0
281
     1
  0
CLASS
  1
HATCH
  2
AcDbHatch
  3
AutoCAD 2000
 90
        0
280
     0
281
     1
  0
CLASS
  1
XRECORD
  2
AcDbXrecord
  3
AutoCAD 2000
 90
        0
280
     0
281
     0
  0
CLASS
  1
LONG_TRANSACTION
  2
AcDbLongTransaction
  3
AutoCAD 2000
 90
        0
280
     0
281
     0
  0
CLASS
  1
LWPOLYLINE
  2
AcDbPolyline
  3
AutoCAD 2000
 90
        0
280
     0
281
     1
  0
CLASS
  1
HATCH
  2
AcDbHatch
  3
AutoCAD 2000
 90
        0
280
     0
281
     1
  0
CLASS
  1
XRECORD
  2
AcDbXrecord
  3
AutoCAD 2000
 90
        0
280
     0
281
     0
  0
CLASS
  1
LONG_TRANSACTION
  2
AcDbLongTransaction
  3
AutoCAD 2000
 90
        0
280
     0
281
     0
  0
CLASS
  1
LWPOLYLINE
  2
AcDbPolyline
  3
AutoCAD 2000
 90
        0
280
     0
281
     1
  0
CLASS
  1
HATCH
  2
AcDbHatch
  3
AutoCAD 2000
 90
        0
280
     0
281
     1
  0
CLASS
  1
XRECORD
  2
AcDbXrecord
  3
AutoCAD 2000
 90
        0
280
     0
281
     0
  0
CLASS
  1
LONG_TRANSACTION
  2
AcDbLongTransaction
  3
AutoCAD 2000
 90
        0
280
     0
281
     0
  0
CLASS
  1
LWPOLYLINE
  2
AcDbPolyline
  3
AutoCAD 2000
 90
        0
280
     0
281
     1
  0
CLASS
  1
HATCH
  2
AcDbHatch
  3
AutoCAD 2000
 90
        0
280
     0
281
     1
  0
CLASS
  1
XRECORD
  2
AcDbXrecord
  3
AutoCAD 2000
 90
        0
280
     0
281
     0
  0
CLASS
  1
LONG_TRANSACTION
  2
AcDbLongTransaction
  3
AutoCAD 2000
 90
        0
280
     0
281
     0
  0
CLASS
  1
LWPOLYLINE
  2
AcDbPolyline
  3
AutoCAD 2000
 90
        0
280
     0
281
     1
  0
CLASS
  1
HATCH
  2
AcDbHatch
  3
AutoCAD 2000
 90
        0
280
     0
281
     1
  0
CLASS
  1
XRECORD
  2
AcDbXrecord
  3
AutoCAD 2000
 90
        0
280
     0
281
     0
  0
CLASS
  1
LONG_TRANSACTION
  2
AcDbLongTransaction
  3
AutoCAD 2000
 90
        0
280
     0
281
     0
  0
CLASS
  1
LWPOLYLINE
  2
AcDbPolyline
  3
AutoCAD 2000
 90
        0
280
     0
281
     1
  0
CLASS
  1
HATCH
  2
AcDbHatch
  3
AutoCAD 2000
 90
        0
280
     0
281
     1
  0
CLASS
  1
XRECORD
  2
AcDbXrecord
  3
AutoCAD 2000
 90
        0
280
     0
281
     0
  0
CLASS
  1
LONG_TRANSACTION
  2
AcDbLongTransaction
  3
AutoCAD 2000
 90
        0
280
     0
281
     0
  0
CLASS
  1
LWPOLYLINE
  2
AcDbPolyline
  3
AutoCAD 2000
 90
        0
280
     0
281
     1
  0
CLASS
  1
HATCH
  2
AcDbHatch
  3
AutoCAD 2000
 90
        0
280
     0
281
     1
  0
CLASS
  1
XRECORD
  2
AcDbXrecord
  3
AutoCAD 2000
 90
        0
280
     0
281
     0
  0
CLASS
  1
LONG_TRANSACTION
  2
AcDbLongTransaction
  3
AutoCAD 2000
 90
        0
280
     0
281
     0
  0
CLASS
  1
LWPOLYLINE
  2
AcDbPolyline
  3
AutoCAD 2000
 90
        0
280
     0
281
     1
  0
CLASS
  1
HATCH
  2
AcDbHatch
  3
AutoCAD 2000
 90
        0
280
     0
281
     1
  0
CLASS
  1
XRECORD
  2
AcDbXrecord
  3
AutoCAD 2000
 90
        0
280
     0
281
     0
  0
CLASS
  1
LONG_TRANSACTION
  2
AcDbLongTransaction
  3
AutoCAD 2000
 90
        0
280
     0
281
     0
  0
CLASS
  1
LWPOLYLINE
  2
AcDbPolyline
  3
AutoCAD 2000
 90
        0
280
     0
281
     1
  0
CLASS
  1
HATCH
  2
AcDbHatch
  3
AutoCAD 2000
 90
        0
280
     0
281
     1
  0
CLASS
  1
XRECORD
  2
AcDbXrecord
  3
AutoCAD 2000
 90
        0
280
     0
281
     0
  0
CLASS
  1
LONG_TRANSACTION
  2
AcDbLongTransaction
  3
AutoCAD 2000
 90
        0
280
     0
281
     0
  0
CLASS
  1
LWPOLYLINE
  2
AcDbPolyline
  3
AutoCAD 2000
 90
        0
280
     0
281
     1
  0
CLASS
  1
HATCH
  2
AcDbHatch
  3
AutoCAD 2000
 90
        0
280
     0
281
     1
  0
CLASS
  1
XRECORD
  2
AcDbXrecord
  3
AutoCAD 2000
 90
        0
280
     0
281
     0
  0
CLASS
  1
LONG_TRANSACTION
  2
AcDbLongTransaction
  3
AutoCAD 2000
 90
        0
280
     0
281
     0
  0
CLASS
  1
LWPOLYLINE
  2
AcDbPolyline
  3
AutoCAD 2000
 90
        0
280
     0
281
     1
  0
CLASS
  1
HATCH
  2
AcDbHatch
  3
AutoCAD 2000
 90
        0
280
     0
281
     1
  0
CLASS
  1
XRECORD
  2
AcDbXrecord
  3
AutoCAD 2000
 90
        0
280
     0
281
     0
  0
CLASS
  1
LONG_TRANSACTION
  2
AcDbLongTransaction
  3
AutoCAD 2000
 90
        0
280
     0
281
     0
  0
CLASS
  1
LWPOLYLINE
  2
AcDbPolyline
  3
AutoCAD 2000
 90
        0
280
     0
281
     1
  0
CLASS
  1
HATCH
  2
AcDbHatch
  3
AutoCAD 2000
 90
        0
280
     0
281
     1
  0
CLASS
  1
XRECORD
  2
AcDbXrecord
  3
AutoCAD 2000
 90
        0
280
     0
281
     0
  0
CLASS
  1
LONG_TRANSACTION
  2
AcDbLongTransaction
  3
AutoCAD 2000
 90
        0
280
     0
281
     0
  0
CLASS
  1
LWPOLYLINE
  2
AcDbPolyline
  3
AutoCAD 2000
 90
        0
280
     0
281
     1
  0
CLASS
  1
HATCH
  2
AcDbHatch
  3
AutoCAD 2000
 90
        0
280
     0
281
     1
  0
CLASS
  1
XRECORD
  2
AcDbXrecord
  3
AutoCAD 2000
 90
        0
280
     0
281
     0
  0
CLASS
  1
LONG_TRANSACTION
  2
AcDbLongTransaction
  3
AutoCAD 2000
 90
        0
280
     0
281
     0
  0
CLASS
  1
LWPOLYLINE
  2
AcDbPolyline
  3
AutoCAD 2000
 90
        0
280
     0
281
     1
  0
CLASS
  1
HATCH
  2
AcDbHatch
  3
AutoCAD 2000
 90
        0
280
     0
281
     1
  0
CLASS
  1
XRECORD
  2
AcDbXrecord
  3
AutoCAD 2000
 90
        0
280
     0
281
     0
  0
CLASS
  1
LONG_TRANSACTION
  2
AcDbLongTransaction
  3
AutoCAD 2000
 90
        0
280
     0
281
     0
  0
CLASS
  1
LWPOLYLINE
  2
AcDbPolyline
  3
AutoCAD 2000
 90
        0
280
     0
281
     1
  0
CLASS
  1
HATCH
  2
AcDbHatch
  3
AutoCAD 2000
 90
        0
280
     0
281
     1
  0
CLASS
  1
XRECORD
  2
AcDbXrecord
  3
AutoCAD 2000
 90
        0
280
     0
281
     0
  0
CLASS
  1
LONG_TRANSACTION
  2
AcDbLongTransaction
  3
AutoCAD 2000
 90
        0
280
     0
281
     0
  0
CLASS
  1
LWPOLYLINE
  2
AcDbPolyline
  3
AutoCAD 2000
 90
        0
280
     0
281
     1
  0
CLASS
  1
HATCH
  2
AcDbHatch
  3
AutoCAD 2000
 90
        0
280
     0
281
     1
  0
CLASS
  1
XRECORD
  2
AcDbXrecord
  3
AutoCAD 2000
 90
        0
280
     0
281
     0
  0
CLASS
  1
LONG_TRANSACTION
  2
AcDbLongTransaction
  3
AutoCAD 2000
 90
        0
280
     0
281
     0
  0
CLASS
  1
LWPOLYLINE
  2
AcDbPolyline
  3
AutoCAD 2000
 90
        0
280
     0
281
     1
  0
CLASS
  1
HATCH
  2
AcDbHatch
  3
AutoCAD 2000
 90
        0
280
     0
281
     1
  0
CLASS
  1
XRECORD
  2
AcDbXrecord
  3
AutoCAD 2000
 90
        0
280
     0
281
     0
  0
CLASS
  1
LONG_TRANSACTION
  2
AcDbLongTransaction
  3
AutoCAD 2000
 90
        0
280
     0
281
     0
  0
CLASS
  1
LWPOLYLINE
  2
AcDbPolyline
  3
AutoCAD 2000
 90
        0
280
     0
281
     1
  0
CLASS
  1
HATCH
  2
AcDbHatch
  3
AutoCAD 2000
 90
        0
280
     0
281
     1
  0
CLASS
  1
XRECORD
  2
AcDbXrecord
  3
AutoCAD 2000
 90
        0
280
     0
281
     0
  0
CLASS
  1
LONG_TRANSACTION
  2
AcDbLongTransaction
  3
AutoCAD 2000
 90
        0
280
     0
281
     0
  0
CLASS
  1
LWPOLYLINE
  2
AcDbPolyline
  3
AutoCAD 2000
 90
        0
280
     0
281
     1
  0
CLASS
  1
HATCH
  2
AcDbHatch
  3
AutoCAD 2000
 90
        0
280
     0
281
     1
  0
CLASS
  1
XRECORD
  2
AcDbXrecord
  3
AutoCAD 2000
 90
        0
280
     0
281
     0
  0
CLASS
  1
LONG_TRANSACTION
  2
AcDbLongTransaction
  3
AutoCAD 2000
 90
        0
280
     0
281
     0
  0
CLASS
  1
LWPOLYLINE
  2
AcDbPolyline
  3
AutoCAD 2000
 90
        0
280
     0
281
     1
  0
CLASS
  1
HATCH
  2
AcDbHatch
  3
AutoCAD 2000
 90
        0
280
     0
281
     1
  0
CLASS
  1
XRECORD
  2
AcDbXrecord
  3
AutoCAD 2000
 90
        0
280
     0
281
     0
  0
CLASS
  1
LONG_TRANSACTION
  2
AcDbLongTransaction
  3
AutoCAD 2000
 90
        0
280
     0
281
     0
  0
CLASS
  1
LWPOLYLINE
  2
AcDbPolyline
  3
AutoCAD 2000
 90
        0
280
     0
281
     1
  0
CLASS
  1
HATCH
  2
AcDbHatch
  3
AutoCAD 2000
 90
        0
280
     0
281
     1
  0
CLASS
  1
XRECORD
  2
AcDbXrecord
  3
AutoCAD 2000
 90
        0
280
     0
281
     0
  0
CLASS
  1
LONG_TRANSACTION
  2
AcDbLongTransaction
  3
AutoCAD 2000
 90
        0
280
     0
281
     0
  0
CLASS
  1
LWPOLYLINE
  2
AcDbPolyline
  3
AutoCAD 2000
 90
        0
280
     0
281
     1
  0
CLASS
  1
HATCH
  2
AcDbHatch
  3
AutoCAD 2000
 90
        0
280
     0
281
     1
  0
CLASS
  1
XRECORD
  2
AcDbXrecord
  3
AutoCAD 2000
 90
        0
280
     0
281
     0
  0
CLASS
  1
LONG_TRANSACTION
  2
AcDbLongTransaction
  3
AutoCAD 2000
 90
        0
280
     0
281
     0
  0
CLASS
  1
LWPOLYLINE
  2
AcDbPolyline
  3
AutoCAD 2000
 90
        0
280
     0
281
     1
  0
CLASS
  1
HATCH
  2
AcDbHatch
  3
AutoCAD 2000
 90
        0
280
     0
281
     1
  0
CLASS
  1
XRECORD
  2
AcDbXrecord
  3
AutoCAD 2000
 90
        0
280
     0
281
     0
  0
CLASS
  1
LONG_TRANSACTION
  2
AcDbLongTransaction
  3
AutoCAD 2000
 90
        0
280
     0
281
     0
  0
CLASS
  1
LWPOLYLINE
  2
AcDbPolyline
  3
AutoCAD 2000
 90
        0
280
     0
281
     1
  0
CLASS
  1
HATCH
  2
AcDbHatch
  3
AutoCAD 2000
 90
        0
280
     0
281
     1
  0
CLASS
  1
XRECORD
  2
AcDbXrecord
  3
AutoCAD 2000
 90
        0
280
     0
281
     0
  0
CLASS
  1
LONG_TRANSACTION
  2
AcDbLongTransaction
  3
AutoCAD 2000
 90
        0
280
     0
281
     0
  0
CLASS
  1
LWPOLYLINE
  2
AcDbPolyline
  3
AutoCAD 2000
 90
        0
280
     0
281
     1
  0
CLASS
  1
HATCH
  2
AcDbHatch
  3
AutoCAD 2000
 90
        0
280
     0
281
     1
  0
CLASS
  1
XRECORD
  2
AcDbXrecord
  3
AutoCAD 2000
 90
        0
280
     0
281
     0
  0
CLASS
  1
LONG_TRANSACTION
  2
AcDbLongTransaction
  3
AutoCAD 2000
 90
        0
280
     0
281
     0
  0
CLASS
  1
LWPOLYLINE
  2
AcDbPolyline
  3
AutoCAD 2000
 90
        0
280
     0
281
     1
  0
CLASS
  1
HATCH
  2
AcDbHatch
  3
AutoCAD 2000
 90
        0
280
     0
281
     1
  0
CLASS
  1
XRECORD
  2
AcDbXrecord
  3
AutoCAD 2000
 90
        0
280
     0
281
     0
  0
CLASS
  1
LONG_TRANSACTION
  2
AcDbLongTransaction
  3
AutoCAD 2000
 90
        0
280
     0
281
     0
  0
CLASS
  1
LWPOLYLINE
  2
AcDbPolyline
  3
AutoCAD 2000
 90
        0
280
     0
281
     1
  0
CLASS
  1
HATCH
  2
AcDbHatch
  3
AutoCAD 2000
 90
        0
280
     0
281
     1
  0
CLASS
  1
XRECORD
  2
AcDbXrecord
  3
AutoCAD 2000
 90
        0
280
     0
281
     0
  0
CLASS
  1
LONG_TRANSACTION
  2
AcDbLongTransaction
  3
AutoCAD 2000
 90
        0
280
     0
281
     0
  0
CLASS
  1
LWPOLYLINE
  2
AcDbPolyline
  3
AutoCAD 2000
 90
        0
280
     0
281
     1
  0
CLASS
  1
HATCH
  2
AcDbHatch
  3
AutoCAD 2000
 90
        0
280
     0
281
     1
  0
CLASS
  1
XRECORD
  2
AcDbXrecord
  3
AutoCAD 2000
 90
        0
280
     0
281
     0
  0
CLASS
  1
LONG_TRANSACTION
  2
AcDbLongTransaction
  3
AutoCAD 2000
 90
        0
280
     0
281
     0
  0
CLASS
  1
LWPOLYLINE
  2
AcDbPolyline
  3
AutoCAD 2000
 90
        0
280
     0
281
     1
  0
CLASS
  1
HATCH
  2
AcDbHatch
  3
AutoCAD 2000
 90
        0
280
     0
281
     1
  0
CLASS
  1
XRECORD
  2
AcDbXrecord
  3
AutoCAD 2000
 90
        0
280
     0
281
     0
  0
CLASS
  1
LONG_TRANSACTION
  2
AcDbLongTransaction
  3
AutoCAD 2000
 90
        0
280
     0
281
     0
  0
CLASS
  1
LWPOLYLINE
  2
AcDbPolyline
  3
AutoCAD 2000
 90
        0
280
     0
281
     1
  0
CLASS
  1
HATCH
  2
AcDbHatch
  3
AutoCAD 2000
 90
        0
280
     0
281
     1
  0
CLASS
  1
XRECORD
  2
AcDbXrecord
  3
AutoCAD 2000
 90
        0
280
     0
281
     0
  0
CLASS
  1
LONG_TRANSACTION
  2
AcDbLongTransaction
  3
AutoCAD 2000
 90
        0
280
     0
281
     0
  0
CLASS
  1
LWPOLYLINE
  2
AcDbPolyline
  3
AutoCAD 2000
 90
        0
280
     0
281
     1
  0
CLASS
  1
HATCH
  2
AcDbHatch
  3
AutoCAD 2000
 90
        0
280
     0
281
     1
  0
CLASS
  1
XRECORD
  2
AcDbXrecord
  3
AutoCAD 2000
 90
        0
280
     0
281
     0
  0
CLASS
  1
LONG_TRANSACTION
  2
AcDbLongTransaction
  3
AutoCAD 2000
 90
        0
280
     0
281
     0
  0
CLASS
  1
LWPOLYLINE
  2
AcDbPolyline
  3
AutoCAD 2000
 90
        0
280
     0
281
     1
  0
CLASS
  1
HATCH
  2
AcDbHatch
  3
AutoCAD 2000
 90
        0
280
     0
281
     1
  0
CLASS
  1
XRECORD
  2
AcDbXrecord
  3
AutoCAD 2000
 90
        0
280
     0
281
     0
  0
CLASS
  1
LONG_TRANSACTION
  2
AcDbLongTransaction
  3
AutoCAD 2000
 90
        0
280
     0
281
     0
  0
CLASS
  1
LWPOLYLINE
  2
AcDbPolyline
  3
AutoCAD 2000
 90
        0
280
     0
281
     1
  0
CLASS
  1
HATCH
  2
AcDbHatch
  3
AutoCAD 2000
 90
        0
280
     0
281
     1
  0
CLASS
  1
XRECORD
  2
AcDbXrecord
  3
AutoCAD 2000
 90
        0
280
     0
281
     0
  0
CLASS
  1
LONG_TRANSACTION
  2
AcDbLongTransaction
  3
AutoCAD 2000
 90
        0
280
     0
281
     0
  0
CLASS
  1
LWPOLYLINE
  2
AcDbPolyline
  3
AutoCAD 2000
 90
        0
280
     0
281
     1
  0
CLASS
  1
HATCH
  2
AcDbHatch
  3
AutoCAD 2000
 90
        0
280
     0
281
     1
  0
CLASS
  1
XRECORD
  2
AcDbXrecord
  3
AutoCAD 2000
 90
        0
280
     0
281
     0
  0
CLASS
  1
LONG_TRANSACTION
  2
AcDbLongTransaction
  3
AutoCAD 2000
 90
        0
280
     0
281
     0
  0
CLASS
  1
LWPOLYLINE
  2
AcDbPolyline
  3
AutoCAD 2000
 90
        0
280
     0
281
     1
  0
CLASS
  1
HATCH
  2
AcDbHatch
  3
AutoCAD 2000
 90
        0
280
     0
281
     1
  0
CLASS
  1
XRECORD
  2
AcDbXrecord
  3
AutoCAD 2000
 90
        0
280
     0
281
     0
  0
CLASS
  1
LONG_TRANSACTION
  2
AcDbLongTransaction
  3
AutoCAD 2000
 90
        0
280
     0
281
     0
  0
CLASS
  1
LWPOLYLINE
  2
AcDbPolyline
  3
AutoCAD 2000
 90
        0
280
     0
281
     1
  0
CLASS
  1
HATCH
  2
AcDbHatch
  3
AutoCAD 2000
 90
        0
280
     0
281
     1
  0
CLASS
  1
XRECORD
  2
AcDbXrecord
  3
AutoCAD 2000
 90
        0
280
     0
281
     0
  0
CLASS
  1
LONG_TRANSACTION
  2
AcDbLongTransaction
  3
AutoCAD 2000
 90
        0
280
     0
281
     0
  0
CLASS
  1
LWPOLYLINE
  2
AcDbPolyline
  3
AutoCAD 2000
 90
        0
280
     0
281
     1
  0
CLASS
  1
HATCH
  2
AcDbHatch
  3
AutoCAD 2000
 90
        0
280
     0
281
     1
  0
CLASS
  1
XRECORD
  2
AcDbXrecord
  3
AutoCAD 2000
 90
        0
280
     0
281
     0
  0
CLASS
  1
LONG_TRANSACTION
  2
AcDbLongTransaction
  3
AutoCAD 2000
 90
        0
280
     0
281
     0
  0
CLASS
  1
LWPOLYLINE
  2
AcDbPolyline
  3
AutoCAD 2000
 90
        0
280
     0
281
     1
  0
CLASS
  1
HATCH
  2
AcDbHatch
  3
AutoCAD 2000
 90
        0
280
     0
281
     1
  0
CLASS
  1
XRECORD
  2
AcDbXrecord
  3
AutoCAD 2000
 90
        0
280
     0
281
     0
  0
CLASS
  1
LONG_TRANSACTION
  2
AcDbLongTransaction
  3
AutoCAD 2000
 90
        0
280
     0
281
     0
  0
CLASS
  1
LWPOLYLINE
  2
AcDbPolyline
  3
AutoCAD 2000
 90
        0
280
     0
281
     1
  0
CLASS
  1
HATCH
  2
AcDbHatch
  3
AutoCAD 2000
 90
        0
280
     0
281
     1
  0
CLASS
  1
XRECORD
  2
AcDbXrecord
  3
AutoCAD 2000
 90
        0
280
     0
281
     0
  0
CLASS
  1
LONG_TRANSACTION
  2
AcDbLongTransaction
  3
AutoCAD 2000
 90
        0
280
     0
281
     0
  0
CLASS
  1
LWPOLYLINE
  2
AcDbPolyline
  3
AutoCAD 2000
 90
        0
280
     0
281
     1
  0
CLASS
  1
HATCH
  2
AcDbHatch
  3
AutoCAD 2000
 90
        0
280
     0
281
     1
  0
CLASS
  1
XRECORD
  2
AcDbXrecord
  3
AutoCAD 2000
 90
        0
280
     0
281
     0
  0
CLASS
  1
LONG_TRANSACTION
  2
AcDbLongTransaction
  3
AutoCAD 2000
 90
        0
280
     0
281
     0
  0
CLASS
  1
LWPOLYLINE
  2
AcDbPolyline
  3
AutoCAD 2000
 90
        0
280
     0
281
     1
  0
CLASS
  1
HATCH
  2
AcDbHatch
  3
AutoCAD 2000
 90
        0
280
     0
281
     1
  0
CLASS
  1
XRECORD
  2
AcDbXrecord
  3
AutoCAD 2000
 90
        0
280
     0
281
     0
  0
CLASS
  1
LONG_TRANSACTION
  2
AcDbLongTransaction
  3
AutoCAD 2000
 90
        0
280
     0
281
     0
  0
CLASS
  1
LWPOLYLINE
  2
AcDbPolyline
  3
AutoCAD 2000
 90
        0
280
     0
281
     1
  0
CLASS
  1
HATCH
  2
AcDbHatch
  3
AutoCAD 2000
 90
        0
280
     0
281
     1
  0
CLASS
  1
XRECORD
  2
AcDbXrecord
  3
AutoCAD 2000
 90
        0
280
     0
281
     0
  0
CLASS
  1
LONG_TRANSACTION
  2
AcDbLongTransaction
  3
AutoCAD 2000
 90
        0
280
     0
281
     0
  0
CLASS
  1
LWPOLYLINE
  2
AcDbPolyline
  3
AutoCAD 2000
 90
        0
280
     0
281
     1
  0
CLASS
  1
HATCH
  2
AcDbHatch
  3
AutoCAD 2000
 90
        0
280
     0
281
     1
  0
CLASS
  1
XRECORD
  2
AcDbXrecord
  3
AutoCAD 2000
 90
        0
280
     0
281
     0
  0
CLASS
  1
LONG_TRANSACTION
  2
AcDbLongTransaction
  3
AutoCAD 2000
 90
        0
280
     0
281
     0
  0
CLASS
  1
LWPOLYLINE
  2
AcDbPolyline
  3
AutoCAD 2000
 90
        0
280
     0
281
     1
  0
CLASS
  1
HATCH
  2
AcDbHatch
  3
AutoCAD 2000
 90
        0
280
     0
281
     1
  0
CLASS
  1
XRECORD
  2
AcDbXrecord
  3
AutoCAD 2000
 90
        0
280
     0
281
     0
  0
CLASS
  1
LONG_TRANSACTION
  2
AcDbLongTransaction
  3
AutoCAD 2000
 90
        0
280
     0
281
     0
  0
CLASS
  1
LWPOLYLINE
  2
AcDbPolyline
  3
AutoCAD 2000
 90
        0
280
     0
281
     1
  0
CLASS
  1
HATCH
  2
AcDbHatch
  3
AutoCAD 2000
 90
        0
280
     0
281
     1
  0
CLASS
  1
XRECORD
  2
AcDbXrecord
  3
AutoCAD 2000
 90
        0
280
     0
281
     0
  0
CLASS
  1
LONG_TRANSACTION
  2
AcDbLongTransaction
  3
AutoCAD 2000
 90
        0
280
     0
281
     0
  0
CLASS
  1
LWPOLYLINE
  2
AcDbPolyline
  3
AutoCAD 2000
 90
        0
280
     0
281
     1
  0
CLASS
  1
HATCH
  2
AcDbHatch
  3
AutoCAD 2000
 90
        0
280
     0
281
     1
  0
CLASS
  1
XRECORD
  2
AcDbXrecord
  3
AutoCAD 2000
 90
        0
280
     0
281
     0
  0
CLASS
  1
LONG_TRANSACTION
  2
AcDbLongTransaction
  3
AutoCAD 2000
 90
        0
280
     0
281
     0
  0
CLASS
  1
LWPOLYLINE
  2
AcDbPolyline
  3
AutoCAD 2000
 90
        0
280
     0
281
     1
  0
CLASS
  1
HATCH
  2
AcDbHatch
  3
AutoCAD 2000
 90
        0
280
     0
281
     1
  0
CLASS
  1
XRECORD
  2
AcDbXrecord
  3
AutoCAD 2000
 90
        0
280
     0
281
     0
  0
CLASS
  1
LONG_TRANSACTION
  2
AcDbLongTransaction
  3
AutoCAD 2000
 90
        0
280
     0
281
     0
  0
CLASS
  1
LWPOLYLINE
  2
AcDbPolyline
  3
AutoCAD 2000
 90
        0
280
     0
281
     1
  0
CLASS
  1
HATCH
  2
AcDbHatch
  3
AutoCAD 2000
 90
        0
280
     0
281
     1
  0
CLASS
  1
XRECORD
  2
AcDbXrecord
  3
AutoCAD 2000
 90
        0
280
     0
281
     0
  0
CLASS
  1
LONG_TRANSACTION
  2
AcDbLongTransaction
  3
AutoCAD 2000
 90
        0
280
     0
281
     0
  0
CLASS
  1
LWPOLYLINE
  2
AcDbPolyline
  3
AutoCAD 2000
 90
        0
280
     0
281
     1
  0
CLASS
  1
HATCH
  2
AcDbHatch
  3
AutoCAD 2000
 90
        0
280
     0
281
     1
  0
CLASS
  1
XRECORD
  2
AcDbXrecord
  3
AutoCAD 2000
 90
        0
280
     0
281
     0
  0
CLASS
  1
LONG_TRANSACTION
  2
AcDbLongTransaction
  3
AutoCAD 2000
 90
        0
280
     0
281
     0
  0
CLASS
  1
LWPOLYLINE
  2
AcDbPolyline
  3
AutoCAD 2000
 90
        0
280
     0
281
     1
  0
CLASS
  1
HATCH
  2
AcDbHatch
  3
AutoCAD 2000
 90
        0
280
     0
281
     1
  0
CLASS
  1
XRECORD
  2
AcDbXrecord
  3
AutoCAD 2000
 90
        0
280
     0
281
     0
  0
CLASS
  1
LONG_TRANSACTION
  2
AcDbLongTransaction
  3
AutoCAD 2000
 90
        0
280
     0
281
     0
  0
CLASS
  1
LWPOLYLINE
  2
AcDbPolyline
  3
AutoCAD 2000
 90
        0
280
     0
281
     1
  0
CLASS
  1
HATCH
  2
AcDbHatch
  3
AutoCAD 2000
 90
        0
280
     0
281
     1
  0
CLASS
  1
XRECORD
  2
AcDbXrecord
  3
AutoCAD 2000
 90
        0
280
     0
281
     0
  0
CLASS
  1
LONG_TRANSACTION
  2
AcDbLongTransaction
  3
AutoCAD 2000
 90
        0
280
     0
281
     0
  0
CLASS
  1
LWPOLYLINE
  2
AcDbPolyline
  3
AutoCAD 2000
 90
        0
280
     0
281
     1
  0
CLASS
  1
HATCH
  2
AcDbHatch
  3
AutoCAD 2000
 90
        0
280
     0
281
     1
  0
CLASS
  1
XRECORD
  2
AcDbXrecord
  3
AutoCAD 2000
 90
        0
280
     0
281
     0
  0
CLASS
  1
LONG_TRANSACTION
  2
AcDbLongTransaction
  3
AutoCAD 2000
 90
        0
280
     0
281
     0
  0
CLASS
  1
LWPOLYLINE
  2
AcDbPolyline
  3
AutoCAD 2000
 90
        0
280
     0
281
     1
  0
CLASS
  1
HATCH
  2
AcDbHatch
  3
AutoCAD 2000
 90
        0
280
     0
281
     1
  0
CLASS
  1
XRECORD
  2
AcDbXrecord
  3
AutoCAD 2000
 90
        0
280
     0
281
     0
  0
CLASS
  1
LONG_TRANSACTION
  2
AcDbLongTransaction
  3
AutoCAD 2000
 90
        0
280
     0
281
     0
  0
CLASS
  1
LWPOLYLINE
  2
AcDbPolyline
  3
AutoCAD 2000
 90
        0
280
     0
281
     1
  0
CLASS
  1
HATCH
  2
AcDbHatch
  3
AutoCAD 2000
 90
        0
280
     0
281
     1
  0
CLASS
  1
XRECORD
  2
AcDbXrecord
  3
AutoCAD 2000
 90
        0
280
     0
281
     0
  0
CLASS
  1
LONG_TRANSACTION
  2
AcDbLongTransaction
  3
AutoCAD 2000
 90
        0
280
     0
281
     0
  0
CLASS
  1
LWPOLYLINE
  2
AcDbPolyline
  3
AutoCAD 2000
 90
        0
280
     0
281
     1
  0
CLASS
  1
HATCH
  2
AcDbHatch
  3
AutoCAD 2000
 90
        0
280
     0
281
     1
  0
CLASS
  1
XRECORD
  2
AcDbXrecord
  3
AutoCAD 2000
 90
        0
280
     0
281
     0
  0
CLASS
  1
LONG_TRANSACTION
  2
AcDbLongTransaction
  3
AutoCAD 2000
 90
        0
280
     0
281
     0
  0
CLASS
  1
LWPOLYLINE
  2
AcDbPolyline
  3
AutoCAD 2000
 90
        0
280
     0
281
     1
  0
CLASS
  1
HATCH
  2
AcDbHatch
  3
AutoCAD 2000
 90
        0
280
     0
281
     1
  0
CLASS
  1
XRECORD
  2
AcDbXrecord
  3
AutoCAD 2000
 90
        0
280
     0
281
     0
  0
CLASS
  1
LONG_TRANSACTION
  2
AcDbLongTransaction
  3
AutoCAD 2000
 90
        0
280
     0
281
     0
  0
CLASS
  1
LWPOLYLINE
  2
AcDbPolyline
  3
AutoCAD 2000
 90
        0
280
     0
281
     1
  0
CLASS
  1
HATCH
  2
AcDbHatch
  3
AutoCAD 2000
 90
        0
280
     0
281
     1
  0
CLASS
  1
XRECORD
  2
AcDbXrecord
  3
AutoCAD 2000
 90
        0
280
     0
281
     0
  0
CLASS
  1
LONG_TRANSACTION
  2
AcDbLongTransaction
  3
AutoCAD 2000
 90
        0
280
     0
281
     0
  0
CLASS
  1
LWPOLYLINE
  2
AcDbPolyline
  3
AutoCAD 2000
 90
        0
280
     0
281
     1
  0
CLASS
  1
HATCH
  2
AcDbHatch
  3
AutoCAD 2000
 90
        0
280
     0
281
     1
  0
CLASS
  1
XRECORD
  2
AcDbXrecord
  3
AutoCAD 2000
 90
        0
280
     0
281
     0
  0
CLASS
  1
LONG_TRANSACTION
  2
AcDbLongTransaction
  3
AutoCAD 2000
 90
        0
280
     0
281
     0
  0
CLASS
  1
LWPOLYLINE
  2
AcDbPolyline
  3
AutoCAD 2000
 90
        0
280
     0
281
     1
  0
CLASS
  1
HATCH
  2
AcDbHatch
  3
AutoCAD 2000
 90
        0
280
     0
281
     1
  0
CLASS
  1
XRECORD
  2
AcDbXrecord
  3
AutoCAD 2000
 90
        0
280
     0
281
     0
  0
CLASS
  1
LONG_TRANSACTION
  2
AcDbLongTransaction
  3
AutoCAD 2000
 90
        0
280
     0
281
     0
  0
CLASS
  1
LWPOLYLINE
  2
AcDbPolyline
  3
AutoCAD 2000
 90
        0
280
     0
281
     1
  0
CLASS
  1
HATCH
  2
AcDbHatch
  3
AutoCAD 2000
 90
        0
280
     0
281
     1
  0
CLASS
  1
XRECORD
  2
AcDbXrecord
  3
AutoCAD 2000
 90
        0
280
     0
281
     0
  0
CLASS
  1
LONG_TRANSACTION
  2
AcDbLongTransaction
  3
AutoCAD 2000
 90
        0
280
     0
281
     0
  0
CLASS
  1
LWPOLYLINE
  2
AcDbPolyline
  3
AutoCAD 2000
 90
        0
280
     0
281
     1
  0
CLASS
  1
HATCH
  2
AcDbHatch
  3
AutoCAD 2000
 90
        0
280
     0
281
     1
  0
CLASS
  1
XRECORD
  2
AcDbXrecord
  3
AutoCAD 2000
 90
        0
280
     0
281
     0
  0
CLASS
  1
LONG_TRANSACTION
  2
AcDbLongTransaction
  3
AutoCAD 2000
 90
        0
280
     0
281
     0
  0
CLASS
  1
LWPOLYLINE
  2
AcDbPolyline
  3
AutoCAD 2000
 90
        0
280
     0
281
     1
  0
CLASS
  1
HATCH
  2
AcDbHatch
  3
AutoCAD 2000
 90
        0
280
     0
281
     1
  0
CLASS
  1
XRECORD
  2
AcDbXrecord
  3
AutoCAD 2000
 90
        0
280
     0
281
     0
  0
CLASS
  1
LONG_TRANSACTION
  2
AcDbLongTransaction
  3
AutoCAD 2000
 90
        0
280
     0
281
     0
  0
CLASS
  1
LWPOLYLINE
  2
AcDbPolyline
  3
AutoCAD 2000
 90
        0
280
     0
281
     1
  0
CLASS
  1
HATCH
  2
AcDbHatch
  3
AutoCAD 2000
 90
        0
280
     0
281
     1
  0
CLASS
  1
XRECORD
  2
AcDbXrecord
  3
AutoCAD 2000
 90
        0
280
     0
281
     0
  0
CLASS
  1
LONG_TRANSACTION
  2
AcDbLongTransaction
  3
AutoCAD 2000
 90
        0
280
     0
281
     0
  0
CLASS
  1
LWPOLYLINE
  2
AcDbPolyline
  3
AutoCAD 2000
 90
        0
280
     0
281
     1
  0
CLASS
  1
HATCH
  2
AcDbHatch
  3
AutoCAD 2000
 90
        0
280
     0
281
     1
  0
CLASS
  1
XRECORD
  2
AcDbXrecord
  3
AutoCAD 2000
 90
        0
280
     0
281
     0
  0
CLASS
  1
LONG_TRANSACTION
  2
AcDbLongTransaction
  3
AutoCAD 2000
 90
        0
280
     0
281
     0
  0
CLASS
  1
LWPOLYLINE
  2
AcDbPolyline
  3
AutoCAD 2000
 90
        0
280
     0
281
     1
  0
CLASS
  1
HATCH
  2
AcDbHatch
  3
AutoCAD 2000
 90
        0
280
     0
281
     1
  0
CLASS
  1
XRECORD
  2
AcDbXrecord
  3
AutoCAD 2000
 90
        0
280
     0
281
     0
  0
CLASS
  1
LONG_TRANSACTION
  2
AcDbLongTransaction
  3
AutoCAD 2000
 90
        0
280
     0
281
     0
  0
CLASS
  1
LWPOLYLINE
  2
AcDbPolyline
  3
AutoCAD 2000
 90
        0
280
     0
281
     1
  0
CLASS
  1
HATCH
  2
AcDbHatch
  3
AutoCAD 2000
 90
        0
280
     0
281
     1
  0
CLASS
  1
XRECORD
  2
AcDbXrecord
  3
AutoCAD 2000
 90
        0
280
     0
281
     0
  0
CLASS
  1
LONG_TRANSACTION
  2
AcDbLongTransaction
  3
AutoCAD 2000
 90
        0
280
     0
281
     0
  0
CLASS
  1
LWPOLYLINE
  2
AcDbPolyline
  3
AutoCAD 2000
 90
        0
280
     0
281
     1
  0
CLASS
  1
HATCH
  2
AcDbHatch
  3
AutoCAD 2000
 90
        0
280
     0
281
     1
  0
CLASS
  1
XRECORD
  2
AcDbXrecord
  3
AutoCAD 2000
 90
        0
280
     0
281
     0
  0
CLASS
  1
LONG_TRANSACTION
  2
AcDbLongTransaction
  3
AutoCAD 2000
 90
        0
280
     0
281
     0
  0
CLASS
  1
LWPOLYLINE
  2
AcDbPolyline
  3
AutoCAD 2000
 90
        0
280
     0
281
     1
  0
CLASS
  1
HATCH
  2
AcDbHatch
  3
AutoCAD 2000
 90
        0
280
     0
281
     1
  0
CLASS
  1
XRECORD
  2
AcDbXrecord
  3
AutoCAD 2000
 90
        0
280
     0
281
     0
  0
CLASS
  1
LONG_TRANSACTION
  2
AcDbLongTransaction
  3
AutoCAD 2000
 90
        0
280
     0
281
     0
  0
CLASS
  1
LWPOLYLINE
  2
AcDbPolyline
  3
AutoCAD 2000
 90
        0
280
     0
281
     1
  0
CLASS
  1
HATCH
  2
AcDbHatch
  3
AutoCAD 2000
 90
        0
280
     0
281
     1
  0
CLASS
  1
XRECORD
  2
AcDbXrecord
  3
AutoCAD 2000
 90
        0
280
     0
281
     0
  0
CLASS
  1
LONG_TRANSACTION
  2
AcDbLongTransaction
  3
AutoCAD 2000
 90
        0
280
     0
281
     0
  0
CLASS
  1
LWPOLYLINE
  2
AcDbPolyline
  3
AutoCAD 2000
 90
        0
280
     0
281
     1
  0
CLASS
  1
HATCH
  2
AcDbHatch
  3
AutoCAD 2000
 90
        0
280
     0
281
     1
  0
CLASS
  1
XRECORD
  2
AcDbXrecord
  3
AutoCAD 2000
 90
        0
280
     0
281
     0
  0
CLASS
  1
LONG_TRANSACTION
  2
AcDbLongTransaction
  3
AutoCAD 2000
 90
        0
280
     0
281
     0
  0
CLASS
  1
LWPOLYLINE
  2
AcDbPolyline
  3
AutoCAD 2000
 90
        0
280
     0
281
     1
  0
CLASS
  1
HATCH
  2
AcDbHatch
  3
AutoCAD 2000
 90
        0
280
     0
281
     1
  0
CLASS
  1
XRECORD
  2
AcDbXrecord
  3
AutoCAD 2000
 90
        0
280
     0
281
     0
  0
CLASS
  1
LONG_TRANSACTION
  2
AcDbLongTransaction
  3
AutoCAD 2000
 90
        0
280
     0
281
     0
  0
CLASS
  1
LWPOLYLINE
  2
AcDbPolyline
  3
AutoCAD 2000
 90
        0
280
     0
281
     1
  0
CLASS
  1
HATCH
  2
AcDbHatch
  3
AutoCAD 2000
 90
        0
280
     0
281
     1
  0
CLASS
  1
XRECORD
  2
AcDbXrecord
  3
AutoCAD 2000
 90
        0
280
     0
281
     0
  0
CLASS
  1
LONG_TRANSACTION
  2
AcDbLongTransaction
  3
AutoCAD 2000
 90
        0
280
     0
281
     0
  0
CLASS
  1
LWPOLYLINE
  2
AcDbPolyline
  3
AutoCAD 2000
 90
        0
280
     0
281
     1
  0
CLASS
  1
HATCH
  2
AcDbHatch
  3
AutoCAD 2000
 90
        0
280
     0
281
     1
  0
CLASS
  1
XRECORD
  2
AcDbXrecord
  3
AutoCAD 2000
 90
        0
280
     0
281
     0
  0
CLASS
  1
LONG_TRANSACTION
  2
AcDbLongTransaction
  3
AutoCAD 2000
 90
        0
280
     0
281
     0
  0
CLASS
  1
LWPOLYLINE
  2
AcDbPolyline
  3
AutoCAD 2000
 90
        0
280
     0
281
     1
  0
CLASS
  1
HATCH
  2
AcDbHatch
  3
AutoCAD 2000
 90
        0
280
     0
281
     1
  0
CLASS
  1
XRECORD
  2
AcDbXrecord
  3
AutoCAD 2000
 90
        0
280
     0
281
     0
  0
CLASS
  1
LONG_TRANSACTION
  2
AcDbLongTransaction
  3
AutoCAD 2000
 90
        0
280
     0
281
     0
  0
CLASS
  1
LWPOLYLINE
  2
AcDbPolyline
  3
AutoCAD 2000
 90
        0
280
     0
281
     1
  0
CLASS
  1
HATCH
  2
AcDbHatch
  3
AutoCAD 2000
 90
        0
280
     0
281
     1
  0
CLASS
  1
XRECORD
  2
AcDbXrecord
  3
AutoCAD 2000
 90
        0
280
     0
281
     0
  0
CLASS
  1
LONG_TRANSACTION
  2
AcDbLongTransaction
  3
AutoCAD 2000
 90
        0
280
     0
281
     0
  0
CLASS
  1
LWPOLYLINE
  2
AcDbPolyline
  3
AutoCAD 2000
 90
        0
280
     0
281
     1
  0
CLASS
  1
HATCH
  2
AcDbHatch
  3
AutoCAD 2000
 90
        0
280
     0
281
     1
  0
CLASS
  1
XRECORD
  2
AcDbXrecord
  3
AutoCAD 2000
 90
        0
280
     0
281
     0
  0
CLASS
  1
LONG_TRANSACTION
  2
AcDbLongTransaction
  3
AutoCAD 2000
 90
        0
280
     0
281
     0
  0
CLASS
  1
LWPOLYLINE
  2
AcDbPolyline
  3
AutoCAD 2000
 90
        0
280
     0
281
     1
  0
CLASS
  1
HATCH
  2
AcDbHatch
  3
AutoCAD 2000
 90
        0
280
     0
281
     1
  0
CLASS
  1
XRECORD
  2
AcDbXrecord
  3
AutoCAD 2000
 90
        0
280
     0
281
     0
  0
ENDSEC
  0
SECTION
  2
TABLES
  0
TABLE
  2
VPORT
  5
92
330
0
100
AcDbSymbolTable
 70
     2
  0
VPORT
  5
4C5
330
92
100
AcDbSymbolTableRecord
100
AcDbViewportTableRecord
  2
*ACTIVE
 70
     0
 10
0.0
 20
0.0
 11
1.0
 21
1.0
 12
162.8920398781774
 22
182.4833689728347
 13
0.0
 23
0.0
 14
10.0
 24
10.0
 15
10.0
 25
10.0
 16
0.0
 26
0.0
 36
1.0
 17
0.0
 27
0.0
 37
0.0
 40
383.6942191452548
 41
1.549367088607595
 42
50.0
 43
0.0
 44
0.0
 50
0.0
 51
0.0
 71
     0
 72
 10000
 73
     1
 74
     3
 75
     0
 76
     0
 77
     0
 78
     1
  0
ENDTAB
  0
TABLE
  2
LTYPE
  5
8D
330
0
100
AcDbSymbolTable
 70
     3
  0
LTYPE
  5
8E
330
8D
100
AcDbSymbolTableRecord
100
AcDbLinetypeTableRecord
  2
BYBLOCK
 70
     0
  3

 72
    65
 73
     0
 40
0.0
  0
LTYPE
  5
8F
330
8D
100
AcDbSymbolTableRecord
100
AcDbLinetypeTableRecord
  2
BYLAYER
 70
     0
  3

 72
    65
 73
     0
 40
0.0
  0
LTYPE
  5
A
330
8D
100
AcDbSymbolTableRecord
100
AcDbLinetypeTableRecord
  2
CONTINUOUS
 70
     0
  3
Solid line
 72
    65
 73
     0
 40
0.0
  0
LTYPE
  5
B3
330
8D
100
AcDbSymbolTableRecord
100
AcDbLinetypeTableRecord
  2
CENTER
 70
     0
  3
Center ____ _ ____ _ ____ _ ____ _ ____ _ ____
 72
    65
 73
     4
 40
50.8
 49
31.75
 74
     0
 49
-6.349999999999998
 74
     0
 49
6.349999999999998
 74
     0
 49
-6.349999999999998
 74
     0
  0
LTYPE
  5
DA
330
8D
100
AcDbSymbolTableRecord
100
AcDbLinetypeTableRecord
  2
CENTERX2
 70
     0
  3
Center (2x) ________  __  ________  __  _____
 72
    65
 73
     4
 40
101.6
 49
63.5
 74
     0
 49
-12.7
 74
     0
 49
12.7
 74
     0
 49
-12.7
 74
     0
  0
ENDTAB
  0
TABLE
  2
LAYER
  5
14
102
{ACAD_XDICTIONARY
360
15
102
}
330
0
100
AcDbSymbolTable
 70
     6
  0
LAYER
  5
6
330
14
100
AcDbSymbolTableRecord
100
AcDbLayerTableRecord
  2
0
 70
     0
 62
     7
  6
CONTINUOUS
  0
LAYER
  5
17B
330
14
100
AcDbSymbolTableRecord
100
AcDbLayerTableRecord
  2
3
 70
     0
 62
     3
  6
CONTINUOUS
  0
LAYER
  5
AC
330
14
100
AcDbSymbolTableRecord
100
AcDbLayerTableRecord
  2
DEFPOINTS
 70
     0
 62
     7
  6
CONTINUOUS
  0
LAYER
  5
D9
330
14
100
AcDbSymbolTableRecord
100
AcDbLayerTableRecord
  2
CL
 70
     0
 62
     1
  6
CENTERX2
  0
LAYER
  5
B2
330
14
100
AcDbSymbolTableRecord
100
AcDbLayerTableRecord
  2
CEN
 70
     0
 62
     1
  6
CENTER
  0
LAYER
  5
31D
330
14
100
AcDbSymbolTableRecord
100
AcDbLayerTableRecord
  2
2
 70
     0
 62
     2
  6
CONTINUOUS
  0
ENDTAB
  0
TABLE
  2
STYLE
  5
8A
330
0
100
AcDbSymbolTable
 70
     1
  0
STYLE
  5
8B
330
8A
100
AcDbSymbolTableRecord
100
AcDbTextStyleTableRecord
  2
STANDARD
 70
     0
 40
0.0
 41
1.0
 50
0.0
 71
     0
 42
5.777225951253058
  3
romans.shx
  4
whgtxt.shx
  0
ENDTAB
  0
TABLE
  2
VIEW
  5
90
330
0
100
AcDbSymbolTable
 70
     0
  0
ENDTAB
  0
TABLE
  2
UCS
  5
91
330
0
100
AcDbSymbolTable
 70
     0
  0
ENDTAB
  0
TABLE
  2
APPID
  5
94
330
0
100
AcDbSymbolTable
 70
     2
  0
APPID
  5
95
330
94
100
AcDbSymbolTableRecord
100
AcDbRegAppTableRecord
  2
ACAD
 70
     0
  0
APPID
  5
4E9
330
94
100
AcDbSymbolTableRecord
100
AcDbRegAppTableRecord
  2
CONTENTBLOCKICON
 70
     0
  0
ENDTAB
  0
TABLE
  2
DIMSTYLE
  5
96
330
0
100
AcDbSymbolTable
 70
     2
  0
DIMSTYLE
105
A3
102
{ACAD_REACTORS
330
DC
330
246
330
237
330
1AF
330
132
330
2C2
330
A0
330
306
330
1EE
330
C3
330
B4
330
10E
330
1DE
330
2F7
330
2E6
330
26E
330
286
330
142
330
168
330
159
330
203
330
11F
330
199
330
18A
330
1C8
330
FC
330
2D6
330
223
102
}
330
96
100
AcDbSymbolTableRecord
100
AcDbDimStyleTableRecord
  2
STANDARD
 70
     0
  3

  4

  5

  6

  7

 40
1.0
 41
2.5
 42
1.0
 43
10.0
 44
0.6
 45
0.0
 46
0.0
 47
0.0
 48
0.0
140
3.0
141
0.09
142
0.0
143
25.4
144
1.0
145
0.0
146
1.0
147
1.0
 71
     0
 72
     0
 73
     0
 74
     0
 75
     0
 76
     0
 77
     1
 78
     8
170
     0
171
     2
172
     1
173
     0
174
     1
175
     0
176
   123
177
   123
178
     3
270
     2
271
     2
272
     2
273
     2
274
     2
340
8B
275
     1
280
     0
281
     0
282
     0
283
     1
284
     0
285
     0
286
     0
287
     0
288
     1
  0
DIMSTYLE
105
9C
330
96
100
AcDbSymbolTableRecord
100
AcDbDimStyleTableRecord
  2
1_1_2
 70
     0
  3

  4

  5

  6

  7

 40
1.0
 41
3.0
 42
1.0
 43
10.0
 44
0.6
 45
0.0
 46
0.0
 47
0.0
 48
0.0
140
3.5
141
0.09
142
0.0
143
25.4
144
1.0
145
0.0
146
1.0
147
1.0
 71
     0
 72
     0
 73
     0
 74
     0
 75
     0
 76
     0
 77
     1
 78
     8
170
     0
171
     2
172
     1
173
     0
174
     1
175
     0
176
   123
177
   123
178
     3
270
     2
271
     2
272
     2
273
     2
274
     2
340
8B
275
     1
280
     0
281
     0
282
     0
283
     1
284
     0
285
     0
286
     0
287
     0
288
     1
  0
ENDTAB
  0
TABLE
  2
BLOCK_RECORD
  5
1
330
0
100
AcDbSymbolTable
 70
    55
  0
BLOCK_RECORD
  5
2
102
{ACAD_XDICTIONARY
360
3
102
}
330
1
100
AcDbSymbolTableRecord
100
AcDbBlockTableRecord
  2
*MODEL_SPACE
  0
BLOCK_RECORD
  5
E
102
{ACAD_XDICTIONARY
360
F
102
}
330
1
100
AcDbSymbolTableRecord
100
AcDbBlockTableRecord
  2
*PAPER_SPACE
  0
BLOCK_RECORD
  5
DF
330
1
100
AcDbSymbolTableRecord
100
AcDbBlockTableRecord
  2
*D0
  0
BLOCK_RECORD
  5
D5
330
1
100
AcDbSymbolTableRecord
100
AcDbBlockTableRecord
  2
4
1001
ACAD
1000
DesignCenter Data
1002
{
1070
     1
1070
     4
1002
}
1001
CONTENTBLOCKICON
1071
        0
1004
2800000020000000200000000100080000000000000400000000000000000000000000000000000000000000000080000080000000808000800000008000800080800000C0C0C000C0DCC000F0CAA6000020400000206000002080000020A0000020C0000020E00000400000004020000040400000406000004080000040A0
1004
000040C0000040E00000600000006020000060400000606000006080000060A0000060C0000060E00000800000008020000080400000806000008080000080A0000080C0000080E00000A0000000A0200000A0400000A0600000A0800000A0A00000A0C00000A0E00000C0000000C0200000C0400000C0600000C0800000C0
1004
A00000C0C00000C0E00000E0000000E0200000E0400000E0600000E0800000E0A00000E0C00000E0E00040000000400020004000400040006000400080004000A0004000C0004000E00040200000402020004020400040206000402080004020A0004020C0004020E000404000004040200040404000404060004040800040
1004
40A0004040C0004040E00040600000406020004060400040606000406080004060A0004060C0004060E00040800000408020004080400040806000408080004080A0004080C0004080E00040A0000040A0200040A0400040A0600040A0800040A0A00040A0C00040A0E00040C0000040C0200040C0400040C0600040C08000
1004
40C0A00040C0C00040C0E00040E0000040E0200040E0400040E0600040E0800040E0A00040E0C00040E0E00080000000800020008000400080006000800080008000A0008000C0008000E00080200000802020008020400080206000802080008020A0008020C0008020E00080400000804020008040400080406000804080
1004
008040A0008040C0008040E00080600000806020008060400080606000806080008060A0008060C0008060E00080800000808020008080400080806000808080008080A0008080C0008080E00080A0000080A0200080A0400080A0600080A0800080A0A00080A0C00080A0E00080C0000080C0200080C0400080C0600080C0
1004
800080C0A00080C0C00080C0E00080E0000080E0200080E0400080E0600080E0800080E0A00080E0C00080E0E000C0000000C0002000C0004000C0006000C0008000C000A000C000C000C000E000C0200000C0202000C0204000C0206000C0208000C020A000C020C000C020E000C0400000C0402000C0404000C0406000C0
1004
408000C040A000C040C000C040E000C0600000C0602000C0604000C0606000C0608000C060A000C060C000C060E000C0800000C0802000C0804000C0806000C0808000C080A000C080C000C080E000C0A00000C0A02000C0A04000C0A06000C0A08000C0A0A000C0A0C000C0A0E000C0C00000C0C02000C0C04000C0C06000
1004
C0C08000C0C0A000F0FBFF00A4A0A000808080000000FF0000FF000000FFFF00FF000000FF00FF00FFFF0000FFFFFF0000000000000000000000000000000000000000000000000000000000000000000000000000000000000000000000000000000000000000000000000000000000000000000000000000000000000000
1004
0000000000000000000000000000000000000000FFFFFFFFFFFFFFFFFFFFFFFFFFFFFFFFFFFFFFFFFF000000000000000000FFFFFF00F9000000000000000000000000000000F9FFF9FF0000000000000000FF00FFF90000000000000000000000000000000000FFFFFF0000000000000000F3F3F9F9000000000000000000
1004
00000000000000F9FFF9FF0000000000000000FFF9000000000000000000000000000000000000000000FF0000000000000000FF00F3F300000000000000000000000000000000000000FF0000000000000000FF000000F3000000000000000000000000000000000000FF0000000000000000FF00000000F3000000000000
1004
0000000000000000000000FF0000000000000000FF0000000000F3F3000000000000000000000000000000FF0000000000000000FF00000000000000F30000000000000000000000000000FF0000000000000000FF0000000000000000F3F3000000000000000000000000FF0000000000000000FF00000000000000000000
1004
F30000000000000000000000FF0000000000000000FF0000000000000000000000F300000000000000000000FF0000000000000000FF000000000000000000000000F3F30000000000000000FF0000000000000000FF0000000000000000000000000000F300000000000000FF0000000000000000FF000000000000000000
1004
000000000000F3F30000000000FF0000000000000000FF0000000000000000000000000000000000F300000000FF0000000000000000FF000000000000000000000000000000000000F3000000FF0000000000000000FF00000000000000000000000000000000000000F3F300FF0000000000000000FF0000000000000000
1004
00000000000000000000000000FFFF0000000000000000FF00FFF900000000000000000000000000000000F9F900F30000000000000000FF00FFFF00000000000000000000000000000000F9F9FFFFFAF300000000000000FFF900F90000000000000000000000000000F90000F9FFFAFAF300000000000000FFFFFFFFFFFF
1004
FFFFFFFFFFFFFFFFFFFFFFFFFFFFFF0000FAFAFAF30000000000000000000000000000000000000000000000000000000000FAFAFAF30000000000000000000000000000000000000000000000000000000000FAFA000000000000000000000000000000000000000000000000000000000000000000000000000000000000
1004
0000000000000000000000000000000000000000000000000000000000000000000000000000000000000000000000000000000000000000
  0
BLOCK_RECORD
  5
238
330
1
100
AcDbSymbolTableRecord
100
AcDbBlockTableRecord
  2
*D2
  0
BLOCK_RECORD
  5
249
330
1
100
AcDbSymbolTableRecord
100
AcDbBlockTableRecord
  2
*D3
  0
BLOCK_RECORD
  5
235
330
1
100
AcDbSymbolTableRecord
100
AcDbBlockTableRecord
  2
T
1001
ACAD
1000
DesignCenter Data
1002
{
1070
     1
1070
     4
1002
}
1001
CONTENTBLOCKICON
1071
        0
1004
2800000020000000200000000100080000000000000400000000000000000000000000000000000000000000000080000080000000808000800000008000800080800000C0C0C000C0DCC000F0CAA6000020400000206000002080000020A0000020C0000020E00000400000004020000040400000406000004080000040A0
1004
000040C0000040E00000600000006020000060400000606000006080000060A0000060C0000060E00000800000008020000080400000806000008080000080A0000080C0000080E00000A0000000A0200000A0400000A0600000A0800000A0A00000A0C00000A0E00000C0000000C0200000C0400000C0600000C0800000C0
1004
A00000C0C00000C0E00000E0000000E0200000E0400000E0600000E0800000E0A00000E0C00000E0E00040000000400020004000400040006000400080004000A0004000C0004000E00040200000402020004020400040206000402080004020A0004020C0004020E000404000004040200040404000404060004040800040
1004
40A0004040C0004040E00040600000406020004060400040606000406080004060A0004060C0004060E00040800000408020004080400040806000408080004080A0004080C0004080E00040A0000040A0200040A0400040A0600040A0800040A0A00040A0C00040A0E00040C0000040C0200040C0400040C0600040C08000
1004
40C0A00040C0C00040C0E00040E0000040E0200040E0400040E0600040E0800040E0A00040E0C00040E0E00080000000800020008000400080006000800080008000A0008000C0008000E00080200000802020008020400080206000802080008020A0008020C0008020E00080400000804020008040400080406000804080
1004
008040A0008040C0008040E00080600000806020008060400080606000806080008060A0008060C0008060E00080800000808020008080400080806000808080008080A0008080C0008080E00080A0000080A0200080A0400080A0600080A0800080A0A00080A0C00080A0E00080C0000080C0200080C0400080C0600080C0
1004
800080C0A00080C0C00080C0E00080E0000080E0200080E0400080E0600080E0800080E0A00080E0C00080E0E000C0000000C0002000C0004000C0006000C0008000C000A000C000C000C000E000C0200000C0202000C0204000C0206000C0208000C020A000C020C000C020E000C0400000C0402000C0404000C0406000C0
1004
408000C040A000C040C000C040E000C0600000C0602000C0604000C0606000C0608000C060A000C060C000C060E000C0800000C0802000C0804000C0806000C0808000C080A000C080C000C080E000C0A00000C0A02000C0A04000C0A06000C0A08000C0A0A000C0A0C000C0A0E000C0C00000C0C02000C0C04000C0C06000
1004
C0C08000C0C0A000F0FBFF00A4A0A000808080000000FF0000FF000000FFFF00FF000000FF00FF00FFFF0000FFFFFF0000000000000000000000000000000000000000000000000000000000000000000000000000000000000000000000000000000000000000000000000000000000000000000000000000000000000000
1004
0000000000000000000000000000000000000000000000000000000000000000000000000000000000000000000000000000000000000000000000000000000000000000000000000000000000000000000000FFFFFFFFFFFF00000000000000000000FFFFFFFFFFFF000000FFF3F3F3000000FF0000000000000000000000
1004
000000000000000000FF0000000000F3F30000FFFFFFFFFFFFFFFFFFFFFFFFFFFFFFFFFFFFFFFFFFFFFFFF00000000F3000000FFFFFFFFFFFFFFFFFFFFFFFFFFFFFFFFFFFFFFFFFFFFFFFF00000000F3000000FF00000000000000000000000000000000000000000000F300000000F3000000FF0000000000000000000000
1004
0000000000000000000000F300000000F3000000FF00000000000000000000000000000000000000000000F300000000F3000000FF00000000000000000000000000000000000000000000F300000000FA000000FF00000000000000000000000000000000000000000000F3000000FAFA000000FF00000000000000000000
1004
000000000000000000000000F3000000FAFA000000F3FF0000000000000000000000000000000000000000FFF300000000F3000000F3FF0000000000000000000000000000000000000000FFF300000000F3000000F3FF0000000000000000000000000000000000000000FFF300000000F3000000F3FF0000000000000000
1004
000000000000000000000000FFF300000000F3000000F3FF0000000000000000000000000000000000000000FFF300000000F3F30000F3FFFFFFFFFFFFFFFFFFFFFFFFFFFFFFFFFFFFFFFFFFFFF3F3F3F3F3FFF30000F300000000000000000000000000000000000000000000F30000000000000000F30000000000000000
1004
0000000000000000000000000000F30000000000000000F300000000000000000000000000000000000000000000F30000000000000000F300000000000000000000000000000000000000000000F30000000000000000F3F3F3F3F3F3F3F3F3F3F3FAFAF3F3F3F3F3F3F3F3F3F3FF00000000000000000000000000000000
1004
000000FAFA0000000000000000000000000000000000000000000000000000000000000000000000000000000000000000000000000000000000000000000000000000000000000000000000000000000000000000000000000000000000000000000000000000000000000000000000000000000000000000000000000000
1004
0000000000000000000000000000000000000000000000000000000000000000000000000000000000000000000000000000000000000000
  0
BLOCK_RECORD
  5
307
330
1
100
AcDbSymbolTableRecord
100
AcDbBlockTableRecord
  2
*D5
  0
BLOCK_RECORD
  5
1C9
330
1
100
AcDbSymbolTableRecord
100
AcDbBlockTableRecord
  2
*D6
  0
BLOCK_RECORD
  5
224
330
1
100
AcDbSymbolTableRecord
100
AcDbBlockTableRecord
  2
*D7
  0
BLOCK_RECORD
  5
1B2
330
1
100
AcDbSymbolTableRecord
100
AcDbBlockTableRecord
  2
*D8
  0
BLOCK_RECORD
  5
135
330
1
100
AcDbSymbolTableRecord
100
AcDbBlockTableRecord
  2
*D9
  0
BLOCK_RECORD
  5
2C5
330
1
100
AcDbSymbolTableRecord
100
AcDbBlockTableRecord
  2
*D10
  0
BLOCK_RECORD
  5
A4
330
1
100
AcDbSymbolTableRecord
100
AcDbBlockTableRecord
  2
*D11
  0
BLOCK_RECORD
  5
1F1
330
1
100
AcDbSymbolTableRecord
100
AcDbBlockTableRecord
  2
*D12
  0
BLOCK_RECORD
  5
C6
330
1
100
AcDbSymbolTableRecord
100
AcDbBlockTableRecord
  2
*D13
  0
BLOCK_RECORD
  5
B7
330
1
100
AcDbSymbolTableRecord
100
AcDbBlockTableRecord
  2
*D14
  0
BLOCK_RECORD
  5
111
330
1
100
AcDbSymbolTableRecord
100
AcDbBlockTableRecord
  2
*D15
  0
BLOCK_RECORD
  5
1E1
330
1
100
AcDbSymbolTableRecord
100
AcDbBlockTableRecord
  2
*D16
  0
BLOCK_RECORD
  5
2FA
330
1
100
AcDbSymbolTableRecord
100
AcDbBlockTableRecord
  2
*D17
  0
BLOCK_RECORD
  5
2E9
330
1
100
AcDbSymbolTableRecord
100
AcDbBlockTableRecord
  2
*D18
  0
BLOCK_RECORD
  5
271
330
1
100
AcDbSymbolTableRecord
100
AcDbBlockTableRecord
  2
*D19
  0
BLOCK_RECORD
  5
289
330
1
100
AcDbSymbolTableRecord
100
AcDbBlockTableRecord
  2
*D20
  0
BLOCK_RECORD
  5
145
330
1
100
AcDbSymbolTableRecord
100
AcDbBlockTableRecord
  2
*D21
  0
BLOCK_RECORD
  5
16B
330
1
100
AcDbSymbolTableRecord
100
AcDbBlockTableRecord
  2
*D22
  0
BLOCK_RECORD
  5
15C
330
1
100
AcDbSymbolTableRecord
100
AcDbBlockTableRecord
  2
*D23
  0
BLOCK_RECORD
  5
206
330
1
100
AcDbSymbolTableRecord
100
AcDbBlockTableRecord
  2
*D24
  0
BLOCK_RECORD
  5
122
330
1
100
AcDbSymbolTableRecord
100
AcDbBlockTableRecord
  2
*D25
  0
BLOCK_RECORD
  5
19C
330
1
100
AcDbSymbolTableRecord
100
AcDbBlockTableRecord
  2
*D26
  0
BLOCK_RECORD
  5
18D
330
1
100
AcDbSymbolTableRecord
100
AcDbBlockTableRecord
  2
*D27
  0
BLOCK_RECORD
  5
FF
330
1
100
AcDbSymbolTableRecord
100
AcDbBlockTableRecord
  2
*D28
  0
BLOCK_RECORD
  5
2D9
330
1
100
AcDbSymbolTableRecord
100
AcDbBlockTableRecord
  2
*D29
  0
BLOCK_RECORD
  5
391
330
1
100
AcDbSymbolTableRecord
100
AcDbBlockTableRecord
  2
*D30
  0
BLOCK_RECORD
  5
39D
330
1
100
AcDbSymbolTableRecord
100
AcDbBlockTableRecord
  2
*D31
  0
BLOCK_RECORD
  5
3A9
330
1
100
AcDbSymbolTableRecord
100
AcDbBlockTableRecord
  2
*D32
  0
BLOCK_RECORD
  5
3B5
330
1
100
AcDbSymbolTableRecord
100
AcDbBlockTableRecord
  2
*D33
  0
BLOCK_RECORD
  5
3C1
330
1
100
AcDbSymbolTableRecord
100
AcDbBlockTableRecord
  2
*D34
  0
BLOCK_RECORD
  5
3CD
330
1
100
AcDbSymbolTableRecord
100
AcDbBlockTableRecord
  2
*D35
  0
BLOCK_RECORD
  5
3D9
330
1
100
AcDbSymbolTableRecord
100
AcDbBlockTableRecord
  2
*D36
  0
BLOCK_RECORD
  5
3E5
330
1
100
AcDbSymbolTableRecord
100
AcDbBlockTableRecord
  2
*D37
  0
BLOCK_RECORD
  5
3F1
330
1
100
AcDbSymbolTableRecord
100
AcDbBlockTableRecord
  2
*D38
  0
BLOCK_RECORD
  5
3FD
330
1
100
AcDbSymbolTableRecord
100
AcDbBlockTableRecord
  2
*D39
  0
BLOCK_RECORD
  5
409
330
1
100
AcDbSymbolTableRecord
100
AcDbBlockTableRecord
  2
*D40
  0
BLOCK_RECORD
  5
417
330
1
100
AcDbSymbolTableRecord
100
AcDbBlockTableRecord
  2
*D41
  0
BLOCK_RECORD
  5
423
330
1
100
AcDbSymbolTableRecord
100
AcDbBlockTableRecord
  2
*D42
  0
BLOCK_RECORD
  5
42F
330
1
100
AcDbSymbolTableRecord
100
AcDbBlockTableRecord
  2
*D43
  0
BLOCK_RECORD
  5
43B
330
1
100
AcDbSymbolTableRecord
100
AcDbBlockTableRecord
  2
*D44
  0
BLOCK_RECORD
  5
447
330
1
100
AcDbSymbolTableRecord
100
AcDbBlockTableRecord
  2
*D45
  0
BLOCK_RECORD
  5
455
330
1
100
AcDbSymbolTableRecord
100
AcDbBlockTableRecord
  2
*D46
  0
BLOCK_RECORD
  5
463
330
1
100
AcDbSymbolTableRecord
100
AcDbBlockTableRecord
  2
*D47
  0
BLOCK_RECORD
  5
46F
330
1
100
AcDbSymbolTableRecord
100
AcDbBlockTableRecord
  2
*D48
  0
BLOCK_RECORD
  5
47B
330
1
100
AcDbSymbolTableRecord
100
AcDbBlockTableRecord
  2
*D49
  0
BLOCK_RECORD
  5
487
330
1
100
AcDbSymbolTableRecord
100
AcDbBlockTableRecord
  2
*D50
  0
BLOCK_RECORD
  5
493
330
1
100
AcDbSymbolTableRecord
100
AcDbBlockTableRecord
  2
*D51
  0
BLOCK_RECORD
  5
49F
330
1
100
AcDbSymbolTableRecord
100
AcDbBlockTableRecord
  2
*D52
  0
BLOCK_RECORD
  5
4AB
330
1
100
AcDbSymbolTableRecord
100
AcDbBlockTableRecord
  2
*D53
  0
BLOCK_RECORD
  5
4B9
330
1
100
AcDbSymbolTableRecord
100
AcDbBlockTableRecord
  2
*D54
  0
ENDTAB
  0
ENDSEC
  0
SECTION
  2
BLOCKS
  0
BLOCK
  5
5
330
2
100
AcDbEntity
  8
0
100
AcDbBlockBegin
  2
*MODEL_SPACE
 70
     0
 10
0.0
 20
0.0
 30
0.0
  3
*MODEL_SPACE
  1

  0
ENDBLK
  5
B
330
2
100
AcDbEntity
  8
0
100
AcDbBlockEnd
  0
BLOCK
  5
11
330
E
100
AcDbEntity
 67
     1
  8
0
100
AcDbBlockBegin
  2
*PAPER_SPACE
 70
     0
 10
0.0
 20
0.0
 30
0.0
  3
*PAPER_SPACE
  1

  0
ENDBLK
  5
12
330
E
100
AcDbEntity
 67
     1
  8
0
100
AcDbBlockEnd
  0
BLOCK
  5
E8
330
DF
100
AcDbEntity
  8
0
100
AcDbBlockBegin
  2
*D0
 70
     1
 10
0.0
 20
0.0
 30
0.0
  3
*D0
  1

  0
LINE
  5
E0
330
DF
100
AcDbEntity
  8
0
 62
   123
100
AcDbLine
 10
-474.0668181331803
 20
-2516.925402556208
 30
0.0
 11
-497.6135875546876
 21
-2534.857403328699
 31
0.0
  0
LINE
  5
E1
330
DF
100
AcDbEntity
  8
0
 62
   123
100
AcDbLine
 10
-584.3305466904876
 20
-2600.896550796242
 30
0.0
 11
-586.3194677715838
 21
-2602.411210141828
 31
0.0
  0
MTEXT
  5
E2
330
DF
100
AcDbEntity
  8
0
 62
     3
100
AcDbMText
 10
-484.8441670850144
 20
-2521.990466427412
 30
0.0
 40
3.0
 41
0.0
 71
     5
 72
     1
  1
\A1;\U+2205104%%P0.5
 11
0.7955684324385314
 21
0.6058637382343476
 31
0.0
1001
ACAD
1000
MTEXTBEGIN
1070
    73
1070
     1
1070
    44
1040
1.0
1070
    74
1070
     0
1000
MTEXTEND
  0
LINE
  5
E3
330
DF
100
AcDbEntity
  8
0
 62
   123
100
AcDbLine
 10
-582.3416256093914
 20
-2599.381891450657
 30
0.0
 11
-499.6025086357839
 21
-2536.372062674285
 31
0.0
  0
SOLID
  5
E4
330
DF
100
AcDbEntity
  8
0
 62
   123
100
AcDbTrace
 10
-584.5829899147519
 20
-2600.565063949392
 30
0.0
 11
-584.0781034662234
 21
-2601.228037643092
 31
0.0
 12
-582.3416256093914
 22
-2599.381891450657
 32
0.0
 13
-582.3416256093914
 23
-2599.381891450657
 33
0.0
  0
SOLID
  5
E5
330
DF
100
AcDbEntity
  8
0
 62
   123
100
AcDbTrace
 10
-497.8660307789517
 20
-2534.52591648185
 30
0.0
 11
-497.3611443304232
 21
-2535.188890175549
 31
0.0
 12
-499.6025086357839
 22
-2536.372062674285
 32
0.0
 13
-499.6025086357839
 23
-2536.372062674285
 33
0.0
  0
POINT
  5
E6
330
DF
100
AcDbEntity
  8
DEFPOINTS
 62
     0
100
AcDbPoint
 10
-499.6025086357839
 20
-2536.372062674285
 30
0.0
  0
POINT
  5
E7
330
DF
100
AcDbEntity
  8
DEFPOINTS
 62
     0
100
AcDbPoint
 10
-582.3416256093914
 20
-2599.381891450657
 30
0.0
  0
ENDBLK
  5
E9
330
DF
100
AcDbEntity
  8
0
100
AcDbBlockEnd
  0
BLOCK
  5
F3
330
D5
100
AcDbEntity
  8
0
100
AcDbBlockBegin
  2
4
 70
     0
 10
0.0
 20
0.0
 30
0.0
  3
4
  1

  0
LWPOLYLINE
  5
D6
330
D5
100
AcDbEntity
  8
0
100
AcDbPolyline
 90
        8
 70
     1
 43
0.0
 10
-40.0
 20
-45.00000000000045
 10
40.0
 20
-45.0
 42
0.4142135623730951
 10
45.0
 20
-40.0
 10
45.0
 20
40.0
 42
0.4142135623730951
 10
40.0
 20
45.0
 10
-40.0
 20
45.0
 42
0.4142135623730951
 10
-45.0
 20
40.0
 10
-45.0
 20
-40.00000000000045
 42
0.4142135623730951
  0
CIRCLE
  5
D7
330
D5
100
AcDbEntity
  8
0
100
AcDbCircle
 10
36.76955262170071
 20
36.76955262170031
 30
0.0
 40
3.25
  0
LINE
  5
D8
330
D5
100
AcDbEntity
  8
CL
 48
0.6
100
AcDbLine
 10
33.05724202047111
 20
33.05724202047122
 30
0.0
 11
40.48186322293008
 21
40.48186322292986
 31
0.0
  0
ARC
  5
DB
102
{ACAD_REACTORS
330
DE
102
}
330
D5
100
AcDbEntity
  8
CL
 48
0.6
100
AcDbCircle
 10
0.0
 20
0.0
 30
0.0
 40
51.9999999999996
100
AcDbArc
 50
35.90024337538245
 51
54.09975662462136
  0
DIMENSION
  5
DC
102
{ACAD_XDICTIONARY
360
DD
102
}
102
{ACAD_REACTORS
330
DE
102
}
330
D5
100
AcDbEntity
  8
0
100
AcDbDimension
  2
*D0
 10
-41.36955848680371
 20
-31.50491438818607
 30
0.0
 11
57.64255938315909
 21
43.89758955396246
 31
0.0
 12
540.9720671225876
 22
2567.87697706247
 32
0.0
 70
   131
  1
<>%%P0.5
  3
STANDARD
100
AcDbDiametricDimension
 15
41.36955848680371
 25
31.50491438818607
 35
0.0
 40
0.0
1001
ACAD
1000
DSTYLE
1002
{
1070
   287
1070
     4
1070
   287
1070
     4
1070
   287
1070
     4
1070
   287
1070
     4
1070
   287
1070
     4
1070
   279
1070
     1
1070
   289
1070
     3
1002
}
  0
ARC
  5
EA
330
D5
100
AcDbEntity
  8
CL
 48
0.6
100
AcDbCircle
 10
-0.0000000000002274
 20
0.0
 30
0.0
 40
52.0
100
AcDbArc
 50
129.2128702778055
 51
140.7871297221883
  0
LINE
  5
EB
330
D5
100
AcDbEntity
  8
CL
 48
0.6
100
AcDbLine
 10
-33.05724202047122
 20
33.05724202047122
 30
0.0
 11
-40.48186322292986
 21
40.48186322293031
 31
0.0
  0
CIRCLE
  5
EC
330
D5
100
AcDbEntity
  8
0
100
AcDbCircle
 10
-36.76955262170054
 20
36.76955262170077
 30
0.0
 40
3.25
  0
LINE
  5
ED
330
D5
100
AcDbEntity
  8
CL
 48
0.6
100
AcDbLine
 10
-33.05724202047122
 20
-33.05724202047122
 30
0.0
 11
-40.48186322293008
 21
-40.48186322292986
 31
0.0
  0
CIRCLE
  5
EE
330
D5
100
AcDbEntity
  8
0
100
AcDbCircle
 10
-36.76955262170077
 20
-36.76955262170031
 30
0.0
 40
3.25
  0
ARC
  5
EF
330
D5
100
AcDbEntity
  8
CL
 48
0.6
100
AcDbCircle
 10
0.0
 20
0.0
 30
0.0
 40
51.9999999999996
100
AcDbArc
 50
215.9002433753824
 51
234.0997566246214
  0
ARC
  5
F0
330
D5
100
AcDbEntity
  8
CL
 48
0.6
100
AcDbCircle
 10
0.0
 20
0.0000000000004547
 30
0.0
 40
52.0
100
AcDbArc
 50
309.2128702778056
 51
320.7871297221883
  0
LINE
  5
F1
330
D5
100
AcDbEntity
  8
CL
 48
0.6
100
AcDbLine
 10
33.05724202047076
 20
-33.05724202047122
 30
0.0
 11
40.48186322292941
 21
-40.48186322293031
 31
0.0
  0
CIRCLE
  5
F2
330
D5
100
AcDbEntity
  8
0
100
AcDbCircle
 10
36.76955262170025
 20
-36.76955262170077
 30
0.0
 40
3.25
  0
ENDBLK
  5
F4
330
D5
100
AcDbEntity
  8
0
100
AcDbBlockEnd
  0
BLOCK
  5
242
330
238
100
AcDbEntity
  8
0
100
AcDbBlockBegin
  2
*D2
 70
     1
 10
0.0
 20
0.0
 30
0.0
  3
*D2
  1

  0
LINE
  5
239
330
238
100
AcDbEntity
  8
0
 62
   123
100
AcDbLine
 10
9056.46872405039
 20
-2501.45855410191
 30
0.0
 11
9063.140795870523
 21
-2501.45855410191
 31
0.0
  0
LINE
  5
23A
330
238
100
AcDbEntity
  8
0
 62
   123
100
AcDbLine
 10
9044.749755799271
 20
-2458.458554101911
 30
0.0
 11
9063.140795870523
 21
-2458.458554101911
 31
0.0
  0
LINE
  5
23B
330
238
100
AcDbEntity
  8
0
 62
   123
100
AcDbLine
 10
9062.540795870523
 20
-2498.958554101911
 30
0.0
 11
9062.540795870523
 21
-2460.958554101911
 31
0.0
  0
SOLID
  5
23C
330
238
100
AcDbEntity
  8
0
 62
   123
100
AcDbTrace
 10
9062.124129203857
 20
-2498.958554101911
 30
0.0
 11
9062.957462537189
 21
-2498.958554101911
 31
0.0
 12
9062.540795870523
 22
-2501.45855410191
 32
0.0
 13
9062.540795870523
 23
-2501.45855410191
 33
0.0
  0
SOLID
  5
23D
330
238
100
AcDbEntity
  8
0
 62
   123
100
AcDbTrace
 10
9062.124129203857
 20
-2460.958554101911
 30
0.0
 11
9062.957462537189
 21
-2460.958554101911
 31
0.0
 12
9062.540795870523
 22
-2458.458554101911
 32
0.0
 13
9062.540795870523
 23
-2458.458554101911
 33
0.0
  0
MTEXT
  5
23E
330
238
100
AcDbEntity
  8
0
 62
     3
100
AcDbMText
 10
9060.040795870524
 20
-2478.363718304827
 30
0.0
 40
3.0
 41
0.0
 71
     5
 72
     1
  1
\A1;43
 11
0.0000000000000001
 21
1.0
 31
0.0
1001
ACAD
1000
MTEXTBEGIN
1070
    73
1070
     1
1070
    44
1040
1.0
1070
    74
1070
     0
1000
MTEXTEND
  0
POINT
  5
23F
330
238
100
AcDbEntity
  8
DEFPOINTS
 62
     0
100
AcDbPoint
 10
9055.46872405039
 20
-2501.45855410191
 30
0.0
  0
POINT
  5
240
330
238
100
AcDbEntity
  8
DEFPOINTS
 62
     0
100
AcDbPoint
 10
9043.74975579927
 20
-2458.458554101911
 30
0.0
  0
POINT
  5
241
330
238
100
AcDbEntity
  8
DEFPOINTS
 62
     0
100
AcDbPoint
 10
9062.540795870523
 20
-2458.458554101911
 30
0.0
  0
ENDBLK
  5
243
330
238
100
AcDbEntity
  8
0
100
AcDbBlockEnd
  0
BLOCK
  5
253
330
249
100
AcDbEntity
  8
0
100
AcDbBlockBegin
  2
*D3
 70
     1
 10
0.0
 20
0.0
 30
0.0
  3
*D3
  1

  0
LINE
  5
24A
330
249
100
AcDbEntity
  8
0
 62
   123
100
AcDbLine
 10
8984.221449799269
 20
-2492.458554101911
 30
0.0
 11
8984.221449799269
 21
-2443.948824506485
 31
0.0
  0
LINE
  5
24B
330
249
100
AcDbEntity
  8
0
 62
   123
100
AcDbLine
 10
9046.22144979927
 20
-2492.458554101911
 30
0.0
 11
9046.22144979927
 21
-2443.948824506485
 31
0.0
  0
LINE
  5
24C
330
249
100
AcDbEntity
  8
0
 62
   123
100
AcDbLine
 10
8986.72144979927
 20
-2444.548824506485
 30
0.0
 11
9043.721449799269
 21
-2444.548824506485
 31
0.0
  0
SOLID
  5
24D
330
249
100
AcDbEntity
  8
0
 62
   123
100
AcDbTrace
 10
8986.72144979927
 20
-2444.132157839819
 30
0.0
 11
8986.72144979927
 21
-2444.965491173151
 31
0.0
 12
8984.221449799269
 22
-2444.548824506485
 32
0.0
 13
8984.221449799269
 23
-2444.548824506485
 33
0.0
  0
SOLID
  5
24E
330
249
100
AcDbEntity
  8
0
 62
   123
100
AcDbTrace
 10
9043.721449799269
 20
-2444.132157839819
 30
0.0
 11
9043.721449799269
 21
-2444.965491173151
 31
0.0
 12
9046.22144979927
 22
-2444.548824506485
 32
0.0
 13
9046.22144979927
 23
-2444.548824506485
 33
0.0
  0
MTEXT
  5
24F
330
249
100
AcDbEntity
  8
0
 62
     3
100
AcDbMText
 10
9015.22144979927
 20
-2442.048824506485
 30
0.0
 40
3.0
 41
0.0
 71
     5
 72
     1
  1
\A1;62
1001
ACAD
1000
MTEXTBEGIN
1070
    73
1070
     1
1070
    44
1040
1.0
1070
    74
1070
     0
1000
MTEXTEND
  0
POINT
  5
250
330
249
100
AcDbEntity
  8
DEFPOINTS
 62
     0
100
AcDbPoint
 10
8984.221449799269
 20
-2493.458554101911
 30
0.0
  0
POINT
  5
251
330
249
100
AcDbEntity
  8
DEFPOINTS
 62
     0
100
AcDbPoint
 10
9046.22144979927
 20
-2493.458554101911
 30
0.0
  0
POINT
  5
252
330
249
100
AcDbEntity
  8
DEFPOINTS
 62
     0
100
AcDbPoint
 10
9046.22144979927
 20
-2444.548824506485
 30
0.0
  0
ENDBLK
  5
254
330
249
100
AcDbEntity
  8
0
100
AcDbBlockEnd
  0
BLOCK
  5
268
330
235
100
AcDbEntity
  8
0
100
AcDbBlockBegin
  2
T
 70
     0
 10
0.0
 20
0.0
 30
0.0
  3
T
  1

  0
LINE
  5
236
330
235
100
AcDbEntity
  8
0
100
AcDbLine
 10
-28.5283049999998
 20
43.00000000006956
 30
0.0
 11
28.52830600000014
 21
43.00000000006956
 31
0.0
  0
DIMENSION
  5
237
330
235
100
AcDbEntity
  8
0
100
AcDbDimension
  2
*D2
 10
47.31934607125366
 20
43.00000000006956
 30
0.0
 11
47.31934607125366
 21
23.09483579715378
 31
0.0
 12
-9015.22144979927
 22
2501.45855410198
 32
0.0
 70
   128
  3
STANDARD
100
AcDbAlignedDimension
 13
40.24727425111996
 23
0.0000000000695763
 33
0.0
 14
28.52830600000014
 24
43.00000000006956
 34
0.0
 50
90.0
100
AcDbRotatedDimension
  0
LINE
  5
244
330
235
100
AcDbEntity
  8
0
100
AcDbLine
 10
31.0
 20
8.700000000070302
 30
0.0
 11
29.02745800000047
 21
42.529105000071
 31
0.0
  0
ARC
  5
245
330
235
100
AcDbEntity
  8
0
100
AcDbCircle
 10
28.52830600000014
 20
42.50000000006957
 30
0.0
 40
0.5
100
AcDbArc
 50
3.337083000037623
 51
90.0
  0
DIMENSION
  5
246
102
{ACAD_XDICTIONARY
360
247
102
}
102
{ACAD_REACTORS
330
248
102
}
330
235
100
AcDbEntity
  8
0
100
AcDbDimension
  2
*D3
 10
31.0
 20
56.90972959549482
 30
0.0
 11
0.0
 21
56.90972959549482
 31
0.0
 12
-9015.22144979927
 22
2501.45855410198
 32
0.0
 70
   128
  3
STANDARD
100
AcDbAlignedDimension
 13
-31.0
 23
8.000000000069576
 33
0.0
 14
31.0
 24
8.000000000069576
 34
0.0
100
AcDbRotatedDimension
  0
LINE
  5
255
330
235
100
AcDbEntity
  8
0
100
AcDbLine
 10
-31.0
 20
8.700000000070302
 30
0.0
 11
-29.02745700000013
 21
42.529105000071
 31
0.0
  0
ARC
  5
256
330
235
100
AcDbEntity
  8
0
100
AcDbCircle
 10
-28.5283049999998
 20
42.50000000006957
 30
0.0
 40
0.5
100
AcDbArc
 50
90.0
 51
176.6629169999623
  0
LINE
  5
257
330
235
100
AcDbEntity
  8
0
100
AcDbLine
 10
30.30000000000109
 20
8.700000000070302
 30
0.0
 11
30.30000000000109
 21
8.000000000069576
 31
0.0
  0
LINE
  5
258
102
{ACAD_REACTORS
330
248
102
}
330
235
100
AcDbEntity
  8
0
100
AcDbLine
 10
30.57641300000068
 20
2.916955000070173
 30
0.0
 11
31.0
 21
8.000000000069576
 31
0.0
  0
LINE
  5
259
330
235
100
AcDbEntity
  8
0
100
AcDbLine
 10
0.0
 20
8.000000000069576
 30
0.0
 11
31.0
 21
8.000000000069576
 31
0.0
  0
LINE
  5
25A
330
235
100
AcDbEntity
  8
0
100
AcDbLine
 10
31.0
 20
8.700000000070302
 30
0.0
 11
-31.0
 21
8.700000000070302
 31
0.0
  0
LINE
  5
25B
330
235
100
AcDbEntity
  8
0
100
AcDbLine
 10
-30.29999999999926
 20
8.700000000070302
 30
0.0
 11
-30.29999999999926
 21
8.000000000069576
 31
0.0
  0
LINE
  5
25C
102
{ACAD_REACTORS
330
248
102
}
330
235
100
AcDbEntity
  8
0
100
AcDbLine
 10
0.0
 20
8.000000000069576
 30
0.0
 11
-31.0
 21
8.000000000069576
 31
0.0
  0
LINE
  5
25D
330
235
100
AcDbEntity
  8
0
100
AcDbLine
 10
-15.0
 20
2.000000000069575
 30
0.0
 11
-15.0
 21
0.0000000000695763
 31
0.0
  0
LINE
  5
25E
330
235
100
AcDbEntity
  8
0
100
AcDbLine
 10
-27.0
 20
1.000000000069575
 30
0.0
 11
-27.0
 21
0.0000000000695763
 31
0.0
  0
ARC
  5
25F
330
235
100
AcDbEntity
  8
0
100
AcDbCircle
 10
-28.0
 20
1.000000000069575
 30
0.0
 40
1.0
100
AcDbArc
 50
0.0
 51
90.0
  0
LINE
  5
260
330
235
100
AcDbEntity
  8
0
100
AcDbLine
 10
-30.57641199999852
 20
2.916955000070173
 30
0.0
 11
-31.0
 21
8.000000000069576
 31
0.0
  0
ARC
  5
261
330
235
100
AcDbEntity
  8
0
100
AcDbCircle
 10
-29.57986699999855
 20
3.000000000069575
 30
0.0
 40
1.0
100
AcDbArc
 50
184.7636420000051
 51
270.0
  0
LINE
  5
262
330
235
100
AcDbEntity
  8
0
100
AcDbLine
 10
-15.0
 20
2.000000000069575
 30
0.0
 11
-29.57986699999855
 21
2.000000000069575
 31
0.0
  0
LINE
  5
263
330
235
100
AcDbEntity
  8
0
100
AcDbLine
 10
27.0
 20
1.000000000069575
 30
0.0
 11
27.0
 21
0.0000000000695763
 31
0.0
  0
ARC
  5
264
330
235
100
AcDbEntity
  8
0
100
AcDbCircle
 10
29.57986800000071
 20
3.000000000069575
 30
0.0
 40
1.0
100
AcDbArc
 50
270.0
 51
355.2363579999948
  0
ARC
  5
265
330
235
100
AcDbEntity
  8
0
100
AcDbCircle
 10
28.0
 20
1.000000000069575
 30
0.0
 40
1.0
100
AcDbArc
 50
90.0
 51
180.0
  0
LINE
  5
266
330
235
100
AcDbEntity
  8
0
100
AcDbLine
 10
15.0
 20
2.000000000069575
 30
0.0
 11
15.0
 21
0.0000000000695763
 31
0.0
  0
LINE
  5
267
330
235
100
AcDbEntity
  8
0
100
AcDbLine
 10
15.0
 20
2.000000000069575
 30
0.0
 11
29.57986800000071
 21
2.000000000069575
 31
0.0
  0
ENDBLK
  5
269
330
235
100
AcDbEntity
  8
0
100
AcDbBlockEnd
  0
BLOCK
  5
311
330
307
100
AcDbEntity
  8
0
100
AcDbBlockBegin
  2
*D5
 70
     1
 10
0.0
 20
0.0
 30
0.0
  3
*D5
  1

  0
LINE
  5
308
330
307
100
AcDbEntity
  8
0
 62
   123
100
AcDbLine
 10
14668.1915803619
 20
-3446.200151243654
 30
0.0
 11
14674.55575775433
 21
-3446.200151243654
 31
0.0
  0
LINE
  5
309
330
307
100
AcDbEntity
  8
0
 62
   123
100
AcDbLine
 10
14655.79984136819
 20
-3403.200151243654
 30
0.0
 11
14674.55575775433
 21
-3403.200151243654
 31
0.0
  0
LINE
  5
30A
330
307
100
AcDbEntity
  8
0
 62
   123
100
AcDbLine
 10
14673.95575775433
 20
-3443.700151243654
 30
0.0
 11
14673.95575775433
 21
-3405.700151243654
 31
0.0
  0
SOLID
  5
30B
330
307
100
AcDbEntity
  8
0
 62
   123
100
AcDbTrace
 10
14673.53909108765
 20
-3443.700151243654
 30
0.0
 11
14674.372424421
 21
-3443.700151243654
 31
0.0
 12
14673.95575775433
 22
-3446.200151243654
 32
0.0
 13
14673.95575775433
 23
-3446.200151243654
 33
0.0
  0
SOLID
  5
30C
330
307
100
AcDbEntity
  8
0
 62
   123
100
AcDbTrace
 10
14673.53909108765
 20
-3405.700151243654
 30
0.0
 11
14674.372424421
 21
-3405.700151243654
 31
0.0
 12
14673.95575775433
 22
-3403.200151243654
 32
0.0
 13
14673.95575775433
 23
-3403.200151243654
 33
0.0
  0
MTEXT
  5
30D
330
307
100
AcDbEntity
  8
0
 62
     3
100
AcDbMText
 10
14671.45575775433
 20
-3423.105315446569
 30
0.0
 40
3.0
 41
0.0
 71
     5
 72
     1
  1
\A1;43
 11
0.0000000000000001
 21
1.0
 31
0.0
1001
ACAD
1000
MTEXTBEGIN
1070
    73
1070
     1
1070
    44
1040
1.0
1070
    74
1070
     0
1000
MTEXTEND
  0
POINT
  5
30E
330
307
100
AcDbEntity
  8
DEFPOINTS
 62
     0
100
AcDbPoint
 10
14667.19158036189
 20
-3446.200151243654
 30
0.0
  0
POINT
  5
30F
330
307
100
AcDbEntity
  8
DEFPOINTS
 62
     0
100
AcDbPoint
 10
14654.79984136819
 20
-3403.200151243654
 30
0.0
  0
POINT
  5
310
330
307
100
AcDbEntity
  8
DEFPOINTS
 62
     0
100
AcDbPoint
 10
14673.95575775433
 20
-3403.200151243654
 30
0.0
  0
ENDBLK
  5
312
330
307
100
AcDbEntity
  8
0
100
AcDbBlockEnd
  0
BLOCK
  5
1D3
330
1C9
100
AcDbEntity
  8
0
100
AcDbBlockBegin
  2
*D6
 70
     1
 10
0.0
 20
0.0
 30
0.0
  3
*D6
  1

  0
LINE
  5
1CA
330
1C9
100
AcDbEntity
  8
0
 62
   123
100
AcDbLine
 10
14548.97280687433
 20
-3739.144919646991
 30
0.0
 11
14548.97280687433
 21
-3758.425100333019
 31
0.0
  0
LINE
  5
1CB
330
1C9
100
AcDbEntity
  8
0
 62
   123
100
AcDbLine
 10
14638.97280687433
 20
-3739.144919646991
 30
0.0
 11
14638.97280687433
 21
-3758.425100333019
 31
0.0
  0
LINE
  5
1CC
330
1C9
100
AcDbEntity
  8
0
 62
   123
100
AcDbLine
 10
14551.47280687433
 20
-3757.825100333018
 30
0.0
 11
14636.47280687433
 21
-3757.825100333018
 31
0.0
  0
SOLID
  5
1CD
330
1C9
100
AcDbEntity
  8
0
 62
   123
100
AcDbTrace
 10
14551.47280687433
 20
-3757.408433666352
 30
0.0
 11
14551.47280687433
 21
-3758.241766999685
 31
0.0
 12
14548.97280687433
 22
-3757.825100333018
 32
0.0
 13
14548.97280687433
 23
-3757.825100333018
 33
0.0
  0
SOLID
  5
1CE
330
1C9
100
AcDbEntity
  8
0
 62
   123
100
AcDbTrace
 10
14636.47280687433
 20
-3757.408433666352
 30
0.0
 11
14636.47280687433
 21
-3758.241766999685
 31
0.0
 12
14638.97280687433
 22
-3757.825100333018
 32
0.0
 13
14638.97280687433
 23
-3757.825100333018
 33
0.0
  0
MTEXT
  5
1CF
330
1C9
100
AcDbEntity
  8
0
 62
     3
100
AcDbMText
 10
14593.97280687433
 20
-3755.325100333019
 30
0.0
 40
3.0
 41
0.0
 71
     5
 72
     1
  1
\A1;90
1001
ACAD
1000
MTEXTBEGIN
1070
    73
1070
     1
1070
    44
1040
1.0
1070
    74
1070
     0
1000
MTEXTEND
  0
POINT
  5
1D0
330
1C9
100
AcDbEntity
  8
DEFPOINTS
 62
     0
100
AcDbPoint
 10
14548.97280687433
 20
-3738.144919646991
 30
0.0
  0
POINT
  5
1D1
330
1C9
100
AcDbEntity
  8
DEFPOINTS
 62
     0
100
AcDbPoint
 10
14638.97280687433
 20
-3738.144919646991
 30
0.0
  0
POINT
  5
1D2
330
1C9
100
AcDbEntity
  8
DEFPOINTS
 62
     0
100
AcDbPoint
 10
14638.97280687433
 20
-3757.825100333018
 30
0.0
  0
ENDBLK
  5
1D4
330
1C9
100
AcDbEntity
  8
0
100
AcDbBlockEnd
  0
BLOCK
  5
22E
330
224
100
AcDbEntity
  8
0
100
AcDbBlockBegin
  2
*D7
 70
     1
 10
0.0
 20
0.0
 30
0.0
  3
*D7
  1

  0
LINE
  5
225
330
224
100
AcDbEntity
  8
0
 62
   123
100
AcDbLine
 10
14581.8836859342
 20
-3532.200151243654
 30
0.0
 11
14581.8836859342
 21
-3552.480331929751
 31
0.0
  0
LINE
  5
226
330
224
100
AcDbEntity
  8
0
 62
   123
100
AcDbLine
 10
14671.88368593419
 20
-3532.200151243654
 30
0.0
 11
14671.88368593419
 21
-3552.480331929751
 31
0.0
  0
LINE
  5
227
330
224
100
AcDbEntity
  8
0
 62
   123
100
AcDbLine
 10
14584.38368593419
 20
-3551.880331929751
 30
0.0
 11
14669.3836859342
 21
-3551.880331929751
 31
0.0
  0
SOLID
  5
228
330
224
100
AcDbEntity
  8
0
 62
   123
100
AcDbTrace
 10
14584.38368593419
 20
-3551.463665263085
 30
0.0
 11
14584.38368593419
 21
-3552.296998596418
 31
0.0
 12
14581.8836859342
 22
-3551.880331929751
 32
0.0
 13
14581.8836859342
 23
-3551.880331929751
 33
0.0
  0
SOLID
  5
229
330
224
100
AcDbEntity
  8
0
 62
   123
100
AcDbTrace
 10
14669.3836859342
 20
-3551.463665263085
 30
0.0
 11
14669.3836859342
 21
-3552.296998596418
 31
0.0
 12
14671.88368593419
 22
-3551.880331929751
 32
0.0
 13
14671.88368593419
 23
-3551.880331929751
 33
0.0
  0
MTEXT
  5
22A
330
224
100
AcDbEntity
  8
0
 62
     3
100
AcDbMText
 10
14626.63641168308
 20
-3549.38033192975
 30
0.0
 40
3.0
 41
0.0
 71
     5
 72
     1
  1
\A1;90
1001
ACAD
1000
MTEXTBEGIN
1070
    73
1070
     1
1070
    44
1040
1.0
1070
    74
1070
     0
1000
MTEXTEND
  0
POINT
  5
22B
330
224
100
AcDbEntity
  8
DEFPOINTS
 62
     0
100
AcDbPoint
 10
14581.8836859342
 20
-3531.200151243654
 30
0.0
  0
POINT
  5
22C
330
224
100
AcDbEntity
  8
DEFPOINTS
 62
     0
100
AcDbPoint
 10
14671.88368593419
 20
-3531.200151243654
 30
0.0
  0
POINT
  5
22D
330
224
100
AcDbEntity
  8
DEFPOINTS
 62
     0
100
AcDbPoint
 10
14671.88368593419
 20
-3551.880331929751
 30
0.0
  0
ENDBLK
  5
22F
330
224
100
AcDbEntity
  8
0
100
AcDbBlockEnd
  0
BLOCK
  5
1BC
330
1B2
100
AcDbEntity
  8
0
100
AcDbBlockBegin
  2
*D8
 70
     1
 10
0.0
 20
0.0
 30
0.0
  3
*D8
  1

  0
LINE
  5
1B3
330
1B2
100
AcDbEntity
  8
0
 62
   123
100
AcDbLine
 10
14717.1514387868
 20
-3703.144919646991
 30
0.0
 11
14717.1514387868
 21
-3765.383719607486
 31
0.0
  0
LINE
  5
1B4
330
1B2
100
AcDbEntity
  8
0
 62
   123
100
AcDbLine
 10
14754.1514387868
 20
-3743.144919646991
 30
0.0
 11
14754.1514387868
 21
-3765.383719607486
 31
0.0
  0
LINE
  5
1B5
330
1B2
100
AcDbEntity
  8
0
 62
   123
100
AcDbLine
 10
14719.6514387868
 20
-3764.783719607486
 30
0.0
 11
14751.65143878679
 21
-3764.783719607486
 31
0.0
  0
SOLID
  5
1B6
330
1B2
100
AcDbEntity
  8
0
 62
   123
100
AcDbTrace
 10
14719.6514387868
 20
-3764.36705294082
 30
0.0
 11
14719.6514387868
 21
-3765.200386274154
 31
0.0
 12
14717.1514387868
 22
-3764.783719607486
 32
0.0
 13
14717.1514387868
 23
-3764.783719607486
 33
0.0
  0
SOLID
  5
1B7
330
1B2
100
AcDbEntity
  8
0
 62
   123
100
AcDbTrace
 10
14751.65143878679
 20
-3764.36705294082
 30
0.0
 11
14751.65143878679
 21
-3765.200386274154
 31
0.0
 12
14754.1514387868
 22
-3764.783719607486
 32
0.0
 13
14754.1514387868
 23
-3764.783719607486
 33
0.0
  0
MTEXT
  5
1B8
330
1B2
100
AcDbEntity
  8
0
 62
     3
100
AcDbMText
 10
14745.15143878679
 20
-3762.283719607486
 30
0.0
 40
3.0
 41
0.0
 71
     5
 72
     1
  1
\A1;37
1001
ACAD
1000
MTEXTBEGIN
1070
    73
1070
     1
1070
    44
1040
1.0
1070
    74
1070
     0
1000
MTEXTEND
  0
POINT
  5
1B9
330
1B2
100
AcDbEntity
  8
DEFPOINTS
 62
     0
100
AcDbPoint
 10
14717.1514387868
 20
-3702.144919646991
 30
0.0
  0
POINT
  5
1BA
330
1B2
100
AcDbEntity
  8
DEFPOINTS
 62
     0
100
AcDbPoint
 10
14754.1514387868
 20
-3742.144919646991
 30
0.0
  0
POINT
  5
1BB
330
1B2
100
AcDbEntity
  8
DEFPOINTS
 62
     0
100
AcDbPoint
 10
14754.1514387868
 20
-3764.783719607486
 30
0.0
  0
ENDBLK
  5
1BD
330
1B2
100
AcDbEntity
  8
0
100
AcDbBlockEnd
  0
BLOCK
  5
13F
330
135
100
AcDbEntity
  8
0
100
AcDbBlockBegin
  2
*D9
 70
     1
 10
0.0
 20
0.0
 30
0.0
  3
*D9
  1

  0
LINE
  5
136
330
135
100
AcDbEntity
  8
0
 62
   123
100
AcDbLine
 10
14751.1514387868
 20
-3655.644919646991
 30
0.0
 11
14679.79892394633
 21
-3655.644919646991
 31
0.0
  0
LINE
  5
137
330
135
100
AcDbEntity
  8
0
 62
   123
100
AcDbLine
 10
14751.1514387868
 20
-3738.644919646991
 30
0.0
 11
14679.79892394633
 21
-3738.644919646991
 31
0.0
  0
LINE
  5
138
330
135
100
AcDbEntity
  8
0
 62
   123
100
AcDbLine
 10
14680.39892394632
 20
-3658.144919646991
 30
0.0
 11
14680.39892394632
 21
-3736.144919646991
 31
0.0
  0
SOLID
  5
139
330
135
100
AcDbEntity
  8
0
 62
   123
100
AcDbTrace
 10
14679.98225727965
 20
-3658.144919646991
 30
0.0
 11
14680.815590613
 21
-3658.144919646991
 31
0.0
 12
14680.39892394632
 22
-3655.644919646991
 32
0.0
 13
14680.39892394632
 23
-3655.644919646991
 33
0.0
  0
SOLID
  5
13A
330
135
100
AcDbEntity
  8
0
 62
   123
100
AcDbTrace
 10
14679.98225727965
 20
-3736.144919646991
 30
0.0
 11
14680.815590613
 21
-3736.144919646991
 31
0.0
 12
14680.39892394632
 22
-3738.644919646991
 32
0.0
 13
14680.39892394632
 23
-3738.644919646991
 33
0.0
  0
MTEXT
  5
13B
330
135
100
AcDbEntity
  8
0
 62
     3
100
AcDbMText
 10
14676.44877394633
 20
-3697.144919646991
 30
0.0
 40
3.0
 41
0.0
 71
     5
 72
     1
  1
\A1;\A1;{\f??|b0|i0|c0|p49;%%c}83{\f??|b0|i0|c0|p49;\H0.7x;\S+0^ -0.035;\H1.429x;(h7)}
 11
0.0000000000000001
 21
1.0
 31
0.0
1001
ACAD
1000
MTEXTBEGIN
1070
    73
1070
     1
1070
    44
1040
1.0
1070
    74
1070
     0
1000
MTEXTEND
  0
POINT
  5
13C
330
135
100
AcDbEntity
  8
DEFPOINTS
 62
     0
100
AcDbPoint
 10
14752.1514387868
 20
-3655.644919646991
 30
0.0
  0
POINT
  5
13D
330
135
100
AcDbEntity
  8
DEFPOINTS
 62
     0
100
AcDbPoint
 10
14752.1514387868
 20
-3738.644919646991
 30
0.0
  0
POINT
  5
13E
330
135
100
AcDbEntity
  8
DEFPOINTS
 62
     0
100
AcDbPoint
 10
14680.39892394632
 20
-3738.644919646991
 30
0.0
  0
ENDBLK
  5
140
330
135
100
AcDbEntity
  8
0
100
AcDbBlockEnd
  0
BLOCK
  5
2CF
330
2C5
100
AcDbEntity
  8
0
100
AcDbBlockBegin
  2
*D10
 70
     1
 10
0.0
 20
0.0
 30
0.0
  3
*D10
  1

  0
LINE
  5
2C6
330
2C5
100
AcDbEntity
  8
0
 62
   123
100
AcDbLine
 10
14821.71365732981
 20
-3405.200152243721
 30
0.0
 11
14821.71365732981
 21
-3390.56111875955
 31
0.0
  0
LINE
  5
2C7
330
2C5
100
AcDbEntity
  8
0
 62
   123
100
AcDbLine
 10
14849.71365732981
 20
-3413.200152243722
 30
0.0
 11
14849.71365732981
 21
-3390.56111875955
 31
0.0
  0
LINE
  5
2C8
330
2C5
100
AcDbEntity
  8
0
 62
   123
100
AcDbLine
 10
14824.21365732981
 20
-3391.16111875955
 30
0.0
 11
14847.21365732981
 21
-3391.16111875955
 31
0.0
  0
SOLID
  5
2C9
330
2C5
100
AcDbEntity
  8
0
 62
   123
100
AcDbTrace
 10
14824.21365732981
 20
-3390.744452092883
 30
0.0
 11
14824.21365732981
 21
-3391.577785426216
 31
0.0
 12
14821.71365732981
 22
-3391.16111875955
 32
0.0
 13
14821.71365732981
 23
-3391.16111875955
 33
0.0
  0
SOLID
  5
2CA
330
2C5
100
AcDbEntity
  8
0
 62
   123
100
AcDbTrace
 10
14847.21365732981
 20
-3390.744452092883
 30
0.0
 11
14847.21365732981
 21
-3391.577785426216
 31
0.0
 12
14849.71365732981
 22
-3391.16111875955
 32
0.0
 13
14849.71365732981
 23
-3391.16111875955
 33
0.0
  0
MTEXT
  5
2CB
330
2C5
100
AcDbEntity
  8
0
 62
     3
100
AcDbMText
 10
14835.71365732981
 20
-3388.66111875955
 30
0.0
 40
3.0
 41
0.0
 71
     5
 72
     1
  1
\A1;MAX. 28
1001
ACAD
1000
MTEXTBEGIN
1070
    73
1070
     1
1070
    44
1040
1.0
1070
    74
1070
     0
1000
MTEXTEND
  0
POINT
  5
2CC
330
2C5
100
AcDbEntity
  8
DEFPOINTS
 62
     0
100
AcDbPoint
 10
14821.71365732981
 20
-3406.200152243722
 30
0.0
  0
POINT
  5
2CD
330
2C5
100
AcDbEntity
  8
DEFPOINTS
 62
     0
100
AcDbPoint
 10
14849.71365732981
 20
-3414.200152243722
 30
0.0
  0
POINT
  5
2CE
330
2C5
100
AcDbEntity
  8
DEFPOINTS
 62
     0
100
AcDbPoint
 10
14849.71365732981
 20
-3391.16111875955
 30
0.0
  0
ENDBLK
  5
2D0
330
2C5
100
AcDbEntity
  8
0
100
AcDbBlockEnd
  0
BLOCK
  5
AF
330
A4
100
AcDbEntity
  8
0
100
AcDbBlockBegin
  2
*D11
 70
     1
 10
0.0
 20
0.0
 30
0.0
  3
*D11
  1

  0
LINE
  5
A5
330
A4
100
AcDbEntity
  8
0
 62
   123
100
AcDbLine
 10
14839.71699032981
 20
-3446.700151243723
 30
0.0
 11
14868.04964805743
 21
-3446.700151243723
 31
0.0
  0
LINE
  5
A6
330
A4
100
AcDbEntity
  8
0
 62
   123
100
AcDbLine
 10
14839.71699032981
 20
-3535.700151243723
 30
0.0
 11
14868.04964805743
 21
-3535.700151243723
 31
0.0
  0
LINE
  5
A7
330
A4
100
AcDbEntity
  8
0
 62
   123
100
AcDbLine
 10
14867.44964805743
 20
-3449.200151243723
 30
0.0
 11
14867.44964805743
 21
-3533.200151243724
 31
0.0
  0
SOLID
  5
A8
330
A4
100
AcDbEntity
  8
0
 62
   123
100
AcDbTrace
 10
14867.03298139075
 20
-3449.200151243723
 30
0.0
 11
14867.86631472409
 21
-3449.200151243723
 31
0.0
 12
14867.44964805743
 22
-3446.700151243723
 32
0.0
 13
14867.44964805743
 23
-3446.700151243723
 33
0.0
  0
SOLID
  5
A9
330
A4
100
AcDbEntity
  8
0
 62
   123
100
AcDbTrace
 10
14867.03298139075
 20
-3533.200151243724
 30
0.0
 11
14867.86631472409
 21
-3533.200151243724
 31
0.0
 12
14867.44964805743
 22
-3535.700151243723
 32
0.0
 13
14867.44964805743
 23
-3535.700151243723
 33
0.0
  0
MTEXT
  5
AA
330
A4
100
AcDbEntity
  8
0
 62
     3
100
AcDbMText
 10
14864.94964805743
 20
-3491.200151243723
 30
0.0
 40
3.0
 41
0.0
 71
     5
 72
     1
  1
\A1;%%C89
 11
0.0000000000000001
 21
1.0
 31
0.0
1001
ACAD
1000
MTEXTBEGIN
1070
    73
1070
     1
1070
    44
1040
1.0
1070
    74
1070
     0
1000
MTEXTEND
  0
POINT
  5
AB
330
A4
100
AcDbEntity
  8
DEFPOINTS
 62
     0
100
AcDbPoint
 10
14838.7169903298
 20
-3446.700151243723
 30
0.0
  0
POINT
  5
AD
330
A4
100
AcDbEntity
  8
DEFPOINTS
 62
     0
100
AcDbPoint
 10
14838.7169903298
 20
-3535.700151243723
 30
0.0
  0
POINT
  5
AE
330
A4
100
AcDbEntity
  8
DEFPOINTS
 62
     0
100
AcDbPoint
 10
14867.44964805743
 20
-3535.700151243723
 30
0.0
  0
ENDBLK
  5
B0
330
A4
100
AcDbEntity
  8
0
100
AcDbBlockEnd
  0
BLOCK
  5
1FD
330
1F1
100
AcDbEntity
  8
0
100
AcDbBlockBegin
  2
*D12
 70
     1
 10
0.0
 20
0.0
 30
0.0
  3
*D12
  1

  0
LINE
  5
1F2
330
1F1
100
AcDbEntity
  8
0
 62
   123
100
AcDbLine
 10
14738.7169903298
 20
-3533.700151243724
 30
0.0
 11
14738.7169903298
 21
-3550.07476357776
 31
0.0
  0
LINE
  5
1F3
330
1F1
100
AcDbEntity
  8
0
 62
   123
100
AcDbLine
 10
14740.71699032981
 20
-3537.200151243723
 30
0.0
 11
14740.71699032981
 21
-3550.07476357776
 31
0.0
  0
LINE
  5
1F4
330
1F1
100
AcDbEntity
  8
0
 62
   123
100
AcDbLine
 10
14743.21699032981
 20
-3549.474763577761
 30
0.0
 11
14745.7169903298
 21
-3549.474763577761
 31
0.0
  0
LINE
  5
1F5
330
1F1
100
AcDbEntity
  8
0
 62
   123
100
AcDbLine
 10
14736.2169903298
 20
-3549.474763577761
 30
0.0
 11
14727.7169903298
 21
-3549.474763577761
 31
0.0
  0
LINE
  5
1F6
330
1F1
100
AcDbEntity
  8
0
 62
   123
100
AcDbLine
 10
14740.71699032981
 20
-3549.474763577761
 30
0.0
 11
14738.7169903298
 21
-3549.474763577761
 31
0.0
  0
SOLID
  5
1F7
330
1F1
100
AcDbEntity
  8
0
 62
   123
100
AcDbTrace
 10
14743.21699032981
 20
-3549.058096911093
 30
0.0
 11
14743.21699032981
 21
-3549.891430244427
 31
0.0
 12
14740.71699032981
 22
-3549.474763577761
 32
0.0
 13
14740.71699032981
 23
-3549.474763577761
 33
0.0
  0
SOLID
  5
1F8
330
1F1
100
AcDbEntity
  8
0
 62
   123
100
AcDbTrace
 10
14736.2169903298
 20
-3549.058096911093
 30
0.0
 11
14736.2169903298
 21
-3549.891430244427
 31
0.0
 12
14738.7169903298
 22
-3549.474763577761
 32
0.0
 13
14738.7169903298
 23
-3549.474763577761
 33
0.0
  0
MTEXT
  5
1F9
330
1F1
100
AcDbEntity
  8
0
 62
     3
100
AcDbMText
 10
14729.71699032981
 20
-3546.97476357776
 30
0.0
 40
3.0
 41
0.0
 71
     5
 72
     1
  1
\A1;2
1001
ACAD
1000
MTEXTBEGIN
1070
    73
1070
     1
1070
    44
1040
1.0
1070
    74
1070
     0
1000
MTEXTEND
  0
POINT
  5
1FA
330
1F1
100
AcDbEntity
  8
DEFPOINTS
 62
     0
100
AcDbPoint
 10
14738.7169903298
 20
-3532.700151243723
 30
0.0
  0
POINT
  5
1FB
330
1F1
100
AcDbEntity
  8
DEFPOINTS
 62
     0
100
AcDbPoint
 10
14740.71699032981
 20
-3536.200151243724
 30
0.0
  0
POINT
  5
1FC
330
1F1
100
AcDbEntity
  8
DEFPOINTS
 62
     0
100
AcDbPoint
 10
14740.71699032981
 20
-3549.474763577761
 30
0.0
  0
ENDBLK
  5
1FE
330
1F1
100
AcDbEntity
  8
0
100
AcDbBlockEnd
  0
BLOCK
  5
D0
330
C6
100
AcDbEntity
  8
0
100
AcDbBlockBegin
  2
*D13
 70
     1
 10
0.0
 20
0.0
 30
0.0
  3
*D13
  1

  0
LINE
  5
C7
330
C6
100
AcDbEntity
  8
0
 62
   123
100
AcDbLine
 10
14722.7169903298
 20
-3495.435151243724
 30
0.0
 11
14722.7169903298
 21
-3559.438951204219
 31
0.0
  0
LINE
  5
C8
330
C6
100
AcDbEntity
  8
0
 62
   123
100
AcDbLine
 10
14740.71699032981
 20
-3537.200151243723
 30
0.0
 11
14740.71699032981
 21
-3559.438951204219
 31
0.0
  0
LINE
  5
C9
330
C6
100
AcDbEntity
  8
0
 62
   123
100
AcDbLine
 10
14725.21699032981
 20
-3558.83895120422
 30
0.0
 11
14738.2169903298
 21
-3558.83895120422
 31
0.0
  0
SOLID
  5
CA
330
C6
100
AcDbEntity
  8
0
 62
   123
100
AcDbTrace
 10
14725.21699032981
 20
-3558.422284537552
 30
0.0
 11
14725.21699032981
 21
-3559.255617870887
 31
0.0
 12
14722.7169903298
 22
-3558.83895120422
 32
0.0
 13
14722.7169903298
 23
-3558.83895120422
 33
0.0
  0
SOLID
  5
CB
330
C6
100
AcDbEntity
  8
0
 62
   123
100
AcDbTrace
 10
14738.2169903298
 20
-3558.422284537552
 30
0.0
 11
14738.2169903298
 21
-3559.255617870887
 31
0.0
 12
14740.71699032981
 22
-3558.83895120422
 32
0.0
 13
14740.71699032981
 23
-3558.83895120422
 33
0.0
  0
MTEXT
  5
CC
330
C6
100
AcDbEntity
  8
0
 62
     3
100
AcDbMText
 10
14731.71699032981
 20
-3556.338951204218
 30
0.0
 40
3.0
 41
0.0
 71
     5
 72
     1
  1
\A1;18
1001
ACAD
1000
MTEXTBEGIN
1070
    73
1070
     1
1070
    44
1040
1.0
1070
    74
1070
     0
1000
MTEXTEND
  0
POINT
  5
CD
330
C6
100
AcDbEntity
  8
DEFPOINTS
 62
     0
100
AcDbPoint
 10
14722.7169903298
 20
-3494.435151243723
 30
0.0
  0
POINT
  5
CE
330
C6
100
AcDbEntity
  8
DEFPOINTS
 62
     0
100
AcDbPoint
 10
14740.71699032981
 20
-3536.200151243724
 30
0.0
  0
POINT
  5
CF
330
C6
100
AcDbEntity
  8
DEFPOINTS
 62
     0
100
AcDbPoint
 10
14740.71699032981
 20
-3558.83895120422
 30
0.0
  0
ENDBLK
  5
D1
330
C6
100
AcDbEntity
  8
0
100
AcDbBlockEnd
  0
BLOCK
  5
C1
330
B7
100
AcDbEntity
  8
0
100
AcDbBlockBegin
  2
*D14
 70
     1
 10
0.0
 20
0.0
 30
0.0
  3
*D14
  1

  0
LINE
  5
B8
330
B7
100
AcDbEntity
  8
0
 62
   123
100
AcDbLine
 10
14737.7169903298
 20
-3449.700151243723
 30
0.0
 11
14709.62523121148
 21
-3449.700151243723
 31
0.0
  0
LINE
  5
B9
330
B7
100
AcDbEntity
  8
0
 62
   123
100
AcDbLine
 10
14737.7169903298
 20
-3532.700151243723
 30
0.0
 11
14709.62523121148
 21
-3532.700151243723
 31
0.0
  0
LINE
  5
BA
330
B7
100
AcDbEntity
  8
0
 62
   123
100
AcDbLine
 10
14710.22523121148
 20
-3452.200151243723
 30
0.0
 11
14710.22523121148
 21
-3530.200151243723
 31
0.0
  0
SOLID
  5
BB
330
B7
100
AcDbEntity
  8
0
 62
   123
100
AcDbTrace
 10
14709.80856454481
 20
-3452.200151243723
 30
0.0
 11
14710.64189787814
 21
-3452.200151243723
 31
0.0
 12
14710.22523121148
 22
-3449.700151243723
 32
0.0
 13
14710.22523121148
 23
-3449.700151243723
 33
0.0
  0
SOLID
  5
BC
330
B7
100
AcDbEntity
  8
0
 62
   123
100
AcDbTrace
 10
14709.80856454481
 20
-3530.200151243723
 30
0.0
 11
14710.64189787814
 21
-3530.200151243723
 31
0.0
 12
14710.22523121148
 22
-3532.700151243723
 32
0.0
 13
14710.22523121148
 23
-3532.700151243723
 33
0.0
  0
MTEXT
  5
BD
330
B7
100
AcDbEntity
  8
0
 62
     3
100
AcDbMText
 10
14706.27508121148
 20
-3493.219449684232
 30
0.0
 40
3.0
 41
0.0
 71
     5
 72
     1
  1
\A1;\A1;{\f??|b0|i0|c0|p49;%%c}83{\f??|b0|i0|c0|p49;\H0.7x;\S+0^ -0.035;\H1.429x;(h7)}
 11
0.0000000000000001
 21
1.0
 31
0.0
1001
ACAD
1000
MTEXTBEGIN
1070
    73
1070
     1
1070
    44
1040
1.0
1070
    74
1070
     0
1000
MTEXTEND
  0
POINT
  5
BE
330
B7
100
AcDbEntity
  8
DEFPOINTS
 62
     0
100
AcDbPoint
 10
14738.7169903298
 20
-3449.700151243723
 30
0.0
  0
POINT
  5
BF
330
B7
100
AcDbEntity
  8
DEFPOINTS
 62
     0
100
AcDbPoint
 10
14738.7169903298
 20
-3532.700151243723
 30
0.0
  0
POINT
  5
C0
330
B7
100
AcDbEntity
  8
DEFPOINTS
 62
     0
100
AcDbPoint
 10
14710.22523121148
 20
-3532.700151243723
 30
0.0
  0
ENDBLK
  5
C2
330
B7
100
AcDbEntity
  8
0
100
AcDbBlockEnd
  0
BLOCK
  5
11B
330
111
100
AcDbEntity
  8
0
100
AcDbBlockBegin
  2
*D15
 70
     1
 10
0.0
 20
0.0
 30
0.0
  3
*D15
  1

  0
LINE
  5
112
330
111
100
AcDbEntity
  8
0
 62
   123
100
AcDbLine
 10
14740.71699032981
 20
-3537.200151243723
 30
0.0
 11
14740.71699032981
 21
-3559.438951204219
 31
0.0
  0
LINE
  5
113
330
111
100
AcDbEntity
  8
0
 62
   123
100
AcDbLine
 10
14845.7169903298
 20
-3534.200151243723
 30
0.0
 11
14845.7169903298
 21
-3559.438951204219
 31
0.0
  0
LINE
  5
114
330
111
100
AcDbEntity
  8
0
 62
   123
100
AcDbLine
 10
14743.21699032981
 20
-3558.83895120422
 30
0.0
 11
14843.21699032981
 21
-3558.83895120422
 31
0.0
  0
SOLID
  5
115
330
111
100
AcDbEntity
  8
0
 62
   123
100
AcDbTrace
 10
14743.21699032981
 20
-3558.422284537552
 30
0.0
 11
14743.21699032981
 21
-3559.255617870887
 31
0.0
 12
14740.71699032981
 22
-3558.83895120422
 32
0.0
 13
14740.71699032981
 23
-3558.83895120422
 33
0.0
  0
SOLID
  5
116
330
111
100
AcDbEntity
  8
0
 62
   123
100
AcDbTrace
 10
14843.21699032981
 20
-3558.422284537552
 30
0.0
 11
14843.21699032981
 21
-3559.255617870887
 31
0.0
 12
14845.7169903298
 22
-3558.83895120422
 32
0.0
 13
14845.7169903298
 23
-3558.83895120422
 33
0.0
  0
MTEXT
  5
117
330
111
100
AcDbEntity
  8
0
 62
     3
100
AcDbMText
 10
14793.2169903298
 20
-3556.338951204218
 30
0.0
 40
3.0
 41
0.0
 71
     5
 72
     1
  1
\A1;105
1001
ACAD
1000
MTEXTBEGIN
1070
    73
1070
     1
1070
    44
1040
1.0
1070
    74
1070
     0
1000
MTEXTEND
  0
POINT
  5
118
330
111
100
AcDbEntity
  8
DEFPOINTS
 62
     0
100
AcDbPoint
 10
14740.71699032981
 20
-3536.200151243724
 30
0.0
  0
POINT
  5
119
330
111
100
AcDbEntity
  8
DEFPOINTS
 62
     0
100
AcDbPoint
 10
14845.7169903298
 20
-3533.200151243724
 30
0.0
  0
POINT
  5
11A
330
111
100
AcDbEntity
  8
DEFPOINTS
 62
     0
100
AcDbPoint
 10
14845.7169903298
 20
-3558.83895120422
 30
0.0
  0
ENDBLK
  5
11C
330
111
100
AcDbEntity
  8
0
100
AcDbBlockEnd
  0
BLOCK
  5
1EB
330
1E1
100
AcDbEntity
  8
0
100
AcDbBlockBegin
  2
*D16
 70
     1
 10
0.0
 20
0.0
 30
0.0
  3
*D16
  1

  0
LINE
  5
1E2
330
1E1
100
AcDbEntity
  8
0
 62
   123
100
AcDbLine
 10
14740.71699032981
 20
-3537.200151243723
 30
0.0
 11
14740.71699032981
 21
-3550.07476357776
 31
0.0
  0
LINE
  5
1E3
330
1E1
100
AcDbEntity
  8
0
 62
   123
100
AcDbLine
 10
14748.21699032981
 20
-3535.798888585252
 30
0.0
 11
14748.21699032981
 21
-3550.07476357776
 31
0.0
  0
LINE
  5
1E4
330
1E1
100
AcDbEntity
  8
0
 62
   123
100
AcDbLine
 10
14743.21699032981
 20
-3549.474763577761
 30
0.0
 11
14745.7169903298
 21
-3549.474763577761
 31
0.0
  0
SOLID
  5
1E5
330
1E1
100
AcDbEntity
  8
0
 62
   123
100
AcDbTrace
 10
14743.21699032981
 20
-3549.058096911093
 30
0.0
 11
14743.21699032981
 21
-3549.891430244427
 31
0.0
 12
14740.71699032981
 22
-3549.474763577761
 32
0.0
 13
14740.71699032981
 23
-3549.474763577761
 33
0.0
  0
SOLID
  5
1E6
330
1E1
100
AcDbEntity
  8
0
 62
   123
100
AcDbTrace
 10
14745.7169903298
 20
-3549.058096911093
 30
0.0
 11
14745.7169903298
 21
-3549.891430244427
 31
0.0
 12
14748.21699032981
 22
-3549.474763577761
 32
0.0
 13
14748.21699032981
 23
-3549.474763577761
 33
0.0
  0
MTEXT
  5
1E7
330
1E1
100
AcDbEntity
  8
0
 62
     3
100
AcDbMText
 10
14744.46699032981
 20
-3546.97476357776
 30
0.0
 40
3.0
 41
0.0
 71
     5
 72
     1
  1
\A1;7.5
1001
ACAD
1000
MTEXTBEGIN
1070
    73
1070
     1
1070
    44
1040
1.0
1070
    74
1070
     0
1000
MTEXTEND
  0
POINT
  5
1E8
330
1E1
100
AcDbEntity
  8
DEFPOINTS
 62
     0
100
AcDbPoint
 10
14740.71699032981
 20
-3536.200151243724
 30
0.0
  0
POINT
  5
1E9
330
1E1
100
AcDbEntity
  8
DEFPOINTS
 62
     0
100
AcDbPoint
 10
14748.21699032981
 20
-3534.798888585252
 30
0.0
  0
POINT
  5
1EA
330
1E1
100
AcDbEntity
  8
DEFPOINTS
 62
     0
100
AcDbPoint
 10
14748.21699032981
 20
-3549.474763577761
 30
0.0
  0
ENDBLK
  5
1EC
330
1E1
100
AcDbEntity
  8
0
100
AcDbBlockEnd
  0
BLOCK
  5
304
330
2FA
100
AcDbEntity
  8
0
100
AcDbBlockBegin
  2
*D17
 70
     1
 10
0.0
 20
0.0
 30
0.0
  3
*D17
  1

  0
LINE
  5
2FB
330
2FA
100
AcDbEntity
  8
0
 62
   123
100
AcDbLine
 10
14746.7169903298
 20
-3436.500152243722
 30
0.0
 11
14746.7169903298
 21
-3390.544547739038
 31
0.0
  0
LINE
  5
2FC
330
2FA
100
AcDbEntity
  8
0
 62
   123
100
AcDbLine
 10
14821.71365732981
 20
-3405.200152243721
 30
0.0
 11
14821.71365732981
 21
-3390.544547739038
 31
0.0
  0
LINE
  5
2FD
330
2FA
100
AcDbEntity
  8
0
 62
   123
100
AcDbLine
 10
14749.2169903298
 20
-3391.144547739038
 30
0.0
 11
14819.21365732981
 21
-3391.144547739038
 31
0.0
  0
SOLID
  5
2FE
330
2FA
100
AcDbEntity
  8
0
 62
   123
100
AcDbTrace
 10
14749.2169903298
 20
-3390.727881072371
 30
0.0
 11
14749.2169903298
 21
-3391.561214405705
 31
0.0
 12
14746.7169903298
 22
-3391.144547739038
 32
0.0
 13
14746.7169903298
 23
-3391.144547739038
 33
0.0
  0
SOLID
  5
2FF
330
2FA
100
AcDbEntity
  8
0
 62
   123
100
AcDbTrace
 10
14819.21365732981
 20
-3390.727881072371
 30
0.0
 11
14819.21365732981
 21
-3391.561214405705
 31
0.0
 12
14821.71365732981
 22
-3391.144547739038
 32
0.0
 13
14821.71365732981
 23
-3391.144547739038
 33
0.0
  0
MTEXT
  5
300
330
2FA
100
AcDbEntity
  8
0
 62
     3
100
AcDbMText
 10
14777.61686757256
 20
-3388.644547739039
 30
0.0
 40
3.0
 41
0.0
 71
     5
 72
     1
  1
\A1;75
1001
ACAD
1000
MTEXTBEGIN
1070
    73
1070
     1
1070
    44
1040
1.0
1070
    74
1070
     0
1000
MTEXTEND
  0
POINT
  5
301
330
2FA
100
AcDbEntity
  8
DEFPOINTS
 62
     0
100
AcDbPoint
 10
14746.7169903298
 20
-3437.500152243721
 30
0.0
  0
POINT
  5
302
330
2FA
100
AcDbEntity
  8
DEFPOINTS
 62
     0
100
AcDbPoint
 10
14821.71365732981
 20
-3406.200152243722
 30
0.0
  0
POINT
  5
303
330
2FA
100
AcDbEntity
  8
DEFPOINTS
 62
     0
100
AcDbPoint
 10
14821.71365732981
 20
-3391.144547739038
 30
0.0
  0
ENDBLK
  5
305
330
2FA
100
AcDbEntity
  8
0
100
AcDbBlockEnd
  0
BLOCK
  5
2F5
330
2E9
100
AcDbEntity
  8
0
100
AcDbBlockBegin
  2
*D18
 70
     1
 10
0.0
 20
0.0
 30
0.0
  3
*D18
  1

  0
LINE
  5
2EA
330
2E9
100
AcDbEntity
  8
0
 62
   123
100
AcDbLine
 10
14740.71699032981
 20
-3445.200151243723
 30
0.0
 11
14740.71699032981
 21
-3390.544547739038
 31
0.0
  0
LINE
  5
2EB
330
2E9
100
AcDbEntity
  8
0
 62
   123
100
AcDbLine
 10
14746.7169903298
 20
-3436.500152243722
 30
0.0
 11
14746.7169903298
 21
-3390.544547739038
 31
0.0
  0
LINE
  5
2EC
330
2E9
100
AcDbEntity
  8
0
 62
   123
100
AcDbLine
 10
14738.2169903298
 20
-3391.144547739038
 30
0.0
 11
14735.71699032981
 21
-3391.144547739038
 31
0.0
  0
LINE
  5
2ED
330
2E9
100
AcDbEntity
  8
0
 62
   123
100
AcDbLine
 10
14749.2169903298
 20
-3391.144547739038
 30
0.0
 11
14751.71699032981
 21
-3391.144547739038
 31
0.0
  0
LINE
  5
2EE
330
2E9
100
AcDbEntity
  8
0
 62
   123
100
AcDbLine
 10
14740.71699032981
 20
-3391.144547739038
 30
0.0
 11
14746.7169903298
 21
-3391.144547739038
 31
0.0
  0
SOLID
  5
2EF
330
2E9
100
AcDbEntity
  8
0
 62
   123
100
AcDbTrace
 10
14738.2169903298
 20
-3390.727881072371
 30
0.0
 11
14738.2169903298
 21
-3391.561214405705
 31
0.0
 12
14740.71699032981
 22
-3391.144547739038
 32
0.0
 13
14740.71699032981
 23
-3391.144547739038
 33
0.0
  0
SOLID
  5
2F0
330
2E9
100
AcDbEntity
  8
0
 62
   123
100
AcDbTrace
 10
14749.2169903298
 20
-3390.727881072371
 30
0.0
 11
14749.2169903298
 21
-3391.561214405705
 31
0.0
 12
14746.7169903298
 22
-3391.144547739038
 32
0.0
 13
14746.7169903298
 23
-3391.144547739038
 33
0.0
  0
MTEXT
  5
2F1
330
2E9
100
AcDbEntity
  8
0
 62
     3
100
AcDbMText
 10
14743.7169903298
 20
-3388.644547739039
 30
0.0
 40
3.0
 41
0.0
 71
     5
 72
     1
  1
\A1;6
1001
ACAD
1000
MTEXTBEGIN
1070
    73
1070
     1
1070
    44
1040
1.0
1070
    74
1070
     0
1000
MTEXTEND
  0
POINT
  5
2F2
330
2E9
100
AcDbEntity
  8
DEFPOINTS
 62
     0
100
AcDbPoint
 10
14740.71699032981
 20
-3446.200151243724
 30
0.0
  0
POINT
  5
2F3
330
2E9
100
AcDbEntity
  8
DEFPOINTS
 62
     0
100
AcDbPoint
 10
14746.7169903298
 20
-3437.500152243721
 30
0.0
  0
POINT
  5
2F4
330
2E9
100
AcDbEntity
  8
DEFPOINTS
 62
     0
100
AcDbPoint
 10
14746.7169903298
 20
-3391.144547739038
 30
0.0
  0
ENDBLK
  5
2F6
330
2E9
100
AcDbEntity
  8
0
100
AcDbBlockEnd
  0
BLOCK
  5
27B
330
271
100
AcDbEntity
  8
0
100
AcDbBlockBegin
  2
*D19
 70
     1
 10
0.0
 20
0.0
 30
0.0
  3
*D19
  1

  0
LINE
  5
272
330
271
100
AcDbEntity
  8
0
 62
   123
100
AcDbLine
 10
14853.1514387868
 20
-3652.644919646991
 30
0.0
 11
14879.6550623261
 21
-3652.644919646991
 31
0.0
  0
LINE
  5
273
330
271
100
AcDbEntity
  8
0
 62
   123
100
AcDbLine
 10
14853.1514387868
 20
-3741.644919646991
 30
0.0
 11
14879.6550623261
 21
-3741.644919646991
 31
0.0
  0
LINE
  5
274
330
271
100
AcDbEntity
  8
0
 62
   123
100
AcDbLine
 10
14879.0550623261
 20
-3655.144919646991
 30
0.0
 11
14879.0550623261
 21
-3739.144919646991
 31
0.0
  0
SOLID
  5
275
330
271
100
AcDbEntity
  8
0
 62
   123
100
AcDbTrace
 10
14878.63839565944
 20
-3655.144919646991
 30
0.0
 11
14879.47172899278
 21
-3655.144919646991
 31
0.0
 12
14879.0550623261
 22
-3652.644919646991
 32
0.0
 13
14879.0550623261
 23
-3652.644919646991
 33
0.0
  0
SOLID
  5
276
330
271
100
AcDbEntity
  8
0
 62
   123
100
AcDbTrace
 10
14878.63839565944
 20
-3739.144919646991
 30
0.0
 11
14879.47172899278
 21
-3739.144919646991
 31
0.0
 12
14879.0550623261
 22
-3741.644919646991
 32
0.0
 13
14879.0550623261
 23
-3741.644919646991
 33
0.0
  0
MTEXT
  5
277
330
271
100
AcDbEntity
  8
0
 62
     3
100
AcDbMText
 10
14876.5550623261
 20
-3697.144919646991
 30
0.0
 40
3.0
 41
0.0
 71
     5
 72
     1
  1
\A1;%%C89
 11
0.0000000000000001
 21
1.0
 31
0.0
1001
ACAD
1000
MTEXTBEGIN
1070
    73
1070
     1
1070
    44
1040
1.0
1070
    74
1070
     0
1000
MTEXTEND
  0
POINT
  5
278
330
271
100
AcDbEntity
  8
DEFPOINTS
 62
     0
100
AcDbPoint
 10
14852.15143878679
 20
-3652.644919646991
 30
0.0
  0
POINT
  5
279
330
271
100
AcDbEntity
  8
DEFPOINTS
 62
     0
100
AcDbPoint
 10
14852.15143878679
 20
-3741.644919646991
 30
0.0
  0
POINT
  5
27A
330
271
100
AcDbEntity
  8
DEFPOINTS
 62
     0
100
AcDbPoint
 10
14879.0550623261
 20
-3741.644919646991
 30
0.0
  0
ENDBLK
  5
27C
330
271
100
AcDbEntity
  8
0
100
AcDbBlockEnd
  0
BLOCK
  5
293
330
289
100
AcDbEntity
  8
0
100
AcDbBlockBegin
  2
*D20
 70
     1
 10
0.0
 20
0.0
 30
0.0
  3
*D20
  1

  0
LINE
  5
28A
330
289
100
AcDbEntity
  8
0
 62
   123
100
AcDbLine
 10
14835.14810578679
 20
-3611.14492064699
 30
0.0
 11
14835.14810578679
 21
-3596.505887162816
 31
0.0
  0
LINE
  5
28B
330
289
100
AcDbEntity
  8
0
 62
   123
100
AcDbLine
 10
14863.14810578679
 20
-3619.14492064699
 30
0.0
 11
14863.14810578679
 21
-3596.505887162816
 31
0.0
  0
LINE
  5
28C
330
289
100
AcDbEntity
  8
0
 62
   123
100
AcDbLine
 10
14837.6481057868
 20
-3597.105887162817
 30
0.0
 11
14860.6481057868
 21
-3597.105887162817
 31
0.0
  0
SOLID
  5
28D
330
289
100
AcDbEntity
  8
0
 62
   123
100
AcDbTrace
 10
14837.6481057868
 20
-3596.689220496151
 30
0.0
 11
14837.6481057868
 21
-3597.522553829484
 31
0.0
 12
14835.14810578679
 22
-3597.105887162817
 32
0.0
 13
14835.14810578679
 23
-3597.105887162817
 33
0.0
  0
SOLID
  5
28E
330
289
100
AcDbEntity
  8
0
 62
   123
100
AcDbTrace
 10
14860.6481057868
 20
-3596.689220496151
 30
0.0
 11
14860.6481057868
 21
-3597.522553829484
 31
0.0
 12
14863.14810578679
 22
-3597.105887162817
 32
0.0
 13
14863.14810578679
 23
-3597.105887162817
 33
0.0
  0
MTEXT
  5
28F
330
289
100
AcDbEntity
  8
0
 62
     3
100
AcDbMText
 10
14849.1481057868
 20
-3594.605887162817
 30
0.0
 40
3.0
 41
0.0
 71
     5
 72
     1
  1
\A1;MAX. 28
1001
ACAD
1000
MTEXTBEGIN
1070
    73
1070
     1
1070
    44
1040
1.0
1070
    74
1070
     0
1000
MTEXTEND
  0
POINT
  5
290
330
289
100
AcDbEntity
  8
DEFPOINTS
 62
     0
100
AcDbPoint
 10
14835.14810578679
 20
-3612.144920646989
 30
0.0
  0
POINT
  5
291
330
289
100
AcDbEntity
  8
DEFPOINTS
 62
     0
100
AcDbPoint
 10
14863.14810578679
 20
-3620.144920646989
 30
0.0
  0
POINT
  5
292
330
289
100
AcDbEntity
  8
DEFPOINTS
 62
     0
100
AcDbPoint
 10
14863.14810578679
 20
-3597.105887162817
 30
0.0
  0
ENDBLK
  5
294
330
289
100
AcDbEntity
  8
0
100
AcDbBlockEnd
  0
BLOCK
  5
14F
330
145
100
AcDbEntity
  8
0
100
AcDbBlockBegin
  2
*D21
 70
     1
 10
0.0
 20
0.0
 30
0.0
  3
*D21
  1

  0
LINE
  5
146
330
145
100
AcDbEntity
  8
0
 62
   123
100
AcDbLine
 10
14717.1514387868
 20
-3692.144919646991
 30
0.0
 11
14717.1514387868
 21
-3670.083145142916
 31
0.0
  0
LINE
  5
147
330
145
100
AcDbEntity
  8
0
 62
   123
100
AcDbLine
 10
14747.1514387868
 20
-3691.144919646989
 30
0.0
 11
14747.1514387868
 21
-3670.083145142916
 31
0.0
  0
LINE
  5
148
330
145
100
AcDbEntity
  8
0
 62
   123
100
AcDbLine
 10
14719.6514387868
 20
-3670.683145142917
 30
0.0
 11
14744.65143878679
 21
-3670.683145142917
 31
0.0
  0
SOLID
  5
149
330
145
100
AcDbEntity
  8
0
 62
   123
100
AcDbTrace
 10
14719.6514387868
 20
-3670.26647847625
 30
0.0
 11
14719.6514387868
 21
-3671.099811809583
 31
0.0
 12
14717.1514387868
 22
-3670.683145142917
 32
0.0
 13
14717.1514387868
 23
-3670.683145142917
 33
0.0
  0
SOLID
  5
14A
330
145
100
AcDbEntity
  8
0
 62
   123
100
AcDbTrace
 10
14744.65143878679
 20
-3670.26647847625
 30
0.0
 11
14744.65143878679
 21
-3671.099811809583
 31
0.0
 12
14747.1514387868
 22
-3670.683145142917
 32
0.0
 13
14747.1514387868
 23
-3670.683145142917
 33
0.0
  0
MTEXT
  5
14B
330
145
100
AcDbEntity
  8
0
 62
     3
100
AcDbMText
 10
14731.60663282846
 20
-3668.183145142917
 30
0.0
 40
3.0
 41
0.0
 71
     5
 72
     1
  1
\A1;30
1001
ACAD
1000
MTEXTBEGIN
1070
    73
1070
     1
1070
    44
1040
1.0
1070
    74
1070
     0
1000
MTEXTEND
  0
POINT
  5
14C
330
145
100
AcDbEntity
  8
DEFPOINTS
 62
     0
100
AcDbPoint
 10
14717.1514387868
 20
-3693.144919646991
 30
0.0
  0
POINT
  5
14D
330
145
100
AcDbEntity
  8
DEFPOINTS
 62
     0
100
AcDbPoint
 10
14747.1514387868
 20
-3692.144919646991
 30
0.0
  0
POINT
  5
14E
330
145
100
AcDbEntity
  8
DEFPOINTS
 62
     0
100
AcDbPoint
 10
14747.1514387868
 20
-3670.683145142917
 30
0.0
  0
ENDBLK
  5
150
330
145
100
AcDbEntity
  8
0
100
AcDbBlockEnd
  0
BLOCK
  5
175
330
16B
100
AcDbEntity
  8
0
100
AcDbBlockBegin
  2
*D22
 70
     1
 10
0.0
 20
0.0
 30
0.0
  3
*D22
  1

  0
LINE
  5
16C
330
16B
100
AcDbEntity
  8
0
 62
   123
100
AcDbLine
 10
14716.15143878679
 20
-3702.144919646991
 30
0.0
 11
14702.28717540285
 21
-3702.144919646991
 31
0.0
  0
LINE
  5
16D
330
16B
100
AcDbEntity
  8
0
 62
   123
100
AcDbLine
 10
14716.15143878679
 20
-3693.144919646991
 30
0.0
 11
14702.28717540285
 21
-3693.144919646991
 31
0.0
  0
LINE
  5
16E
330
16B
100
AcDbEntity
  8
0
 62
   123
100
AcDbLine
 10
14702.88717540285
 20
-3699.644919646991
 30
0.0
 11
14702.88717540285
 21
-3695.644919646991
 31
0.0
  0
SOLID
  5
16F
330
16B
100
AcDbEntity
  8
0
 62
   123
100
AcDbTrace
 10
14702.47050873618
 20
-3699.644919646991
 30
0.0
 11
14703.30384206951
 21
-3699.644919646991
 31
0.0
 12
14702.88717540285
 22
-3702.144919646991
 32
0.0
 13
14702.88717540285
 23
-3702.144919646991
 33
0.0
  0
SOLID
  5
170
330
16B
100
AcDbEntity
  8
0
 62
   123
100
AcDbTrace
 10
14702.47050873618
 20
-3695.644919646991
 30
0.0
 11
14703.30384206951
 21
-3695.644919646991
 31
0.0
 12
14702.88717540285
 22
-3693.144919646991
 32
0.0
 13
14702.88717540285
 23
-3693.144919646991
 33
0.0
  0
MTEXT
  5
171
330
16B
100
AcDbEntity
  8
0
 62
     3
100
AcDbMText
 10
14700.38717540284
 20
-3697.644919646991
 30
0.0
 40
3.0
 41
0.0
 71
     5
 72
     1
  1
\A1;9
 11
0.0000000000000001
 21
1.0
 31
0.0
1001
ACAD
1000
MTEXTBEGIN
1070
    73
1070
     1
1070
    44
1040
1.0
1070
    74
1070
     0
1000
MTEXTEND
  0
POINT
  5
172
330
16B
100
AcDbEntity
  8
DEFPOINTS
 62
     0
100
AcDbPoint
 10
14717.1514387868
 20
-3702.144919646991
 30
0.0
  0
POINT
  5
173
330
16B
100
AcDbEntity
  8
DEFPOINTS
 62
     0
100
AcDbPoint
 10
14717.1514387868
 20
-3693.144919646991
 30
0.0
  0
POINT
  5
174
330
16B
100
AcDbEntity
  8
DEFPOINTS
 62
     0
100
AcDbPoint
 10
14702.88717540285
 20
-3693.144919646991
 30
0.0
  0
ENDBLK
  5
176
330
16B
100
AcDbEntity
  8
0
100
AcDbBlockEnd
  0
BLOCK
  5
166
330
15C
100
AcDbEntity
  8
0
100
AcDbBlockBegin
  2
*D23
 70
     1
 10
0.0
 20
0.0
 30
0.0
  3
*D23
  1

  0
LINE
  5
15D
330
15C
100
AcDbEntity
  8
0
 62
   123
100
AcDbLine
 10
14716.15143878679
 20
-3702.144919646991
 30
0.0
 11
14693.26413365478
 21
-3702.144919646991
 31
0.0
  0
LINE
  5
15E
330
15C
100
AcDbEntity
  8
0
 62
   123
100
AcDbLine
 10
14746.1514387868
 20
-3692.144919646991
 30
0.0
 11
14693.26413365478
 21
-3692.144919646991
 31
0.0
  0
LINE
  5
15F
330
15C
100
AcDbEntity
  8
0
 62
   123
100
AcDbLine
 10
14693.86413365478
 20
-3699.644919646991
 30
0.0
 11
14693.86413365478
 21
-3694.644919646991
 31
0.0
  0
SOLID
  5
160
330
15C
100
AcDbEntity
  8
0
 62
   123
100
AcDbTrace
 10
14693.44746698811
 20
-3699.644919646991
 30
0.0
 11
14694.28080032145
 21
-3699.644919646991
 31
0.0
 12
14693.86413365478
 22
-3702.144919646991
 32
0.0
 13
14693.86413365478
 23
-3702.144919646991
 33
0.0
  0
SOLID
  5
161
330
15C
100
AcDbEntity
  8
0
 62
   123
100
AcDbTrace
 10
14693.44746698811
 20
-3694.644919646991
 30
0.0
 11
14694.28080032145
 21
-3694.644919646991
 31
0.0
 12
14693.86413365478
 22
-3692.144919646991
 32
0.0
 13
14693.86413365478
 23
-3692.144919646991
 33
0.0
  0
MTEXT
  5
162
330
15C
100
AcDbEntity
  8
0
 62
     3
100
AcDbMText
 10
14689.91398365478
 20
-3697.144919646989
 30
0.0
 40
3.0
 41
0.0
 71
     5
 72
     1
  1
\A1;\A1;{\f??|b0|i0|c0|p49;%%c}10{\f??|b0|i0|c0|p49;\H0.7x;\S+0^ -0.015;\H1.429x;(h7)}
 11
0.0000000000000001
 21
1.0
 31
0.0
1001
ACAD
1000
MTEXTBEGIN
1070
    73
1070
     1
1070
    44
1040
1.0
1070
    74
1070
     0
1000
MTEXTEND
  0
POINT
  5
163
330
15C
100
AcDbEntity
  8
DEFPOINTS
 62
     0
100
AcDbPoint
 10
14717.1514387868
 20
-3702.144919646991
 30
0.0
  0
POINT
  5
164
330
15C
100
AcDbEntity
  8
DEFPOINTS
 62
     0
100
AcDbPoint
 10
14747.1514387868
 20
-3692.144919646991
 30
0.0
  0
POINT
  5
165
330
15C
100
AcDbEntity
  8
DEFPOINTS
 62
     0
100
AcDbPoint
 10
14693.86413365478
 20
-3692.144919646991
 30
0.0
  0
ENDBLK
  5
167
330
15C
100
AcDbEntity
  8
0
100
AcDbBlockEnd
  0
BLOCK
  5
212
330
206
100
AcDbEntity
  8
0
100
AcDbBlockBegin
  2
*D24
 70
     1
 10
0.0
 20
0.0
 30
0.0
  3
*D24
  1

  0
LINE
  5
207
330
206
100
AcDbEntity
  8
0
 62
   123
100
AcDbLine
 10
14754.1514387868
 20
-3651.144919646991
 30
0.0
 11
14754.1514387868
 21
-3596.489316142306
 31
0.0
  0
LINE
  5
208
330
206
100
AcDbEntity
  8
0
 62
   123
100
AcDbLine
 10
14760.15143878679
 20
-3642.444920646989
 30
0.0
 11
14760.15143878679
 21
-3596.489316142306
 31
0.0
  0
LINE
  5
209
330
206
100
AcDbEntity
  8
0
 62
   123
100
AcDbLine
 10
14751.65143878679
 20
-3597.089316142306
 30
0.0
 11
14749.1514387868
 21
-3597.089316142306
 31
0.0
  0
LINE
  5
20A
330
206
100
AcDbEntity
  8
0
 62
   123
100
AcDbLine
 10
14762.6514387868
 20
-3597.089316142306
 30
0.0
 11
14765.15143878679
 21
-3597.089316142306
 31
0.0
  0
LINE
  5
20B
330
206
100
AcDbEntity
  8
0
 62
   123
100
AcDbLine
 10
14754.1514387868
 20
-3597.089316142306
 30
0.0
 11
14760.15143878679
 21
-3597.089316142306
 31
0.0
  0
SOLID
  5
20C
330
206
100
AcDbEntity
  8
0
 62
   123
100
AcDbTrace
 10
14751.65143878679
 20
-3596.672649475639
 30
0.0
 11
14751.65143878679
 21
-3597.505982808973
 31
0.0
 12
14754.1514387868
 22
-3597.089316142306
 32
0.0
 13
14754.1514387868
 23
-3597.089316142306
 33
0.0
  0
SOLID
  5
20D
330
206
100
AcDbEntity
  8
0
 62
   123
100
AcDbTrace
 10
14762.6514387868
 20
-3596.672649475639
 30
0.0
 11
14762.6514387868
 21
-3597.505982808973
 31
0.0
 12
14760.15143878679
 22
-3597.089316142306
 32
0.0
 13
14760.15143878679
 23
-3597.089316142306
 33
0.0
  0
MTEXT
  5
20E
330
206
100
AcDbEntity
  8
0
 62
     3
100
AcDbMText
 10
14757.15143878679
 20
-3594.589316142306
 30
0.0
 40
3.0
 41
0.0
 71
     5
 72
     1
  1
\A1;6
1001
ACAD
1000
MTEXTBEGIN
1070
    73
1070
     1
1070
    44
1040
1.0
1070
    74
1070
     0
1000
MTEXTEND
  0
POINT
  5
20F
330
206
100
AcDbEntity
  8
DEFPOINTS
 62
     0
100
AcDbPoint
 10
14754.1514387868
 20
-3652.144919646991
 30
0.0
  0
POINT
  5
210
330
206
100
AcDbEntity
  8
DEFPOINTS
 62
     0
100
AcDbPoint
 10
14760.15143878679
 20
-3643.444920646989
 30
0.0
  0
POINT
  5
211
330
206
100
AcDbEntity
  8
DEFPOINTS
 62
     0
100
AcDbPoint
 10
14760.15143878679
 20
-3597.089316142306
 30
0.0
  0
ENDBLK
  5
213
330
206
100
AcDbEntity
  8
0
100
AcDbBlockEnd
  0
BLOCK
  5
12C
330
122
100
AcDbEntity
  8
0
100
AcDbBlockBegin
  2
*D25
 70
     1
 10
0.0
 20
0.0
 30
0.0
  3
*D25
  1

  0
LINE
  5
123
330
122
100
AcDbEntity
  8
0
 62
   123
100
AcDbLine
 10
14760.15143878679
 20
-3642.444920646989
 30
0.0
 11
14760.15143878679
 21
-3596.489316142306
 31
0.0
  0
LINE
  5
124
330
122
100
AcDbEntity
  8
0
 62
   123
100
AcDbLine
 10
14835.14810578679
 20
-3611.14492064699
 30
0.0
 11
14835.14810578679
 21
-3596.489316142306
 31
0.0
  0
LINE
  5
125
330
122
100
AcDbEntity
  8
0
 62
   123
100
AcDbLine
 10
14762.6514387868
 20
-3597.089316142306
 30
0.0
 11
14832.64810578679
 21
-3597.089316142306
 31
0.0
  0
SOLID
  5
126
330
122
100
AcDbEntity
  8
0
 62
   123
100
AcDbTrace
 10
14762.6514387868
 20
-3596.672649475639
 30
0.0
 11
14762.6514387868
 21
-3597.505982808973
 31
0.0
 12
14760.15143878679
 22
-3597.089316142306
 32
0.0
 13
14760.15143878679
 23
-3597.089316142306
 33
0.0
  0
SOLID
  5
127
330
122
100
AcDbEntity
  8
0
 62
   123
100
AcDbTrace
 10
14832.64810578679
 20
-3596.672649475639
 30
0.0
 11
14832.64810578679
 21
-3597.505982808973
 31
0.0
 12
14835.14810578679
 22
-3597.089316142306
 32
0.0
 13
14835.14810578679
 23
-3597.089316142306
 33
0.0
  0
MTEXT
  5
128
330
122
100
AcDbEntity
  8
0
 62
     3
100
AcDbMText
 10
14791.05131602956
 20
-3594.589316142306
 30
0.0
 40
3.0
 41
0.0
 71
     5
 72
     1
  1
\A1;75
1001
ACAD
1000
MTEXTBEGIN
1070
    73
1070
     1
1070
    44
1040
1.0
1070
    74
1070
     0
1000
MTEXTEND
  0
POINT
  5
129
330
122
100
AcDbEntity
  8
DEFPOINTS
 62
     0
100
AcDbPoint
 10
14760.15143878679
 20
-3643.444920646989
 30
0.0
  0
POINT
  5
12A
330
122
100
AcDbEntity
  8
DEFPOINTS
 62
     0
100
AcDbPoint
 10
14835.14810578679
 20
-3612.144920646989
 30
0.0
  0
POINT
  5
12B
330
122
100
AcDbEntity
  8
DEFPOINTS
 62
     0
100
AcDbPoint
 10
14835.14810578679
 20
-3597.089316142306
 30
0.0
  0
ENDBLK
  5
12D
330
122
100
AcDbEntity
  8
0
100
AcDbBlockEnd
  0
BLOCK
  5
1A8
330
19C
100
AcDbEntity
  8
0
100
AcDbBlockBegin
  2
*D26
 70
     1
 10
0.0
 20
0.0
 30
0.0
  3
*D26
  1

  0
LINE
  5
19D
330
19C
100
AcDbEntity
  8
0
 62
   123
100
AcDbLine
 10
14752.1514387868
 20
-3739.644919646991
 30
0.0
 11
14752.1514387868
 21
-3756.019531981027
 31
0.0
  0
LINE
  5
19E
330
19C
100
AcDbEntity
  8
0
 62
   123
100
AcDbLine
 10
14754.1514387868
 20
-3743.144919646991
 30
0.0
 11
14754.1514387868
 21
-3756.019531981027
 31
0.0
  0
LINE
  5
19F
330
19C
100
AcDbEntity
  8
0
 62
   123
100
AcDbLine
 10
14756.6514387868
 20
-3755.419531981027
 30
0.0
 11
14759.15143878679
 21
-3755.419531981027
 31
0.0
  0
LINE
  5
1A0
330
19C
100
AcDbEntity
  8
0
 62
   123
100
AcDbLine
 10
14749.65143878679
 20
-3755.419531981027
 30
0.0
 11
14741.15143878679
 21
-3755.419531981027
 31
0.0
  0
LINE
  5
1A1
330
19C
100
AcDbEntity
  8
0
 62
   123
100
AcDbLine
 10
14754.1514387868
 20
-3755.419531981027
 30
0.0
 11
14752.1514387868
 21
-3755.419531981027
 31
0.0
  0
SOLID
  5
1A2
330
19C
100
AcDbEntity
  8
0
 62
   123
100
AcDbTrace
 10
14756.6514387868
 20
-3755.00286531436
 30
0.0
 11
14756.6514387868
 21
-3755.836198647694
 31
0.0
 12
14754.1514387868
 22
-3755.419531981027
 32
0.0
 13
14754.1514387868
 23
-3755.419531981027
 33
0.0
  0
SOLID
  5
1A3
330
19C
100
AcDbEntity
  8
0
 62
   123
100
AcDbTrace
 10
14749.65143878679
 20
-3755.00286531436
 30
0.0
 11
14749.65143878679
 21
-3755.836198647694
 31
0.0
 12
14752.1514387868
 22
-3755.419531981027
 32
0.0
 13
14752.1514387868
 23
-3755.419531981027
 33
0.0
  0
MTEXT
  5
1A4
330
19C
100
AcDbEntity
  8
0
 62
     3
100
AcDbMText
 10
14743.15143878679
 20
-3752.919531981028
 30
0.0
 40
3.0
 41
0.0
 71
     5
 72
     1
  1
\A1;2
1001
ACAD
1000
MTEXTBEGIN
1070
    73
1070
     1
1070
    44
1040
1.0
1070
    74
1070
     0
1000
MTEXTEND
  0
POINT
  5
1A5
330
19C
100
AcDbEntity
  8
DEFPOINTS
 62
     0
100
AcDbPoint
 10
14752.1514387868
 20
-3738.644919646991
 30
0.0
  0
POINT
  5
1A6
330
19C
100
AcDbEntity
  8
DEFPOINTS
 62
     0
100
AcDbPoint
 10
14754.1514387868
 20
-3742.144919646991
 30
0.0
  0
POINT
  5
1A7
330
19C
100
AcDbEntity
  8
DEFPOINTS
 62
     0
100
AcDbPoint
 10
14754.1514387868
 20
-3755.419531981027
 30
0.0
  0
ENDBLK
  5
1A9
330
19C
100
AcDbEntity
  8
0
100
AcDbBlockEnd
  0
BLOCK
  5
197
330
18D
100
AcDbEntity
  8
0
100
AcDbBlockBegin
  2
*D27
 70
     1
 10
0.0
 20
0.0
 30
0.0
  3
*D27
  1

  0
LINE
  5
18E
330
18D
100
AcDbEntity
  8
0
 62
   123
100
AcDbLine
 10
14754.1514387868
 20
-3743.144919646991
 30
0.0
 11
14754.1514387868
 21
-3756.019531981027
 31
0.0
  0
LINE
  5
18F
330
18D
100
AcDbEntity
  8
0
 62
   123
100
AcDbLine
 10
14761.6514387868
 20
-3741.74365698852
 30
0.0
 11
14761.6514387868
 21
-3756.019531981027
 31
0.0
  0
LINE
  5
190
330
18D
100
AcDbEntity
  8
0
 62
   123
100
AcDbLine
 10
14756.6514387868
 20
-3755.419531981027
 30
0.0
 11
14759.15143878679
 21
-3755.419531981027
 31
0.0
  0
SOLID
  5
191
330
18D
100
AcDbEntity
  8
0
 62
   123
100
AcDbTrace
 10
14756.6514387868
 20
-3755.00286531436
 30
0.0
 11
14756.6514387868
 21
-3755.836198647694
 31
0.0
 12
14754.1514387868
 22
-3755.419531981027
 32
0.0
 13
14754.1514387868
 23
-3755.419531981027
 33
0.0
  0
SOLID
  5
192
330
18D
100
AcDbEntity
  8
0
 62
   123
100
AcDbTrace
 10
14759.15143878679
 20
-3755.00286531436
 30
0.0
 11
14759.15143878679
 21
-3755.836198647694
 31
0.0
 12
14761.6514387868
 22
-3755.419531981027
 32
0.0
 13
14761.6514387868
 23
-3755.419531981027
 33
0.0
  0
MTEXT
  5
193
330
18D
100
AcDbEntity
  8
0
 62
     3
100
AcDbMText
 10
14757.9014387868
 20
-3752.919531981028
 30
0.0
 40
3.0
 41
0.0
 71
     5
 72
     1
  1
\A1;7.5
1001
ACAD
1000
MTEXTBEGIN
1070
    73
1070
     1
1070
    44
1040
1.0
1070
    74
1070
     0
1000
MTEXTEND
  0
POINT
  5
194
330
18D
100
AcDbEntity
  8
DEFPOINTS
 62
     0
100
AcDbPoint
 10
14754.1514387868
 20
-3742.144919646991
 30
0.0
  0
POINT
  5
195
330
18D
100
AcDbEntity
  8
DEFPOINTS
 62
     0
100
AcDbPoint
 10
14761.6514387868
 20
-3740.743656988519
 30
0.0
  0
POINT
  5
196
330
18D
100
AcDbEntity
  8
DEFPOINTS
 62
     0
100
AcDbPoint
 10
14761.6514387868
 20
-3755.419531981027
 30
0.0
  0
ENDBLK
  5
198
330
18D
100
AcDbEntity
  8
0
100
AcDbBlockEnd
  0
BLOCK
  5
109
330
FF
100
AcDbEntity
  8
0
100
AcDbBlockBegin
  2
*D28
 70
     1
 10
0.0
 20
0.0
 30
0.0
  3
*D28
  1

  0
LINE
  5
100
330
FF
100
AcDbEntity
  8
0
 62
   123
100
AcDbLine
 10
14754.1514387868
 20
-3743.144919646991
 30
0.0
 11
14754.1514387868
 21
-3765.383719607486
 31
0.0
  0
LINE
  5
101
330
FF
100
AcDbEntity
  8
0
 62
   123
100
AcDbLine
 10
14859.15143878679
 20
-3740.144919646991
 30
0.0
 11
14859.15143878679
 21
-3765.383719607486
 31
0.0
  0
LINE
  5
102
330
FF
100
AcDbEntity
  8
0
 62
   123
100
AcDbLine
 10
14756.6514387868
 20
-3764.783719607486
 30
0.0
 11
14856.6514387868
 21
-3764.783719607486
 31
0.0
  0
SOLID
  5
103
330
FF
100
AcDbEntity
  8
0
 62
   123
100
AcDbTrace
 10
14756.6514387868
 20
-3764.36705294082
 30
0.0
 11
14756.6514387868
 21
-3765.200386274154
 31
0.0
 12
14754.1514387868
 22
-3764.783719607486
 32
0.0
 13
14754.1514387868
 23
-3764.783719607486
 33
0.0
  0
SOLID
  5
104
330
FF
100
AcDbEntity
  8
0
 62
   123
100
AcDbTrace
 10
14856.6514387868
 20
-3764.36705294082
 30
0.0
 11
14856.6514387868
 21
-3765.200386274154
 31
0.0
 12
14859.15143878679
 22
-3764.783719607486
 32
0.0
 13
14859.15143878679
 23
-3764.783719607486
 33
0.0
  0
MTEXT
  5
105
330
FF
100
AcDbEntity
  8
0
 62
     3
100
AcDbMText
 10
14806.65143878679
 20
-3762.283719607486
 30
0.0
 40
3.0
 41
0.0
 71
     5
 72
     1
  1
\A1;105
1001
ACAD
1000
MTEXTBEGIN
1070
    73
1070
     1
1070
    44
1040
1.0
1070
    74
1070
     0
1000
MTEXTEND
  0
POINT
  5
106
330
FF
100
AcDbEntity
  8
DEFPOINTS
 62
     0
100
AcDbPoint
 10
14754.1514387868
 20
-3742.144919646991
 30
0.0
  0
POINT
  5
107
330
FF
100
AcDbEntity
  8
DEFPOINTS
 62
     0
100
AcDbPoint
 10
14859.15143878679
 20
-3739.144919646991
 30
0.0
  0
POINT
  5
108
330
FF
100
AcDbEntity
  8
DEFPOINTS
 62
     0
100
AcDbPoint
 10
14859.15143878679
 20
-3764.783719607486
 30
0.0
  0
ENDBLK
  5
10A
330
FF
100
AcDbEntity
  8
0
100
AcDbBlockEnd
  0
BLOCK
  5
2E3
330
2D9
100
AcDbEntity
  8
0
100
AcDbBlockBegin
  2
*D29
 70
     1
 10
0.0
 20
0.0
 30
0.0
  3
*D29
  1

  0
LINE
  5
2DA
330
2D9
100
AcDbEntity
  8
0
 62
   123
100
AcDbLine
 10
14595.63641168308
 20
-3437.200151243654
 30
0.0
 11
14595.63641168308
 21
-3388.690421648229
 31
0.0
  0
LINE
  5
2DB
330
2D9
100
AcDbEntity
  8
0
 62
   123
100
AcDbLine
 10
14657.63641168308
 20
-3437.200151243654
 30
0.0
 11
14657.63641168308
 21
-3388.690421648229
 31
0.0
  0
LINE
  5
2DC
330
2D9
100
AcDbEntity
  8
0
 62
   123
100
AcDbLine
 10
14598.13641168308
 20
-3389.290421648228
 30
0.0
 11
14655.13641168308
 21
-3389.290421648228
 31
0.0
  0
SOLID
  5
2DD
330
2D9
100
AcDbEntity
  8
0
 62
   123
100
AcDbTrace
 10
14598.13641168308
 20
-3388.873754981561
 30
0.0
 11
14598.13641168308
 21
-3389.707088314894
 31
0.0
 12
14595.63641168308
 22
-3389.290421648228
 32
0.0
 13
14595.63641168308
 23
-3389.290421648228
 33
0.0
  0
SOLID
  5
2DE
330
2D9
100
AcDbEntity
  8
0
 62
   123
100
AcDbTrace
 10
14655.13641168308
 20
-3388.873754981561
 30
0.0
 11
14655.13641168308
 21
-3389.707088314894
 31
0.0
 12
14657.63641168308
 22
-3389.290421648228
 32
0.0
 13
14657.63641168308
 23
-3389.290421648228
 33
0.0
  0
MTEXT
  5
2DF
330
2D9
100
AcDbEntity
  8
0
 62
     3
100
AcDbMText
 10
14626.63641168308
 20
-3386.790421648228
 30
0.0
 40
3.0
 41
0.0
 71
     5
 72
     1
  1
\A1;62
1001
ACAD
1000
MTEXTBEGIN
1070
    73
1070
     1
1070
    44
1040
1.0
1070
    74
1070
     0
1000
MTEXTEND
  0
POINT
  5
2E0
330
2D9
100
AcDbEntity
  8
DEFPOINTS
 62
     0
100
AcDbPoint
 10
14595.63641168308
 20
-3438.200151243654
 30
0.0
  0
POINT
  5
2E1
330
2D9
100
AcDbEntity
  8
DEFPOINTS
 62
     0
100
AcDbPoint
 10
14657.63641168308
 20
-3438.200151243654
 30
0.0
  0
POINT
  5
2E2
330
2D9
100
AcDbEntity
  8
DEFPOINTS
 62
     0
100
AcDbPoint
 10
14657.63641168308
 20
-3389.290421648228
 30
0.0
  0
ENDBLK
  5
2E4
330
2D9
100
AcDbEntity
  8
0
100
AcDbBlockEnd
  0
BLOCK
  5
39B
330
391
100
AcDbEntity
  8
0
100
AcDbBlockBegin
  2
*D30
 70
     1
 10
0.0
 20
0.0
 30
0.0
  3
*D30
  1

  0
LINE
  5
392
330
391
100
AcDbEntity
  8
0
 62
   123
100
AcDbLine
 10
173.7441834554774
 20
262.3899490892945
 30
0.0
 11
173.7441834554774
 21
198.3861491287979
 31
0.0
  0
LINE
  5
393
330
391
100
AcDbEntity
  8
0
 62
   123
100
AcDbLine
 10
191.7441834554774
 20
220.6249490892946
 30
0.0
 11
191.7441834554774
 21
198.3861491287979
 31
0.0
  0
LINE
  5
394
330
391
100
AcDbEntity
  8
0
 62
   123
100
AcDbLine
 10
176.2441834554774
 20
198.9861491287979
 30
0.0
 11
189.2441834554774
 21
198.9861491287979
 31
0.0
  0
SOLID
  5
395
330
391
100
AcDbEntity
  8
0
 62
   123
100
AcDbTrace
 10
176.2441834554774
 20
199.4028157954645
 30
0.0
 11
176.2441834554774
 21
198.5694824621312
 31
0.0
 12
173.7441834554774
 22
198.9861491287979
 32
0.0
 13
173.7441834554774
 23
198.9861491287979
 33
0.0
  0
SOLID
  5
396
330
391
100
AcDbEntity
  8
0
 62
   123
100
AcDbTrace
 10
189.2441834554774
 20
199.4028157954645
 30
0.0
 11
189.2441834554774
 21
198.5694824621312
 31
0.0
 12
191.7441834554774
 22
198.9861491287979
 32
0.0
 13
191.7441834554774
 23
198.9861491287979
 33
0.0
  0
MTEXT
  5
397
330
391
100
AcDbEntity
  8
0
 62
     3
100
AcDbMText
 10
182.7441834554774
 20
201.4861491287979
 30
0.0
 40
3.0
 41
0.0
 71
     5
 72
     1
  1
\A1;18
1001
ACAD
1000
MTEXTBEGIN
1070
    73
1070
     1
1070
    44
1040
1.0
1070
    74
1070
     0
1000
MTEXTEND
  0
POINT
  5
398
330
391
100
AcDbEntity
  8
DEFPOINTS
 62
     0
100
AcDbPoint
 10
173.7441834554774
 20
263.3899490892945
 30
0.0
  0
POINT
  5
399
330
391
100
AcDbEntity
  8
DEFPOINTS
 62
     0
100
AcDbPoint
 10
191.7441834554774
 20
221.6249490892946
 30
0.0
  0
POINT
  5
39A
330
391
100
AcDbEntity
  8
DEFPOINTS
 62
     0
100
AcDbPoint
 10
191.7441834554774
 20
198.9861491287979
 30
0.0
  0
ENDBLK
  5
39C
330
391
100
AcDbEntity
  8
0
100
AcDbBlockEnd
  0
BLOCK
  5
3A7
330
39D
100
AcDbEntity
  8
0
100
AcDbBlockBegin
  2
*D31
 70
     1
 10
0.0
 20
0.0
 30
0.0
  3
*D31
  1

  0
LINE
  5
39E
330
39D
100
AcDbEntity
  8
0
 62
   123
100
AcDbLine
 10
188.7441834554774
 20
308.1249490892951
 30
0.0
 11
160.6524243371499
 21
308.1249490892951
 31
0.0
  0
LINE
  5
39F
330
39D
100
AcDbEntity
  8
0
 62
   123
100
AcDbLine
 10
188.7441834554774
 20
225.1249490892951
 30
0.0
 11
160.6524243371499
 21
225.1249490892951
 31
0.0
  0
LINE
  5
3A0
330
39D
100
AcDbEntity
  8
0
 62
   123
100
AcDbLine
 10
161.2524243371499
 20
305.6249490892951
 30
0.0
 11
161.2524243371499
 21
227.6249490892951
 31
0.0
  0
SOLID
  5
3A1
330
39D
100
AcDbEntity
  8
0
 62
   123
100
AcDbTrace
 10
160.8357576704833
 20
305.6249490892951
 30
0.0
 11
161.6690910038166
 21
305.6249490892951
 31
0.0
 12
161.2524243371499
 22
308.1249490892951
 32
0.0
 13
161.2524243371499
 23
308.1249490892951
 33
0.0
  0
SOLID
  5
3A2
330
39D
100
AcDbEntity
  8
0
 62
   123
100
AcDbTrace
 10
160.8357576704833
 20
227.6249490892951
 30
0.0
 11
161.6690910038166
 21
227.6249490892951
 31
0.0
 12
161.2524243371499
 22
225.1249490892951
 32
0.0
 13
161.2524243371499
 23
225.1249490892951
 33
0.0
  0
MTEXT
  5
3A3
330
39D
100
AcDbEntity
  8
0
 62
     3
100
AcDbMText
 10
157.3022743371499
 20
264.6056506487862
 30
0.0
 40
3.0
 41
0.0
 71
     5
 72
     1
  1
\A1;\A1;{\f??|b0|i0|c0|p49;%%c}83{\f??|b0|i0|c0|p49;\H0.7x;\S+0^ -0.035;\H1.429x;(h7)}
 11
0.0000000000000001
 21
1.0
 31
0.0
1001
ACAD
1000
MTEXTBEGIN
1070
    73
1070
     1
1070
    44
1040
1.0
1070
    74
1070
     0
1000
MTEXTEND
  0
POINT
  5
3A4
330
39D
100
AcDbEntity
  8
DEFPOINTS
 62
     0
100
AcDbPoint
 10
189.7441834554774
 20
308.1249490892951
 30
0.0
  0
POINT
  5
3A5
330
39D
100
AcDbEntity
  8
DEFPOINTS
 62
     0
100
AcDbPoint
 10
189.7441834554774
 20
225.1249490892951
 30
0.0
  0
POINT
  5
3A6
330
39D
100
AcDbEntity
  8
DEFPOINTS
 62
     0
100
AcDbPoint
 10
161.2524243371499
 20
225.1249490892951
 30
0.0
  0
ENDBLK
  5
3A8
330
39D
100
AcDbEntity
  8
0
100
AcDbBlockEnd
  0
BLOCK
  5
3B3
330
3A9
100
AcDbEntity
  8
0
100
AcDbBlockBegin
  2
*D32
 70
     1
 10
0.0
 20
0.0
 30
0.0
  3
*D32
  1

  0
LINE
  5
3AA
330
3A9
100
AcDbEntity
  8
0
 62
   123
100
AcDbLine
 10
290.7441834554774
 20
311.1249490892951
 30
0.0
 11
319.0768411830992
 21
311.1249490892951
 31
0.0
  0
LINE
  5
3AB
330
3A9
100
AcDbEntity
  8
0
 62
   123
100
AcDbLine
 10
290.7441834554774
 20
222.124949089295
 30
0.0
 11
319.0768411830992
 21
222.124949089295
 31
0.0
  0
LINE
  5
3AC
330
3A9
100
AcDbEntity
  8
0
 62
   123
100
AcDbLine
 10
318.4768411830992
 20
308.6249490892951
 30
0.0
 11
318.4768411830992
 21
224.6249490892951
 31
0.0
  0
SOLID
  5
3AD
330
3A9
100
AcDbEntity
  8
0
 62
   123
100
AcDbTrace
 10
318.0601745164325
 20
308.6249490892951
 30
0.0
 11
318.8935078497659
 21
308.6249490892951
 31
0.0
 12
318.4768411830992
 22
311.1249490892951
 32
0.0
 13
318.4768411830992
 23
311.1249490892951
 33
0.0
  0
SOLID
  5
3AE
330
3A9
100
AcDbEntity
  8
0
 62
   123
100
AcDbTrace
 10
318.0601745164325
 20
224.6249490892951
 30
0.0
 11
318.8935078497659
 21
224.6249490892951
 31
0.0
 12
318.4768411830992
 22
222.124949089295
 32
0.0
 13
318.4768411830992
 23
222.124949089295
 33
0.0
  0
MTEXT
  5
3AF
330
3A9
100
AcDbEntity
  8
0
 62
     3
100
AcDbMText
 10
315.9768411830991
 20
266.6249490892951
 30
0.0
 40
3.0
 41
0.0
 71
     5
 72
     1
  1
\A1;%%C89
 11
0.0000000000000001
 21
1.0
 31
0.0
1001
ACAD
1000
MTEXTBEGIN
1070
    73
1070
     1
1070
    44
1040
1.0
1070
    74
1070
     0
1000
MTEXTEND
  0
POINT
  5
3B0
330
3A9
100
AcDbEntity
  8
DEFPOINTS
 62
     0
100
AcDbPoint
 10
289.7441834554774
 20
311.1249490892951
 30
0.0
  0
POINT
  5
3B1
330
3A9
100
AcDbEntity
  8
DEFPOINTS
 62
     0
100
AcDbPoint
 10
289.7441834554774
 20
222.124949089295
 30
0.0
  0
POINT
  5
3B2
330
3A9
100
AcDbEntity
  8
DEFPOINTS
 62
     0
100
AcDbPoint
 10
318.4768411830992
 20
222.124949089295
 30
0.0
  0
ENDBLK
  5
3B4
330
3A9
100
AcDbEntity
  8
0
100
AcDbBlockEnd
  0
BLOCK
  5
3BF
330
3B5
100
AcDbEntity
  8
0
100
AcDbBlockBegin
  2
*D33
 70
     1
 10
0.0
 20
0.0
 30
0.0
  3
*D33
  1

  0
LINE
  5
3B6
330
3B5
100
AcDbEntity
  8
0
 62
   123
100
AcDbLine
 10
211.1786319124675
 20
115.3801796860293
 30
0.0
 11
211.1786319124675
 21
161.3357841907123
 31
0.0
  0
LINE
  5
3B7
330
3B5
100
AcDbEntity
  8
0
 62
   123
100
AcDbLine
 10
286.175298912467
 20
146.680179686029
 30
0.0
 11
286.175298912467
 21
161.3357841907123
 31
0.0
  0
LINE
  5
3B8
330
3B5
100
AcDbEntity
  8
0
 62
   123
100
AcDbLine
 10
213.6786319124676
 20
160.7357841907123
 30
0.0
 11
283.675298912467
 21
160.7357841907123
 31
0.0
  0
SOLID
  5
3B9
330
3B5
100
AcDbEntity
  8
0
 62
   123
100
AcDbTrace
 10
213.6786319124676
 20
161.152450857379
 30
0.0
 11
213.6786319124676
 21
160.3191175240457
 31
0.0
 12
211.1786319124675
 22
160.7357841907123
 32
0.0
 13
211.1786319124675
 23
160.7357841907123
 33
0.0
  0
SOLID
  5
3BA
330
3B5
100
AcDbEntity
  8
0
 62
   123
100
AcDbTrace
 10
283.675298912467
 20
161.152450857379
 30
0.0
 11
283.675298912467
 21
160.3191175240457
 31
0.0
 12
286.175298912467
 22
160.7357841907123
 32
0.0
 13
286.175298912467
 23
160.7357841907123
 33
0.0
  0
MTEXT
  5
3BB
330
3B5
100
AcDbEntity
  8
0
 62
     3
100
AcDbMText
 10
242.0785091552297
 20
163.2357841907123
 30
0.0
 40
3.0
 41
0.0
 71
     5
 72
     1
  1
\A1;75
1001
ACAD
1000
MTEXTBEGIN
1070
    73
1070
     1
1070
    44
1040
1.0
1070
    74
1070
     0
1000
MTEXTEND
  0
POINT
  5
3BC
330
3B5
100
AcDbEntity
  8
DEFPOINTS
 62
     0
100
AcDbPoint
 10
211.1786319124675
 20
114.3801796860293
 30
0.0
  0
POINT
  5
3BD
330
3B5
100
AcDbEntity
  8
DEFPOINTS
 62
     0
100
AcDbPoint
 10
286.175298912467
 20
145.680179686029
 30
0.0
  0
POINT
  5
3BE
330
3B5
100
AcDbEntity
  8
DEFPOINTS
 62
     0
100
AcDbPoint
 10
286.175298912467
 20
160.7357841907123
 30
0.0
  0
ENDBLK
  5
3C0
330
3B5
100
AcDbEntity
  8
0
100
AcDbBlockEnd
  0
BLOCK
  5
3CB
330
3C1
100
AcDbEntity
  8
0
100
AcDbBlockBegin
  2
*D34
 70
     1
 10
0.0
 20
0.0
 30
0.0
  3
*D34
  1

  0
LINE
  5
3C2
330
3C1
100
AcDbEntity
  8
0
 62
   123
100
AcDbLine
 10
191.7441834554774
 20
220.6249490892946
 30
0.0
 11
191.7441834554774
 21
198.3861491287979
 31
0.0
  0
LINE
  5
3C3
330
3C1
100
AcDbEntity
  8
0
 62
   123
100
AcDbLine
 10
296.7441834554774
 20
223.6249490892946
 30
0.0
 11
296.7441834554774
 21
198.3861491287979
 31
0.0
  0
LINE
  5
3C4
330
3C1
100
AcDbEntity
  8
0
 62
   123
100
AcDbLine
 10
194.2441834554774
 20
198.9861491287979
 30
0.0
 11
294.2441834554774
 21
198.9861491287979
 31
0.0
  0
SOLID
  5
3C5
330
3C1
100
AcDbEntity
  8
0
 62
   123
100
AcDbTrace
 10
194.2441834554774
 20
199.4028157954645
 30
0.0
 11
194.2441834554774
 21
198.5694824621312
 31
0.0
 12
191.7441834554774
 22
198.9861491287979
 32
0.0
 13
191.7441834554774
 23
198.9861491287979
 33
0.0
  0
SOLID
  5
3C6
330
3C1
100
AcDbEntity
  8
0
 62
   123
100
AcDbTrace
 10
294.2441834554774
 20
199.4028157954645
 30
0.0
 11
294.2441834554774
 21
198.5694824621312
 31
0.0
 12
296.7441834554774
 22
198.9861491287979
 32
0.0
 13
296.7441834554774
 23
198.9861491287979
 33
0.0
  0
MTEXT
  5
3C7
330
3C1
100
AcDbEntity
  8
0
 62
     3
100
AcDbMText
 10
244.2441834554774
 20
201.4861491287979
 30
0.0
 40
3.0
 41
0.0
 71
     5
 72
     1
  1
\A1;105
1001
ACAD
1000
MTEXTBEGIN
1070
    73
1070
     1
1070
    44
1040
1.0
1070
    74
1070
     0
1000
MTEXTEND
  0
POINT
  5
3C8
330
3C1
100
AcDbEntity
  8
DEFPOINTS
 62
     0
100
AcDbPoint
 10
191.7441834554774
 20
221.6249490892946
 30
0.0
  0
POINT
  5
3C9
330
3C1
100
AcDbEntity
  8
DEFPOINTS
 62
     0
100
AcDbPoint
 10
296.7441834554774
 20
224.6249490892946
 30
0.0
  0
POINT
  5
3CA
330
3C1
100
AcDbEntity
  8
DEFPOINTS
 62
     0
100
AcDbPoint
 10
296.7441834554774
 20
198.9861491287979
 30
0.0
  0
ENDBLK
  5
3CC
330
3C1
100
AcDbEntity
  8
0
100
AcDbBlockEnd
  0
BLOCK
  5
3D7
330
3CD
100
AcDbEntity
  8
0
100
AcDbBlockBegin
  2
*D35
 70
     1
 10
0.0
 20
0.0
 30
0.0
  3
*D35
  1

  0
LINE
  5
3CE
330
3CD
100
AcDbEntity
  8
0
 62
   123
100
AcDbLine
 10
205.1786319124675
 20
14.68018068602714
 30
0.0
 11
205.1786319124675
 21
-7.558619274467766
 31
0.0
  0
LINE
  5
3CF
330
3CD
100
AcDbEntity
  8
0
 62
   123
100
AcDbLine
 10
310.1786319124676
 20
17.68018068602714
 30
0.0
 11
310.1786319124676
 21
-7.558619274467766
 31
0.0
  0
LINE
  5
3D0
330
3CD
100
AcDbEntity
  8
0
 62
   123
100
AcDbLine
 10
207.6786319124676
 20
-6.958619274467764
 30
0.0
 11
307.6786319124676
 21
-6.958619274467764
 31
0.0
  0
SOLID
  5
3D1
330
3CD
100
AcDbEntity
  8
0
 62
   123
100
AcDbTrace
 10
207.6786319124676
 20
-6.541952607801097
 30
0.0
 11
207.6786319124676
 21
-7.375285941134431
 31
0.0
 12
205.1786319124675
 22
-6.958619274467764
 32
0.0
 13
205.1786319124675
 23
-6.958619274467764
 33
0.0
  0
SOLID
  5
3D2
330
3CD
100
AcDbEntity
  8
0
 62
   123
100
AcDbTrace
 10
307.6786319124676
 20
-6.541952607801097
 30
0.0
 11
307.6786319124676
 21
-7.375285941134431
 31
0.0
 12
310.1786319124676
 22
-6.958619274467764
 32
0.0
 13
310.1786319124676
 23
-6.958619274467764
 33
0.0
  0
MTEXT
  5
3D3
330
3CD
100
AcDbEntity
  8
0
 62
     3
100
AcDbMText
 10
257.6786319124676
 20
-4.458619274467764
 30
0.0
 40
3.0
 41
0.0
 71
     5
 72
     1
  1
\A1;105
1001
ACAD
1000
MTEXTBEGIN
1070
    73
1070
     1
1070
    44
1040
1.0
1070
    74
1070
     0
1000
MTEXTEND
  0
POINT
  5
3D4
330
3CD
100
AcDbEntity
  8
DEFPOINTS
 62
     0
100
AcDbPoint
 10
205.1786319124675
 20
15.68018068602714
 30
0.0
  0
POINT
  5
3D5
330
3CD
100
AcDbEntity
  8
DEFPOINTS
 62
     0
100
AcDbPoint
 10
310.1786319124676
 20
18.68018068602714
 30
0.0
  0
POINT
  5
3D6
330
3CD
100
AcDbEntity
  8
DEFPOINTS
 62
     0
100
AcDbPoint
 10
310.1786319124676
 20
-6.958619274467764
 30
0.0
  0
ENDBLK
  5
3D8
330
3CD
100
AcDbEntity
  8
0
100
AcDbBlockEnd
  0
BLOCK
  5
3E3
330
3D9
100
AcDbEntity
  8
0
100
AcDbBlockBegin
  2
*D36
 70
     1
 10
0.0
 20
0.0
 30
0.0
  3
*D36
  1

  0
LINE
  5
3DA
330
3D9
100
AcDbEntity
  8
0
 62
   123
100
AcDbLine
 10
168.1786319124675
 20
65.68018068602714
 30
0.0
 11
168.1786319124675
 21
87.74195519010126
 31
0.0
  0
LINE
  5
3DB
330
3D9
100
AcDbEntity
  8
0
 62
   123
100
AcDbLine
 10
198.1786319124676
 20
66.68018068602714
 30
0.0
 11
198.1786319124676
 21
87.74195519010126
 31
0.0
  0
LINE
  5
3DC
330
3D9
100
AcDbEntity
  8
0
 62
   123
100
AcDbLine
 10
170.6786319124676
 20
87.14195519010127
 30
0.0
 11
195.6786319124676
 21
87.14195519010127
 31
0.0
  0
SOLID
  5
3DD
330
3D9
100
AcDbEntity
  8
0
 62
   123
100
AcDbTrace
 10
170.6786319124676
 20
87.55862185676795
 30
0.0
 11
170.6786319124676
 21
86.72528852343459
 31
0.0
 12
168.1786319124675
 22
87.14195519010127
 32
0.0
 13
168.1786319124675
 23
87.14195519010127
 33
0.0
  0
SOLID
  5
3DE
330
3D9
100
AcDbEntity
  8
0
 62
   123
100
AcDbTrace
 10
195.6786319124676
 20
87.55862185676795
 30
0.0
 11
195.6786319124676
 21
86.72528852343459
 31
0.0
 12
198.1786319124676
 22
87.14195519010127
 32
0.0
 13
198.1786319124676
 23
87.14195519010127
 33
0.0
  0
MTEXT
  5
3DF
330
3D9
100
AcDbEntity
  8
0
 62
     3
100
AcDbMText
 10
182.633825954128
 20
89.64195519010127
 30
0.0
 40
3.0
 41
0.0
 71
     5
 72
     1
  1
\A1;30
1001
ACAD
1000
MTEXTBEGIN
1070
    73
1070
     1
1070
    44
1040
1.0
1070
    74
1070
     0
1000
MTEXTEND
  0
POINT
  5
3E0
330
3D9
100
AcDbEntity
  8
DEFPOINTS
 62
     0
100
AcDbPoint
 10
168.1786319124675
 20
64.68018068602714
 30
0.0
  0
POINT
  5
3E1
330
3D9
100
AcDbEntity
  8
DEFPOINTS
 62
     0
100
AcDbPoint
 10
198.1786319124676
 20
65.68018068602714
 30
0.0
  0
POINT
  5
3E2
330
3D9
100
AcDbEntity
  8
DEFPOINTS
 62
     0
100
AcDbPoint
 10
198.1786319124676
 20
87.14195519010127
 30
0.0
  0
ENDBLK
  5
3E4
330
3D9
100
AcDbEntity
  8
0
100
AcDbBlockEnd
  0
BLOCK
  5
3EF
330
3E5
100
AcDbEntity
  8
0
100
AcDbBlockBegin
  2
*D37
 70
     1
 10
0.0
 20
0.0
 30
0.0
  3
*D37
  1

  0
LINE
  5
3E6
330
3E5
100
AcDbEntity
  8
0
 62
   123
100
AcDbLine
 10
202.1786319124676
 20
102.1801806860271
 30
0.0
 11
130.8261170719983
 21
102.1801806860271
 31
0.0
  0
LINE
  5
3E7
330
3E5
100
AcDbEntity
  8
0
 62
   123
100
AcDbLine
 10
202.1786319124676
 20
19.18018068602714
 30
0.0
 11
130.8261170719983
 21
19.18018068602716
 31
0.0
  0
LINE
  5
3E8
330
3E5
100
AcDbEntity
  8
0
 62
   123
100
AcDbLine
 10
131.4261170719983
 20
99.68018068602717
 30
0.0
 11
131.4261170719983
 21
21.68018068602716
 31
0.0
  0
SOLID
  5
3E9
330
3E5
100
AcDbEntity
  8
0
 62
   123
100
AcDbTrace
 10
131.0094504053316
 20
99.68018068602717
 30
0.0
 11
131.842783738665
 21
99.68018068602717
 31
0.0
 12
131.4261170719983
 22
102.1801806860271
 32
0.0
 13
131.4261170719983
 23
102.1801806860271
 33
0.0
  0
SOLID
  5
3EA
330
3E5
100
AcDbEntity
  8
0
 62
   123
100
AcDbTrace
 10
131.0094504053316
 20
21.68018068602716
 30
0.0
 11
131.8427837386649
 21
21.68018068602716
 31
0.0
 12
131.4261170719983
 22
19.18018068602716
 32
0.0
 13
131.4261170719983
 23
19.18018068602716
 33
0.0
  0
MTEXT
  5
3EB
330
3E5
100
AcDbEntity
  8
0
 62
     3
100
AcDbMText
 10
127.4759670719983
 20
60.68018068602714
 30
0.0
 40
3.0
 41
0.0
 71
     5
 72
     1
  1
\A1;\A1;{\f??|b0|i0|c0|p49;%%c}83{\f??|b0|i0|c0|p49;\H0.7x;\S+0^ -0.035;\H1.429x;(h7)}
 11
0.0000000000000001
 21
1.0
 31
0.0
1001
ACAD
1000
MTEXTBEGIN
1070
    73
1070
     1
1070
    44
1040
1.0
1070
    74
1070
     0
1000
MTEXTEND
  0
POINT
  5
3EC
330
3E5
100
AcDbEntity
  8
DEFPOINTS
 62
     0
100
AcDbPoint
 10
203.1786319124676
 20
102.1801806860271
 30
0.0
  0
POINT
  5
3ED
330
3E5
100
AcDbEntity
  8
DEFPOINTS
 62
     0
100
AcDbPoint
 10
203.1786319124676
 20
19.18018068602714
 30
0.0
  0
POINT
  5
3EE
330
3E5
100
AcDbEntity
  8
DEFPOINTS
 62
     0
100
AcDbPoint
 10
131.4261170719983
 20
19.18018068602716
 30
0.0
  0
ENDBLK
  5
3F0
330
3E5
100
AcDbEntity
  8
0
100
AcDbBlockEnd
  0
BLOCK
  5
3FB
330
3F1
100
AcDbEntity
  8
0
100
AcDbBlockBegin
  2
*D38
 70
     1
 10
0.0
 20
0.0
 30
0.0
  3
*D38
  1

  0
LINE
  5
3F2
330
3F1
100
AcDbEntity
  8
0
 62
   123
100
AcDbLine
 10
-0.0000000000000001
 20
18.68018068602714
 30
0.0
 11
-0.0000000000000012
 21
-0.6000000000000015
 31
0.0
  0
LINE
  5
3F3
330
3F1
100
AcDbEntity
  8
0
 62
   123
100
AcDbLine
 10
90.0
 20
18.68018068602714
 30
0.0
 11
90.0
 21
-0.6000000000000015
 31
0.0
  0
LINE
  5
3F4
330
3F1
100
AcDbEntity
  8
0
 62
   123
100
AcDbLine
 10
2.499999999999998
 20
0.0
 30
0.0
 11
87.5
 21
0.0
 31
0.0
  0
SOLID
  5
3F5
330
3F1
100
AcDbEntity
  8
0
 62
   123
100
AcDbTrace
 10
2.499999999999998
 20
0.4166666666666666
 30
0.0
 11
2.499999999999998
 21
-0.4166666666666666
 31
0.0
 12
-0.0000000000000012
 22
0.0
 32
0.0
 13
-0.0000000000000012
 23
0.0
 33
0.0
  0
SOLID
  5
3F6
330
3F1
100
AcDbEntity
  8
0
 62
   123
100
AcDbTrace
 10
87.5
 20
0.4166666666666666
 30
0.0
 11
87.5
 21
-0.4166666666666666
 31
0.0
 12
90.0
 22
0.0
 32
0.0
 13
90.0
 23
0.0
 33
0.0
  0
MTEXT
  5
3F7
330
3F1
100
AcDbEntity
  8
0
 62
     3
100
AcDbMText
 10
45.0
 20
2.5
 30
0.0
 40
3.0
 41
0.0
 71
     5
 72
     1
  1
\A1;90
1001
ACAD
1000
MTEXTBEGIN
1070
    73
1070
     1
1070
    44
1040
1.0
1070
    74
1070
     0
1000
MTEXTEND
  0
POINT
  5
3F8
330
3F1
100
AcDbEntity
  8
DEFPOINTS
 62
     0
100
AcDbPoint
 10
0.0
 20
19.68018068602714
 30
0.0
  0
POINT
  5
3F9
330
3F1
100
AcDbEntity
  8
DEFPOINTS
 62
     0
100
AcDbPoint
 10
90.0
 20
19.68018068602714
 30
0.0
  0
POINT
  5
3FA
330
3F1
100
AcDbEntity
  8
DEFPOINTS
 62
     0
100
AcDbPoint
 10
90.0
 20
0.0
 30
0.0
  0
ENDBLK
  5
3FC
330
3F1
100
AcDbEntity
  8
0
100
AcDbBlockEnd
  0
BLOCK
  5
407
330
3FD
100
AcDbEntity
  8
0
100
AcDbBlockBegin
  2
*D39
 70
     1
 10
0.0
 20
0.0
 30
0.0
  3
*D39
  1

  0
LINE
  5
3FE
330
3FD
100
AcDbEntity
  8
0
 62
   123
100
AcDbLine
 10
168.1786319124675
 20
54.68018068602714
 30
0.0
 11
168.1786319124675
 21
-7.558619274467766
 31
0.0
  0
LINE
  5
3FF
330
3FD
100
AcDbEntity
  8
0
 62
   123
100
AcDbLine
 10
205.1786319124675
 20
14.68018068602714
 30
0.0
 11
205.1786319124675
 21
-7.558619274467766
 31
0.0
  0
LINE
  5
400
330
3FD
100
AcDbEntity
  8
0
 62
   123
100
AcDbLine
 10
170.6786319124676
 20
-6.958619274467764
 30
0.0
 11
202.6786319124675
 21
-6.958619274467764
 31
0.0
  0
SOLID
  5
401
330
3FD
100
AcDbEntity
  8
0
 62
   123
100
AcDbTrace
 10
170.6786319124676
 20
-6.541952607801097
 30
0.0
 11
170.6786319124676
 21
-7.375285941134431
 31
0.0
 12
168.1786319124675
 22
-6.958619274467764
 32
0.0
 13
168.1786319124675
 23
-6.958619274467764
 33
0.0
  0
SOLID
  5
402
330
3FD
100
AcDbEntity
  8
0
 62
   123
100
AcDbTrace
 10
202.6786319124675
 20
-6.541952607801097
 30
0.0
 11
202.6786319124675
 21
-7.375285941134431
 31
0.0
 12
205.1786319124675
 22
-6.958619274467764
 32
0.0
 13
205.1786319124675
 23
-6.958619274467764
 33
0.0
  0
MTEXT
  5
403
330
3FD
100
AcDbEntity
  8
0
 62
     3
100
AcDbMText
 10
196.1786319124676
 20
-4.458619274467764
 30
0.0
 40
3.0
 41
0.0
 71
     5
 72
     1
  1
\A1;37
1001
ACAD
1000
MTEXTBEGIN
1070
    73
1070
     1
1070
    44
1040
1.0
1070
    74
1070
     0
1000
MTEXTEND
  0
POINT
  5
404
330
3FD
100
AcDbEntity
  8
DEFPOINTS
 62
     0
100
AcDbPoint
 10
168.1786319124675
 20
55.68018068602714
 30
0.0
  0
POINT
  5
405
330
3FD
100
AcDbEntity
  8
DEFPOINTS
 62
     0
100
AcDbPoint
 10
205.1786319124675
 20
15.68018068602714
 30
0.0
  0
POINT
  5
406
330
3FD
100
AcDbEntity
  8
DEFPOINTS
 62
     0
100
AcDbPoint
 10
205.1786319124675
 20
-6.958619274467764
 30
0.0
  0
ENDBLK
  5
408
330
3FD
100
AcDbEntity
  8
0
100
AcDbBlockEnd
  0
BLOCK
  5
415
330
409
100
AcDbEntity
  8
0
100
AcDbBlockBegin
  2
*D40
 70
     1
 10
0.0
 20
0.0
 30
0.0
  3
*D40
  1

  0
LINE
  5
40A
330
409
100
AcDbEntity
  8
0
 62
   123
100
AcDbLine
 10
203.1786319124676
 20
18.18018068602714
 30
0.0
 11
203.1786319124676
 21
1.805568351990949
 31
0.0
  0
LINE
  5
40B
330
409
100
AcDbEntity
  8
0
 62
   123
100
AcDbLine
 10
205.1786319124675
 20
14.68018068602714
 30
0.0
 11
205.1786319124675
 21
1.805568351990951
 31
0.0
  0
LINE
  5
40C
330
409
100
AcDbEntity
  8
0
 62
   123
100
AcDbLine
 10
207.6786319124676
 20
2.40556835199095
 30
0.0
 11
210.1786319124676
 21
2.40556835199095
 31
0.0
  0
LINE
  5
40D
330
409
100
AcDbEntity
  8
0
 62
   123
100
AcDbLine
 10
200.6786319124675
 20
2.40556835199095
 30
0.0
 11
192.1786319124676
 21
2.40556835199095
 31
0.0
  0
LINE
  5
40E
330
409
100
AcDbEntity
  8
0
 62
   123
100
AcDbLine
 10
205.1786319124675
 20
2.40556835199095
 30
0.0
 11
203.1786319124676
 21
2.40556835199095
 31
0.0
  0
SOLID
  5
40F
330
409
100
AcDbEntity
  8
0
 62
   123
100
AcDbTrace
 10
207.6786319124676
 20
2.822235018657617
 30
0.0
 11
207.6786319124676
 21
1.988901685324284
 31
0.0
 12
205.1786319124675
 22
2.40556835199095
 32
0.0
 13
205.1786319124675
 23
2.40556835199095
 33
0.0
  0
SOLID
  5
410
330
409
100
AcDbEntity
  8
0
 62
   123
100
AcDbTrace
 10
200.6786319124675
 20
2.822235018657617
 30
0.0
 11
200.6786319124675
 21
1.988901685324284
 31
0.0
 12
203.1786319124676
 22
2.40556835199095
 32
0.0
 13
203.1786319124676
 23
2.40556835199095
 33
0.0
  0
MTEXT
  5
411
330
409
100
AcDbEntity
  8
0
 62
     3
100
AcDbMText
 10
194.1786319124675
 20
4.90556835199095
 30
0.0
 40
3.0
 41
0.0
 71
     5
 72
     1
  1
\A1;2
1001
ACAD
1000
MTEXTBEGIN
1070
    73
1070
     1
1070
    44
1040
1.0
1070
    74
1070
     0
1000
MTEXTEND
  0
POINT
  5
412
330
409
100
AcDbEntity
  8
DEFPOINTS
 62
     0
100
AcDbPoint
 10
203.1786319124676
 20
19.18018068602714
 30
0.0
  0
POINT
  5
413
330
409
100
AcDbEntity
  8
DEFPOINTS
 62
     0
100
AcDbPoint
 10
205.1786319124675
 20
15.68018068602714
 30
0.0
  0
POINT
  5
414
330
409
100
AcDbEntity
  8
DEFPOINTS
 62
     0
100
AcDbPoint
 10
205.1786319124675
 20
2.40556835199095
 30
0.0
  0
ENDBLK
  5
416
330
409
100
AcDbEntity
  8
0
100
AcDbBlockEnd
  0
BLOCK
  5
421
330
417
100
AcDbEntity
  8
0
100
AcDbBlockBegin
  2
*D41
 70
     1
 10
0.0
 20
0.0
 30
0.0
  3
*D41
  1

  0
LINE
  5
418
330
417
100
AcDbEntity
  8
0
 62
   123
100
AcDbLine
 10
205.1786319124675
 20
14.68018068602714
 30
0.0
 11
205.1786319124675
 21
1.805568351990951
 31
0.0
  0
LINE
  5
419
330
417
100
AcDbEntity
  8
0
 62
   123
100
AcDbLine
 10
212.6786319124676
 20
16.08144334449889
 30
0.0
 11
212.6786319124676
 21
1.805568351990951
 31
0.0
  0
LINE
  5
41A
330
417
100
AcDbEntity
  8
0
 62
   123
100
AcDbLine
 10
207.6786319124676
 20
2.40556835199095
 30
0.0
 11
210.1786319124676
 21
2.40556835199095
 31
0.0
  0
SOLID
  5
41B
330
417
100
AcDbEntity
  8
0
 62
   123
100
AcDbTrace
 10
207.6786319124676
 20
2.822235018657617
 30
0.0
 11
207.6786319124676
 21
1.988901685324284
 31
0.0
 12
205.1786319124675
 22
2.40556835199095
 32
0.0
 13
205.1786319124675
 23
2.40556835199095
 33
0.0
  0
SOLID
  5
41C
330
417
100
AcDbEntity
  8
0
 62
   123
100
AcDbTrace
 10
210.1786319124676
 20
2.822235018657617
 30
0.0
 11
210.1786319124676
 21
1.988901685324284
 31
0.0
 12
212.6786319124676
 22
2.40556835199095
 32
0.0
 13
212.6786319124676
 23
2.40556835199095
 33
0.0
  0
MTEXT
  5
41D
330
417
100
AcDbEntity
  8
0
 62
     3
100
AcDbMText
 10
208.9286319124675
 20
4.90556835199095
 30
0.0
 40
3.0
 41
0.0
 71
     5
 72
     1
  1
\A1;7.5
1001
ACAD
1000
MTEXTBEGIN
1070
    73
1070
     1
1070
    44
1040
1.0
1070
    74
1070
     0
1000
MTEXTEND
  0
POINT
  5
41E
330
417
100
AcDbEntity
  8
DEFPOINTS
 62
     0
100
AcDbPoint
 10
205.1786319124675
 20
15.68018068602714
 30
0.0
  0
POINT
  5
41F
330
417
100
AcDbEntity
  8
DEFPOINTS
 62
     0
100
AcDbPoint
 10
212.6786319124676
 20
17.08144334449889
 30
0.0
  0
POINT
  5
420
330
417
100
AcDbEntity
  8
DEFPOINTS
 62
     0
100
AcDbPoint
 10
212.6786319124676
 20
2.40556835199095
 30
0.0
  0
ENDBLK
  5
422
330
417
100
AcDbEntity
  8
0
100
AcDbBlockEnd
  0
BLOCK
  5
42D
330
423
100
AcDbEntity
  8
0
100
AcDbBlockBegin
  2
*D42
 70
     1
 10
0.0
 20
0.0
 30
0.0
  3
*D42
  1

  0
LINE
  5
424
330
423
100
AcDbEntity
  8
0
 62
   123
100
AcDbLine
 10
167.1786319124676
 20
55.68018068602714
 30
0.0
 11
153.314368528518
 21
55.68018068602714
 31
0.0
  0
LINE
  5
425
330
423
100
AcDbEntity
  8
0
 62
   123
100
AcDbLine
 10
167.1786319124676
 20
64.68018068602714
 30
0.0
 11
153.314368528518
 21
64.68018068602716
 31
0.0
  0
LINE
  5
426
330
423
100
AcDbEntity
  8
0
 62
   123
100
AcDbLine
 10
153.914368528518
 20
58.18018068602714
 30
0.0
 11
153.914368528518
 21
62.18018068602715
 31
0.0
  0
SOLID
  5
427
330
423
100
AcDbEntity
  8
0
 62
   123
100
AcDbTrace
 10
153.4977018618513
 20
58.18018068602714
 30
0.0
 11
154.3310351951847
 21
58.18018068602714
 31
0.0
 12
153.914368528518
 22
55.68018068602714
 32
0.0
 13
153.914368528518
 23
55.68018068602714
 33
0.0
  0
SOLID
  5
428
330
423
100
AcDbEntity
  8
0
 62
   123
100
AcDbTrace
 10
153.4977018618513
 20
62.18018068602715
 30
0.0
 11
154.3310351951847
 21
62.18018068602715
 31
0.0
 12
153.914368528518
 22
64.68018068602716
 32
0.0
 13
153.914368528518
 23
64.68018068602716
 33
0.0
  0
MTEXT
  5
429
330
423
100
AcDbEntity
  8
0
 62
     3
100
AcDbMText
 10
151.414368528518
 20
60.18018068602714
 30
0.0
 40
3.0
 41
0.0
 71
     5
 72
     1
  1
\A1;9
 11
0.0000000000000001
 21
1.0
 31
0.0
1001
ACAD
1000
MTEXTBEGIN
1070
    73
1070
     1
1070
    44
1040
1.0
1070
    74
1070
     0
1000
MTEXTEND
  0
POINT
  5
42A
330
423
100
AcDbEntity
  8
DEFPOINTS
 62
     0
100
AcDbPoint
 10
168.1786319124675
 20
55.68018068602714
 30
0.0
  0
POINT
  5
42B
330
423
100
AcDbEntity
  8
DEFPOINTS
 62
     0
100
AcDbPoint
 10
168.1786319124675
 20
64.68018068602714
 30
0.0
  0
POINT
  5
42C
330
423
100
AcDbEntity
  8
DEFPOINTS
 62
     0
100
AcDbPoint
 10
153.914368528518
 20
64.68018068602716
 30
0.0
  0
ENDBLK
  5
42E
330
423
100
AcDbEntity
  8
0
100
AcDbBlockEnd
  0
BLOCK
  5
439
330
42F
100
AcDbEntity
  8
0
100
AcDbBlockBegin
  2
*D43
 70
     1
 10
0.0
 20
0.0
 30
0.0
  3
*D43
  1

  0
LINE
  5
430
330
42F
100
AcDbEntity
  8
0
 62
   123
100
AcDbLine
 10
167.1786319124676
 20
55.68018068602714
 30
0.0
 11
144.2913267804491
 21
55.68018068602714
 31
0.0
  0
LINE
  5
431
330
42F
100
AcDbEntity
  8
0
 62
   123
100
AcDbLine
 10
197.1786319124676
 20
65.68018068602714
 30
0.0
 11
144.2913267804492
 21
65.68018068602715
 31
0.0
  0
LINE
  5
432
330
42F
100
AcDbEntity
  8
0
 62
   123
100
AcDbLine
 10
144.8913267804491
 20
58.18018068602714
 30
0.0
 11
144.8913267804491
 21
63.18018068602714
 31
0.0
  0
SOLID
  5
433
330
42F
100
AcDbEntity
  8
0
 62
   123
100
AcDbTrace
 10
144.4746601137825
 20
58.18018068602714
 30
0.0
 11
145.3079934471158
 21
58.18018068602714
 31
0.0
 12
144.8913267804491
 22
55.68018068602714
 32
0.0
 13
144.8913267804491
 23
55.68018068602714
 33
0.0
  0
SOLID
  5
434
330
42F
100
AcDbEntity
  8
0
 62
   123
100
AcDbTrace
 10
144.4746601137825
 20
63.18018068602714
 30
0.0
 11
145.3079934471158
 21
63.18018068602714
 31
0.0
 12
144.8913267804492
 22
65.68018068602715
 32
0.0
 13
144.8913267804492
 23
65.68018068602715
 33
0.0
  0
MTEXT
  5
435
330
42F
100
AcDbEntity
  8
0
 62
     3
100
AcDbMText
 10
140.9411767804491
 20
60.68018068602718
 30
0.0
 40
3.0
 41
0.0
 71
     5
 72
     1
  1
\A1;\A1;{\f??|b0|i0|c0|p49;%%c}10{\f??|b0|i0|c0|p49;\H0.7x;\S+0^ -0.015;\H1.429x;(h7)}
 11
0.0000000000000001
 21
1.0
 31
0.0
1001
ACAD
1000
MTEXTBEGIN
1070
    73
1070
     1
1070
    44
1040
1.0
1070
    74
1070
     0
1000
MTEXTEND
  0
POINT
  5
436
330
42F
100
AcDbEntity
  8
DEFPOINTS
 62
     0
100
AcDbPoint
 10
168.1786319124675
 20
55.68018068602714
 30
0.0
  0
POINT
  5
437
330
42F
100
AcDbEntity
  8
DEFPOINTS
 62
     0
100
AcDbPoint
 10
198.1786319124676
 20
65.68018068602714
 30
0.0
  0
POINT
  5
438
330
42F
100
AcDbEntity
  8
DEFPOINTS
 62
     0
100
AcDbPoint
 10
144.8913267804492
 20
65.68018068602715
 30
0.0
  0
ENDBLK
  5
43A
330
42F
100
AcDbEntity
  8
0
100
AcDbBlockEnd
  0
BLOCK
  5
445
330
43B
100
AcDbEntity
  8
0
100
AcDbBlockBegin
  2
*D44
 70
     1
 10
0.0
 20
0.0
 30
0.0
  3
*D44
  1

  0
LINE
  5
43C
330
43B
100
AcDbEntity
  8
0
 62
   123
100
AcDbLine
 10
32.91087905986751
 20
225.6249490893642
 30
0.0
 11
32.91087905986751
 21
205.3447684032675
 31
0.0
  0
LINE
  5
43D
330
43B
100
AcDbEntity
  8
0
 62
   123
100
AcDbLine
 10
122.9108790598675
 20
225.6249490893642
 30
0.0
 11
122.9108790598675
 21
205.3447684032675
 31
0.0
  0
LINE
  5
43E
330
43B
100
AcDbEntity
  8
0
 62
   123
100
AcDbLine
 10
35.41087905986751
 20
205.9447684032675
 30
0.0
 11
120.4108790598675
 21
205.9447684032675
 31
0.0
  0
SOLID
  5
43F
330
43B
100
AcDbEntity
  8
0
 62
   123
100
AcDbTrace
 10
35.41087905986751
 20
206.3614350699341
 30
0.0
 11
35.41087905986751
 21
205.5281017366008
 31
0.0
 12
32.91087905986751
 22
205.9447684032675
 32
0.0
 13
32.91087905986751
 23
205.9447684032675
 33
0.0
  0
SOLID
  5
440
330
43B
100
AcDbEntity
  8
0
 62
   123
100
AcDbTrace
 10
120.4108790598675
 20
206.3614350699341
 30
0.0
 11
120.4108790598675
 21
205.5281017366008
 31
0.0
 12
122.9108790598675
 22
205.9447684032675
 32
0.0
 13
122.9108790598675
 23
205.9447684032675
 33
0.0
  0
MTEXT
  5
441
330
43B
100
AcDbEntity
  8
0
 62
     3
100
AcDbMText
 10
77.66360480874936
 20
208.4447684032675
 30
0.0
 40
3.0
 41
0.0
 71
     5
 72
     1
  1
\A1;90
1001
ACAD
1000
MTEXTBEGIN
1070
    73
1070
     1
1070
    44
1040
1.0
1070
    74
1070
     0
1000
MTEXTEND
  0
POINT
  5
442
330
43B
100
AcDbEntity
  8
DEFPOINTS
 62
     0
100
AcDbPoint
 10
32.91087905986751
 20
226.6249490893642
 30
0.0
  0
POINT
  5
443
330
43B
100
AcDbEntity
  8
DEFPOINTS
 62
     0
100
AcDbPoint
 10
122.9108790598675
 20
226.6249490893642
 30
0.0
  0
POINT
  5
444
330
43B
100
AcDbEntity
  8
DEFPOINTS
 62
     0
100
AcDbPoint
 10
122.9108790598675
 20
205.9447684032675
 30
0.0
  0
ENDBLK
  5
446
330
43B
100
AcDbEntity
  8
0
100
AcDbBlockEnd
  0
BLOCK
  5
453
330
447
100
AcDbEntity
  8
0
100
AcDbBlockBegin
  2
*D45
 70
     1
 10
0.0
 20
0.0
 30
0.0
  3
*D45
  1

  0
LINE
  5
448
330
447
100
AcDbEntity
  8
0
 62
   123
100
AcDbLine
 10
205.1786319124675
 20
106.6801806860271
 30
0.0
 11
205.1786319124675
 21
161.3357841907123
 31
0.0
  0
LINE
  5
449
330
447
100
AcDbEntity
  8
0
 62
   123
100
AcDbLine
 10
211.1786319124675
 20
115.3801796860293
 30
0.0
 11
211.1786319124675
 21
161.3357841907123
 31
0.0
  0
LINE
  5
44A
330
447
100
AcDbEntity
  8
0
 62
   123
100
AcDbLine
 10
202.6786319124675
 20
160.7357841907123
 30
0.0
 11
200.1786319124676
 21
160.7357841907123
 31
0.0
  0
LINE
  5
44B
330
447
100
AcDbEntity
  8
0
 62
   123
100
AcDbLine
 10
213.6786319124676
 20
160.7357841907123
 30
0.0
 11
216.1786319124676
 21
160.7357841907123
 31
0.0
  0
LINE
  5
44C
330
447
100
AcDbEntity
  8
0
 62
   123
100
AcDbLine
 10
205.1786319124675
 20
160.7357841907123
 30
0.0
 11
211.1786319124675
 21
160.7357841907123
 31
0.0
  0
SOLID
  5
44D
330
447
100
AcDbEntity
  8
0
 62
   123
100
AcDbTrace
 10
202.6786319124675
 20
161.152450857379
 30
0.0
 11
202.6786319124675
 21
160.3191175240457
 31
0.0
 12
205.1786319124675
 22
160.7357841907123
 32
0.0
 13
205.1786319124675
 23
160.7357841907123
 33
0.0
  0
SOLID
  5
44E
330
447
100
AcDbEntity
  8
0
 62
   123
100
AcDbTrace
 10
213.6786319124676
 20
161.152450857379
 30
0.0
 11
213.6786319124676
 21
160.3191175240457
 31
0.0
 12
211.1786319124675
 22
160.7357841907123
 32
0.0
 13
211.1786319124675
 23
160.7357841907123
 33
0.0
  0
MTEXT
  5
44F
330
447
100
AcDbEntity
  8
0
 62
     3
100
AcDbMText
 10
208.1786319124676
 20
163.2357841907123
 30
0.0
 40
3.0
 41
0.0
 71
     5
 72
     1
  1
\A1;6
1001
ACAD
1000
MTEXTBEGIN
1070
    73
1070
     1
1070
    44
1040
1.0
1070
    74
1070
     0
1000
MTEXTEND
  0
POINT
  5
450
330
447
100
AcDbEntity
  8
DEFPOINTS
 62
     0
100
AcDbPoint
 10
205.1786319124675
 20
105.6801806860271
 30
0.0
  0
POINT
  5
451
330
447
100
AcDbEntity
  8
DEFPOINTS
 62
     0
100
AcDbPoint
 10
211.1786319124675
 20
114.3801796860293
 30
0.0
  0
POINT
  5
452
330
447
100
AcDbEntity
  8
DEFPOINTS
 62
     0
100
AcDbPoint
 10
211.1786319124675
 20
160.7357841907123
 30
0.0
  0
ENDBLK
  5
454
330
447
100
AcDbEntity
  8
0
100
AcDbBlockEnd
  0
BLOCK
  5
461
330
455
100
AcDbEntity
  8
0
100
AcDbBlockBegin
  2
*D46
 70
     1
 10
0.0
 20
0.0
 30
0.0
  3
*D46
  1

  0
LINE
  5
456
330
455
100
AcDbEntity
  8
0
 62
   123
100
AcDbLine
 10
189.7441834554774
 20
224.1249490892951
 30
0.0
 11
189.7441834554774
 21
207.7503367552571
 31
0.0
  0
LINE
  5
457
330
455
100
AcDbEntity
  8
0
 62
   123
100
AcDbLine
 10
191.7441834554774
 20
220.6249490892946
 30
0.0
 11
191.7441834554774
 21
207.7503367552571
 31
0.0
  0
LINE
  5
458
330
455
100
AcDbEntity
  8
0
 62
   123
100
AcDbLine
 10
194.2441834554774
 20
208.350336755257
 30
0.0
 11
196.7441834554774
 21
208.350336755257
 31
0.0
  0
LINE
  5
459
330
455
100
AcDbEntity
  8
0
 62
   123
100
AcDbLine
 10
187.2441834554774
 20
208.350336755257
 30
0.0
 11
178.7441834554774
 21
208.350336755257
 31
0.0
  0
LINE
  5
45A
330
455
100
AcDbEntity
  8
0
 62
   123
100
AcDbLine
 10
191.7441834554774
 20
208.350336755257
 30
0.0
 11
189.7441834554774
 21
208.350336755257
 31
0.0
  0
SOLID
  5
45B
330
455
100
AcDbEntity
  8
0
 62
   123
100
AcDbTrace
 10
194.2441834554774
 20
208.7670034219237
 30
0.0
 11
194.2441834554774
 21
207.9336700885904
 31
0.0
 12
191.7441834554774
 22
208.350336755257
 32
0.0
 13
191.7441834554774
 23
208.350336755257
 33
0.0
  0
SOLID
  5
45C
330
455
100
AcDbEntity
  8
0
 62
   123
100
AcDbTrace
 10
187.2441834554774
 20
208.7670034219237
 30
0.0
 11
187.2441834554774
 21
207.9336700885904
 31
0.0
 12
189.7441834554774
 22
208.350336755257
 32
0.0
 13
189.7441834554774
 23
208.350336755257
 33
0.0
  0
MTEXT
  5
45D
330
455
100
AcDbEntity
  8
0
 62
     3
100
AcDbMText
 10
180.7441834554774
 20
210.8503367552571
 30
0.0
 40
3.0
 41
0.0
 71
     5
 72
     1
  1
\A1;2
1001
ACAD
1000
MTEXTBEGIN
1070
    73
1070
     1
1070
    44
1040
1.0
1070
    74
1070
     0
1000
MTEXTEND
  0
POINT
  5
45E
330
455
100
AcDbEntity
  8
DEFPOINTS
 62
     0
100
AcDbPoint
 10
189.7441834554774
 20
225.1249490892951
 30
0.0
  0
POINT
  5
45F
330
455
100
AcDbEntity
  8
DEFPOINTS
 62
     0
100
AcDbPoint
 10
191.7441834554774
 20
221.6249490892946
 30
0.0
  0
POINT
  5
460
330
455
100
AcDbEntity
  8
DEFPOINTS
 62
     0
100
AcDbPoint
 10
191.7441834554774
 20
208.350336755257
 30
0.0
  0
ENDBLK
  5
462
330
455
100
AcDbEntity
  8
0
100
AcDbBlockEnd
  0
BLOCK
  5
46D
330
463
100
AcDbEntity
  8
0
100
AcDbBlockBegin
  2
*D47
 70
     1
 10
0.0
 20
0.0
 30
0.0
  3
*D47
  1

  0
LINE
  5
464
330
463
100
AcDbEntity
  8
0
 62
   123
100
AcDbLine
 10
191.7441834554774
 20
220.6249490892946
 30
0.0
 11
191.7441834554774
 21
207.7503367552571
 31
0.0
  0
LINE
  5
465
330
463
100
AcDbEntity
  8
0
 62
   123
100
AcDbLine
 10
199.2441834554774
 20
222.0262117477663
 30
0.0
 11
199.2441834554774
 21
207.7503367552571
 31
0.0
  0
LINE
  5
466
330
463
100
AcDbEntity
  8
0
 62
   123
100
AcDbLine
 10
194.2441834554774
 20
208.350336755257
 30
0.0
 11
196.7441834554774
 21
208.350336755257
 31
0.0
  0
SOLID
  5
467
330
463
100
AcDbEntity
  8
0
 62
   123
100
AcDbTrace
 10
194.2441834554774
 20
208.7670034219237
 30
0.0
 11
194.2441834554774
 21
207.9336700885904
 31
0.0
 12
191.7441834554774
 22
208.350336755257
 32
0.0
 13
191.7441834554774
 23
208.350336755257
 33
0.0
  0
SOLID
  5
468
330
463
100
AcDbEntity
  8
0
 62
   123
100
AcDbTrace
 10
196.7441834554774
 20
208.7670034219237
 30
0.0
 11
196.7441834554774
 21
207.9336700885904
 31
0.0
 12
199.2441834554774
 22
208.350336755257
 32
0.0
 13
199.2441834554774
 23
208.350336755257
 33
0.0
  0
MTEXT
  5
469
330
463
100
AcDbEntity
  8
0
 62
     3
100
AcDbMText
 10
195.4941834554774
 20
210.8503367552571
 30
0.0
 40
3.0
 41
0.0
 71
     5
 72
     1
  1
\A1;7.5
1001
ACAD
1000
MTEXTBEGIN
1070
    73
1070
     1
1070
    44
1040
1.0
1070
    74
1070
     0
1000
MTEXTEND
  0
POINT
  5
46A
330
463
100
AcDbEntity
  8
DEFPOINTS
 62
     0
100
AcDbPoint
 10
191.7441834554774
 20
221.6249490892946
 30
0.0
  0
POINT
  5
46B
330
463
100
AcDbEntity
  8
DEFPOINTS
 62
     0
100
AcDbPoint
 10
199.2441834554774
 20
223.0262117477664
 30
0.0
  0
POINT
  5
46C
330
463
100
AcDbEntity
  8
DEFPOINTS
 62
     0
100
AcDbPoint
 10
199.2441834554774
 20
208.350336755257
 30
0.0
  0
ENDBLK
  5
46E
330
463
100
AcDbEntity
  8
0
100
AcDbBlockEnd
  0
BLOCK
  5
479
330
46F
100
AcDbEntity
  8
0
100
AcDbBlockBegin
  2
*D48
 70
     1
 10
0.0
 20
0.0
 30
0.0
  3
*D48
  1

  0
LINE
  5
470
330
46F
100
AcDbEntity
  8
0
 62
   123
100
AcDbLine
 10
304.1786319124676
 20
105.1801806860271
 30
0.0
 11
330.6822554517763
 21
105.1801806860271
 31
0.0
  0
LINE
  5
471
330
46F
100
AcDbEntity
  8
0
 62
   123
100
AcDbLine
 10
304.1786319124676
 20
16.18018068602714
 30
0.0
 11
330.6822554517763
 21
16.18018068602713
 31
0.0
  0
LINE
  5
472
330
46F
100
AcDbEntity
  8
0
 62
   123
100
AcDbLine
 10
330.0822554517762
 20
102.6801806860271
 30
0.0
 11
330.0822554517762
 21
18.68018068602713
 31
0.0
  0
SOLID
  5
473
330
46F
100
AcDbEntity
  8
0
 62
   123
100
AcDbTrace
 10
329.6655887851096
 20
102.6801806860271
 30
0.0
 11
330.4989221184429
 21
102.6801806860271
 31
0.0
 12
330.0822554517762
 22
105.1801806860271
 32
0.0
 13
330.0822554517762
 23
105.1801806860271
 33
0.0
  0
SOLID
  5
474
330
46F
100
AcDbEntity
  8
0
 62
   123
100
AcDbTrace
 10
329.6655887851096
 20
18.68018068602713
 30
0.0
 11
330.4989221184429
 21
18.68018068602713
 31
0.0
 12
330.0822554517762
 22
16.18018068602713
 32
0.0
 13
330.0822554517762
 23
16.18018068602713
 33
0.0
  0
MTEXT
  5
475
330
46F
100
AcDbEntity
  8
0
 62
     3
100
AcDbMText
 10
327.5822554517763
 20
60.68018068602714
 30
0.0
 40
3.0
 41
0.0
 71
     5
 72
     1
  1
\A1;%%C89
 11
0.0000000000000001
 21
1.0
 31
0.0
1001
ACAD
1000
MTEXTBEGIN
1070
    73
1070
     1
1070
    44
1040
1.0
1070
    74
1070
     0
1000
MTEXTEND
  0
POINT
  5
476
330
46F
100
AcDbEntity
  8
DEFPOINTS
 62
     0
100
AcDbPoint
 10
303.1786319124676
 20
105.1801806860271
 30
0.0
  0
POINT
  5
477
330
46F
100
AcDbEntity
  8
DEFPOINTS
 62
     0
100
AcDbPoint
 10
303.1786319124676
 20
16.18018068602714
 30
0.0
  0
POINT
  5
478
330
46F
100
AcDbEntity
  8
DEFPOINTS
 62
     0
100
AcDbPoint
 10
330.0822554517762
 20
16.18018068602713
 30
0.0
  0
ENDBLK
  5
47A
330
46F
100
AcDbEntity
  8
0
100
AcDbBlockEnd
  0
BLOCK
  5
485
330
47B
100
AcDbEntity
  8
0
100
AcDbBlockBegin
  2
*D49
 70
     1
 10
0.0
 20
0.0
 30
0.0
  3
*D49
  1

  0
LINE
  5
47C
330
47B
100
AcDbEntity
  8
0
 62
   123
100
AcDbLine
 10
286.175298912467
 20
146.680179686029
 30
0.0
 11
286.175298912467
 21
161.3192131702013
 31
0.0
  0
LINE
  5
47D
330
47B
100
AcDbEntity
  8
0
 62
   123
100
AcDbLine
 10
314.175298912467
 20
138.680179686029
 30
0.0
 11
314.175298912467
 21
161.3192131702013
 31
0.0
  0
LINE
  5
47E
330
47B
100
AcDbEntity
  8
0
 62
   123
100
AcDbLine
 10
288.675298912467
 20
160.7192131702013
 30
0.0
 11
311.675298912467
 21
160.7192131702013
 31
0.0
  0
SOLID
  5
47F
330
47B
100
AcDbEntity
  8
0
 62
   123
100
AcDbTrace
 10
288.675298912467
 20
161.1358798368679
 30
0.0
 11
288.675298912467
 21
160.3025465035346
 31
0.0
 12
286.175298912467
 22
160.7192131702013
 32
0.0
 13
286.175298912467
 23
160.7192131702013
 33
0.0
  0
SOLID
  5
480
330
47B
100
AcDbEntity
  8
0
 62
   123
100
AcDbTrace
 10
311.675298912467
 20
161.1358798368679
 30
0.0
 11
311.675298912467
 21
160.3025465035346
 31
0.0
 12
314.175298912467
 22
160.7192131702013
 32
0.0
 13
314.175298912467
 23
160.7192131702013
 33
0.0
  0
MTEXT
  5
481
330
47B
100
AcDbEntity
  8
0
 62
     3
100
AcDbMText
 10
300.175298912467
 20
163.2192131702013
 30
0.0
 40
3.0
 41
0.0
 71
     5
 72
     1
  1
\A1;MAX. 28
1001
ACAD
1000
MTEXTBEGIN
1070
    73
1070
     1
1070
    44
1040
1.0
1070
    74
1070
     0
1000
MTEXTEND
  0
POINT
  5
482
330
47B
100
AcDbEntity
  8
DEFPOINTS
 62
     0
100
AcDbPoint
 10
286.175298912467
 20
145.680179686029
 30
0.0
  0
POINT
  5
483
330
47B
100
AcDbEntity
  8
DEFPOINTS
 62
     0
100
AcDbPoint
 10
314.175298912467
 20
137.680179686029
 30
0.0
  0
POINT
  5
484
330
47B
100
AcDbEntity
  8
DEFPOINTS
 62
     0
100
AcDbPoint
 10
314.175298912467
 20
160.7192131702013
 30
0.0
  0
ENDBLK
  5
486
330
47B
100
AcDbEntity
  8
0
100
AcDbBlockEnd
  0
BLOCK
  5
491
330
487
100
AcDbEntity
  8
0
100
AcDbBlockBegin
  2
*D50
 70
     1
 10
0.0
 20
0.0
 30
0.0
  3
*D50
  1

  0
LINE
  5
488
330
487
100
AcDbEntity
  8
0
 62
   123
100
AcDbLine
 10
272.7408504554787
 20
352.6249480892965
 30
0.0
 11
272.7408504554787
 21
367.2639815734679
 31
0.0
  0
LINE
  5
489
330
487
100
AcDbEntity
  8
0
 62
   123
100
AcDbLine
 10
300.7408504554787
 20
344.6249480892966
 30
0.0
 11
300.7408504554787
 21
367.2639815734679
 31
0.0
  0
LINE
  5
48A
330
487
100
AcDbEntity
  8
0
 62
   123
100
AcDbLine
 10
275.2408504554787
 20
366.6639815734679
 30
0.0
 11
298.2408504554787
 21
366.6639815734679
 31
0.0
  0
SOLID
  5
48B
330
487
100
AcDbEntity
  8
0
 62
   123
100
AcDbTrace
 10
275.2408504554787
 20
367.0806482401346
 30
0.0
 11
275.2408504554787
 21
366.2473149068012
 31
0.0
 12
272.7408504554787
 22
366.6639815734679
 32
0.0
 13
272.7408504554787
 23
366.6639815734679
 33
0.0
  0
SOLID
  5
48C
330
487
100
AcDbEntity
  8
0
 62
   123
100
AcDbTrace
 10
298.2408504554787
 20
367.0806482401346
 30
0.0
 11
298.2408504554787
 21
366.2473149068012
 31
0.0
 12
300.7408504554787
 22
366.6639815734679
 32
0.0
 13
300.7408504554787
 23
366.6639815734679
 33
0.0
  0
MTEXT
  5
48D
330
487
100
AcDbEntity
  8
0
 62
     3
100
AcDbMText
 10
286.7408504554787
 20
369.1639815734679
 30
0.0
 40
3.0
 41
0.0
 71
     5
 72
     1
  1
\A1;MAX. 28
1001
ACAD
1000
MTEXTBEGIN
1070
    73
1070
     1
1070
    44
1040
1.0
1070
    74
1070
     0
1000
MTEXTEND
  0
POINT
  5
48E
330
487
100
AcDbEntity
  8
DEFPOINTS
 62
     0
100
AcDbPoint
 10
272.7408504554787
 20
351.6249480892966
 30
0.0
  0
POINT
  5
48F
330
487
100
AcDbEntity
  8
DEFPOINTS
 62
     0
100
AcDbPoint
 10
300.7408504554787
 20
343.6249480892966
 30
0.0
  0
POINT
  5
490
330
487
100
AcDbEntity
  8
DEFPOINTS
 62
     0
100
AcDbPoint
 10
300.7408504554787
 20
366.6639815734679
 30
0.0
  0
ENDBLK
  5
492
330
487
100
AcDbEntity
  8
0
100
AcDbBlockEnd
  0
BLOCK
  5
49D
330
493
100
AcDbEntity
  8
0
100
AcDbBlockBegin
  2
*D51
 70
     1
 10
0.0
 20
0.0
 30
0.0
  3
*D51
  1

  0
LINE
  5
494
330
493
100
AcDbEntity
  8
0
 62
   123
100
AcDbLine
 10
119.2187734875678
 20
311.6249490893642
 30
0.0
 11
125.5829508799994
 21
311.6249490893642
 31
0.0
  0
LINE
  5
495
330
493
100
AcDbEntity
  8
0
 62
   123
100
AcDbLine
 10
106.8270344938591
 20
354.6249490893642
 30
0.0
 11
125.5829508799994
 21
354.6249490893642
 31
0.0
  0
LINE
  5
496
330
493
100
AcDbEntity
  8
0
 62
   123
100
AcDbLine
 10
124.9829508799994
 20
314.1249490893642
 30
0.0
 11
124.9829508799994
 21
352.1249490893642
 31
0.0
  0
SOLID
  5
497
330
493
100
AcDbEntity
  8
0
 62
   123
100
AcDbTrace
 10
124.5662842133328
 20
314.1249490893642
 30
0.0
 11
125.3996175466661
 21
314.1249490893642
 31
0.0
 12
124.9829508799994
 22
311.6249490893642
 32
0.0
 13
124.9829508799994
 23
311.6249490893642
 33
0.0
  0
SOLID
  5
498
330
493
100
AcDbEntity
  8
0
 62
   123
100
AcDbTrace
 10
124.5662842133328
 20
352.1249490893642
 30
0.0
 11
125.3996175466661
 21
352.1249490893642
 31
0.0
 12
124.9829508799994
 22
354.6249490893642
 32
0.0
 13
124.9829508799994
 23
354.6249490893642
 33
0.0
  0
MTEXT
  5
499
330
493
100
AcDbEntity
  8
0
 62
     3
100
AcDbMText
 10
122.4829508799994
 20
334.7197848864489
 30
0.0
 40
3.0
 41
0.0
 71
     5
 72
     1
  1
\A1;43
 11
0.0000000000000001
 21
1.0
 31
0.0
1001
ACAD
1000
MTEXTBEGIN
1070
    73
1070
     1
1070
    44
1040
1.0
1070
    74
1070
     0
1000
MTEXTEND
  0
POINT
  5
49A
330
493
100
AcDbEntity
  8
DEFPOINTS
 62
     0
100
AcDbPoint
 10
118.2187734875678
 20
311.6249490893642
 30
0.0
  0
POINT
  5
49B
330
493
100
AcDbEntity
  8
DEFPOINTS
 62
     0
100
AcDbPoint
 10
105.8270344938591
 20
354.6249490893642
 30
0.0
  0
POINT
  5
49C
330
493
100
AcDbEntity
  8
DEFPOINTS
 62
     0
100
AcDbPoint
 10
124.9829508799994
 20
354.6249490893642
 30
0.0
  0
ENDBLK
  5
49E
330
493
100
AcDbEntity
  8
0
100
AcDbBlockEnd
  0
BLOCK
  5
4A9
330
49F
100
AcDbEntity
  8
0
100
AcDbBlockBegin
  2
*D52
 70
     1
 10
0.0
 20
0.0
 30
0.0
  3
*D52
  1

  0
LINE
  5
4A0
330
49F
100
AcDbEntity
  8
0
 62
   123
100
AcDbLine
 10
197.7441834554774
 20
321.3249480892977
 30
0.0
 11
197.7441834554774
 21
367.2805525939803
 31
0.0
  0
LINE
  5
4A1
330
49F
100
AcDbEntity
  8
0
 62
   123
100
AcDbLine
 10
272.7408504554787
 20
352.6249480892965
 30
0.0
 11
272.7408504554787
 21
367.2805525939803
 31
0.0
  0
LINE
  5
4A2
330
49F
100
AcDbEntity
  8
0
 62
   123
100
AcDbLine
 10
200.2441834554774
 20
366.6805525939803
 30
0.0
 11
270.2408504554787
 21
366.6805525939803
 31
0.0
  0
SOLID
  5
4A3
330
49F
100
AcDbEntity
  8
0
 62
   123
100
AcDbTrace
 10
200.2441834554774
 20
367.097219260647
 30
0.0
 11
200.2441834554774
 21
366.2638859273136
 31
0.0
 12
197.7441834554774
 22
366.6805525939803
 32
0.0
 13
197.7441834554774
 23
366.6805525939803
 33
0.0
  0
SOLID
  5
4A4
330
49F
100
AcDbEntity
  8
0
 62
   123
100
AcDbTrace
 10
270.2408504554787
 20
367.097219260647
 30
0.0
 11
270.2408504554787
 21
366.2638859273136
 31
0.0
 12
272.7408504554787
 22
366.6805525939803
 32
0.0
 13
272.7408504554787
 23
366.6805525939803
 33
0.0
  0
MTEXT
  5
4A5
330
49F
100
AcDbEntity
  8
0
 62
     3
100
AcDbMText
 10
228.6440606982359
 20
369.1805525939803
 30
0.0
 40
3.0
 41
0.0
 71
     5
 72
     1
  1
\A1;75
1001
ACAD
1000
MTEXTBEGIN
1070
    73
1070
     1
1070
    44
1040
1.0
1070
    74
1070
     0
1000
MTEXTEND
  0
POINT
  5
4A6
330
49F
100
AcDbEntity
  8
DEFPOINTS
 62
     0
100
AcDbPoint
 10
197.7441834554774
 20
320.3249480892977
 30
0.0
  0
POINT
  5
4A7
330
49F
100
AcDbEntity
  8
DEFPOINTS
 62
     0
100
AcDbPoint
 10
272.7408504554787
 20
351.6249480892966
 30
0.0
  0
POINT
  5
4A8
330
49F
100
AcDbEntity
  8
DEFPOINTS
 62
     0
100
AcDbPoint
 10
272.7408504554787
 20
366.6805525939803
 30
0.0
  0
ENDBLK
  5
4AA
330
49F
100
AcDbEntity
  8
0
100
AcDbBlockEnd
  0
BLOCK
  5
4B7
330
4AB
100
AcDbEntity
  8
0
100
AcDbBlockBegin
  2
*D53
 70
     1
 10
0.0
 20
0.0
 30
0.0
  3
*D53
  1

  0
LINE
  5
4AC
330
4AB
100
AcDbEntity
  8
0
 62
   123
100
AcDbLine
 10
191.7441834554774
 20
312.6249490892946
 30
0.0
 11
191.7441834554774
 21
367.2805525939803
 31
0.0
  0
LINE
  5
4AD
330
4AB
100
AcDbEntity
  8
0
 62
   123
100
AcDbLine
 10
197.7441834554774
 20
321.3249480892977
 30
0.0
 11
197.7441834554774
 21
367.2805525939803
 31
0.0
  0
LINE
  5
4AE
330
4AB
100
AcDbEntity
  8
0
 62
   123
100
AcDbLine
 10
189.2441834554774
 20
366.6805525939803
 30
0.0
 11
186.7441834554774
 21
366.6805525939803
 31
0.0
  0
LINE
  5
4AF
330
4AB
100
AcDbEntity
  8
0
 62
   123
100
AcDbLine
 10
200.2441834554774
 20
366.6805525939803
 30
0.0
 11
202.7441834554774
 21
366.6805525939803
 31
0.0
  0
LINE
  5
4B0
330
4AB
100
AcDbEntity
  8
0
 62
   123
100
AcDbLine
 10
191.7441834554774
 20
366.6805525939803
 30
0.0
 11
197.7441834554774
 21
366.6805525939803
 31
0.0
  0
SOLID
  5
4B1
330
4AB
100
AcDbEntity
  8
0
 62
   123
100
AcDbTrace
 10
189.2441834554774
 20
367.097219260647
 30
0.0
 11
189.2441834554774
 21
366.2638859273136
 31
0.0
 12
191.7441834554774
 22
366.6805525939803
 32
0.0
 13
191.7441834554774
 23
366.6805525939803
 33
0.0
  0
SOLID
  5
4B2
330
4AB
100
AcDbEntity
  8
0
 62
   123
100
AcDbTrace
 10
200.2441834554774
 20
367.097219260647
 30
0.0
 11
200.2441834554774
 21
366.2638859273136
 31
0.0
 12
197.7441834554774
 22
366.6805525939803
 32
0.0
 13
197.7441834554774
 23
366.6805525939803
 33
0.0
  0
MTEXT
  5
4B3
330
4AB
100
AcDbEntity
  8
0
 62
     3
100
AcDbMText
 10
194.7441834554774
 20
369.1805525939803
 30
0.0
 40
3.0
 41
0.0
 71
     5
 72
     1
  1
\A1;6
1001
ACAD
1000
MTEXTBEGIN
1070
    73
1070
     1
1070
    44
1040
1.0
1070
    74
1070
     0
1000
MTEXTEND
  0
POINT
  5
4B4
330
4AB
100
AcDbEntity
  8
DEFPOINTS
 62
     0
100
AcDbPoint
 10
191.7441834554774
 20
311.6249490892946
 30
0.0
  0
POINT
  5
4B5
330
4AB
100
AcDbEntity
  8
DEFPOINTS
 62
     0
100
AcDbPoint
 10
197.7441834554774
 20
320.3249480892977
 30
0.0
  0
POINT
  5
4B6
330
4AB
100
AcDbEntity
  8
DEFPOINTS
 62
     0
100
AcDbPoint
 10
197.7441834554774
 20
366.6805525939803
 30
0.0
  0
ENDBLK
  5
4B8
330
4AB
100
AcDbEntity
  8
0
100
AcDbBlockEnd
  0
BLOCK
  5
4C3
330
4B9
100
AcDbEntity
  8
0
100
AcDbBlockBegin
  2
*D54
 70
     1
 10
0.0
 20
0.0
 30
0.0
  3
*D54
  1

  0
LINE
  5
4BA
330
4B9
100
AcDbEntity
  8
0
 62
   123
100
AcDbLine
 10
46.66360480874937
 20
320.6249490893642
 30
0.0
 11
46.66360480874937
 21
369.1346786847903
 31
0.0
  0
LINE
  5
4BB
330
4B9
100
AcDbEntity
  8
0
 62
   123
100
AcDbLine
 10
108.6636048087493
 20
320.6249490893642
 30
0.0
 11
108.6636048087493
 21
369.1346786847903
 31
0.0
  0
LINE
  5
4BC
330
4B9
100
AcDbEntity
  8
0
 62
   123
100
AcDbLine
 10
49.16360480874937
 20
368.5346786847903
 30
0.0
 11
106.1636048087493
 21
368.5346786847903
 31
0.0
  0
SOLID
  5
4BD
330
4B9
100
AcDbEntity
  8
0
 62
   123
100
AcDbTrace
 10
49.16360480874937
 20
368.951345351457
 30
0.0
 11
49.16360480874937
 21
368.1180120181236
 31
0.0
 12
46.66360480874937
 22
368.5346786847903
 32
0.0
 13
46.66360480874937
 23
368.5346786847903
 33
0.0
  0
SOLID
  5
4BE
330
4B9
100
AcDbEntity
  8
0
 62
   123
100
AcDbTrace
 10
106.1636048087493
 20
368.951345351457
 30
0.0
 11
106.1636048087493
 21
368.1180120181236
 31
0.0
 12
108.6636048087493
 22
368.5346786847903
 32
0.0
 13
108.6636048087493
 23
368.5346786847903
 33
0.0
  0
MTEXT
  5
4BF
330
4B9
100
AcDbEntity
  8
0
 62
     3
100
AcDbMText
 10
77.66360480874936
 20
371.0346786847903
 30
0.0
 40
3.0
 41
0.0
 71
     5
 72
     1
  1
\A1;62
1001
ACAD
1000
MTEXTBEGIN
1070
    73
1070
     1
1070
    44
1040
1.0
1070
    74
1070
     0
1000
MTEXTEND
  0
POINT
  5
4C0
330
4B9
100
AcDbEntity
  8
DEFPOINTS
 62
     0
100
AcDbPoint
 10
46.66360480874937
 20
319.6249490893642
 30
0.0
  0
POINT
  5
4C1
330
4B9
100
AcDbEntity
  8
DEFPOINTS
 62
     0
100
AcDbPoint
 10
108.6636048087493
 20
319.6249490893642
 30
0.0
  0
POINT
  5
4C2
330
4B9
100
AcDbEntity
  8
DEFPOINTS
 62
     0
100
AcDbPoint
 10
108.6636048087493
 20
368.5346786847903
 30
0.0
  0
ENDBLK
  5
4C4
330
4B9
100
AcDbEntity
  8
0
100
AcDbBlockEnd
  0
ENDSEC
  0
SECTION
  2
ENTITIES
  0
ARC
  5
9D
330
2
100
AcDbEntity
  8
0
100
AcDbCircle
 10
42.51919299127803
 20
255.4196600492305
 30
0.0
 40
3.067967999999998
100
AcDbArc
 50
321.9486744805936
 51
17.71980815279071
  0
CIRCLE
  5
9E
330
2
100
AcDbEntity
  8
0
100
AcDbCircle
 10
77.91087905986751
 20
266.6249490892951
 30
0.0
 40
20.0
  0
ARC
  5
9F
330
2
100
AcDbEntity
  8
0
100
AcDbCircle
 10
112.657087997848
 20
255.4196600492305
 30
0.0
 40
3.067967999999998
100
AcDbArc
 50
162.2801918472091
 51
218.0513255194063
  0
DIMENSION
  5
A0
102
{ACAD_XDICTIONARY
360
A1
102
}
102
{ACAD_REACTORS
330
A2
102
}
330
2
100
AcDbEntity
  8
0
100
AcDbDimension
  2
*D32
 10
318.4768411830992
 20
222.124949089295
 30
0.0
 11
318.4768411830991
 21
266.6249490892951
 31
0.0
 70
   160
  1
%%C<>
  3
STANDARD
100
AcDbAlignedDimension
 13
289.7441834554774
 23
311.1249490892951
 33
0.0
 14
289.7441834554774
 24
222.124949089295
 34
0.0
 50
90.0
100
AcDbRotatedDimension
  0
LINE
  5
B1
330
2
100
AcDbEntity
  8
CEN
100
AcDbLine
 10
77.66360480874936
 20
215.3573288710631
 30
0.0
 11
77.66360480874936
 21
360.8763737641243
 31
0.0
  0
DIMENSION
  5
B4
102
{ACAD_XDICTIONARY
360
B5
102
}
102
{ACAD_REACTORS
330
B6
102
}
330
2
100
AcDbEntity
  8
0
100
AcDbDimension
  2
*D31
 10
161.2524243371499
 20
225.1249490892951
 30
0.0
 11
161.2524243371499
 21
264.6056506487862
 31
0.0
 70
   160
  1
\A1;{\f??|b0|i0|c0|p49;%%c}<>{\f??|b0|i0|c0|p49;\H0.7x;\S+0^ -0.035;\H1.429x;(h7)}
  3
STANDARD
100
AcDbAlignedDimension
 13
189.7441834554774
 23
308.1249490892951
 33
0.0
 14
189.7441834554774
 24
225.1249490892951
 34
0.0
 50
90.0
100
AcDbRotatedDimension
  0
DIMENSION
  5
C3
102
{ACAD_XDICTIONARY
360
C4
102
}
102
{ACAD_REACTORS
330
C5
102
}
330
2
100
AcDbEntity
  8
0
100
AcDbDimension
  2
*D30
 10
191.7441834554774
 20
198.9861491287979
 30
0.0
 11
182.7441834554774
 21
198.9861491287979
 31
0.0
 70
   160
  3
STANDARD
100
AcDbAlignedDimension
 13
173.7441834554774
 23
263.3899490892945
 33
0.0
 14
191.7441834554774
 24
221.6249490892946
 34
0.0
100
AcDbRotatedDimension
  0
CIRCLE
  5
D2
330
2
100
AcDbEntity
  8
0
100
AcDbCircle
 10
77.66360480874936
 20
266.6249490892951
 30
0.0
 40
42.00000000000005
  0
CIRCLE
  5
D3
330
2
100
AcDbEntity
  8
0
100
AcDbCircle
 10
77.66360480874936
 20
266.6249490892951
 30
0.0
 40
43.5
  0
INSERT
  5
D4
330
2
100
AcDbEntity
  8
0
100
AcDbBlockReference
  2
4
 10
77.66360480874936
 20
266.6249490892951
 30
0.0
  0
LINE
  5
F5
102
{ACAD_REACTORS
330
B6
102
}
330
2
100
AcDbEntity
  8
0
100
AcDbLine
 10
189.7441834554774
 20
308.1249490892951
 30
0.0
 11
189.7441834554774
 21
225.1249490892951
 31
0.0
  0
LINE
  5
F6
330
2
100
AcDbEntity
  8
0
100
AcDbLine
 10
191.7441834554774
 20
311.6249490892946
 30
0.0
 11
191.7441834554774
 21
221.6249490892946
 31
0.0
  0
LINE
  5
F7
330
2
100
AcDbEntity
  8
0
100
AcDbLine
 10
295.7441834554774
 20
309.6249490892951
 30
0.0
 11
295.7441834554774
 21
223.6249490892951
 31
0.0
  0
LINE
  5
F8
330
2
100
AcDbEntity
  8
0
100
AcDbLine
 10
296.7441834554774
 20
308.6249490892951
 30
0.0
 11
296.7441834554774
 21
224.6249490892946
 31
0.0
  0
LINE
  5
F9
102
{ACAD_REACTORS
330
A2
102
}
330
2
100
AcDbEntity
  8
0
100
AcDbLine
 10
289.7441834554774
 20
222.124949089295
 30
0.0
 11
289.7441834554774
 21
311.1249490892951
 31
0.0
  0
LINE
  5
FA
330
2
100
AcDbEntity
  8
0
100
AcDbLine
 10
198.3441834554778
 20
313.6249480892966
 30
0.0
 11
198.3441834554778
 21
221.6249490892946
 31
0.0
  0
LINE
  5
FB
330
2
100
AcDbEntity
  8
0
100
AcDbLine
 10
303.1786319124676
 20
16.18018068602714
 30
0.0
 11
211.7786319124679
 21
16.18018068602714
 31
0.0
  0
DIMENSION
  5
FC
102
{ACAD_XDICTIONARY
360
FD
102
}
102
{ACAD_REACTORS
330
FE
102
}
330
2
100
AcDbEntity
  8
0
100
AcDbDimension
  2
*D35
 10
310.1786319124676
 20
-6.958619274467764
 30
0.0
 11
257.6786319124676
 21
-6.958619274467764
 31
0.0
 70
   160
  3
STANDARD
100
AcDbAlignedDimension
 13
205.1786319124675
 23
15.68018068602714
 33
0.0
 14
310.1786319124676
 24
18.68018068602714
 34
0.0
100
AcDbRotatedDimension
  0
LINE
  5
10B
330
2
100
AcDbEntity
  8
0
100
AcDbLine
 10
303.1786319124676
 20
105.1801806860271
 30
0.0
 11
211.7786319124679
 21
105.1801806860271
 31
0.0
  0
LINE
  5
10C
330
2
100
AcDbEntity
  8
CEN
100
AcDbLine
 10
318.2875316593508
 20
60.68018068602714
 30
0.0
 11
161.025221153628
 21
60.68018068602714
 31
0.0
  0
LINE
  5
10D
330
2
100
AcDbEntity
  8
CEN
 48
0.6
100
AcDbLine
 10
319.9590929124679
 20
130.680179686029
 30
0.0
 11
208.7499899593858
 21
130.680179686029
 31
0.0
  0
DIMENSION
  5
10E
102
{ACAD_XDICTIONARY
360
10F
102
}
102
{ACAD_REACTORS
330
110
102
}
330
2
100
AcDbEntity
  8
0
100
AcDbDimension
  2
*D34
 10
296.7441834554774
 20
198.9861491287979
 30
0.0
 11
244.2441834554774
 21
198.9861491287979
 31
0.0
 70
   160
  3
STANDARD
100
AcDbAlignedDimension
 13
191.7441834554774
 23
221.6249490892946
 33
0.0
 14
296.7441834554774
 24
224.6249490892946
 34
0.0
100
AcDbRotatedDimension
  0
LINE
  5
11D
330
2
100
AcDbEntity
  8
0
100
AcDbLine
 10
289.7441834554774
 20
222.124949089295
 30
0.0
 11
198.3441834554778
 21
222.124949089295
 31
0.0
  0
LINE
  5
11E
330
2
100
AcDbEntity
  8
0
100
AcDbLine
 10
284.3281719124679
 20
107.6801796860286
 30
0.0
 11
211.7786319124679
 21
107.6801796860286
 31
0.0
  0
DIMENSION
  5
11F
102
{ACAD_XDICTIONARY
360
120
102
}
102
{ACAD_REACTORS
330
121
102
}
330
2
100
AcDbEntity
  8
0
100
AcDbDimension
  2
*D33
 10
286.175298912467
 20
160.7357841907123
 30
0.0
 11
242.0785091552297
 21
160.7357841907123
 31
0.0
 70
   160
  3
STANDARD
100
AcDbAlignedDimension
 13
211.1786319124675
 23
114.3801796860293
 33
0.0
 14
286.175298912467
 24
145.680179686029
 34
0.0
100
AcDbRotatedDimension
  0
LINE
  5
12E
102
{ACAD_REACTORS
330
205
330
121
102
}
330
2
100
AcDbEntity
  8
0
100
AcDbLine
 10
286.175298912467
 20
114.3801796860293
 30
0.0
 11
211.1786319124675
 21
114.3801796860293
 31
0.0
  0
LINE
  5
12F
330
2
100
AcDbEntity
  8
0
100
AcDbLine
 10
286.175298912467
 20
113.6801796860286
 30
0.0
 11
211.2952989124678
 21
113.6801796860286
 31
0.0
  0
LINE
  5
130
330
2
100
AcDbEntity
  8
0
100
AcDbLine
 10
283.7036039124668
 20
148.680179686029
 30
0.0
 11
213.7653949124669
 21
148.680179686029
 31
0.0
  0
LINE
  5
131
330
2
100
AcDbEntity
  8
CEN
100
AcDbLine
 10
45.0
 20
9.412560467795628
 30
0.0
 11
45.0
 21
154.9316053608563
 31
0.0
  0
DIMENSION
  5
132
102
{ACAD_XDICTIONARY
360
133
102
}
102
{ACAD_REACTORS
330
134
102
}
330
2
100
AcDbEntity
  8
0
100
AcDbDimension
  2
*D37
 10
131.4261170719983
 20
19.18018068602716
 30
0.0
 11
131.4261170719983
 21
60.68018068602714
 31
0.0
 70
   160
  1
\A1;{\f??|b0|i0|c0|p49;%%c}<>{\f??|b0|i0|c0|p49;\H0.7x;\S+0^ -0.035;\H1.429x;(h7)}
  3
STANDARD
100
AcDbAlignedDimension
 13
203.1786319124676
 23
102.1801806860271
 33
0.0
 14
203.1786319124676
 24
19.18018068602714
 34
0.0
 50
90.0
100
AcDbRotatedDimension
  0
ARC
  5
141
330
2
100
AcDbEntity
  8
0
100
AcDbCircle
 10
44.92453568581732
 20
60.68018068602714
 30
0.0
 40
36.81561599999999
100
AcDbArc
 50
26.36567250325756
 51
63.63432749673943
  0
DIMENSION
  5
142
102
{ACAD_XDICTIONARY
360
143
102
}
102
{ACAD_REACTORS
330
144
102
}
330
2
100
AcDbEntity
  8
0
100
AcDbDimension
  2
*D36
 10
198.1786319124676
 20
87.14195519010127
 30
0.0
 11
182.633825954128
 21
87.14195519010127
 31
0.0
 70
   160
  3
STANDARD
100
AcDbAlignedDimension
 13
168.1786319124675
 23
64.68018068602714
 33
0.0
 14
198.1786319124676
 24
65.68018068602714
 34
0.0
100
AcDbRotatedDimension
  0
LINE
  5
151
330
2
100
AcDbEntity
  8
0
100
AcDbLine
 10
211.7786319124679
 20
107.6801796860286
 30
0.0
 11
211.7786319124679
 21
15.68018068602714
 31
0.0
  0
LINE
  5
152
102
{ACAD_REACTORS
330
134
102
}
330
2
100
AcDbEntity
  8
0
100
AcDbLine
 10
203.1786319124676
 20
102.1801806860271
 30
0.0
 11
203.1786319124676
 21
19.18018068602714
 31
0.0
  0
LINE
  5
153
330
2
100
AcDbEntity
  8
0
100
AcDbLine
 10
205.1786319124675
 20
105.6801806860271
 30
0.0
 11
205.1786319124675
 21
15.68018068602714
 31
0.0
  0
ARC
  5
154
330
2
100
AcDbEntity
  8
0
100
AcDbCircle
 10
44.92453568581732
 20
60.68018068602714
 30
0.0
 40
36.81561599999999
100
AcDbArc
 50
116.3656725032604
 51
153.6343274967423
  0
INSERT
  5
155
330
2
100
AcDbEntity
  8
0
100
AcDbBlockReference
  2
4
 10
44.92453568581732
 20
60.68018068602714
 30
0.0
  0
CIRCLE
  5
156
330
2
100
AcDbEntity
  8
0
100
AcDbCircle
 10
45.0
 20
60.68018068602714
 30
0.0
 40
20.0
  0
CIRCLE
  5
157
330
2
100
AcDbEntity
  8
0
100
AcDbCircle
 10
45.0
 20
60.68018068602714
 30
0.0
 40
42.00000000000005
  0
CIRCLE
  5
158
330
2
100
AcDbEntity
  8
0
100
AcDbCircle
 10
45.0
 20
60.68018068602714
 30
0.0
 40
43.5
  0
DIMENSION
  5
159
102
{ACAD_XDICTIONARY
360
15A
102
}
102
{ACAD_REACTORS
330
15B
102
}
330
2
100
AcDbEntity
  8
0
100
AcDbDimension
  2
*D43
 10
144.8913267804492
 20
65.68018068602715
 30
0.0
 11
144.8913267804491
 21
60.68018068602718
 31
0.0
 70
   160
  1
\A1;{\f??|b0|i0|c0|p49;%%c}<>{\f??|b0|i0|c0|p49;\H0.7x;\S+0^ -0.015;\H1.429x;(h7)}
  3
STANDARD
100
AcDbAlignedDimension
 13
168.1786319124675
 23
55.68018068602714
 33
0.0
 14
198.1786319124676
 24
65.68018068602714
 34
0.0
 50
90.0
100
AcDbRotatedDimension
  0
DIMENSION
  5
168
102
{ACAD_XDICTIONARY
360
169
102
}
102
{ACAD_REACTORS
330
16A
102
}
330
2
100
AcDbEntity
  8
0
100
AcDbDimension
  2
*D42
 10
153.914368528518
 20
64.68018068602716
 30
0.0
 11
153.914368528518
 21
60.18018068602714
 31
0.0
 70
   160
  3
STANDARD
100
AcDbAlignedDimension
 13
168.1786319124675
 23
55.68018068602714
 33
0.0
 14
168.1786319124675
 24
64.68018068602714
 34
0.0
 50
90.0
100
AcDbRotatedDimension
  0
ARC
  5
177
330
2
100
AcDbEntity
  8
0
100
AcDbCircle
 10
56.12982472587828
 20
25.61123318274439
 30
0.0
 40
3.067967999999998
100
AcDbArc
 50
51.9486744805834
 51
107.7198081528045
  0
ARC
  5
178
330
2
100
AcDbEntity
  8
0
100
AcDbCircle
 10
59.91181397391847
 20
30.44303076995811
 30
0.0
 40
3.067967999999998
100
AcDbArc
 50
231.9486744805834
 51
296.3656725032604
  0
ARC
  5
179
330
2
100
AcDbEntity
  8
0
100
AcDbCircle
 10
44.92453568581732
 20
60.68018068602714
 30
0.0
 40
33.74764799999999
100
AcDbArc
 50
252.2801918471953
 51
287.7198081528046
  0
LWPOLYLINE
  5
17A
330
2
100
AcDbEntity
  8
3
100
AcDbPolyline
 90
        4
 70
     1
 43
0.0
 10
37.96731818469925
 20
0.7473493907095872
 10
41.26731818469852
 20
0.7473493907095872
 10
41.26731818469852
 20
4.247349390708222
 10
37.96731818469925
 20
4.247349390708222
  0
ARC
  5
17C
330
2
100
AcDbEntity
  8
0
100
AcDbCircle
 10
85.24727425111814
 20
20.68018068609626
 30
0.0
 40
5.0
100
AcDbArc
 50
270.0
 51
0.0
  0
CIRCLE
  5
17D
330
2
100
AcDbEntity
  8
0
100
AcDbCircle
 10
45.0
 20
60.68018068602714
 30
0.0
 40
5.0
  0
LINE
  5
17E
330
2
100
AcDbEntity
  8
0
100
AcDbLine
 10
48.0
 20
64.68018068602941
 30
0.0
 11
42.0
 21
64.68018068602941
 31
0.0
  0
ARC
  5
17F
330
2
100
AcDbEntity
  8
0
100
AcDbCircle
 10
75.16168560187725
 20
75.66745897413056
 30
0.0
 40
3.067967999999998
100
AcDbArc
 50
321.9486744805936
 51
26.36567250325756
  0
ARC
  5
180
330
2
100
AcDbEntity
  8
0
100
AcDbCircle
 10
75.16168560187725
 20
45.69290239792417
 30
0.0
 40
3.067967999999998
100
AcDbArc
 50
333.6343274967423
 51
38.05132551940634
  0
ARC
  5
181
330
2
100
AcDbEntity
  8
0
100
AcDbCircle
 10
79.9934831890987
 20
49.47489164596209
 30
0.0
 40
3.067967999999998
100
AcDbArc
 50
162.2801918472091
 51
218.0513255194063
  0
ARC
  5
182
330
2
100
AcDbEntity
  8
0
100
AcDbCircle
 10
44.92453568581732
 20
60.68018068602714
 30
0.0
 40
33.74764799999999
100
AcDbArc
 50
342.2801918472092
 51
17.71980815279071
  0
ARC
  5
183
330
2
100
AcDbEntity
  8
0
100
AcDbCircle
 10
79.9934831890987
 20
71.88546972609038
 30
0.0
 40
3.067967999999998
100
AcDbArc
 50
141.9486744805935
 51
197.7198081527907
  0
ARC
  5
184
330
2
100
AcDbEntity
  8
0
100
AcDbCircle
 10
44.92453568581732
 20
60.68018068602714
 30
0.0
 40
36.81561599999999
100
AcDbArc
 50
296.3656725032604
 51
333.6343274967423
  0
LINE
  5
185
330
2
100
AcDbEntity
  8
0
100
AcDbLine
 10
212.6786319124676
 20
24.7814433444978
 30
0.0
 11
212.6786319124676
 21
17.08144334449889
 31
0.0
  0
LINE
  5
186
102
{ACAD_REACTORS
330
18C
102
}
330
2
100
AcDbEntity
  8
0
100
AcDbLine
 10
211.7786319124679
 20
17.08144334449889
 30
0.0
 11
212.6786319124676
 21
17.08144334449889
 31
0.0
  0
LINE
  5
187
330
2
100
AcDbEntity
  8
0
100
AcDbLine
 10
211.7786319124679
 20
24.7814433444978
 30
0.0
 11
212.6786319124676
 21
24.7814433444978
 31
0.0
  0
LINE
  5
188
102
{ACAD_REACTORS
330
19B
102
}
330
2
100
AcDbEntity
  8
0
100
AcDbLine
 10
205.1786319124675
 20
19.18018068602714
 30
0.0
 11
203.1786319124676
 21
19.18018068602714
 31
0.0
  0
LINE
  5
189
102
{ACAD_REACTORS
330
FE
330
18C
330
19B
330
1B1
102
}
330
2
100
AcDbEntity
  8
0
100
AcDbLine
 10
205.1786319124675
 20
15.68018068602714
 30
0.0
 11
211.7786319124679
 21
15.68018068602714
 31
0.0
  0
DIMENSION
  5
18A
102
{ACAD_XDICTIONARY
360
18B
102
}
102
{ACAD_REACTORS
330
18C
102
}
330
2
100
AcDbEntity
  8
0
100
AcDbDimension
  2
*D41
 10
212.6786319124676
 20
2.40556835199095
 30
0.0
 11
208.9286319124675
 21
2.40556835199095
 31
0.0
 70
   160
  3
STANDARD
100
AcDbAlignedDimension
 13
205.1786319124675
 23
15.68018068602714
 33
0.0
 14
212.6786319124676
 24
17.08144334449889
 34
0.0
100
AcDbRotatedDimension
  0
DIMENSION
  5
199
102
{ACAD_XDICTIONARY
360
19A
102
}
102
{ACAD_REACTORS
330
19B
102
}
330
2
100
AcDbEntity
  8
0
100
AcDbDimension
  2
*D40
 10
205.1786319124675
 20
2.40556835199095
 30
0.0
 11
194.1786319124675
 21
2.40556835199095
 31
0.0
 70
   160
  3
STANDARD
100
AcDbAlignedDimension
 13
203.1786319124676
 23
19.18018068602714
 33
0.0
 14
205.1786319124675
 24
15.68018068602714
 34
0.0
100
AcDbRotatedDimension
  0
LINE
  5
1AA
102
{ACAD_REACTORS
330
144
330
15B
102
}
330
2
100
AcDbEntity
  8
CL
  6
BYBLOCK
 62
     0
100
AcDbLine
 10
203.1786319124676
 20
65.68018068602714
 30
0.0
 11
198.1786319124676
 21
65.68018068602714
 31
0.0
  0
LINE
  5
1AB
102
{ACAD_REACTORS
330
16A
330
15B
102
}
330
2
100
AcDbEntity
  8
CL
  6
BYBLOCK
 62
     0
100
AcDbLine
 10
203.1786319124676
 20
55.68018068602714
 30
0.0
 11
168.1786319124675
 21
55.68018068602714
 31
0.0
  0
LINE
  5
1AC
330
2
100
AcDbEntity
  8
0
100
AcDbLine
 10
198.1786319124676
 20
65.68018068602714
 30
0.0
 11
198.1786319124676
 21
64.68018068602714
 31
0.0
  0
LINE
  5
1AD
330
2
100
AcDbEntity
  8
0
100
AcDbLine
 10
168.1786319124675
 20
64.68018068602714
 30
0.0
 11
168.1786319124675
 21
55.68018068602714
 31
0.0
  0
LINE
  5
1AE
102
{ACAD_REACTORS
330
144
330
16A
102
}
330
2
100
AcDbEntity
  8
CL
  6
BYBLOCK
 62
     0
100
AcDbLine
 10
198.1786319124676
 20
64.68018068602714
 30
0.0
 11
168.1786319124675
 21
64.68018068602714
 31
0.0
  0
DIMENSION
  5
1AF
102
{ACAD_XDICTIONARY
360
1B0
102
}
102
{ACAD_REACTORS
330
1B1
102
}
330
2
100
AcDbEntity
  8
0
100
AcDbDimension
  2
*D39
 10
205.1786319124675
 20
-6.958619274467764
 30
0.0
 11
196.1786319124676
 21
-6.958619274467764
 31
0.0
 70
   160
  3
STANDARD
100
AcDbAlignedDimension
 13
168.1786319124675
 23
55.68018068602714
 33
0.0
 14
205.1786319124675
 24
15.68018068602714
 34
0.0
100
AcDbRotatedDimension
  0
ARC
  5
1BE
330
2
100
AcDbEntity
  8
0
100
AcDbCircle
 10
33.71924664574908
 20
25.61123318274439
 30
0.0
 40
3.067967999999998
100
AcDbArc
 50
72.28019184719541
 51
128.0513255194166
  0
MTEXT
  5
1BF
102
{ACAD_REACTORS
330
1C0
102
}
330
2
100
AcDbEntity
  8
0
 62
     3
100
AcDbMText
 10
97.28149761671739
 20
3.735732974208076
 30
0.0
 40
3.0
 41
0.0
 71
     4
 72
     1
  1
4-%%C6.5 hole
1001
ACAD
1000
MTEXTBEGIN
1070
    73
1070
     1
1070
    44
1040
1.0
1070
    74
1070
     0
1000
MTEXTEND
  0
LEADER
  5
1C0
330
2
100
AcDbEntity
  8
0
100
AcDbLeader
  3
STANDARD
 73
     0
 74
     0
 75
     1
 40
3.0
 41
26.65178571428571
 76
     3
 10
82.75124725531895
 20
21.04654257849642
 30
0.0
 10
93.78149761671739
 20
1.235732974208075
 30
0.0
 10
96.28149761671739
 20
1.235732974208075
 30
0.0
340
1BF
1001
ACAD
1000
DSTYLE
1002
{
1070
     5
1000

1070
    77
1070
     1
1070
   147
1040
1.0
1070
   342
1005
0
1002
}
  0
ARC
  5
1C1
330
2
100
AcDbEntity
  8
0
100
AcDbCircle
 10
14.6873857697501
 20
75.66745897413056
 30
0.0
 40
3.067967999999998
100
AcDbArc
 50
153.6343274967423
 51
218.0513255194063
  0
ARC
  5
1C2
330
2
100
AcDbEntity
  8
0
100
AcDbCircle
 10
14.6873857697501
 20
45.69290239792417
 30
0.0
 40
3.067967999999998
100
AcDbArc
 50
141.9486744805935
 51
206.3656725032576
  0
ARC
  5
1C3
330
2
100
AcDbEntity
  8
0
100
AcDbCircle
 10
9.855588182528663
 20
49.47489164596209
 30
0.0
 40
3.067967999999998
100
AcDbArc
 50
321.9486744805936
 51
17.71980815279071
  0
ARC
  5
1C4
330
2
100
AcDbEntity
  8
0
100
AcDbCircle
 10
44.92453568581732
 20
60.68018068602714
 30
0.0
 40
33.74764799999999
100
AcDbArc
 50
162.2801918472091
 51
197.7198081527907
  0
ARC
  5
1C5
330
2
100
AcDbEntity
  8
0
100
AcDbCircle
 10
9.855588182528663
 20
71.88546972609038
 30
0.0
 40
3.067967999999998
100
AcDbArc
 50
342.2801918472092
 51
38.05132551940634
  0
ARC
  5
1C6
330
2
100
AcDbEntity
  8
0
100
AcDbCircle
 10
44.92453568581732
 20
60.68018068602714
 30
0.0
 40
36.81561599999999
100
AcDbArc
 50
206.3656725032576
 51
243.6343274967394
  0
ARC
  5
1C7
330
2
100
AcDbEntity
  8
0
100
AcDbCircle
 10
29.93725739770889
 20
30.44303076995811
 30
0.0
 40
3.067967999999998
100
AcDbArc
 50
243.6343274967394
 51
308.0513255194166
  0
DIMENSION
  5
1C8
330
2
100
AcDbEntity
  8
0
100
AcDbDimension
  2
*D38
 10
90.0
 20
0.0
 30
0.0
 11
45.0
 21
0.0
 31
0.0
 70
   160
  3
STANDARD
100
AcDbAlignedDimension
 13
0.0
 23
19.68018068602714
 33
0.0
 14
90.0
 24
19.68018068602714
 34
0.0
100
AcDbRotatedDimension
  0
LINE
  5
1D5
330
2
100
AcDbEntity
  8
CEN
100
AcDbLine
 10
-4.253276214400102
 20
60.68018068602714
 30
0.0
 11
94.25327621438738
 21
60.68018068602714
 31
0.0
  0
ARC
  5
1D6
330
2
100
AcDbEntity
  8
0
100
AcDbCircle
 10
107.8252904106266
 20
251.6376708011916
 30
0.0
 40
3.067967999999998
100
AcDbArc
 50
333.6343274967423
 51
38.05132551940634
  0
ARC
  5
1D7
330
2
100
AcDbEntity
  8
0
100
AcDbCircle
 10
47.35099057850129
 20
251.6376708011916
 30
0.0
 40
3.067967999999998
100
AcDbArc
 50
141.9486744805935
 51
206.3656725032576
  0
ARC
  5
1D8
330
2
100
AcDbEntity
  8
0
100
AcDbCircle
 10
66.38285145449845
 20
231.5560015860114
 30
0.0
 40
3.067967999999998
100
AcDbArc
 50
72.28019184719541
 51
128.0513255194166
  0
ARC
  5
1D9
330
2
100
AcDbEntity
  8
0
100
AcDbCircle
 10
62.60086220646008
 20
236.3877991732265
 30
0.0
 40
3.067967999999998
100
AcDbArc
 50
243.6343274967394
 51
308.0513255194166
  0
LWPOLYLINE
  5
1DA
330
2
100
AcDbEntity
  8
3
100
AcDbPolyline
 90
        4
 70
     1
 43
0.0
 10
70.63092299344862
 20
206.6921177939766
 10
73.93092299344971
 20
206.6921177939766
 10
73.93092299344971
 20
210.1921177939766
 10
70.63092299344862
 20
210.1921177939766
  0
ARC
  5
1DB
330
2
100
AcDbEntity
  8
0
100
AcDbCircle
 10
88.79342953462765
 20
231.5560015860114
 30
0.0
 40
3.067967999999998
100
AcDbArc
 50
51.9486744805834
 51
107.7198081528045
  0
ARC
  5
1DC
330
2
100
AcDbEntity
  8
0
100
AcDbCircle
 10
77.58814049456669
 20
266.6249490892951
 30
0.0
 40
33.74764799999999
100
AcDbArc
 50
252.2801918471953
 51
287.7198081528046
  0
ARC
  5
1DD
330
2
100
AcDbEntity
  8
0
100
AcDbCircle
 10
92.57541878266783
 20
236.3877991732265
 30
0.0
 40
3.067967999999998
100
AcDbArc
 50
231.9486744805834
 51
296.3656725032604
  0
DIMENSION
  5
1DE
102
{ACAD_XDICTIONARY
360
1DF
102
}
102
{ACAD_REACTORS
330
1E0
102
}
330
2
100
AcDbEntity
  8
0
100
AcDbDimension
  2
*D47
 10
199.2441834554774
 20
208.350336755257
 30
0.0
 11
195.4941834554774
 21
208.350336755257
 31
0.0
 70
   160
  3
STANDARD
100
AcDbAlignedDimension
 13
191.7441834554774
 23
221.6249490892946
 33
0.0
 14
199.2441834554774
 24
223.0262117477664
 34
0.0
100
AcDbRotatedDimension
  0
LINE
  5
1ED
102
{ACAD_REACTORS
330
110
330
1E0
330
1F0
330
C5
102
}
330
2
100
AcDbEntity
  8
0
100
AcDbLine
 10
191.7441834554774
 20
221.6249490892946
 30
0.0
 11
198.3441834554778
 21
221.6249490892946
 31
0.0
  0
DIMENSION
  5
1EE
102
{ACAD_XDICTIONARY
360
1EF
102
}
102
{ACAD_REACTORS
330
1F0
102
}
330
2
100
AcDbEntity
  8
0
100
AcDbDimension
  2
*D46
 10
191.7441834554774
 20
208.350336755257
 30
0.0
 11
180.7441834554774
 21
208.350336755257
 31
0.0
 70
   160
  3
STANDARD
100
AcDbAlignedDimension
 13
189.7441834554774
 23
225.1249490892951
 33
0.0
 14
191.7441834554774
 24
221.6249490892946
 34
0.0
100
AcDbRotatedDimension
  0
LINE
  5
1FF
102
{ACAD_REACTORS
330
1F0
102
}
330
2
100
AcDbEntity
  8
0
100
AcDbLine
 10
191.7441834554774
 20
225.1249490892951
 30
0.0
 11
189.7441834554774
 21
225.1249490892951
 31
0.0
  0
LINE
  5
200
330
2
100
AcDbEntity
  8
0
100
AcDbLine
 10
199.2441834554774
 20
230.7262117477648
 30
0.0
 11
199.2441834554774
 21
223.0262117477664
 31
0.0
  0
LINE
  5
201
102
{ACAD_REACTORS
330
1E0
102
}
330
2
100
AcDbEntity
  8
0
100
AcDbLine
 10
198.3441834554778
 20
223.0262117477664
 30
0.0
 11
199.2441834554774
 21
223.0262117477664
 31
0.0
  0
LINE
  5
202
330
2
100
AcDbEntity
  8
0
100
AcDbLine
 10
198.3441834554778
 20
230.7262117477648
 30
0.0
 11
199.2441834554774
 21
230.7262117477648
 31
0.0
  0
DIMENSION
  5
203
102
{ACAD_XDICTIONARY
360
204
102
}
102
{ACAD_REACTORS
330
205
102
}
330
2
100
AcDbEntity
  8
0
100
AcDbDimension
  2
*D45
 10
211.1786319124675
 20
160.7357841907123
 30
0.0
 11
208.1786319124676
 21
160.7357841907123
 31
0.0
 70
   160
  3
STANDARD
100
AcDbAlignedDimension
 13
205.1786319124675
 23
105.6801806860271
 33
0.0
 14
211.1786319124675
 24
114.3801796860293
 34
0.0
100
AcDbRotatedDimension
  0
LINE
  5
214
330
2
100
AcDbEntity
  8
0
100
AcDbLine
 10
211.2952989124678
 20
113.6801796860286
 30
0.0
 11
212.2952989124678
 21
107.6801796860286
 31
0.0
  0
ARC
  5
215
330
2
100
AcDbEntity
  8
0
100
AcDbCircle
 10
56.12982472587828
 20
95.74912818931034
 30
0.0
 40
3.067967999999998
100
AcDbArc
 50
252.2801918471953
 51
308.0513255194166
  0
ARC
  5
216
330
2
100
AcDbEntity
  8
0
100
AcDbCircle
 10
59.91181397391847
 20
90.91733060209618
 30
0.0
 40
3.067967999999998
100
AcDbArc
 50
63.63432749673943
 51
128.0513255194166
  0
ARC
  5
217
330
2
100
AcDbEntity
  8
0
100
AcDbCircle
 10
44.92453568581732
 20
60.68018068602714
 30
0.0
 40
33.74764799999999
100
AcDbArc
 50
72.28019184719541
 51
107.7198081528045
  0
LINE
  5
218
330
2
100
AcDbEntity
  8
0
100
AcDbLine
 10
268.2952989124678
 20
95.84489802755753
 30
0.0
 11
211.7786319124679
 21
95.84489802755433
 31
0.0
  0
LINE
  5
219
330
2
100
AcDbEntity
  8
0
100
AcDbLine
 10
211.7786319124679
 20
104.2789180275549
 30
0.0
 11
212.6786319124676
 21
104.2789180275549
 31
0.0
  0
LINE
  5
21A
330
2
100
AcDbEntity
  8
0
100
AcDbLine
 10
211.7786319124679
 20
96.5789180275574
 30
0.0
 11
212.6786319124676
 21
96.5789180275574
 31
0.0
  0
LINE
  5
21B
330
2
100
AcDbEntity
  8
0
100
AcDbLine
 10
212.6786319124676
 20
96.5789180275574
 30
0.0
 11
212.6786319124676
 21
104.2789180275549
 31
0.0
  0
LINE
  5
21C
330
2
100
AcDbEntity
  8
0
100
AcDbLine
 10
205.1786319124675
 20
102.1801806860271
 30
0.0
 11
203.1786319124676
 21
102.1801806860271
 31
0.0
  0
LINE
  5
21D
330
2
100
AcDbEntity
  8
0
100
AcDbLine
 10
205.1786319124675
 20
105.6801806860271
 30
0.0
 11
211.7786319124679
 21
105.6801806860271
 31
0.0
  0
LINE
  5
21E
330
2
100
AcDbEntity
  8
0
100
AcDbLine
 10
268.2952989124678
 20
106.1801796860286
 30
0.0
 11
268.2952989124678
 21
95.84489802755433
 31
0.0
  0
ARC
  5
21F
330
2
100
AcDbEntity
  8
0
100
AcDbCircle
 10
269.7952989124678
 20
106.1801796860286
 30
0.0
 40
1.5
100
AcDbArc
 50
90.0
 51
180.0
  0
LINE
  5
220
330
2
100
AcDbEntity
  8
0
100
AcDbLine
 10
211.1786319124675
 20
114.3801796860293
 30
0.0
 11
213.266343912468
 21
148.2109766860285
 31
0.0
  0
LINE
  5
221
330
2
100
AcDbEntity
  8
0
100
AcDbLine
 10
211.9952989124685
 20
114.3801796860293
 30
0.0
 11
211.9952989124685
 21
113.6801796860286
 31
0.0
  0
ARC
  5
222
330
2
100
AcDbEntity
  8
0
100
AcDbCircle
 10
213.7653949124669
 20
148.1801796860286
 30
0.0
 40
0.5
100
AcDbArc
 50
90.0
 51
176.4687330000435
  0
DIMENSION
  5
223
330
2
100
AcDbEntity
  8
0
100
AcDbDimension
  2
*D44
 10
122.9108790598675
 20
205.9447684032675
 30
0.0
 11
77.66360480874936
 21
205.9447684032675
 31
0.0
 70
   160
  3
STANDARD
100
AcDbAlignedDimension
 13
32.91087905986751
 23
226.6249490893642
 33
0.0
 14
122.9108790598675
 24
226.6249490893642
 34
0.0
100
AcDbRotatedDimension
  0
ARC
  5
230
330
2
100
AcDbEntity
  8
0
100
AcDbCircle
 10
33.71924664574908
 20
95.74912818931034
 30
0.0
 40
3.067967999999998
100
AcDbArc
 50
231.9486744805834
 51
287.7198081528046
  0
MTEXT
  5
231
102
{ACAD_REACTORS
330
232
102
}
330
2
100
AcDbEntity
  8
0
 62
     3
100
AcDbMText
 10
129.9451024254685
 20
209.6805013774751
 30
0.0
 40
3.0
 41
0.0
 71
     4
 72
     1
  1
4-%%C6.5 hole
1001
ACAD
1000
MTEXTBEGIN
1070
    73
1070
     1
1070
    44
1040
1.0
1070
    74
1070
     0
1000
MTEXTEND
  0
LEADER
  5
232
330
2
100
AcDbEntity
  8
0
100
AcDbLeader
  3
STANDARD
 73
     0
 74
     0
 75
     1
 40
3.0
 41
26.65178571428571
 76
     3
 10
115.4148520640701
 20
226.9913109817639
 30
0.0
 10
126.4451024254685
 20
207.1805013774751
 30
0.0
 10
128.9451024254685
 20
207.1805013774751
 30
0.0
340
231
1001
ACAD
1000
DSTYLE
1002
{
1070
     5
1000

1070
    77
1070
     1
1070
   147
1040
1.0
1070
   342
1005
0
1002
}
  0
ARC
  5
233
330
2
100
AcDbEntity
  8
0
100
AcDbCircle
 10
29.93725739770889
 20
90.91733060209618
 30
0.0
 40
3.067967999999998
100
AcDbArc
 50
51.9486744805834
 51
116.3656725032604
  0
INSERT
  5
234
330
2
100
AcDbEntity
  8
0
100
AcDbBlockReference
  2
T
 10
44.92453568591009
 20
105.6801806860271
 30
0.0
  0
ARC
  5
26A
330
2
100
AcDbEntity
  8
0
100
AcDbCircle
 10
77.58814049456669
 20
266.6249490892951
 30
0.0
 40
36.81561599999999
100
AcDbArc
 50
206.3656725032576
 51
243.6343274967394
  0
ARC
  5
26B
330
2
100
AcDbEntity
  8
0
100
AcDbCircle
 10
77.58814049456669
 20
266.6249490892951
 30
0.0
 40
36.81561599999999
100
AcDbArc
 50
296.3656725032604
 51
333.6343274967423
  0
LINE
  5
26C
330
2
100
AcDbEntity
  8
0
100
AcDbLine
 10
310.1786319124676
 20
102.6801806860271
 30
0.0
 11
310.1786319124676
 21
18.68018068602714
 31
0.0
  0
LINE
  5
26D
102
{ACAD_REACTORS
330
270
102
}
330
2
100
AcDbEntity
  8
0
100
AcDbLine
 10
303.1786319124676
 20
16.18018068602714
 30
0.0
 11
303.1786319124676
 21
105.1801806860271
 31
0.0
  0
DIMENSION
  5
26E
102
{ACAD_XDICTIONARY
360
26F
102
}
102
{ACAD_REACTORS
330
270
102
}
330
2
100
AcDbEntity
  8
0
100
AcDbDimension
  2
*D48
 10
330.0822554517762
 20
16.18018068602713
 30
0.0
 11
330.0822554517762
 21
60.68018068602714
 31
0.0
 70
   160
  1
%%C<>
  3
STANDARD
100
AcDbAlignedDimension
 13
303.1786319124676
 23
105.1801806860271
 33
0.0
 14
303.1786319124676
 24
16.18018068602714
 34
0.0
 50
90.0
100
AcDbRotatedDimension
  0
LINE
  5
27D
330
2
100
AcDbEntity
  8
0
100
AcDbLine
 10
309.1786319124675
 20
103.6801806860271
 30
0.0
 11
309.1786319124675
 21
17.68018068602714
 31
0.0
  0
LINE
  5
27E
330
2
100
AcDbEntity
  8
0
100
AcDbLine
 10
309.1786319124675
 20
17.68018068602714
 30
0.0
 11
303.1786319124676
 21
17.68018068602714
 31
0.0
  0
LINE
  5
27F
102
{ACAD_REACTORS
330
FE
102
}
330
2
100
AcDbEntity
  8
0
100
AcDbLine
 10
310.1786319124676
 20
18.68018068602714
 30
0.0
 11
309.1786319124675
 21
17.68018068602714
 31
0.0
  0
LINE
  5
280
330
2
100
AcDbEntity
  8
0
100
AcDbLine
 10
305.675298912467
 20
125.6801796860286
 30
0.0
 11
297.175298912467
 21
125.6801796860286
 31
0.0
  0
LINE
  5
281
330
2
100
AcDbEntity
  8
0
100
AcDbLine
 10
305.675298912467
 20
117.6801796860286
 30
0.0
 11
297.175298912467
 21
117.6801796860286
 31
0.0
  0
LINE
  5
282
330
2
100
AcDbEntity
  8
0
100
AcDbLine
 10
307.175298912467
 20
118.6801796860286
 30
0.0
 11
297.175298912467
 21
118.6801796860286
 31
0.0
  0
LINE
  5
283
330
2
100
AcDbEntity
  8
0
100
AcDbLine
 10
305.675298912467
 20
123.680179686029
 30
0.0
 11
297.175298912467
 21
123.680179686029
 31
0.0
  0
LINE
  5
284
330
2
100
AcDbEntity
  8
0
100
AcDbLine
 10
306.0930249124685
 20
122.9801796860288
 30
0.0
 11
297.175298912467
 21
122.9801796860288
 31
0.0
  0
LINE
  5
285
330
2
100
AcDbEntity
  8
0
100
AcDbLine
 10
306.473906912468
 20
127.180179686029
 30
0.0
 11
297.175298912467
 21
127.180179686029
 31
0.0
  0
DIMENSION
  5
286
102
{ACAD_XDICTIONARY
360
287
102
}
102
{ACAD_REACTORS
330
288
102
}
330
2
100
AcDbEntity
  8
0
100
AcDbDimension
  2
*D49
 10
314.175298912467
 20
160.7192131702013
 30
0.0
 11
300.175298912467
 21
160.7192131702013
 31
0.0
 70
   160
  1
MAX. <>
  3
STANDARD
100
AcDbAlignedDimension
 13
286.175298912467
 23
145.680179686029
 33
0.0
 14
314.175298912467
 24
137.680179686029
 34
0.0
100
AcDbRotatedDimension
  0
LINE
  5
295
330
2
100
AcDbEntity
  8
0
100
AcDbLine
 10
305.675298912467
 20
143.6801796860286
 30
0.0
 11
297.175298912467
 21
143.6801796860286
 31
0.0
  0
LINE
  5
296
330
2
100
AcDbEntity
  8
0
100
AcDbLine
 10
307.175298912467
 20
142.6801796860286
 30
0.0
 11
297.175298912467
 21
142.6801796860286
 31
0.0
  0
LINE
  5
297
330
2
100
AcDbEntity
  8
0
100
AcDbLine
 10
305.675298912467
 20
135.6801796860286
 30
0.0
 11
297.175298912467
 21
135.6801796860286
 31
0.0
  0
LINE
  5
298
330
2
100
AcDbEntity
  8
0
100
AcDbLine
 10
305.675298912467
 20
137.680179686029
 30
0.0
 11
297.175298912467
 21
137.680179686029
 31
0.0
  0
LINE
  5
299
330
2
100
AcDbEntity
  8
0
100
AcDbLine
 10
306.0930249124685
 20
138.3801796860293
 30
0.0
 11
297.175298912467
 21
138.3801796860293
 31
0.0
  0
LINE
  5
29A
330
2
100
AcDbEntity
  8
0
100
AcDbLine
 10
306.473906912468
 20
134.1801796860286
 30
0.0
 11
297.175298912467
 21
134.1801796860286
 31
0.0
  0
LINE
  5
29B
102
{ACAD_REACTORS
330
110
102
}
330
2
100
AcDbEntity
  8
0
100
AcDbLine
 10
296.7441834554774
 20
224.6249490892946
 30
0.0
 11
295.7441834554774
 21
223.6249490892951
 31
0.0
  0
LINE
  5
29C
330
2
100
AcDbEntity
  8
0
100
AcDbLine
 10
295.7441834554774
 20
223.6249490892951
 30
0.0
 11
289.7441834554774
 21
223.6249490892951
 31
0.0
  0
ARC
  5
29D
330
2
100
AcDbEntity
  8
0
100
AcDbCircle
 10
284.3281719124679
 20
108.680179686029
 30
0.0
 40
1.0
100
AcDbArc
 50
270.0
 51
350.5376779999607
  0
LINE
  5
29E
102
{ACAD_REACTORS
330
288
102
}
330
2
100
AcDbEntity
  8
0
100
AcDbLine
 10
286.175298912467
 20
145.680179686029
 30
0.0
 11
286.175298912467
 21
114.3801796860293
 31
0.0
  0
LINE
  5
29F
330
2
100
AcDbEntity
  8
0
100
AcDbLine
 10
286.175298912467
 20
114.3801796860293
 30
0.0
 11
284.2027569124675
 21
148.2092846860286
 31
0.0
  0
LINE
  5
2A0
330
2
100
AcDbEntity
  8
0
100
AcDbLine
 10
297.175298912467
 20
143.6801796860286
 30
0.0
 11
297.175298912467
 21
117.6801796860286
 31
0.0
  0
LINE
  5
2A1
330
2
100
AcDbEntity
  8
0
100
AcDbLine
 10
291.175298912467
 20
143.6801796860286
 30
0.0
 11
291.175298912467
 21
117.6801796860286
 31
0.0
  0
LINE
  5
2A2
330
2
100
AcDbEntity
  8
0
100
AcDbLine
 10
297.175298912467
 20
121.6801796860286
 30
0.0
 11
291.175298912467
 21
121.6801796860286
 31
0.0
  0
LINE
  5
2A3
330
2
100
AcDbEntity
  8
0
100
AcDbLine
 10
297.175298912467
 20
120.680179686029
 30
0.0
 11
291.175298912467
 21
120.680179686029
 31
0.0
  0
LINE
  5
2A4
330
2
100
AcDbEntity
  8
0
100
AcDbLine
 10
291.175298912467
 20
117.6801796860286
 30
0.0
 11
286.175298912467
 21
117.6801796860286
 31
0.0
  0
LINE
  5
2A5
330
2
100
AcDbEntity
  8
0
100
AcDbLine
 10
291.175298912467
 20
122.6801796860286
 30
0.0
 11
286.175298912467
 21
122.6801796860286
 31
0.0
  0
LINE
  5
2A6
330
2
100
AcDbEntity
  8
0
100
AcDbLine
 10
291.175298912467
 20
125.180179686029
 30
0.0
 11
286.175298912467
 21
125.180179686029
 31
0.0
  0
LINE
  5
2A7
330
2
100
AcDbEntity
  8
0
100
AcDbLine
 10
285.4752989124681
 20
114.3801796860293
 30
0.0
 11
285.4752989124681
 21
113.6801796860286
 31
0.0
  0
LINE
  5
2A8
330
2
100
AcDbEntity
  8
0
100
AcDbLine
 10
286.175298912467
 20
113.6801796860286
 30
0.0
 11
285.3145659124675
 21
108.5157806860292
 31
0.0
  0
LINE
  5
2A9
330
2
100
AcDbEntity
  8
0
100
AcDbLine
 10
297.175298912467
 20
139.6801796860286
 30
0.0
 11
291.175298912467
 21
139.6801796860286
 31
0.0
  0
LINE
  5
2AA
330
2
100
AcDbEntity
  8
0
100
AcDbLine
 10
297.175298912467
 20
140.680179686029
 30
0.0
 11
291.175298912467
 21
140.680179686029
 31
0.0
  0
ARC
  5
2AB
330
2
100
AcDbEntity
  8
0
100
AcDbCircle
 10
283.7036039124668
 20
148.1801796860286
 30
0.0
 40
0.5
100
AcDbArc
 50
3.337083000037623
 51
90.0
  0
LINE
  5
2AC
330
2
100
AcDbEntity
  8
0
100
AcDbLine
 10
291.175298912467
 20
136.180179686029
 30
0.0
 11
286.175298912467
 21
136.180179686029
 31
0.0
  0
LINE
  5
2AD
330
2
100
AcDbEntity
  8
0
100
AcDbLine
 10
291.175298912467
 20
138.6801796860286
 30
0.0
 11
286.175298912467
 21
138.6801796860286
 31
0.0
  0
LINE
  5
2AE
330
2
100
AcDbEntity
  8
0
100
AcDbLine
 10
291.175298912467
 20
143.6801796860286
 30
0.0
 11
286.175298912467
 21
143.6801796860286
 31
0.0
  0
LINE
  5
2AF
102
{ACAD_REACTORS
330
121
102
}
330
2
100
AcDbEntity
  8
0
100
AcDbLine
 10
286.175298912467
 20
145.680179686029
 30
0.0
 11
284.8219209124672
 21
145.680179686029
 31
0.0
  0
ARC
  5
2B0
330
2
100
AcDbEntity
  8
0
100
AcDbCircle
 10
284.8219209124672
 20
146.180179686029
 30
0.0
 40
0.5
100
AcDbArc
 50
183.3370830000376
 51
270.0
  0
LINE
  5
2B1
330
2
100
AcDbEntity
  8
0
100
AcDbLine
 10
309.1786319124675
 20
103.6801806860271
 30
0.0
 11
303.1786319124676
 21
103.6801806860271
 31
0.0
  0
LINE
  5
2B2
330
2
100
AcDbEntity
  8
0
100
AcDbLine
 10
310.1786319124676
 20
102.6801806860271
 30
0.0
 11
309.1786319124675
 21
103.6801806860271
 31
0.0
  0
ARC
  5
2B3
330
2
100
AcDbEntity
  8
0
100
AcDbCircle
 10
298.0919659124683
 20
130.680179686029
 30
0.0
 40
9.083332999999999
100
AcDbArc
 50
326.601511999943
 51
33.398488000057
  0
LINE
  5
2B4
330
2
100
AcDbEntity
  8
0
100
AcDbLine
 10
307.175298912467
 20
142.6801796860286
 30
0.0
 11
307.175298912467
 21
118.6801796860286
 31
0.0
  0
LINE
  5
2B5
102
{ACAD_REACTORS
330
288
102
}
330
2
100
AcDbEntity
  8
0
100
AcDbLine
 10
314.175298912467
 20
137.680179686029
 30
0.0
 11
314.175298912467
 21
123.680179686029
 31
0.0
  0
ARC
  5
2B6
330
2
100
AcDbEntity
  8
0
100
AcDbCircle
 10
307.675298912467
 20
125.3801796860293
 30
0.0
 40
6.718630999999999
100
AcDbArc
 50
274.2678929999499
 51
345.3432489999617
  0
LINE
  5
2B7
330
2
100
AcDbEntity
  8
0
100
AcDbLine
 10
305.675298912467
 20
117.6801796860286
 30
0.0
 11
307.175298912467
 21
118.6801796860286
 31
0.0
  0
LINE
  5
2B8
330
2
100
AcDbEntity
  8
0
100
AcDbLine
 10
308.175298912467
 20
118.6801796860286
 30
0.0
 11
307.175298912467
 21
118.6801796860286
 31
0.0
  0
ARC
  5
2B9
330
2
100
AcDbEntity
  8
0
100
AcDbCircle
 10
298.0919659124683
 20
118.6801796860286
 30
0.0
 40
9.083332999999999
100
AcDbArc
 50
0.0
 51
33.398488000057
  0
LINE
  5
2BA
330
2
100
AcDbEntity
  8
0
100
AcDbLine
 10
305.675298912467
 20
125.6801796860286
 30
0.0
 11
305.675298912467
 21
123.680179686029
 31
0.0
  0
ARC
  5
2BB
330
2
100
AcDbEntity
  8
0
100
AcDbCircle
 10
307.675298912467
 20
135.9801796860288
 30
0.0
 40
6.718630999999999
100
AcDbArc
 50
14.65675100003822
 51
85.73210700004995
  0
LINE
  5
2BC
330
2
100
AcDbEntity
  8
0
100
AcDbLine
 10
305.675298912467
 20
143.6801796860286
 30
0.0
 11
307.175298912467
 21
142.6801796860286
 31
0.0
  0
LINE
  5
2BD
330
2
100
AcDbEntity
  8
0
100
AcDbLine
 10
308.175298912467
 20
142.6801796860286
 30
0.0
 11
307.175298912467
 21
142.6801796860286
 31
0.0
  0
LINE
  5
2BE
330
2
100
AcDbEntity
  8
0
100
AcDbLine
 10
305.675298912467
 20
137.680179686029
 30
0.0
 11
305.675298912467
 21
135.6801796860286
 31
0.0
  0
ARC
  5
2BF
330
2
100
AcDbEntity
  8
0
100
AcDbCircle
 10
298.0919659124683
 20
142.6801796860286
 30
0.0
 40
9.083332999999999
100
AcDbArc
 50
326.601511999943
 51
0.0
  0
LINE
  5
2C0
330
2
100
AcDbEntity
  8
CEN
100
AcDbLine
 10
304.853083202357
 20
266.6249490892951
 30
0.0
 11
167.5997110150674
 21
266.6249490892951
 31
0.0
  0
LINE
  5
2C1
330
2
100
AcDbEntity
  8
CEN
 48
0.6
100
AcDbLine
 10
306.5246444554777
 20
336.6249480892966
 30
0.0
 11
195.3155415023993
 21
336.6249480892966
 31
0.0
  0
DIMENSION
  5
2C2
102
{ACAD_XDICTIONARY
360
2C3
102
}
102
{ACAD_REACTORS
330
2C4
102
}
330
2
100
AcDbEntity
  8
0
100
AcDbDimension
  2
*D50
 10
300.7408504554787
 20
366.6639815734679
 30
0.0
 11
286.7408504554787
 21
366.6639815734679
 31
0.0
 70
   160
  1
MAX. <>
  3
STANDARD
100
AcDbAlignedDimension
 13
272.7408504554787
 23
351.6249480892966
 33
0.0
 14
300.7408504554787
 24
343.6249480892966
 34
0.0
100
AcDbRotatedDimension
  0
LINE
  5
2D1
330
2
100
AcDbEntity
  8
0
100
AcDbLine
 10
289.7441834554774
 20
311.1249490892951
 30
0.0
 11
198.3441834554778
 21
311.1249490892951
 31
0.0
  0
LINE
  5
2D2
330
2
100
AcDbEntity
  8
0
100
AcDbLine
 10
283.7408504554787
 20
326.6249480892966
 30
0.0
 11
277.7408504554787
 21
326.6249480892966
 31
0.0
  0
LINE
  5
2D3
330
2
100
AcDbEntity
  8
0
100
AcDbLine
 10
283.7408504554787
 20
327.6249480892965
 30
0.0
 11
277.7408504554787
 21
327.6249480892965
 31
0.0
  0
LINE
  5
2D4
330
2
100
AcDbEntity
  8
0
100
AcDbLine
 10
283.7408504554787
 20
346.6249480892965
 30
0.0
 11
277.7408504554787
 21
346.6249480892965
 31
0.0
  0
LINE
  5
2D5
330
2
100
AcDbEntity
  8
0
100
AcDbLine
 10
283.7408504554787
 20
345.6249480892966
 30
0.0
 11
277.7408504554787
 21
345.6249480892966
 31
0.0
  0
DIMENSION
  5
2D6
102
{ACAD_XDICTIONARY
360
2D7
102
}
102
{ACAD_REACTORS
330
2D8
102
}
330
2
100
AcDbEntity
  8
0
100
AcDbDimension
  2
*D54
 10
108.6636048087493
 20
368.5346786847903
 30
0.0
 11
77.66360480874936
 21
368.5346786847903
 31
0.0
 70
   160
  3
STANDARD
100
AcDbAlignedDimension
 13
46.66360480874937
 23
319.6249490893642
 33
0.0
 14
108.6636048087493
 24
319.6249490893642
 34
0.0
100
AcDbRotatedDimension
  0
LINE
  5
2E5
330
2
100
AcDbEntity
  8
0
100
AcDbLine
 10
197.7441834554774
 20
320.3249480892977
 30
0.0
 11
199.8318954554779
 21
354.1557450892951
 31
0.0
  0
DIMENSION
  5
2E6
102
{ACAD_XDICTIONARY
360
2E7
102
}
102
{ACAD_REACTORS
330
2E8
102
}
330
2
100
AcDbEntity
  8
0
100
AcDbDimension
  2
*D53
 10
197.7441834554774
 20
366.6805525939803
 30
0.0
 11
194.7441834554774
 21
366.6805525939803
 31
0.0
 70
   160
  3
STANDARD
100
AcDbAlignedDimension
 13
191.7441834554774
 23
311.6249490892946
 33
0.0
 14
197.7441834554774
 24
320.3249480892977
 34
0.0
100
AcDbRotatedDimension
  0
DIMENSION
  5
2F7
102
{ACAD_XDICTIONARY
360
2F8
102
}
102
{ACAD_REACTORS
330
2F9
102
}
330
2
100
AcDbEntity
  8
0
100
AcDbDimension
  2
*D52
 10
272.7408504554787
 20
366.6805525939803
 30
0.0
 11
228.6440606982359
 21
366.6805525939803
 31
0.0
 70
   160
  3
STANDARD
100
AcDbAlignedDimension
 13
197.7441834554774
 23
320.3249480892977
 33
0.0
 14
272.7408504554787
 24
351.6249480892966
 34
0.0
100
AcDbRotatedDimension
  0
DIMENSION
  5
306
330
2
100
AcDbEntity
  8
0
100
AcDbDimension
  2
*D51
 10
124.9829508799994
 20
354.6249490893642
 30
0.0
 11
124.9829508799993
 21
334.7197848864489
 31
0.0
 70
   160
  3
STANDARD
100
AcDbAlignedDimension
 13
118.2187734875678
 23
311.6249490893642
 33
0.0
 14
105.8270344938591
 24
354.6249490893642
 34
0.0
 50
90.0
100
AcDbRotatedDimension
  0
LINE
  5
313
330
2
100
AcDbEntity
  8
0
100
AcDbLine
 10
108.6636048087493
 20
320.324949089364
 30
0.0
 11
106.6910628087498
 21
354.1540540893652
 31
0.0
  0
LINE
  5
314
330
2
100
AcDbEntity
  8
0
100
AcDbLine
 10
277.7408504554787
 20
349.6249480892966
 30
0.0
 11
277.7408504554787
 21
323.6249480892965
 31
0.0
  0
LINE
  5
315
330
2
100
AcDbEntity
  8
0
100
AcDbLine
 10
272.7408504554787
 20
320.3249480892977
 30
0.0
 11
270.7683084554773
 21
354.1540530892962
 31
0.0
  0
LINE
  5
316
102
{ACAD_REACTORS
330
2C4
102
}
330
2
100
AcDbEntity
  8
0
100
AcDbLine
 10
272.7408504554787
 20
351.6249480892966
 30
0.0
 11
272.7408504554787
 21
320.3249480892977
 31
0.0
  0
LINE
  5
317
330
2
100
AcDbEntity
  8
0
100
AcDbLine
 10
46.66360480874937
 20
320.324949089364
 30
0.0
 11
48.63614780874923
 21
354.1540540893652
 31
0.0
  0
LINE
  5
318
330
2
100
AcDbEntity
  8
0
100
AcDbLine
 10
174.7441834554774
 20
262.3899490892945
 30
0.0
 11
189.7441834554774
 21
262.3899490892945
 31
0.0
  0
LINE
  5
319
330
2
100
AcDbEntity
  8
0
100
AcDbLine
 10
174.7441834554774
 20
270.8599490892966
 30
0.0
 11
189.7441834554774
 21
270.8599490892966
 31
0.0
  0
LINE
  5
31A
330
2
100
AcDbEntity
  8
CEN
100
AcDbLine
 10
171.8253716438011
 20
270.3494490892953
 30
0.0
 11
192.7441834554774
 21
270.3494490892953
 31
0.0
  0
LINE
  5
31B
330
2
100
AcDbEntity
  8
CEN
100
AcDbLine
 10
171.8253716438011
 20
262.9004490892944
 30
0.0
 11
192.7441834554774
 21
262.9004490892944
 31
0.0
  0
LINE
  5
31C
330
2
100
AcDbEntity
  8
2
100
AcDbLine
 10
184.7441834554774
 20
269.2450384663061
 30
0.0
 11
174.7441834554774
 21
263.9526609987342
 31
0.0
  0
LINE
  5
31E
330
2
100
AcDbEntity
  8
2
100
AcDbLine
 10
184.7441834554774
 20
268.0798489736462
 30
0.0
 11
175.5559590568591
 21
263.2899490892932
 31
0.0
  0
LINE
  5
31F
330
2
100
AcDbEntity
  8
0
100
AcDbLine
 10
173.8441834554778
 20
263.2899490892932
 30
0.0
 11
184.7441834554774
 21
263.2899490892932
 31
0.0
  0
LINE
  5
320
330
2
100
AcDbEntity
  8
2
100
AcDbLine
 10
184.2223311880679
 20
269.9599490892951
 30
0.0
 11
174.7441834554774
 21
265.1717643375704
 31
0.0
  0
LINE
  5
321
330
2
100
AcDbEntity
  8
0
100
AcDbLine
 10
173.8441834554778
 20
269.9599490892951
 30
0.0
 11
184.7441834554774
 21
269.9599490892951
 31
0.0
  0
ARC
  5
322
330
2
100
AcDbEntity
  8
0
100
AcDbCircle
 10
77.58814049456669
 20
266.6249490892951
 30
0.0
 40
33.74764799999999
100
AcDbArc
 50
162.2801918472091
 51
197.7198081527907
  0
ARC
  5
323
330
2
100
AcDbEntity
  8
0
100
AcDbCircle
 10
42.51919299127803
 20
277.8302381293578
 30
0.0
 40
3.067967999999998
100
AcDbArc
 50
342.2801918472092
 51
38.05132551940634
  0
LINE
  5
324
102
{ACAD_REACTORS
330
2D8
102
}
330
2
100
AcDbEntity
  8
0
100
AcDbLine
 10
77.66360480874936
 20
319.6249490893642
 30
0.0
 11
46.66360480874937
 21
319.6249490893642
 31
0.0
  0
LINE
  5
325
330
2
100
AcDbEntity
  8
0
100
AcDbLine
 10
62.66360480874936
 20
313.6249490893642
 30
0.0
 11
48.08373780874899
 21
313.6249490893642
 31
0.0
  0
LINE
  5
326
330
2
100
AcDbEntity
  8
0
100
AcDbLine
 10
108.6636048087493
 20
320.324949089364
 30
0.0
 11
46.66360480874937
 21
320.324949089364
 31
0.0
  0
ARC
  5
327
330
2
100
AcDbEntity
  8
0
100
AcDbCircle
 10
77.58814049456669
 20
266.6249490892951
 30
0.0
 40
36.81561599999999
100
AcDbArc
 50
116.3656725032604
 51
153.6343274967423
  0
LINE
  5
328
330
2
100
AcDbEntity
  8
0
100
AcDbLine
 10
62.66360480874936
 20
313.6249490893642
 30
0.0
 11
62.66360480874936
 21
311.6249490893642
 31
0.0
  0
LINE
  5
329
330
2
100
AcDbEntity
  8
0
100
AcDbLine
 10
104.6636048087493
 20
312.6249490893642
 30
0.0
 11
104.6636048087493
 21
311.6249490893642
 31
0.0
  0
LINE
  5
32A
330
2
100
AcDbEntity
  8
0
100
AcDbLine
 10
107.9636048087486
 20
320.324949089364
 30
0.0
 11
107.9636048087486
 21
319.6249490893642
 31
0.0
  0
LINE
  5
32B
102
{ACAD_REACTORS
330
2D8
102
}
330
2
100
AcDbEntity
  8
0
100
AcDbLine
 10
108.24001780875
 20
314.5419040893652
 30
0.0
 11
108.6636048087493
 21
319.6249490893642
 31
0.0
  0
ARC
  5
32C
330
2
100
AcDbEntity
  8
0
100
AcDbCircle
 10
107.24347280875
 20
314.6249490893642
 30
0.0
 40
1.0
100
AcDbArc
 50
270.0
 51
355.2363579999948
  0
ARC
  5
32D
330
2
100
AcDbEntity
  8
0
100
AcDbCircle
 10
105.6636048087493
 20
312.6249490893642
 30
0.0
 40
1.0
100
AcDbArc
 50
90.0
 51
180.0
  0
LINE
  5
32E
330
2
100
AcDbEntity
  8
0
100
AcDbLine
 10
92.66360480874936
 20
313.6249490893642
 30
0.0
 11
92.66360480874936
 21
311.6249490893642
 31
0.0
  0
LINE
  5
32F
330
2
100
AcDbEntity
  8
0
100
AcDbLine
 10
77.66360480874936
 20
319.6249490893642
 30
0.0
 11
108.6636048087493
 21
319.6249490893642
 31
0.0
  0
LINE
  5
330
330
2
100
AcDbEntity
  8
0
100
AcDbLine
 10
92.66360480874936
 20
313.6249490893642
 30
0.0
 11
107.24347280875
 21
313.6249490893642
 31
0.0
  0
ARC
  5
331
330
2
100
AcDbEntity
  8
0
100
AcDbCircle
 10
107.8252904106266
 20
281.612227377398
 30
0.0
 40
3.067967999999998
100
AcDbArc
 50
321.9486744805936
 51
26.36567250325756
  0
ARC
  5
332
330
2
100
AcDbEntity
  8
0
100
AcDbCircle
 10
77.58814049456669
 20
266.6249490892951
 30
0.0
 40
33.74764799999999
100
AcDbArc
 50
342.2801918472092
 51
17.71980815279071
  0
ARC
  5
333
330
2
100
AcDbEntity
  8
0
100
AcDbCircle
 10
112.657087997848
 20
277.8302381293578
 30
0.0
 40
3.067967999999998
100
AcDbArc
 50
141.9486744805935
 51
197.7198081527907
  0
ARC
  5
334
330
2
100
AcDbEntity
  8
0
100
AcDbCircle
 10
66.38285145449845
 20
301.6938965925783
 30
0.0
 40
3.067967999999998
100
AcDbArc
 50
231.9486744805834
 51
287.7198081528046
  0
ARC
  5
335
330
2
100
AcDbEntity
  8
0
100
AcDbCircle
 10
62.60086220646008
 20
296.8620990053632
 30
0.0
 40
3.067967999999998
100
AcDbArc
 50
51.9486744805834
 51
116.3656725032604
  0
ARC
  5
336
330
2
100
AcDbEntity
  8
0
100
AcDbCircle
 10
92.57541878266783
 20
296.8620990053632
 30
0.0
 40
3.067967999999998
100
AcDbArc
 50
63.63432749673943
 51
128.0513255194166
  0
ARC
  5
337
330
2
100
AcDbEntity
  8
0
100
AcDbCircle
 10
88.79342953462765
 20
301.6938965925783
 30
0.0
 40
3.067967999999998
100
AcDbArc
 50
252.2801918471953
 51
308.0513255194166
  0
ARC
  5
338
330
2
100
AcDbEntity
  8
0
100
AcDbCircle
 10
77.58814049456669
 20
266.6249490892951
 30
0.0
 40
33.74764799999999
100
AcDbArc
 50
72.28019184719541
 51
107.7198081528045
  0
CIRCLE
  5
339
330
2
100
AcDbEntity
  8
0
100
AcDbCircle
 10
77.66360480874936
 20
266.6249490892951
 30
0.0
 40
3.198036349121024
  0
CIRCLE
  5
33A
330
2
100
AcDbEntity
  8
0
100
AcDbCircle
 10
77.66360480874936
 20
266.6249490892951
 30
0.0
 40
4.235
  0
ARC
  5
33B
330
2
100
AcDbEntity
  8
0
100
AcDbCircle
 10
77.58814049456669
 20
266.6249490892951
 30
0.0
 40
36.81561599999999
100
AcDbArc
 50
26.36567250325756
 51
63.63432749673943
  0
LINE
  5
33C
330
2
100
AcDbEntity
  8
2
100
AcDbLine
 10
174.7441834554774
 20
270.8599490892966
 30
0.0
 11
174.7441834554774
 21
262.3899490892945
 31
0.0
  0
LINE
  5
33D
330
2
100
AcDbEntity
  8
0
100
AcDbLine
 10
173.7441834554774
 20
263.3899490892945
 30
0.0
 11
174.7441834554774
 21
262.3899490892945
 31
0.0
  0
LINE
  5
33E
330
2
100
AcDbEntity
  8
0
100
AcDbLine
 10
173.7441834554774
 20
269.8599490892952
 30
0.0
 11
174.7441834554774
 21
270.8599490892966
 31
0.0
  0
LINE
  5
33F
102
{ACAD_REACTORS
330
C5
102
}
330
2
100
AcDbEntity
  8
0
100
AcDbLine
 10
173.7441834554774
 20
269.8599490892952
 30
0.0
 11
173.7441834554774
 21
263.3899490892945
 31
0.0
  0
LINE
  5
340
330
2
100
AcDbEntity
  8
0
100
AcDbLine
 10
47.36360480875009
 20
320.324949089364
 30
0.0
 11
47.36360480875009
 21
319.6249490893642
 31
0.0
  0
LINE
  5
341
330
2
100
AcDbEntity
  8
0
100
AcDbLine
 10
50.66360480874937
 20
312.6249490893642
 30
0.0
 11
50.66360480874937
 21
311.6249490893642
 31
0.0
  0
ARC
  5
342
330
2
100
AcDbEntity
  8
0
100
AcDbCircle
 10
49.66360480874937
 20
312.6249490893642
 30
0.0
 40
1.0
100
AcDbArc
 50
0.0
 51
90.0
  0
LINE
  5
343
330
2
100
AcDbEntity
  8
0
100
AcDbLine
 10
47.08719280874902
 20
314.5419040893652
 30
0.0
 11
46.66360480874937
 21
319.6249490893642
 31
0.0
  0
ARC
  5
344
330
2
100
AcDbEntity
  8
0
100
AcDbCircle
 10
48.08373780874899
 20
314.6249490893642
 30
0.0
 40
1.0
100
AcDbArc
 50
184.7636420000051
 51
270.0
  0
ARC
  5
345
330
2
100
AcDbEntity
  8
0
100
AcDbCircle
 10
47.35099057850129
 20
281.612227377398
 30
0.0
 40
3.067967999999998
100
AcDbArc
 50
153.6343274967423
 51
218.0513255194063
  0
LINE
  5
346
330
2
100
AcDbEntity
  8
0
100
AcDbLine
 10
197.8608504554776
 20
319.6249480892966
 30
0.0
 11
198.8608504554776
 21
313.6249480892966
 31
0.0
  0
LINE
  5
347
330
2
100
AcDbEntity
  8
0
100
AcDbLine
 10
272.7408504554787
 20
319.6249480892966
 30
0.0
 11
197.8608504554776
 21
319.6249480892966
 31
0.0
  0
LINE
  5
348
102
{ACAD_REACTORS
330
2E8
330
2F9
102
}
330
2
100
AcDbEntity
  8
0
100
AcDbLine
 10
272.7408504554787
 20
320.3249480892977
 30
0.0
 11
197.7441834554774
 21
320.3249480892977
 31
0.0
  0
LINE
  5
349
330
2
100
AcDbEntity
  8
0
100
AcDbLine
 10
191.7441834554774
 20
311.6249490892946
 30
0.0
 11
198.3441834554778
 21
311.6249490892946
 31
0.0
  0
ARC
  5
34A
330
2
100
AcDbEntity
  8
0
100
AcDbCircle
 10
184.7873703663081
 20
296.7761799783143
 30
0.0
 40
26.81626566475105
100
AcDbArc
 50
269.907726570802
 51
280.6520097393286
  0
ARC
  5
34B
330
2
100
AcDbEntity
  8
0
100
AcDbCircle
 10
184.7873703663081
 20
236.473718200244
 30
0.0
 40
26.81626566478071
100
AcDbArc
 50
79.34799026067249
 51
90.09227342919791
  0
LINE
  5
34C
330
2
100
AcDbEntity
  8
0
100
AcDbLine
 10
178.7441834554774
 20
262.3899490892945
 30
0.0
 11
189.7441834554774
 21
262.3899490892945
 31
0.0
  0
LINE
  5
34D
330
2
100
AcDbEntity
  8
0
100
AcDbLine
 10
178.7441834554774
 20
270.8599490892966
 30
0.0
 11
189.7441834554774
 21
270.8599490892966
 31
0.0
  0
LINE
  5
34E
330
2
100
AcDbEntity
  8
2
100
AcDbLine
 10
184.7441834552282
 20
269.9599490892946
 30
0.0
 11
184.7441834553192
 21
263.2899490892932
 31
0.0
  0
LINE
  5
34F
330
2
100
AcDbEntity
  8
0
100
AcDbLine
 10
191.7441834554774
 20
308.1249490892951
 30
0.0
 11
189.7441834554774
 21
308.1249490892951
 31
0.0
  0
LINE
  5
350
330
2
100
AcDbEntity
  8
0
100
AcDbLine
 10
191.7441834554774
 20
269.4449490892943
 30
0.0
 11
191.7441834554774
 21
263.8049490892953
 31
0.0
  0
LINE
  5
351
330
2
100
AcDbEntity
  8
0
100
AcDbLine
 10
191.7441834554774
 20
269.4449490892943
 30
0.0
 11
191.7441834554774
 21
263.8049490892953
 31
0.0
  0
LINE
  5
352
330
2
100
AcDbEntity
  8
0
100
AcDbLine
 10
254.8608504554777
 20
301.7896664308241
 30
0.0
 11
198.3441834554778
 21
301.7896664308223
 31
0.0
  0
LINE
  5
353
330
2
100
AcDbEntity
  8
0
100
AcDbLine
 10
198.5608504554784
 20
320.3249480892977
 30
0.0
 11
198.5608504554784
 21
319.6249480892966
 31
0.0
  0
ARC
  5
354
330
2
100
AcDbEntity
  8
0
100
AcDbCircle
 10
270.8937234554777
 20
314.6249480892965
 30
0.0
 40
1.0
100
AcDbArc
 50
270.0
 51
350.5376779999607
  0
ARC
  5
355
330
2
100
AcDbEntity
  8
0
100
AcDbCircle
 10
256.3608504554776
 20
312.1249480892966
 30
0.0
 40
1.5
100
AcDbArc
 50
90.0
 51
180.0
  0
LINE
  5
356
330
2
100
AcDbEntity
  8
0
100
AcDbLine
 10
254.8608504554777
 20
312.1249480892966
 30
0.0
 11
254.8608504554777
 21
301.7896664308223
 31
0.0
  0
LINE
  5
357
330
2
100
AcDbEntity
  8
0
100
AcDbLine
 10
270.8937234554777
 20
313.6249480892966
 30
0.0
 11
198.3441834554778
 21
313.6249480892966
 31
0.0
  0
LINE
  5
358
330
2
100
AcDbEntity
  8
0
100
AcDbLine
 10
272.7408504554787
 20
319.6249480892966
 30
0.0
 11
271.8801174554773
 21
314.4605490892977
 31
0.0
  0
LINE
  5
359
330
2
100
AcDbEntity
  8
0
100
AcDbLine
 10
272.040850455478
 20
320.3249480892977
 30
0.0
 11
272.040850455478
 21
319.6249480892966
 31
0.0
  0
LINE
  5
35A
330
2
100
AcDbEntity
  8
0
100
AcDbLine
 10
277.7408504554787
 20
323.6249480892965
 30
0.0
 11
272.7408504554787
 21
323.6249480892965
 31
0.0
  0
LINE
  5
35B
330
2
100
AcDbEntity
  8
0
100
AcDbLine
 10
198.3441834554778
 20
310.2236864308233
 30
0.0
 11
199.2441834554774
 21
310.2236864308233
 31
0.0
  0
LINE
  5
35C
330
2
100
AcDbEntity
  8
0
100
AcDbLine
 10
198.3441834554778
 20
302.523686430824
 30
0.0
 11
199.2441834554774
 21
302.523686430824
 31
0.0
  0
LINE
  5
35D
330
2
100
AcDbEntity
  8
0
100
AcDbLine
 10
199.2441834554774
 20
302.523686430824
 30
0.0
 11
199.2441834554774
 21
310.2236864308233
 31
0.0
  0
LINE
  5
35E
330
2
100
AcDbEntity
  8
0
100
AcDbLine
 10
277.7408504554787
 20
331.1249480892975
 30
0.0
 11
272.7408504554787
 21
331.1249480892975
 31
0.0
  0
LINE
  5
35F
330
2
100
AcDbEntity
  8
0
100
AcDbLine
 10
277.7408504554787
 20
328.6249480892966
 30
0.0
 11
272.7408504554787
 21
328.6249480892966
 31
0.0
  0
ARC
  5
360
330
2
100
AcDbEntity
  8
0
100
AcDbCircle
 10
49.13529980874955
 20
354.1249490893642
 30
0.0
 40
0.5
100
AcDbArc
 50
90.0
 51
176.6629169999623
  0
LINE
  5
361
330
2
100
AcDbEntity
  8
0
100
AcDbLine
 10
77.66360480874936
 20
354.6249490893642
 30
0.0
 11
49.13529980874955
 21
354.6249490893642
 31
0.0
  0
ARC
  5
362
330
2
100
AcDbEntity
  8
0
100
AcDbCircle
 10
106.1919108087495
 20
354.1249490893642
 30
0.0
 40
0.5
100
AcDbArc
 50
3.337083000037623
 51
90.0
  0
LINE
  5
363
330
2
100
AcDbEntity
  8
0
100
AcDbLine
 10
77.66360480874936
 20
354.6249490893642
 30
0.0
 11
106.1919108087495
 21
354.6249490893642
 31
0.0
  0
ARC
  5
364
330
2
100
AcDbEntity
  8
0
100
AcDbCircle
 10
200.3309464554786
 20
354.1249480892965
 30
0.0
 40
0.5
100
AcDbArc
 50
90.0
 51
176.4687330000435
  0
ARC
  5
365
330
2
100
AcDbEntity
  8
0
100
AcDbCircle
 10
271.387472455477
 20
352.1249480892965
 30
0.0
 40
0.5
100
AcDbArc
 50
183.3370830000376
 51
270.0
  0
LINE
  5
366
102
{ACAD_REACTORS
330
2F9
102
}
330
2
100
AcDbEntity
  8
0
100
AcDbLine
 10
272.7408504554787
 20
351.6249480892966
 30
0.0
 11
271.387472455477
 21
351.6249480892966
 31
0.0
  0
LINE
  5
367
330
2
100
AcDbEntity
  8
0
100
AcDbLine
 10
277.7408504554787
 20
349.6249480892966
 30
0.0
 11
272.7408504554787
 21
349.6249480892966
 31
0.0
  0
LINE
  5
368
330
2
100
AcDbEntity
  8
0
100
AcDbLine
 10
277.7408504554787
 20
344.6249480892966
 30
0.0
 11
272.7408504554787
 21
344.6249480892966
 31
0.0
  0
LINE
  5
369
330
2
100
AcDbEntity
  8
0
100
AcDbLine
 10
277.7408504554787
 20
342.1249480892965
 30
0.0
 11
272.7408504554787
 21
342.1249480892965
 31
0.0
  0
ARC
  5
36A
330
2
100
AcDbEntity
  8
0
100
AcDbCircle
 10
270.2691554554785
 20
354.1249480892965
 30
0.0
 40
0.5
100
AcDbArc
 50
3.337083000037623
 51
90.0
  0
LINE
  5
36B
330
2
100
AcDbEntity
  8
0
100
AcDbLine
 10
270.2691554554785
 20
354.6249480892965
 30
0.0
 11
200.3309464554786
 21
354.6249480892965
 31
0.0
  0
LINE
  5
36C
330
2
100
AcDbEntity
  8
CEN
100
AcDbLine
 10
28.41032859434927
 20
266.6249490892951
 30
0.0
 11
126.9168810231494
 21
266.6249490892951
 31
0.0
  0
ARC
  5
36D
330
2
100
AcDbEntity
  8
0
100
AcDbCircle
 10
294.2408504554787
 20
331.3249480892977
 30
0.0
 40
6.718630999999999
100
AcDbArc
 50
274.2678929999499
 51
345.3432489999617
  0
ARC
  5
36E
330
2
100
AcDbEntity
  8
0
100
AcDbCircle
 10
294.2408504554787
 20
341.9249480892949
 30
0.0
 40
6.718630999999999
100
AcDbArc
 50
14.65675100003822
 51
85.73210700004995
  0
LINE
  5
36F
330
2
100
AcDbEntity
  8
0
100
AcDbLine
 10
293.7408504554787
 20
348.6249480892965
 30
0.0
 11
293.7408504554787
 21
324.6249480892966
 31
0.0
  0
LINE
  5
370
330
2
100
AcDbEntity
  8
0
100
AcDbLine
 10
283.7408504554787
 20
349.6249480892966
 30
0.0
 11
283.7408504554787
 21
323.6249480892965
 31
0.0
  0
ARC
  5
371
330
2
100
AcDbEntity
  8
0
100
AcDbCircle
 10
284.6575174554782
 20
336.6249480892966
 30
0.0
 40
9.083332999999999
100
AcDbArc
 50
326.601511999943
 51
33.398488000057
  0
ARC
  5
372
330
2
100
AcDbEntity
  8
0
100
AcDbCircle
 10
284.6575174554782
 20
324.6249480892966
 30
0.0
 40
9.083332999999999
100
AcDbArc
 50
0.0
 51
33.398488000057
  0
LINE
  5
373
330
2
100
AcDbEntity
  8
0
100
AcDbLine
 10
293.7408504554787
 20
324.6249480892966
 30
0.0
 11
283.7408504554787
 21
324.6249480892966
 31
0.0
  0
LINE
  5
374
330
2
100
AcDbEntity
  8
0
100
AcDbLine
 10
292.2408504554787
 20
323.6249480892965
 30
0.0
 11
283.7408504554787
 21
323.6249480892965
 31
0.0
  0
LINE
  5
375
330
2
100
AcDbEntity
  8
0
100
AcDbLine
 10
294.7408504554787
 20
324.6249480892966
 30
0.0
 11
293.7408504554787
 21
324.6249480892966
 31
0.0
  0
LINE
  5
376
330
2
100
AcDbEntity
  8
0
100
AcDbLine
 10
292.2408504554787
 20
323.6249480892965
 30
0.0
 11
293.7408504554787
 21
324.6249480892966
 31
0.0
  0
LINE
  5
377
330
2
100
AcDbEntity
  8
0
100
AcDbLine
 10
296.7441834554774
 20
308.6249490892951
 30
0.0
 11
295.7441834554774
 21
309.6249490892951
 31
0.0
  0
LINE
  5
378
330
2
100
AcDbEntity
  8
0
100
AcDbLine
 10
295.7441834554774
 20
309.6249490892951
 30
0.0
 11
289.7441834554774
 21
309.6249490892951
 31
0.0
  0
LINE
  5
379
330
2
100
AcDbEntity
  8
0
100
AcDbLine
 10
292.2408504554787
 20
331.6249480892965
 30
0.0
 11
292.2408504554787
 21
329.6249480892975
 31
0.0
  0
LINE
  5
37A
330
2
100
AcDbEntity
  8
0
100
AcDbLine
 10
292.6585764554784
 20
328.9249480892949
 30
0.0
 11
283.7408504554787
 21
328.9249480892949
 31
0.0
  0
LINE
  5
37B
330
2
100
AcDbEntity
  8
0
100
AcDbLine
 10
292.2408504554787
 20
329.6249480892975
 30
0.0
 11
283.7408504554787
 21
329.6249480892975
 31
0.0
  0
LINE
  5
37C
330
2
100
AcDbEntity
  8
0
100
AcDbLine
 10
292.2408504554787
 20
331.6249480892965
 30
0.0
 11
283.7408504554787
 21
331.6249480892965
 31
0.0
  0
ARC
  5
37D
330
2
100
AcDbEntity
  8
0
100
AcDbCircle
 10
284.6575174554782
 20
348.6249480892965
 30
0.0
 40
9.083332999999999
100
AcDbArc
 50
326.601511999943
 51
0.0
  0
LINE
  5
37E
330
2
100
AcDbEntity
  8
0
100
AcDbLine
 10
293.0394584554779
 20
333.1249480892966
 30
0.0
 11
283.7408504554787
 21
333.1249480892966
 31
0.0
  0
LINE
  5
37F
330
2
100
AcDbEntity
  8
0
100
AcDbLine
 10
293.0394584554779
 20
340.1249480892965
 30
0.0
 11
283.7408504554787
 21
340.1249480892965
 31
0.0
  0
LINE
  5
380
330
2
100
AcDbEntity
  8
0
100
AcDbLine
 10
292.6585764554784
 20
344.3249480892977
 30
0.0
 11
283.7408504554787
 21
344.3249480892977
 31
0.0
  0
LINE
  5
381
330
2
100
AcDbEntity
  8
0
100
AcDbLine
 10
292.2408504554787
 20
343.6249480892966
 30
0.0
 11
283.7408504554787
 21
343.6249480892966
 31
0.0
  0
LINE
  5
382
330
2
100
AcDbEntity
  8
0
100
AcDbLine
 10
292.2408504554787
 20
341.6249480892965
 30
0.0
 11
283.7408504554787
 21
341.6249480892965
 31
0.0
  0
LINE
  5
383
330
2
100
AcDbEntity
  8
0
100
AcDbLine
 10
292.2408504554787
 20
343.6249480892966
 30
0.0
 11
292.2408504554787
 21
341.6249480892965
 31
0.0
  0
LINE
  5
384
330
2
100
AcDbEntity
  8
0
100
AcDbLine
 10
293.7408504554787
 20
348.6249480892965
 30
0.0
 11
283.7408504554787
 21
348.6249480892965
 31
0.0
  0
LINE
  5
385
330
2
100
AcDbEntity
  8
0
100
AcDbLine
 10
292.2408504554787
 20
349.6249480892966
 30
0.0
 11
283.7408504554787
 21
349.6249480892966
 31
0.0
  0
LINE
  5
386
330
2
100
AcDbEntity
  8
0
100
AcDbLine
 10
294.7408504554787
 20
348.6249480892965
 30
0.0
 11
293.7408504554787
 21
348.6249480892965
 31
0.0
  0
LINE
  5
387
330
2
100
AcDbEntity
  8
0
100
AcDbLine
 10
292.2408504554787
 20
349.6249480892966
 30
0.0
 11
293.7408504554787
 21
348.6249480892965
 31
0.0
  0
LINE
  5
388
102
{ACAD_REACTORS
330
2C4
102
}
330
2
100
AcDbEntity
  8
0
100
AcDbLine
 10
300.7408504554787
 20
343.6249480892966
 30
0.0
 11
300.7408504554787
 21
329.6249480892975
 31
0.0
  0
ENDSEC
  0
SECTION
  2
OBJECTS
  0
DICTIONARY
  5
9
330
0
100
AcDbDictionary
  3
ACAD_GROUP
350
98
  3
ACAD_LAYOUT
350
D
  3
ACAD_MLINESTYLE
350
99
  3
ACAD_PLOTSETTINGS
350
9A
  3
ACAD_PLOTSTYLENAME
350
8
  3
ACDBHEADERROUNDTRIPXREC
350
4C6
  3
ACDBVARIABLEDICTIONARY
350
389
  0
DICTIONARY
  5
15
330
14
100
AcDbDictionary
280
     1
  3
ACAD_LAYERFILTERS
360
16
  3
ACAD_LAYERSTATES
360
89
  0
DICTIONARY
  5
3
330
2
100
AcDbDictionary
280
     1
  3
ACAD_LAYOUTSELFREF
360
4E7
  0
DICTIONARY
  5
F
330
E
100
AcDbDictionary
280
     1
  3
ACAD_LAYOUTSELFREF
360
4E8
  0
DICTIONARY
  5
DD
330
DC
100
AcDbDictionary
280
     1
  3
ACAD_DIMASSOC
360
DE
  0
DICTIONARY
  5
247
330
246
100
AcDbDictionary
280
     1
  3
ACAD_DIMASSOC
360
248
  0
DICTIONARY
  5
A1
330
A0
100
AcDbDictionary
280
     1
  3
ACAD_DIMASSOC
360
A2
  0
DICTIONARY
  5
B5
330
B4
100
AcDbDictionary
280
     1
  3
ACAD_DIMASSOC
360
B6
  0
DICTIONARY
  5
C4
330
C3
100
AcDbDictionary
280
     1
  3
ACAD_DIMASSOC
360
C5
  0
DICTIONARY
  5
FD
330
FC
100
AcDbDictionary
280
     1
  3
ACAD_DIMASSOC
360
FE
  0
DICTIONARY
  5
10F
330
10E
100
AcDbDictionary
280
     1
  3
ACAD_DIMASSOC
360
110
  0
DICTIONARY
  5
120
330
11F
100
AcDbDictionary
280
     1
  3
ACAD_DIMASSOC
360
121
  0
DICTIONARY
  5
133
330
132
100
AcDbDictionary
280
     1
  3
ACAD_DIMASSOC
360
134
  0
DICTIONARY
  5
143
330
142
100
AcDbDictionary
280
     1
  3
ACAD_DIMASSOC
360
144
  0
DICTIONARY
  5
15A
330
159
100
AcDbDictionary
280
     1
  3
ACAD_DIMASSOC
360
15B
  0
DICTIONARY
  5
169
330
168
100
AcDbDictionary
280
     1
  3
ACAD_DIMASSOC
360
16A
  0
DICTIONARY
  5
18B
330
18A
100
AcDbDictionary
280
     1
  3
ACAD_DIMASSOC
360
18C
  0
DICTIONARY
  5
19A
330
199
100
AcDbDictionary
280
     1
  3
ACAD_DIMASSOC
360
19B
  0
DICTIONARY
  5
1B0
330
1AF
100
AcDbDictionary
280
     1
  3
ACAD_DIMASSOC
360
1B1
  0
DICTIONARY
  5
1DF
330
1DE
100
AcDbDictionary
280
     1
  3
ACAD_DIMASSOC
360
1E0
  0
DICTIONARY
  5
1EF
330
1EE
100
AcDbDictionary
280
     1
  3
ACAD_DIMASSOC
360
1F0
  0
DICTIONARY
  5
204
330
203
100
AcDbDictionary
280
     1
  3
ACAD_DIMASSOC
360
205
  0
DICTIONARY
  5
26F
330
26E
100
AcDbDictionary
280
     1
  3
ACAD_DIMASSOC
360
270
  0
DICTIONARY
  5
287
330
286
100
AcDbDictionary
280
     1
  3
ACAD_DIMASSOC
360
288
  0
DICTIONARY
  5
2C3
330
2C2
100
AcDbDictionary
280
     1
  3
ACAD_DIMASSOC
360
2C4
  0
DICTIONARY
  5
2D7
330
2D6
100
AcDbDictionary
280
     1
  3
ACAD_DIMASSOC
360
2D8
  0
DICTIONARY
  5
2E7
330
2E6
100
AcDbDictionary
280
     1
  3
ACAD_DIMASSOC
360
2E8
  0
DICTIONARY
  5
2F8
330
2F7
100
AcDbDictionary
280
     1
  3
ACAD_DIMASSOC
360
2F9
  0
DICTIONARY
  5
98
102
{ACAD_REACTORS
330
9
102
}
330
9
100
AcDbDictionary
  0
DICTIONARY
  5
D
102
{ACAD_REACTORS
330
9
102
}
330
9
100
AcDbDictionary
  0
DICTIONARY
  5
99
102
{ACAD_REACTORS
330
9
102
}
330
9
100
AcDbDictionary
  3
STANDARD
350
9B
  0
DICTIONARY
  5
9A
102
{ACAD_REACTORS
330
9
102
}
330
9
100
AcDbDictionary
  0
ACDBDICTIONARYWDFLT
  5
8
102
{ACAD_REACTORS
330
9
102
}
330
9
100
AcDbDictionary
281
     1
  3
Normal
350
7
100
AcDbDictionaryWithDefault
340
7
  0
DICTIONARY
  5
4C6
102
{ACAD_REACTORS
330
9
102
}
330
9
100
AcDbDictionary
  3
CEPSNTYPE
350
4D0
  3
DIMSTYLEDATA
350
4D4
  3
FINGERPRINTGUID
350
4D1
  3
HYPERLINKBASE
350
4C9
  3
INSUNITS
350
4CF
  3
LAYOUTDICT
350
4CB
  3
LWETCUNION
350
4CE
  3
PLOTSETDICT
350
4CC
  3
PLOTSTYLNAMDICT
350
4CD
  3
PSVPSCALE
350
4D3
  3
PUCSBASE
350
4D7
  3
PUCSORGBACK
350
4DD
  3
PUCSORGBOTTOM
350
4D9
  3
PUCSORGFRONT
350
4DC
  3
PUCSORGLEFT
350
4DA
  3
PUCSORGRIGHT
350
4DB
  3
PUCSORGTOP
350
4D8
  3
PUCSORTHOREF
350
4D5
  3
PUCSORTHOVIEW
350
4D6
  3
STYLESHEET
350
4CA
  3
TSTACKALIGN
350
4C7
  3
TSTACKSIZE
350
4C8
  3
UCSBASE
350
4E0
  3
UCSORGBACK
350
4E6
  3
UCSORGBOTTOM
350
4E2
  3
UCSORGFRONT
350
4E5
  3
UCSORGLEFT
350
4E3
  3
UCSORGRIGHT
350
4E4
  3
UCSORGTOP
350
4E1
  3
UCSORTHOREF
350
4DE
  3
UCSORTHOVIEW
350
4DF
  3
VERSIONGUID
350
4D2
  0
DICTIONARY
  5
389
102
{ACAD_REACTORS
330
9
102
}
330
9
100
AcDbDictionary
  3
DIMASSOC
350
38B
  3
HIDETEXT
350
38A
  0
DICTIONARY
  5
16
102
{ACAD_REACTORS
330
15
102
}
330
15
100
AcDbDictionary
280
     1
  3
$LAYERS
360
17
  3
-_UND_0
360
18
  3
-PEGC
360
19
  3
101
360
1A
  3
102
360
1B
  3
1DUC
360
1C
  3
1EQ
360
1D
  3
1TUB
360
1E
  3
2
360
1F
  3
2000
360
20
  3
50
360
21
  3
58J
360
22
  3
65
360
23
  3
AA
360
24
  3
ACABADOS
360
25
  3
AGUA_Y_DREN
360
26
  3
AIRE
360
27
  3
ALLE_AUS
360
28
  3
ALLES_MIT_S
360
29
  3
AMARILLO
360
2A
  3
APAGADOS
360
2B
  3
ARR
360
2C
  3
BA
360
2D
  3
BACKS
360
2E
  3
BASE
360
2F
  3
BLOQ_INUTIL
360
30
  3
CADKON
360
31
  3
CARPINTERIA
360
32
  3
CERRADOS
360
33
  3
COL
360
34
  3
COLOR
360
35
  3
COLOR_250
360
36
  3
COLORES
360
37
  3
CONGELADOS
360
38
  3
CONJUNTO
360
39
  3
D1
360
3A
  3
DA_
360
3B
  3
DET-
360
3C
  3
DOR-H
360
3D
  3
EJES
360
3E
  3
ELECTRICO
360
3F
  3
F1
360
40
  3
FROZEN
360
41
  3
GRID
360
42
  3
GRIDTXT
360
43
  3
HATCH
360
44
  3
HCAD
360
45
  3
INSTALACIONES
360
46
  3
JIZNI
360
47
  3
KCK
360
48
  3
KKK
360
49
  3
LAY
360
4A
  3
LAYER-0
360
4E
  3
LAYER-1
360
4F
  3
LAYER_1_UND_0
360
4B
  3
LAYER_2_UND_0
360
4C
  3
LAYER_9_UND_0_SCHRAFFUR
360
4D
  3
LOCK
360
50
  3
LOCKED
360
51
  3
LOTES
360
52
  3
LUNAR
360
53
  3
LUNAR2
360
54
  3
M
360
55
  3
MIS_LAYERS
360
56
  3
MRKCK
360
57
  3
NECADKON
360
58
  3
NI_LH
360
59
  3
NI_RH
360
5A
  3
NUM
360
5B
  3
OFF
360
5C
  3
ON
360
5D
  3
PBASE
360
5E
  3
PEGC
360
5F
  3
PEGCT
360
60
  3
PFRAME
360
61
  3
PGRID
360
62
  3
PGRIDT
360
63
  3
PLAFONES
360
64
  3
PLANTAS
360
65
  3
PLOT
360
66
  3
PRENDIDAS
360
67
  3
PRENDIDOS
360
68
  3
PRINT
360
69
  3
PT
360
6A
  3
PTH
360
6B
  3
PVGRID
360
6C
  3
RED_DE_AGUA_POTABLE
360
6D
  3
RED_DE_ENERGIA_ELECTRICA
360
6E
  3
SEVERNI
360
6F
  3
SHIN
360
70
  3
SHOW_ALL_LAYER
360
71
  3
SIN
360
72
  3
STORAGE-CART
360
73
  3
T
360
74
  3
TEXTOS
360
75
  3
TEXTURAS
360
76
  3
TUBERIAS
360
77
  3
UNFRZ
360
78
  3
V\U+0160ECHNY_NEPOU\U+017D\U+00CDVAN\U+00C9
360
79
  3
VA
360
7A
  3
VENTILACI\U+00D3N
360
7B
  3
VYHODNI
360
7C
  3
YO
360
7D
  3
ZAPADNI
360
7E
  3
사용
360
7F
  3
신규
360
80
  3
실박스
360
81
  3
우리토목
360
82
  3
주차
360
83
  3
지상정밀
360
84
  3
쩜선
360
85
  3
플로터_작업층
360
86
  3
현재_작업층
360
87
  3
현재_잠금
360
88
  0
DICTIONARY
  5
89
102
{ACAD_REACTORS
330
15
102
}
330
15
100
AcDbDictionary
  0
XRECORD
  5
4E7
102
{ACAD_REACTORS
330
3
102
}
330
3
100
AcDbXrecord
340
2
  0
XRECORD
  5
4E8
102
{ACAD_REACTORS
330
F
102
}
330
F
100
AcDbXrecord
340
E
  0
DIMASSOC
  5
DE
102
{ACAD_REACTORS
330
DD
102
}
330
DD
100
AcDbDimAssoc
330
DC
 90
        2
 70
     0
 71
     0
  1
AcDbOsnapPointRef
 72
     3
331
DB
 73
     2
 91
        0
 40
0.0
 10
0.0
 20
0.0
 30
0.0
 75
     0
  0
DIMASSOC
  5
248
102
{ACAD_REACTORS
330
247
102
}
330
247
100
AcDbDimAssoc
330
246
 90
        3
 70
     0
 71
     0
  1
AcDbOsnapPointRef
 72
     1
331
25C
 73
     2
 91
        0
 40
1.0
 10
-31.0
 20
8.000000000069576
 30
0.0
 75
     0
  1
AcDbOsnapPointRef
 72
     1
331
258
 73
     2
 91
        0
 40
1.0
 10
31.0
 20
8.000000000069576
 30
0.0
 75
     0
  0
DIMASSOC
  5
A2
102
{ACAD_REACTORS
330
A1
102
}
330
A1
100
AcDbDimAssoc
330
A0
 90
        1
 70
     0
 71
     0
  1
AcDbOsnapPointRef
 72
     1
331
F9
 73
     2
 91
        0
 40
1.0
 10
289.7441834554774
 20
311.1249490892951
 30
0.0
 75
     0
  0
DIMASSOC
  5
B6
102
{ACAD_REACTORS
330
B5
102
}
330
B5
100
AcDbDimAssoc
330
B4
 90
        3
 70
     0
 71
     0
  1
AcDbOsnapPointRef
 72
    13
331
F5
 73
     2
 91
        0
 40
0.0
 10
189.7441834554774
 20
308.1249490892951
 30
0.0
 75
     0
  1
AcDbOsnapPointRef
 72
     1
331
F5
 73
     2
 91
        0
 40
1.0
 10
189.7441834554774
 20
225.1249490892951
 30
0.0
 75
     0
  0
DIMASSOC
  5
C5
102
{ACAD_REACTORS
330
C4
102
}
330
C4
100
AcDbDimAssoc
330
C3
 90
        3
 70
     0
 71
     0
  1
AcDbOsnapPointRef
 72
     1
331
33F
 73
     2
 91
        0
 40
1.0
 10
173.7441834554774
 20
263.3899490892945
 30
0.0
 75
     0
  1
AcDbOsnapPointRef
 72
    13
331
1ED
 73
     2
 91
        0
 40
0.0
 10
191.7441834554774
 20
221.6249490892946
 30
0.0
 75
     0
  0
DIMASSOC
  5
FE
102
{ACAD_REACTORS
330
FD
102
}
330
FD
100
AcDbDimAssoc
330
FC
 90
        3
 70
     0
 71
     0
  1
AcDbOsnapPointRef
 72
    13
331
189
 73
     2
 91
        0
 40
0.0
 10
205.1786319124675
 20
15.68018068602714
 30
0.0
 75
     0
  1
AcDbOsnapPointRef
 72
    13
331
27F
 73
     2
 91
        0
 40
0.0
 10
310.1786319124676
 20
18.68018068602714
 30
0.0
 75
     0
  0
DIMASSOC
  5
110
102
{ACAD_REACTORS
330
10F
102
}
330
10F
100
AcDbDimAssoc
330
10E
 90
        3
 70
     0
 71
     0
  1
AcDbOsnapPointRef
 72
    13
331
1ED
 73
     2
 91
        0
 40
0.0
 10
191.7441834554774
 20
221.6249490892946
 30
0.0
 75
     0
  1
AcDbOsnapPointRef
 72
    13
331
29B
 73
     2
 91
        0
 40
0.0
 10
296.7441834554774
 20
224.6249490892946
 30
0.0
 75
     0
  0
DIMASSOC
  5
121
102
{ACAD_REACTORS
330
120
102
}
330
120
100
AcDbDimAssoc
330
11F
 90
        3
 70
     0
 71
     0
  1
AcDbOsnapPointRef
 72
     1
331
12E
 73
     2
 91
        0
 40
1.0
 10
211.1786319124675
 20
114.3801796860293
 30
0.0
 75
     0
  1
AcDbOsnapPointRef
 72
    13
331
2AF
 73
     2
 91
        0
 40
0.0
 10
286.175298912467
 20
145.680179686029
 30
0.0
 75
     0
  0
DIMASSOC
  5
134
102
{ACAD_REACTORS
330
133
102
}
330
133
100
AcDbDimAssoc
330
132
 90
        3
 70
     0
 71
     0
  1
AcDbOsnapPointRef
 72
    13
331
152
 73
     2
 91
        0
 40
0.0
 10
203.1786319124676
 20
102.1801806860271
 30
0.0
 75
     0
  1
AcDbOsnapPointRef
 72
     1
331
152
 73
     2
 91
        0
 40
1.0
 10
203.1786319124676
 20
19.18018068602714
 30
0.0
 75
     0
  0
DIMASSOC
  5
144
102
{ACAD_REACTORS
330
143
102
}
330
143
100
AcDbDimAssoc
330
142
 90
        3
 70
     0
 71
     0
  1
AcDbOsnapPointRef
 72
     1
331
1AE
 73
     2
 91
        0
 40
1.0
 10
168.1786319124675
 20
64.68018068602714
 30
0.0
 75
     0
  1
AcDbOsnapPointRef
 72
     1
331
1AA
 73
     2
 91
        0
 40
1.0
 10
198.1786319124676
 20
65.68018068602714
 30
0.0
 75
     0
  0
DIMASSOC
  5
15B
102
{ACAD_REACTORS
330
15A
102
}
330
15A
100
AcDbDimAssoc
330
159
 90
        3
 70
     0
 71
     0
  1
AcDbOsnapPointRef
 72
     1
331
1AB
 73
     2
 91
        0
 40
1.0
 10
168.1786319124675
 20
55.68018068602714
 30
0.0
 75
     0
  1
AcDbOsnapPointRef
 72
     1
331
1AA
 73
     2
 91
        0
 40
1.0
 10
198.1786319124676
 20
65.68018068602714
 30
0.0
 75
     0
  0
DIMASSOC
  5
16A
102
{ACAD_REACTORS
330
169
102
}
330
169
100
AcDbDimAssoc
330
168
 90
        3
 70
     0
 71
     0
  1
AcDbOsnapPointRef
 72
     1
331
1AB
 73
     2
 91
        0
 40
1.0
 10
168.1786319124675
 20
55.68018068602714
 30
0.0
 75
     0
  1
AcDbOsnapPointRef
 72
     1
331
1AE
 73
     2
 91
        0
 40
1.0
 10
168.1786319124675
 20
64.68018068602714
 30
0.0
 75
     0
  0
DIMASSOC
  5
18C
102
{ACAD_REACTORS
330
18B
102
}
330
18B
100
AcDbDimAssoc
330
18A
 90
        3
 70
     0
 71
     0
  1
AcDbOsnapPointRef
 72
    13
331
189
 73
     2
 91
        0
 40
0.0
 10
205.1786319124675
 20
15.68018068602714
 30
0.0
 75
     0
  1
AcDbOsnapPointRef
 72
     1
331
186
 73
     2
 91
        0
 40
1.0
 10
212.6786319124676
 20
17.08144334449889
 30
0.0
 75
     0
  0
DIMASSOC
  5
19B
102
{ACAD_REACTORS
330
19A
102
}
330
19A
100
AcDbDimAssoc
330
199
 90
        3
 70
     0
 71
     0
  1
AcDbOsnapPointRef
 72
     1
331
188
 73
     2
 91
        0
 40
1.0
 10
203.1786319124676
 20
19.18018068602714
 30
0.0
 75
     0
  1
AcDbOsnapPointRef
 72
    13
331
189
 73
     2
 91
        0
 40
0.0
 10
205.1786319124675
 20
15.68018068602714
 30
0.0
 75
     0
  0
DIMASSOC
  5
1B1
102
{ACAD_REACTORS
330
1B0
102
}
330
1B0
100
AcDbDimAssoc
330
1AF
 90
        2
 70
     0
 71
     0
  1
AcDbOsnapPointRef
 72
    13
331
189
 73
     2
 91
        0
 40
0.0
 10
205.1786319124675
 20
15.68018068602714
 30
0.0
 75
     0
  0
DIMASSOC
  5
1E0
102
{ACAD_REACTORS
330
1DF
102
}
330
1DF
100
AcDbDimAssoc
330
1DE
 90
        3
 70
     0
 71
     0
  1
AcDbOsnapPointRef
 72
    13
331
1ED
 73
     2
 91
        0
 40
0.0
 10
191.7441834554774
 20
221.6249490892946
 30
0.0
 75
     0
  1
AcDbOsnapPointRef
 72
     1
331
201
 73
     2
 91
        0
 40
1.0
 10
199.2441834554774
 20
223.0262117477664
 30
0.0
 75
     0
  0
DIMASSOC
  5
1F0
102
{ACAD_REACTORS
330
1EF
102
}
330
1EF
100
AcDbDimAssoc
330
1EE
 90
        3
 70
     0
 71
     0
  1
AcDbOsnapPointRef
 72
     1
331
1FF
 73
     2
 91
        0
 40
1.0
 10
189.7441834554774
 20
225.1249490892951
 30
0.0
 75
     0
  1
AcDbOsnapPointRef
 72
    13
331
1ED
 73
     2
 91
        0
 40
0.0
 10
191.7441834554774
 20
221.6249490892946
 30
0.0
 75
     0
  0
DIMASSOC
  5
205
102
{ACAD_REACTORS
330
204
102
}
330
204
100
AcDbDimAssoc
330
203
 90
        2
 70
     0
 71
     0
  1
AcDbOsnapPointRef
 72
     1
331
12E
 73
     2
 91
        0
 40
1.0
 10
211.1786319124675
 20
114.3801796860293
 30
0.0
 75
     0
  0
DIMASSOC
  5
270
102
{ACAD_REACTORS
330
26F
102
}
330
26F
100
AcDbDimAssoc
330
26E
 90
        1
 70
     0
 71
     0
  1
AcDbOsnapPointRef
 72
     1
331
26D
 73
     2
 91
        0
 40
1.0
 10
303.1786319124676
 20
105.1801806860271
 30
0.0
 75
     0
  0
DIMASSOC
  5
288
102
{ACAD_REACTORS
330
287
102
}
330
287
100
AcDbDimAssoc
330
286
 90
        3
 70
     0
 71
     0
  1
AcDbOsnapPointRef
 72
    13
331
29E
 73
     2
 91
        0
 40
0.0
 10
286.175298912467
 20
145.680179686029
 30
0.0
 75
     0
  1
AcDbOsnapPointRef
 72
    13
331
2B5
 73
     2
 91
        0
 40
0.0
 10
314.175298912467
 20
137.680179686029
 30
0.0
 75
     0
  0
DIMASSOC
  5
2C4
102
{ACAD_REACTORS
330
2C3
102
}
330
2C3
100
AcDbDimAssoc
330
2C2
 90
        3
 70
     0
 71
     0
  1
AcDbOsnapPointRef
 72
    13
331
316
 73
     2
 91
        0
 40
0.0
 10
272.7408504554787
 20
351.6249480892966
 30
0.0
 75
     0
  1
AcDbOsnapPointRef
 72
    13
331
388
 73
     2
 91
        0
 40
0.0
 10
300.7408504554787
 20
343.6249480892966
 30
0.0
 75
     0
  0
DIMASSOC
  5
2D8
102
{ACAD_REACTORS
330
2D7
102
}
330
2D7
100
AcDbDimAssoc
330
2D6
 90
        3
 70
     0
 71
     0
  1
AcDbOsnapPointRef
 72
     1
331
324
 73
     2
 91
        0
 40
1.0
 10
46.66360480874937
 20
319.6249490893642
 30
0.0
 75
     0
  1
AcDbOsnapPointRef
 72
     1
331
32B
 73
     2
 91
        0
 40
1.0
 10
108.6636048087493
 20
319.6249490893642
 30
0.0
 75
     0
  0
DIMASSOC
  5
2E8
102
{ACAD_REACTORS
330
2E7
102
}
330
2E7
100
AcDbDimAssoc
330
2E6
 90
        2
 70
     0
 71
     0
  1
AcDbOsnapPointRef
 72
     1
331
348
 73
     2
 91
        0
 40
1.0
 10
197.7441834554774
 20
320.3249480892977
 30
0.0
 75
     0
  0
DIMASSOC
  5
2F9
102
{ACAD_REACTORS
330
2F8
102
}
330
2F8
100
AcDbDimAssoc
330
2F7
 90
        3
 70
     0
 71
     0
  1
AcDbOsnapPointRef
 72
     1
331
348
 73
     2
 91
        0
 40
1.0
 10
197.7441834554774
 20
320.3249480892977
 30
0.0
 75
     0
  1
AcDbOsnapPointRef
 72
    13
331
366
 73
     2
 91
        0
 40
0.0
 10
272.7408504554787
 20
351.6249480892966
 30
0.0
 75
     0
  0
MLINESTYLE
  5
9B
102
{ACAD_REACTORS
330
99
102
}
330
99
100
AcDbMlineStyle
  2
STANDARD
 70
     0
  3

 62
   256
 51
90.0
 52
90.0
 71
     2
 49
0.5
 62
   256
  6
BYLAYER
 49
-0.5
 62
   256
  6
BYLAYER
  0
ACDBPLACEHOLDER
  5
7
102
{ACAD_REACTORS
330
8
102
}
330
8
100
AcDbPlaceHolder
280
     0
  0
XRECORD
  5
4D0
102
{ACAD_REACTORS
330
4C6
102
}
330
4C6
100
AcDbXrecord
 90
        0
  0
XRECORD
  5
4D4
102
{ACAD_REACTORS
330
4C6
102
}
330
4C6
100
AcDbXrecord
1000
DSTYLE
1002
{
1070
    79
 70
     2
1070
   179
 70
     1
1070
   289
 70
     0
1002
}
  0
XRECORD
  5
4D1
102
{ACAD_REACTORS
330
4C6
102
}
330
4C6
100
AcDbXrecord
  1
{FDEAD578-A652-11D2-9A35-0060089B3A3F}
  0
XRECORD
  5
4C9
102
{ACAD_REACTORS
330
4C6
102
}
330
4C6
100
AcDbXrecord
  1

  0
XRECORD
  5
4CF
102
{ACAD_REACTORS
330
4C6
102
}
330
4C6
100
AcDbXrecord
 90
        4
  0
XRECORD
  5
4CB
102
{ACAD_REACTORS
330
4C6
102
}
330
4C6
100
AcDbXrecord
340
D
  0
XRECORD
  5
4CE
102
{ACAD_REACTORS
330
4C6
102
}
330
4C6
100
AcDbXrecord
 90
    10781
  0
XRECORD
  5
4CC
102
{ACAD_REACTORS
330
4C6
102
}
330
4C6
100
AcDbXrecord
340
9A
  0
XRECORD
  5
4CD
102
{ACAD_REACTORS
330
4C6
102
}
330
4C6
100
AcDbXrecord
340
8
  0
XRECORD
  5
4D3
102
{ACAD_REACTORS
330
4C6
102
}
330
4C6
100
AcDbXrecord
 40
0.0
  0
XRECORD
  5
4D7
102
{ACAD_REACTORS
330
4C6
102
}
330
4C6
100
AcDbXrecord
340
0
  0
XRECORD
  5
4DD
102
{ACAD_REACTORS
330
4C6
102
}
330
4C6
100
AcDbXrecord
 10
0.0
 20
0.0
 30
0.0
  0
XRECORD
  5
4D9
102
{ACAD_REACTORS
330
4C6
102
}
330
4C6
100
AcDbXrecord
 10
0.0
 20
0.0
 30
0.0
  0
XRECORD
  5
4DC
102
{ACAD_REACTORS
330
4C6
102
}
330
4C6
100
AcDbXrecord
 10
0.0
 20
0.0
 30
0.0
  0
XRECORD
  5
4DA
102
{ACAD_REACTORS
330
4C6
102
}
330
4C6
100
AcDbXrecord
 10
0.0
 20
0.0
 30
0.0
  0
XRECORD
  5
4DB
102
{ACAD_REACTORS
330
4C6
102
}
330
4C6
100
AcDbXrecord
 10
0.0
 20
0.0
 30
0.0
  0
XRECORD
  5
4D8
102
{ACAD_REACTORS
330
4C6
102
}
330
4C6
100
AcDbXrecord
 10
0.0
 20
0.0
 30
0.0
  0
XRECORD
  5
4D5
102
{ACAD_REACTORS
330
4C6
102
}
330
4C6
100
AcDbXrecord
340
0
  0
XRECORD
  5
4D6
102
{ACAD_REACTORS
330
4C6
102
}
330
4C6
100
AcDbXrecord
 70
     0
  0
XRECORD
  5
4CA
102
{ACAD_REACTORS
330
4C6
102
}
330
4C6
100
AcDbXrecord
  1

  0
XRECORD
  5
4C7
102
{ACAD_REACTORS
330
4C6
102
}
330
4C6
100
AcDbXrecord
 90
        1
  0
XRECORD
  5
4C8
102
{ACAD_REACTORS
330
4C6
102
}
330
4C6
100
AcDbXrecord
 90
       70
  0
XRECORD
  5
4E0
102
{ACAD_REACTORS
330
4C6
102
}
330
4C6
100
AcDbXrecord
340
0
  0
XRECORD
  5
4E6
102
{ACAD_REACTORS
330
4C6
102
}
330
4C6
100
AcDbXrecord
 10
0.0
 20
0.0
 30
0.0
  0
XRECORD
  5
4E2
102
{ACAD_REACTORS
330
4C6
102
}
330
4C6
100
AcDbXrecord
 10
0.0
 20
0.0
 30
0.0
  0
XRECORD
  5
4E5
102
{ACAD_REACTORS
330
4C6
102
}
330
4C6
100
AcDbXrecord
 10
0.0
 20
0.0
 30
0.0
  0
XRECORD
  5
4E3
102
{ACAD_REACTORS
330
4C6
102
}
330
4C6
100
AcDbXrecord
 10
0.0
 20
0.0
 30
0.0
  0
XRECORD
  5
4E4
102
{ACAD_REACTORS
330
4C6
102
}
330
4C6
100
AcDbXrecord
 10
0.0
 20
0.0
 30
0.0
  0
XRECORD
  5
4E1
102
{ACAD_REACTORS
330
4C6
102
}
330
4C6
100
AcDbXrecord
 10
0.0
 20
0.0
 30
0.0
  0
XRECORD
  5
4DE
102
{ACAD_REACTORS
330
4C6
102
}
330
4C6
100
AcDbXrecord
340
0
  0
XRECORD
  5
4DF
102
{ACAD_REACTORS
330
4C6
102
}
330
4C6
100
AcDbXrecord
 70
     0
  0
XRECORD
  5
4D2
102
{ACAD_REACTORS
330
4C6
102
}
330
4C6
100
AcDbXrecord
  1
{AE90A43D-C17C-4BB7-9483-1DA5EA22B116}
  0
DICTIONARYVAR
  5
38B
102
{ACAD_REACTORS
330
389
102
}
330
389
100
DictionaryVariables
280
     0
  1
2
  0
DICTIONARYVAR
  5
38A
102
{ACAD_REACTORS
330
389
102
}
330
389
100
DictionaryVariables
280
     0
  1
1
  0
XRECORD
  5
17
102
{ACAD_REACTORS
330
16
102
}
330
16
100
AcDbXrecord
  1
$layers
  1
*
  1
*
  1
*
 70
     0
  1
*
  1
*
  0
XRECORD
  5
18
102
{ACAD_REACTORS
330
16
102
}
330
16
100
AcDbXrecord
  1
- und 0
  1
-*,0
  1
*
  1
*
 70
     0
  1
*
  1
*
  0
XRECORD
  5
19
102
{ACAD_REACTORS
330
16
102
}
330
16
100
AcDbXrecord
  1
-pegc
  1
*-pegc
  1
*
  1
*
 70
     0
  1
*
  1
*
  0
XRECORD
  5
1A
102
{ACAD_REACTORS
330
16
102
}
330
16
100
AcDbXrecord
  1
101
  1
*101
  1
*
  1
*
 70
   256
  1
*
  1
*
  0
XRECORD
  5
1B
102
{ACAD_REACTORS
330
16
102
}
330
16
100
AcDbXrecord
  1
102
  1
102*
  1
*
  1
*
 70
     0
  1
*
  1
*
  0
XRECORD
  5
1C
102
{ACAD_REACTORS
330
16
102
}
330
16
100
AcDbXrecord
  1
1duc
  1
*1duc*
  1
*
  1
*
 70
     0
  1
*
  1
*
  0
XRECORD
  5
1D
102
{ACAD_REACTORS
330
16
102
}
330
16
100
AcDbXrecord
  1
1eq
  1
*1eq*
  1
*
  1
*
 70
     0
  1
*
  1
*
  0
XRECORD
  5
1E
102
{ACAD_REACTORS
330
16
102
}
330
16
100
AcDbXrecord
  1
1tub
  1
*1t*
  1
*
  1
*
 70
     0
  1
*
  1
*
  0
XRECORD
  5
1F
102
{ACAD_REACTORS
330
16
102
}
330
16
100
AcDbXrecord
  1
2
  1
*
  1
2
  1
*
 70
     0
  1
*
  1
*
  0
XRECORD
  5
20
102
{ACAD_REACTORS
330
16
102
}
330
16
100
AcDbXrecord
  1
2000
  1
2000*
  1
*
  1
*
 70
     0
  1
*
  1
*
  0
XRECORD
  5
21
102
{ACAD_REACTORS
330
16
102
}
330
16
100
AcDbXrecord
  1
50
  1
*-50
  1
*
  1
*
 70
     0
  1
*
  1
*
  0
XRECORD
  5
22
102
{ACAD_REACTORS
330
16
102
}
330
16
100
AcDbXrecord
  1
58J
  1
*58*
  1
*
  1
*
 70
     0
  1
*
  1
*
  0
XRECORD
  5
23
102
{ACAD_REACTORS
330
16
102
}
330
16
100
AcDbXrecord
  1
65
  1
*65
  1
*
  1
*
 70
     0
  1
*
  1
*
  0
XRECORD
  5
24
102
{ACAD_REACTORS
330
16
102
}
330
16
100
AcDbXrecord
  1
aa
  1
aa*
  1
*
  1
*
 70
     0
  1
*
  1
*
  0
XRECORD
  5
25
102
{ACAD_REACTORS
330
16
102
}
330
16
100
AcDbXrecord
  1
acabados
  1
a-*
  1
*
  1
*
 70
     5
  1
*
  1
*
  0
XRECORD
  5
26
102
{ACAD_REACTORS
330
16
102
}
330
16
100
AcDbXrecord
  1
AGUA Y DREN
  1
A-DS-*
  1
*
  1
*
 70
     0
  1
*
  1
*
  0
XRECORD
  5
27
102
{ACAD_REACTORS
330
16
102
}
330
16
100
AcDbXrecord
  1
Aire
  1
*
  1
*
  1
*
 70
     0
  1
*
  1
*
  0
XRECORD
  5
28
102
{ACAD_REACTORS
330
16
102
}
330
16
100
AcDbXrecord
  1
alle aus
  1
99999999999
  1
*
  1
*
 70
     0
  1
*
  1
*
  0
XRECORD
  5
29
102
{ACAD_REACTORS
330
16
102
}
330
16
100
AcDbXrecord
  1
Alles mit S
  1
s*
  1
*
  1
*
 70
     0
  1
*
  1
*
  0
XRECORD
  5
2A
102
{ACAD_REACTORS
330
16
102
}
330
16
100
AcDbXrecord
  1
amarillo
  1
*
  1
yellow
  1
*
 70
     0
  1
*
  1
*
  0
XRECORD
  5
2B
102
{ACAD_REACTORS
330
16
102
}
330
16
100
AcDbXrecord
  1
APAGADOS
  1
*
  1
*
  1
*
 70
     4
  1
*
  1
*
  0
XRECORD
  5
2C
102
{ACAD_REACTORS
330
16
102
}
330
16
100
AcDbXrecord
  1
ARR
  1
ARR*
  1
*
  1
*
 70
     0
  1
*
  1
*
  0
XRECORD
  5
2D
102
{ACAD_REACTORS
330
16
102
}
330
16
100
AcDbXrecord
  1
ba
  1
*
  1
*
  1
*
 70
     0
  1
*
  1
*
  0
XRECORD
  5
2E
102
{ACAD_REACTORS
330
16
102
}
330
16
100
AcDbXrecord
  1
BACKS
  1
*-H
  1
*
  1
*
 70
     0
  1
*
  1
*
  0
XRECORD
  5
2F
102
{ACAD_REACTORS
330
16
102
}
330
16
100
AcDbXrecord
  1
BASE
  1
*-PBASE
  1
*
  1
*
 70
     0
  1
*
  1
*
  0
XRECORD
  5
30
102
{ACAD_REACTORS
330
16
102
}
330
16
100
AcDbXrecord
  1
BLOQ_INUTIL
  1
*
  1
*
  1
*
 70
     0
  1
*
  1
*
  0
XRECORD
  5
31
102
{ACAD_REACTORS
330
16
102
}
330
16
100
AcDbXrecord
  1
CADKON
  1
?[KAHBSM]?????[23M],?[KAHBSM]?????[23M][1456A-DGHILN-SU-Z]
  1
*
  1
*
 70
     0
  1
*
  1
*
  0
XRECORD
  5
32
102
{ACAD_REACTORS
330
16
102
}
330
16
100
AcDbXrecord
  1
carpinteria
  1
carp*
  1
*
  1
*
 70
     0
  1
*
  1
*
  0
XRECORD
  5
33
102
{ACAD_REACTORS
330
16
102
}
330
16
100
AcDbXrecord
  1
cerrados
  1
*
  1
*
  1
*
 70
   256
  1
*
  1
*
  0
XRECORD
  5
34
102
{ACAD_REACTORS
330
16
102
}
330
16
100
AcDbXrecord
  1
COL
  1
*
  1
*
  1
*
 70
     1
  1
*
  1
*
  0
XRECORD
  5
35
102
{ACAD_REACTORS
330
16
102
}
330
16
100
AcDbXrecord
  1
COLOR
  1
*
  1
253
  1
*
 70
     0
  1
*
  1
*
  0
XRECORD
  5
36
102
{ACAD_REACTORS
330
16
102
}
330
16
100
AcDbXrecord
  1
color 250
  1
*
  1
250
  1
*
 70
     0
  1
*
  1
*
  0
XRECORD
  5
37
102
{ACAD_REACTORS
330
16
102
}
330
16
100
AcDbXrecord
  1
COLORES
  1
*
  1
6
  1
*
 70
     0
  1
*
  1
*
  0
XRECORD
  5
38
102
{ACAD_REACTORS
330
16
102
}
330
16
100
AcDbXrecord
  1
Congelados
  1
*
  1
*
  1
*
 70
     4
  1
*
  1
*
  0
XRECORD
  5
39
102
{ACAD_REACTORS
330
16
102
}
330
16
100
AcDbXrecord
  1
CONJUNTO
  1
CON-*
  1
*
  1
*
 70
     0
  1
*
  1
*
  0
XRECORD
  5
3A
102
{ACAD_REACTORS
330
16
102
}
330
16
100
AcDbXrecord
  1
d1
  1
achurados
  1
*
  1
*
 70
     0
  1
*
  1
*
  0
XRECORD
  5
3B
102
{ACAD_REACTORS
330
16
102
}
330
16
100
AcDbXrecord
  1
DA_
  1
DA*
  1
*
  1
*
 70
     0
  1
*
  1
*
  0
XRECORD
  5
3C
102
{ACAD_REACTORS
330
16
102
}
330
16
100
AcDbXrecord
  1
DET-
  1
*
  1
*
  1
*
 70
     0
  1
*
  1
*
  0
XRECORD
  5
3D
102
{ACAD_REACTORS
330
16
102
}
330
16
100
AcDbXrecord
  1
DOR-H
  1
*
  1
7
  1
*
 70
     0
  1
*
  1
*
  0
XRECORD
  5
3E
102
{ACAD_REACTORS
330
16
102
}
330
16
100
AcDbXrecord
  1
ejes
  1
eje*
  1
*
  1
*
 70
     0
  1
*
  1
*
  0
XRECORD
  5
3F
102
{ACAD_REACTORS
330
16
102
}
330
16
100
AcDbXrecord
  1
ELECTRICO
  1
ELEC-*
  1
*
  1
*
 70
     0
  1
*
  1
*
  0
XRECORD
  5
40
102
{ACAD_REACTORS
330
16
102
}
330
16
100
AcDbXrecord
  1
F1
  1
Halaxref*
  1
*
  1
*
 70
     0
  1
*
  1
*
  0
XRECORD
  5
41
102
{ACAD_REACTORS
330
16
102
}
330
16
100
AcDbXrecord
  1
frozen
  1
*
  1
*
  1
*
 70
     4
  1
*
  1
*
  0
XRECORD
  5
42
102
{ACAD_REACTORS
330
16
102
}
330
16
100
AcDbXrecord
  1
grid
  1
*-PGRID
  1
*
  1
*
 70
     1
  1
*
  1
*
  0
XRECORD
  5
43
102
{ACAD_REACTORS
330
16
102
}
330
16
100
AcDbXrecord
  1
GRIDTXT
  1
*-PGRIDT
  1
*
  1
*
 70
     0
  1
*
  1
*
  0
XRECORD
  5
44
102
{ACAD_REACTORS
330
16
102
}
330
16
100
AcDbXrecord
  1
HATCH
  1
HAT*
  1
*
  1
*
 70
     0
  1
*
  1
*
  0
XRECORD
  5
45
102
{ACAD_REACTORS
330
16
102
}
330
16
100
AcDbXrecord
  1
HCAD
  1
1HCAD-*
  1
*
  1
*
 70
    13
  1
*
  1
*
  0
XRECORD
  5
46
102
{ACAD_REACTORS
330
16
102
}
330
16
100
AcDbXrecord
  1
INSTALACIONES
  1
I-*
  1
*
  1
*
 70
     0
  1
*
  1
*
  0
XRECORD
  5
47
102
{ACAD_REACTORS
330
16
102
}
330
16
100
AcDbXrecord
  1
JIZNI
  1
*-J
  1
*
  1
*
 70
     0
  1
*
  1
*
  0
XRECORD
  5
48
102
{ACAD_REACTORS
330
16
102
}
330
16
100
AcDbXrecord
  1
kck
  1
*
  1
*
  1
*
 70
     0
  1
*
  1
*
  0
XRECORD
  5
49
102
{ACAD_REACTORS
330
16
102
}
330
16
100
AcDbXrecord
  1
kkk
  1
k
  1
*
  1
*
 70
     0
  1
*
  1
*
  0
XRECORD
  5
4A
102
{ACAD_REACTORS
330
16
102
}
330
16
100
AcDbXrecord
  1
lay
  1
??-*
  1
*
  1
*
 70
     0
  1
*
  1
*
  0
XRECORD
  5
4E
102
{ACAD_REACTORS
330
16
102
}
330
16
100
AcDbXrecord
  1
Layer-0
  1
0*
  1
*
  1
*
 70
     0
  1
*
  1
*
  0
XRECORD
  5
4F
102
{ACAD_REACTORS
330
16
102
}
330
16
100
AcDbXrecord
  1
Layer-1
  1
1*
  1
*
  1
*
 70
     0
  1
*
  1
*
  0
XRECORD
  5
4B
102
{ACAD_REACTORS
330
16
102
}
330
16
100
AcDbXrecord
  1
Layer 1 und 0
  1
1*,0
  1
*
  1
*
 70
     0
  1
*
  1
*
  0
XRECORD
  5
4C
102
{ACAD_REACTORS
330
16
102
}
330
16
100
AcDbXrecord
  1
Layer 2 und 0
  1
2*,0
  1
*
  1
*
 70
     0
  1
*
  1
*
  0
XRECORD
  5
4D
102
{ACAD_REACTORS
330
16
102
}
330
16
100
AcDbXrecord
  1
Layer 9 und 0 Schraffur
  1
9*,0
  1
*
  1
*
 70
     0
  1
*
  1
*
  0
XRECORD
  5
50
102
{ACAD_REACTORS
330
16
102
}
330
16
100
AcDbXrecord
  1
LOCK
  1
*
  1
*
  1
*
 70
   256
  1
*
  1
*
  0
XRECORD
  5
51
102
{ACAD_REACTORS
330
16
102
}
330
16
100
AcDbXrecord
  1
locked
  1
*
  1
*
  1
*
 70
   256
  1
*
  1
*
  0
XRECORD
  5
52
102
{ACAD_REACTORS
330
16
102
}
330
16
100
AcDbXrecord
  1
Lotes
  1
*
  1
*
  1
*
 70
     1
  1
*
  1
*
  0
XRECORD
  5
53
102
{ACAD_REACTORS
330
16
102
}
330
16
100
AcDbXrecord
  1
LUNAR
  1
*
  1
*
  1
*
 70
    48
  1
*
  1
*
  0
XRECORD
  5
54
102
{ACAD_REACTORS
330
16
102
}
330
16
100
AcDbXrecord
  1
LUNAR2
  1
*
  1
*
  1
*
 70
    12
  1
*
  1
*
  0
XRECORD
  5
55
102
{ACAD_REACTORS
330
16
102
}
330
16
100
AcDbXrecord
  1
M
  1
M*
  1
*
  1
*
 70
     0
  1
*
  1
*
  0
XRECORD
  5
56
102
{ACAD_REACTORS
330
16
102
}
330
16
100
AcDbXrecord
  1
mis_layers
  1
mis_*
  1
*
  1
*
 70
     0
  1
*
  1
*
  0
XRECORD
  5
57
102
{ACAD_REACTORS
330
16
102
}
330
16
100
AcDbXrecord
  1
MRKCK
  1
*
  1
*
  1
*
 70
     0
  1
*
  1
*
  0
XRECORD
  5
58
102
{ACAD_REACTORS
330
16
102
}
330
16
100
AcDbXrecord
  1
NECADKON
  1
~*?[KAHBSM]?????[23M]*
  1
*
  1
*
 70
     0
  1
*
  1
*
  0
XRECORD
  5
59
102
{ACAD_REACTORS
330
16
102
}
330
16
100
AcDbXrecord
  1
NI_LH
  1
NI_LH*
  1
*
  1
*
 70
     0
  1
*
  1
*
  0
XRECORD
  5
5A
102
{ACAD_REACTORS
330
16
102
}
330
16
100
AcDbXrecord
  1
NI_RH
  1
NI_RH*
  1
*
  1
*
 70
     0
  1
*
  1
*
  0
XRECORD
  5
5B
102
{ACAD_REACTORS
330
16
102
}
330
16
100
AcDbXrecord
  1
NUM
  1
NUM*
  1
*
  1
*
 70
     0
  1
*
  1
*
  0
XRECORD
  5
5C
102
{ACAD_REACTORS
330
16
102
}
330
16
100
AcDbXrecord
  1
off
  1
*
  1
*
  1
*
 70
     3
  1
*
  1
*
  0
XRECORD
  5
5D
102
{ACAD_REACTORS
330
16
102
}
330
16
100
AcDbXrecord
  1
on
  1
*
  1
*
  1
*
 70
     0
  1
*
  1
*
  0
XRECORD
  5
5E
102
{ACAD_REACTORS
330
16
102
}
330
16
100
AcDbXrecord
  1
PBASE
  1
*PBASE
  1
*
  1
*
 70
     0
  1
*
  1
*
  0
XRECORD
  5
5F
102
{ACAD_REACTORS
330
16
102
}
330
16
100
AcDbXrecord
  1
PEGC
  1
*PEGC
  1
*
  1
*
 70
     0
  1
*
  1
*
  0
XRECORD
  5
60
102
{ACAD_REACTORS
330
16
102
}
330
16
100
AcDbXrecord
  1
PEGCT
  1
*PEGCT
  1
*
  1
*
 70
     0
  1
*
  1
*
  0
XRECORD
  5
61
102
{ACAD_REACTORS
330
16
102
}
330
16
100
AcDbXrecord
  1
PFRAME
  1
PFRAME*
  1
*
  1
*
 70
     0
  1
*
  1
*
  0
XRECORD
  5
62
102
{ACAD_REACTORS
330
16
102
}
330
16
100
AcDbXrecord
  1
PGRID
  1
*PGRID
  1
*
  1
*
 70
     0
  1
*
  1
*
  0
XRECORD
  5
63
102
{ACAD_REACTORS
330
16
102
}
330
16
100
AcDbXrecord
  1
PGRIDT
  1
*PGRIDT
  1
*
  1
*
 70
     0
  1
*
  1
*
  0
XRECORD
  5
64
102
{ACAD_REACTORS
330
16
102
}
330
16
100
AcDbXrecord
  1
PLAFONES
  1
0-*
  1
*
  1
*
 70
     0
  1
*
  1
*
  0
XRECORD
  5
65
102
{ACAD_REACTORS
330
16
102
}
330
16
100
AcDbXrecord
  1
PLANTAS
  1
P-*
  1
*
  1
*
 70
     0
  1
*
  1
*
  0
XRECORD
  5
66
102
{ACAD_REACTORS
330
16
102
}
330
16
100
AcDbXrecord
  1
Plot
  1
*
  1
*
  1
*
 70
  1024
  1
*
  1
*
  0
XRECORD
  5
67
102
{ACAD_REACTORS
330
16
102
}
330
16
100
AcDbXrecord
  1
PRENDIDAS
  1
*
  1
*
  1
*
 70
    13
  1
*
  1
*
  0
XRECORD
  5
68
102
{ACAD_REACTORS
330
16
102
}
330
16
100
AcDbXrecord
  1
PRENDIDOS
  1
*
  1
*
  1
*
 70
    12
  1
*
  1
*
  0
XRECORD
  5
69
102
{ACAD_REACTORS
330
16
102
}
330
16
100
AcDbXrecord
  1
print
  1
*
  1
7
  1
*
 70
  1280
  1
*
  1
*
  0
XRECORD
  5
6A
102
{ACAD_REACTORS
330
16
102
}
330
16
100
AcDbXrecord
  1
PT
  1
PT-*
  1
*
  1
*
 70
     0
  1
*
  1
*
  0
XRECORD
  5
6B
102
{ACAD_REACTORS
330
16
102
}
330
16
100
AcDbXrecord
  1
PTH
  1
PTH*
  1
*
  1
*
 70
     0
  1
*
  1
*
  0
XRECORD
  5
6C
102
{ACAD_REACTORS
330
16
102
}
330
16
100
AcDbXrecord
  1
PVGRID
  1
*PVGRID
  1
*
  1
*
 70
     0
  1
*
  1
*
  0
XRECORD
  5
6D
102
{ACAD_REACTORS
330
16
102
}
330
16
100
AcDbXrecord
  1
Red de Agua Potable
  1
Red de Agua Potable
  1
*
  1
*
 70
     1
  1
*
  1
*
  0
XRECORD
  5
6E
102
{ACAD_REACTORS
330
16
102
}
330
16
100
AcDbXrecord
  1
Red de Energia Electrica
  1
Lotes
  1
*
  1
*
 70
     1
  1
*
  1
*
  0
XRECORD
  5
6F
102
{ACAD_REACTORS
330
16
102
}
330
16
100
AcDbXrecord
  1
SEVERNI
  1
*-S
  1
*
  1
*
 70
     0
  1
*
  1
*
  0
XRECORD
  5
70
102
{ACAD_REACTORS
330
16
102
}
330
16
100
AcDbXrecord
  1
shin
  1
일*
  1
*
  1
*
 70
     0
  1
*
  1
*
  0
XRECORD
  5
71
102
{ACAD_REACTORS
330
16
102
}
330
16
100
AcDbXrecord
  1
SHOW ALL LAYER
  1
*
  1
*
  1
*
 70
     0
  1
*
  1
*
  0
XRECORD
  5
72
102
{ACAD_REACTORS
330
16
102
}
330
16
100
AcDbXrecord
  1
sin
  1
sin
  1
*
  1
*
 70
     0
  1
*
  1
*
  0
XRECORD
  5
73
102
{ACAD_REACTORS
330
16
102
}
330
16
100
AcDbXrecord
  1
STORAGE-CART
  1
STORAGE-CART*
  1
*
  1
*
 70
     0
  1
*
  1
*
  0
XRECORD
  5
74
102
{ACAD_REACTORS
330
16
102
}
330
16
100
AcDbXrecord
  1
T
  1
T*
  1
*
  1
*
 70
     0
  1
*
  1
*
  0
XRECORD
  5
75
102
{ACAD_REACTORS
330
16
102
}
330
16
100
AcDbXrecord
  1
TEXTOS
  1
TXT*
  1
*
  1
*
 70
     0
  1
*
  1
*
  0
XRECORD
  5
76
102
{ACAD_REACTORS
330
16
102
}
330
16
100
AcDbXrecord
  1
TEXTURAS
  1
*TEXTURAS
  1
*
  1
*
 70
     0
  1
*
  1
*
  0
XRECORD
  5
77
102
{ACAD_REACTORS
330
16
102
}
330
16
100
AcDbXrecord
  1
TUBERIAS
  1
T*
  1
*
  1
*
 70
     0
  1
*
  1
*
  0
XRECORD
  5
78
102
{ACAD_REACTORS
330
16
102
}
330
16
100
AcDbXrecord
  1
UNFRZ
  1
*
  1
*
  1
*
 70
    12
  1
*
  1
*
  0
XRECORD
  5
79
102
{ACAD_REACTORS
330
16
102
}
330
16
100
AcDbXrecord
  1
v\U+0161echny nepou\U+017E\U+00EDvan\U+00E9
  1
*
  1
*
  1
*
 70
     0
  1
*
  1
*
  0
XRECORD
  5
7A
102
{ACAD_REACTORS
330
16
102
}
330
16
100
AcDbXrecord
  1
VA
  1
VA*
  1
*
  1
*
 70
     0
  1
*
  1
*
  0
XRECORD
  5
7B
102
{ACAD_REACTORS
330
16
102
}
330
16
100
AcDbXrecord
  1
Ventilaci\U+00F3n
  1
*
  1
*
  1
*
 70
     0
  1
*
  1
*
  0
XRECORD
  5
7C
102
{ACAD_REACTORS
330
16
102
}
330
16
100
AcDbXrecord
  1
VYHODNI
  1
*-V
  1
*
  1
*
 70
     0
  1
*
  1
*
  0
XRECORD
  5
7D
102
{ACAD_REACTORS
330
16
102
}
330
16
100
AcDbXrecord
  1
Yo
  1
Muros
  1
*
  1
*
 70
     0
  1
*
  1
*
  0
XRECORD
  5
7E
102
{ACAD_REACTORS
330
16
102
}
330
16
100
AcDbXrecord
  1
ZAPADNI
  1
*-Z
  1
*
  1
*
 70
     0
  1
*
  1
*
  0
XRECORD
  5
7F
102
{ACAD_REACTORS
330
16
102
}
330
16
100
AcDbXrecord
  1
사용
  1
*
  1
*
  1
*
 70
   256
  1
*
  1
*
  0
XRECORD
  5
80
102
{ACAD_REACTORS
330
16
102
}
330
16
100
AcDbXrecord
  1
신규
  1
신규
  1
*
  1
*
 70
     0
  1
*
  1
*
  0
XRECORD
  5
81
102
{ACAD_REACTORS
330
16
102
}
330
16
100
AcDbXrecord
  1
실박스
  1
BLO,SYM,SYM1,SYM2
  1
*
  1
*
 70
     0
  1
*
  1
*
  0
XRECORD
  5
82
102
{ACAD_REACTORS
330
16
102
}
330
16
100
AcDbXrecord
  1
우리토목
  1
w-*
  1
*
  1
*
 70
     0
  1
*
  1
*
  0
XRECORD
  5
83
102
{ACAD_REACTORS
330
16
102
}
330
16
100
AcDbXrecord
  1
주차
  1
car*
  1
*
  1
*
 70
     0
  1
*
  1
*
  0
XRECORD
  5
84
102
{ACAD_REACTORS
330
16
102
}
330
16
100
AcDbXrecord
  1
지상정밀
  1
*
  1
*
  1
*
 70
     0
  1
*
  1
*
  0
XRECORD
  5
85
102
{ACAD_REACTORS
330
16
102
}
330
16
100
AcDbXrecord
  1
쩜선
  1
*
  1
*
  1
*
 70
     0
  1
*
  1
*
  0
XRECORD
  5
86
102
{ACAD_REACTORS
330
16
102
}
330
16
100
AcDbXrecord
  1
플로터 작업층
  1
*
  1
*
  1
*
 70
  1025
  1
*
  1
*
  0
XRECORD
  5
87
102
{ACAD_REACTORS
330
16
102
}
330
16
100
AcDbXrecord
  1
현재 작업층
  1
*
  1
*
  1
*
 70
     1
  1
*
  1
*
  0
XRECORD
  5
88
102
{ACAD_REACTORS
330
16
102
}
330
16
100
AcDbXrecord
  1
현재 잠금
  1
*
  1
*
  1
*
 70
   257
  1
*
  1
*
  0
ENDSEC
  0
EOF
