  0
SECTION
  2
HEADER
  9
$ACADVER
  1
AC1015
  9
$ACADMAINTVER
 70
    20
  9
$DWGCODEPAGE
  3
ANSI_949
  9
$INSBASE
 10
0.0
 20
0.0
 30
0.0
  9
$EXTMIN
 10
20.27069191945566
 20
6.858037241148963
 30
-0.0000000349181948
  9
$EXTMAX
 10
333.2070931620048
 20
346.2727214149635
 30
0.0000000814935747
  9
$LIMMIN
 10
0.0
 20
0.0
  9
$LIMMAX
 10
420.0
 20
297.0
  9
$ORTHOMODE
 70
     0
  9
$REGENMODE
 70
     1
  9
$FILLMODE
 70
     1
  9
$QTEXTMODE
 70
     0
  9
$MIRRTEXT
 70
     0
  9
$LTSCALE
 40
1.0
  9
$ATTMODE
 70
     1
  9
$TEXTSIZE
 40
5.777225951253058
  9
$TRACEWID
 40
1.0
  9
$TEXTSTYLE
  7
STANDARD
  9
$CLAYER
  8
0
  9
$CELTYPE
  6
BYLAYER
  9
$CECOLOR
 62
   256
  9
$CELTSCALE
 40
1.0
  9
$DISPSILH
 70
     0
  9
$DIMSCALE
 40
1.0
  9
$DIMASZ
 40
3.0
  9
$DIMEXO
 40
1.0
  9
$DIMDLI
 40
10.0
  9
$DIMRND
 40
0.0
  9
$DIMDLE
 40
0.0
  9
$DIMEXE
 40
0.6
  9
$DIMTP
 40
0.0
  9
$DIMTM
 40
0.0
  9
$DIMTXT
 40
3.5
  9
$DIMCEN
 40
0.09
  9
$DIMTSZ
 40
0.0
  9
$DIMTOL
 70
     0
  9
$DIMLIM
 70
     0
  9
$DIMTIH
 70
     0
  9
$DIMTOH
 70
     0
  9
$DIMSE1
 70
     0
  9
$DIMSE2
 70
     0
  9
$DIMTAD
 70
     1
  9
$DIMZIN
 70
     8
  9
$DIMBLK
  1

  9
$DIMASO
 70
     1
  9
$DIMSHO
 70
     1
  9
$DIMPOST
  1

  9
$DIMAPOST
  1

  9
$DIMALT
 70
     0
  9
$DIMALTD
 70
     2
  9
$DIMALTF
 40
25.4
  9
$DIMLFAC
 40
1.0
  9
$DIMTOFL
 70
     1
  9
$DIMTVP
 40
0.0
  9
$DIMTIX
 70
     1
  9
$DIMSOXD
 70
     0
  9
$DIMSAH
 70
     0
  9
$DIMBLK1
  1

  9
$DIMBLK2
  1

  9
$DIMSTYLE
  2
1_1_2
  9
$DIMCLRD
 70
   123
  9
$DIMCLRE
 70
   123
  9
$DIMCLRT
 70
     3
  9
$DIMTFAC
 40
1.0
  9
$DIMGAP
 40
1.0
  9
$DIMJUST
 70
     0
  9
$DIMSD1
 70
     0
  9
$DIMSD2
 70
     0
  9
$DIMTOLJ
 70
     1
  9
$DIMTZIN
 70
     0
  9
$DIMALTZ
 70
     0
  9
$DIMALTTZ
 70
     0
  9
$DIMUPT
 70
     1
  9
$DIMDEC
 70
     2
  9
$DIMTDEC
 70
     2
  9
$DIMALTU
 70
     2
  9
$DIMALTTD
 70
     2
  9
$DIMTXSTY
  7
STANDARD
  9
$DIMAUNIT
 70
     1
  9
$DIMADEC
 70
     1
  9
$DIMALTRND
 40
0.0
  9
$DIMAZIN
 70
     2
  9
$DIMDSEP
 70
    46
  9
$DIMATFIT
 70
     3
  9
$DIMFRAC
 70
     0
  9
$DIMLDRBLK
  1

  9
$DIMLUNIT
 70
     2
  9
$DIMLWD
 70
    -2
  9
$DIMLWE
 70
    -2
  9
$DIMTMOVE
 70
     0
  9
$LUNITS
 70
     2
  9
$LUPREC
 70
     4
  9
$SKETCHINC
 40
1.0
  9
$FILLETRAD
 40
0.0
  9
$AUNITS
 70
     0
  9
$AUPREC
 70
     0
  9
$MENU
  1
.
  9
$ELEVATION
 40
0.0
  9
$PELEVATION
 40
0.0
  9
$THICKNESS
 40
0.0
  9
$LIMCHECK
 70
     0
  9
$CHAMFERA
 40
1.0
  9
$CHAMFERB
 40
1.0
  9
$CHAMFERC
 40
20.0
  9
$CHAMFERD
 40
0.0
  9
$SKPOLY
 70
     0
  9
$TDCREATE
 40
2452839.586179271
  9
$TDUCREATE
 40
2452839.211179271
  9
$TDUPDATE
 40
2457092.525078403
  9
$TDUUPDATE
 40
2457092.150078403
  9
$TDINDWG
 40
11.1407514005
  9
$TDUSRTIMER
 40
11.1407513079
  9
$USRTIMER
 70
     1
  9
$ANGBASE
 50
0.0
  9
$ANGDIR
 70
     0
  9
$PDMODE
 70
     0
  9
$PDSIZE
 40
0.0
  9
$PLINEWID
 40
0.0
  9
$SPLFRAME
 70
     0
  9
$SPLINETYPE
 70
     6
  9
$SPLINESEGS
 70
   800
  9
$HANDSEED
  5
BEB
  9
$SURFTAB1
 70
     6
  9
$SURFTAB2
 70
     6
  9
$SURFTYPE
 70
     6
  9
$SURFU
 70
     6
  9
$SURFV
 70
     6
  9
$UCSBASE
  2

  9
$UCSNAME
  2

  9
$UCSORG
 10
0.0
 20
0.0
 30
0.0
  9
$UCSXDIR
 10
1.0
 20
0.0
 30
0.0
  9
$UCSYDIR
 10
0.0
 20
1.0
 30
0.0
  9
$UCSORTHOREF
  2

  9
$UCSORTHOVIEW
 70
     0
  9
$UCSORGTOP
 10
0.0
 20
0.0
 30
0.0
  9
$UCSORGBOTTOM
 10
0.0
 20
0.0
 30
0.0
  9
$UCSORGLEFT
 10
0.0
 20
0.0
 30
0.0
  9
$UCSORGRIGHT
 10
0.0
 20
0.0
 30
0.0
  9
$UCSORGFRONT
 10
0.0
 20
0.0
 30
0.0
  9
$UCSORGBACK
 10
0.0
 20
0.0
 30
0.0
  9
$PUCSBASE
  2

  9
$PUCSNAME
  2

  9
$PUCSORG
 10
0.0
 20
0.0
 30
0.0
  9
$PUCSXDIR
 10
1.0
 20
0.0
 30
0.0
  9
$PUCSYDIR
 10
0.0
 20
1.0
 30
0.0
  9
$PUCSORTHOREF
  2

  9
$PUCSORTHOVIEW
 70
     0
  9
$PUCSORGTOP
 10
0.0
 20
0.0
 30
0.0
  9
$PUCSORGBOTTOM
 10
0.0
 20
0.0
 30
0.0
  9
$PUCSORGLEFT
 10
0.0
 20
0.0
 30
0.0
  9
$PUCSORGRIGHT
 10
0.0
 20
0.0
 30
0.0
  9
$PUCSORGFRONT
 10
0.0
 20
0.0
 30
0.0
  9
$PUCSORGBACK
 10
0.0
 20
0.0
 30
0.0
  9
$USERI1
 70
     0
  9
$USERI2
 70
     0
  9
$USERI3
 70
     0
  9
$USERI4
 70
     0
  9
$USERI5
 70
     0
  9
$USERR1
 40
0.0
  9
$USERR2
 40
0.0
  9
$USERR3
 40
0.0
  9
$USERR4
 40
0.0
  9
$USERR5
 40
0.0
  9
$WORLDVIEW
 70
     1
  9
$SHADEDGE
 70
     3
  9
$SHADEDIF
 70
    70
  9
$TILEMODE
 70
     1
  9
$MAXACTVP
 70
    48
  9
$PINSBASE
 10
0.0
 20
0.0
 30
0.0
  9
$PLIMCHECK
 70
     0
  9
$PEXTMIN
 10
0.0
 20
0.0
 30
0.0
  9
$PEXTMAX
 10
0.0
 20
0.0
 30
0.0
  9
$PLIMMIN
 10
0.0
 20
0.0
  9
$PLIMMAX
 10
12.0
 20
9.0
  9
$UNITMODE
 70
     0
  9
$VISRETAIN
 70
     1
  9
$PLINEGEN
 70
     0
  9
$PSLTSCALE
 70
     1
  9
$TREEDEPTH
 70
  3020
  9
$CMLSTYLE
  2
STANDARD
  9
$CMLJUST
 70
     0
  9
$CMLSCALE
 40
20.0
  9
$PROXYGRAPHICS
 70
     1
  9
$MEASUREMENT
 70
     1
  9
$CELWEIGHT
370
    -1
  9
$ENDCAPS
280
     0
  9
$JOINSTYLE
280
     0
  9
$LWDISPLAY
290
     0
  9
$INSUNITS
 70
     4
  9
$HYPERLINKBASE
  1

  9
$STYLESHEET
  1

  9
$XEDIT
290
     1
  9
$CEPSNTYPE
380
     0
  9
$PSTYLEMODE
290
     1
  9
$FINGERPRINTGUID
  2
{FDEAD578-A652-11D2-9A35-0060089B3A3F}
  9
$VERSIONGUID
  2
{2DCDF743-F87F-43D2-BDFD-FE91967BD0A4}
  9
$EXTNAMES
290
     1
  9
$PSVPSCALE
 40
0.0
  9
$OLESTARTUP
290
     0
  0
ENDSEC
  0
SECTION
  2
CLASSES
  0
CLASS
  1
ACDBDICTIONARYWDFLT
  2
AcDbDictionaryWithDefault
  3
ObjectDBX Classes
 90
        0
280
     0
281
     0
  0
CLASS
  1
ACDBPLACEHOLDER
  2
AcDbPlaceHolder
  3
ObjectDBX Classes
 90
        0
280
     0
281
     0
  0
CLASS
  1
LAYOUT
  2
AcDbLayout
  3
ObjectDBX Classes
 90
        0
280
     0
281
     0
  0
CLASS
  1
DICTIONARYVAR
  2
AcDbDictionaryVar
  3
ObjectDBX Classes
 90
        0
280
     0
281
     0
  0
CLASS
  1
DIMASSOC
  2
AcDbDimAssoc
  3
"AcDbDimAssoc|Product Desc:     AcDim ARX App For Dimension|Company:          Autodesk, Inc.|WEB Address:      www.autodesk.com"
 90
        0
280
     0
281
     0
  0
CLASS
  1
MATERIAL
  2
AcDbMaterial
  3
ObjectDBX Classes
 90
     1153
280
     0
281
     0
  0
CLASS
  1
VISUALSTYLE
  2
AcDbVisualStyle
  3
ObjectDBX Classes
 90
     4095
280
     0
281
     0
  0
CLASS
  1
TABLESTYLE
  2
AcDbTableStyle
  3
ObjectDBX Classes
 90
     4095
280
     0
281
     0
  0
CLASS
  1
SCALE
  2
AcDbScale
  3
ObjectDBX Classes
 90
     1153
280
     0
281
     0
  0
CLASS
  1
MLEADERSTYLE
  2
AcDbMLeaderStyle
  3
ACDB_MLEADERSTYLE_CLASS
 90
     4095
280
     0
281
     0
  0
CLASS
  1
EXACXREFPANELOBJECT
  2
ExAcXREFPanelObject
  3
EXAC_ESW
 90
     1025
280
     0
281
     0
  0
CLASS
  1
NPOCOLLECTION
  2
AcDbImpNonPersistentObjectsCollection
  3
ObjectDBX Classes
 90
     1153
280
     0
281
     0
  0
CLASS
  1
CELLSTYLEMAP
  2
AcDbCellStyleMap
  3
ObjectDBX Classes
 90
     1152
280
     0
281
     0
  0
CLASS
  1
SORTENTSTABLE
  2
AcDbSortentsTable
  3
ObjectDBX Classes
 90
    32768
280
     0
281
     0
  0
CLASS
  1
AEC_REFEDIT_STATUS_TRACKER
  2
AecDbRefEditStatusTracker
  3
AecArchBase50|Product Desc: Autodesk Architectural Desktop 2007 |Company: Autodesk,Inc. |WEB Address: www.autodesk.com
 90
    32897
280
     0
281
     0
  0
ENDSEC
  0
SECTION
  2
TABLES
  0
TABLE
  2
VPORT
  5
92
330
0
100
AcDbSymbolTable
 70
     1
  0
VPORT
  5
4FA
330
92
100
AcDbSymbolTableRecord
100
AcDbViewportTableRecord
  2
*ACTIVE
 70
     0
 10
0.0
 20
0.0
 11
1.0
 21
1.0
 12
176.7388925407303
 22
176.5653793280562
 13
0.0
 23
0.0
 14
10.0
 24
10.0
 15
10.0
 25
10.0
 16
0.0
 26
0.0
 36
1.0
 17
0.0
 27
0.0
 37
0.0
 40
341.9382134241774
 41
1.640198511166253
 42
50.0
 43
0.0
 44
0.0
 50
0.0
 51
0.0
 71
     0
 72
 10000
 73
     1
 74
     3
 75
     0
 76
     0
 77
     0
 78
     1
281
     0
 65
     1
110
0.0
120
0.0
130
0.0
111
1.0
121
0.0
131
0.0
112
0.0
122
1.0
132
0.0
 79
     0
146
0.0
  0
ENDTAB
  0
TABLE
  2
LTYPE
  5
8D
330
0
100
AcDbSymbolTable
 70
     2
  0
LTYPE
  5
8E
330
8D
100
AcDbSymbolTableRecord
100
AcDbLinetypeTableRecord
  2
BYBLOCK
 70
     0
  3

 72
    65
 73
     0
 40
0.0
  0
LTYPE
  5
8F
330
8D
100
AcDbSymbolTableRecord
100
AcDbLinetypeTableRecord
  2
BYLAYER
 70
     0
  3

 72
    65
 73
     0
 40
0.0
  0
LTYPE
  5
A
330
8D
100
AcDbSymbolTableRecord
100
AcDbLinetypeTableRecord
  2
CONTINUOUS
 70
     0
  3
Solid line
 72
    65
 73
     0
 40
0.0
  0
LTYPE
  5
E1
330
8D
100
AcDbSymbolTableRecord
100
AcDbLinetypeTableRecord
  2
CENTER
 70
     0
  3
Center ____ _ ____ _ ____ _ ____ _ ____ _ ____
 72
    65
 73
     4
 40
50.8
 49
31.75
 74
     0
 49
-6.349999999999997
 74
     0
 49
6.349999999999997
 74
     0
 49
-6.349999999999997
 74
     0
  0
ENDTAB
  0
TABLE
  2
LAYER
  5
14
102
{ACAD_XDICTIONARY
360
15
102
}
330
0
100
AcDbSymbolTable
 70
     2
  0
LAYER
  5
6
102
{ACAD_XDICTIONARY
360
B9F
102
}
330
14
100
AcDbSymbolTableRecord
100
AcDbLayerTableRecord
  2
0
 70
     0
 62
     7
  6
CONTINUOUS
370
    -3
390
7
  0
LAYER
  5
A9
330
14
100
AcDbSymbolTableRecord
100
AcDbLayerTableRecord
  2
DEFPOINTS
 70
     0
 62
     7
  6
CONTINUOUS
290
     0
370
    -3
390
7
  0
ENDTAB
  0
TABLE
  2
STYLE
  5
8A
330
0
100
AcDbSymbolTable
 70
     1
  0
STYLE
  5
8B
330
8A
100
AcDbSymbolTableRecord
100
AcDbTextStyleTableRecord
  2
STANDARD
 70
     0
 40
0.0
 41
1.0
 50
0.0
 71
     0
 42
5.777225951253058
  3
romans.shx
  4
whgtxt.shx
  0
ENDTAB
  0
TABLE
  2
VIEW
  5
90
330
0
100
AcDbSymbolTable
 70
     0
  0
ENDTAB
  0
TABLE
  2
UCS
  5
91
330
0
100
AcDbSymbolTable
 70
     0
  0
ENDTAB
  0
TABLE
  2
APPID
  5
94
330
0
100
AcDbSymbolTable
 70
     5
  0
APPID
  5
95
330
94
100
AcDbSymbolTableRecord
100
AcDbRegAppTableRecord
  2
ACAD
 70
     0
  0
APPID
  5
51E
330
94
100
AcDbSymbolTableRecord
100
AcDbRegAppTableRecord
  2
CONTENTBLOCKICON
 70
     0
  0
APPID
  5
563
330
94
100
AcDbSymbolTableRecord
100
AcDbRegAppTableRecord
  2
ACAD_MLEADERVER
 70
     0
  0
APPID
  5
63D
330
94
100
AcDbSymbolTableRecord
100
AcDbRegAppTableRecord
  2
ACAD_PSEXT
 70
     0
  0
APPID
  5
63E
330
94
100
AcDbSymbolTableRecord
100
AcDbRegAppTableRecord
  2
ACAD_NAV_VCDISPLAY
 70
     0
  0
ENDTAB
  0
TABLE
  2
DIMSTYLE
  5
96
330
0
100
AcDbSymbolTable
 70
     2
100
AcDbDimStyleTable
 71
     0
  0
DIMSTYLE
105
A0
102
{ACAD_REACTORS
330
18D
330
326
330
339
330
215
330
224
330
236
330
1B2
330
1CA
330
2D4
330
35C
330
34C
330
28F
330
1DF
330
830
330
832
330
833
330
78F
330
799
330
79E
330
7A1
330
7A4
330
7A7
330
7BC
330
7BF
330
7C2
330
7C6
330
7E0
330
7E1
330
81B
102
}
330
96
100
AcDbSymbolTableRecord
100
AcDbDimStyleTableRecord
  2
STANDARD
 70
     0
 41
2.5
 42
1.0
 43
10.0
 44
0.6
 73
     0
 74
     0
 77
     1
 78
     8
140
3.0
147
1.0
172
     1
174
     1
176
   123
177
   123
178
     3
271
     2
272
     2
275
     1
288
     1
340
8B
  0
DIMSTYLE
105
9C
330
96
100
AcDbSymbolTableRecord
100
AcDbDimStyleTableRecord
  2
1_1_2
 70
     0
 41
3.0
 42
1.0
 43
10.0
 44
0.6
 73
     0
 74
     0
 77
     1
 78
     8
140
3.5
147
1.0
172
     1
174
     1
176
   123
177
   123
178
     3
271
     2
272
     2
275
     1
288
     1
340
8B
  0
ENDTAB
  0
TABLE
  2
BLOCK_RECORD
  5
1
330
0
100
AcDbSymbolTable
 70
    45
  0
BLOCK_RECORD
  5
2
102
{ACAD_XDICTIONARY
360
3
102
}
330
1
100
AcDbSymbolTableRecord
100
AcDbBlockTableRecord
  2
*MODEL_SPACE
340
564
  0
BLOCK_RECORD
  5
E
102
{ACAD_XDICTIONARY
360
F
102
}
330
1
100
AcDbSymbolTableRecord
100
AcDbBlockTableRecord
  2
*PAPER_SPACE
340
565
  0
BLOCK_RECORD
  5
42D
330
1
100
AcDbSymbolTableRecord
100
AcDbBlockTableRecord
  2
*D0
340
0
  0
BLOCK_RECORD
  5
445
330
1
100
AcDbSymbolTableRecord
100
AcDbBlockTableRecord
  2
*D1
340
0
  0
BLOCK_RECORD
  5
451
330
1
100
AcDbSymbolTableRecord
100
AcDbBlockTableRecord
  2
*D2
340
0
  0
BLOCK_RECORD
  5
45C
330
1
100
AcDbSymbolTableRecord
100
AcDbBlockTableRecord
  2
*D3
340
0
  0
BLOCK_RECORD
  5
468
330
1
100
AcDbSymbolTableRecord
100
AcDbBlockTableRecord
  2
*D4
340
0
  0
BLOCK_RECORD
  5
474
330
1
100
AcDbSymbolTableRecord
100
AcDbBlockTableRecord
  2
*D5
340
0
  0
BLOCK_RECORD
  5
49A
330
1
100
AcDbSymbolTableRecord
100
AcDbBlockTableRecord
  2
*D6
340
0
  0
BLOCK_RECORD
  5
4A6
330
1
100
AcDbSymbolTableRecord
100
AcDbBlockTableRecord
  2
*D7
340
0
  0
BLOCK_RECORD
  5
4B4
330
1
100
AcDbSymbolTableRecord
100
AcDbBlockTableRecord
  2
*D8
340
0
  0
BLOCK_RECORD
  5
4C0
330
1
100
AcDbSymbolTableRecord
100
AcDbBlockTableRecord
  2
*D9
340
0
  0
BLOCK_RECORD
  5
4CC
330
1
100
AcDbSymbolTableRecord
100
AcDbBlockTableRecord
  2
*D10
340
0
  0
BLOCK_RECORD
  5
4D8
330
1
100
AcDbSymbolTableRecord
100
AcDbBlockTableRecord
  2
*D11
340
0
  0
BLOCK_RECORD
  5
4E4
330
1
100
AcDbSymbolTableRecord
100
AcDbBlockTableRecord
  2
*D12
340
0
  0
BLOCK_RECORD
  5
86B
330
1
100
AcDbSymbolTableRecord
100
AcDbBlockTableRecord
  2
*D13
340
0
  0
BLOCK_RECORD
  5
877
330
1
100
AcDbSymbolTableRecord
100
AcDbBlockTableRecord
  2
*D14
340
0
  0
BLOCK_RECORD
  5
885
330
1
100
AcDbSymbolTableRecord
100
AcDbBlockTableRecord
  2
*D15
340
0
  0
BLOCK_RECORD
  5
891
330
1
100
AcDbSymbolTableRecord
100
AcDbBlockTableRecord
  2
*D16
340
0
  0
BLOCK_RECORD
  5
89D
330
1
100
AcDbSymbolTableRecord
100
AcDbBlockTableRecord
  2
*D17
340
0
  0
BLOCK_RECORD
  5
8A9
330
1
100
AcDbSymbolTableRecord
100
AcDbBlockTableRecord
  2
*D18
340
0
  0
BLOCK_RECORD
  5
8B4
330
1
100
AcDbSymbolTableRecord
100
AcDbBlockTableRecord
  2
*D19
340
0
  0
BLOCK_RECORD
  5
8EF
330
1
100
AcDbSymbolTableRecord
100
AcDbBlockTableRecord
  2
*D20
340
0
  0
BLOCK_RECORD
  5
8FB
330
1
100
AcDbSymbolTableRecord
100
AcDbBlockTableRecord
  2
*D21
340
0
  0
BLOCK_RECORD
  5
907
330
1
100
AcDbSymbolTableRecord
100
AcDbBlockTableRecord
  2
*D22
340
0
  0
BLOCK_RECORD
  5
913
330
1
100
AcDbSymbolTableRecord
100
AcDbBlockTableRecord
  2
*D23
340
0
  0
BLOCK_RECORD
  5
91F
330
1
100
AcDbSymbolTableRecord
100
AcDbBlockTableRecord
  2
*D24
340
0
  0
BLOCK_RECORD
  5
92B
330
1
100
AcDbSymbolTableRecord
100
AcDbBlockTableRecord
  2
*D25
340
0
  0
BLOCK_RECORD
  5
937
330
1
100
AcDbSymbolTableRecord
100
AcDbBlockTableRecord
  2
*D26
340
0
  0
BLOCK_RECORD
  5
945
330
1
100
AcDbSymbolTableRecord
100
AcDbBlockTableRecord
  2
*D27
340
0
  0
BLOCK_RECORD
  5
962
330
1
100
AcDbSymbolTableRecord
100
AcDbBlockTableRecord
  2
*D28
340
0
  0
BLOCK_RECORD
  5
ADC
330
1
100
AcDbSymbolTableRecord
100
AcDbBlockTableRecord
  2
*D29
340
0
  0
BLOCK_RECORD
  5
AE8
330
1
100
AcDbSymbolTableRecord
100
AcDbBlockTableRecord
  2
*D30
340
0
  0
BLOCK_RECORD
  5
AF4
330
1
100
AcDbSymbolTableRecord
100
AcDbBlockTableRecord
  2
*D31
340
0
  0
BLOCK_RECORD
  5
B00
330
1
100
AcDbSymbolTableRecord
100
AcDbBlockTableRecord
  2
*D32
340
0
  0
BLOCK_RECORD
  5
B0C
330
1
100
AcDbSymbolTableRecord
100
AcDbBlockTableRecord
  2
*D33
340
0
  0
BLOCK_RECORD
  5
B18
330
1
100
AcDbSymbolTableRecord
100
AcDbBlockTableRecord
  2
*D34
340
0
  0
BLOCK_RECORD
  5
B24
330
1
100
AcDbSymbolTableRecord
100
AcDbBlockTableRecord
  2
*D35
340
0
  0
BLOCK_RECORD
  5
B30
330
1
100
AcDbSymbolTableRecord
100
AcDbBlockTableRecord
  2
*D36
340
0
  0
BLOCK_RECORD
  5
B3C
330
1
100
AcDbSymbolTableRecord
100
AcDbBlockTableRecord
  2
*D37
340
0
  0
BLOCK_RECORD
  5
B4A
330
1
100
AcDbSymbolTableRecord
100
AcDbBlockTableRecord
  2
*D38
340
0
  0
BLOCK_RECORD
  5
B56
330
1
100
AcDbSymbolTableRecord
100
AcDbBlockTableRecord
  2
*D39
340
0
  0
BLOCK_RECORD
  5
B61
330
1
100
AcDbSymbolTableRecord
100
AcDbBlockTableRecord
  2
*D40
340
0
  0
BLOCK_RECORD
  5
B6D
330
1
100
AcDbSymbolTableRecord
100
AcDbBlockTableRecord
  2
*D41
340
0
  0
BLOCK_RECORD
  5
B79
330
1
100
AcDbSymbolTableRecord
100
AcDbBlockTableRecord
  2
*D42
340
0
  0
BLOCK_RECORD
  5
B85
330
1
100
AcDbSymbolTableRecord
100
AcDbBlockTableRecord
  2
*D43
340
0
  0
BLOCK_RECORD
  5
B93
330
1
100
AcDbSymbolTableRecord
100
AcDbBlockTableRecord
  2
*D44
340
0
  0
ENDTAB
  0
ENDSEC
  0
SECTION
  2
BLOCKS
  0
BLOCK
  5
5
330
2
100
AcDbEntity
  8
0
100
AcDbBlockBegin
  2
*MODEL_SPACE
 70
     0
 10
0.0
 20
0.0
 30
0.0
  3
*MODEL_SPACE
  1

  0
ENDBLK
  5
B
330
2
100
AcDbEntity
  8
0
100
AcDbBlockEnd
  0
BLOCK
  5
11
330
E
100
AcDbEntity
 67
     1
  8
0
100
AcDbBlockBegin
  2
*PAPER_SPACE
 70
     0
 10
0.0
 20
0.0
 30
0.0
  3
*PAPER_SPACE
  1

  0
ENDBLK
  5
12
330
E
100
AcDbEntity
 67
     1
  8
0
100
AcDbBlockEnd
  0
BLOCK
  5
437
330
42D
100
AcDbEntity
  8
0
100
AcDbBlockBegin
  2
*D0
 70
     1
 10
0.0
 20
0.0
 30
0.0
  3
*D0
  1

  0
LINE
  5
42E
330
42D
100
AcDbEntity
  8
0
 62
   123
100
AcDbLine
 10
250.9247599719838
 20
286.4595616198166
 30
0.0
 11
278.0716141079626
 21
286.4595616198166
 31
0.0
  0
LINE
  5
42F
330
42D
100
AcDbEntity
  8
0
 62
   123
100
AcDbLine
 10
250.9247599719838
 20
207.4595616198157
 30
0.0
 11
278.0716141079626
 21
207.4595616198157
 31
0.0
  0
LINE
  5
430
330
42D
100
AcDbEntity
  8
0
 62
   123
100
AcDbLine
 10
277.4716141079625
 20
283.9595616198166
 30
0.0
 11
277.4716141079625
 21
209.9595616198157
 31
0.0
  0
SOLID
  5
431
330
42D
100
AcDbEntity
  8
0
 62
   123
100
AcDbTrace
 10
277.0549474412959
 20
283.9595616198166
 30
0.0
 11
277.8882807746291
 21
283.9595616198166
 31
0.0
 12
277.4716141079625
 22
286.4595616198166
 32
0.0
 13
277.4716141079625
 23
286.4595616198166
 33
0.0
  0
SOLID
  5
432
330
42D
100
AcDbEntity
  8
0
 62
   123
100
AcDbTrace
 10
277.0549474412959
 20
209.9595616198157
 30
0.0
 11
277.8882807746291
 21
209.9595616198157
 31
0.0
 12
277.4716141079625
 22
207.4595616198157
 32
0.0
 13
277.4716141079625
 23
207.4595616198157
 33
0.0
  0
MTEXT
  5
433
330
42D
100
AcDbEntity
  8
0
 62
     3
100
AcDbMText
 10
274.9716141079625
 20
246.9595616198166
 30
0.0
 40
3.0
 41
0.0
 71
     5
 72
     1
  1
\A1;%%C79
 11
0.0000000000000001
 21
1.0
 31
0.0
 73
     1
 44
1.0
1001
ACAD
1000
MTEXTBEGIN
1070
    73
1070
     1
1070
    44
1040
1.0
1070
    74
1070
     0
1000
MTEXTEND
  0
POINT
  5
434
330
42D
100
AcDbEntity
  8
DEFPOINTS
 62
     0
100
AcDbPoint
 10
249.9247599719838
 20
286.4595616198166
 30
0.0
  0
POINT
  5
435
330
42D
100
AcDbEntity
  8
DEFPOINTS
 62
     0
100
AcDbPoint
 10
249.9247599719838
 20
207.4595616198157
 30
0.0
  0
POINT
  5
436
330
42D
100
AcDbEntity
  8
DEFPOINTS
 62
     0
100
AcDbPoint
 10
277.4716141079625
 20
207.4595616198157
 30
0.0
  0
ENDBLK
  5
438
330
42D
100
AcDbEntity
  8
0
100
AcDbBlockEnd
  0
BLOCK
  5
44F
330
445
100
AcDbEntity
  8
0
100
AcDbBlockBegin
  2
*D1
 70
     1
 10
0.0
 20
0.0
 30
0.0
  3
*D1
  1

  0
LINE
  5
446
330
445
100
AcDbEntity
  8
0
 62
   123
100
AcDbLine
 10
252.4214269719832
 20
327.9595606198181
 30
0.0
 11
252.4214269719832
 21
342.5985941039899
 31
0.0
  0
LINE
  5
447
330
445
100
AcDbEntity
  8
0
 62
   123
100
AcDbLine
 10
280.4214269719832
 20
319.9595606198181
 30
0.0
 11
280.4214269719832
 21
342.5985941039899
 31
0.0
  0
LINE
  5
448
330
445
100
AcDbEntity
  8
0
 62
   123
100
AcDbLine
 10
254.9214269719832
 20
341.9985941039899
 30
0.0
 11
277.9214269719832
 21
341.9985941039899
 31
0.0
  0
SOLID
  5
449
330
445
100
AcDbEntity
  8
0
 62
   123
100
AcDbTrace
 10
254.9214269719832
 20
342.4152607706566
 30
0.0
 11
254.9214269719832
 21
341.5819274373232
 31
0.0
 12
252.4214269719832
 22
341.9985941039899
 32
0.0
 13
252.4214269719832
 23
341.9985941039899
 33
0.0
  0
SOLID
  5
44A
330
445
100
AcDbEntity
  8
0
 62
   123
100
AcDbTrace
 10
277.9214269719832
 20
342.4152607706566
 30
0.0
 11
277.9214269719832
 21
341.5819274373232
 31
0.0
 12
280.4214269719832
 22
341.9985941039899
 32
0.0
 13
280.4214269719832
 23
341.9985941039899
 33
0.0
  0
MTEXT
  5
44B
330
445
100
AcDbEntity
  8
0
 62
     3
100
AcDbMText
 10
266.4214269719832
 20
344.4985941039899
 30
0.0
 40
3.0
 41
0.0
 71
     5
 72
     1
  1
\A1;MAX. 28
 73
     1
 44
1.0
1001
ACAD
1000
MTEXTBEGIN
1070
    73
1070
     1
1070
    44
1040
1.0
1070
    74
1070
     0
1000
MTEXTEND
  0
POINT
  5
44C
330
445
100
AcDbEntity
  8
DEFPOINTS
 62
     0
100
AcDbPoint
 10
252.4214269719832
 20
326.9595606198181
 30
0.0
  0
POINT
  5
44D
330
445
100
AcDbEntity
  8
DEFPOINTS
 62
     0
100
AcDbPoint
 10
280.4214269719832
 20
318.9595606198181
 30
0.0
  0
POINT
  5
44E
330
445
100
AcDbEntity
  8
DEFPOINTS
 62
     0
100
AcDbPoint
 10
280.4214269719832
 20
341.9985941039899
 30
0.0
  0
ENDBLK
  5
450
330
445
100
AcDbEntity
  8
0
100
AcDbBlockEnd
  0
BLOCK
  5
45A
330
451
100
AcDbEntity
  8
0
100
AcDbBlockBegin
  2
*D2
 70
     1
 10
0.0
 20
0.0
 30
0.0
  3
*D2
  1

  0
LINE
  5
4F2
330
451
100
AcDbEntity
  8
0
 62
   123
100
AcDbLine
 10
24.97257282435008
 20
216.9895919675068
 30
0.0
 11
22.98287194265684
 21
215.4759571365819
 31
0.0
  0
LINE
  5
4F3
330
451
100
AcDbEntity
  8
0
 62
   123
100
AcDbLine
 10
103.7647277393969
 20
276.9295312721305
 30
0.0
 11
134.1048409617269
 21
300.0103131977251
 31
0.0
  0
LINE
  5
4F4
330
451
100
AcDbEntity
  8
0
 62
   123
100
AcDbLine
 10
26.96227370604332
 20
218.5032267984318
 30
0.0
 11
101.7750268577037
 21
275.4158964412054
 31
0.0
  0
SOLID
  5
4F5
330
451
100
AcDbEntity
  8
0
 62
   123
100
AcDbTrace
 10
24.72030035252926
 20
217.3212087811224
 30
0.0
 11
25.2248452961709
 21
216.6579751538913
 31
0.0
 12
26.96227370604332
 22
218.5032267984318
 32
0.0
 13
26.96227370604332
 23
218.5032267984318
 33
0.0
  0
SOLID
  5
4F6
330
451
100
AcDbEntity
  8
0
 62
   123
100
AcDbTrace
 10
103.5124552675761
 20
277.261148085746
 30
0.0
 11
104.0170002112178
 21
276.5979144585149
 31
0.0
 12
101.7750268577037
 22
275.4158964412054
 32
0.0
 13
101.7750268577037
 23
275.4158964412054
 33
0.0
  0
MTEXT
  5
4F7
102
{ACAD_XDICTIONARY
360
BE0
102
}
330
451
100
AcDbEntity
  8
0
 62
     3
100
AcDbMText
 10
124.4618568141697
 20
295.8157346273535
 30
0.0
 40
3.0
 41
0.0
 71
     5
 72
     1
  1
\A1;\U+220594%%P0.5
 11
0.7958803526772936
 21
0.6054539323699756
 31
0.0
 73
     1
 44
1.0
1001
ACAD
1000
MTEXTBEGIN
1070
    73
1070
     1
1070
    44
1040
1.0
1070
    74
1070
     0
1000
MTEXTEND
  0
POINT
  5
4F8
330
451
100
AcDbEntity
  8
DEFPOINTS
 62
     0
100
AcDbPoint
 10
101.7750268577037
 20
275.4158964412054
 30
0.0
  0
POINT
  5
4F9
330
451
100
AcDbEntity
  8
DEFPOINTS
 62
     0
100
AcDbPoint
 10
26.96227370604332
 20
218.5032267984318
 30
0.0
  0
ENDBLK
  5
45B
330
451
100
AcDbEntity
  8
0
100
AcDbBlockEnd
  0
BLOCK
  5
466
330
45C
100
AcDbEntity
  8
0
100
AcDbBlockBegin
  2
*D3
 70
     1
 10
0.0
 20
0.0
 30
0.0
  3
*D3
  1

  0
LINE
  5
45D
330
45C
100
AcDbEntity
  8
0
 62
   123
100
AcDbLine
 10
168.9247599719838
 20
210.4595616198166
 30
0.0
 11
142.9810829545717
 21
210.4595616198166
 31
0.0
  0
LINE
  5
45E
330
45C
100
AcDbEntity
  8
0
 62
   123
100
AcDbLine
 10
168.9247599719838
 20
283.4595616198166
 30
0.0
 11
142.9810829545717
 21
283.4595616198166
 31
0.0
  0
LINE
  5
45F
330
45C
100
AcDbEntity
  8
0
 62
   123
100
AcDbLine
 10
143.5810829545717
 20
212.9595616198166
 30
0.0
 11
143.5810829545717
 21
280.9595616198166
 31
0.0
  0
SOLID
  5
460
330
45C
100
AcDbEntity
  8
0
 62
   123
100
AcDbTrace
 10
143.164416287905
 20
212.9595616198166
 30
0.0
 11
143.9977496212383
 21
212.9595616198166
 31
0.0
 12
143.5810829545717
 22
210.4595616198166
 32
0.0
 13
143.5810829545717
 23
210.4595616198166
 33
0.0
  0
SOLID
  5
461
330
45C
100
AcDbEntity
  8
0
 62
   123
100
AcDbTrace
 10
143.164416287905
 20
280.9595616198166
 30
0.0
 11
143.9977496212383
 21
280.9595616198166
 31
0.0
 12
143.5810829545717
 22
283.4595616198166
 32
0.0
 13
143.5810829545717
 23
283.4595616198166
 33
0.0
  0
MTEXT
  5
462
330
45C
100
AcDbEntity
  8
0
 62
     3
100
AcDbMText
 10
139.6309329545716
 20
247.3588693952401
 30
0.0
 40
3.0
 41
0.0
 71
     5
 72
     1
  1
\A1;\A1;{\f??|b0|i0|c0|p49;%%C}73{\f??|b0|i0|c0|p49;\H0.7x;\S+0^ -0.030;\H1.429x;(h7)}
 11
0.0000000000000001
 21
1.0
 31
0.0
 73
     1
 44
1.0
1001
ACAD
1000
MTEXTBEGIN
1070
    73
1070
     1
1070
    44
1040
1.0
1070
    74
1070
     0
1000
MTEXTEND
  0
POINT
  5
463
330
45C
100
AcDbEntity
  8
DEFPOINTS
 62
     0
100
AcDbPoint
 10
169.9247599719837
 20
210.4595616198166
 30
0.0
  0
POINT
  5
464
330
45C
100
AcDbEntity
  8
DEFPOINTS
 62
     0
100
AcDbPoint
 10
169.9247599719837
 20
283.4595616198166
 30
0.0
  0
POINT
  5
465
330
45C
100
AcDbEntity
  8
DEFPOINTS
 62
     0
100
AcDbPoint
 10
143.5810829545717
 20
283.4595616198166
 30
0.0
  0
ENDBLK
  5
467
330
45C
100
AcDbEntity
  8
0
100
AcDbBlockEnd
  0
BLOCK
  5
472
330
468
100
AcDbEntity
  8
0
100
AcDbBlockBegin
  2
*D4
 70
     1
 10
0.0
 20
0.0
 30
0.0
  3
*D4
  1

  0
LINE
  5
469
330
468
100
AcDbEntity
  8
0
 62
   123
100
AcDbLine
 10
158.4247599719837
 20
242.8650616198151
 30
0.0
 11
158.4247599719837
 21
182.753220402761
 31
0.0
  0
LINE
  5
46A
330
468
100
AcDbEntity
  8
0
 62
   123
100
AcDbLine
 10
171.9247599719837
 20
205.9595616198148
 30
0.0
 11
171.9247599719837
 21
182.753220402761
 31
0.0
  0
LINE
  5
46B
330
468
100
AcDbEntity
  8
0
 62
   123
100
AcDbLine
 10
160.9247599719838
 20
183.353220402761
 30
0.0
 11
169.4247599719838
 21
183.353220402761
 31
0.0
  0
SOLID
  5
46C
330
468
100
AcDbEntity
  8
0
 62
   123
100
AcDbTrace
 10
160.9247599719838
 20
183.7698870694277
 30
0.0
 11
160.9247599719838
 21
182.9365537360944
 31
0.0
 12
158.4247599719837
 22
183.353220402761
 32
0.0
 13
158.4247599719837
 23
183.353220402761
 33
0.0
  0
SOLID
  5
46D
330
468
100
AcDbEntity
  8
0
 62
   123
100
AcDbTrace
 10
169.4247599719838
 20
183.7698870694277
 30
0.0
 11
169.4247599719838
 21
182.9365537360944
 31
0.0
 12
171.9247599719837
 22
183.353220402761
 32
0.0
 13
171.9247599719837
 23
183.353220402761
 33
0.0
  0
MTEXT
  5
46E
330
468
100
AcDbEntity
  8
0
 62
     3
100
AcDbMText
 10
165.6576331545202
 20
185.853220402761
 30
0.0
 40
3.0
 41
0.0
 71
     5
 72
     1
  1
\A1;13.5
 73
     1
 44
1.0
1001
ACAD
1000
MTEXTBEGIN
1070
    73
1070
     1
1070
    44
1040
1.0
1070
    74
1070
     0
1000
MTEXTEND
  0
POINT
  5
46F
330
468
100
AcDbEntity
  8
DEFPOINTS
 62
     0
100
AcDbPoint
 10
158.4247599719837
 20
243.8650616198151
 30
0.0
  0
POINT
  5
470
330
468
100
AcDbEntity
  8
DEFPOINTS
 62
     0
100
AcDbPoint
 10
171.9247599719837
 20
206.9595616198148
 30
0.0
  0
POINT
  5
471
330
468
100
AcDbEntity
  8
DEFPOINTS
 62
     0
100
AcDbPoint
 10
171.9247599719837
 20
183.353220402761
 30
0.0
  0
ENDBLK
  5
473
330
468
100
AcDbEntity
  8
0
100
AcDbBlockEnd
  0
BLOCK
  5
47E
330
474
100
AcDbEntity
  8
0
100
AcDbBlockBegin
  2
*D5
 70
     1
 10
0.0
 20
0.0
 30
0.0
  3
*D5
  1

  0
LINE
  5
475
330
474
100
AcDbEntity
  8
0
 62
   123
100
AcDbLine
 10
24.36865028187094
 20
210.9595616198166
 30
0.0
 11
24.36865028187094
 21
190.7753660879319
 31
0.0
  0
LINE
  5
476
330
474
100
AcDbEntity
  8
0
 62
   123
100
AcDbLine
 10
104.3686502818709
 20
210.9595616198166
 30
0.0
 11
104.3686502818709
 21
190.7753660879319
 31
0.0
  0
LINE
  5
477
330
474
100
AcDbEntity
  8
0
 62
   123
100
AcDbLine
 10
26.86865028187094
 20
191.3753660879319
 30
0.0
 11
101.8686502818709
 21
191.3753660879319
 31
0.0
  0
SOLID
  5
478
330
474
100
AcDbEntity
  8
0
 62
   123
100
AcDbTrace
 10
26.86865028187094
 20
191.7920327545985
 30
0.0
 11
26.86865028187094
 21
190.9586994212653
 31
0.0
 12
24.36865028187094
 22
191.3753660879319
 32
0.0
 13
24.36865028187094
 23
191.3753660879319
 33
0.0
  0
SOLID
  5
479
330
474
100
AcDbEntity
  8
0
 62
   123
100
AcDbTrace
 10
101.8686502818709
 20
191.7920327545985
 30
0.0
 11
101.8686502818709
 21
190.9586994212653
 31
0.0
 12
104.3686502818709
 22
191.3753660879319
 32
0.0
 13
104.3686502818709
 23
191.3753660879319
 33
0.0
  0
MTEXT
  5
47A
330
474
100
AcDbEntity
  8
0
 62
     3
100
AcDbMText
 10
67.23612516895989
 20
193.8753660879319
 30
0.0
 40
3.0
 41
0.0
 71
     5
 72
     1
  1
\A1;80
 73
     1
 44
1.0
1001
ACAD
1000
MTEXTBEGIN
1070
    73
1070
     1
1070
    44
1040
1.0
1070
    74
1070
     0
1000
MTEXTEND
  0
POINT
  5
47B
330
474
100
AcDbEntity
  8
DEFPOINTS
 62
     0
100
AcDbPoint
 10
24.36865028187094
 20
211.9595616198166
 30
0.0
  0
POINT
  5
47C
330
474
100
AcDbEntity
  8
DEFPOINTS
 62
     0
100
AcDbPoint
 10
104.3686502818709
 20
211.9595616198166
 30
0.0
  0
POINT
  5
47D
330
474
100
AcDbEntity
  8
DEFPOINTS
 62
     0
100
AcDbPoint
 10
104.3686502818709
 20
191.3753660879319
 30
0.0
  0
ENDBLK
  5
47F
330
474
100
AcDbEntity
  8
0
100
AcDbBlockEnd
  0
BLOCK
  5
4A4
330
49A
100
AcDbEntity
  8
0
100
AcDbBlockBegin
  2
*D6
 70
     1
 10
0.0
 20
0.0
 30
0.0
  3
*D6
  1

  0
LINE
  5
AD3
330
49A
100
AcDbEntity
  8
0
 62
   123
370
    -2
100
AcDbLine
 10
171.9247599719837
 20
205.9595616198148
 30
0.0
 11
171.9247599719837
 21
182.753220402761
 31
0.0
  0
LINE
  5
AD4
330
49A
100
AcDbEntity
  8
0
 62
   123
370
    -2
100
AcDbLine
 10
256.9247599719838
 20
208.9595616198157
 30
0.0
 11
256.9247599719838
 21
182.753220402761
 31
0.0
  0
LINE
  5
AD5
330
49A
100
AcDbEntity
  8
0
 62
   123
370
    -2
100
AcDbLine
 10
174.4247599719837
 20
183.353220402761
 30
0.0
 11
254.4247599719838
 21
183.353220402761
 31
0.0
  0
SOLID
  5
AD6
330
49A
100
AcDbEntity
  8
0
 62
   123
100
AcDbTrace
 10
174.4247599719837
 20
183.7698870694276
 30
0.0
 11
174.4247599719837
 21
182.9365537360943
 31
0.0
 12
171.9247599719837
 22
183.353220402761
 32
0.0
 13
171.9247599719837
 23
183.353220402761
 33
0.0
  0
SOLID
  5
AD7
330
49A
100
AcDbEntity
  8
0
 62
   123
100
AcDbTrace
 10
254.4247599719838
 20
183.7698870694276
 30
0.0
 11
254.4247599719838
 21
182.9365537360943
 31
0.0
 12
256.9247599719838
 22
183.353220402761
 32
0.0
 13
256.9247599719838
 23
183.353220402761
 33
0.0
  0
MTEXT
  5
AD8
330
49A
100
AcDbEntity
  8
0
 62
     3
100
AcDbMText
 10
214.4247599719838
 20
185.853220402761
 30
0.0
 40
3.0
 41
0.0
 71
     5
 72
     1
  1
\A1;85
 73
     1
 44
1.0
1001
ACAD
1000
MTEXTBEGIN
1070
    73
1070
     1
1070
    44
1040
1.0
1070
    74
1070
     0
1000
MTEXTEND
  0
POINT
  5
AD9
330
49A
100
AcDbEntity
  8
DEFPOINTS
 62
     0
100
AcDbPoint
 10
171.9247599719837
 20
206.9595616198148
 30
0.0
  0
POINT
  5
ADA
330
49A
100
AcDbEntity
  8
DEFPOINTS
 62
     0
100
AcDbPoint
 10
256.9247599719838
 20
209.9595616198157
 30
0.0
  0
POINT
  5
ADB
330
49A
100
AcDbEntity
  8
DEFPOINTS
 62
     0
100
AcDbPoint
 10
256.9247599719838
 20
183.353220402761
 30
0.0
  0
ENDBLK
  5
4A5
330
49A
100
AcDbEntity
  8
0
100
AcDbBlockEnd
  0
BLOCK
  5
4B2
330
4A6
100
AcDbEntity
  8
0
100
AcDbBlockBegin
  2
*D7
 70
     1
 10
0.0
 20
0.0
 30
0.0
  3
*D7
  1

  0
LINE
  5
AB4
330
4A6
100
AcDbEntity
  8
0
 62
   123
370
    -2
100
AcDbLine
 10
169.9247599719837
 20
209.4595616198166
 30
0.0
 11
169.9247599719837
 21
193.620447621436
 31
0.0
  0
LINE
  5
AB5
330
4A6
100
AcDbEntity
  8
0
 62
   123
370
    -2
100
AcDbLine
 10
171.9247599719837
 20
205.9595616198148
 30
0.0
 11
171.9247599719837
 21
193.620447621436
 31
0.0
  0
LINE
  5
AB6
330
4A6
100
AcDbEntity
  8
0
 62
   123
370
    -2
100
AcDbLine
 10
174.4247599719837
 20
194.220447621436
 30
0.0
 11
176.9247599719837
 21
194.220447621436
 31
0.0
  0
LINE
  5
AB7
330
4A6
100
AcDbEntity
  8
0
 62
   123
370
    -2
100
AcDbLine
 10
167.4247599719837
 20
194.220447621436
 30
0.0
 11
160.9247599719837
 21
194.220447621436
 31
0.0
  0
LINE
  5
AB8
330
4A6
100
AcDbEntity
  8
0
 62
   123
370
    -2
100
AcDbLine
 10
171.9247599719837
 20
194.220447621436
 30
0.0
 11
169.9247599719837
 21
194.220447621436
 31
0.0
  0
SOLID
  5
AB9
330
4A6
100
AcDbEntity
  8
0
 62
   123
100
AcDbTrace
 10
174.4247599719837
 20
194.6371142881026
 30
0.0
 11
174.4247599719837
 21
193.8037809547693
 31
0.0
 12
171.9247599719837
 22
194.220447621436
 32
0.0
 13
171.9247599719837
 23
194.220447621436
 33
0.0
  0
SOLID
  5
ABA
330
4A6
100
AcDbEntity
  8
0
 62
   123
100
AcDbTrace
 10
167.4247599719837
 20
194.6371142881026
 30
0.0
 11
167.4247599719837
 21
193.8037809547693
 31
0.0
 12
169.9247599719837
 22
194.220447621436
 32
0.0
 13
169.9247599719837
 23
194.220447621436
 33
0.0
  0
MTEXT
  5
ABB
330
4A6
100
AcDbEntity
  8
0
 62
     3
100
AcDbMText
 10
162.9247599719837
 20
196.720447621436
 30
0.0
 40
3.0
 41
0.0
 71
     5
 72
     1
  1
\A1;2
 73
     1
 44
1.0
1001
ACAD
1000
MTEXTBEGIN
1070
    73
1070
     1
1070
    44
1040
1.0
1070
    74
1070
     0
1000
MTEXTEND
  0
POINT
  5
ABC
330
4A6
100
AcDbEntity
  8
DEFPOINTS
 62
     0
100
AcDbPoint
 10
169.9247599719837
 20
210.4595616198166
 30
0.0
  0
POINT
  5
ABD
330
4A6
100
AcDbEntity
  8
DEFPOINTS
 62
     0
100
AcDbPoint
 10
171.9247599719837
 20
206.9595616198148
 30
0.0
  0
POINT
  5
ABE
330
4A6
100
AcDbEntity
  8
DEFPOINTS
 62
     0
100
AcDbPoint
 10
171.9247599719837
 20
194.220447621436
 30
0.0
  0
ENDBLK
  5
4B3
330
4A6
100
AcDbEntity
  8
0
100
AcDbBlockEnd
  0
BLOCK
  5
4BE
330
4B4
100
AcDbEntity
  8
0
100
AcDbBlockBegin
  2
*D8
 70
     1
 10
0.0
 20
0.0
 30
0.0
  3
*D8
  1

  0
LINE
  5
4B5
330
4B4
100
AcDbEntity
  8
0
 62
   123
100
AcDbLine
 10
171.9247599719837
 20
204.9595616198148
 30
0.0
 11
171.9247599719837
 21
193.620447621436
 31
0.0
  0
LINE
  5
4B6
330
4B4
100
AcDbEntity
  8
0
 62
   123
100
AcDbLine
 10
178.9247599719837
 20
207.3608242782861
 30
0.0
 11
178.9247599719837
 21
193.620447621436
 31
0.0
  0
LINE
  5
4B7
330
4B4
100
AcDbEntity
  8
0
 62
   123
100
AcDbLine
 10
174.4247599719838
 20
194.220447621436
 30
0.0
 11
176.4247599719838
 21
194.220447621436
 31
0.0
  0
SOLID
  5
4B8
330
4B4
100
AcDbEntity
  8
0
 62
   123
100
AcDbTrace
 10
174.4247599719838
 20
194.6371142881027
 30
0.0
 11
174.4247599719838
 21
193.8037809547694
 31
0.0
 12
171.9247599719837
 22
194.220447621436
 32
0.0
 13
171.9247599719837
 23
194.220447621436
 33
0.0
  0
SOLID
  5
4B9
330
4B4
100
AcDbEntity
  8
0
 62
   123
100
AcDbTrace
 10
176.4247599719838
 20
194.6371142881027
 30
0.0
 11
176.4247599719838
 21
193.8037809547694
 31
0.0
 12
178.9247599719837
 22
194.220447621436
 32
0.0
 13
178.9247599719837
 23
194.220447621436
 33
0.0
  0
MTEXT
  5
4BA
330
4B4
100
AcDbEntity
  8
0
 62
     3
100
AcDbMText
 10
175.4247599719838
 20
196.720447621436
 30
0.0
 40
3.0
 41
0.0
 71
     5
 72
     1
  1
\A1;7
 73
     1
 44
1.0
1001
ACAD
1000
MTEXTBEGIN
1070
    73
1070
     1
1070
    44
1040
1.0
1070
    74
1070
     0
1000
MTEXTEND
  0
POINT
  5
4BB
330
4B4
100
AcDbEntity
  8
DEFPOINTS
 62
     0
100
AcDbPoint
 10
171.9247599719837
 20
205.9595616198148
 30
0.0
  0
POINT
  5
4BC
330
4B4
100
AcDbEntity
  8
DEFPOINTS
 62
     0
100
AcDbPoint
 10
178.9247599719837
 20
208.3608242782861
 30
0.0
  0
POINT
  5
4BD
330
4B4
100
AcDbEntity
  8
DEFPOINTS
 62
     0
100
AcDbPoint
 10
178.9247599719837
 20
194.220447621436
 30
0.0
  0
ENDBLK
  5
4BF
330
4B4
100
AcDbEntity
  8
0
100
AcDbBlockEnd
  0
BLOCK
  5
4CA
330
4C0
100
AcDbEntity
  8
0
100
AcDbBlockBegin
  2
*D9
 70
     1
 10
0.0
 20
0.0
 30
0.0
  3
*D9
  1

  0
LINE
  5
4C1
330
4C0
100
AcDbEntity
  8
0
 62
   123
100
AcDbLine
 10
100.3686502818709
 20
286.9595616198157
 30
0.0
 11
112.2879963531337
 21
286.9595616198157
 31
0.0
  0
LINE
  5
4C2
330
4C0
100
AcDbEntity
  8
0
 62
   123
100
AcDbLine
 10
93.89695628188199
 20
329.9595616198148
 30
0.0
 11
112.2879963531337
 21
329.9595616198148
 31
0.0
  0
LINE
  5
4C3
330
4C0
100
AcDbEntity
  8
0
 62
   123
100
AcDbLine
 10
111.6879963531337
 20
289.4595616198157
 30
0.0
 11
111.6879963531337
 21
327.4595616198148
 31
0.0
  0
SOLID
  5
4C4
330
4C0
100
AcDbEntity
  8
0
 62
   123
100
AcDbTrace
 10
111.271329686467
 20
289.4595616198157
 30
0.0
 11
112.1046630198004
 21
289.4595616198157
 31
0.0
 12
111.6879963531337
 22
286.9595616198157
 32
0.0
 13
111.6879963531337
 23
286.9595616198157
 33
0.0
  0
SOLID
  5
4C5
330
4C0
100
AcDbEntity
  8
0
 62
   123
100
AcDbTrace
 10
111.271329686467
 20
327.4595616198148
 30
0.0
 11
112.1046630198004
 21
327.4595616198148
 31
0.0
 12
111.6879963531337
 22
329.9595616198148
 32
0.0
 13
111.6879963531337
 23
329.9595616198148
 33
0.0
  0
MTEXT
  5
4C6
330
4C0
100
AcDbEntity
  8
0
 62
     3
100
AcDbMText
 10
109.1879963531337
 20
310.0971911757678
 30
0.0
 40
3.0
 41
0.0
 71
     5
 72
     1
  1
\A1;43
 11
0.0000000000000001
 21
1.0
 31
0.0
 73
     1
 44
1.0
1001
ACAD
1000
MTEXTBEGIN
1070
    73
1070
     1
1070
    44
1040
1.0
1070
    74
1070
     0
1000
MTEXTEND
  0
POINT
  5
4C7
330
4C0
100
AcDbEntity
  8
DEFPOINTS
 62
     0
100
AcDbPoint
 10
99.36865028187094
 20
286.9595616198157
 30
0.0
  0
POINT
  5
4C8
330
4C0
100
AcDbEntity
  8
DEFPOINTS
 62
     0
100
AcDbPoint
 10
92.896956281882
 20
329.9595616198148
 30
0.0
  0
POINT
  5
4C9
330
4C0
100
AcDbEntity
  8
DEFPOINTS
 62
     0
100
AcDbPoint
 10
111.6879963531337
 20
329.9595616198148
 30
0.0
  0
ENDBLK
  5
4CB
330
4C0
100
AcDbEntity
  8
0
100
AcDbBlockEnd
  0
BLOCK
  5
4D6
330
4CC
100
AcDbEntity
  8
0
100
AcDbBlockBegin
  2
*D10
 70
     1
 10
0.0
 20
0.0
 30
0.0
  3
*D10
  1

  0
LINE
  5
4CD
330
4CC
100
AcDbEntity
  8
0
 62
   123
100
AcDbLine
 10
33.36865028187094
 20
295.9595616198166
 30
0.0
 11
33.36865028187094
 21
342.8515353312719
 31
0.0
  0
LINE
  5
4CE
330
4CC
100
AcDbEntity
  8
0
 62
   123
100
AcDbLine
 10
95.36865028187094
 20
295.9595616198166
 30
0.0
 11
95.36865028187094
 21
342.8515353312719
 31
0.0
  0
LINE
  5
4CF
330
4CC
100
AcDbEntity
  8
0
 62
   123
100
AcDbLine
 10
35.86865028187093
 20
342.2515353312718
 30
0.0
 11
92.86865028187094
 21
342.2515353312718
 31
0.0
  0
SOLID
  5
4D0
330
4CC
100
AcDbEntity
  8
0
 62
   123
100
AcDbTrace
 10
35.86865028187093
 20
342.6682019979387
 30
0.0
 11
35.86865028187093
 21
341.8348686646051
 31
0.0
 12
33.36865028187094
 22
342.2515353312718
 32
0.0
 13
33.36865028187094
 23
342.2515353312718
 33
0.0
  0
SOLID
  5
4D1
330
4CC
100
AcDbEntity
  8
0
 62
   123
100
AcDbTrace
 10
92.86865028187094
 20
342.6682019979387
 30
0.0
 11
92.86865028187094
 21
341.8348686646051
 31
0.0
 12
95.36865028187094
 22
342.2515353312718
 32
0.0
 13
95.36865028187094
 23
342.2515353312718
 33
0.0
  0
MTEXT
  5
4D2
330
4CC
100
AcDbEntity
  8
0
 62
     3
100
AcDbMText
 10
64.36865028187094
 20
344.7515353312719
 30
0.0
 40
3.0
 41
0.0
 71
     5
 72
     1
  1
\A1;62
 73
     1
 44
1.0
1001
ACAD
1000
MTEXTBEGIN
1070
    73
1070
     1
1070
    44
1040
1.0
1070
    74
1070
     0
1000
MTEXTEND
  0
POINT
  5
4D3
330
4CC
100
AcDbEntity
  8
DEFPOINTS
 62
     0
100
AcDbPoint
 10
33.36865028187094
 20
294.9595616198166
 30
0.0
  0
POINT
  5
4D4
330
4CC
100
AcDbEntity
  8
DEFPOINTS
 62
     0
100
AcDbPoint
 10
95.36865028187094
 20
294.9595616198166
 30
0.0
  0
POINT
  5
4D5
330
4CC
100
AcDbEntity
  8
DEFPOINTS
 62
     0
100
AcDbPoint
 10
95.36865028187094
 20
342.2515353312718
 30
0.0
  0
ENDBLK
  5
4D7
330
4CC
100
AcDbEntity
  8
0
100
AcDbBlockEnd
  0
BLOCK
  5
4E2
330
4D8
100
AcDbEntity
  8
0
100
AcDbBlockBegin
  2
*D11
 70
     1
 10
0.0
 20
0.0
 30
0.0
  3
*D11
  1

  0
LINE
  5
BCC
330
4D8
100
AcDbEntity
  8
0
 62
   123
370
    -2
100
AcDbLine
 10
177.4247599719838
 20
296.6595606198188
 30
0.0
 11
177.4247599719838
 21
342.6151651245018
 31
0.0
  0
LINE
  5
BCD
330
4D8
100
AcDbEntity
  8
0
 62
   123
370
    -2
100
AcDbLine
 10
252.4214269719832
 20
327.9595606198181
 30
0.0
 11
252.4214269719832
 21
342.6151651245018
 31
0.0
  0
LINE
  5
BCE
330
4D8
100
AcDbEntity
  8
0
 62
   123
370
    -2
100
AcDbLine
 10
179.9247599719838
 20
342.0151651245018
 30
0.0
 11
249.9214269719832
 21
342.0151651245018
 31
0.0
  0
SOLID
  5
BCF
330
4D8
100
AcDbEntity
  8
0
 62
   123
100
AcDbTrace
 10
179.9247599719838
 20
342.4318317911684
 30
0.0
 11
179.9247599719838
 21
341.5984984578351
 31
0.0
 12
177.4247599719838
 22
342.0151651245018
 32
0.0
 13
177.4247599719838
 23
342.0151651245018
 33
0.0
  0
SOLID
  5
BD0
330
4D8
100
AcDbEntity
  8
0
 62
   123
100
AcDbTrace
 10
249.9214269719832
 20
342.4318317911684
 30
0.0
 11
249.9214269719832
 21
341.5984984578351
 31
0.0
 12
252.4214269719832
 22
342.0151651245018
 32
0.0
 13
252.4214269719832
 23
342.0151651245018
 33
0.0
  0
MTEXT
  5
BD1
330
4D8
100
AcDbEntity
  8
0
 62
     3
100
AcDbMText
 10
214.9230934719835
 20
344.5151651245018
 30
0.0
 40
3.0
 41
0.0
 71
     5
 72
     1
  1
\A1;75
 73
     1
 44
1.0
1001
ACAD
1000
MTEXTBEGIN
1070
    73
1070
     1
1070
    44
1040
1.0
1070
    74
1070
     0
1000
MTEXTEND
  0
POINT
  5
BD2
330
4D8
100
AcDbEntity
  8
DEFPOINTS
 62
     0
100
AcDbPoint
 10
177.4247599719838
 20
295.6595606198188
 30
0.0
  0
POINT
  5
BD3
330
4D8
100
AcDbEntity
  8
DEFPOINTS
 62
     0
100
AcDbPoint
 10
252.4214269719832
 20
326.9595606198181
 30
0.0
  0
POINT
  5
BD4
330
4D8
100
AcDbEntity
  8
DEFPOINTS
 62
     0
100
AcDbPoint
 10
252.4214269719832
 20
342.0151651245018
 30
0.0
  0
ENDBLK
  5
4E3
330
4D8
100
AcDbEntity
  8
0
100
AcDbBlockEnd
  0
BLOCK
  5
4F0
330
4E4
100
AcDbEntity
  8
0
100
AcDbBlockBegin
  2
*D12
 70
     1
 10
0.0
 20
0.0
 30
0.0
  3
*D12
  1

  0
LINE
  5
4E5
330
4E4
100
AcDbEntity
  8
0
 62
   123
100
AcDbLine
 10
171.9247599719837
 20
287.9595616198157
 30
0.0
 11
171.9247599719837
 21
342.6151651245019
 31
0.0
  0
LINE
  5
4E6
330
4E4
100
AcDbEntity
  8
0
 62
   123
100
AcDbLine
 10
177.4247599719838
 20
296.6595606198188
 30
0.0
 11
177.4247599719838
 21
342.6151651245019
 31
0.0
  0
LINE
  5
4E7
330
4E4
100
AcDbEntity
  8
0
 62
   123
100
AcDbLine
 10
169.4247599719838
 20
342.0151651245018
 30
0.0
 11
166.9247599719838
 21
342.0151651245018
 31
0.0
  0
LINE
  5
4E8
330
4E4
100
AcDbEntity
  8
0
 62
   123
100
AcDbLine
 10
179.9247599719838
 20
342.0151651245018
 30
0.0
 11
182.4247599719837
 21
342.0151651245018
 31
0.0
  0
LINE
  5
4E9
330
4E4
100
AcDbEntity
  8
0
 62
   123
100
AcDbLine
 10
171.9247599719837
 20
342.0151651245018
 30
0.0
 11
177.4247599719838
 21
342.0151651245018
 31
0.0
  0
SOLID
  5
4EA
330
4E4
100
AcDbEntity
  8
0
 62
   123
100
AcDbTrace
 10
169.4247599719838
 20
342.4318317911685
 30
0.0
 11
169.4247599719838
 21
341.5984984578352
 31
0.0
 12
171.9247599719837
 22
342.0151651245018
 32
0.0
 13
171.9247599719837
 23
342.0151651245018
 33
0.0
  0
SOLID
  5
4EB
330
4E4
100
AcDbEntity
  8
0
 62
   123
100
AcDbTrace
 10
179.9247599719838
 20
342.4318317911685
 30
0.0
 11
179.9247599719838
 21
341.5984984578352
 31
0.0
 12
177.4247599719838
 22
342.0151651245018
 32
0.0
 13
177.4247599719838
 23
342.0151651245018
 33
0.0
  0
MTEXT
  5
4EC
330
4E4
100
AcDbEntity
  8
0
 62
     3
100
AcDbMText
 10
174.6747599719838
 20
344.5151651245018
 30
0.0
 40
3.0
 41
0.0
 71
     5
 72
     1
  1
\A1;5.5
 73
     1
 44
1.0
1001
ACAD
1000
MTEXTBEGIN
1070
    73
1070
     1
1070
    44
1040
1.0
1070
    74
1070
     0
1000
MTEXTEND
  0
POINT
  5
4ED
330
4E4
100
AcDbEntity
  8
DEFPOINTS
 62
     0
100
AcDbPoint
 10
171.9247599719837
 20
286.9595616198157
 30
0.0
  0
POINT
  5
4EE
330
4E4
100
AcDbEntity
  8
DEFPOINTS
 62
     0
100
AcDbPoint
 10
177.4247599719838
 20
295.6595606198188
 30
0.0
  0
POINT
  5
4EF
330
4E4
100
AcDbEntity
  8
DEFPOINTS
 62
     0
100
AcDbPoint
 10
177.4247599719838
 20
342.0151651245018
 30
0.0
  0
ENDBLK
  5
4F1
330
4E4
100
AcDbEntity
  8
0
100
AcDbBlockEnd
  0
BLOCK
  5
86C
330
86B
100
AcDbEntity
  8
0
100
AcDbBlockBegin
  2
*D13
 70
     1
 10
0.0
 20
0.0
 30
0.0
  3
*D13
  1

  0
LINE
  5
A81
330
86B
100
AcDbEntity
  8
0
 62
   123
370
    -2
100
AcDbLine
 10
223.4019629729346
 20
120.5901930845107
 30
0.0
 11
223.4019629729346
 21
166.7457965891973
 31
0.0
  0
LINE
  5
A82
330
86B
100
AcDbEntity
  8
0
 62
   123
370
    -2
100
AcDbLine
 10
299.4019629729337
 20
151.7901930845078
 30
0.0
 11
299.4019629729337
 21
166.7457965891973
 31
0.0
  0
LINE
  5
A83
330
86B
100
AcDbEntity
  8
0
 62
   123
370
    -2
100
AcDbLine
 10
225.9019629729347
 20
166.1457965891973
 30
0.0
 11
296.9019629729337
 21
166.1457965891973
 31
0.0
  0
SOLID
  5
A84
330
86B
100
AcDbEntity
  8
0
 62
   123
100
AcDbTrace
 10
225.9019629729347
 20
166.5624632558639
 30
0.0
 11
225.9019629729347
 21
165.7291299225306
 31
0.0
 12
223.4019629729346
 22
166.1457965891973
 32
0.0
 13
223.4019629729346
 23
166.1457965891973
 33
0.0
  0
SOLID
  5
A85
330
86B
100
AcDbEntity
  8
0
 62
   123
100
AcDbTrace
 10
296.9019629729337
 20
166.5624632558639
 30
0.0
 11
296.9019629729337
 21
165.7291299225306
 31
0.0
 12
299.4019629729337
 22
166.1457965891973
 32
0.0
 13
299.4019629729337
 23
166.1457965891973
 33
0.0
  0
MTEXT
  5
A86
330
86B
100
AcDbEntity
  8
0
 62
     3
100
AcDbMText
 10
261.4019629729342
 20
168.6457965891973
 30
0.0
 40
3.0
 41
0.0
 71
     5
 72
     1
  1
\A1;75
 73
     1
 44
1.0
1001
ACAD
1000
MTEXTBEGIN
1070
    73
1070
     1
1070
    44
1040
1.0
1070
    74
1070
     0
1000
MTEXTEND
  0
POINT
  5
A87
330
86B
100
AcDbEntity
  8
DEFPOINTS
 62
     0
100
AcDbPoint
 10
223.4019629729346
 20
119.5901930845107
 30
0.0
  0
POINT
  5
A88
330
86B
100
AcDbEntity
  8
DEFPOINTS
 62
     0
100
AcDbPoint
 10
299.4019629729337
 20
150.7901930845078
 30
0.0
  0
POINT
  5
A89
330
86B
100
AcDbEntity
  8
DEFPOINTS
 62
     0
100
AcDbPoint
 10
299.4019629729337
 20
166.1457965891973
 30
0.0
  0
ENDBLK
  5
86D
330
86B
100
AcDbEntity
  8
0
100
AcDbBlockEnd
  0
BLOCK
  5
878
330
877
100
AcDbEntity
  8
0
100
AcDbBlockBegin
  2
*D14
 70
     1
 10
0.0
 20
0.0
 30
0.0
  3
*D14
  1

  0
LINE
  5
A8A
330
877
100
AcDbEntity
  8
0
 62
   123
370
    -2
100
AcDbLine
 10
218.9019629729338
 20
112.0901930845143
 30
0.0
 11
218.9019629729338
 21
166.7457965891973
 31
0.0
  0
LINE
  5
A8B
330
877
100
AcDbEntity
  8
0
 62
   123
370
    -2
100
AcDbLine
 10
223.4019629729346
 20
120.5901930845107
 30
0.0
 11
223.4019629729346
 21
166.7457965891973
 31
0.0
  0
LINE
  5
A8C
330
877
100
AcDbEntity
  8
0
 62
   123
370
    -2
100
AcDbLine
 10
216.4019629729338
 20
166.1457965891973
 30
0.0
 11
213.9019629729337
 21
166.1457965891973
 31
0.0
  0
LINE
  5
A8D
330
877
100
AcDbEntity
  8
0
 62
   123
370
    -2
100
AcDbLine
 10
225.9019629729347
 20
166.1457965891973
 30
0.0
 11
228.4019629729347
 21
166.1457965891973
 31
0.0
  0
LINE
  5
A8E
330
877
100
AcDbEntity
  8
0
 62
   123
370
    -2
100
AcDbLine
 10
218.9019629729338
 20
166.1457965891973
 30
0.0
 11
223.4019629729346
 21
166.1457965891973
 31
0.0
  0
SOLID
  5
A8F
330
877
100
AcDbEntity
  8
0
 62
   123
100
AcDbTrace
 10
216.4019629729338
 20
166.5624632558639
 30
0.0
 11
216.4019629729338
 21
165.7291299225306
 31
0.0
 12
218.9019629729338
 22
166.1457965891973
 32
0.0
 13
218.9019629729338
 23
166.1457965891973
 33
0.0
  0
SOLID
  5
A90
330
877
100
AcDbEntity
  8
0
 62
   123
100
AcDbTrace
 10
225.9019629729347
 20
166.5624632558639
 30
0.0
 11
225.9019629729347
 21
165.7291299225306
 31
0.0
 12
223.4019629729346
 22
166.1457965891973
 32
0.0
 13
223.4019629729346
 23
166.1457965891973
 33
0.0
  0
MTEXT
  5
A91
330
877
100
AcDbEntity
  8
0
 62
     3
100
AcDbMText
 10
221.1519629729342
 20
168.6457965891973
 30
0.0
 40
3.0
 41
0.0
 71
     5
 72
     1
  1
\A1;5.5
 73
     1
 44
1.0
1001
ACAD
1000
MTEXTBEGIN
1070
    73
1070
     1
1070
    44
1040
1.0
1070
    74
1070
     0
1000
MTEXTEND
  0
POINT
  5
A92
330
877
100
AcDbEntity
  8
DEFPOINTS
 62
     0
100
AcDbPoint
 10
218.9019629729338
 20
111.0901930845143
 30
0.0
  0
POINT
  5
A93
330
877
100
AcDbEntity
  8
DEFPOINTS
 62
     0
100
AcDbPoint
 10
223.4019629729346
 20
119.5901930845107
 30
0.0
  0
POINT
  5
A94
330
877
100
AcDbEntity
  8
DEFPOINTS
 62
     0
100
AcDbPoint
 10
223.4019629729346
 20
166.1457965891973
 30
0.0
  0
ENDBLK
  5
879
330
877
100
AcDbEntity
  8
0
100
AcDbBlockEnd
  0
BLOCK
  5
886
330
885
100
AcDbEntity
  8
0
100
AcDbBlockBegin
  2
*D15
 70
     1
 10
0.0
 20
0.0
 30
0.0
  3
*D15
  1

  0
LINE
  5
A95
330
885
100
AcDbEntity
  8
0
 62
   123
370
    -2
100
AcDbLine
 10
299.4019629729337
 20
151.7901930845078
 30
0.0
 11
299.4019629729337
 21
166.7292255686862
 31
0.0
  0
LINE
  5
A96
330
885
100
AcDbEntity
  8
0
 62
   123
370
    -2
100
AcDbLine
 10
327.3989629729345
 20
142.8401930846489
 30
0.0
 11
327.3989629729345
 21
166.7292255686862
 31
0.0
  0
LINE
  5
A97
330
885
100
AcDbEntity
  8
0
 62
   123
370
    -2
100
AcDbLine
 10
301.9019629729338
 20
166.1292255686861
 30
0.0
 11
324.8989629729345
 21
166.1292255686861
 31
0.0
  0
SOLID
  5
A98
330
885
100
AcDbEntity
  8
0
 62
   123
100
AcDbTrace
 10
301.9019629729338
 20
166.5458922353529
 30
0.0
 11
301.9019629729338
 21
165.7125589020196
 31
0.0
 12
299.4019629729337
 22
166.1292255686861
 32
0.0
 13
299.4019629729337
 23
166.1292255686861
 33
0.0
  0
SOLID
  5
A99
330
885
100
AcDbEntity
  8
0
 62
   123
100
AcDbTrace
 10
324.8989629729345
 20
166.5458922353529
 30
0.0
 11
324.8989629729345
 21
165.7125589020196
 31
0.0
 12
327.3989629729345
 22
166.1292255686861
 32
0.0
 13
327.3989629729345
 23
166.1292255686861
 33
0.0
  0
MTEXT
  5
A9A
330
885
100
AcDbEntity
  8
0
 62
     3
100
AcDbMText
 10
313.3986299729332
 20
168.6292255686861
 30
0.0
 40
3.0
 41
0.0
 71
     5
 72
     1
  1
\A1;MAX. 28
 73
     1
 44
1.0
1001
ACAD
1000
MTEXTBEGIN
1070
    73
1070
     1
1070
    44
1040
1.0
1070
    74
1070
     0
1000
MTEXTEND
  0
POINT
  5
A9B
330
885
100
AcDbEntity
  8
DEFPOINTS
 62
     0
100
AcDbPoint
 10
299.4019629729337
 20
150.7901930845078
 30
0.0
  0
POINT
  5
A9C
330
885
100
AcDbEntity
  8
DEFPOINTS
 62
     0
100
AcDbPoint
 10
327.3989629729345
 20
141.8401930846489
 30
0.0
  0
POINT
  5
A9D
330
885
100
AcDbEntity
  8
DEFPOINTS
 62
     0
100
AcDbPoint
 10
327.3989629729345
 20
166.1292255686861
 30
0.0
  0
ENDBLK
  5
887
330
885
100
AcDbEntity
  8
0
100
AcDbBlockEnd
  0
BLOCK
  5
892
330
891
100
AcDbEntity
  8
0
100
AcDbBlockBegin
  2
*D16
 70
     1
 10
0.0
 20
0.0
 30
0.0
  3
*D16
  1

  0
LINE
  5
A0B
330
891
100
AcDbEntity
  8
0
 62
   123
370
    -2
100
AcDbLine
 10
100.3686502818673
 20
111.0901930845143
 30
0.0
 11
112.287996353121
 21
111.0901930845143
 31
0.0
  0
LINE
  5
A0C
330
891
100
AcDbEntity
  8
0
 62
   123
370
    -2
100
AcDbLine
 10
93.89695628187114
 20
154.0901930845143
 30
0.0
 11
112.287996353121
 21
154.0901930845143
 31
0.0
  0
LINE
  5
A0D
330
891
100
AcDbEntity
  8
0
 62
   123
370
    -2
100
AcDbLine
 10
111.687996353121
 20
113.5901930845143
 30
0.0
 11
111.687996353121
 21
151.5901930845143
 31
0.0
  0
SOLID
  5
A0E
330
891
100
AcDbEntity
  8
0
 62
   123
100
AcDbTrace
 10
111.2713296864544
 20
113.5901930845143
 30
0.0
 11
112.1046630197877
 21
113.5901930845143
 31
0.0
 12
111.687996353121
 22
111.0901930845143
 32
0.0
 13
111.687996353121
 23
111.0901930845143
 33
0.0
  0
SOLID
  5
A0F
330
891
100
AcDbEntity
  8
0
 62
   123
100
AcDbTrace
 10
111.2713296864544
 20
151.5901930845143
 30
0.0
 11
112.1046630197877
 21
151.5901930845143
 31
0.0
 12
111.687996353121
 22
154.0901930845143
 32
0.0
 13
111.687996353121
 23
154.0901930845143
 33
0.0
  0
MTEXT
  5
A10
330
891
100
AcDbEntity
  8
0
 62
     3
100
AcDbMText
 10
109.187996353121
 20
134.2278226404673
 30
0.0
 40
3.0
 41
0.0
 71
     5
 72
     1
  1
\A1;43
 11
0.0000000000000001
 21
1.0
 31
0.0
 73
     1
 44
1.0
1001
ACAD
1000
MTEXTBEGIN
1070
    73
1070
     1
1070
    44
1040
1.0
1070
    74
1070
     0
1000
MTEXTEND
  0
POINT
  5
A11
330
891
100
AcDbEntity
  8
DEFPOINTS
 62
     0
100
AcDbPoint
 10
99.36865028186735
 20
111.0901930845143
 30
0.0
  0
POINT
  5
A12
330
891
100
AcDbEntity
  8
DEFPOINTS
 62
     0
100
AcDbPoint
 10
92.89695628187114
 20
154.0901930845143
 30
0.0
  0
POINT
  5
A13
330
891
100
AcDbEntity
  8
DEFPOINTS
 62
     0
100
AcDbPoint
 10
111.687996353121
 20
154.0901930845143
 30
0.0
  0
ENDBLK
  5
893
330
891
100
AcDbEntity
  8
0
100
AcDbBlockEnd
  0
BLOCK
  5
89E
330
89D
100
AcDbEntity
  8
0
100
AcDbBlockBegin
  2
*D17
 70
     1
 10
0.0
 20
0.0
 30
0.0
  3
*D17
  1

  0
LINE
  5
A14
330
89D
100
AcDbEntity
  8
0
 62
   123
370
    -2
100
AcDbLine
 10
24.36865028186736
 20
35.09019308451434
 30
0.0
 11
24.36865028186736
 21
14.90599755263147
 31
0.0
  0
LINE
  5
A15
330
89D
100
AcDbEntity
  8
0
 62
   123
370
    -2
100
AcDbLine
 10
104.3686502818673
 20
35.09019308451434
 30
0.0
 11
104.3686502818673
 21
14.90599755263147
 31
0.0
  0
LINE
  5
A16
330
89D
100
AcDbEntity
  8
0
 62
   123
370
    -2
100
AcDbLine
 10
26.86865028186736
 20
15.50599755263147
 30
0.0
 11
101.8686502818673
 21
15.50599755263147
 31
0.0
  0
SOLID
  5
A17
330
89D
100
AcDbEntity
  8
0
 62
   123
100
AcDbTrace
 10
26.86865028186736
 20
15.92266421929813
 30
0.0
 11
26.86865028186736
 21
15.0893308859648
 31
0.0
 12
24.36865028186736
 22
15.50599755263147
 32
0.0
 13
24.36865028186736
 23
15.50599755263147
 33
0.0
  0
SOLID
  5
A18
330
89D
100
AcDbEntity
  8
0
 62
   123
100
AcDbTrace
 10
101.8686502818673
 20
15.92266421929813
 30
0.0
 11
101.8686502818673
 21
15.0893308859648
 31
0.0
 12
104.3686502818673
 22
15.50599755263147
 32
0.0
 13
104.3686502818673
 23
15.50599755263147
 33
0.0
  0
MTEXT
  5
A19
330
89D
100
AcDbEntity
  8
0
 62
     3
100
AcDbMText
 10
67.23612516895086
 20
18.00599755263147
 30
0.0
 40
3.0
 41
0.0
 71
     5
 72
     1
  1
\A1;80
 73
     1
 44
1.0
1001
ACAD
1000
MTEXTBEGIN
1070
    73
1070
     1
1070
    44
1040
1.0
1070
    74
1070
     0
1000
MTEXTEND
  0
POINT
  5
A1A
330
89D
100
AcDbEntity
  8
DEFPOINTS
 62
     0
100
AcDbPoint
 10
24.36865028186736
 20
36.09019308451435
 30
0.0
  0
POINT
  5
A1B
330
89D
100
AcDbEntity
  8
DEFPOINTS
 62
     0
100
AcDbPoint
 10
104.3686502818673
 20
36.09019308451435
 30
0.0
  0
POINT
  5
A1C
330
89D
100
AcDbEntity
  8
DEFPOINTS
 62
     0
100
AcDbPoint
 10
104.3686502818673
 20
15.50599755263147
 30
0.0
  0
ENDBLK
  5
89F
330
89D
100
AcDbEntity
  8
0
100
AcDbBlockEnd
  0
BLOCK
  5
8AA
330
8A9
100
AcDbEntity
  8
0
100
AcDbBlockBegin
  2
*D18
 70
     1
 10
0.0
 20
0.0
 30
0.0
  3
*D18
  1

  0
LINE
  5
A67
330
8A9
100
AcDbEntity
  8
0
 62
   123
370
    -2
100
AcDbLine
 10
134.1048409617087
 20
124.1409446624343
 30
0.0
 11
103.7647277393777
 21
101.060162736832
 31
0.0
  0
LINE
  5
A68
330
8A9
100
AcDbEntity
  8
0
 62
   123
370
    -2
100
AcDbLine
 10
24.97257282432969
 20
41.12022343218947
 30
0.0
 11
22.98287194263668
 21
39.60658860126424
 31
0.0
  0
MTEXT
  5
A69
102
{ACAD_XDICTIONARY
360
BE7
102
}
330
8A9
100
AcDbEntity
  8
0
 62
     3
100
AcDbMText
 10
124.461856814152
 20
119.9463660920613
 30
0.0
 40
3.0
 41
0.0
 71
     5
 72
     1
  1
\A1;\U+220594%%P0.5
 11
0.7958803526772065
 21
0.6054539323700899
 31
0.0
 73
     1
 44
1.0
1001
ACAD
1000
MTEXTBEGIN
1070
    73
1070
     1
1070
    44
1040
1.0
1070
    74
1070
     0
1000
MTEXTEND
  0
LINE
  5
A6A
330
8A9
100
AcDbEntity
  8
0
 62
   123
370
    -2
100
AcDbLine
 10
26.96227370602271
 20
42.63385826311469
 30
0.0
 11
101.7750268576847
 21
99.54652790590678
 31
0.0
  0
SOLID
  5
A6B
330
8A9
100
AcDbEntity
  8
0
 62
   123
100
AcDbTrace
 10
24.72030035250882
 20
41.45184024580497
 30
0.0
 11
25.22484529615056
 21
40.78860661857397
 31
0.0
 12
26.96227370602271
 22
42.63385826311469
 32
0.0
 13
26.96227370602271
 23
42.63385826311469
 33
0.0
  0
SOLID
  5
A6C
330
8A9
100
AcDbEntity
  8
0
 62
   123
100
AcDbTrace
 10
103.5124552675568
 20
101.3917795504475
 30
0.0
 11
104.0170002111986
 21
100.7285459232165
 31
0.0
 12
101.7750268576847
 22
99.54652790590678
 32
0.0
 13
101.7750268576847
 23
99.54652790590678
 33
0.0
  0
POINT
  5
A6D
330
8A9
100
AcDbEntity
  8
DEFPOINTS
 62
     0
100
AcDbPoint
 10
101.7750268576847
 20
99.54652790590678
 30
0.0
  0
POINT
  5
A6E
330
8A9
100
AcDbEntity
  8
DEFPOINTS
 62
     0
100
AcDbPoint
 10
26.96227370602271
 20
42.63385826311469
 30
0.0
  0
ENDBLK
  5
8AB
330
8A9
100
AcDbEntity
  8
0
100
AcDbBlockEnd
  0
BLOCK
  5
8B5
330
8B4
100
AcDbEntity
  8
0
100
AcDbBlockBegin
  2
*D19
 70
     1
 10
0.0
 20
0.0
 30
0.0
  3
*D19
  1

  0
LINE
  5
A6F
330
8B4
100
AcDbEntity
  8
0
 62
   123
370
    -2
100
AcDbLine
 10
210.9019629729337
 20
75.09019308451434
 30
0.0
 11
164.2751310774861
 21
75.09019308451434
 31
0.0
  0
LINE
  5
A70
330
8B4
100
AcDbEntity
  8
0
 62
   123
370
    -2
100
AcDbLine
 10
185.9019629729337
 20
67.09019308451434
 30
0.0
 11
164.2751310774861
 21
67.09019308451434
 31
0.0
  0
LINE
  5
A71
330
8B4
100
AcDbEntity
  8
0
 62
   123
370
    -2
100
AcDbLine
 10
164.875131077486
 20
72.59019308451434
 30
0.0
 11
164.875131077486
 21
69.59019308451434
 31
0.0
  0
SOLID
  5
A72
330
8B4
100
AcDbEntity
  8
0
 62
   123
100
AcDbTrace
 10
164.4584644108194
 20
72.59019308451434
 30
0.0
 11
165.2917977441527
 21
72.59019308451434
 31
0.0
 12
164.875131077486
 22
75.09019308451434
 32
0.0
 13
164.875131077486
 23
75.09019308451434
 33
0.0
  0
SOLID
  5
A73
330
8B4
100
AcDbEntity
  8
0
 62
   123
100
AcDbTrace
 10
164.4584644108194
 20
69.59019308451434
 30
0.0
 11
165.2917977441527
 21
69.59019308451434
 31
0.0
 12
164.875131077486
 22
67.09019308451434
 32
0.0
 13
164.875131077486
 23
67.09019308451434
 33
0.0
  0
MTEXT
  5
A74
330
8B4
100
AcDbEntity
  8
0
 62
     3
100
AcDbMText
 10
160.925131077486
 20
71.09019308451435
 30
0.0
 40
3.0
 41
0.0
 71
     5
 72
     1
  1
\A1;\A1;%%c8{\H0.7x;\S+0^ -0.015;}(h7)
 11
0.0000000000000001
 21
1.0
 31
0.0
 73
     1
 44
1.0
1001
ACAD
1000
MTEXTBEGIN
1070
    73
1070
     1
1070
    44
1040
1.0
1070
    74
1070
     0
1000
MTEXTEND
  0
POINT
  5
A75
330
8B4
100
AcDbEntity
  8
DEFPOINTS
 62
     0
100
AcDbPoint
 10
211.9019629729337
 20
75.09019308451434
 30
0.0
  0
POINT
  5
A76
330
8B4
100
AcDbEntity
  8
DEFPOINTS
 62
     0
100
AcDbPoint
 10
186.9019629729337
 20
67.09019308451434
 30
0.0
  0
POINT
  5
A77
330
8B4
100
AcDbEntity
  8
DEFPOINTS
 62
     0
100
AcDbPoint
 10
164.875131077486
 20
67.09019308451434
 30
0.0
  0
ENDBLK
  5
8B6
330
8B4
100
AcDbEntity
  8
0
100
AcDbBlockEnd
  0
BLOCK
  5
8F0
330
8EF
100
AcDbEntity
  8
0
100
AcDbBlockBegin
  2
*D20
 70
     1
 10
0.0
 20
0.0
 30
0.0
  3
*D20
  1

  0
LINE
  5
ACA
330
8EF
100
AcDbEntity
  8
0
 62
   123
370
    -2
100
AcDbLine
 10
218.9019629729338
 20
30.09019308451434
 30
0.0
 11
218.9019629729338
 21
6.883851867459178
 31
0.0
  0
LINE
  5
ACB
330
8EF
100
AcDbEntity
  8
0
 62
   123
370
    -2
100
AcDbLine
 10
303.9019629729338
 20
33.09019308451434
 30
0.0
 11
303.9019629729338
 21
6.883851867459178
 31
0.0
  0
LINE
  5
ACC
330
8EF
100
AcDbEntity
  8
0
 62
   123
370
    -2
100
AcDbLine
 10
221.4019629729337
 20
7.483851867459178
 30
0.0
 11
301.4019629729337
 21
7.483851867459178
 31
0.0
  0
SOLID
  5
ACD
330
8EF
100
AcDbEntity
  8
0
 62
   123
100
AcDbTrace
 10
221.4019629729337
 20
7.900518534125846
 30
0.0
 11
221.4019629729337
 21
7.067185200792512
 31
0.0
 12
218.9019629729338
 22
7.483851867459178
 32
0.0
 13
218.9019629729338
 23
7.483851867459178
 33
0.0
  0
SOLID
  5
ACE
330
8EF
100
AcDbEntity
  8
0
 62
   123
100
AcDbTrace
 10
301.4019629729337
 20
7.900518534125846
 30
0.0
 11
301.4019629729337
 21
7.067185200792512
 31
0.0
 12
303.9019629729338
 22
7.483851867459178
 32
0.0
 13
303.9019629729338
 23
7.483851867459178
 33
0.0
  0
MTEXT
  5
ACF
330
8EF
100
AcDbEntity
  8
0
 62
     3
100
AcDbMText
 10
261.4019629729337
 20
9.983851867459179
 30
0.0
 40
3.0
 41
0.0
 71
     5
 72
     1
  1
\A1;85
 73
     1
 44
1.0
1001
ACAD
1000
MTEXTBEGIN
1070
    73
1070
     1
1070
    44
1040
1.0
1070
    74
1070
     0
1000
MTEXTEND
  0
POINT
  5
AD0
330
8EF
100
AcDbEntity
  8
DEFPOINTS
 62
     0
100
AcDbPoint
 10
218.9019629729338
 20
31.09019308451434
 30
0.0
  0
POINT
  5
AD1
330
8EF
100
AcDbEntity
  8
DEFPOINTS
 62
     0
100
AcDbPoint
 10
303.9019629729338
 20
34.09019308451434
 30
0.0
  0
POINT
  5
AD2
330
8EF
100
AcDbEntity
  8
DEFPOINTS
 62
     0
100
AcDbPoint
 10
303.9019629729338
 20
7.483851867459178
 30
0.0
  0
ENDBLK
  5
8F1
330
8EF
100
AcDbEntity
  8
0
100
AcDbBlockEnd
  0
BLOCK
  5
8FC
330
8FB
100
AcDbEntity
  8
0
100
AcDbBlockBegin
  2
*D21
 70
     1
 10
0.0
 20
0.0
 30
0.0
  3
*D21
  1

  0
LINE
  5
A26
330
8FB
100
AcDbEntity
  8
0
 62
   123
370
    -2
100
AcDbLine
 10
186.9019629729337
 20
66.09019308451434
 30
0.0
 11
186.9019629729337
 21
6.883851867459178
 31
0.0
  0
LINE
  5
A27
330
8FB
100
AcDbEntity
  8
0
 62
   123
370
    -2
100
AcDbLine
 10
218.9019629729338
 20
30.09019308451434
 30
0.0
 11
218.9019629729338
 21
6.883851867459178
 31
0.0
  0
LINE
  5
A28
330
8FB
100
AcDbEntity
  8
0
 62
   123
370
    -2
100
AcDbLine
 10
189.4019629729337
 20
7.483851867459178
 30
0.0
 11
216.4019629729338
 21
7.483851867459178
 31
0.0
  0
SOLID
  5
A29
330
8FB
100
AcDbEntity
  8
0
 62
   123
100
AcDbTrace
 10
189.4019629729337
 20
7.900518534125846
 30
0.0
 11
189.4019629729337
 21
7.067185200792512
 31
0.0
 12
186.9019629729337
 22
7.483851867459178
 32
0.0
 13
186.9019629729337
 23
7.483851867459178
 33
0.0
  0
SOLID
  5
A2A
330
8FB
100
AcDbEntity
  8
0
 62
   123
100
AcDbTrace
 10
216.4019629729338
 20
7.900518534125846
 30
0.0
 11
216.4019629729338
 21
7.067185200792512
 31
0.0
 12
218.9019629729338
 22
7.483851867459178
 32
0.0
 13
218.9019629729338
 23
7.483851867459178
 33
0.0
  0
MTEXT
  5
A2B
330
8FB
100
AcDbEntity
  8
0
 62
     3
100
AcDbMText
 10
202.9019629729337
 20
9.983851867459179
 30
0.0
 40
3.0
 41
0.0
 71
     5
 72
     1
  1
\A1;32
 73
     1
 44
1.0
1001
ACAD
1000
MTEXTBEGIN
1070
    73
1070
     1
1070
    44
1040
1.0
1070
    74
1070
     0
1000
MTEXTEND
  0
POINT
  5
A2C
330
8FB
100
AcDbEntity
  8
DEFPOINTS
 62
     0
100
AcDbPoint
 10
186.9019629729337
 20
67.09019308451434
 30
0.0
  0
POINT
  5
A2D
330
8FB
100
AcDbEntity
  8
DEFPOINTS
 62
     0
100
AcDbPoint
 10
218.9019629729338
 20
31.09019308451434
 30
0.0
  0
POINT
  5
A2E
330
8FB
100
AcDbEntity
  8
DEFPOINTS
 62
     0
100
AcDbPoint
 10
218.9019629729338
 20
7.483851867459178
 30
0.0
  0
ENDBLK
  5
8FD
330
8FB
100
AcDbEntity
  8
0
100
AcDbBlockEnd
  0
BLOCK
  5
908
330
907
100
AcDbEntity
  8
0
100
AcDbBlockBegin
  2
*D22
 70
     1
 10
0.0
 20
0.0
 30
0.0
  3
*D22
  1

  0
LINE
  5
A2F
330
907
100
AcDbEntity
  8
0
 62
   123
370
    -2
100
AcDbLine
 10
186.9019629729337
 20
75.09019308451434
 30
0.0
 11
186.9019629729337
 21
89.71857915839981
 31
0.0
  0
LINE
  5
A30
330
907
100
AcDbEntity
  8
0
 62
   123
370
    -2
100
AcDbLine
 10
211.9019629729337
 20
76.09019308451434
 30
0.0
 11
211.9019629729337
 21
89.71857915839981
 31
0.0
  0
LINE
  5
A31
330
907
100
AcDbEntity
  8
0
 62
   123
370
    -2
100
AcDbLine
 10
189.4019629729337
 20
89.11857915839981
 30
0.0
 11
209.4019629729337
 21
89.11857915839981
 31
0.0
  0
SOLID
  5
A32
330
907
100
AcDbEntity
  8
0
 62
   123
100
AcDbTrace
 10
189.4019629729337
 20
89.5352458250665
 30
0.0
 11
189.4019629729337
 21
88.70191249173315
 31
0.0
 12
186.9019629729337
 22
89.11857915839981
 32
0.0
 13
186.9019629729337
 23
89.11857915839981
 33
0.0
  0
SOLID
  5
A33
330
907
100
AcDbEntity
  8
0
 62
   123
100
AcDbTrace
 10
209.4019629729337
 20
89.5352458250665
 30
0.0
 11
209.4019629729337
 21
88.70191249173315
 31
0.0
 12
211.9019629729337
 22
89.11857915839981
 32
0.0
 13
211.9019629729337
 23
89.11857915839981
 33
0.0
  0
MTEXT
  5
A34
330
907
100
AcDbEntity
  8
0
 62
     3
100
AcDbMText
 10
199.4019629729337
 20
91.61857915839981
 30
0.0
 40
3.0
 41
0.0
 71
     5
 72
     1
  1
\A1;25
 73
     1
 44
1.0
1001
ACAD
1000
MTEXTBEGIN
1070
    73
1070
     1
1070
    44
1040
1.0
1070
    74
1070
     0
1000
MTEXTEND
  0
POINT
  5
A35
330
907
100
AcDbEntity
  8
DEFPOINTS
 62
     0
100
AcDbPoint
 10
186.9019629729337
 20
74.09019308451433
 30
0.0
  0
POINT
  5
A36
330
907
100
AcDbEntity
  8
DEFPOINTS
 62
     0
100
AcDbPoint
 10
211.9019629729337
 20
75.09019308451434
 30
0.0
  0
POINT
  5
A37
330
907
100
AcDbEntity
  8
DEFPOINTS
 62
     0
100
AcDbPoint
 10
211.9019629729337
 20
89.11857915839981
 30
0.0
  0
ENDBLK
  5
909
330
907
100
AcDbEntity
  8
0
100
AcDbBlockEnd
  0
BLOCK
  5
914
330
913
100
AcDbEntity
  8
0
100
AcDbBlockBegin
  2
*D23
 70
     1
 10
0.0
 20
0.0
 30
0.0
  3
*D23
  1

  0
LINE
  5
A38
330
913
100
AcDbEntity
  8
0
 62
   123
370
    -2
100
AcDbLine
 10
185.9019629729337
 20
67.09019308451434
 30
0.0
 11
173.3120349339574
 21
67.09019308451434
 31
0.0
  0
LINE
  5
A39
330
913
100
AcDbEntity
  8
0
 62
   123
370
    -2
100
AcDbLine
 10
185.9019629729337
 20
74.09019308451433
 30
0.0
 11
173.3120349339574
 21
74.09019308451433
 31
0.0
  0
LINE
  5
A3A
330
913
100
AcDbEntity
  8
0
 62
   123
370
    -2
100
AcDbLine
 10
173.9120349339574
 20
69.59019308451434
 30
0.0
 11
173.9120349339574
 21
71.59019308451433
 31
0.0
  0
SOLID
  5
A3B
330
913
100
AcDbEntity
  8
0
 62
   123
100
AcDbTrace
 10
173.4953682672907
 20
69.59019308451434
 30
0.0
 11
174.3287016006241
 21
69.59019308451434
 31
0.0
 12
173.9120349339574
 22
67.09019308451434
 32
0.0
 13
173.9120349339574
 23
67.09019308451434
 33
0.0
  0
SOLID
  5
A3C
330
913
100
AcDbEntity
  8
0
 62
   123
100
AcDbTrace
 10
173.4953682672907
 20
71.59019308451433
 30
0.0
 11
174.3287016006241
 21
71.59019308451433
 31
0.0
 12
173.9120349339574
 22
74.09019308451433
 32
0.0
 13
173.9120349339574
 23
74.09019308451433
 33
0.0
  0
MTEXT
  5
A3D
330
913
100
AcDbEntity
  8
0
 62
     3
100
AcDbMText
 10
171.4120349339574
 20
70.59019308451434
 30
0.0
 40
3.0
 41
0.0
 71
     5
 72
     1
  1
\A1;7
 11
0.0000000000000001
 21
1.0
 31
0.0
 73
     1
 44
1.0
1001
ACAD
1000
MTEXTBEGIN
1070
    73
1070
     1
1070
    44
1040
1.0
1070
    74
1070
     0
1000
MTEXTEND
  0
POINT
  5
A3E
330
913
100
AcDbEntity
  8
DEFPOINTS
 62
     0
100
AcDbPoint
 10
186.9019629729337
 20
67.09019308451434
 30
0.0
  0
POINT
  5
A3F
330
913
100
AcDbEntity
  8
DEFPOINTS
 62
     0
100
AcDbPoint
 10
186.9019629729337
 20
74.09019308451433
 30
0.0
  0
POINT
  5
A40
330
913
100
AcDbEntity
  8
DEFPOINTS
 62
     0
100
AcDbPoint
 10
173.9120349339574
 20
74.09019308451433
 30
0.0
  0
ENDBLK
  5
915
330
913
100
AcDbEntity
  8
0
100
AcDbBlockEnd
  0
BLOCK
  5
920
330
91F
100
AcDbEntity
  8
0
100
AcDbBlockBegin
  2
*D24
 70
     1
 10
0.0
 20
0.0
 30
0.0
  3
*D24
  1

  0
LINE
  5
A41
330
91F
100
AcDbEntity
  8
0
 62
   123
370
    -2
100
AcDbLine
 10
215.9019629729337
 20
34.59019308451434
 30
0.0
 11
150.9271167885185
 21
34.59019308451436
 31
0.0
  0
LINE
  5
A42
330
91F
100
AcDbEntity
  8
0
 62
   123
370
    -2
100
AcDbLine
 10
215.9019629729337
 20
107.5901930845143
 30
0.0
 11
150.9271167885185
 21
107.5901930845143
 31
0.0
  0
LINE
  5
A43
330
91F
100
AcDbEntity
  8
0
 62
   123
370
    -2
100
AcDbLine
 10
151.5271167885185
 20
37.09019308451436
 30
0.0
 11
151.5271167885185
 21
105.0901930845143
 31
0.0
  0
SOLID
  5
A44
330
91F
100
AcDbEntity
  8
0
 62
   123
100
AcDbTrace
 10
151.1104501218518
 20
37.09019308451436
 30
0.0
 11
151.9437834551851
 21
37.09019308451436
 31
0.0
 12
151.5271167885185
 22
34.59019308451436
 32
0.0
 13
151.5271167885185
 23
34.59019308451436
 33
0.0
  0
SOLID
  5
A45
330
91F
100
AcDbEntity
  8
0
 62
   123
100
AcDbTrace
 10
151.1104501218519
 20
105.0901930845143
 30
0.0
 11
151.9437834551851
 21
105.0901930845143
 31
0.0
 12
151.5271167885185
 22
107.5901930845143
 32
0.0
 13
151.5271167885185
 23
107.5901930845143
 33
0.0
  0
MTEXT
  5
A46
330
91F
100
AcDbEntity
  8
0
 62
     3
100
AcDbMText
 10
147.5769667885185
 20
71.4895008599383
 30
0.0
 40
3.0
 41
0.0
 71
     5
 72
     1
  1
\A1;\A1;{\f??|b0|i0|c0|p49;%%C}73{\f??|b0|i0|c0|p49;\H0.7x;\S+0^ -0.030;\H1.429x;(h7)}
 11
0.0000000000000001
 21
1.0
 31
0.0
 73
     1
 44
1.0
1001
ACAD
1000
MTEXTBEGIN
1070
    73
1070
     1
1070
    44
1040
1.0
1070
    74
1070
     0
1000
MTEXTEND
  0
POINT
  5
A47
330
91F
100
AcDbEntity
  8
DEFPOINTS
 62
     0
100
AcDbPoint
 10
216.9019629729338
 20
34.59019308451434
 30
0.0
  0
POINT
  5
A48
330
91F
100
AcDbEntity
  8
DEFPOINTS
 62
     0
100
AcDbPoint
 10
216.9019629729338
 20
107.5901930845143
 30
0.0
  0
POINT
  5
A49
330
91F
100
AcDbEntity
  8
DEFPOINTS
 62
     0
100
AcDbPoint
 10
151.5271167885185
 20
107.5901930845143
 30
0.0
  0
ENDBLK
  5
921
330
91F
100
AcDbEntity
  8
0
100
AcDbBlockEnd
  0
BLOCK
  5
92C
330
92B
100
AcDbEntity
  8
0
100
AcDbBlockBegin
  2
*D25
 70
     1
 10
0.0
 20
0.0
 30
0.0
  3
*D25
  1

  0
LINE
  5
A4A
330
92B
100
AcDbEntity
  8
0
 62
   123
370
    -2
100
AcDbLine
 10
218.9019629729338
 20
29.09019308451434
 30
0.0
 11
218.9019629729338
 21
17.75107908613327
 31
0.0
  0
LINE
  5
A4B
330
92B
100
AcDbEntity
  8
0
 62
   123
370
    -2
100
AcDbLine
 10
225.9019629729337
 20
31.49145574298427
 30
0.0
 11
225.9019629729337
 21
17.75107908613327
 31
0.0
  0
LINE
  5
A4C
330
92B
100
AcDbEntity
  8
0
 62
   123
370
    -2
100
AcDbLine
 10
221.4019629729337
 20
18.35107908613327
 30
0.0
 11
223.4019629729337
 21
18.35107908613327
 31
0.0
  0
SOLID
  5
A4D
330
92B
100
AcDbEntity
  8
0
 62
   123
100
AcDbTrace
 10
221.4019629729337
 20
18.76774575279993
 30
0.0
 11
221.4019629729337
 21
17.9344124194666
 31
0.0
 12
218.9019629729338
 22
18.35107908613327
 32
0.0
 13
218.9019629729338
 23
18.35107908613327
 33
0.0
  0
SOLID
  5
A4E
330
92B
100
AcDbEntity
  8
0
 62
   123
100
AcDbTrace
 10
223.4019629729337
 20
18.76774575279993
 30
0.0
 11
223.4019629729337
 21
17.9344124194666
 31
0.0
 12
225.9019629729337
 22
18.35107908613327
 32
0.0
 13
225.9019629729337
 23
18.35107908613327
 33
0.0
  0
MTEXT
  5
A4F
330
92B
100
AcDbEntity
  8
0
 62
     3
100
AcDbMText
 10
222.4019629729337
 20
20.85107908613327
 30
0.0
 40
3.0
 41
0.0
 71
     5
 72
     1
  1
\A1;7
 73
     1
 44
1.0
1001
ACAD
1000
MTEXTBEGIN
1070
    73
1070
     1
1070
    44
1040
1.0
1070
    74
1070
     0
1000
MTEXTEND
  0
POINT
  5
A50
330
92B
100
AcDbEntity
  8
DEFPOINTS
 62
     0
100
AcDbPoint
 10
218.9019629729338
 20
30.09019308451434
 30
0.0
  0
POINT
  5
A51
330
92B
100
AcDbEntity
  8
DEFPOINTS
 62
     0
100
AcDbPoint
 10
225.9019629729337
 20
32.49145574298427
 30
0.0
  0
POINT
  5
A52
330
92B
100
AcDbEntity
  8
DEFPOINTS
 62
     0
100
AcDbPoint
 10
225.9019629729337
 20
18.35107908613327
 30
0.0
  0
ENDBLK
  5
92D
330
92B
100
AcDbEntity
  8
0
100
AcDbBlockEnd
  0
BLOCK
  5
938
330
937
100
AcDbEntity
  8
0
100
AcDbBlockBegin
  2
*D26
 70
     1
 10
0.0
 20
0.0
 30
0.0
  3
*D26
  1

  0
LINE
  5
ABF
330
937
100
AcDbEntity
  8
0
 62
   123
370
    -2
100
AcDbLine
 10
216.9019629729338
 20
33.59019308451434
 30
0.0
 11
216.9019629729338
 21
17.75107908613327
 31
0.0
  0
LINE
  5
AC0
330
937
100
AcDbEntity
  8
0
 62
   123
370
    -2
100
AcDbLine
 10
218.9019629729338
 20
30.09019308451434
 30
0.0
 11
218.9019629729338
 21
17.75107908613327
 31
0.0
  0
LINE
  5
AC1
330
937
100
AcDbEntity
  8
0
 62
   123
370
    -2
100
AcDbLine
 10
221.4019629729337
 20
18.35107908613327
 30
0.0
 11
223.9019629729337
 21
18.35107908613327
 31
0.0
  0
LINE
  5
AC2
330
937
100
AcDbEntity
  8
0
 62
   123
370
    -2
100
AcDbLine
 10
214.4019629729338
 20
18.35107908613327
 30
0.0
 11
207.9019629729337
 21
18.35107908613327
 31
0.0
  0
LINE
  5
AC3
330
937
100
AcDbEntity
  8
0
 62
   123
370
    -2
100
AcDbLine
 10
218.9019629729338
 20
18.35107908613327
 30
0.0
 11
216.9019629729338
 21
18.35107908613327
 31
0.0
  0
SOLID
  5
AC4
330
937
100
AcDbEntity
  8
0
 62
   123
100
AcDbTrace
 10
221.4019629729337
 20
18.76774575279993
 30
0.0
 11
221.4019629729337
 21
17.9344124194666
 31
0.0
 12
218.9019629729338
 22
18.35107908613327
 32
0.0
 13
218.9019629729338
 23
18.35107908613327
 33
0.0
  0
SOLID
  5
AC5
330
937
100
AcDbEntity
  8
0
 62
   123
100
AcDbTrace
 10
214.4019629729338
 20
18.76774575279993
 30
0.0
 11
214.4019629729338
 21
17.9344124194666
 31
0.0
 12
216.9019629729338
 22
18.35107908613327
 32
0.0
 13
216.9019629729338
 23
18.35107908613327
 33
0.0
  0
MTEXT
  5
AC6
330
937
100
AcDbEntity
  8
0
 62
     3
100
AcDbMText
 10
209.9019629729337
 20
20.85107908613327
 30
0.0
 40
3.0
 41
0.0
 71
     5
 72
     1
  1
\A1;2
 73
     1
 44
1.0
1001
ACAD
1000
MTEXTBEGIN
1070
    73
1070
     1
1070
    44
1040
1.0
1070
    74
1070
     0
1000
MTEXTEND
  0
POINT
  5
AC7
330
937
100
AcDbEntity
  8
DEFPOINTS
 62
     0
100
AcDbPoint
 10
216.9019629729338
 20
34.59019308451434
 30
0.0
  0
POINT
  5
AC8
330
937
100
AcDbEntity
  8
DEFPOINTS
 62
     0
100
AcDbPoint
 10
218.9019629729338
 20
31.09019308451434
 30
0.0
  0
POINT
  5
AC9
330
937
100
AcDbEntity
  8
DEFPOINTS
 62
     0
100
AcDbPoint
 10
218.9019629729338
 20
18.35107908613327
 30
0.0
  0
ENDBLK
  5
939
330
937
100
AcDbEntity
  8
0
100
AcDbBlockEnd
  0
BLOCK
  5
946
330
945
100
AcDbEntity
  8
0
100
AcDbBlockBegin
  2
*D27
 70
     1
 10
0.0
 20
0.0
 30
0.0
  3
*D27
  1

  0
LINE
  5
A5E
330
945
100
AcDbEntity
  8
0
 62
   123
370
    -2
100
AcDbLine
 10
297.9019629729338
 20
110.5901930845143
 30
0.0
 11
325.0488171089143
 21
110.5901930845143
 31
0.0
  0
LINE
  5
A5F
330
945
100
AcDbEntity
  8
0
 62
   123
370
    -2
100
AcDbLine
 10
297.9019629729338
 20
31.59019308451434
 30
0.0
 11
325.0488171089143
 21
31.59019308451434
 31
0.0
  0
LINE
  5
A60
330
945
100
AcDbEntity
  8
0
 62
   123
370
    -2
100
AcDbLine
 10
324.4488171089143
 20
108.0901930845143
 30
0.0
 11
324.4488171089143
 21
34.09019308451434
 31
0.0
  0
SOLID
  5
A61
330
945
100
AcDbEntity
  8
0
 62
   123
100
AcDbTrace
 10
324.0321504422476
 20
108.0901930845143
 30
0.0
 11
324.865483775581
 21
108.0901930845143
 31
0.0
 12
324.4488171089143
 22
110.5901930845143
 32
0.0
 13
324.4488171089143
 23
110.5901930845143
 33
0.0
  0
SOLID
  5
A62
330
945
100
AcDbEntity
  8
0
 62
   123
100
AcDbTrace
 10
324.0321504422476
 20
34.09019308451434
 30
0.0
 11
324.865483775581
 21
34.09019308451434
 31
0.0
 12
324.4488171089143
 22
31.59019308451434
 32
0.0
 13
324.4488171089143
 23
31.59019308451434
 33
0.0
  0
MTEXT
  5
A63
330
945
100
AcDbEntity
  8
0
 62
     3
100
AcDbMText
 10
321.9488171089143
 20
71.09019308451434
 30
0.0
 40
3.0
 41
0.0
 71
     5
 72
     1
  1
\A1;%%C79
 11
0.0000000000000001
 21
1.0
 31
0.0
 73
     1
 44
1.0
1001
ACAD
1000
MTEXTBEGIN
1070
    73
1070
     1
1070
    44
1040
1.0
1070
    74
1070
     0
1000
MTEXTEND
  0
POINT
  5
A64
330
945
100
AcDbEntity
  8
DEFPOINTS
 62
     0
100
AcDbPoint
 10
296.9019629729337
 20
110.5901930845143
 30
0.0
  0
POINT
  5
A65
330
945
100
AcDbEntity
  8
DEFPOINTS
 62
     0
100
AcDbPoint
 10
296.9019629729337
 20
31.59019308451434
 30
0.0
  0
POINT
  5
A66
330
945
100
AcDbEntity
  8
DEFPOINTS
 62
     0
100
AcDbPoint
 10
324.4488171089143
 20
31.59019308451434
 30
0.0
  0
ENDBLK
  5
947
330
945
100
AcDbEntity
  8
0
100
AcDbBlockEnd
  0
BLOCK
  5
963
330
962
100
AcDbEntity
  8
0
100
AcDbBlockBegin
  2
*D28
 70
     1
 10
0.0
 20
0.0
 30
0.0
  3
*D28
  1

  0
LINE
  5
BD5
330
962
100
AcDbEntity
  8
0
 62
   123
370
    -2
100
AcDbLine
 10
33.368650281871
 20
120.790193084515
 30
0.0
 11
33.368650281871
 21
169.5716500198124
 31
0.0
  0
LINE
  5
BD6
330
962
100
AcDbEntity
  8
0
 62
   123
370
    -2
100
AcDbLine
 10
95.36865028187099
 20
120.790193084515
 30
0.0
 11
95.36865028187099
 21
169.5716500198124
 31
0.0
  0
LINE
  5
BD7
330
962
100
AcDbEntity
  8
0
 62
   123
370
    -2
100
AcDbLine
 10
35.868650281871
 20
168.9716500198124
 30
0.0
 11
92.86865028187099
 21
168.9716500198124
 31
0.0
  0
SOLID
  5
BD8
330
962
100
AcDbEntity
  8
0
 62
   123
100
AcDbTrace
 10
35.868650281871
 20
169.388316686479
 30
0.0
 11
35.868650281871
 21
168.5549833531457
 31
0.0
 12
33.368650281871
 22
168.9716500198124
 32
0.0
 13
33.368650281871
 23
168.9716500198124
 33
0.0
  0
SOLID
  5
BD9
330
962
100
AcDbEntity
  8
0
 62
   123
100
AcDbTrace
 10
92.86865028187099
 20
169.388316686479
 30
0.0
 11
92.86865028187099
 21
168.5549833531457
 31
0.0
 12
95.36865028187099
 22
168.9716500198124
 32
0.0
 13
95.36865028187099
 23
168.9716500198124
 33
0.0
  0
MTEXT
  5
BDA
330
962
100
AcDbEntity
  8
0
 62
     3
100
AcDbMText
 10
64.36865028187099
 20
171.4716500198124
 30
0.0
 40
3.0
 41
0.0
 71
     5
 72
     1
  1
\A1;62
 73
     1
 44
1.0
1001
ACAD
1000
MTEXTBEGIN
1070
    73
1070
     1
1070
    44
1040
1.0
1070
    74
1070
     0
1000
MTEXTEND
  0
POINT
  5
BDB
330
962
100
AcDbEntity
  8
DEFPOINTS
 62
     0
100
AcDbPoint
 10
33.368650281871
 20
119.790193084515
 30
0.0
  0
POINT
  5
BDC
330
962
100
AcDbEntity
  8
DEFPOINTS
 62
     0
100
AcDbPoint
 10
95.36865028187099
 20
119.790193084515
 30
0.0
  0
POINT
  5
BDD
330
962
100
AcDbEntity
  8
DEFPOINTS
 62
     0
100
AcDbPoint
 10
95.36865028187099
 20
168.9716500198124
 30
0.0
  0
ENDBLK
  5
964
330
962
100
AcDbEntity
  8
0
100
AcDbBlockEnd
  0
BLOCK
  5
ADD
330
ADC
100
AcDbEntity
  8
0
100
AcDbBlockBegin
  2
*D29
 70
     1
 10
0.0
 20
0.0
 30
0.0
  3
*D29
  1

  0
LINE
  5
ADF
330
ADC
100
AcDbEntity
  8
0
 62
   123
370
    -2
100
AcDbLine
 10
117.8323260521674
 20
172.4290245689917
 30
0.0
 11
129.7516721234211
 21
172.4290245689917
 31
0.0
  0
LINE
  5
AE0
330
ADC
100
AcDbEntity
  8
0
 62
   123
370
    -2
100
AcDbLine
 10
111.3606320521712
 20
215.4290245689917
 30
0.0
 11
129.7516721234212
 21
215.4290245689917
 31
0.0
  0
LINE
  5
AE1
330
ADC
100
AcDbEntity
  8
0
 62
   123
370
    -2
100
AcDbLine
 10
129.1516721234211
 20
174.9290245689917
 30
0.0
 11
129.1516721234212
 21
212.9290245689917
 31
0.0
  0
SOLID
  5
AE2
330
ADC
100
AcDbEntity
  8
0
 62
   123
100
AcDbTrace
 10
128.7350054567545
 20
174.9290245689917
 30
0.0
 11
129.5683387900878
 21
174.9290245689917
 31
0.0
 12
129.1516721234211
 22
172.4290245689917
 32
0.0
 13
129.1516721234211
 23
172.4290245689917
 33
0.0
  0
SOLID
  5
AE3
330
ADC
100
AcDbEntity
  8
0
 62
   123
100
AcDbTrace
 10
128.7350054567545
 20
212.9290245689917
 30
0.0
 11
129.5683387900878
 21
212.9290245689917
 31
0.0
 12
129.1516721234212
 22
215.4290245689917
 32
0.0
 13
129.1516721234212
 23
215.4290245689917
 33
0.0
  0
MTEXT
  5
AE4
330
ADC
100
AcDbEntity
  8
0
 62
     3
100
AcDbMText
 10
126.6516721234211
 20
195.5666541249446
 30
0.0
 40
3.0
 41
0.0
 71
     5
 72
     1
  1
\A1;43
 11
0.0000000000000001
 21
1.0
 31
0.0
 73
     1
 44
1.0
1001
ACAD
1000
MTEXTBEGIN
1070
    73
1070
     1
1070
    44
1040
1.0
1070
    74
1070
     0
1000
MTEXTEND
  0
POINT
  5
AE5
330
ADC
100
AcDbEntity
  8
DEFPOINTS
 62
     0
100
AcDbPoint
 10
116.8323260521674
 20
172.4290245689917
 30
0.0
  0
POINT
  5
AE6
330
ADC
100
AcDbEntity
  8
DEFPOINTS
 62
     0
100
AcDbPoint
 10
110.3606320521712
 20
215.4290245689917
 30
0.0
  0
POINT
  5
AE7
330
ADC
100
AcDbEntity
  8
DEFPOINTS
 62
     0
100
AcDbPoint
 10
129.1516721234212
 20
215.4290245689917
 30
0.0
  0
ENDBLK
  5
ADE
330
ADC
100
AcDbEntity
  8
0
100
AcDbBlockEnd
  0
BLOCK
  5
AE9
330
AE8
100
AcDbEntity
  8
0
100
AcDbBlockBegin
  2
*D30
 70
     1
 10
0.0
 20
0.0
 30
0.0
  3
*D30
  1

  0
LINE
  5
AEB
330
AE8
100
AcDbEntity
  8
0
 62
   123
370
    -2
100
AcDbLine
 10
41.83232605216743
 20
96.42902456899172
 30
0.0
 11
41.83232605216743
 21
76.24482903710888
 31
0.0
  0
LINE
  5
AEC
330
AE8
100
AcDbEntity
  8
0
 62
   123
370
    -2
100
AcDbLine
 10
121.8323260521674
 20
96.42902456899172
 30
0.0
 11
121.8323260521674
 21
76.24482903710888
 31
0.0
  0
LINE
  5
AED
330
AE8
100
AcDbEntity
  8
0
 62
   123
370
    -2
100
AcDbLine
 10
44.33232605216743
 20
76.84482903710886
 30
0.0
 11
119.3323260521674
 21
76.84482903710886
 31
0.0
  0
SOLID
  5
AEE
330
AE8
100
AcDbEntity
  8
0
 62
   123
100
AcDbTrace
 10
44.33232605216743
 20
77.26149570377555
 30
0.0
 11
44.33232605216743
 21
76.42816237044219
 31
0.0
 12
41.83232605216743
 22
76.84482903710886
 32
0.0
 13
41.83232605216743
 23
76.84482903710886
 33
0.0
  0
SOLID
  5
AEF
330
AE8
100
AcDbEntity
  8
0
 62
   123
100
AcDbTrace
 10
119.3323260521674
 20
77.26149570377555
 30
0.0
 11
119.3323260521674
 21
76.42816237044219
 31
0.0
 12
121.8323260521674
 22
76.84482903710886
 32
0.0
 13
121.8323260521674
 23
76.84482903710886
 33
0.0
  0
MTEXT
  5
AF0
330
AE8
100
AcDbEntity
  8
0
 62
     3
100
AcDbMText
 10
84.69980093925094
 20
79.34482903710886
 30
0.0
 40
3.0
 41
0.0
 71
     5
 72
     1
  1
\A1;80
 73
     1
 44
1.0
1001
ACAD
1000
MTEXTBEGIN
1070
    73
1070
     1
1070
    44
1040
1.0
1070
    74
1070
     0
1000
MTEXTEND
  0
POINT
  5
AF1
330
AE8
100
AcDbEntity
  8
DEFPOINTS
 62
     0
100
AcDbPoint
 10
41.83232605216743
 20
97.42902456899173
 30
0.0
  0
POINT
  5
AF2
330
AE8
100
AcDbEntity
  8
DEFPOINTS
 62
     0
100
AcDbPoint
 10
121.8323260521674
 20
97.42902456899173
 30
0.0
  0
POINT
  5
AF3
330
AE8
100
AcDbEntity
  8
DEFPOINTS
 62
     0
100
AcDbPoint
 10
121.8323260521674
 20
76.84482903710886
 30
0.0
  0
ENDBLK
  5
AEA
330
AE8
100
AcDbEntity
  8
0
100
AcDbBlockEnd
  0
BLOCK
  5
AF5
330
AF4
100
AcDbEntity
  8
0
100
AcDbBlockBegin
  2
*D31
 70
     1
 10
0.0
 20
0.0
 30
0.0
  3
*D31
  1

  0
LINE
  5
AF7
330
AF4
100
AcDbEntity
  8
0
 62
   123
370
    -2
100
AcDbLine
 10
236.3656387432338
 20
91.42902456899172
 30
0.0
 11
236.3656387432338
 21
68.22268335193658
 31
0.0
  0
LINE
  5
AF8
330
AF4
100
AcDbEntity
  8
0
 62
   123
370
    -2
100
AcDbLine
 10
321.3656387432338
 20
94.42902456899174
 30
0.0
 11
321.3656387432338
 21
68.22268335193658
 31
0.0
  0
LINE
  5
AF9
330
AF4
100
AcDbEntity
  8
0
 62
   123
370
    -2
100
AcDbLine
 10
238.8656387432338
 20
68.82268335193657
 30
0.0
 11
318.8656387432339
 21
68.82268335193657
 31
0.0
  0
SOLID
  5
AFA
330
AF4
100
AcDbEntity
  8
0
 62
   123
100
AcDbTrace
 10
238.8656387432338
 20
69.23935001860325
 30
0.0
 11
238.8656387432338
 21
68.4060166852699
 31
0.0
 12
236.3656387432338
 22
68.82268335193657
 32
0.0
 13
236.3656387432338
 23
68.82268335193657
 33
0.0
  0
SOLID
  5
AFB
330
AF4
100
AcDbEntity
  8
0
 62
   123
100
AcDbTrace
 10
318.8656387432339
 20
69.23935001860325
 30
0.0
 11
318.8656387432339
 21
68.4060166852699
 31
0.0
 12
321.3656387432338
 22
68.82268335193657
 32
0.0
 13
321.3656387432338
 23
68.82268335193657
 33
0.0
  0
MTEXT
  5
AFC
330
AF4
100
AcDbEntity
  8
0
 62
     3
100
AcDbMText
 10
275.3829346216653
 20
71.32268335193656
 30
0.0
 40
3.0
 41
0.0
 71
     5
 72
     1
  1
\A1;85
 73
     1
 44
1.0
1001
ACAD
1000
MTEXTBEGIN
1070
    73
1070
     1
1070
    44
1040
1.0
1070
    74
1070
     0
1000
MTEXTEND
  0
POINT
  5
AFD
330
AF4
100
AcDbEntity
  8
DEFPOINTS
 62
     0
100
AcDbPoint
 10
236.3656387432338
 20
92.42902456899171
 30
0.0
  0
POINT
  5
AFE
330
AF4
100
AcDbEntity
  8
DEFPOINTS
 62
     0
100
AcDbPoint
 10
321.3656387432338
 20
95.42902456899174
 30
0.0
  0
POINT
  5
AFF
330
AF4
100
AcDbEntity
  8
DEFPOINTS
 62
     0
100
AcDbPoint
 10
321.3656387432338
 20
68.82268335193657
 30
0.0
  0
ENDBLK
  5
AF6
330
AF4
100
AcDbEntity
  8
0
100
AcDbBlockEnd
  0
BLOCK
  5
B01
330
B00
100
AcDbEntity
  8
0
100
AcDbBlockBegin
  2
*D32
 70
     1
 10
0.0
 20
0.0
 30
0.0
  3
*D32
  1

  0
LINE
  5
B03
330
B00
100
AcDbEntity
  8
0
 62
   123
370
    -2
100
AcDbLine
 10
204.3656387432338
 20
127.4290245689917
 30
0.0
 11
204.3656387432338
 21
68.22268335193658
 31
0.0
  0
LINE
  5
B04
330
B00
100
AcDbEntity
  8
0
 62
   123
370
    -2
100
AcDbLine
 10
236.3656387432338
 20
91.42902456899172
 30
0.0
 11
236.3656387432338
 21
68.22268335193658
 31
0.0
  0
LINE
  5
B05
330
B00
100
AcDbEntity
  8
0
 62
   123
370
    -2
100
AcDbLine
 10
206.8656387432338
 20
68.82268335193657
 30
0.0
 11
233.8656387432338
 21
68.82268335193657
 31
0.0
  0
SOLID
  5
B06
330
B00
100
AcDbEntity
  8
0
 62
   123
100
AcDbTrace
 10
206.8656387432338
 20
69.23935001860325
 30
0.0
 11
206.8656387432338
 21
68.4060166852699
 31
0.0
 12
204.3656387432338
 22
68.82268335193657
 32
0.0
 13
204.3656387432338
 23
68.82268335193657
 33
0.0
  0
SOLID
  5
B07
330
B00
100
AcDbEntity
  8
0
 62
   123
100
AcDbTrace
 10
233.8656387432338
 20
69.23935001860325
 30
0.0
 11
233.8656387432338
 21
68.4060166852699
 31
0.0
 12
236.3656387432338
 22
68.82268335193657
 32
0.0
 13
236.3656387432338
 23
68.82268335193657
 33
0.0
  0
MTEXT
  5
B08
330
B00
100
AcDbEntity
  8
0
 62
     3
100
AcDbMText
 10
220.3656387432338
 20
71.32268335193656
 30
0.0
 40
3.0
 41
0.0
 71
     5
 72
     1
  1
\A1;32
 73
     1
 44
1.0
1001
ACAD
1000
MTEXTBEGIN
1070
    73
1070
     1
1070
    44
1040
1.0
1070
    74
1070
     0
1000
MTEXTEND
  0
POINT
  5
B09
330
B00
100
AcDbEntity
  8
DEFPOINTS
 62
     0
100
AcDbPoint
 10
204.3656387432338
 20
128.4290245689917
 30
0.0
  0
POINT
  5
B0A
330
B00
100
AcDbEntity
  8
DEFPOINTS
 62
     0
100
AcDbPoint
 10
236.3656387432338
 20
92.42902456899171
 30
0.0
  0
POINT
  5
B0B
330
B00
100
AcDbEntity
  8
DEFPOINTS
 62
     0
100
AcDbPoint
 10
236.3656387432338
 20
68.82268335193657
 30
0.0
  0
ENDBLK
  5
B02
330
B00
100
AcDbEntity
  8
0
100
AcDbBlockEnd
  0
BLOCK
  5
B0D
330
B0C
100
AcDbEntity
  8
0
100
AcDbBlockBegin
  2
*D33
 70
     1
 10
0.0
 20
0.0
 30
0.0
  3
*D33
  1

  0
LINE
  5
B0F
330
B0C
100
AcDbEntity
  8
0
 62
   123
370
    -2
100
AcDbLine
 10
204.3656387432338
 20
136.4290245689917
 30
0.0
 11
204.3656387432338
 21
151.0574106428772
 31
0.0
  0
LINE
  5
B10
330
B0C
100
AcDbEntity
  8
0
 62
   123
370
    -2
100
AcDbLine
 10
229.3656387432339
 20
137.4290245689917
 30
0.0
 11
229.3656387432339
 21
151.0574106428772
 31
0.0
  0
LINE
  5
B11
330
B0C
100
AcDbEntity
  8
0
 62
   123
370
    -2
100
AcDbLine
 10
206.8656387432338
 20
150.4574106428771
 30
0.0
 11
226.8656387432338
 21
150.4574106428771
 31
0.0
  0
SOLID
  5
B12
330
B0C
100
AcDbEntity
  8
0
 62
   123
100
AcDbTrace
 10
206.8656387432338
 20
150.8740773095438
 30
0.0
 11
206.8656387432338
 21
150.0407439762105
 31
0.0
 12
204.3656387432338
 22
150.4574106428771
 32
0.0
 13
204.3656387432338
 23
150.4574106428771
 33
0.0
  0
SOLID
  5
B13
330
B0C
100
AcDbEntity
  8
0
 62
   123
100
AcDbTrace
 10
226.8656387432338
 20
150.8740773095438
 30
0.0
 11
226.8656387432338
 21
150.0407439762105
 31
0.0
 12
229.3656387432339
 22
150.4574106428771
 32
0.0
 13
229.3656387432339
 23
150.4574106428771
 33
0.0
  0
MTEXT
  5
B14
330
B0C
100
AcDbEntity
  8
0
 62
     3
100
AcDbMText
 10
216.8656387432339
 20
152.9574106428771
 30
0.0
 40
3.0
 41
0.0
 71
     5
 72
     1
  1
\A1;25
 73
     1
 44
1.0
1001
ACAD
1000
MTEXTBEGIN
1070
    73
1070
     1
1070
    44
1040
1.0
1070
    74
1070
     0
1000
MTEXTEND
  0
POINT
  5
B15
330
B0C
100
AcDbEntity
  8
DEFPOINTS
 62
     0
100
AcDbPoint
 10
204.3656387432338
 20
135.4290245689917
 30
0.0
  0
POINT
  5
B16
330
B0C
100
AcDbEntity
  8
DEFPOINTS
 62
     0
100
AcDbPoint
 10
229.3656387432339
 20
136.4290245689917
 30
0.0
  0
POINT
  5
B17
330
B0C
100
AcDbEntity
  8
DEFPOINTS
 62
     0
100
AcDbPoint
 10
229.3656387432339
 20
150.4574106428771
 30
0.0
  0
ENDBLK
  5
B0E
330
B0C
100
AcDbEntity
  8
0
100
AcDbBlockEnd
  0
BLOCK
  5
B19
330
B18
100
AcDbEntity
  8
0
100
AcDbBlockBegin
  2
*D34
 70
     1
 10
0.0
 20
0.0
 30
0.0
  3
*D34
  1

  0
LINE
  5
B1B
330
B18
100
AcDbEntity
  8
0
 62
   123
370
    -2
100
AcDbLine
 10
203.3656387432338
 20
128.4290245689917
 30
0.0
 11
190.7757107042575
 21
128.4290245689917
 31
0.0
  0
LINE
  5
B1C
330
B18
100
AcDbEntity
  8
0
 62
   123
370
    -2
100
AcDbLine
 10
203.3656387432338
 20
135.4290245689917
 30
0.0
 11
190.7757107042575
 21
135.4290245689917
 31
0.0
  0
LINE
  5
B1D
330
B18
100
AcDbEntity
  8
0
 62
   123
370
    -2
100
AcDbLine
 10
191.3757107042575
 20
130.9290245689917
 30
0.0
 11
191.3757107042575
 21
132.9290245689917
 31
0.0
  0
SOLID
  5
B1E
330
B18
100
AcDbEntity
  8
0
 62
   123
100
AcDbTrace
 10
190.9590440375908
 20
130.9290245689917
 30
0.0
 11
191.7923773709241
 21
130.9290245689917
 31
0.0
 12
191.3757107042575
 22
128.4290245689917
 32
0.0
 13
191.3757107042575
 23
128.4290245689917
 33
0.0
  0
SOLID
  5
B1F
330
B18
100
AcDbEntity
  8
0
 62
   123
100
AcDbTrace
 10
190.9590440375908
 20
132.9290245689917
 30
0.0
 11
191.7923773709241
 21
132.9290245689917
 31
0.0
 12
191.3757107042575
 22
135.4290245689917
 32
0.0
 13
191.3757107042575
 23
135.4290245689917
 33
0.0
  0
MTEXT
  5
B20
330
B18
100
AcDbEntity
  8
0
 62
     3
100
AcDbMText
 10
188.8757107042575
 20
131.9290245689917
 30
0.0
 40
3.0
 41
0.0
 71
     5
 72
     1
  1
\A1;7
 11
0.0000000000000001
 21
1.0
 31
0.0
 73
     1
 44
1.0
1001
ACAD
1000
MTEXTBEGIN
1070
    73
1070
     1
1070
    44
1040
1.0
1070
    74
1070
     0
1000
MTEXTEND
  0
POINT
  5
B21
330
B18
100
AcDbEntity
  8
DEFPOINTS
 62
     0
100
AcDbPoint
 10
204.3656387432338
 20
128.4290245689917
 30
0.0
  0
POINT
  5
B22
330
B18
100
AcDbEntity
  8
DEFPOINTS
 62
     0
100
AcDbPoint
 10
204.3656387432338
 20
135.4290245689917
 30
0.0
  0
POINT
  5
B23
330
B18
100
AcDbEntity
  8
DEFPOINTS
 62
     0
100
AcDbPoint
 10
191.3757107042575
 20
135.4290245689917
 30
0.0
  0
ENDBLK
  5
B1A
330
B18
100
AcDbEntity
  8
0
100
AcDbBlockEnd
  0
BLOCK
  5
B25
330
B24
100
AcDbEntity
  8
0
100
AcDbBlockBegin
  2
*D35
 70
     1
 10
0.0
 20
0.0
 30
0.0
  3
*D35
  1

  0
LINE
  5
B27
330
B24
100
AcDbEntity
  8
0
 62
   123
370
    -2
100
AcDbLine
 10
233.3656387432338
 20
95.92902456899173
 30
0.0
 11
168.3907925588186
 21
95.92902456899173
 31
0.0
  0
LINE
  5
B28
330
B24
100
AcDbEntity
  8
0
 62
   123
370
    -2
100
AcDbLine
 10
233.3656387432338
 20
168.9290245689917
 30
0.0
 11
168.3907925588186
 21
168.9290245689917
 31
0.0
  0
LINE
  5
B29
330
B24
100
AcDbEntity
  8
0
 62
   123
370
    -2
100
AcDbLine
 10
168.9907925588186
 20
98.42902456899174
 30
0.0
 11
168.9907925588186
 21
166.4290245689917
 31
0.0
  0
SOLID
  5
B2A
330
B24
100
AcDbEntity
  8
0
 62
   123
100
AcDbTrace
 10
168.574125892152
 20
98.42902456899174
 30
0.0
 11
169.4074592254853
 21
98.42902456899174
 31
0.0
 12
168.9907925588186
 22
95.92902456899173
 32
0.0
 13
168.9907925588186
 23
95.92902456899173
 33
0.0
  0
SOLID
  5
B2B
330
B24
100
AcDbEntity
  8
0
 62
   123
100
AcDbTrace
 10
168.574125892152
 20
166.4290245689917
 30
0.0
 11
169.4074592254853
 21
166.4290245689917
 31
0.0
 12
168.9907925588186
 22
168.9290245689917
 32
0.0
 13
168.9907925588186
 23
168.9290245689917
 33
0.0
  0
MTEXT
  5
B2C
330
B24
100
AcDbEntity
  8
0
 62
     3
100
AcDbMText
 10
165.0406425588186
 20
132.8283323444157
 30
0.0
 40
3.0
 41
0.0
 71
     5
 72
     1
  1
\A1;\A1;{\f??|b0|i0|c0|p49;%%C}73{\f??|b0|i0|c0|p49;\H0.7x;\S+0^ -0.030;\H1.429x;(h7)}
 11
0.0000000000000001
 21
1.0
 31
0.0
 73
     1
 44
1.0
1001
ACAD
1000
MTEXTBEGIN
1070
    73
1070
     1
1070
    44
1040
1.0
1070
    74
1070
     0
1000
MTEXTEND
  0
POINT
  5
B2D
330
B24
100
AcDbEntity
  8
DEFPOINTS
 62
     0
100
AcDbPoint
 10
234.3656387432338
 20
95.92902456899173
 30
0.0
  0
POINT
  5
B2E
330
B24
100
AcDbEntity
  8
DEFPOINTS
 62
     0
100
AcDbPoint
 10
234.3656387432338
 20
168.9290245689917
 30
0.0
  0
POINT
  5
B2F
330
B24
100
AcDbEntity
  8
DEFPOINTS
 62
     0
100
AcDbPoint
 10
168.9907925588186
 20
168.9290245689917
 30
0.0
  0
ENDBLK
  5
B26
330
B24
100
AcDbEntity
  8
0
100
AcDbBlockEnd
  0
BLOCK
  5
B31
330
B30
100
AcDbEntity
  8
0
100
AcDbBlockBegin
  2
*D36
 70
     1
 10
0.0
 20
0.0
 30
0.0
  3
*D36
  1

  0
LINE
  5
B33
330
B30
100
AcDbEntity
  8
0
 62
   123
370
    -2
100
AcDbLine
 10
236.3656387432338
 20
90.42902456899174
 30
0.0
 11
236.3656387432338
 21
79.08991057061067
 31
0.0
  0
LINE
  5
B34
330
B30
100
AcDbEntity
  8
0
 62
   123
370
    -2
100
AcDbLine
 10
243.3656387432338
 20
92.83028722746166
 30
0.0
 11
243.3656387432338
 21
79.08991057061067
 31
0.0
  0
LINE
  5
B35
330
B30
100
AcDbEntity
  8
0
 62
   123
370
    -2
100
AcDbLine
 10
238.8656387432338
 20
79.68991057061065
 30
0.0
 11
240.8656387432338
 21
79.68991057061065
 31
0.0
  0
SOLID
  5
B36
330
B30
100
AcDbEntity
  8
0
 62
   123
100
AcDbTrace
 10
238.8656387432338
 20
80.10657723727732
 30
0.0
 11
238.8656387432338
 21
79.27324390394399
 31
0.0
 12
236.3656387432338
 22
79.68991057061065
 32
0.0
 13
236.3656387432338
 23
79.68991057061065
 33
0.0
  0
SOLID
  5
B37
330
B30
100
AcDbEntity
  8
0
 62
   123
100
AcDbTrace
 10
240.8656387432338
 20
80.10657723727732
 30
0.0
 11
240.8656387432338
 21
79.27324390394399
 31
0.0
 12
243.3656387432338
 22
79.68991057061065
 32
0.0
 13
243.3656387432338
 23
79.68991057061065
 33
0.0
  0
MTEXT
  5
B38
330
B30
100
AcDbEntity
  8
0
 62
     3
100
AcDbMText
 10
239.8656387432338
 20
82.18991057061066
 30
0.0
 40
3.0
 41
0.0
 71
     5
 72
     1
  1
\A1;7
 73
     1
 44
1.0
1001
ACAD
1000
MTEXTBEGIN
1070
    73
1070
     1
1070
    44
1040
1.0
1070
    74
1070
     0
1000
MTEXTEND
  0
POINT
  5
B39
330
B30
100
AcDbEntity
  8
DEFPOINTS
 62
     0
100
AcDbPoint
 10
236.3656387432338
 20
91.42902456899172
 30
0.0
  0
POINT
  5
B3A
330
B30
100
AcDbEntity
  8
DEFPOINTS
 62
     0
100
AcDbPoint
 10
243.3656387432338
 20
93.83028722746166
 30
0.0
  0
POINT
  5
B3B
330
B30
100
AcDbEntity
  8
DEFPOINTS
 62
     0
100
AcDbPoint
 10
243.3656387432338
 20
79.68991057061065
 30
0.0
  0
ENDBLK
  5
B32
330
B30
100
AcDbEntity
  8
0
100
AcDbBlockEnd
  0
BLOCK
  5
B3D
330
B3C
100
AcDbEntity
  8
0
100
AcDbBlockBegin
  2
*D37
 70
     1
 10
0.0
 20
0.0
 30
0.0
  3
*D37
  1

  0
LINE
  5
B3F
330
B3C
100
AcDbEntity
  8
0
 62
   123
370
    -2
100
AcDbLine
 10
234.3656387432338
 20
94.92902456899171
 30
0.0
 11
234.3656387432338
 21
79.08991057061067
 31
0.0
  0
LINE
  5
B40
330
B3C
100
AcDbEntity
  8
0
 62
   123
370
    -2
100
AcDbLine
 10
236.3656387432338
 20
91.42902456899172
 30
0.0
 11
236.3656387432338
 21
79.08991057061067
 31
0.0
  0
LINE
  5
B41
330
B3C
100
AcDbEntity
  8
0
 62
   123
370
    -2
100
AcDbLine
 10
238.8656387432338
 20
79.68991057061065
 30
0.0
 11
241.3656387432338
 21
79.68991057061065
 31
0.0
  0
LINE
  5
B42
330
B3C
100
AcDbEntity
  8
0
 62
   123
370
    -2
100
AcDbLine
 10
231.8656387432338
 20
79.68991057061065
 30
0.0
 11
223.3656387432338
 21
79.68991057061065
 31
0.0
  0
LINE
  5
B43
330
B3C
100
AcDbEntity
  8
0
 62
   123
370
    -2
100
AcDbLine
 10
236.3656387432338
 20
79.68991057061065
 30
0.0
 11
234.3656387432338
 21
79.68991057061065
 31
0.0
  0
SOLID
  5
B44
330
B3C
100
AcDbEntity
  8
0
 62
   123
100
AcDbTrace
 10
238.8656387432338
 20
80.10657723727732
 30
0.0
 11
238.8656387432338
 21
79.27324390394399
 31
0.0
 12
236.3656387432338
 22
79.68991057061065
 32
0.0
 13
236.3656387432338
 23
79.68991057061065
 33
0.0
  0
SOLID
  5
B45
330
B3C
100
AcDbEntity
  8
0
 62
   123
100
AcDbTrace
 10
231.8656387432338
 20
80.10657723727732
 30
0.0
 11
231.8656387432338
 21
79.27324390394399
 31
0.0
 12
234.3656387432338
 22
79.68991057061065
 32
0.0
 13
234.3656387432338
 23
79.68991057061065
 33
0.0
  0
MTEXT
  5
B46
330
B3C
100
AcDbEntity
  8
0
 62
     3
100
AcDbMText
 10
225.3656387432338
 20
82.18991057061066
 30
0.0
 40
3.0
 41
0.0
 71
     5
 72
     1
  1
\A1;2
 73
     1
 44
1.0
1001
ACAD
1000
MTEXTBEGIN
1070
    73
1070
     1
1070
    44
1040
1.0
1070
    74
1070
     0
1000
MTEXTEND
  0
POINT
  5
B47
330
B3C
100
AcDbEntity
  8
DEFPOINTS
 62
     0
100
AcDbPoint
 10
234.3656387432338
 20
95.92902456899173
 30
0.0
  0
POINT
  5
B48
330
B3C
100
AcDbEntity
  8
DEFPOINTS
 62
     0
100
AcDbPoint
 10
236.3656387432338
 20
92.42902456899171
 30
0.0
  0
POINT
  5
B49
330
B3C
100
AcDbEntity
  8
DEFPOINTS
 62
     0
100
AcDbPoint
 10
236.3656387432338
 20
79.68991057061065
 30
0.0
  0
ENDBLK
  5
B3E
330
B3C
100
AcDbEntity
  8
0
100
AcDbBlockEnd
  0
BLOCK
  5
B4B
330
B4A
100
AcDbEntity
  8
0
100
AcDbBlockBegin
  2
*D38
 70
     1
 10
0.0
 20
0.0
 30
0.0
  3
*D38
  1

  0
LINE
  5
B4D
330
B4A
100
AcDbEntity
  8
0
 62
   123
370
    -2
100
AcDbLine
 10
315.3656387432338
 20
171.9290245689917
 30
0.0
 11
342.5124928792143
 21
171.9290245689917
 31
0.0
  0
LINE
  5
B4E
330
B4A
100
AcDbEntity
  8
0
 62
   123
370
    -2
100
AcDbLine
 10
315.3656387432338
 20
92.92902456899174
 30
0.0
 11
342.5124928792143
 21
92.92902456899174
 31
0.0
  0
LINE
  5
B4F
330
B4A
100
AcDbEntity
  8
0
 62
   123
370
    -2
100
AcDbLine
 10
341.9124928792144
 20
169.4290245689917
 30
0.0
 11
341.9124928792144
 21
95.42902456899174
 31
0.0
  0
SOLID
  5
B50
330
B4A
100
AcDbEntity
  8
0
 62
   123
100
AcDbTrace
 10
341.4958262125477
 20
169.4290245689917
 30
0.0
 11
342.3291595458811
 21
169.4290245689917
 31
0.0
 12
341.9124928792144
 22
171.9290245689917
 32
0.0
 13
341.9124928792144
 23
171.9290245689917
 33
0.0
  0
SOLID
  5
B51
330
B4A
100
AcDbEntity
  8
0
 62
   123
100
AcDbTrace
 10
341.4958262125477
 20
95.42902456899174
 30
0.0
 11
342.3291595458811
 21
95.42902456899174
 31
0.0
 12
341.9124928792144
 22
92.92902456899174
 32
0.0
 13
341.9124928792144
 23
92.92902456899174
 33
0.0
  0
MTEXT
  5
B52
330
B4A
100
AcDbEntity
  8
0
 62
     3
100
AcDbMText
 10
339.4124928792144
 20
132.4290245689917
 30
0.0
 40
3.0
 41
0.0
 71
     5
 72
     1
  1
\A1;%%C79
 11
0.0000000000000001
 21
1.0
 31
0.0
 73
     1
 44
1.0
1001
ACAD
1000
MTEXTBEGIN
1070
    73
1070
     1
1070
    44
1040
1.0
1070
    74
1070
     0
1000
MTEXTEND
  0
POINT
  5
B53
330
B4A
100
AcDbEntity
  8
DEFPOINTS
 62
     0
100
AcDbPoint
 10
314.3656387432338
 20
171.9290245689917
 30
0.0
  0
POINT
  5
B54
330
B4A
100
AcDbEntity
  8
DEFPOINTS
 62
     0
100
AcDbPoint
 10
314.3656387432338
 20
92.92902456899174
 30
0.0
  0
POINT
  5
B55
330
B4A
100
AcDbEntity
  8
DEFPOINTS
 62
     0
100
AcDbPoint
 10
341.9124928792144
 20
92.92902456899174
 30
0.0
  0
ENDBLK
  5
B4C
330
B4A
100
AcDbEntity
  8
0
100
AcDbBlockEnd
  0
BLOCK
  5
B57
330
B56
100
AcDbEntity
  8
0
100
AcDbBlockBegin
  2
*D39
 70
     1
 10
0.0
 20
0.0
 30
0.0
  3
*D39
  1

  0
LINE
  5
B59
330
B56
100
AcDbEntity
  8
0
 62
   123
370
    -2
100
AcDbLine
 10
151.5685167320089
 20
185.4797761469115
 30
0.0
 11
121.2284035096778
 21
162.3989942213093
 31
0.0
  0
LINE
  5
B5A
330
B56
100
AcDbEntity
  8
0
 62
   123
370
    -2
100
AcDbLine
 10
42.43624859462975
 20
102.4590549166668
 30
0.0
 11
40.44654771293674
 21
100.9454200857416
 31
0.0
  0
MTEXT
  5
B5B
102
{ACAD_XDICTIONARY
360
BE9
102
}
330
B56
100
AcDbEntity
  8
0
 62
     3
100
AcDbMText
 10
141.9255325844522
 20
181.2851975765387
 30
0.0
 40
3.0
 41
0.0
 71
     5
 72
     1
  1
\A1;\U+220594%%P0.5
 11
0.7958803526772065
 21
0.6054539323700899
 31
0.0
 73
     1
 44
1.0
1001
ACAD
1000
MTEXTBEGIN
1070
    73
1070
     1
1070
    44
1040
1.0
1070
    74
1070
     0
1000
MTEXTEND
  0
LINE
  5
B5C
330
B56
100
AcDbEntity
  8
0
 62
   123
370
    -2
100
AcDbLine
 10
44.42594947632279
 20
103.9726897475921
 30
0.0
 11
119.2387026279848
 21
160.8853593903841
 31
0.0
  0
SOLID
  5
B5D
330
B56
100
AcDbEntity
  8
0
 62
   123
100
AcDbTrace
 10
42.1839761228089
 20
102.7906717302823
 30
0.0
 11
42.68852106645063
 21
102.1274381030513
 31
0.0
 12
44.42594947632279
 22
103.9726897475921
 32
0.0
 13
44.42594947632279
 23
103.9726897475921
 33
0.0
  0
SOLID
  5
B5E
330
B56
100
AcDbEntity
  8
0
 62
   123
100
AcDbTrace
 10
120.9761310378569
 20
162.7306110349248
 30
0.0
 11
121.4806759814987
 21
162.0673774076938
 31
0.0
 12
119.2387026279848
 22
160.8853593903841
 32
0.0
 13
119.2387026279848
 23
160.8853593903841
 33
0.0
  0
POINT
  5
B5F
330
B56
100
AcDbEntity
  8
DEFPOINTS
 62
     0
100
AcDbPoint
 10
119.2387026279848
 20
160.8853593903841
 30
0.0
  0
POINT
  5
B60
330
B56
100
AcDbEntity
  8
DEFPOINTS
 62
     0
100
AcDbPoint
 10
44.42594947632279
 20
103.9726897475921
 30
0.0
  0
ENDBLK
  5
B58
330
B56
100
AcDbEntity
  8
0
100
AcDbBlockEnd
  0
BLOCK
  5
B62
330
B61
100
AcDbEntity
  8
0
100
AcDbBlockBegin
  2
*D40
 70
     1
 10
0.0
 20
0.0
 30
0.0
  3
*D40
  1

  0
LINE
  5
B64
330
B61
100
AcDbEntity
  8
0
 62
   123
370
    -2
100
AcDbLine
 10
228.3656387432338
 20
136.4290245689917
 30
0.0
 11
181.7388068477862
 21
136.4290245689917
 31
0.0
  0
LINE
  5
B65
330
B61
100
AcDbEntity
  8
0
 62
   123
370
    -2
100
AcDbLine
 10
203.3656387432338
 20
128.4290245689917
 30
0.0
 11
181.7388068477862
 21
128.4290245689917
 31
0.0
  0
LINE
  5
B66
330
B61
100
AcDbEntity
  8
0
 62
   123
370
    -2
100
AcDbLine
 10
182.3388068477862
 20
133.9290245689917
 30
0.0
 11
182.3388068477862
 21
130.9290245689917
 31
0.0
  0
SOLID
  5
B67
330
B61
100
AcDbEntity
  8
0
 62
   123
100
AcDbTrace
 10
181.9221401811195
 20
133.9290245689917
 30
0.0
 11
182.7554735144528
 21
133.9290245689917
 31
0.0
 12
182.3388068477862
 22
136.4290245689917
 32
0.0
 13
182.3388068477862
 23
136.4290245689917
 33
0.0
  0
SOLID
  5
B68
330
B61
100
AcDbEntity
  8
0
 62
   123
100
AcDbTrace
 10
181.9221401811195
 20
130.9290245689917
 30
0.0
 11
182.7554735144528
 21
130.9290245689917
 31
0.0
 12
182.3388068477862
 22
128.4290245689917
 32
0.0
 13
182.3388068477862
 23
128.4290245689917
 33
0.0
  0
MTEXT
  5
B69
330
B61
100
AcDbEntity
  8
0
 62
     3
100
AcDbMText
 10
178.3888068477861
 20
132.4290245689918
 30
0.0
 40
3.0
 41
0.0
 71
     5
 72
     1
  1
\A1;\A1;%%c8{\H0.7x;\S+0^ -0.015;}(h7)
 11
0.0000000000000001
 21
1.0
 31
0.0
 73
     1
 44
1.0
1001
ACAD
1000
MTEXTBEGIN
1070
    73
1070
     1
1070
    44
1040
1.0
1070
    74
1070
     0
1000
MTEXTEND
  0
POINT
  5
B6A
330
B61
100
AcDbEntity
  8
DEFPOINTS
 62
     0
100
AcDbPoint
 10
229.3656387432339
 20
136.4290245689917
 30
0.0
  0
POINT
  5
B6B
330
B61
100
AcDbEntity
  8
DEFPOINTS
 62
     0
100
AcDbPoint
 10
204.3656387432338
 20
128.4290245689917
 30
0.0
  0
POINT
  5
B6C
330
B61
100
AcDbEntity
  8
DEFPOINTS
 62
     0
100
AcDbPoint
 10
182.3388068477862
 20
128.4290245689917
 30
0.0
  0
ENDBLK
  5
B63
330
B61
100
AcDbEntity
  8
0
100
AcDbBlockEnd
  0
BLOCK
  5
B6E
330
B6D
100
AcDbEntity
  8
0
100
AcDbBlockBegin
  2
*D41
 70
     1
 10
0.0
 20
0.0
 30
0.0
  3
*D41
  1

  0
LINE
  5
B70
330
B6D
100
AcDbEntity
  8
0
 62
   123
370
    -2
100
AcDbLine
 10
50.83232605217109
 20
182.1290245689924
 30
0.0
 11
50.83232605217109
 21
230.9104815042898
 31
0.0
  0
LINE
  5
B71
330
B6D
100
AcDbEntity
  8
0
 62
   123
370
    -2
100
AcDbLine
 10
112.8323260521711
 20
182.1290245689924
 30
0.0
 11
112.8323260521711
 21
230.9104815042898
 31
0.0
  0
LINE
  5
B72
330
B6D
100
AcDbEntity
  8
0
 62
   123
370
    -2
100
AcDbLine
 10
53.33232605217109
 20
230.3104815042898
 30
0.0
 11
110.3323260521711
 21
230.3104815042898
 31
0.0
  0
SOLID
  5
B73
330
B6D
100
AcDbEntity
  8
0
 62
   123
100
AcDbTrace
 10
53.33232605217109
 20
230.7271481709564
 30
0.0
 11
53.33232605217109
 21
229.8938148376231
 31
0.0
 12
50.83232605217109
 22
230.3104815042898
 32
0.0
 13
50.83232605217109
 23
230.3104815042898
 33
0.0
  0
SOLID
  5
B74
330
B6D
100
AcDbEntity
  8
0
 62
   123
100
AcDbTrace
 10
110.3323260521711
 20
230.7271481709564
 30
0.0
 11
110.3323260521711
 21
229.8938148376231
 31
0.0
 12
112.8323260521711
 22
230.3104815042898
 32
0.0
 13
112.8323260521711
 23
230.3104815042898
 33
0.0
  0
MTEXT
  5
B75
330
B6D
100
AcDbEntity
  8
0
 62
     3
100
AcDbMText
 10
81.13423792892854
 20
232.8104815042898
 30
0.0
 40
3.0
 41
0.0
 71
     5
 72
     1
  1
\A1;62
 73
     1
 44
1.0
1001
ACAD
1000
MTEXTBEGIN
1070
    73
1070
     1
1070
    44
1040
1.0
1070
    74
1070
     0
1000
MTEXTEND
  0
POINT
  5
B76
330
B6D
100
AcDbEntity
  8
DEFPOINTS
 62
     0
100
AcDbPoint
 10
50.83232605217109
 20
181.1290245689924
 30
0.0
  0
POINT
  5
B77
330
B6D
100
AcDbEntity
  8
DEFPOINTS
 62
     0
100
AcDbPoint
 10
112.8323260521711
 20
181.1290245689924
 30
0.0
  0
POINT
  5
B78
330
B6D
100
AcDbEntity
  8
DEFPOINTS
 62
     0
100
AcDbPoint
 10
112.8323260521711
 20
230.3104815042898
 30
0.0
  0
ENDBLK
  5
B6F
330
B6D
100
AcDbEntity
  8
0
100
AcDbBlockEnd
  0
BLOCK
  5
B7A
330
B79
100
AcDbEntity
  8
0
100
AcDbBlockBegin
  2
*D42
 70
     1
 10
0.0
 20
0.0
 30
0.0
  3
*D42
  1

  0
LINE
  5
B7C
330
B79
100
AcDbEntity
  8
0
 62
   123
370
    -2
100
AcDbLine
 10
240.8656387432348
 20
181.9290245689881
 30
0.0
 11
240.8656387432348
 21
228.0846280736747
 31
0.0
  0
LINE
  5
B7D
330
B79
100
AcDbEntity
  8
0
 62
   123
370
    -2
100
AcDbLine
 10
316.8656387432339
 20
213.1290245689852
 30
0.0
 11
316.8656387432339
 21
228.0846280736747
 31
0.0
  0
LINE
  5
B7E
330
B79
100
AcDbEntity
  8
0
 62
   123
370
    -2
100
AcDbLine
 10
243.3656387432348
 20
227.4846280736747
 30
0.0
 11
314.3656387432338
 21
227.4846280736747
 31
0.0
  0
SOLID
  5
B7F
330
B79
100
AcDbEntity
  8
0
 62
   123
100
AcDbTrace
 10
243.3656387432348
 20
227.9012947403413
 30
0.0
 11
243.3656387432348
 21
227.067961407008
 31
0.0
 12
240.8656387432348
 22
227.4846280736747
 32
0.0
 13
240.8656387432348
 23
227.4846280736747
 33
0.0
  0
SOLID
  5
B80
330
B79
100
AcDbEntity
  8
0
 62
   123
100
AcDbTrace
 10
314.3656387432338
 20
227.9012947403413
 30
0.0
 11
314.3656387432338
 21
227.067961407008
 31
0.0
 12
316.8656387432339
 22
227.4846280736747
 32
0.0
 13
316.8656387432339
 23
227.4846280736747
 33
0.0
  0
MTEXT
  5
B81
330
B79
100
AcDbEntity
  8
0
 62
     3
100
AcDbMText
 10
278.8656387432344
 20
229.9846280736747
 30
0.0
 40
3.0
 41
0.0
 71
     5
 72
     1
  1
\A1;75
 73
     1
 44
1.0
1001
ACAD
1000
MTEXTBEGIN
1070
    73
1070
     1
1070
    44
1040
1.0
1070
    74
1070
     0
1000
MTEXTEND
  0
POINT
  5
B82
330
B79
100
AcDbEntity
  8
DEFPOINTS
 62
     0
100
AcDbPoint
 10
240.8656387432348
 20
180.929024568988
 30
0.0
  0
POINT
  5
B83
330
B79
100
AcDbEntity
  8
DEFPOINTS
 62
     0
100
AcDbPoint
 10
316.8656387432339
 20
212.1290245689852
 30
0.0
  0
POINT
  5
B84
330
B79
100
AcDbEntity
  8
DEFPOINTS
 62
     0
100
AcDbPoint
 10
316.8656387432339
 20
227.4846280736747
 30
0.0
  0
ENDBLK
  5
B7B
330
B79
100
AcDbEntity
  8
0
100
AcDbBlockEnd
  0
BLOCK
  5
B86
330
B85
100
AcDbEntity
  8
0
100
AcDbBlockBegin
  2
*D43
 70
     1
 10
0.0
 20
0.0
 30
0.0
  3
*D43
  1

  0
LINE
  5
B88
330
B85
100
AcDbEntity
  8
0
 62
   123
370
    -2
100
AcDbLine
 10
236.3656387432338
 20
173.4290245689917
 30
0.0
 11
236.3656387432338
 21
228.0846280736747
 31
0.0
  0
LINE
  5
B89
330
B85
100
AcDbEntity
  8
0
 62
   123
370
    -2
100
AcDbLine
 10
240.8656387432348
 20
181.9290245689881
 30
0.0
 11
240.8656387432348
 21
228.0846280736747
 31
0.0
  0
LINE
  5
B8A
330
B85
100
AcDbEntity
  8
0
 62
   123
370
    -2
100
AcDbLine
 10
233.8656387432338
 20
227.4846280736747
 30
0.0
 11
231.3656387432338
 21
227.4846280736747
 31
0.0
  0
LINE
  5
B8B
330
B85
100
AcDbEntity
  8
0
 62
   123
370
    -2
100
AcDbLine
 10
243.3656387432348
 20
227.4846280736747
 30
0.0
 11
245.8656387432347
 21
227.4846280736747
 31
0.0
  0
LINE
  5
B8C
330
B85
100
AcDbEntity
  8
0
 62
   123
370
    -2
100
AcDbLine
 10
236.3656387432338
 20
227.4846280736747
 30
0.0
 11
240.8656387432348
 21
227.4846280736747
 31
0.0
  0
SOLID
  5
B8D
330
B85
100
AcDbEntity
  8
0
 62
   123
100
AcDbTrace
 10
233.8656387432338
 20
227.9012947403413
 30
0.0
 11
233.8656387432338
 21
227.067961407008
 31
0.0
 12
236.3656387432338
 22
227.4846280736747
 32
0.0
 13
236.3656387432338
 23
227.4846280736747
 33
0.0
  0
SOLID
  5
B8E
330
B85
100
AcDbEntity
  8
0
 62
   123
100
AcDbTrace
 10
243.3656387432348
 20
227.9012947403413
 30
0.0
 11
243.3656387432348
 21
227.067961407008
 31
0.0
 12
240.8656387432348
 22
227.4846280736747
 32
0.0
 13
240.8656387432348
 23
227.4846280736747
 33
0.0
  0
MTEXT
  5
B8F
330
B85
100
AcDbEntity
  8
0
 62
     3
100
AcDbMText
 10
238.6156387432343
 20
229.9846280736747
 30
0.0
 40
3.0
 41
0.0
 71
     5
 72
     1
  1
\A1;5.5
 73
     1
 44
1.0
1001
ACAD
1000
MTEXTBEGIN
1070
    73
1070
     1
1070
    44
1040
1.0
1070
    74
1070
     0
1000
MTEXTEND
  0
POINT
  5
B90
330
B85
100
AcDbEntity
  8
DEFPOINTS
 62
     0
100
AcDbPoint
 10
236.3656387432338
 20
172.4290245689917
 30
0.0
  0
POINT
  5
B91
330
B85
100
AcDbEntity
  8
DEFPOINTS
 62
     0
100
AcDbPoint
 10
240.8656387432348
 20
180.929024568988
 30
0.0
  0
POINT
  5
B92
330
B85
100
AcDbEntity
  8
DEFPOINTS
 62
     0
100
AcDbPoint
 10
240.8656387432348
 20
227.4846280736747
 30
0.0
  0
ENDBLK
  5
B87
330
B85
100
AcDbEntity
  8
0
100
AcDbBlockEnd
  0
BLOCK
  5
B94
330
B93
100
AcDbEntity
  8
0
100
AcDbBlockBegin
  2
*D44
 70
     1
 10
0.0
 20
0.0
 30
0.0
  3
*D44
  1

  0
LINE
  5
B96
330
B93
100
AcDbEntity
  8
0
 62
   123
370
    -2
100
AcDbLine
 10
316.8656387432339
 20
213.1290245689852
 30
0.0
 11
316.8656387432339
 21
228.0680570531636
 31
0.0
  0
LINE
  5
B97
330
B93
100
AcDbEntity
  8
0
 62
   123
370
    -2
100
AcDbLine
 10
344.8626387432347
 20
204.1790245691263
 30
0.0
 11
344.8626387432347
 21
228.0680570531636
 31
0.0
  0
LINE
  5
B98
330
B93
100
AcDbEntity
  8
0
 62
   123
370
    -2
100
AcDbLine
 10
319.3656387432338
 20
227.4680570531637
 30
0.0
 11
342.3626387432346
 21
227.4680570531637
 31
0.0
  0
SOLID
  5
B99
330
B93
100
AcDbEntity
  8
0
 62
   123
100
AcDbTrace
 10
319.3656387432338
 20
227.8847237198303
 30
0.0
 11
319.3656387432338
 21
227.051390386497
 31
0.0
 12
316.8656387432339
 22
227.4680570531637
 32
0.0
 13
316.8656387432339
 23
227.4680570531637
 33
0.0
  0
SOLID
  5
B9A
330
B93
100
AcDbEntity
  8
0
 62
   123
100
AcDbTrace
 10
342.3626387432346
 20
227.8847237198303
 30
0.0
 11
342.3626387432346
 21
227.051390386497
 31
0.0
 12
344.8626387432347
 22
227.4680570531637
 32
0.0
 13
344.8626387432347
 23
227.4680570531637
 33
0.0
  0
MTEXT
  5
B9B
330
B93
100
AcDbEntity
  8
0
 62
     3
100
AcDbMText
 10
330.8623057432332
 20
229.9680570531636
 30
0.0
 40
3.0
 41
0.0
 71
     5
 72
     1
  1
\A1;MAX. 28
 73
     1
 44
1.0
1001
ACAD
1000
MTEXTBEGIN
1070
    73
1070
     1
1070
    44
1040
1.0
1070
    74
1070
     0
1000
MTEXTEND
  0
POINT
  5
B9C
330
B93
100
AcDbEntity
  8
DEFPOINTS
 62
     0
100
AcDbPoint
 10
316.8656387432339
 20
212.1290245689852
 30
0.0
  0
POINT
  5
B9D
330
B93
100
AcDbEntity
  8
DEFPOINTS
 62
     0
100
AcDbPoint
 10
344.8626387432347
 20
203.1790245691263
 30
0.0
  0
POINT
  5
B9E
330
B93
100
AcDbEntity
  8
DEFPOINTS
 62
     0
100
AcDbPoint
 10
344.8626387432347
 20
227.4680570531637
 30
0.0
  0
ENDBLK
  5
B95
330
B93
100
AcDbEntity
  8
0
100
AcDbBlockEnd
  0
ENDSEC
  0
SECTION
  2
ENTITIES
  0
ARC
  5
18B
330
2
100
AcDbEntity
  8
0
100
AcDbCircle
 10
273.9214269719832
 20
306.6595606198188
 30
0.0
 40
6.718630999999997
100
AcDbArc
 50
274.2678929999499
 51
345.3432489999617
  0
ARC
  5
18C
330
2
100
AcDbEntity
  8
0
100
AcDbCircle
 10
273.9214269719832
 20
317.2595606198168
 30
0.0
 40
6.718630999999997
100
AcDbArc
 50
14.65675100003822
 51
85.73210700004995
  0
DIMENSION
  5
18D
102
{ACAD_XDICTIONARY
360
18E
102
}
102
{ACAD_REACTORS
330
18F
102
}
330
2
100
AcDbEntity
  8
0
100
AcDbDimension
  2
*D1
 10
280.4214269719832
 20
341.9985941039899
 30
0.0
 11
266.4214269719832
 21
341.9985941039899
 31
0.0
 70
   160
  1
MAX. <>
 71
     5
 42
-1.0
  3
STANDARD
100
AcDbAlignedDimension
 13
252.4214269719832
 23
326.9595606198181
 33
0.0
 14
280.4214269719832
 24
318.9595606198181
 34
0.0
100
AcDbRotatedDimension
  0
LINE
  5
19C
330
2
100
AcDbEntity
  8
0
  6
CENTER
 62
     1
 48
0.6
100
AcDbLine
 10
286.2052209719822
 20
311.9595606198181
 30
0.0
 11
174.996118018902
 21
311.9595606198181
 31
0.0
  0
DIMENSION
  5
1B2
102
{ACAD_XDICTIONARY
360
1B3
102
}
102
{ACAD_REACTORS
330
1B4
102
}
330
2
100
AcDbEntity
  8
0
100
AcDbDimension
  2
*D0
 10
277.4716141079625
 20
207.4595616198157
 30
0.0
 11
277.4716141079625
 21
246.9595616198166
 31
0.0
 70
   160
  1
%%C<>
 71
     5
 42
-1.0
  3
STANDARD
100
AcDbAlignedDimension
 13
249.9247599719838
 23
286.4595616198166
 33
0.0
 14
249.9247599719838
 24
207.4595616198157
 34
0.0
 50
90.0
100
AcDbRotatedDimension
  0
CIRCLE
  5
1C1
330
2
100
AcDbEntity
  8
0
 48
0.6
100
AcDbCircle
 10
64.36865028187094
 20
246.9595616198166
 30
0.0
 40
13.0
  0
ARC
  5
1C2
330
2
100
AcDbEntity
  8
0
 48
0.6
100
AcDbCircle
 10
64.33588041839175
 20
246.9595616198166
 30
0.0
 40
29.09279999999998
100
AcDbArc
 50
162.2801918472091
 51
197.7198081527907
  0
ARC
  5
1C3
330
2
100
AcDbEntity
  8
0
 48
0.6
100
AcDbCircle
 10
64.33588041839175
 20
246.9595616198166
 30
0.0
 40
29.09279999999998
100
AcDbArc
 50
342.2801918472092
 51
17.71980815279071
  0
LINE
  5
1C4
330
2
100
AcDbEntity
  8
0
100
AcDbLine
 10
256.9247599719838
 20
283.9595616198166
 30
0.0
 11
256.9247599719838
 21
209.9595616198157
 31
0.0
  0
LINE
  5
1C5
330
2
100
AcDbEntity
  8
0
100
AcDbLine
 10
255.9247599719838
 20
284.9595616198166
 30
0.0
 11
255.9247599719838
 21
208.9595616198166
 31
0.0
  0
LINE
  5
1C6
102
{ACAD_REACTORS
330
1B4
102
}
330
2
100
AcDbEntity
  8
0
100
AcDbLine
 10
249.9247599719838
 20
207.4595616198157
 30
0.0
 11
249.9247599719838
 21
286.4595616198166
 31
0.0
  0
LINE
  5
1C7
330
2
100
AcDbEntity
  8
0
100
AcDbLine
 10
178.0247599719714
 20
288.9595606198181
 30
0.0
 11
178.0247599719714
 21
206.9595616198148
 31
0.0
  0
LINE
  5
1C8
330
2
100
AcDbEntity
  8
0
100
AcDbLine
 10
171.9247599719837
 20
286.9595616198157
 30
0.0
 11
171.9247599719837
 21
206.9595616198148
 31
0.0
  0
LINE
  5
1C9
102
{ACAD_REACTORS
330
1CC
102
}
330
2
100
AcDbEntity
  8
0
100
AcDbLine
 10
169.9247599719837
 20
283.4595616198166
 30
0.0
 11
169.9247599719837
 21
210.4595616198166
 31
0.0
  0
DIMENSION
  5
1CA
102
{ACAD_XDICTIONARY
360
1CB
102
}
102
{ACAD_REACTORS
330
1CC
102
}
330
2
100
AcDbEntity
  8
0
100
AcDbDimension
  2
*D3
 10
143.5810829545717
 20
283.4595616198166
 30
0.0
 11
143.5810829545716
 21
247.3588693952401
 31
0.0
 70
   160
  1
\A1;{\f??|b0|i0|c0|p49;%%C}<>{\f??|b0|i0|c0|p49;\H0.7x;\S+0^ -0.030;\H1.429x;(h7)}
 71
     5
 42
-1.0
  3
STANDARD
100
AcDbAlignedDimension
 13
169.9247599719837
 23
210.4595616198166
 33
0.0
 14
169.9247599719837
 24
283.4595616198166
 34
0.0
 50
90.0
100
AcDbRotatedDimension
  0
CIRCLE
  5
1DA
330
2
100
AcDbEntity
  8
0
 48
0.6
100
AcDbCircle
 10
64.36865028187094
 20
246.9595616198166
 30
0.0
 40
37.00000000000005
  0
CIRCLE
  5
1DB
330
2
100
AcDbEntity
  8
0
 48
0.6
100
AcDbCircle
 10
64.36865028187094
 20
246.9595616198166
 30
0.0
 40
38.5
  0
LINE
  5
1DC
330
2
100
AcDbEntity
  8
0
 48
0.6
100
AcDbLine
 10
24.36865028187094
 20
281.9595616198157
 30
0.0
 11
24.36865028187094
 21
211.9595616198166
 31
0.0
  0
LINE
  5
1DD
330
2
100
AcDbEntity
  8
0
 48
0.6
100
AcDbLine
 10
104.3686502818709
 20
281.9595616198157
 30
0.0
 11
104.3686502818709
 21
211.9595616198166
 31
0.0
  0
LINE
  5
1DE
330
2
100
AcDbEntity
  8
0
  6
CENTER
 62
     1
 48
0.6
100
AcDbLine
 10
64.36865028187094
 20
199.6153152030219
 30
0.0
 11
64.36865028187094
 21
333.7513222343732
 31
0.0
  0
DIMENSION
  5
1DF
102
{ACAD_XDICTIONARY
360
1E0
102
}
102
{ACAD_REACTORS
330
1E1
102
}
330
2
100
AcDbEntity
  8
0
100
AcDbDimension
  2
*D2
 10
26.96227370604332
 20
218.5032267984318
 30
0.0
 11
125.9754916450946
 21
293.8260337456603
 31
0.0
 70
   163
  1
<>%%P0.5
 71
     5
 42
-1.0
  3
STANDARD
100
AcDbDiametricDimension
 15
101.7750268577037
 25
275.4158964412054
 35
0.0
 40
0.0
  0
LINE
  5
1ED
330
2
100
AcDbEntity
  8
0
100
AcDbLine
 10
171.9247599719837
 20
249.7795616198159
 30
0.0
 11
171.9247599719837
 21
244.1395616198151
 31
0.0
  0
LINE
  5
1EE
330
2
100
AcDbEntity
  8
0
100
AcDbLine
 10
171.9247599719837
 20
249.7795616198159
 30
0.0
 11
171.9247599719837
 21
244.1395616198151
 31
0.0
  0
LINE
  5
1EF
330
2
100
AcDbEntity
  8
0
 62
     2
100
AcDbLine
 10
164.9247599719838
 20
248.8795616198149
 30
0.0
 11
158.9247599719838
 21
245.7041351392731
 31
0.0
  0
LINE
  5
1F1
330
2
100
AcDbEntity
  8
0
 62
     2
100
AcDbLine
 10
164.4786569822026
 20
249.6645616198147
 30
0.0
 11
158.9247599719838
 21
246.8588356776517
 31
0.0
  0
LINE
  5
1F2
330
2
100
AcDbEntity
  8
0
 62
     2
100
AcDbLine
 10
158.9247599719838
 20
250.5645616198157
 30
0.0
 11
158.9247599719838
 21
243.3545616198148
 31
0.0
  0
LINE
  5
1F3
102
{ACAD_REACTORS
330
2D6
102
}
330
2
100
AcDbEntity
  8
0
100
AcDbLine
 10
158.4247599719837
 20
250.0645616198156
 30
0.0
 11
158.4247599719837
 21
243.8545616198148
 31
0.0
  0
LINE
  5
1F4
330
2
100
AcDbEntity
  8
0
 62
     2
100
AcDbLine
 10
164.9247599719838
 20
249.6645616198147
 30
0.0
 11
164.9247599719838
 21
244.2545616198149
 31
0.0
  0
LINE
  5
1F5
330
2
100
AcDbEntity
  8
0
 62
     2
100
AcDbLine
 10
164.9247599719838
 20
247.7248610814367
 30
0.0
 11
158.9247599719838
 21
244.5970098166799
 31
0.0
  0
LINE
  5
1F6
330
2
100
AcDbEntity
  8
0
100
AcDbLine
 10
158.4247599719837
 20
244.2545616198149
 30
0.0
 11
164.9247599719838
 21
244.2545616198149
 31
0.0
  0
LINE
  5
1F7
330
2
100
AcDbEntity
  8
0
100
AcDbLine
 10
158.4247599719837
 20
243.8545616198148
 30
0.0
 11
158.9247599719838
 21
243.3545616198148
 31
0.0
  0
LINE
  5
1F8
330
2
100
AcDbEntity
  8
0
100
AcDbLine
 10
158.4247599719837
 20
249.6645616198147
 30
0.0
 11
164.9247599719838
 21
249.6645616198147
 31
0.0
  0
LINE
  5
1F9
330
2
100
AcDbEntity
  8
0
100
AcDbLine
 10
158.9247599719838
 20
250.5645616198157
 30
0.0
 11
158.4247599719837
 21
250.0645616198156
 31
0.0
  0
LINE
  5
1FA
102
{ACAD_REACTORS
330
2D6
102
}
330
2
100
AcDbEntity
  8
0
  6
CENTER
 62
     1
 48
0.6
100
AcDbLine
 10
156.0542838286692
 20
243.8650616198151
 30
0.0
 11
172.9247599719838
 21
243.8650616198151
 31
0.0
  0
LINE
  5
1FB
330
2
100
AcDbEntity
  8
0
100
AcDbLine
 10
158.9247599719838
 20
243.3545616198148
 30
0.0
 11
169.9247599719837
 21
243.3545616198148
 31
0.0
  0
LINE
  5
1FC
330
2
100
AcDbEntity
  8
0
  6
CENTER
 62
     1
 48
0.6
100
AcDbLine
 10
156.0542838286692
 20
250.0540616198159
 30
0.0
 11
172.9247599719838
 21
250.0540616198159
 31
0.0
  0
LINE
  5
1FD
330
2
100
AcDbEntity
  8
0
100
AcDbLine
 10
158.9247599719838
 20
250.5645616198157
 30
0.0
 11
169.9247599719837
 21
250.5645616198157
 31
0.0
  0
ARC
  5
1FE
330
2
100
AcDbEntity
  8
0
100
AcDbCircle
 10
164.9679468828017
 20
217.4383307307648
 30
0.0
 40
26.81626566478071
100
AcDbArc
 50
79.34799026067249
 51
90.09227342919791
  0
ARC
  5
1FF
330
2
100
AcDbEntity
  8
0
100
AcDbCircle
 10
164.9679468828107
 20
276.4807925088348
 30
0.0
 40
26.81626566475105
100
AcDbArc
 50
269.907726570802
 51
280.6520097393285
  0
LINE
  5
200
330
2
100
AcDbEntity
  8
0
  6
CENTER
 62
     1
 48
0.6
100
AcDbLine
 10
264.209061631851
 20
246.9595616198166
 30
0.0
 11
154.2809661713436
 21
246.9595616198166
 31
0.0
  0
LINE
  5
201
330
2
100
AcDbEntity
  8
0
100
AcDbLine
 10
178.0247599719714
 20
216.0608242782868
 30
0.0
 11
178.9247599719837
 21
216.0608242782868
 31
0.0
  0
ARC
  5
202
330
2
100
AcDbEntity
  8
0
 48
0.6
100
AcDbCircle
 10
64.33588041839175
 20
246.9595616198166
 30
0.0
 40
31.73759999999999
100
AcDbArc
 50
206.3656725032576
 51
243.6343274967394
  0
ARC
  5
203
330
2
100
AcDbEntity
  8
0
 48
0.6
100
AcDbCircle
 10
64.33588041839175
 20
246.9595616198166
 30
0.0
 40
31.73759999999999
100
AcDbArc
 50
296.3656725032604
 51
333.6343274967423
  0
ARC
  5
204
330
2
100
AcDbEntity
  8
0
 48
0.6
100
AcDbCircle
 10
54.67614848730955
 20
216.7277103238807
 30
0.0
 40
2.644799999999999
100
AcDbArc
 50
72.28019184719541
 51
128.0513255194166
  0
ARC
  5
205
330
2
100
AcDbEntity
  8
0
 48
0.6
100
AcDbCircle
 10
51.41581292864976
 20
220.893053071481
 30
0.0
 40
2.644799999999999
100
AcDbArc
 50
243.6343274967394
 51
308.0513255194166
  0
ARC
  5
206
330
2
100
AcDbEntity
  8
0
 48
0.6
100
AcDbCircle
 10
64.33588041839175
 20
246.9595616198166
 30
0.0
 40
29.09279999999998
100
AcDbArc
 50
252.2801918471953
 51
287.7198081528046
  0
ARC
  5
207
330
2
100
AcDbEntity
  8
0
 48
0.6
100
AcDbCircle
 10
77.25594790814284
 20
220.893053071481
 30
0.0
 40
2.644799999999999
100
AcDbArc
 50
231.9486744805834
 51
296.3656725032604
  0
ARC
  5
208
330
2
100
AcDbEntity
  8
0
 48
0.6
100
AcDbCircle
 10
73.99561234949216
 20
216.7277103238807
 30
0.0
 40
2.644799999999999
100
AcDbArc
 50
51.9486744805834
 51
107.7198081528045
  0
ARC
  5
209
330
2
100
AcDbEntity
  8
0
 48
0.6
100
AcDbCircle
 10
34.10402912246172
 20
237.2998296887272
 30
0.0
 40
2.644799999999999
100
AcDbArc
 50
321.9486744805936
 51
17.71980815279071
  0
ARC
  5
20A
330
2
100
AcDbEntity
  8
0
 48
0.6
100
AcDbCircle
 10
38.26937187006114
 20
234.0394941300728
 30
0.0
 40
2.644799999999999
100
AcDbArc
 50
141.9486744805935
 51
206.3656725032576
  0
ARC
  5
20B
330
2
100
AcDbEntity
  8
0
 48
0.6
100
AcDbCircle
 10
94.56773171433452
 20
237.2998296887272
 30
0.0
 40
2.644799999999999
100
AcDbArc
 50
162.2801918472091
 51
218.0513255194063
  0
ARC
  5
20C
330
2
100
AcDbEntity
  8
0
 48
0.6
100
AcDbCircle
 10
90.40238896673328
 20
234.0394941300728
 30
0.0
 40
2.644799999999999
100
AcDbArc
 50
333.6343274967423
 51
38.05132551940634
  0
CIRCLE
  5
20D
330
2
100
AcDbEntity
  8
0
 48
0.6
100
AcDbCircle
 10
64.33588041839175
 20
246.9595616198166
 30
0.0
 40
3.604999999999998
  0
CIRCLE
  5
20E
330
2
100
AcDbEntity
  8
0
 48
0.6
100
AcDbCircle
 10
64.33588041839175
 20
246.9595616198166
 30
0.0
 40
2.46089887076698
  0
LINE
  5
20F
330
2
100
AcDbEntity
  8
0
  6
CENTER
 62
     1
 48
0.6
100
AcDbLine
 10
20.29166055628229
 20
246.9595616198166
 30
0.0
 11
108.4456400074705
 21
246.9595616198166
 31
0.0
  0
LINE
  5
210
330
2
100
AcDbEntity
  8
0
100
AcDbLine
 10
255.9247599719838
 20
208.9595616198166
 30
0.0
 11
249.9247599719838
 21
208.9595616198166
 31
0.0
  0
LINE
  5
211
102
{ACAD_REACTORS
330
238
102
}
330
2
100
AcDbEntity
  8
0
100
AcDbLine
 10
256.9247599719838
 20
209.9595616198157
 30
0.0
 11
255.9247599719838
 21
208.9595616198166
 31
0.0
  0
LINE
  5
212
102
{ACAD_REACTORS
330
226
102
}
330
2
100
AcDbEntity
  8
0
100
AcDbLine
 10
171.9247599719837
 20
210.4595616198166
 30
0.0
 11
169.9247599719837
 21
210.4595616198166
 31
0.0
  0
LINE
  5
213
102
{ACAD_REACTORS
330
217
102
}
330
2
100
AcDbEntity
  8
0
100
AcDbLine
 10
178.0247599719714
 20
208.3608242782861
 30
0.0
 11
178.9247599719837
 21
208.3608242782861
 31
0.0
  0
LINE
  5
214
102
{ACAD_REACTORS
330
238
330
226
330
2D6
102
}
330
2
100
AcDbEntity
  8
0
100
AcDbLine
 10
171.9247599719837
 20
206.9595616198148
 30
0.0
 11
178.0247599719714
 21
206.9595616198148
 31
0.0
  0
DIMENSION
  5
215
102
{ACAD_XDICTIONARY
360
216
102
}
102
{ACAD_REACTORS
330
217
102
}
330
2
100
AcDbEntity
  8
0
100
AcDbDimension
  2
*D8
 10
178.9247599719837
 20
194.220447621436
 30
0.0
 11
175.4247599719838
 21
194.220447621436
 31
0.0
 70
   160
 71
     5
 42
-1.0
  3
STANDARD
100
AcDbAlignedDimension
 13
171.9247599719837
 23
205.9595616198148
 33
0.0
 14
178.9247599719837
 24
208.3608242782861
 34
0.0
100
AcDbRotatedDimension
  0
DIMENSION
  5
224
102
{ACAD_XDICTIONARY
360
225
102
}
102
{ACAD_REACTORS
330
226
102
}
330
2
100
AcDbEntity
  8
0
100
AcDbDimension
  2
*D7
 10
171.9247599719837
 20
194.220447621436
 30
0.0
 11
162.9247599719837
 21
194.220447621436
 31
0.0
 70
   160
 71
     5
 42
2.0
  3
STANDARD
100
AcDbAlignedDimension
 13
169.9247599719837
 23
210.4595616198166
 33
0.0
 14
171.9247599719837
 24
206.9595616198148
 34
0.0
100
AcDbRotatedDimension
  0
LINE
  5
235
102
{ACAD_REACTORS
330
1B4
102
}
330
2
100
AcDbEntity
  8
0
100
AcDbLine
 10
249.9247599719838
 20
207.4595616198157
 30
0.0
 11
178.0247599719714
 21
207.4595616198157
 31
0.0
  0
DIMENSION
  5
236
102
{ACAD_XDICTIONARY
360
237
102
}
102
{ACAD_REACTORS
330
238
102
}
330
2
100
AcDbEntity
  8
0
100
AcDbDimension
  2
*D6
 10
256.9247599719838
 20
183.353220402761
 30
0.0
 11
214.4247599719838
 21
183.353220402761
 31
0.0
 70
   160
 71
     5
 42
85.00000000000012
  3
STANDARD
100
AcDbAlignedDimension
 13
171.9247599719837
 23
206.9595616198148
 33
0.0
 14
256.9247599719838
 24
209.9595616198157
 34
0.0
100
AcDbRotatedDimension
  0
LINE
  5
245
330
2
100
AcDbEntity
  8
0
 48
0.6
100
AcDbLine
 10
29.36865028187094
 20
206.9595616198157
 30
0.0
 11
99.36865028187094
 21
206.9595616198157
 31
0.0
  0
LINE
  5
246
330
2
100
AcDbEntity
  8
0
 48
0.6
100
AcDbLine
 10
83.82083824544315
 20
206.9595616198157
 30
0.0
 11
78.07978801891112
 21
206.9595616198157
 31
0.0
  0
ARC
  5
247
330
2
100
AcDbEntity
  8
0
 48
0.6
100
AcDbCircle
 10
99.36865028187094
 20
211.9595616198166
 30
0.0
 40
5.0
100
AcDbArc
 50
270.0
 51
0.0
  0
LWPOLYLINE
  5
248
330
2
100
AcDbEntity
  8
0
 62
     3
100
AcDbPolyline
 90
        4
 70
     1
 43
0.0
 10
59.75342593447021
 20
192.0568593096009
 10
63.05342593447129
 20
192.0568593096009
 10
63.05342593447129
 20
195.5568593096008
 10
59.75342593447021
 20
195.5568593096008
  0
MTEXT
  5
28D
102
{ACAD_REACTORS
330
28E
102
}
330
2
100
AcDbEntity
  8
0
 62
     3
100
AcDbMText
 10
115.6945317319605
 20
196.7302737258737
 30
0.0
 40
3.0
 41
0.0
 71
     4
 72
     1
  1
4-%%c5.5 hole
 73
     1
 44
1.0
1001
ACAD
1000
MTEXTBEGIN
1070
    73
1070
     1
1070
    44
1040
1.0
1070
    74
1070
     0
1000
MTEXTEND
  0
LEADER
  5
28E
330
2
100
AcDbEntity
  8
0
100
AcDbLeader
  3
STANDARD
 73
     0
 74
     0
 75
     1
 40
3.0
 41
26.65178571428572
 76
     3
 10
98.30254154921206
 20
211.6389472072669
 30
0.0
 10
112.1945317319605
 20
194.2302737258737
 30
0.0
 10
114.6945317319605
 20
194.2302737258737
 30
0.0
340
28D
1001
ACAD
1000
DSTYLE
1002
{
1070
     5
1000

1070
    77
1070
     1
1070
   147
1040
1.0
1070
   342
1005
0
1002
}
  0
DIMENSION
  5
28F
330
2
100
AcDbEntity
  8
0
100
AcDbDimension
  2
*D5
 10
104.3686502818709
 20
191.3753660879319
 30
0.0
 11
67.23612516895989
 21
191.3753660879319
 31
0.0
 70
   160
 71
     5
 42
-1.0
  3
STANDARD
100
AcDbAlignedDimension
 13
24.36865028187094
 23
211.9595616198166
 33
0.0
 14
104.3686502818709
 24
211.9595616198166
 34
0.0
100
AcDbRotatedDimension
  0
ARC
  5
29C
330
2
100
AcDbEntity
  8
0
 48
0.6
100
AcDbCircle
 10
29.36865028187094
 20
211.9595616198166
 30
0.0
 40
5.0
100
AcDbArc
 50
180.0
 51
270.0
  0
LINE
  5
2D3
330
2
100
AcDbEntity
  8
0
100
AcDbLine
 10
178.9247599719837
 20
216.0608242782868
 30
0.0
 11
178.9247599719837
 21
208.3608242782861
 31
0.0
  0
DIMENSION
  5
2D4
102
{ACAD_XDICTIONARY
360
2D5
102
}
102
{ACAD_REACTORS
330
2D6
102
}
330
2
100
AcDbEntity
  8
0
100
AcDbDimension
  2
*D4
 10
171.9247599719837
 20
183.353220402761
 30
0.0
 11
165.6576331545202
 21
183.353220402761
 31
0.0
 70
   160
 71
     5
 42
-1.0
  3
STANDARD
100
AcDbAlignedDimension
 13
158.4247599719837
 23
243.8650616198151
 33
0.0
 14
171.9247599719837
 24
206.9595616198148
 34
0.0
100
AcDbRotatedDimension
  0
LINE
  5
2E3
330
2
100
AcDbEntity
  8
0
  6
CENTER
 62
     1
 48
0.6
100
AcDbLine
 10
34.49338877674199
 20
217.0843001146881
 30
0.0
 11
27.77587435546229
 21
210.3667856934148
 31
0.0
  0
CIRCLE
  5
2E4
330
2
100
AcDbEntity
  8
0
100
AcDbCircle
 10
31.13463156610123
 20
213.7255429040519
 30
0.0
 40
2.75
  0
ARC
  5
2E5
330
2
100
AcDbEntity
  8
0
  6
CENTER
 62
     1
 48
0.6
100
AcDbCircle
 10
64.36865028187094
 20
246.9595616198166
 30
0.0
 40
47.0
100
AcDbArc
 50
215.5415553738169
 51
234.4584446262041
  0
ARC
  5
2E6
330
2
100
AcDbEntity
  8
0
  6
CENTER
 62
     1
 48
0.6
100
AcDbCircle
 10
64.36865028187094
 20
246.9595616198166
 30
0.0
 40
47.0
100
AcDbArc
 50
306.7642625682233
 51
323.2357374318078
  0
LINE
  5
2E7
330
2
100
AcDbEntity
  8
0
  6
CENTER
 62
     1
 48
0.6
100
AcDbLine
 10
94.24391178700172
 20
217.0843001146818
 30
0.0
 11
100.9614262082704
 21
210.3667856934098
 31
0.0
  0
CIRCLE
  5
2E8
330
2
100
AcDbEntity
  8
0
100
AcDbCircle
 10
97.60266899763157
 20
213.725542904046
 30
0.0
 40
2.75
  0
ARC
  5
2E9
330
2
100
AcDbEntity
  8
0
 48
0.6
100
AcDbCircle
 10
64.33588041839175
 20
246.9595616198166
 30
0.0
 40
31.73759999999999
100
AcDbArc
 50
116.3656725032604
 51
153.6343274967423
  0
ARC
  5
2EA
330
2
100
AcDbEntity
  8
0
 48
0.6
100
AcDbCircle
 10
64.33588041839175
 20
246.9595616198166
 30
0.0
 40
31.73759999999999
100
AcDbArc
 50
26.36567250325756
 51
63.63432749673942
  0
ARC
  5
2EB
330
2
100
AcDbEntity
  8
0
 48
0.6
100
AcDbCircle
 10
38.26937187006114
 20
259.87962910956
 30
0.0
 40
2.644799999999999
100
AcDbArc
 50
153.6343274967423
 51
218.0513255194063
  0
ARC
  5
2EC
330
2
100
AcDbEntity
  8
0
 48
0.6
100
AcDbCircle
 10
34.10402912246172
 20
256.6192935509038
 30
0.0
 40
2.644799999999999
100
AcDbArc
 50
342.2801918472092
 51
38.05132551940634
  0
ARC
  5
2ED
330
2
100
AcDbEntity
  8
0
 48
0.6
100
AcDbCircle
 10
94.56773171433452
 20
256.6192935509038
 30
0.0
 40
2.644799999999999
100
AcDbArc
 50
141.9486744805935
 51
197.7198081527907
  0
ARC
  5
2EE
330
2
100
AcDbEntity
  8
0
 48
0.6
100
AcDbCircle
 10
90.40238896673328
 20
259.87962910956
 30
0.0
 40
2.644799999999999
100
AcDbArc
 50
321.9486744805936
 51
26.36567250325756
  0
LINE
  5
2EF
330
2
100
AcDbEntity
  8
0
100
AcDbLine
 10
255.9247599719838
 20
284.9595616198166
 30
0.0
 11
249.9247599719838
 21
284.9595616198166
 31
0.0
  0
LINE
  5
2F0
330
2
100
AcDbEntity
  8
0
100
AcDbLine
 10
256.9247599719838
 20
283.9595616198166
 30
0.0
 11
255.9247599719838
 21
284.9595616198166
 31
0.0
  0
ARC
  5
2F1
330
2
100
AcDbEntity
  8
0
100
AcDbCircle
 10
249.949731971983
 20
329.4595606198181
 30
0.0
 40
0.5
100
AcDbArc
 50
3.337083000037623
 51
90.0
  0
LINE
  5
2F2
330
2
100
AcDbEntity
  8
0
100
AcDbLine
 10
257.4214269719832
 20
298.9595606198181
 30
0.0
 11
252.4214269719832
 21
298.9595606198181
 31
0.0
  0
LINE
  5
2F3
330
2
100
AcDbEntity
  8
0
100
AcDbLine
 10
257.4214269719832
 20
303.9595606198181
 30
0.0
 11
252.4214269719832
 21
303.9595606198181
 31
0.0
  0
LINE
  5
2F4
330
2
100
AcDbEntity
  8
0
100
AcDbLine
 10
257.4214269719832
 20
306.4595606198181
 30
0.0
 11
252.4214269719832
 21
306.4595606198181
 31
0.0
  0
LINE
  5
2F5
330
2
100
AcDbEntity
  8
0
100
AcDbLine
 10
257.4214269719832
 20
317.4595606198181
 30
0.0
 11
252.4214269719832
 21
317.4595606198181
 31
0.0
  0
LINE
  5
2F6
330
2
100
AcDbEntity
  8
0
100
AcDbLine
 10
257.4214269719832
 20
319.9595606198181
 30
0.0
 11
252.4214269719832
 21
319.9595606198181
 31
0.0
  0
LINE
  5
2F7
330
2
100
AcDbEntity
  8
0
100
AcDbLine
 10
257.4214269719832
 20
324.9595606198181
 30
0.0
 11
252.4214269719832
 21
324.9595606198181
 31
0.0
  0
LINE
  5
2F8
102
{ACAD_REACTORS
330
18F
102
}
330
2
100
AcDbEntity
  8
0
100
AcDbLine
 10
252.4214269719832
 20
326.9595606198181
 30
0.0
 11
252.4214269719832
 21
295.6595606198188
 31
0.0
  0
LINE
  5
2F9
330
2
100
AcDbEntity
  8
0
100
AcDbLine
 10
252.4214269719832
 20
295.6595606198188
 30
0.0
 11
250.4488849719837
 21
329.4886656198168
 31
0.0
  0
LINE
  5
2FA
330
2
100
AcDbEntity
  8
0
100
AcDbLine
 10
251.7214269719825
 20
295.6595606198188
 30
0.0
 11
251.7214269719825
 21
294.9595606198181
 31
0.0
  0
LINE
  5
2FB
102
{ACAD_REACTORS
330
33B
102
}
330
2
100
AcDbEntity
  8
0
100
AcDbLine
 10
252.4214269719832
 20
326.9595606198181
 30
0.0
 11
251.0680489719834
 21
326.9595606198181
 31
0.0
  0
ARC
  5
2FC
330
2
100
AcDbEntity
  8
0
100
AcDbCircle
 10
251.0680489719834
 20
327.4595606198181
 30
0.0
 40
0.5
100
AcDbArc
 50
183.3370830000376
 51
270.0
  0
LINE
  5
2FD
330
2
100
AcDbEntity
  8
0
100
AcDbLine
 10
252.4214269719832
 20
294.9595606198181
 30
0.0
 11
251.5606939719837
 21
289.7951616198188
 31
0.0
  0
LINE
  5
2FE
330
2
100
AcDbEntity
  8
0
100
AcDbLine
 10
271.9214269719832
 20
324.9595606198181
 30
0.0
 11
273.4214269719832
 21
323.9595606198181
 31
0.0
  0
LINE
  5
2FF
330
2
100
AcDbEntity
  8
0
100
AcDbLine
 10
274.4214269719832
 20
323.9595606198181
 30
0.0
 11
273.4214269719832
 21
323.9595606198181
 31
0.0
  0
LINE
  5
300
330
2
100
AcDbEntity
  8
0
100
AcDbLine
 10
271.9214269719832
 20
324.9595606198181
 30
0.0
 11
263.4214269719832
 21
324.9595606198181
 31
0.0
  0
LINE
  5
301
330
2
100
AcDbEntity
  8
0
100
AcDbLine
 10
273.4214269719832
 20
323.9595606198181
 30
0.0
 11
263.4214269719832
 21
323.9595606198181
 31
0.0
  0
LINE
  5
302
330
2
100
AcDbEntity
  8
0
100
AcDbLine
 10
271.9214269719832
 20
318.9595606198181
 30
0.0
 11
271.9214269719832
 21
316.9595606198181
 31
0.0
  0
LINE
  5
303
330
2
100
AcDbEntity
  8
0
100
AcDbLine
 10
271.9214269719832
 20
316.9595606198181
 30
0.0
 11
263.4214269719832
 21
316.9595606198181
 31
0.0
  0
LINE
  5
304
330
2
100
AcDbEntity
  8
0
100
AcDbLine
 10
271.9214269719832
 20
318.9595606198181
 30
0.0
 11
263.4214269719832
 21
318.9595606198181
 31
0.0
  0
LINE
  5
305
330
2
100
AcDbEntity
  8
0
100
AcDbLine
 10
272.3391529719829
 20
319.6595606198188
 30
0.0
 11
263.4214269719832
 21
319.6595606198188
 31
0.0
  0
LINE
  5
306
330
2
100
AcDbEntity
  8
0
100
AcDbLine
 10
272.7200349719824
 20
315.4595606198181
 30
0.0
 11
263.4214269719832
 21
315.4595606198181
 31
0.0
  0
LINE
  5
307
330
2
100
AcDbEntity
  8
0
100
AcDbLine
 10
271.9214269719832
 20
306.9595606198181
 30
0.0
 11
263.4214269719832
 21
306.9595606198181
 31
0.0
  0
LINE
  5
308
330
2
100
AcDbEntity
  8
0
100
AcDbLine
 10
272.7200349719824
 20
308.4595606198181
 30
0.0
 11
263.4214269719832
 21
308.4595606198181
 31
0.0
  0
ARC
  5
309
330
2
100
AcDbEntity
  8
0
100
AcDbCircle
 10
264.3380939719827
 20
311.9595606198181
 30
0.0
 40
9.083332999999999
100
AcDbArc
 50
326.601511999943
 51
33.398488000057
  0
LINE
  5
30A
330
2
100
AcDbEntity
  8
0
100
AcDbLine
 10
271.9214269719832
 20
298.9595606198181
 30
0.0
 11
273.4214269719832
 21
299.9595606198181
 31
0.0
  0
LINE
  5
30B
330
2
100
AcDbEntity
  8
0
100
AcDbLine
 10
274.4214269719832
 20
299.9595606198181
 30
0.0
 11
273.4214269719832
 21
299.9595606198181
 31
0.0
  0
ARC
  5
30C
330
2
100
AcDbEntity
  8
0
100
AcDbCircle
 10
264.3380939719827
 20
299.9595606198181
 30
0.0
 40
9.083332999999999
100
AcDbArc
 50
0.0
 51
33.398488000057
  0
LINE
  5
30D
330
2
100
AcDbEntity
  8
0
100
AcDbLine
 10
271.9214269719832
 20
298.9595606198181
 30
0.0
 11
263.4214269719832
 21
298.9595606198181
 31
0.0
  0
LINE
  5
30E
330
2
100
AcDbEntity
  8
0
100
AcDbLine
 10
273.4214269719832
 20
299.9595606198181
 30
0.0
 11
263.4214269719832
 21
299.9595606198181
 31
0.0
  0
LINE
  5
30F
330
2
100
AcDbEntity
  8
0
100
AcDbLine
 10
271.9214269719832
 20
304.9595606198181
 30
0.0
 11
263.4214269719832
 21
304.9595606198181
 31
0.0
  0
LINE
  5
310
330
2
100
AcDbEntity
  8
0
100
AcDbLine
 10
272.3391529719829
 20
304.2595606198168
 30
0.0
 11
263.4214269719832
 21
304.2595606198168
 31
0.0
  0
LINE
  5
311
330
2
100
AcDbEntity
  8
0
100
AcDbLine
 10
271.9214269719832
 20
306.9595606198181
 30
0.0
 11
271.9214269719832
 21
304.9595606198181
 31
0.0
  0
LINE
  5
312
330
2
100
AcDbEntity
  8
0
100
AcDbLine
 10
263.4214269719832
 20
324.9595606198181
 30
0.0
 11
263.4214269719832
 21
298.9595606198181
 31
0.0
  0
LINE
  5
313
330
2
100
AcDbEntity
  8
0
100
AcDbLine
 10
273.4214269719832
 20
323.9595606198181
 30
0.0
 11
273.4214269719832
 21
299.9595606198181
 31
0.0
  0
ARC
  5
314
330
2
100
AcDbEntity
  8
0
100
AcDbCircle
 10
264.3380939719827
 20
323.9595606198181
 30
0.0
 40
9.083332999999999
100
AcDbArc
 50
326.601511999943
 51
0.0
  0
LINE
  5
315
330
2
100
AcDbEntity
  8
0
100
AcDbLine
 10
263.4214269719832
 20
320.9595606198181
 30
0.0
 11
257.4214269719832
 21
320.9595606198181
 31
0.0
  0
LINE
  5
316
330
2
100
AcDbEntity
  8
0
100
AcDbLine
 10
263.4214269719832
 20
321.9595606198181
 30
0.0
 11
257.4214269719832
 21
321.9595606198181
 31
0.0
  0
LINE
  5
317
330
2
100
AcDbEntity
  8
0
100
AcDbLine
 10
263.4214269719832
 20
302.9595606198181
 30
0.0
 11
257.4214269719832
 21
302.9595606198181
 31
0.0
  0
LINE
  5
318
330
2
100
AcDbEntity
  8
0
100
AcDbLine
 10
263.4214269719832
 20
301.9595606198181
 30
0.0
 11
257.4214269719832
 21
301.9595606198181
 31
0.0
  0
LINE
  5
319
330
2
100
AcDbEntity
  8
0
100
AcDbLine
 10
257.4214269719832
 20
324.9595606198181
 30
0.0
 11
257.4214269719832
 21
298.9595606198181
 31
0.0
  0
LINE
  5
31A
330
2
100
AcDbEntity
  8
0
100
AcDbLine
 10
234.5414269719822
 20
287.4595606198181
 30
0.0
 11
234.5414269719822
 21
277.1242789613438
 31
0.0
  0
ARC
  5
31B
330
2
100
AcDbEntity
  8
0
100
AcDbCircle
 10
236.0414269719822
 20
287.4595606198181
 30
0.0
 40
1.5
100
AcDbArc
 50
90.0
 51
180.0
  0
ARC
  5
31C
330
2
100
AcDbEntity
  8
0
100
AcDbCircle
 10
250.5742999719823
 20
289.9595606198181
 30
0.0
 40
1.0
100
AcDbArc
 50
270.0
 51
350.5376779999607
  0
LINE
  5
31D
330
2
100
AcDbEntity
  8
0
100
AcDbLine
 10
171.9247599719837
 20
283.4595616198166
 30
0.0
 11
169.9247599719837
 21
283.4595616198166
 31
0.0
  0
LINE
  5
31E
330
2
100
AcDbEntity
  8
0
100
AcDbLine
 10
178.0247599719714
 20
285.5582989613449
 30
0.0
 11
178.9247599719837
 21
285.5582989613449
 31
0.0
  0
LINE
  5
31F
330
2
100
AcDbEntity
  8
0
100
AcDbLine
 10
171.9247599719837
 20
286.9595616198157
 30
0.0
 11
178.0247599719714
 21
286.9595616198157
 31
0.0
  0
LINE
  5
320
330
2
100
AcDbEntity
  8
0
100
AcDbLine
 10
178.0247599719714
 20
277.858298961346
 30
0.0
 11
178.9247599719837
 21
277.858298961346
 31
0.0
  0
LINE
  5
321
330
2
100
AcDbEntity
  8
0
100
AcDbLine
 10
178.9247599719837
 20
277.858298961346
 30
0.0
 11
178.9247599719837
 21
285.5582989613449
 31
0.0
  0
ARC
  5
322
330
2
100
AcDbEntity
  8
0
100
AcDbCircle
 10
180.0115229719831
 20
329.4595606198181
 30
0.0
 40
0.5
100
AcDbArc
 50
90.0
 51
176.4687330000435
  0
LINE
  5
323
330
2
100
AcDbEntity
  8
0
100
AcDbLine
 10
177.4247599719838
 20
295.6595606198188
 30
0.0
 11
179.5124719719824
 21
329.4903576198166
 31
0.0
  0
LINE
  5
324
330
2
100
AcDbEntity
  8
0
100
AcDbLine
 10
178.2414269719829
 20
295.6595606198188
 30
0.0
 11
178.2414269719829
 21
294.9595606198181
 31
0.0
  0
LINE
  5
325
330
2
100
AcDbEntity
  8
0
100
AcDbLine
 10
177.5414269719822
 20
294.9595606198181
 30
0.0
 11
178.5414269719822
 21
288.9595606198181
 31
0.0
  0
DIMENSION
  5
326
102
{ACAD_XDICTIONARY
360
327
102
}
102
{ACAD_REACTORS
330
328
102
}
330
2
100
AcDbEntity
  8
0
100
AcDbDimension
  2
*D12
 10
177.4247599719838
 20
342.0151651245018
 30
0.0
 11
174.6747599719838
 21
342.0151651245018
 31
0.0
 70
   160
 71
     5
 42
-1.0
  3
STANDARD
100
AcDbAlignedDimension
 13
171.9247599719837
 23
286.9595616198157
 33
0.0
 14
177.4247599719838
 24
295.6595606198188
 34
0.0
100
AcDbRotatedDimension
  0
LINE
  5
337
330
2
100
AcDbEntity
  8
0
100
AcDbLine
 10
249.9247599719838
 20
286.4595616198166
 30
0.0
 11
178.0247599719714
 21
286.4595616198166
 31
0.0
  0
LINE
  5
338
330
2
100
AcDbEntity
  8
0
100
AcDbLine
 10
249.949731971983
 20
329.9595606198181
 30
0.0
 11
180.0115229719831
 21
329.9595606198181
 31
0.0
  0
DIMENSION
  5
339
102
{ACAD_XDICTIONARY
360
33A
102
}
102
{ACAD_REACTORS
330
33B
102
}
330
2
100
AcDbEntity
  8
0
100
AcDbDimension
  2
*D11
 10
252.4214269719832
 20
342.0151651245018
 30
0.0
 11
214.9230934719835
 21
342.0151651245018
 31
0.0
 70
   160
 71
     5
 42
74.99666699999938
  3
STANDARD
100
AcDbAlignedDimension
 13
177.4247599719838
 23
295.6595606198188
 33
0.0
 14
252.4214269719832
 24
326.9595606198181
 34
0.0
100
AcDbRotatedDimension
  0
LINE
  5
348
102
{ACAD_REACTORS
330
328
330
33B
102
}
330
2
100
AcDbEntity
  8
0
100
AcDbLine
 10
252.4214269719832
 20
295.6595606198188
 30
0.0
 11
177.4247599719838
 21
295.6595606198188
 31
0.0
  0
LINE
  5
349
330
2
100
AcDbEntity
  8
0
100
AcDbLine
 10
252.4214269719832
 20
294.9595606198181
 30
0.0
 11
177.5414269719822
 21
294.9595606198181
 31
0.0
  0
LINE
  5
34A
330
2
100
AcDbEntity
  8
0
100
AcDbLine
 10
250.5742999719823
 20
288.9595606198181
 30
0.0
 11
178.0247599719714
 21
288.9595606198181
 31
0.0
  0
LINE
  5
34B
330
2
100
AcDbEntity
  8
0
100
AcDbLine
 10
234.5414269719822
 20
277.1242789613461
 30
0.0
 11
178.0247599719714
 21
277.1242789613438
 31
0.0
  0
DIMENSION
  5
34C
102
{ACAD_XDICTIONARY
360
34D
102
}
102
{ACAD_REACTORS
330
34E
102
}
330
2
100
AcDbEntity
  8
0
100
AcDbDimension
  2
*D10
 10
95.36865028187094
 20
342.2515353312718
 30
0.0
 11
64.36865028187094
 21
342.2515353312718
 31
0.0
 70
   160
 71
     5
 42
-1.0
  3
STANDARD
100
AcDbAlignedDimension
 13
33.36865028187094
 23
294.9595616198166
 33
0.0
 14
95.36865028187094
 24
294.9595616198166
 34
0.0
100
AcDbRotatedDimension
  0
ARC
  5
35B
330
2
100
AcDbEntity
  8
0
100
AcDbCircle
 10
92.896956281882
 20
329.4595616198157
 30
0.0
 40
0.5
100
AcDbArc
 50
3.337083000037623
 51
90.0
  0
DIMENSION
  5
35C
330
2
100
AcDbEntity
  8
0
100
AcDbDimension
  2
*D9
 10
111.6879963531337
 20
329.9595616198148
 30
0.0
 11
111.6879963531337
 21
310.0971911757678
 31
0.0
 70
   160
 71
     5
 42
-1.0
  3
STANDARD
100
AcDbAlignedDimension
 13
99.36865028187094
 23
286.9595616198157
 33
0.0
 14
92.896956281882
 24
329.9595616198148
 34
0.0
 50
90.0
100
AcDbRotatedDimension
  0
ARC
  5
369
330
2
100
AcDbEntity
  8
0
100
AcDbCircle
 10
35.84034528187112
 20
329.4595616198157
 30
0.0
 40
0.5
100
AcDbArc
 50
90.0
 51
176.6629169999623
  0
LINE
  5
36A
330
2
100
AcDbEntity
  8
0
100
AcDbLine
 10
64.36865028187094
 20
329.9595616198166
 30
0.0
 11
35.84034528187112
 21
329.9595616198166
 31
0.0
  0
LINE
  5
36B
330
2
100
AcDbEntity
  8
0
100
AcDbLine
 10
64.36865028187094
 20
329.9595616198166
 30
0.0
 11
92.896956281882
 21
329.9595616198166
 31
0.0
  0
LINE
  5
36C
330
2
100
AcDbEntity
  8
0
100
AcDbLine
 10
34.06865028186985
 20
295.6595616198169
 30
0.0
 11
34.06865028186985
 21
294.9595616198166
 31
0.0
  0
LINE
  5
36D
330
2
100
AcDbEntity
  8
0
100
AcDbLine
 10
33.36865028187094
 20
295.6595616198169
 30
0.0
 11
35.3411932818708
 21
329.4886666198181
 31
0.0
  0
LINE
  5
36E
102
{ACAD_REACTORS
330
34E
102
}
330
2
100
AcDbEntity
  8
0
100
AcDbLine
 10
64.36865028187094
 20
294.9595616198166
 30
0.0
 11
33.36865028187094
 21
294.9595616198166
 31
0.0
  0
LINE
  5
36F
330
2
100
AcDbEntity
  8
0
100
AcDbLine
 10
49.36865028187092
 20
288.9595616198166
 30
0.0
 11
34.78878328187056
 21
288.9595616198166
 31
0.0
  0
LINE
  5
370
330
2
100
AcDbEntity
  8
0
100
AcDbLine
 10
37.36865028187093
 20
287.9595616198166
 30
0.0
 11
37.36865028187093
 21
286.9595616198157
 31
0.0
  0
ARC
  5
371
330
2
100
AcDbEntity
  8
0
100
AcDbCircle
 10
36.36865028187094
 20
287.9595616198166
 30
0.0
 40
1.0
100
AcDbArc
 50
0.0
 51
90.0
  0
LINE
  5
372
330
2
100
AcDbEntity
  8
0
100
AcDbLine
 10
33.79223828187059
 20
289.8765166198168
 30
0.0
 11
33.36865028187094
 21
294.9595616198166
 31
0.0
  0
ARC
  5
373
330
2
100
AcDbEntity
  8
0
100
AcDbCircle
 10
34.78878328187056
 20
289.9595616198157
 30
0.0
 40
1.0
100
AcDbArc
 50
184.7636420000051
 51
270.0
  0
LINE
  5
374
330
2
100
AcDbEntity
  8
0
100
AcDbLine
 10
49.36865028187092
 20
288.9595616198166
 30
0.0
 11
49.36865028187092
 21
286.9595616198157
 31
0.0
  0
LINE
  5
375
330
2
100
AcDbEntity
  8
0
100
AcDbLine
 10
91.36865028187092
 20
287.9595616198166
 30
0.0
 11
91.36865028187092
 21
286.9595616198157
 31
0.0
  0
LINE
  5
376
330
2
100
AcDbEntity
  8
0
100
AcDbLine
 10
94.66865028188292
 20
295.6595616198169
 30
0.0
 11
94.66865028188292
 21
294.9595616198166
 31
0.0
  0
LINE
  5
377
102
{ACAD_REACTORS
330
34E
102
}
330
2
100
AcDbEntity
  8
0
100
AcDbLine
 10
94.94506328188256
 20
289.8765166198168
 30
0.0
 11
95.36865028187094
 21
294.9595616198166
 31
0.0
  0
LINE
  5
378
330
2
100
AcDbEntity
  8
0
100
AcDbLine
 10
95.36865028187094
 20
295.6595616198169
 30
0.0
 11
93.39610828187142
 21
329.4886666198181
 31
0.0
  0
ARC
  5
379
330
2
100
AcDbEntity
  8
0
100
AcDbCircle
 10
93.94851828186984
 20
289.9595616198157
 30
0.0
 40
1.0
100
AcDbArc
 50
270.0
 51
355.2363579999948
  0
ARC
  5
37A
330
2
100
AcDbEntity
  8
0
100
AcDbCircle
 10
92.36865028187095
 20
287.9595616198166
 30
0.0
 40
1.0
100
AcDbArc
 50
90.0
 51
180.0
  0
LINE
  5
37B
330
2
100
AcDbEntity
  8
0
100
AcDbLine
 10
79.36865028187094
 20
288.9595616198166
 30
0.0
 11
79.36865028187094
 21
286.9595616198157
 31
0.0
  0
LINE
  5
37C
330
2
100
AcDbEntity
  8
0
100
AcDbLine
 10
64.36865028187094
 20
294.9595616198166
 30
0.0
 11
95.36865028187094
 21
294.9595616198166
 31
0.0
  0
LINE
  5
37D
330
2
100
AcDbEntity
  8
0
100
AcDbLine
 10
79.36865028187094
 20
288.9595616198166
 30
0.0
 11
93.94851828186984
 21
288.9595616198166
 31
0.0
  0
LINE
  5
37E
330
2
100
AcDbEntity
  8
0
100
AcDbLine
 10
95.36865028187094
 20
295.6595616198169
 30
0.0
 11
33.36865028187094
 21
295.6595616198169
 31
0.0
  0
LINE
  5
37F
330
2
100
AcDbEntity
  8
0
 48
0.6
100
AcDbLine
 10
29.36865028187094
 20
286.9595616198157
 30
0.0
 11
99.36865028187094
 21
286.9595616198157
 31
0.0
  0
ARC
  5
380
330
2
100
AcDbEntity
  8
0
 48
0.6
100
AcDbCircle
 10
54.67614848730955
 20
277.1914129157498
 30
0.0
 40
2.644799999999999
100
AcDbArc
 50
231.9486744805834
 51
287.7198081528046
  0
ARC
  5
381
330
2
100
AcDbEntity
  8
0
 48
0.6
100
AcDbCircle
 10
51.41581292864976
 20
273.0260701681509
 30
0.0
 40
2.644799999999999
100
AcDbArc
 50
51.9486744805834
 51
116.3656725032604
  0
ARC
  5
382
330
2
100
AcDbEntity
  8
0
 48
0.6
100
AcDbCircle
 10
64.33588041839175
 20
246.9595616198166
 30
0.0
 40
29.09279999999998
100
AcDbArc
 50
72.28019184719541
 51
107.7198081528045
  0
ARC
  5
383
330
2
100
AcDbEntity
  8
0
 48
0.6
100
AcDbCircle
 10
77.25594790814284
 20
273.0260701681509
 30
0.0
 40
2.644799999999999
100
AcDbArc
 50
63.63432749673942
 51
128.0513255194166
  0
ARC
  5
384
330
2
100
AcDbEntity
  8
0
 48
0.6
100
AcDbCircle
 10
73.99561234949216
 20
277.1914129157498
 30
0.0
 40
2.644799999999999
100
AcDbArc
 50
252.2801918471953
 51
308.0513255194166
  0
ARC
  5
385
330
2
100
AcDbEntity
  8
0
 48
0.6
100
AcDbCircle
 10
99.36865028187094
 20
281.9595616198157
 30
0.0
 40
5.0
100
AcDbArc
 50
0.0
 51
90.0
  0
LINE
  5
386
330
2
100
AcDbEntity
  8
0
  6
CENTER
 62
     1
 48
0.6
100
AcDbLine
 10
34.49338877674199
 20
276.810649080869
 30
0.0
 11
27.77587435546957
 21
283.5281635021397
 31
0.0
  0
CIRCLE
  5
387
330
2
100
AcDbEntity
  8
0
100
AcDbCircle
 10
97.60266899764246
 20
280.1935803355818
 30
0.0
 40
2.75
  0
LINE
  5
388
330
2
100
AcDbEntity
  8
0
  6
CENTER
 62
     1
 48
0.6
100
AcDbLine
 10
94.24391178700899
 20
276.834823124946
 30
0.0
 11
100.9614262082814
 21
283.552337546218
 31
0.0
  0
ARC
  5
389
102
{ACAD_REACTORS
330
1E1
102
}
330
2
100
AcDbEntity
  8
0
  6
CENTER
 62
     1
 48
0.6
100
AcDbCircle
 10
64.36865028187094
 20
246.9595616198166
 30
0.0
 40
47.0
100
AcDbArc
 50
35.54155537381703
 51
54.45844462620417
  0
LINE
  5
38A
330
2
100
AcDbEntity
  8
0
  6
CENTER
 62
     1
 48
0.6
100
AcDbLine
 10
34.49338877674199
 20
276.834823124951
 30
0.0
 11
27.77587435546957
 21
283.552337546223
 31
0.0
  0
CIRCLE
  5
38B
330
2
100
AcDbEntity
  8
0
100
AcDbCircle
 10
31.13463156611214
 20
280.1935803355882
 30
0.0
 40
2.75
  0
ARC
  5
38C
330
2
100
AcDbEntity
  8
0
  6
CENTER
 62
     1
 48
0.6
100
AcDbCircle
 10
64.36865028187094
 20
246.9595616198166
 30
0.0
 40
47.0
100
AcDbArc
 50
126.7642625682232
 51
143.2357374318079
  0
ARC
  5
38D
330
2
100
AcDbEntity
  8
0
 48
0.6
100
AcDbCircle
 10
29.36865028187094
 20
281.9595616198157
 30
0.0
 40
5.0
100
AcDbArc
 50
90.0
 51
180.0
  0
LINE
  5
3AA
102
{ACAD_REACTORS
330
18F
102
}
330
2
100
AcDbEntity
  8
0
100
AcDbLine
 10
280.4214269719832
 20
318.9595606198181
 30
0.0
 11
280.4214269719832
 21
304.9595606198181
 31
0.0
  0
LEADER
  5
75A
330
2
100
AcDbEntity
  8
0
100
AcDbLeader
  3
STANDARD
 74
     0
 76
     2
 10
98.67687619149009
 20
35.30048320943797
 30
0.0
 10
114.6945317319587
 20
18.3609051905737
 30
0.0
1001
ACAD
1000
DSTYLE
1002
{
1070
     5
1000

1002
}
  0
MTEXT
  5
75B
102
{ACAD_REACTORS
330
75A
102
}
330
2
100
AcDbEntity
  8
0
 62
     3
100
AcDbMText
 10
115.6945317319587
 20
20.8609051905737
 30
0.0
 40
3.0
 41
0.0
 71
     4
 72
     1
  1
4-%%c5.5 hole
 73
     1
 44
1.0
1001
ACAD
1000
MTEXTBEGIN
1070
    73
1070
     1
1070
    44
1040
1.0
1070
    74
1070
     0
1000
MTEXTEND
  0
CIRCLE
  5
75C
330
2
100
AcDbEntity
  8
0
100
AcDbCircle
 10
64.33588041839181
 20
71.09019308451434
 30
0.0
 40
4.0
  0
LINE
  5
75D
330
2
100
AcDbEntity
  8
0
100
AcDbLine
 10
66.9816317294572
 20
74.09019308451433
 30
0.0
 11
61.6901291073264
 21
74.09019308451433
 31
0.0
  0
ARC
  5
75E
330
2
100
AcDbEntity
  8
0
 48
0.6
100
AcDbCircle
 10
54.67614848730232
 20
40.85834178857886
 30
0.0
 40
2.644799999999999
100
AcDbArc
 50
72.28019184730769
 51
128.051325519512
  0
CIRCLE
  5
75F
330
2
100
AcDbEntity
  8
0
 48
0.6
100
AcDbCircle
 10
64.36865028187099
 20
71.09019308451434
 30
0.0
 40
13.0
  0
ARC
  5
760
330
2
100
AcDbEntity
  8
0
 48
0.6
100
AcDbCircle
 10
54.67614848730232
 20
101.3220443804462
 30
0.0
 40
2.644799999999999
100
AcDbArc
 50
231.9486744804879
 51
287.7198081526923
  0
ARC
  5
761
330
2
100
AcDbEntity
  8
0
 48
0.6
100
AcDbCircle
 10
64.33588041839181
 20
71.09019308451434
 30
0.0
 40
31.7376
100
AcDbArc
 50
206.3656725032692
 51
243.6343274967308
  0
ARC
  5
762
330
2
100
AcDbEntity
  8
0
 48
0.6
100
AcDbCircle
 10
64.33588041839181
 20
71.09019308451434
 30
0.0
 40
31.7376
100
AcDbArc
 50
116.3656725032692
 51
153.6343274967307
  0
ARC
  5
763
330
2
100
AcDbEntity
  8
0
 48
0.6
100
AcDbCircle
 10
64.33588041839181
 20
71.09019308451434
 30
0.0
 40
29.0928
100
AcDbArc
 50
162.2801918473046
 51
197.7198081526953
  0
ARC
  5
764
330
2
100
AcDbEntity
  8
0
 48
0.6
100
AcDbCircle
 10
34.10402912245633
 20
61.43046115342485
 30
0.0
 40
2.644799999999999
100
AcDbArc
 50
321.9486744805517
 51
17.71980815269538
  0
ARC
  5
765
330
2
100
AcDbEntity
  8
0
 48
0.6
100
AcDbCircle
 10
38.26937187005393
 20
58.17012559477053
 30
0.0
 40
2.644799999999999
100
AcDbArc
 50
141.9486744805517
 51
206.3656725032692
  0
ARC
  5
766
330
2
100
AcDbEntity
  8
0
 48
0.6
100
AcDbCircle
 10
38.26937187005393
 20
84.01026057425815
 30
0.0
 40
2.644799999999999
100
AcDbArc
 50
153.6343274967307
 51
218.0513255194482
  0
ARC
  5
767
330
2
100
AcDbEntity
  8
0
 48
0.6
100
AcDbCircle
 10
34.10402912245633
 20
80.7499250156038
 30
0.0
 40
2.644799999999999
100
AcDbArc
 50
342.2801918473045
 51
38.05132551944823
  0
ARC
  5
768
330
2
100
AcDbEntity
  8
0
 48
0.6
100
AcDbCircle
 10
51.41581292864799
 20
45.0236845361801
 30
0.0
 40
2.644799999999999
100
AcDbArc
 50
243.6343274967308
 51
308.051325519512
  0
ARC
  5
769
330
2
100
AcDbEntity
  8
0
 48
0.6
100
AcDbCircle
 10
51.41581292864799
 20
97.15670163284858
 30
0.0
 40
2.644799999999999
100
AcDbArc
 50
51.94867448048793
 51
116.3656725032692
  0
LINE
  5
76A
330
2
100
AcDbEntity
  8
0
 48
0.6
100
AcDbLine
 10
104.3686502818673
 20
106.0901930845143
 30
0.0
 11
104.3686502818673
 21
36.09019308451435
 31
0.0
  0
ARC
  5
76B
330
2
100
AcDbEntity
  8
0
 48
0.6
100
AcDbCircle
 10
64.33588041839181
 20
71.09019308451434
 30
0.0
 40
31.7376
100
AcDbArc
 50
296.3656725032692
 51
333.6343274967308
  0
ARC
  5
76C
330
2
100
AcDbEntity
  8
0
 48
0.6
100
AcDbCircle
 10
64.33588041839181
 20
71.09019308451434
 30
0.0
 40
29.0928
100
AcDbArc
 50
252.2801918473077
 51
287.7198081526923
  0
ARC
  5
76D
330
2
100
AcDbEntity
  8
0
 48
0.6
100
AcDbCircle
 10
77.25594790813563
 20
45.0236845361801
 30
0.0
 40
2.644799999999999
100
AcDbArc
 50
231.9486744804879
 51
296.3656725032692
  0
ARC
  5
76E
330
2
100
AcDbEntity
  8
0
 48
0.6
100
AcDbCircle
 10
73.99561234948129
 20
40.85834178857886
 30
0.0
 40
2.644799999999999
100
AcDbArc
 50
51.94867448048793
 51
107.7198081526923
  0
ARC
  5
76F
330
2
100
AcDbEntity
  8
0
 48
0.6
100
AcDbCircle
 10
99.36865028186735
 20
36.09019308451435
 30
0.0
 40
5.0
100
AcDbArc
 50
270.0
 51
0.0
  0
ARC
  5
770
330
2
100
AcDbEntity
  8
0
 48
0.6
100
AcDbCircle
 10
64.33588041839181
 20
71.09019308451434
 30
0.0
 40
29.0928
100
AcDbArc
 50
342.2801918473045
 51
17.71980815269538
  0
ARC
  5
771
330
2
100
AcDbEntity
  8
0
 48
0.6
100
AcDbCircle
 10
94.56773171432363
 20
61.43046115342485
 30
0.0
 40
2.644799999999999
100
AcDbArc
 50
162.2801918473046
 51
218.0513255194482
  0
ARC
  5
772
330
2
100
AcDbEntity
  8
0
 48
0.6
100
AcDbCircle
 10
90.40238896672605
 20
58.17012559477053
 30
0.0
 40
2.644799999999999
100
AcDbArc
 50
333.6343274967308
 51
38.05132551944823
  0
ARC
  5
773
330
2
100
AcDbEntity
  8
0
 48
0.6
100
AcDbCircle
 10
64.33588041839181
 20
71.09019308451434
 30
0.0
 40
31.7376
100
AcDbArc
 50
26.36567250326924
 51
63.63432749673076
  0
ARC
  5
774
330
2
100
AcDbEntity
  8
0
 48
0.6
100
AcDbCircle
 10
64.33588041839181
 20
71.09019308451434
 30
0.0
 40
29.0928
100
AcDbArc
 50
72.28019184730769
 51
107.7198081526923
  0
ARC
  5
775
330
2
100
AcDbEntity
  8
0
 48
0.6
100
AcDbCircle
 10
77.25594790813563
 20
97.15670163284858
 30
0.0
 40
2.644799999999999
100
AcDbArc
 50
63.63432749673076
 51
128.051325519512
  0
ARC
  5
776
330
2
100
AcDbEntity
  8
0
 48
0.6
100
AcDbCircle
 10
73.99561234948129
 20
101.3220443804462
 30
0.0
 40
2.644799999999999
100
AcDbArc
 50
252.2801918473077
 51
308.051325519512
  0
ARC
  5
777
330
2
100
AcDbEntity
  8
0
 48
0.6
100
AcDbCircle
 10
94.56773171432363
 20
80.7499250156038
 30
0.0
 40
2.644799999999999
100
AcDbArc
 50
141.9486744805517
 51
197.7198081526953
  0
ARC
  5
778
330
2
100
AcDbEntity
  8
0
 48
0.6
100
AcDbCircle
 10
90.40238896672605
 20
84.01026057425815
 30
0.0
 40
2.644799999999999
100
AcDbArc
 50
321.9486744805517
 51
26.36567250326924
  0
ARC
  5
779
330
2
100
AcDbEntity
  8
0
 48
0.6
100
AcDbCircle
 10
99.36865028186735
 20
106.0901930845143
 30
0.0
 40
5.0
100
AcDbArc
 50
0.0
 51
90.0
  0
LINE
  5
77A
330
2
100
AcDbEntity
  8
0
100
AcDbLine
 10
95.36865028187099
 20
119.790193084515
 30
0.0
 11
33.368650281871
 21
119.790193084515
 31
0.0
  0
LINE
  5
77B
330
2
100
AcDbEntity
  8
0
100
AcDbLine
 10
79.36865028187098
 20
113.0901930845143
 30
0.0
 11
93.94851828186807
 21
113.0901930845143
 31
0.0
  0
LINE
  5
77C
330
2
100
AcDbEntity
  8
0
100
AcDbLine
 10
79.36865028187098
 20
113.0901930845143
 30
0.0
 11
79.36865028187098
 21
111.0901930845143
 31
0.0
  0
ARC
  5
77D
330
2
100
AcDbEntity
  8
0
100
AcDbCircle
 10
92.368650281871
 20
112.0901930845143
 30
0.0
 40
1.0
100
AcDbArc
 50
90.0
 51
180.0
  0
ARC
  5
77E
330
2
100
AcDbEntity
  8
0
100
AcDbCircle
 10
93.94851828186807
 20
114.0901930845143
 30
0.0
 40
1.0
100
AcDbArc
 50
270.0
 51
355.2363579999957
  0
LINE
  5
77F
102
{ACAD_REACTORS
330
81D
102
}
330
2
100
AcDbEntity
  8
0
100
AcDbLine
 10
95.36865028187099
 20
119.790193084515
 30
0.0
 11
93.39610828186785
 21
153.6192980845157
 31
0.0
  0
LINE
  5
780
330
2
100
AcDbEntity
  8
0
100
AcDbLine
 10
94.94506328186984
 20
114.0071480845149
 30
0.0
 11
95.36865028187099
 21
119.0901930845143
 31
0.0
  0
LINE
  5
781
330
2
100
AcDbEntity
  8
0
100
AcDbLine
 10
94.66865028187028
 20
119.790193084515
 30
0.0
 11
94.66865028187028
 21
119.0901930845143
 31
0.0
  0
LINE
  5
782
330
2
100
AcDbEntity
  8
0
100
AcDbLine
 10
91.368650281871
 20
112.0901930845143
 30
0.0
 11
91.368650281871
 21
111.0901930845143
 31
0.0
  0
LINE
  5
783
330
2
100
AcDbEntity
  8
0
100
AcDbLine
 10
49.36865028187099
 20
113.0901930845143
 30
0.0
 11
49.36865028187099
 21
111.0901930845143
 31
0.0
  0
ARC
  5
784
330
2
100
AcDbEntity
  8
0
100
AcDbCircle
 10
34.78878328187062
 20
114.0901930845143
 30
0.0
 40
1.0
100
AcDbArc
 50
184.7636420000043
 51
270.0
  0
LINE
  5
785
330
2
100
AcDbEntity
  8
0
100
AcDbLine
 10
33.79223828186884
 20
114.0071480845149
 30
0.0
 11
33.368650281871
 21
119.0901930845143
 31
0.0
  0
ARC
  5
786
330
2
100
AcDbEntity
  8
0
100
AcDbCircle
 10
36.368650281871
 20
112.0901930845143
 30
0.0
 40
1.0
100
AcDbArc
 50
0.0
 51
90.0
  0
LINE
  5
787
330
2
100
AcDbEntity
  8
0
100
AcDbLine
 10
37.368650281871
 20
112.0901930845143
 30
0.0
 11
37.368650281871
 21
111.0901930845143
 31
0.0
  0
LINE
  5
788
330
2
100
AcDbEntity
  8
0
100
AcDbLine
 10
49.36865028187099
 20
113.0901930845143
 30
0.0
 11
34.78878328187062
 21
113.0901930845143
 31
0.0
  0
LINE
  5
789
330
2
100
AcDbEntity
  8
0
100
AcDbLine
 10
33.368650281871
 20
119.0901930845143
 30
0.0
 11
95.36865028187099
 21
119.0901930845143
 31
0.0
  0
LINE
  5
78A
102
{ACAD_REACTORS
330
81D
102
}
330
2
100
AcDbEntity
  8
0
100
AcDbLine
 10
33.368650281871
 20
119.790193084515
 30
0.0
 11
35.34119328186722
 21
153.6192980845157
 31
0.0
  0
LINE
  5
78B
330
2
100
AcDbEntity
  8
0
100
AcDbLine
 10
34.06865028186809
 20
119.790193084515
 30
0.0
 11
34.06865028186809
 21
119.0901930845143
 31
0.0
  0
LINE
  5
78C
330
2
100
AcDbEntity
  8
0
100
AcDbLine
 10
35.84034528187118
 20
154.0901930845143
 30
0.0
 11
92.89695628187114
 21
154.0901930845143
 31
0.0
  0
ARC
  5
78D
330
2
100
AcDbEntity
  8
0
100
AcDbCircle
 10
35.84034528187118
 20
153.5901930845143
 30
0.0
 40
0.5
100
AcDbArc
 50
90.0
 51
176.6629170000655
  0
ARC
  5
78E
330
2
100
AcDbEntity
  8
0
100
AcDbCircle
 10
92.89695628187114
 20
153.5901930845143
 30
0.0
 40
0.5
100
AcDbArc
 50
3.337082999934529
 51
90.0
  0
DIMENSION
  5
78F
330
2
100
AcDbEntity
  8
0
100
AcDbDimension
  2
*D16
 10
111.687996353121
 20
154.0901930845143
 30
0.0
 11
111.687996353121
 21
134.2278226404673
 31
0.0
 70
   160
 71
     5
 42
43.0
  3
STANDARD
100
AcDbAlignedDimension
 13
99.36865028186735
 23
111.0901930845143
 33
0.0
 14
92.89695628187114
 24
154.0901930845143
 34
0.0
 50
90.0
100
AcDbRotatedDimension
  0
LINE
  5
790
330
2
100
AcDbEntity
  8
0
  6
CENTER
 62
     1
 48
0.6
100
AcDbLine
 10
64.36865028186736
 20
23.74594666771782
 30
0.0
 11
64.36865028187099
 21
157.8819536990709
 31
0.0
  0
LINE
  5
791
330
2
100
AcDbEntity
  8
0
 48
0.6
100
AcDbLine
 10
24.36865028186736
 20
106.0901930845143
 30
0.0
 11
24.36865028186736
 21
36.09019308451435
 31
0.0
  0
ARC
  5
792
330
2
100
AcDbEntity
  8
0
 48
0.6
100
AcDbCircle
 10
29.36865028186736
 20
36.09019308451435
 30
0.0
 40
5.0
100
AcDbArc
 50
180.0
 51
270.0
  0
ARC
  5
793
330
2
100
AcDbEntity
  8
0
 48
0.6
100
AcDbCircle
 10
29.36865028186736
 20
106.0901930845143
 30
0.0
 40
5.0
100
AcDbArc
 50
90.0
 51
180.0
  0
LINE
  5
794
330
2
100
AcDbEntity
  8
0
 48
0.6
100
AcDbLine
 10
29.36865028186736
 20
31.09019308451434
 30
0.0
 11
99.36865028186735
 21
31.09019308451434
 31
0.0
  0
LINE
  5
795
330
2
100
AcDbEntity
  8
0
 48
0.6
100
AcDbLine
 10
29.36865028186736
 20
111.0901930845143
 30
0.0
 11
99.36865028186735
 21
111.0901930845143
 31
0.0
  0
LINE
  5
796
330
2
100
AcDbEntity
  8
0
  6
CENTER
 62
     1
 48
0.6
100
AcDbLine
 10
20.29166055627144
 20
71.09019308451434
 30
0.0
 11
108.4456400074633
 21
71.09019308451434
 31
0.0
  0
CIRCLE
  5
797
330
2
100
AcDbEntity
  8
0
 48
0.6
100
AcDbCircle
 10
64.36865028187099
 20
71.09019308451434
 30
0.0
 40
37.00000000000006
  0
CIRCLE
  5
798
330
2
100
AcDbEntity
  8
0
 48
0.6
100
AcDbCircle
 10
64.36865028187099
 20
71.09019308451434
 30
0.0
 40
38.5
  0
DIMENSION
  5
799
330
2
100
AcDbEntity
  8
0
100
AcDbDimension
  2
*D17
 10
104.3686502818673
 20
15.50599755263147
 30
0.0
 11
67.23612516895086
 21
15.50599755263147
 31
0.0
 70
   160
 71
     5
 42
80.0
  3
STANDARD
100
AcDbAlignedDimension
 13
24.36865028186736
 23
36.09019308451435
 33
0.0
 14
104.3686502818673
 24
36.09019308451435
 34
0.0
100
AcDbRotatedDimension
  0
LINE
  5
79A
330
2
100
AcDbEntity
  8
0
100
AcDbLine
 10
281.5186299729358
 20
101.2549104260438
 30
0.0
 11
225.0019629729323
 21
101.2549104260402
 31
0.0
  0
LINE
  5
79B
330
2
100
AcDbEntity
  8
0
  6
CENTER
 62
     1
 48
0.6
100
AcDbLine
 10
311.1862646328118
 20
71.09019308451434
 30
0.0
 11
181.1932544964912
 21
71.09019308451434
 31
0.0
  0
LINE
  5
79C
102
{ACAD_REACTORS
330
7C8
102
}
330
2
100
AcDbEntity
  8
0
100
AcDbLine
 10
296.9019629729337
 20
31.59019308451434
 30
0.0
 11
225.0019629729323
 21
31.59019308451434
 31
0.0
  0
LINE
  5
79D
330
2
100
AcDbEntity
  8
0
100
AcDbLine
 10
296.9019629729337
 20
110.5901930845143
 30
0.0
 11
225.0019629729323
 21
110.5901930845143
 31
0.0
  0
DIMENSION
  5
79E
102
{ACAD_XDICTIONARY
360
79F
102
}
102
{ACAD_REACTORS
330
7A0
102
}
330
2
100
AcDbEntity
  8
0
100
AcDbDimension
  2
*D20
 10
303.9019629729338
 20
7.483851867459178
 30
0.0
 11
261.4019629729337
 21
7.483851867459178
 31
0.0
 70
   160
 71
     5
 42
85.0
  3
STANDARD
100
AcDbAlignedDimension
 13
218.9019629729338
 23
31.09019308451434
 33
0.0
 14
303.9019629729338
 24
34.09019308451434
 34
0.0
100
AcDbRotatedDimension
  0
DIMENSION
  5
7A1
102
{ACAD_XDICTIONARY
360
7A2
102
}
102
{ACAD_REACTORS
330
7A3
102
}
330
2
100
AcDbEntity
  8
0
100
AcDbDimension
  2
*D21
 10
218.9019629729338
 20
7.483851867459178
 30
0.0
 11
202.9019629729337
 21
7.483851867459178
 31
0.0
 70
   160
 71
     5
 42
32.0
  3
STANDARD
100
AcDbAlignedDimension
 13
186.9019629729337
 23
67.09019308451434
 33
0.0
 14
218.9019629729338
 24
31.09019308451434
 34
0.0
100
AcDbRotatedDimension
  0
DIMENSION
  5
7A4
102
{ACAD_XDICTIONARY
360
7A5
102
}
102
{ACAD_REACTORS
330
7A6
102
}
330
2
100
AcDbEntity
  8
0
100
AcDbDimension
  2
*D22
 10
211.9019629729337
 20
89.11857915839981
 30
0.0
 11
199.4019629729337
 21
89.11857915839981
 31
0.0
 70
   160
 71
     5
 42
25.0
  3
STANDARD
100
AcDbAlignedDimension
 13
186.9019629729337
 23
74.09019308451433
 33
0.0
 14
211.9019629729337
 24
75.09019308451434
 34
0.0
100
AcDbRotatedDimension
  0
DIMENSION
  5
7A7
102
{ACAD_XDICTIONARY
360
7A8
102
}
102
{ACAD_REACTORS
330
7A9
102
}
330
2
100
AcDbEntity
  8
0
100
AcDbDimension
  2
*D23
 10
173.9120349339574
 20
74.09019308451433
 30
0.0
 11
173.9120349339574
 21
70.59019308451434
 31
0.0
 70
   160
 71
     5
 42
7.0
  3
STANDARD
100
AcDbAlignedDimension
 13
186.9019629729337
 23
67.09019308451434
 33
0.0
 14
186.9019629729337
 24
74.09019308451433
 34
0.0
 50
90.0
100
AcDbRotatedDimension
  0
LINE
  5
7AA
102
{ACAD_REACTORS
330
7A9
330
7A3
102
}
330
2
100
AcDbEntity
  8
0
100
AcDbLine
 10
216.9019629729338
 20
67.09019308451434
 30
0.0
 11
186.9019629729337
 21
67.09019308451434
 31
0.0
  0
LINE
  5
7AB
102
{ACAD_REACTORS
330
7A6
102
}
330
2
100
AcDbEntity
  8
0
100
AcDbLine
 10
216.9019629729338
 20
75.09019308451434
 30
0.0
 11
211.9019629729337
 21
75.09019308451434
 31
0.0
  0
LINE
  5
7AC
102
{ACAD_REACTORS
330
7A6
330
7A9
102
}
330
2
100
AcDbEntity
  8
0
100
AcDbLine
 10
186.9019629729337
 20
74.09019308451433
 30
0.0
 11
186.9019629729337
 21
67.09019308451434
 31
0.0
  0
LINE
  5
7AD
330
2
100
AcDbEntity
  8
0
100
AcDbLine
 10
211.9019629729337
 20
74.09019308451433
 30
0.0
 11
186.9019629729337
 21
74.09019308451433
 31
0.0
  0
LINE
  5
7AE
330
2
100
AcDbEntity
  8
0
100
AcDbLine
 10
211.9019629729337
 20
75.09019308451434
 30
0.0
 11
211.9019629729337
 21
74.09019308451433
 31
0.0
  0
LINE
  5
7AF
102
{ACAD_REACTORS
330
7BE
102
}
330
2
100
AcDbEntity
  8
0
100
AcDbLine
 10
216.9019629729338
 20
107.5901930845143
 30
0.0
 11
216.9019629729338
 21
34.59019308451434
 31
0.0
  0
LINE
  5
7B0
330
2
100
AcDbEntity
  8
0
100
AcDbLine
 10
218.9019629729338
 20
111.0901930845143
 30
0.0
 11
218.9019629729338
 21
31.09019308451434
 31
0.0
  0
LINE
  5
7B1
330
2
100
AcDbEntity
  8
0
100
AcDbLine
 10
225.9019629729337
 20
101.9889304260437
 30
0.0
 11
225.9019629729337
 21
109.6889304260407
 31
0.0
  0
LINE
  5
7B2
330
2
100
AcDbEntity
  8
0
100
AcDbLine
 10
225.9019629729337
 20
40.191455742985
 30
0.0
 11
225.9019629729337
 21
32.49145574298427
 31
0.0
  0
LINE
  5
7B3
102
{ACAD_REACTORS
330
7A0
330
7C4
330
7A3
102
}
330
2
100
AcDbEntity
  8
0
100
AcDbLine
 10
218.9019629729338
 20
31.09019308451434
 30
0.0
 11
225.0019629729323
 21
31.09019308451434
 31
0.0
  0
LINE
  5
7B4
102
{ACAD_REACTORS
330
7C1
102
}
330
2
100
AcDbEntity
  8
0
100
AcDbLine
 10
225.0019629729323
 20
32.49145574298427
 30
0.0
 11
225.9019629729337
 21
32.49145574298427
 31
0.0
  0
LINE
  5
7B5
330
2
100
AcDbEntity
  8
0
100
AcDbLine
 10
225.0019629729323
 20
40.191455742985
 30
0.0
 11
225.9019629729337
 21
40.191455742985
 31
0.0
  0
LINE
  5
7B6
102
{ACAD_REACTORS
330
7C4
102
}
330
2
100
AcDbEntity
  8
0
100
AcDbLine
 10
218.9019629729338
 20
34.59019308451434
 30
0.0
 11
216.9019629729338
 21
34.59019308451434
 31
0.0
  0
LINE
  5
7B7
330
2
100
AcDbEntity
  8
0
100
AcDbLine
 10
225.0019629729323
 20
101.9889304260437
 30
0.0
 11
225.9019629729337
 21
101.9889304260437
 31
0.0
  0
LINE
  5
7B8
330
2
100
AcDbEntity
  8
0
100
AcDbLine
 10
218.9019629729338
 20
111.0901930845143
 30
0.0
 11
225.0019629729323
 21
111.0901930845143
 31
0.0
  0
LINE
  5
7B9
330
2
100
AcDbEntity
  8
0
100
AcDbLine
 10
225.0019629729323
 20
109.6889304260407
 30
0.0
 11
225.9019629729337
 21
109.6889304260407
 31
0.0
  0
LINE
  5
7BA
330
2
100
AcDbEntity
  8
0
100
AcDbLine
 10
218.9019629729338
 20
107.5901930845143
 30
0.0
 11
216.9019629729338
 21
107.5901930845143
 31
0.0
  0
LINE
  5
7BB
330
2
100
AcDbEntity
  8
0
100
AcDbLine
 10
225.0019629729318
 20
111.0901930845107
 30
0.0
 11
225.0019629729323
 21
31.09019308451434
 31
0.0
  0
DIMENSION
  5
7BC
102
{ACAD_XDICTIONARY
360
7BD
102
}
102
{ACAD_REACTORS
330
7BE
102
}
330
2
100
AcDbEntity
  8
0
100
AcDbDimension
  2
*D24
 10
151.5271167885185
 20
107.5901930845143
 30
0.0
 11
151.5271167885185
 21
71.4895008599383
 31
0.0
 70
   160
  1
\A1;{\f??|b0|i0|c0|p49;%%C}<>{\f??|b0|i0|c0|p49;\H0.7x;\S+0^ -0.030;\H1.429x;(h7)}
 71
     5
 42
73.0
  3
STANDARD
100
AcDbAlignedDimension
 13
216.9019629729338
 23
34.59019308451434
 33
0.0
 14
216.9019629729338
 24
107.5901930845143
 34
0.0
 50
90.0
100
AcDbRotatedDimension
  0
DIMENSION
  5
7BF
102
{ACAD_XDICTIONARY
360
7C0
102
}
102
{ACAD_REACTORS
330
7C1
102
}
330
2
100
AcDbEntity
  8
0
100
AcDbDimension
  2
*D25
 10
225.9019629729337
 20
18.35107908613327
 30
0.0
 11
222.4019629729337
 21
18.35107908613327
 31
0.0
 70
   160
 71
     5
 42
7.0
  3
STANDARD
100
AcDbAlignedDimension
 13
218.9019629729338
 23
30.09019308451434
 33
0.0
 14
225.9019629729337
 24
32.49145574298427
 34
0.0
100
AcDbRotatedDimension
  0
DIMENSION
  5
7C2
102
{ACAD_XDICTIONARY
360
7C3
102
}
102
{ACAD_REACTORS
330
7C4
102
}
330
2
100
AcDbEntity
  8
0
100
AcDbDimension
  2
*D26
 10
218.9019629729338
 20
18.35107908613327
 30
0.0
 11
209.9019629729337
 21
18.35107908613327
 31
0.0
 70
   160
 71
     5
 42
2.0
  3
STANDARD
100
AcDbAlignedDimension
 13
216.9019629729338
 23
34.59019308451434
 33
0.0
 14
218.9019629729338
 24
31.09019308451434
 34
0.0
100
AcDbRotatedDimension
  0
DIMENSION
  5
7C6
102
{ACAD_XDICTIONARY
360
7C7
102
}
102
{ACAD_REACTORS
330
7C8
102
}
330
2
100
AcDbEntity
  8
0
100
AcDbDimension
  2
*D27
 10
324.4488171089143
 20
31.59019308451434
 30
0.0
 11
324.4488171089143
 21
71.09019308451434
 31
0.0
 70
   160
  1
%%C<>
 71
     5
 42
79.0
  3
STANDARD
100
AcDbAlignedDimension
 13
296.9019629729337
 23
110.5901930845143
 33
0.0
 14
296.9019629729337
 24
31.59019308451434
 34
0.0
 50
90.0
100
AcDbRotatedDimension
  0
LINE
  5
7C9
102
{ACAD_REACTORS
330
7C8
102
}
330
2
100
AcDbEntity
  8
0
100
AcDbLine
 10
296.9019629729337
 20
31.59019308451434
 30
0.0
 11
296.9019629729337
 21
110.5901930845143
 31
0.0
  0
LINE
  5
7CA
330
2
100
AcDbEntity
  8
0
100
AcDbLine
 10
302.9019629729337
 20
109.0901930845143
 30
0.0
 11
302.9019629729337
 21
33.09019308451434
 31
0.0
  0
LINE
  5
7CB
330
2
100
AcDbEntity
  8
0
100
AcDbLine
 10
303.9019629729338
 20
108.0901930845143
 30
0.0
 11
303.9019629729338
 21
34.09019308451434
 31
0.0
  0
LINE
  5
7CC
102
{ACAD_REACTORS
330
7A0
102
}
330
2
100
AcDbEntity
  8
0
100
AcDbLine
 10
303.9019629729338
 20
34.09019308451434
 30
0.0
 11
302.9019629729337
 21
33.09019308451434
 31
0.0
  0
LINE
  5
7CD
330
2
100
AcDbEntity
  8
0
100
AcDbLine
 10
302.9019629729337
 20
33.09019308451434
 30
0.0
 11
296.9019629729337
 21
33.09019308451434
 31
0.0
  0
LINE
  5
7CE
330
2
100
AcDbEntity
  8
0
100
AcDbLine
 10
303.9019629729338
 20
108.0901930845143
 30
0.0
 11
302.9019629729337
 21
109.0901930845143
 31
0.0
  0
LINE
  5
7CF
330
2
100
AcDbEntity
  8
0
100
AcDbLine
 10
302.9019629729337
 20
109.0901930845143
 30
0.0
 11
296.9019629729337
 21
109.0901930845143
 31
0.0
  0
LINE
  5
7D0
330
2
100
AcDbEntity
  8
0
100
AcDbLine
 10
281.5186299729358
 20
110.5901930845107
 30
0.0
 11
281.5186299729358
 21
101.2549104260402
 31
0.0
  0
CIRCLE
  5
7D4
330
2
100
AcDbEntity
  8
0
100
AcDbCircle
 10
97.60266899763887
 20
104.3242118002786
 30
0.0
 40
2.75
  0
LINE
  5
7D5
330
2
100
AcDbEntity
  8
0
  6
CENTER
 62
     1
 48
0.6
100
AcDbLine
 10
94.2439117870054
 20
100.9654545896415
 30
0.0
 11
100.961426208276
 21
107.6829690109157
 31
0.0
  0
ARC
  5
7D6
330
2
100
AcDbEntity
  8
0
  6
CENTER
 62
     1
 48
0.6
100
AcDbCircle
 10
64.36865028187099
 20
71.09019308451434
 30
0.0
 40
47.0
100
AcDbArc
 50
35.5415553739024
 51
54.4584446261387
  0
ARC
  5
7D7
330
2
100
AcDbEntity
  8
0
  6
CENTER
 62
     1
 48
0.6
100
AcDbCircle
 10
64.36865028187099
 20
71.09019308451434
 30
0.0
 40
47.0
100
AcDbArc
 50
126.7642625681187
 51
143.2357374319069
  0
LINE
  5
7D8
330
2
100
AcDbEntity
  8
0
  6
CENTER
 62
     1
 48
0.6
100
AcDbLine
 10
34.49338877674023
 20
100.9654545896487
 30
0.0
 11
27.77587435546962
 21
107.682969010923
 31
0.0
  0
CIRCLE
  5
7D9
330
2
100
AcDbEntity
  8
0
100
AcDbCircle
 10
31.13463156610311
 20
104.3242118002858
 30
0.0
 40
2.75
  0
LINE
  5
7DA
330
2
100
AcDbEntity
  8
0
  6
CENTER
 62
     1
 48
0.6
100
AcDbLine
 10
34.49338877673659
 20
41.21493157938721
 30
0.0
 11
27.77587435546235
 21
34.49741715811297
 31
0.0
  0
CIRCLE
  5
7DB
330
2
100
AcDbEntity
  8
0
100
AcDbCircle
 10
31.13463156609947
 20
37.8561743687501
 30
0.0
 40
2.75
  0
ARC
  5
7DC
330
2
100
AcDbEntity
  8
0
  6
CENTER
 62
     1
 48
0.6
100
AcDbCircle
 10
64.36865028187099
 20
71.09019308451434
 30
0.0
 40
47.0
100
AcDbArc
 50
215.5415553739024
 51
234.4584446261387
  0
ARC
  5
7DD
330
2
100
AcDbEntity
  8
0
  6
CENTER
 62
     1
 48
0.6
100
AcDbCircle
 10
64.36865028187099
 20
71.09019308451434
 30
0.0
 40
47.0
100
AcDbArc
 50
306.7642625681188
 51
323.2357374319069
  0
LINE
  5
7DE
330
2
100
AcDbEntity
  8
0
  6
CENTER
 62
     1
 48
0.6
100
AcDbLine
 10
94.24391178699812
 20
41.21493157937993
 30
0.0
 11
100.9614262082723
 21
34.49741715810569
 31
0.0
  0
CIRCLE
  5
7DF
330
2
100
AcDbEntity
  8
0
100
AcDbCircle
 10
97.60266899763159
 20
37.85617436874281
 30
0.0
 40
2.75
  0
DIMENSION
  5
7E0
330
2
100
AcDbEntity
  8
0
100
AcDbDimension
  2
*D18
 10
26.96227370602271
 20
42.63385826311469
 30
0.0
 11
125.9754916450772
 21
117.9566652103684
 31
0.0
 70
   163
  1
<>%%P0.5
 71
     5
 42
94.00000000000586
  3
STANDARD
100
AcDbDiametricDimension
 15
101.7750268576847
 25
99.54652790590678
 35
0.0
 40
0.0
  0
DIMENSION
  5
7E1
330
2
100
AcDbEntity
  8
0
100
AcDbDimension
  2
*D19
 10
164.875131077486
 20
67.09019308451434
 30
0.0
 11
164.875131077486
 21
71.09019308451435
 31
0.0
 70
   160
  1
\A1;%%c<>{\H0.7x;\S+0^ -0.015;}(h7)
 71
     5
 42
8.0
  3
STANDARD
100
AcDbAlignedDimension
 13
211.9019629729337
 23
75.09019308451434
 33
0.0
 14
186.9019629729337
 24
67.09019308451434
 34
0.0
 50
90.0
100
AcDbRotatedDimension
  0
LINE
  5
806
330
2
100
AcDbEntity
  8
0
 62
     3
100
AcDbLine
 10
59.75342593446481
 20
16.1874907742972
 30
0.0
 11
63.05342593446408
 21
16.1874907742972
 31
0.0
  0
LINE
  5
807
330
2
100
AcDbEntity
  8
0
 62
     3
100
AcDbLine
 10
63.05342593446408
 20
16.1874907742972
 30
0.0
 11
63.05342593446408
 21
19.6874907742972
 31
0.0
  0
LINE
  5
808
330
2
100
AcDbEntity
  8
0
 62
     3
100
AcDbLine
 10
63.05342593446408
 20
19.6874907742972
 30
0.0
 11
59.75342593446481
 21
19.6874907742972
 31
0.0
  0
LINE
  5
809
330
2
100
AcDbEntity
  8
0
 62
     3
100
AcDbLine
 10
59.75342593446481
 20
19.6874907742972
 30
0.0
 11
59.75342593446481
 21
16.1874907742972
 31
0.0
  0
DIMENSION
  5
81B
102
{ACAD_XDICTIONARY
360
81C
102
}
102
{ACAD_REACTORS
330
81D
102
}
330
2
100
AcDbEntity
  8
0
100
AcDbDimension
  2
*D28
 10
95.36865028187099
 20
168.9716500198124
 30
0.0
 11
64.36865028187099
 21
168.9716500198124
 31
0.0
 70
   160
 71
     5
 42
62.0
  3
STANDARD
100
AcDbAlignedDimension
 13
33.368650281871
 23
119.790193084515
 33
0.0
 14
95.36865028187099
 24
119.790193084515
 34
0.0
100
AcDbRotatedDimension
  0
LINE
  5
81E
330
2
100
AcDbEntity
  8
0
 62
   123
100
AcDbLine
 10
114.6945317319587
 20
18.3609051905737
 30
0.0
 11
143.3340273151103
 21
18.3609051905737
 31
0.0
  0
DIMENSION
  5
830
330
2
100
AcDbEntity
  8
0
100
AcDbDimension
  2
*D13
 10
299.4019629729337
 20
166.1457965891973
 30
0.0
 11
261.4019629729342
 21
166.1457965891973
 31
0.0
 70
   160
  1
75
 71
     5
 42
75.99999999999909
  3
STANDARD
100
AcDbAlignedDimension
 13
223.4019629729346
 23
119.5901930845107
 33
0.0
 14
299.4019629729337
 24
150.7901930845078
 34
0.0
100
AcDbRotatedDimension
  0
LINE
  5
831
330
2
100
AcDbEntity
  8
0
  6
CENTER
 62
     1
 48
0.6
100
AcDbLine
 10
333.1824239729359
 20
136.4901920845082
 30
0.0
 11
221.9733210198538
 21
136.4901920845082
 31
0.0
  0
DIMENSION
  5
832
330
2
100
AcDbEntity
  8
0
100
AcDbDimension
  2
*D14
 10
223.4019629729346
 20
166.1457965891973
 30
0.0
 11
221.1519629729342
 21
166.1457965891973
 31
0.0
 70
   160
  1
5.5
 71
     5
 42
4.500000000000908
  3
STANDARD
100
AcDbAlignedDimension
 13
218.9019629729338
 23
111.0901930845143
 33
0.0
 14
223.4019629729346
 24
119.5901930845107
 34
0.0
100
AcDbRotatedDimension
  0
DIMENSION
  5
833
330
2
100
AcDbEntity
  8
0
100
AcDbDimension
  2
*D15
 10
327.3989629729345
 20
166.1292255686861
 30
0.0
 11
313.3986299729332
 21
166.1292255686861
 31
0.0
 70
   160
  1
MAX. <>
 71
     5
 42
27.99700000000076
  3
STANDARD
100
AcDbAlignedDimension
 13
299.4019629729337
 23
150.7901930845078
 33
0.0
 14
327.3989629729345
 24
141.8401930846489
 34
0.0
100
AcDbRotatedDimension
  0
ARC
  5
834
330
2
100
AcDbEntity
  8
0
100
AcDbCircle
 10
225.3065575686833
 20
111.2901930845114
 30
0.0
 40
0.3000000000000114
100
AcDbArc
 50
191.5806191822869
 51
270.0
  0
LINE
  5
835
330
2
100
AcDbEntity
  8
0
100
AcDbLine
 10
225.0126646056852
 20
111.2299691166849
 30
0.0
 11
223.4019629729337
 21
119.0901930845107
 31
0.0
  0
ARC
  5
836
330
2
100
AcDbEntity
  8
0
100
AcDbCircle
 10
280.451962972933
 20
112.6901930845129
 30
0.0
 40
0.3000000000000016
100
AcDbArc
 50
90.0
 51
180.0
  0
ARC
  5
837
330
2
100
AcDbEntity
  8
0
100
AcDbCircle
 10
279.8519629729327
 20
111.2901930845114
 30
0.0
 40
0.3000000000000682
100
AcDbArc
 50
270.0
 51
0.0
  0
LINE
  5
838
330
2
100
AcDbEntity
  8
0
100
AcDbLine
 10
279.8519629729327
 20
110.9901930845121
 30
0.0
 11
225.3065575686833
 21
110.9901930845085
 31
0.0
  0
ARC
  5
839
330
2
100
AcDbEntity
  8
0
100
AcDbCircle
 10
297.9072044427594
 20
113.2901930845114
 30
0.0
 40
0.2999999999999742
100
AcDbArc
 50
270.0
 51
348.419380817713
  0
LINE
  5
83A
330
2
100
AcDbEntity
  8
0
100
AcDbLine
 10
297.9072044427594
 20
112.9901930845121
 30
0.0
 11
224.6519629729328
 21
112.9901930845121
 31
0.0
  0
LINE
  5
83B
330
2
100
AcDbEntity
  8
0
100
AcDbLine
 10
280.1519629729319
 20
112.6901930845129
 30
0.0
 11
280.1519629729319
 21
111.2901930845114
 31
0.0
  0
LINE
  5
83C
330
2
100
AcDbEntity
  8
0
100
AcDbLine
 10
299.4019629729337
 20
119.0901930845107
 30
0.0
 11
223.4019629729337
 21
119.0901930845107
 31
0.0
  0
LINE
  5
83D
330
2
100
AcDbEntity
  8
0
100
AcDbLine
 10
299.4019629729337
 20
119.0901930845107
 30
0.0
 11
298.2010974057567
 21
113.2299691166849
 31
0.0
  0
LINE
  5
83E
330
2
100
AcDbEntity
  8
0
100
AcDbLine
 10
299.4019629729337
 20
119.5901930845107
 30
0.0
 11
299.4019629729337
 21
150.7901930845078
 31
0.0
  0
LINE
  5
83F
330
2
100
AcDbEntity
  8
0
100
AcDbLine
 10
223.9019629729347
 20
119.0901930845107
 30
0.0
 11
223.9019629729347
 21
119.5901930845107
 31
0.0
  0
LINE
  5
840
330
2
100
AcDbEntity
  8
0
100
AcDbLine
 10
299.4019629729337
 20
119.5901930845107
 30
0.0
 11
223.4019629729346
 21
119.5901930845107
 31
0.0
  0
ARC
  5
841
330
2
100
AcDbEntity
  8
0
100
AcDbCircle
 10
228.2330866591311
 20
151.0901930845107
 30
0.0
 40
3.000000000000011
100
AcDbArc
 50
90.0
 51
176.6822188317269
  0
LINE
  5
842
330
2
100
AcDbEntity
  8
0
100
AcDbLine
 10
223.4019629729346
 20
119.5901930845107
 30
0.0
 11
225.2381149467629
 21
151.2638146330541
 31
0.0
  0
LINE
  5
843
330
2
100
AcDbEntity
  8
0
100
AcDbLine
 10
298.9019629729347
 20
119.5901930845107
 30
0.0
 11
298.9019629729347
 21
119.0901930845107
 31
0.0
  0
LINE
  5
844
330
2
100
AcDbEntity
  8
0
100
AcDbLine
 10
327.3989629729345
 20
130.3401930846453
 30
0.0
 11
327.3989629729345
 21
141.8401930846489
 31
0.0
  0
LINE
  5
845
330
2
100
AcDbEntity
  8
0
100
AcDbLine
 10
303.8359252370865
 20
122.8401930846489
 30
0.0
 11
303.8359252370865
 21
149.3401930846489
 31
0.0
  0
LINE
  5
846
330
2
100
AcDbEntity
  8
0
100
AcDbLine
 10
299.4019629729347
 20
122.8401930846489
 30
0.0
 11
303.8359252370865
 21
122.8401930846489
 31
0.0
  0
LINE
  5
847
330
2
100
AcDbEntity
  8
0
100
AcDbLine
 10
299.4019629729347
 20
149.3401930846489
 30
0.0
 11
303.8359252370865
 21
149.3401930846489
 31
0.0
  0
LINE
  5
848
330
2
100
AcDbEntity
  8
0
100
AcDbLine
 10
303.8359252370865
 20
143.5901930846489
 30
0.0
 11
299.4019629729347
 21
143.5901930846489
 31
0.0
  0
LINE
  5
849
330
2
100
AcDbEntity
  8
0
100
AcDbLine
 10
303.8359252370865
 20
128.5901930846489
 30
0.0
 11
299.4019629729347
 21
128.5901930846489
 31
0.0
  0
LINE
  5
84A
330
2
100
AcDbEntity
  8
0
100
AcDbLine
 10
303.8359252370865
 20
142.0901930846489
 30
0.0
 11
299.4019629729347
 21
142.0901930846489
 31
0.0
  0
LINE
  5
84B
330
2
100
AcDbEntity
  8
0
100
AcDbLine
 10
303.8359252370865
 20
130.0901930846489
 30
0.0
 11
299.4019629729347
 21
130.0901930846489
 31
0.0
  0
LINE
  5
84C
330
2
100
AcDbEntity
  8
0
100
AcDbLine
 10
309.3989629729345
 20
146.2401930846468
 30
0.0
 11
303.8359252370865
 21
146.2401930846468
 31
0.0
  0
LINE
  5
84D
330
2
100
AcDbEntity
  8
0
100
AcDbLine
 10
309.3989629729345
 20
125.9401930846475
 30
0.0
 11
303.8359252370865
 21
125.9401930846475
 31
0.0
  0
LINE
  5
84E
330
2
100
AcDbEntity
  8
0
100
AcDbLine
 10
309.3989629729345
 20
122.8401930846489
 30
0.0
 11
309.3989629729345
 21
149.3401930846453
 31
0.0
  0
LINE
  5
84F
330
2
100
AcDbEntity
  8
0
100
AcDbLine
 10
309.3989629729345
 20
145.3401930846489
 30
0.0
 11
303.8359252370865
 21
145.3401930846489
 31
0.0
  0
LINE
  5
850
330
2
100
AcDbEntity
  8
0
100
AcDbLine
 10
309.3989629729345
 20
126.8401930846453
 30
0.0
 11
303.8359252370865
 21
126.8401930846489
 31
0.0
  0
LINE
  5
851
330
2
100
AcDbEntity
  8
0
100
AcDbLine
 10
319.8989629729345
 20
124.3401930846489
 30
0.0
 11
319.8989629729345
 21
147.8401930846453
 31
0.0
  0
LINE
  5
852
330
2
100
AcDbEntity
  8
0
100
AcDbLine
 10
321.3989629729345
 20
147.8401930846453
 30
0.0
 11
319.8989629729345
 21
147.8401930846453
 31
0.0
  0
LINE
  5
853
330
2
100
AcDbEntity
  8
0
100
AcDbLine
 10
321.3989629729345
 20
124.3401930846489
 30
0.0
 11
319.8989629729345
 21
124.3401930846489
 31
0.0
  0
LINE
  5
854
330
2
100
AcDbEntity
  8
0
100
AcDbLine
 10
318.3989629729345
 20
149.3401930846453
 30
0.0
 11
309.3989629729345
 21
149.3401930846453
 31
0.0
  0
LINE
  5
855
330
2
100
AcDbEntity
  8
0
100
AcDbLine
 10
318.3989629729327
 20
122.8401930846453
 30
0.0
 11
309.3989629729345
 21
122.8401930846489
 31
0.0
  0
ARC
  5
856
330
2
100
AcDbEntity
  8
0
100
AcDbCircle
 10
321.3989629729345
 20
141.8401930846489
 30
0.0
 40
6.0
100
AcDbArc
 50
0.0
 51
90.0
  0
ARC
  5
857
330
2
100
AcDbEntity
  8
0
100
AcDbCircle
 10
321.3989629729345
 20
130.3401930846453
 30
0.0
 40
6.0
100
AcDbArc
 50
270.0
 51
0.0
  0
LINE
  5
858
330
2
100
AcDbEntity
  8
0
100
AcDbLine
 10
318.3989629729345
 20
149.3401930846453
 30
0.0
 11
319.8989629729345
 21
147.8401930846453
 31
0.0
  0
LINE
  5
859
330
2
100
AcDbEntity
  8
0
100
AcDbLine
 10
318.3989629729345
 20
122.8401930846489
 30
0.0
 11
319.8989629729345
 21
124.3401930846489
 31
0.0
  0
LINE
  5
85A
330
2
100
AcDbEntity
  8
0
100
AcDbLine
 10
309.3989629729345
 20
140.5901930846489
 30
0.0
 11
318.9290032225831
 21
140.5901930846453
 31
0.0
  0
LINE
  5
85B
330
2
100
AcDbEntity
  8
0
100
AcDbLine
 10
309.3989629729345
 20
131.5901930846489
 30
0.0
 11
318.9290032225831
 21
131.5901930846489
 31
0.0
  0
LINE
  5
85C
330
2
100
AcDbEntity
  8
0
100
AcDbLine
 10
309.3989629729345
 20
141.5901930846489
 30
0.0
 11
318.3989629729353
 21
141.5901930846489
 31
0.0
  0
LINE
  5
85D
330
2
100
AcDbEntity
  8
0
100
AcDbLine
 10
309.3989629729345
 20
130.5901930846489
 30
0.0
 11
318.3989629729336
 21
130.5901930846489
 31
0.0
  0
LINE
  5
85E
330
2
100
AcDbEntity
  8
0
100
AcDbLine
 10
309.3989629729345
 20
143.5901930846489
 30
0.0
 11
318.3989629729345
 21
143.5901930846453
 31
0.0
  0
LINE
  5
85F
330
2
100
AcDbEntity
  8
0
100
AcDbLine
 10
309.3989629729345
 20
128.5901930846489
 30
0.0
 11
318.3989629729345
 21
128.5901930846489
 31
0.0
  0
LINE
  5
860
330
2
100
AcDbEntity
  8
0
100
AcDbLine
 10
319.3989629729345
 20
148.3401930846453
 30
0.0
 11
309.3989629729345
 21
148.3401930846453
 31
0.0
  0
LINE
  5
861
330
2
100
AcDbEntity
  8
0
100
AcDbLine
 10
319.3989629729327
 20
123.8401930846453
 30
0.0
 11
309.3989629729345
 21
123.8401930846489
 31
0.0
  0
LINE
  5
862
330
2
100
AcDbEntity
  8
0
100
AcDbLine
 10
318.3989629729345
 20
128.5901930846489
 30
0.0
 11
318.3989629729345
 21
130.5901930846489
 31
0.0
  0
LINE
  5
863
330
2
100
AcDbEntity
  8
0
100
AcDbLine
 10
318.3989629729345
 20
141.5901930846489
 30
0.0
 11
318.3989629729345
 21
143.5901930846453
 31
0.0
  0
ARC
  5
864
330
2
100
AcDbEntity
  8
0
100
AcDbCircle
 10
309.0656296396015
 20
136.0901930846452
 30
0.0
 40
10.83333333333353
100
AcDbArc
 50
329.4897625938952
 51
30.51023740610481
  0
ARC
  5
865
330
2
100
AcDbEntity
  8
0
100
AcDbCircle
 10
307.1560951233646
 20
149.9479699727276
 30
0.0
 40
12.91601348874811
100
AcDbArc
 50
330.5120912078103
 51
350.6078391358952
  0
ARC
  5
866
330
2
100
AcDbEntity
  8
0
100
AcDbCircle
 10
307.3350321516524
 20
122.2955704418459
 30
0.0
 40
12.72921205076664
100
AcDbArc
 50
9.243143188860836
 51
29.63692646751638
  0
LINE
  5
867
330
2
100
AcDbEntity
  8
0
100
AcDbLine
 10
309.3989629729345
 20
144.5901930846489
 30
0.0
 11
318.9084409002331
 21
144.5901930846453
 31
0.0
  0
LINE
  5
868
330
2
100
AcDbEntity
  8
0
100
AcDbLine
 10
309.3989629729345
 20
127.5901930846489
 30
0.0
 11
318.9108608694474
 21
127.5901930846489
 31
0.0
  0
LINE
  5
869
330
2
100
AcDbEntity
  8
0
100
AcDbLine
 10
297.5613898385437
 20
151.3400796527535
 30
0.0
 11
299.4019629729347
 21
119.5901930845107
 31
0.0
  0
LWPOLYLINE
  5
86A
330
2
100
AcDbEntity
  8
0
100
AcDbPolyline
 90
        6
 70
     0
 43
0.0
 10
228.2330866591311
 20
154.0901930845107
 10
294.5708392867382
 20
154.0901930845107
 42
-0.3877945824094627
 10
297.5584168732212
 20
151.3629203572386
 42
0.3877945824097244
 10
297.8571746318595
 20
151.0901930845107
 10
299.1019629729345
 20
151.0901930845107
 42
-0.4142135623730951
 10
299.4019629729356
 20
150.7901930845078
  0
ENDSEC
  0
SECTION
  2
OBJECTS
  0
DICTIONARY
  5
9
330
0
100
AcDbDictionary
281
     1
  3
ACAD_COLOR
350
54C
  3
ACAD_GROUP
350
98
  3
ACAD_LAYOUT
350
D
  3
ACAD_MATERIAL
350
522
  3
ACAD_MLEADERSTYLE
350
561
  3
ACAD_MLINESTYLE
350
99
  3
ACAD_PLOTSETTINGS
350
9A
  3
ACAD_PLOTSTYLENAME
350
8
  3
ACAD_SCALELIST
350
54F
  3
ACAD_TABLESTYLE
350
54D
  3
ACAD_VISUALSTYLE
350
53B
  3
ACDB_RECOMPOSE_DATA
350
BB5
  3
ACDBVARIABLEDICTIONARY
350
3AB
  3
AEC_PROPERTY_SET_DEFS
350
756
  3
DWGPROPS
350
BDF
  0
DICTIONARY
  5
15
330
14
100
AcDbDictionary
280
     1
281
     1
  3
ACAD_LAYERSTATES
360
89
  0
DICTIONARY
  5
B9F
330
6
100
AcDbDictionary
280
     1
281
     1
  3
ADSK_XREC_LAYER_RECONCILED
360
BA0
  0
DICTIONARY
  5
3
330
2
100
AcDbDictionary
280
     1
281
     1
  3
ACAD_LAYOUTSELFREF
360
51C
  0
DICTIONARY
  5
F
330
E
100
AcDbDictionary
280
     1
281
     1
  3
ACAD_LAYOUTSELFREF
360
51D
  0
DICTIONARY
  5
BE0
330
4F7
100
AcDbDictionary
280
     1
281
     1
  3
ACAD_MTEXT_RT
360
BE1
  0
DICTIONARY
  5
BE7
330
A69
100
AcDbDictionary
280
     1
281
     1
  3
ACAD_MTEXT_RT
360
BE8
  0
DICTIONARY
  5
BE9
330
B5B
100
AcDbDictionary
280
     1
281
     1
  3
ACAD_MTEXT_RT
360
BEA
  0
DICTIONARY
  5
18E
330
18D
100
AcDbDictionary
280
     1
281
     1
  3
ACAD_DIMASSOC
360
18F
  0
DICTIONARY
  5
1B3
330
1B2
100
AcDbDictionary
280
     1
281
     1
  3
ACAD_DIMASSOC
360
1B4
  0
DICTIONARY
  5
1CB
330
1CA
100
AcDbDictionary
280
     1
281
     1
  3
ACAD_DIMASSOC
360
1CC
  0
DICTIONARY
  5
1E0
330
1DF
100
AcDbDictionary
280
     1
281
     1
  3
ACAD_DIMASSOC
360
1E1
  0
DICTIONARY
  5
216
330
215
100
AcDbDictionary
280
     1
281
     1
  3
ACAD_DIMASSOC
360
217
  0
DICTIONARY
  5
225
330
224
100
AcDbDictionary
280
     1
281
     1
  3
ACAD_DIMASSOC
360
226
  0
DICTIONARY
  5
237
330
236
100
AcDbDictionary
280
     1
281
     1
  3
ACAD_DIMASSOC
360
238
  0
DICTIONARY
  5
2D5
330
2D4
100
AcDbDictionary
280
     1
281
     1
  3
ACAD_DIMASSOC
360
2D6
  0
DICTIONARY
  5
327
330
326
100
AcDbDictionary
280
     1
281
     1
  3
ACAD_DIMASSOC
360
328
  0
DICTIONARY
  5
33A
330
339
100
AcDbDictionary
280
     1
281
     1
  3
ACAD_DIMASSOC
360
33B
  0
DICTIONARY
  5
34D
330
34C
100
AcDbDictionary
280
     1
281
     1
  3
ACAD_DIMASSOC
360
34E
  0
DICTIONARY
  5
79F
330
79E
100
AcDbDictionary
280
     1
281
     1
  3
ACAD_DIMASSOC
360
7A0
  0
DICTIONARY
  5
7A2
330
7A1
100
AcDbDictionary
280
     1
281
     1
  3
ACAD_DIMASSOC
360
7A3
  0
DICTIONARY
  5
7A5
330
7A4
100
AcDbDictionary
280
     1
281
     1
  3
ACAD_DIMASSOC
360
7A6
  0
DICTIONARY
  5
7A8
330
7A7
100
AcDbDictionary
280
     1
281
     1
  3
ACAD_DIMASSOC
360
7A9
  0
DICTIONARY
  5
7BD
330
7BC
100
AcDbDictionary
280
     1
281
     1
  3
ACAD_DIMASSOC
360
7BE
  0
DICTIONARY
  5
7C0
330
7BF
100
AcDbDictionary
280
     1
281
     1
  3
ACAD_DIMASSOC
360
7C1
  0
DICTIONARY
  5
7C3
330
7C2
100
AcDbDictionary
280
     1
281
     1
  3
ACAD_DIMASSOC
360
7C4
  0
DICTIONARY
  5
7C7
330
7C6
100
AcDbDictionary
280
     1
281
     1
  3
ACAD_DIMASSOC
360
7C8
  0
DICTIONARY
  5
81C
330
81B
100
AcDbDictionary
280
     1
281
     1
  3
ACAD_DIMASSOC
360
81D
  0
DICTIONARY
  5
54C
102
{ACAD_REACTORS
330
9
102
}
330
9
100
AcDbDictionary
281
     1
  0
DICTIONARY
  5
98
102
{ACAD_REACTORS
330
9
102
}
330
9
100
AcDbDictionary
281
     1
  0
DICTIONARY
  5
D
102
{ACAD_REACTORS
330
9
102
}
330
9
100
AcDbDictionary
281
     1
  3
Model
350
564
  3
배치1
350
565
  0
DICTIONARY
  5
522
102
{ACAD_REACTORS
330
9
102
}
330
9
100
AcDbDictionary
281
     1
  3
ByBlock
350
52B
  3
ByLayer
350
523
  3
Global
350
533
  0
DICTIONARY
  5
561
102
{ACAD_REACTORS
330
9
102
}
330
9
100
AcDbDictionary
281
     1
  3
Standard
350
562
  0
DICTIONARY
  5
99
102
{ACAD_REACTORS
330
9
102
}
330
9
100
AcDbDictionary
281
     1
  3
STANDARD
350
9B
  0
DICTIONARY
  5
9A
102
{ACAD_REACTORS
330
9
102
}
330
9
100
AcDbDictionary
281
     1
  0
ACDBDICTIONARYWDFLT
  5
8
102
{ACAD_REACTORS
330
9
102
}
330
9
100
AcDbDictionary
281
     1
  3
Normal
350
7
100
AcDbDictionaryWithDefault
340
7
  0
DICTIONARY
  5
54F
102
{ACAD_REACTORS
330
9
102
}
330
9
100
AcDbDictionary
281
     1
  3
A0
350
550
  3
A1
350
551
  3
A2
350
552
  3
A3
350
553
  3
A4
350
554
  3
A5
350
555
  3
A6
350
556
  3
A7
350
557
  3
A8
350
558
  3
A9
350
559
  3
B0
350
55A
  3
B1
350
55B
  3
B2
350
55C
  3
B3
350
55D
  3
B4
350
55E
  3
B5
350
55F
  3
B6
350
560
  0
DICTIONARY
  5
54D
102
{ACAD_REACTORS
330
9
102
}
330
9
100
AcDbDictionary
281
     1
  3
Standard
350
54E
  0
DICTIONARY
  5
53B
102
{ACAD_REACTORS
330
9
102
}
330
9
100
AcDbDictionary
281
     1
  3
2dWireframe
350
541
  3
3D Hidden
350
543
  3
3dWireframe
350
542
  3
Basic
350
540
  3
Brighten
350
547
  3
ColorChange
350
54B
  3
Conceptual
350
544
  3
Dim
350
546
  3
Facepattern
350
54A
  3
Flat
350
53C
  3
FlatWithEdges
350
53D
  3
Gouraud
350
53E
  3
GouraudWithEdges
350
53F
  3
Linepattern
350
549
  3
Realistic
350
545
  3
Thicken
350
548
  0
XRECORD
  5
BB5
102
{ACAD_REACTORS
330
9
102
}
330
9
100
AcDbXrecord
280
     1
 90
        1
330
54E
  0
DICTIONARY
  5
3AB
102
{ACAD_REACTORS
330
9
102
}
330
9
100
AcDbDictionary
281
     1
  3
CANNOSCALE
350
AA0
  3
CMLEADERSTYLE
350
A9F
  3
CTABLESTYLE
350
A9E
  3
DIMASSOC
350
3AD
  3
HIDETEXT
350
3AC
  3
INDEXCTL
350
AA2
  3
SORTENTS
350
AA1
  0
DICTIONARY
  5
756
102
{ACAD_REACTORS
330
9
102
}
330
9
100
AcDbDictionary
281
     1
  0
XRECORD
  5
BDF
102
{ACAD_REACTORS
330
9
102
}
330
9
100
AcDbXrecord
280
     1
  1
DWGPROPS COOKIE
  2

  3

  4

  6

  7

  8
kkk
  9

300
=
301
=
302
=
303
=
304
=
305
=
306
=
307
=
308
=
309
=
 40
11.14075122685185
 41
2452839.586179271
 42
2457092.525078403
  1

 90
        0
  0
DICTIONARY
  5
89
102
{ACAD_REACTORS
330
15
102
}
330
15
100
AcDbDictionary
281
     1
  0
XRECORD
  5
BA0
102
{ACAD_REACTORS
330
B9F
102
}
330
B9F
100
AcDbXrecord
280
     1
290
     1
  0
XRECORD
  5
51C
102
{ACAD_REACTORS
330
3
102
}
330
3
100
AcDbXrecord
280
     1
340
2
  0
XRECORD
  5
51D
102
{ACAD_REACTORS
330
F
102
}
330
F
100
AcDbXrecord
280
     1
340
E
  0
XRECORD
  5
BE1
102
{ACAD_REACTORS
330
BE0
102
}
330
BE0
100
AcDbXrecord
280
     1
 40
10153.0
  1
\A1;\U+220594%%P0.5
  0
XRECORD
  5
BE8
102
{ACAD_REACTORS
330
BE7
102
}
330
BE7
100
AcDbXrecord
280
     1
 40
10153.0
  1
\A1;\U+220594%%P0.5
  0
XRECORD
  5
BEA
102
{ACAD_REACTORS
330
BE9
102
}
330
BE9
100
AcDbXrecord
280
     1
 40
10153.0
  1
\A1;\U+220594%%P0.5
  0
DIMASSOC
  5
18F
102
{ACAD_REACTORS
330
18E
102
}
330
18E
100
AcDbDimAssoc
330
18D
 90
        3
 70
     0
 71
     0
  1
AcDbOsnapPointRef
 72
    13
331
2F8
 73
     2
 91
        0
 40
0.0
 10
252.4214269719832
 20
326.9595606198181
 30
0.0
 75
     0
  1
AcDbOsnapPointRef
 72
    13
331
3AA
 73
     2
 91
        0
 40
0.0
 10
280.4214269719832
 20
318.9595606198181
 30
0.0
 75
     0
  0
DIMASSOC
  5
1B4
102
{ACAD_REACTORS
330
1B3
102
}
330
1B3
100
AcDbDimAssoc
330
1B2
 90
        3
 70
     0
 71
     0
  1
AcDbOsnapPointRef
 72
     1
331
1C6
 73
     2
 91
        0
 40
1.0
 10
249.9247599719838
 20
286.4595616198166
 30
0.0
 75
     0
  1
AcDbOsnapPointRef
 72
    13
331
235
 73
     2
 91
        0
 40
0.0
 10
249.9247599719838
 20
207.4595616198157
 30
0.0
 75
     0
  0
DIMASSOC
  5
1CC
102
{ACAD_REACTORS
330
1CB
102
}
330
1CB
100
AcDbDimAssoc
330
1CA
 90
        3
 70
     0
 71
     0
  1
AcDbOsnapPointRef
 72
     1
331
1C9
 73
     2
 91
        0
 40
1.0
 10
169.9247599719837
 20
210.4595616198166
 30
0.0
 75
     0
  1
AcDbOsnapPointRef
 72
    13
331
1C9
 73
     2
 91
        0
 40
0.0
 10
169.9247599719837
 20
283.4595616198166
 30
0.0
 75
     0
  0
DIMASSOC
  5
1E1
102
{ACAD_REACTORS
330
1E0
102
}
330
1E0
100
AcDbDimAssoc
330
1DF
 90
        2
 70
     0
 71
     0
  1
AcDbOsnapPointRef
 72
     3
331
389
 73
     2
 91
        0
 40
0.0
 10
64.36865028187094
 20
246.9595616198166
 30
0.0
 75
     0
  0
DIMASSOC
  5
217
102
{ACAD_REACTORS
330
216
102
}
330
216
100
AcDbDimAssoc
330
215
 90
        2
 70
     0
 71
     0
  1
AcDbOsnapPointRef
 72
     1
331
213
 73
     2
 91
        0
 40
1.0
 10
178.9247599719837
 20
208.3608242782861
 30
0.0
 75
     0
  0
DIMASSOC
  5
226
102
{ACAD_REACTORS
330
225
102
}
330
225
100
AcDbDimAssoc
330
224
 90
        3
 70
     0
 71
     0
  1
AcDbOsnapPointRef
 72
     1
331
212
 73
     2
 91
        0
 40
1.0
 10
169.9247599719837
 20
210.4595616198166
 30
0.0
 75
     0
  1
AcDbOsnapPointRef
 72
    13
331
214
 73
     2
 91
        0
 40
0.0
 10
171.9247599719837
 20
206.9595616198148
 30
0.0
 75
     0
  0
DIMASSOC
  5
238
102
{ACAD_REACTORS
330
237
102
}
330
237
100
AcDbDimAssoc
330
236
 90
        3
 70
     0
 71
     0
  1
AcDbOsnapPointRef
 72
    13
331
214
 73
     2
 91
        0
 40
0.0
 10
171.9247599719837
 20
206.9595616198148
 30
0.0
 75
     0
  1
AcDbOsnapPointRef
 72
    13
331
211
 73
     2
 91
        0
 40
0.0
 10
256.9247599719838
 20
209.9595616198157
 30
0.0
 75
     0
  0
DIMASSOC
  5
2D6
102
{ACAD_REACTORS
330
2D5
102
}
330
2D5
100
AcDbDimAssoc
330
2D4
 90
        3
 70
     0
 71
     0
  1
AcDbOsnapPointRef
 72
     6
331
1F3
 73
     2
 91
        0
 40
0.9983091787439102
 10
158.4247599719837
 20
243.8650616198151
 30
0.0
332
1FA
 74
     2
 92
        0
 75
     0
  1
AcDbOsnapPointRef
 72
    13
331
214
 73
     2
 91
        0
 40
0.0
 10
171.9247599719837
 20
206.9595616198148
 30
0.0
 75
     0
  0
DIMASSOC
  5
328
102
{ACAD_REACTORS
330
327
102
}
330
327
100
AcDbDimAssoc
330
326
 90
        2
 70
     0
 71
     0
  1
AcDbOsnapPointRef
 72
     1
331
348
 73
     2
 91
        0
 40
1.0
 10
177.4247599719838
 20
295.6595606198188
 30
0.0
 75
     0
  0
DIMASSOC
  5
33B
102
{ACAD_REACTORS
330
33A
102
}
330
33A
100
AcDbDimAssoc
330
339
 90
        3
 70
     0
 71
     0
  1
AcDbOsnapPointRef
 72
     1
331
348
 73
     2
 91
        0
 40
1.0
 10
177.4247599719838
 20
295.6595606198188
 30
0.0
 75
     0
  1
AcDbOsnapPointRef
 72
    13
331
2FB
 73
     2
 91
        0
 40
0.0
 10
252.4214269719832
 20
326.9595606198181
 30
0.0
 75
     0
  0
DIMASSOC
  5
34E
102
{ACAD_REACTORS
330
34D
102
}
330
34D
100
AcDbDimAssoc
330
34C
 90
        3
 70
     0
 71
     0
  1
AcDbOsnapPointRef
 72
     1
331
36E
 73
     2
 91
        0
 40
1.0
 10
33.36865028187094
 20
294.9595616198166
 30
0.0
 75
     0
  1
AcDbOsnapPointRef
 72
     1
331
377
 73
     2
 91
        0
 40
1.0
 10
95.36865028187094
 20
294.9595616198166
 30
0.0
 75
     0
  0
DIMASSOC
  5
7A0
102
{ACAD_REACTORS
330
79F
102
}
330
79F
100
AcDbDimAssoc
330
79E
 90
        3
 70
     0
 71
     0
  1
AcDbOsnapPointRef
 72
    13
331
7B3
 73
     2
 91
        0
 40
0.0
 10
10833.44323749825
 20
-2699.127944497728
 30
0.0
 75
     0
  1
AcDbOsnapPointRef
 72
    13
331
7CC
 73
     2
 91
        0
 40
0.0
 10
10918.44323749825
 20
-2696.127944497727
 30
0.0
 75
     0
  0
DIMASSOC
  5
7A3
102
{ACAD_REACTORS
330
7A2
102
}
330
7A2
100
AcDbDimAssoc
330
7A1
 90
        3
 70
     0
 71
     0
  1
AcDbOsnapPointRef
 72
     1
331
7AA
 73
     2
 91
        0
 40
1.0
 10
10801.44323749826
 20
-2663.127944497726
 30
0.0
 75
     0
  1
AcDbOsnapPointRef
 72
    13
331
7B3
 73
     2
 91
        0
 40
0.0
 10
10833.44323749825
 20
-2699.127944497728
 30
0.0
 75
     0
  0
DIMASSOC
  5
7A6
102
{ACAD_REACTORS
330
7A5
102
}
330
7A5
100
AcDbDimAssoc
330
7A4
 90
        3
 70
     0
 71
     0
  1
AcDbOsnapPointRef
 72
    13
331
7AC
 73
     2
 91
        0
 40
0.0
 10
10801.44323749826
 20
-2656.127944497726
 30
0.0
 75
     0
  1
AcDbOsnapPointRef
 72
     1
331
7AB
 73
     2
 91
        0
 40
1.0
 10
10826.44323749826
 20
-2655.127944497726
 30
0.0
 75
     0
  0
DIMASSOC
  5
7A9
102
{ACAD_REACTORS
330
7A8
102
}
330
7A8
100
AcDbDimAssoc
330
7A7
 90
        3
 70
     0
 71
     0
  1
AcDbOsnapPointRef
 72
     1
331
7AA
 73
     2
 91
        0
 40
1.0
 10
10801.44323749826
 20
-2663.127944497726
 30
0.0
 75
     0
  1
AcDbOsnapPointRef
 72
    13
331
7AC
 73
     2
 91
        0
 40
0.0
 10
10801.44323749826
 20
-2656.127944497726
 30
0.0
 75
     0
  0
DIMASSOC
  5
7BE
102
{ACAD_REACTORS
330
7BD
102
}
330
7BD
100
AcDbDimAssoc
330
7BC
 90
        3
 70
     0
 71
     0
  1
AcDbOsnapPointRef
 72
     1
331
7AF
 73
     2
 91
        0
 40
1.0
 10
10831.44323749825
 20
-2695.627944497726
 30
0.0
 75
     0
  1
AcDbOsnapPointRef
 72
    13
331
7AF
 73
     2
 91
        0
 40
0.0
 10
10831.44323749825
 20
-2622.627944497726
 30
0.0
 75
     0
  0
DIMASSOC
  5
7C1
102
{ACAD_REACTORS
330
7C0
102
}
330
7C0
100
AcDbDimAssoc
330
7BF
 90
        2
 70
     0
 71
     0
  1
AcDbOsnapPointRef
 72
     1
331
7B4
 73
     2
 91
        0
 40
1.0
 10
10840.44323749826
 20
-2697.726681839256
 30
0.0
 75
     0
  0
DIMASSOC
  5
7C4
102
{ACAD_REACTORS
330
7C3
102
}
330
7C3
100
AcDbDimAssoc
330
7C2
 90
        3
 70
     0
 71
     0
  1
AcDbOsnapPointRef
 72
     1
331
7B6
 73
     2
 91
        0
 40
1.0
 10
10831.44323749825
 20
-2695.627944497726
 30
0.0
 75
     0
  1
AcDbOsnapPointRef
 72
    13
331
7B3
 73
     2
 91
        0
 40
0.0
 10
10833.44323749825
 20
-2699.127944497728
 30
0.0
 75
     0
  0
DIMASSOC
  5
7C8
102
{ACAD_REACTORS
330
7C7
102
}
330
7C7
100
AcDbDimAssoc
330
7C6
 90
        3
 70
     0
 71
     0
  1
AcDbOsnapPointRef
 72
     1
331
7C9
 73
     2
 91
        0
 40
1.0
 10
10911.44323749825
 20
-2619.627944497727
 30
0.0
 75
     0
  1
AcDbOsnapPointRef
 72
    13
331
79C
 73
     2
 91
        0
 40
0.0
 10
10911.44323749825
 20
-2698.627944497726
 30
0.0
 75
     0
  0
DIMASSOC
  5
81D
102
{ACAD_REACTORS
330
81C
102
}
330
81C
100
AcDbDimAssoc
330
81B
 90
        3
 70
     0
 71
     0
  1
AcDbOsnapPointRef
 72
    13
331
78A
 73
     2
 91
        0
 40
0.0
 10
0.0
 20
0.0
 30
2.000000000000000E+50
 75
     0
  1
AcDbOsnapPointRef
 72
    13
331
77F
 73
     2
 91
        0
 40
0.0
 10
0.0
 20
0.0
 30
2.000000000000000E+50
 75
     0
  0
LAYOUT
  5
564
102
{ACAD_XDICTIONARY
360
BE3
102
}
102
{ACAD_REACTORS
330
D
102
}
330
D
100
AcDbPlotSettings
  1

  2
RICOH Aficio 2022 PCL 6 (2 복사)
  4

  6

 40
0.0
 41
0.0
 42
0.0
 43
0.0
 44
0.0
 45
0.0
 46
0.0
 47
0.0
 48
0.0
 49
0.0
140
0.0
141
0.0
142
1.0
143
1.0
 70
  1712
 72
     0
 73
     0
 74
     0
  7

 75
     0
147
1.0
148
0.0
149
0.0
100
AcDbLayout
  1
Model
 70
     1
 71
     0
 10
0.0
 20
0.0
 11
12.0
 21
9.0
 12
0.0
 22
0.0
 32
0.0
 14
0.0
 24
0.0
 34
0.0
 15
0.0
 25
0.0
 35
0.0
146
0.0
 13
0.0
 23
0.0
 33
0.0
 16
1.0
 26
0.0
 36
0.0
 17
0.0
 27
1.0
 37
0.0
 76
     0
330
2
331
4FA
  0
LAYOUT
  5
565
102
{ACAD_XDICTIONARY
360
BE5
102
}
102
{ACAD_REACTORS
330
D
102
}
330
D
100
AcDbPlotSettings
  1

  2
RICOH Aficio 2022 PCL 6 (2 복사)
  4

  6

 40
0.0
 41
0.0
 42
0.0
 43
0.0
 44
0.0
 45
0.0
 46
0.0
 47
0.0
 48
0.0
 49
0.0
140
0.0
141
0.0
142
1.0
143
1.0
 70
   688
 72
     0
 73
     0
 74
     5
  7

 75
    16
147
1.0
148
0.0
149
0.0
100
AcDbLayout
  1
배치1
 70
     1
 71
     1
 10
0.0
 20
0.0
 11
12.0
 21
9.0
 12
0.0
 22
0.0
 32
0.0
 14
0.0
 24
0.0
 34
0.0
 15
0.0
 25
0.0
 35
0.0
146
0.0
 13
0.0
 23
0.0
 33
0.0
 16
1.0
 26
0.0
 36
0.0
 17
0.0
 27
1.0
 37
0.0
 76
     0
330
E
  0
MATERIAL
  5
52B
102
{ACAD_XDICTIONARY
360
52C
102
}
102
{ACAD_REACTORS
330
522
102
}
330
522
100
AcDbMaterial
  1
ByBlock
 72
     0
 43
0.0008202099737533
 43
0.0
 43
0.0
 43
0.0
 43
0.0
 43
0.0008202099737533
 43
0.0
 43
0.0
 43
0.0
 43
0.0
 43
1.0
 43
0.0
 43
0.0
 43
0.0
 43
0.0
 43
1.0
 77
     0
 47
0.0008202099737533
 47
0.0
 47
0.0
 47
0.0
 47
0.0
 47
0.0008202099737533
 47
0.0
 47
0.0
 47
0.0
 47
0.0
 47
1.0
 47
0.0
 47
0.0
 47
0.0
 47
0.0
 47
1.0
171
     0
 49
0.0008202099737533
 49
0.0
 49
0.0
 49
0.0
 49
0.0
 49
0.0008202099737533
 49
0.0
 49
0.0
 49
0.0
 49
0.0
 49
1.0
 49
0.0
 49
0.0
 49
0.0
 49
0.0
 49
1.0
175
     0
142
0.0008202099737533
142
0.0
142
0.0
142
0.0
142
0.0
142
0.0008202099737533
142
0.0
142
0.0
142
0.0
142
0.0
142
1.0
142
0.0
142
0.0
142
0.0
142
0.0
142
1.0
179
     0
144
0.0008202099737533
144
0.0
144
0.0
144
0.0
144
0.0
144
0.0008202099737533
144
0.0
144
0.0
144
0.0
144
0.0
144
1.0
144
0.0
144
0.0
144
0.0
144
0.0
144
1.0
147
0.0008202099737533
147
0.0
147
0.0
147
0.0
147
0.0
147
0.0008202099737533
147
0.0
147
0.0
147
0.0
147
0.0
147
1.0
147
0.0
147
0.0
147
0.0
147
0.0
147
1.0
  0
MATERIAL
  5
523
102
{ACAD_XDICTIONARY
360
524
102
}
102
{ACAD_REACTORS
330
522
102
}
330
522
100
AcDbMaterial
  1
ByLayer
 72
     0
 43
0.0008202099737533
 43
0.0
 43
0.0
 43
0.0
 43
0.0
 43
0.0008202099737533
 43
0.0
 43
0.0
 43
0.0
 43
0.0
 43
1.0
 43
0.0
 43
0.0
 43
0.0
 43
0.0
 43
1.0
 77
     0
 47
0.0008202099737533
 47
0.0
 47
0.0
 47
0.0
 47
0.0
 47
0.0008202099737533
 47
0.0
 47
0.0
 47
0.0
 47
0.0
 47
1.0
 47
0.0
 47
0.0
 47
0.0
 47
0.0
 47
1.0
171
     0
 49
0.0008202099737533
 49
0.0
 49
0.0
 49
0.0
 49
0.0
 49
0.0008202099737533
 49
0.0
 49
0.0
 49
0.0
 49
0.0
 49
1.0
 49
0.0
 49
0.0
 49
0.0
 49
0.0
 49
1.0
175
     0
142
0.0008202099737533
142
0.0
142
0.0
142
0.0
142
0.0
142
0.0008202099737533
142
0.0
142
0.0
142
0.0
142
0.0
142
1.0
142
0.0
142
0.0
142
0.0
142
0.0
142
1.0
179
     0
144
0.0008202099737533
144
0.0
144
0.0
144
0.0
144
0.0
144
0.0008202099737533
144
0.0
144
0.0
144
0.0
144
0.0
144
1.0
144
0.0
144
0.0
144
0.0
144
0.0
144
1.0
147
0.0008202099737533
147
0.0
147
0.0
147
0.0
147
0.0
147
0.0008202099737533
147
0.0
147
0.0
147
0.0
147
0.0
147
1.0
147
0.0
147
0.0
147
0.0
147
0.0
147
1.0
  0
MATERIAL
  5
533
102
{ACAD_XDICTIONARY
360
534
102
}
102
{ACAD_REACTORS
330
522
102
}
330
522
100
AcDbMaterial
  1
Global
 72
     0
 43
0.0008202099737533
 43
0.0
 43
0.0
 43
0.0
 43
0.0
 43
0.0008202099737533
 43
0.0
 43
0.0
 43
0.0
 43
0.0
 43
1.0
 43
0.0
 43
0.0
 43
0.0
 43
0.0
 43
1.0
 77
     0
 47
0.0008202099737533
 47
0.0
 47
0.0
 47
0.0
 47
0.0
 47
0.0008202099737533
 47
0.0
 47
0.0
 47
0.0
 47
0.0
 47
1.0
 47
0.0
 47
0.0
 47
0.0
 47
0.0
 47
1.0
171
     0
 49
0.0008202099737533
 49
0.0
 49
0.0
 49
0.0
 49
0.0
 49
0.0008202099737533
 49
0.0
 49
0.0
 49
0.0
 49
0.0
 49
1.0
 49
0.0
 49
0.0
 49
0.0
 49
0.0
 49
1.0
175
     0
142
0.0008202099737533
142
0.0
142
0.0
142
0.0
142
0.0
142
0.0008202099737533
142
0.0
142
0.0
142
0.0
142
0.0
142
1.0
142
0.0
142
0.0
142
0.0
142
0.0
142
1.0
179
     0
144
0.0008202099737533
144
0.0
144
0.0
144
0.0
144
0.0
144
0.0008202099737533
144
0.0
144
0.0
144
0.0
144
0.0
144
1.0
144
0.0
144
0.0
144
0.0
144
0.0
144
1.0
147
0.0008202099737533
147
0.0
147
0.0
147
0.0
147
0.0
147
0.0008202099737533
147
0.0
147
0.0
147
0.0
147
0.0
147
1.0
147
0.0
147
0.0
147
0.0
147
0.0
147
1.0
  0
MLEADERSTYLE
  5
562
102
{ACAD_REACTORS
330
561
102
}
330
561
100
AcDbMLeaderStyle
170
     2
171
     1
172
     0
 90
        2
 40
0.0
 41
0.0
173
     1
 91
-1056964608
340
8E
 92
       -2
290
     1
 42
2.0
291
     1
 43
0.36
  3
Standard
 44
4.0
300

342
8B
174
     1
178
     6
175
     1
176
     0
 93
-1056964608
 45
4.0
292
     0
297
     0
 46
4.0
 94
-1056964608
 47
1.0
 49
1.0
140
1.0
293
     1
141
0.0
294
     1
177
     0
142
1.0
295
     0
296
     0
143
0.125
1001
ACAD_MLEADERVER
1070
     2
  0
MLINESTYLE
  5
9B
102
{ACAD_REACTORS
330
99
102
}
330
99
100
AcDbMlineStyle
  2
STANDARD
 70
     0
  3

 62
   256
 51
90.0
 52
90.0
 71
     2
 49
0.5
 62
   256
  6
BYLAYER
 49
-0.5
 62
   256
  6
BYLAYER
  0
ACDBPLACEHOLDER
  5
7
102
{ACAD_REACTORS
330
8
102
}
330
8
  0
SCALE
  5
550
102
{ACAD_REACTORS
330
54F
102
}
330
54F
100
AcDbScale
 70
     0
300
1:1
140
1.0
141
1.0
290
     1
  0
SCALE
  5
551
102
{ACAD_REACTORS
330
54F
102
}
330
54F
100
AcDbScale
 70
     0
300
1:2
140
1.0
141
2.0
290
     0
  0
SCALE
  5
552
102
{ACAD_REACTORS
330
54F
102
}
330
54F
100
AcDbScale
 70
     0
300
1:4
140
1.0
141
4.0
290
     0
  0
SCALE
  5
553
102
{ACAD_REACTORS
330
54F
102
}
330
54F
100
AcDbScale
 70
     0
300
1:5
140
1.0
141
5.0
290
     0
  0
SCALE
  5
554
102
{ACAD_REACTORS
330
54F
102
}
330
54F
100
AcDbScale
 70
     0
300
1:8
140
1.0
141
8.0
290
     0
  0
SCALE
  5
555
102
{ACAD_REACTORS
330
54F
102
}
330
54F
100
AcDbScale
 70
     0
300
1:10
140
1.0
141
10.0
290
     0
  0
SCALE
  5
556
102
{ACAD_REACTORS
330
54F
102
}
330
54F
100
AcDbScale
 70
     0
300
1:16
140
1.0
141
16.0
290
     0
  0
SCALE
  5
557
102
{ACAD_REACTORS
330
54F
102
}
330
54F
100
AcDbScale
 70
     0
300
1:20
140
1.0
141
20.0
290
     0
  0
SCALE
  5
558
102
{ACAD_REACTORS
330
54F
102
}
330
54F
100
AcDbScale
 70
     0
300
1:30
140
1.0
141
30.0
290
     0
  0
SCALE
  5
559
102
{ACAD_REACTORS
330
54F
102
}
330
54F
100
AcDbScale
 70
     0
300
1:40
140
1.0
141
40.0
290
     0
  0
SCALE
  5
55A
102
{ACAD_REACTORS
330
54F
102
}
330
54F
100
AcDbScale
 70
     0
300
1:50
140
1.0
141
50.0
290
     0
  0
SCALE
  5
55B
102
{ACAD_REACTORS
330
54F
102
}
330
54F
100
AcDbScale
 70
     0
300
1:100
140
1.0
141
100.0
290
     0
  0
SCALE
  5
55C
102
{ACAD_REACTORS
330
54F
102
}
330
54F
100
AcDbScale
 70
     0
300
2:1
140
2.0
141
1.0
290
     0
  0
SCALE
  5
55D
102
{ACAD_REACTORS
330
54F
102
}
330
54F
100
AcDbScale
 70
     0
300
4:1
140
4.0
141
1.0
290
     0
  0
SCALE
  5
55E
102
{ACAD_REACTORS
330
54F
102
}
330
54F
100
AcDbScale
 70
     0
300
8:1
140
8.0
141
1.0
290
     0
  0
SCALE
  5
55F
102
{ACAD_REACTORS
330
54F
102
}
330
54F
100
AcDbScale
 70
     0
300
10:1
140
10.0
141
1.0
290
     0
  0
SCALE
  5
560
102
{ACAD_REACTORS
330
54F
102
}
330
54F
100
AcDbScale
 70
     0
300
100:1
140
100.0
141
1.0
290
     0
  0
TABLESTYLE
  5
54E
102
{ACAD_XDICTIONARY
360
BB3
102
}
102
{ACAD_REACTORS
330
54D
102
}
330
54D
100
AcDbTableStyle
  3
Standard
 70
     0
 71
     0
 40
1.5
 41
1.5
280
     0
281
     0
  7
STANDARD
140
4.5
170
     2
 62
     0
 63
     7
283
     0
274
    -2
284
     1
 64
     0
275
    -2
285
     1
 65
     0
276
    -2
286
     1
 66
     0
277
    -2
287
     1
 67
     0
278
    -2
288
     1
 68
     0
279
    -2
289
     1
 69
     0
  7
STANDARD
140
6.0
170
     5
 62
     0
 63
     7
283
     0
274
    -2
284
     1
 64
     0
275
    -2
285
     1
 65
     0
276
    -2
286
     1
 66
     0
277
    -2
287
     1
 67
     0
278
    -2
288
     1
 68
     0
279
    -2
289
     1
 69
     0
  7
STANDARD
140
4.5
170
     5
 62
     0
 63
     7
283
     0
274
    -2
284
     1
 64
     0
275
    -2
285
     1
 65
     0
276
    -2
286
     1
 66
     0
277
    -2
287
     1
 67
     0
278
    -2
288
     1
 68
     0
279
    -2
289
     1
 69
     0
  0
VISUALSTYLE
  5
541
102
{ACAD_REACTORS
330
53B
102
}
330
53B
100
AcDbVisualStyle
  2
2dWireframe
 70
     4
 71
     0
 72
     2
 73
     0
 90
        0
 40
-0.6
 41
-30.0
 62
     5
 63
     7
 74
     1
 91
        4
 64
     7
 65
   257
 75
     1
175
     1
 42
1.0
 92
        0
 66
   257
 43
1.0
 76
     1
 77
     6
 78
     2
 67
     7
 79
     5
170
     0
171
     0
290
     0
174
     0
 93
        1
 44
0.0
173
     0
291
     0
 45
0.0
1001
ACAD
1000
AcDbSavedByObjectVersion
1070
     0
1000
AcDbSavedByObjectVersion
1070
     0
  0
VISUALSTYLE
  5
543
102
{ACAD_REACTORS
330
53B
102
}
330
53B
100
AcDbVisualStyle
  2
3D Hidden
 70
     6
 71
     1
 72
     2
 73
     2
 90
        0
 40
-0.6
 41
-30.0
 62
     5
 63
     7
 74
     2
 91
        2
 64
     7
 65
   257
 75
     2
175
     1
 42
40.0
 92
        0
 66
   257
 43
1.0
 76
     1
 77
     6
 78
     2
 67
     7
 79
     3
170
     0
171
     0
290
     0
174
     0
 93
        1
 44
0.0
173
     0
291
     0
 45
0.0
1001
ACAD
1000
AcDbSavedByObjectVersion
1070
     0
1000
AcDbSavedByObjectVersion
1070
     0
  0
VISUALSTYLE
  5
542
102
{ACAD_REACTORS
330
53B
102
}
330
53B
100
AcDbVisualStyle
  2
3dWireframe
 70
     5
 71
     0
 72
     2
 73
     0
 90
        0
 40
-0.6
 41
-30.0
 62
     5
 63
     7
 74
     1
 91
        4
 64
     7
 65
   257
 75
     1
175
     1
 42
1.0
 92
        0
 66
   257
 43
1.0
 76
     1
 77
     6
 78
     2
 67
     7
 79
     5
170
     0
171
     0
290
     0
174
     0
 93
        1
 44
0.0
173
     0
291
     0
 45
0.0
1001
ACAD
1000
AcDbSavedByObjectVersion
1070
     0
1000
AcDbSavedByObjectVersion
1070
     0
  0
VISUALSTYLE
  5
540
102
{ACAD_REACTORS
330
53B
102
}
330
53B
100
AcDbVisualStyle
  2
Basic
 70
     7
 71
     1
 72
     0
 73
     1
 90
        0
 40
-0.6
 41
-30.0
 62
     5
 63
     7
 74
     0
 91
        4
 64
     7
 65
   257
 75
     1
175
     1
 42
1.0
 92
        8
 66
     7
 43
1.0
 76
     1
 77
     6
 78
     2
 67
     7
 79
     5
170
     0
171
     0
290
     0
174
     0
 93
        1
 44
0.0
173
     0
291
     1
 45
0.0
1001
ACAD
1000
AcDbSavedByObjectVersion
1070
     0
1000
AcDbSavedByObjectVersion
1070
     0
  0
VISUALSTYLE
  5
547
102
{ACAD_REACTORS
330
53B
102
}
330
53B
100
AcDbVisualStyle
  2
Brighten
 70
    12
 71
     2
 72
     2
 73
     0
 90
        0
 40
-0.6
 41
-30.0
 62
     5
 63
     7
 74
     1
 91
        4
 64
     7
 65
   257
 75
     1
175
     1
 42
1.0
 92
        8
 66
     7
 43
1.0
 76
     1
 77
     6
 78
     2
 67
     7
 79
     5
170
     0
171
     0
290
     0
174
     0
 93
        1
 44
50.0
173
     0
291
     1
 45
0.0
1001
ACAD
1000
AcDbSavedByObjectVersion
1070
     0
1000
AcDbSavedByObjectVersion
1070
     0
  0
VISUALSTYLE
  5
54B
102
{ACAD_REACTORS
330
53B
102
}
330
53B
100
AcDbVisualStyle
  2
ColorChange
 70
    16
 71
     2
 72
     2
 73
     3
 90
        0
 40
-0.6
 41
-30.0
 62
     5
 63
     8
 74
     1
 91
        4
 64
     7
 65
   257
 75
     1
175
     1
 42
1.0
 92
        8
 66
     8
 43
1.0
 76
     1
 77
     6
 78
     2
 67
     7
 79
     5
170
     0
171
     0
290
     0
174
     0
 93
        1
 44
0.0
173
     0
291
     1
 45
0.0
1001
ACAD
1000
AcDbSavedByObjectVersion
1070
     0
1000
AcDbSavedByObjectVersion
1070
     0
  0
VISUALSTYLE
  5
544
102
{ACAD_REACTORS
330
53B
102
}
330
53B
100
AcDbVisualStyle
  2
Conceptual
 70
     9
 71
     3
 72
     2
 73
     0
 90
        0
 40
-0.6
 41
-30.0
 62
     5
 63
     7
 74
     2
 91
        2
 64
     7
 65
   257
 75
     1
175
     1
 42
40.0
 92
        8
 66
     7
 43
1.0
 76
     1
 77
     6
 78
     2
 67
     7
 79
     3
170
     0
171
     0
290
     0
174
     0
 93
        1
 44
0.0
173
     0
291
     0
 45
0.0
1001
ACAD
1000
AcDbSavedByObjectVersion
1070
     0
1000
AcDbSavedByObjectVersion
1070
     0
  0
VISUALSTYLE
  5
546
102
{ACAD_REACTORS
330
53B
102
}
330
53B
100
AcDbVisualStyle
  2
Dim
 70
    11
 71
     2
 72
     2
 73
     0
 90
        0
 40
-0.6
 41
-30.0
 62
     5
 63
     7
 74
     1
 91
        4
 64
     7
 65
   257
 75
     1
175
     1
 42
1.0
 92
        8
 66
     7
 43
1.0
 76
     1
 77
     6
 78
     2
 67
     7
 79
     5
170
     0
171
     0
290
     0
174
     0
 93
        1
 44
-50.0
173
     0
291
     1
 45
0.0
1001
ACAD
1000
AcDbSavedByObjectVersion
1070
     0
1000
AcDbSavedByObjectVersion
1070
     0
  0
VISUALSTYLE
  5
54A
102
{ACAD_REACTORS
330
53B
102
}
330
53B
100
AcDbVisualStyle
  2
Facepattern
 70
    15
 71
     2
 72
     2
 73
     0
 90
        0
 40
-0.6
 41
-30.0
 62
     5
 63
     7
 74
     1
 91
        4
 64
     7
 65
   257
 75
     1
175
     1
 42
1.0
 92
        8
 66
     7
 43
1.0
 76
     1
 77
     6
 78
     2
 67
     7
 79
     5
170
     0
171
     0
290
     0
174
     0
 93
        1
 44
0.0
173
     0
291
     1
 45
0.0
1001
ACAD
1000
AcDbSavedByObjectVersion
1070
     0
1000
AcDbSavedByObjectVersion
1070
     0
  0
VISUALSTYLE
  5
53C
102
{ACAD_REACTORS
330
53B
102
}
330
53B
100
AcDbVisualStyle
  2
Flat
 70
     0
 71
     2
 72
     1
 73
     1
 90
        2
 40
-0.6
 41
30.0
 62
     5
 63
     7
 74
     0
 91
        4
 64
     7
 65
   257
 75
     1
175
     1
 42
1.0
 92
        8
 66
     7
 43
1.0
 76
     1
 77
     6
 78
     2
 67
     7
 79
     5
170
     0
171
     0
290
     0
174
     0
 93
       13
 44
0.0
173
     0
291
     1
 45
0.0
1001
ACAD
1000
AcDbSavedByObjectVersion
1070
     0
1000
AcDbSavedByObjectVersion
1070
     0
  0
VISUALSTYLE
  5
53D
102
{ACAD_REACTORS
330
53B
102
}
330
53B
100
AcDbVisualStyle
  2
FlatWithEdges
 70
     1
 71
     2
 72
     1
 73
     1
 90
        2
 40
-0.6
 41
30.0
 62
     5
 63
     7
 74
     1
 91
        4
 64
     7
 65
   257
 75
     1
175
     1
 42
1.0
 92
        0
 66
   257
 43
1.0
 76
     1
 77
     6
 78
     2
 67
     7
 79
     5
170
     0
171
     0
290
     0
174
     0
 93
       13
 44
0.0
173
     0
291
     1
 45
0.0
1001
ACAD
1000
AcDbSavedByObjectVersion
1070
     0
1000
AcDbSavedByObjectVersion
1070
     0
  0
VISUALSTYLE
  5
53E
102
{ACAD_REACTORS
330
53B
102
}
330
53B
100
AcDbVisualStyle
  2
Gouraud
 70
     2
 71
     2
 72
     2
 73
     1
 90
        2
 40
-0.6
 41
30.0
 62
     5
 63
     7
 74
     0
 91
        4
 64
     7
 65
   257
 75
     1
175
     1
 42
1.0
 92
        0
 66
     7
 43
1.0
 76
     1
 77
     6
 78
     2
 67
     7
 79
     5
170
     0
171
     0
290
     0
174
     0
 93
       13
 44
0.0
173
     0
291
     1
 45
0.0
1001
ACAD
1000
AcDbSavedByObjectVersion
1070
     0
1000
AcDbSavedByObjectVersion
1070
     0
  0
VISUALSTYLE
  5
53F
102
{ACAD_REACTORS
330
53B
102
}
330
53B
100
AcDbVisualStyle
  2
GouraudWithEdges
 70
     3
 71
     2
 72
     2
 73
     1
 90
        2
 40
-0.6
 41
30.0
 62
     5
 63
     7
 74
     1
 91
        4
 64
     7
 65
   257
 75
     1
175
     1
 42
1.0
 92
        0
 66
   257
 43
1.0
 76
     1
 77
     6
 78
     2
 67
     7
 79
     5
170
     0
171
     0
290
     0
174
     0
 93
       13
 44
0.0
173
     0
291
     1
 45
0.0
1001
ACAD
1000
AcDbSavedByObjectVersion
1070
     0
1000
AcDbSavedByObjectVersion
1070
     0
  0
VISUALSTYLE
  5
549
102
{ACAD_REACTORS
330
53B
102
}
330
53B
100
AcDbVisualStyle
  2
Linepattern
 70
    14
 71
     2
 72
     2
 73
     0
 90
        0
 40
-0.6
 41
-30.0
 62
     5
 63
     7
 74
     1
 91
        4
 64
     7
 65
   257
 75
     7
175
     7
 42
1.0
 92
        8
 66
     7
 43
1.0
 76
     1
 77
     6
 78
     2
 67
     7
 79
     5
170
     0
171
     0
290
     0
174
     0
 93
        1
 44
0.0
173
     0
291
     1
 45
0.0
1001
ACAD
1000
AcDbSavedByObjectVersion
1070
     0
1000
AcDbSavedByObjectVersion
1070
     0
  0
VISUALSTYLE
  5
545
102
{ACAD_REACTORS
330
53B
102
}
330
53B
100
AcDbVisualStyle
  2
Realistic
 70
     8
 71
     2
 72
     2
 73
     0
 90
        0
 40
-0.6
 41
-30.0
 62
     5
 63
     7
 74
     1
 91
        0
 64
     7
 65
   257
 75
     1
175
     1
 42
1.0
 92
        8
 66
     8
 43
1.0
 76
     1
 77
     6
 78
     2
 67
     7
 79
     5
170
     0
171
     0
290
     0
174
     0
 93
       13
 44
0.0
173
     0
291
     0
 45
0.0
1001
ACAD
1000
AcDbSavedByObjectVersion
1070
     0
1000
AcDbSavedByObjectVersion
1070
     0
  0
VISUALSTYLE
  5
548
102
{ACAD_REACTORS
330
53B
102
}
330
53B
100
AcDbVisualStyle
  2
Thicken
 70
    13
 71
     2
 72
     2
 73
     0
 90
        0
 40
-0.6
 41
-30.0
 62
     5
 63
     7
 74
     1
 91
        4
 64
     7
 65
   257
 75
     1
175
     1
 42
1.0
 92
       12
 66
     7
 43
1.0
 76
     1
 77
     6
 78
     2
 67
     7
 79
     5
170
     0
171
     0
290
     0
174
     0
 93
        1
 44
0.0
173
     0
291
     1
 45
0.0
1001
ACAD
1000
AcDbSavedByObjectVersion
1070
     0
1000
AcDbSavedByObjectVersion
1070
     0
  0
DICTIONARYVAR
  5
AA0
102
{ACAD_REACTORS
330
3AB
102
}
330
3AB
100
DictionaryVariables
280
     0
  1
1:1
  0
DICTIONARYVAR
  5
A9F
102
{ACAD_REACTORS
330
3AB
102
}
330
3AB
100
DictionaryVariables
280
     0
  1
STANDARD
  0
DICTIONARYVAR
  5
A9E
102
{ACAD_REACTORS
330
3AB
102
}
330
3AB
100
DictionaryVariables
280
     0
  1
STANDARD
  0
DICTIONARYVAR
  5
3AD
102
{ACAD_REACTORS
330
3AB
102
}
330
3AB
100
DictionaryVariables
280
     0
  1
2
  0
DICTIONARYVAR
  5
3AC
102
{ACAD_REACTORS
330
3AB
102
}
330
3AB
100
DictionaryVariables
280
     0
  1
1
  0
DICTIONARYVAR
  5
AA2
102
{ACAD_REACTORS
330
3AB
102
}
330
3AB
100
DictionaryVariables
280
     0
  1
0
  0
DICTIONARYVAR
  5
AA1
102
{ACAD_REACTORS
330
3AB
102
}
330
3AB
100
DictionaryVariables
280
     0
  1
127
  0
DICTIONARY
  5
BE3
330
564
100
AcDbDictionary
280
     1
281
     1
  3
ACAD_XREC_ROUNDTRIP
360
BE4
  0
DICTIONARY
  5
BE5
330
565
100
AcDbDictionary
280
     1
281
     1
  3
ACAD_XREC_ROUNDTRIP
360
BE6
  0
DICTIONARY
  5
52C
330
52B
100
AcDbDictionary
280
     1
281
     1
  3
ACAD_XREC_ROUNDTRIP
360
BBA
  3
BUMPTILE
360
52E
  3
DIFFUSETILE
360
52D
  3
OPACITYTILE
360
531
  3
REFLECTIONTILE
360
530
  3
REFRACTIONTILE
360
532
  3
SPECULARTILE
360
52F
  0
DICTIONARY
  5
524
330
523
100
AcDbDictionary
280
     1
281
     1
  3
ACAD_XREC_ROUNDTRIP
360
BB9
  3
BUMPTILE
360
526
  3
DIFFUSETILE
360
525
  3
OPACITYTILE
360
529
  3
REFLECTIONTILE
360
528
  3
REFRACTIONTILE
360
52A
  3
SPECULARTILE
360
527
  0
DICTIONARY
  5
534
330
533
100
AcDbDictionary
280
     1
281
     1
  3
ACAD_XREC_ROUNDTRIP
360
BBB
  3
BUMPTILE
360
536
  3
DIFFUSETILE
360
535
  3
OPACITYTILE
360
539
  3
REFLECTIONTILE
360
538
  3
REFRACTIONTILE
360
53A
  3
SPECULARTILE
360
537
  0
DICTIONARY
  5
BB3
330
54E
100
AcDbDictionary
280
     1
281
     1
  3
ACAD_ROUNDTRIP_2008_TABLESTYLE_CELLSTYLEMAP
360
BDE
  3
ACAD_XREC_ROUNDTRIP
360
BE2
  0
XRECORD
  5
BE4
102
{ACAD_REACTORS
330
BE3
102
}
330
BE3
100
AcDbXrecord
280
     1
102
SHADEPLOT
 70
     0
102
SHADEPLOTRESLEVEL
 70
     2
102
SHADEPLOTCUSTOMDPI
 70
   300
  0
XRECORD
  5
BE6
102
{ACAD_REACTORS
330
BE5
102
}
330
BE5
100
AcDbXrecord
280
     1
102
SHADEPLOT
 70
     0
102
SHADEPLOTRESLEVEL
 70
     2
102
SHADEPLOTCUSTOMDPI
 70
   300
  0
XRECORD
  5
BBA
102
{ACAD_REACTORS
330
52C
102
}
330
52C
100
AcDbXrecord
280
     1
102
MATERIAL
148
0.0
149
0.0
149
0.0
 93
        0
 94
      127
282
     0
 72
     0
 77
     0
171
     0
175
     0
179
     0
273
     0
  0
XRECORD
  5
52E
102
{ACAD_REACTORS
330
52C
102
}
330
52C
100
AcDbXrecord
280
     1
270
     1
271
     1
  0
XRECORD
  5
52D
102
{ACAD_REACTORS
330
52C
102
}
330
52C
100
AcDbXrecord
280
     1
270
     1
271
     1
  0
XRECORD
  5
531
102
{ACAD_REACTORS
330
52C
102
}
330
52C
100
AcDbXrecord
280
     1
270
     1
271
     1
  0
XRECORD
  5
530
102
{ACAD_REACTORS
330
52C
102
}
330
52C
100
AcDbXrecord
280
     1
270
     1
271
     1
  0
XRECORD
  5
532
102
{ACAD_REACTORS
330
52C
102
}
330
52C
100
AcDbXrecord
280
     1
270
     1
271
     1
  0
XRECORD
  5
52F
102
{ACAD_REACTORS
330
52C
102
}
330
52C
100
AcDbXrecord
280
     1
270
     1
271
     1
  0
XRECORD
  5
BB9
102
{ACAD_REACTORS
330
524
102
}
330
524
100
AcDbXrecord
280
     1
102
MATERIAL
148
0.0
149
0.0
149
0.0
 93
        0
 94
      127
282
     0
 72
     0
 77
     0
171
     0
175
     0
179
     0
273
     0
  0
XRECORD
  5
526
102
{ACAD_REACTORS
330
524
102
}
330
524
100
AcDbXrecord
280
     1
270
     1
271
     1
  0
XRECORD
  5
525
102
{ACAD_REACTORS
330
524
102
}
330
524
100
AcDbXrecord
280
     1
270
     1
271
     1
  0
XRECORD
  5
529
102
{ACAD_REACTORS
330
524
102
}
330
524
100
AcDbXrecord
280
     1
270
     1
271
     1
  0
XRECORD
  5
528
102
{ACAD_REACTORS
330
524
102
}
330
524
100
AcDbXrecord
280
     1
270
     1
271
     1
  0
XRECORD
  5
52A
102
{ACAD_REACTORS
330
524
102
}
330
524
100
AcDbXrecord
280
     1
270
     1
271
     1
  0
XRECORD
  5
527
102
{ACAD_REACTORS
330
524
102
}
330
524
100
AcDbXrecord
280
     1
270
     1
271
     1
  0
XRECORD
  5
BBB
102
{ACAD_REACTORS
330
534
102
}
330
534
100
AcDbXrecord
280
     1
102
MATERIAL
148
0.0
149
0.0
149
0.0
 93
        0
 94
      127
282
     0
 72
     0
 77
     0
171
     0
175
     0
179
     0
273
     0
  0
XRECORD
  5
536
102
{ACAD_REACTORS
330
534
102
}
330
534
100
AcDbXrecord
280
     1
270
     1
271
     1
  0
XRECORD
  5
535
102
{ACAD_REACTORS
330
534
102
}
330
534
100
AcDbXrecord
280
     1
270
     1
271
     1
  0
XRECORD
  5
539
102
{ACAD_REACTORS
330
534
102
}
330
534
100
AcDbXrecord
280
     1
270
     1
271
     1
  0
XRECORD
  5
538
102
{ACAD_REACTORS
330
534
102
}
330
534
100
AcDbXrecord
280
     1
270
     1
271
     1
  0
XRECORD
  5
53A
102
{ACAD_REACTORS
330
534
102
}
330
534
100
AcDbXrecord
280
     1
270
     1
271
     1
  0
XRECORD
  5
537
102
{ACAD_REACTORS
330
534
102
}
330
534
100
AcDbXrecord
280
     1
270
     1
271
     1
  0
CELLSTYLEMAP
  5
BDE
102
{ACAD_REACTORS
330
BB3
102
}
330
BB3
100
AcDbCellStyleMap
 90
        3
300
CELLSTYLE
  1
TABLEFORMAT_BEGIN
 90
        5
170
     1
 91
        0
 92
    32768
 62
   257
 93
        1
300
CONTENTFORMAT
  1
CONTENTFORMAT_BEGIN
 90
        0
 91
        0
 92
      512
 93
        0
300

 40
0.0
140
1.0
 94
        5
 62
     0
340
8B
144
6.0
309
CONTENTFORMAT_END
171
     1
301
MARGIN
  1
CELLMARGIN_BEGIN
 40
1.5
 40
1.5
 40
1.5
 40
1.5
 40
0.18
 40
0.18
309
CELLMARGIN_END
 94
        6
 95
        1
302
GRIDFORMAT
  1
GRIDFORMAT_BEGIN
 90
        0
 91
        1
 62
     0
 92
       -2
340
0
 93
        0
 40
1.125
309
GRIDFORMAT_END
 95
        2
302
GRIDFORMAT
  1
GRIDFORMAT_BEGIN
 90
        0
 91
        1
 62
     0
 92
       -2
340
0
 93
        0
 40
1.125
309
GRIDFORMAT_END
 95
        4
302
GRIDFORMAT
  1
GRIDFORMAT_BEGIN
 90
        0
 91
        1
 62
     0
 92
       -2
340
0
 93
        0
 40
1.125
309
GRIDFORMAT_END
 95
        8
302
GRIDFORMAT
  1
GRIDFORMAT_BEGIN
 90
        0
 91
        1
 62
     0
 92
       -2
340
0
 93
        0
 40
1.125
309
GRIDFORMAT_END
 95
       16
302
GRIDFORMAT
  1
GRIDFORMAT_BEGIN
 90
        0
 91
        1
 62
     0
 92
       -2
340
0
 93
        0
 40
1.125
309
GRIDFORMAT_END
 95
       32
302
GRIDFORMAT
  1
GRIDFORMAT_BEGIN
 90
        0
 91
        1
 62
     0
 92
       -2
340
0
 93
        0
 40
1.125
309
GRIDFORMAT_END
309
TABLEFORMAT_END
  1
CELLSTYLE_BEGIN
 90
        1
 91
        1
300
_TITLE
309
CELLSTYLE_END
300
CELLSTYLE
  1
TABLEFORMAT_BEGIN
 90
        5
170
     1
 91
        0
 92
        0
 62
   257
 93
        1
300
CONTENTFORMAT
  1
CONTENTFORMAT_BEGIN
 90
        0
 91
        0
 92
      512
 93
        0
300

 40
0.0
140
1.0
 94
        5
 62
     0
340
8B
144
4.5
309
CONTENTFORMAT_END
171
     1
301
MARGIN
  1
CELLMARGIN_BEGIN
 40
1.5
 40
1.5
 40
1.5
 40
1.5
 40
0.18
 40
0.18
309
CELLMARGIN_END
 94
        6
 95
        1
302
GRIDFORMAT
  1
GRIDFORMAT_BEGIN
 90
        0
 91
        1
 62
     0
 92
       -2
340
0
 93
        0
 40
1.125
309
GRIDFORMAT_END
 95
        2
302
GRIDFORMAT
  1
GRIDFORMAT_BEGIN
 90
        0
 91
        1
 62
     0
 92
       -2
340
0
 93
        0
 40
1.125
309
GRIDFORMAT_END
 95
        4
302
GRIDFORMAT
  1
GRIDFORMAT_BEGIN
 90
        0
 91
        1
 62
     0
 92
       -2
340
0
 93
        0
 40
1.125
309
GRIDFORMAT_END
 95
        8
302
GRIDFORMAT
  1
GRIDFORMAT_BEGIN
 90
        0
 91
        1
 62
     0
 92
       -2
340
0
 93
        0
 40
1.125
309
GRIDFORMAT_END
 95
       16
302
GRIDFORMAT
  1
GRIDFORMAT_BEGIN
 90
        0
 91
        1
 62
     0
 92
       -2
340
0
 93
        0
 40
1.125
309
GRIDFORMAT_END
 95
       32
302
GRIDFORMAT
  1
GRIDFORMAT_BEGIN
 90
        0
 91
        1
 62
     0
 92
       -2
340
0
 93
        0
 40
1.125
309
GRIDFORMAT_END
309
TABLEFORMAT_END
  1
CELLSTYLE_BEGIN
 90
        2
 91
        1
300
_HEADER
309
CELLSTYLE_END
300
CELLSTYLE
  1
TABLEFORMAT_BEGIN
 90
        5
170
     1
 91
        0
 92
        0
 62
   257
 93
        1
300
CONTENTFORMAT
  1
CONTENTFORMAT_BEGIN
 90
        0
 91
        0
 92
      512
 93
        0
300

 40
0.0
140
1.0
 94
        2
 62
     0
340
8B
144
4.5
309
CONTENTFORMAT_END
171
     1
301
MARGIN
  1
CELLMARGIN_BEGIN
 40
1.5
 40
1.5
 40
1.5
 40
1.5
 40
0.18
 40
0.18
309
CELLMARGIN_END
 94
        6
 95
        1
302
GRIDFORMAT
  1
GRIDFORMAT_BEGIN
 90
        0
 91
        1
 62
     0
 92
       -2
340
0
 93
        0
 40
1.125
309
GRIDFORMAT_END
 95
        2
302
GRIDFORMAT
  1
GRIDFORMAT_BEGIN
 90
        0
 91
        1
 62
     0
 92
       -2
340
0
 93
        0
 40
1.125
309
GRIDFORMAT_END
 95
        4
302
GRIDFORMAT
  1
GRIDFORMAT_BEGIN
 90
        0
 91
        1
 62
     0
 92
       -2
340
0
 93
        0
 40
1.125
309
GRIDFORMAT_END
 95
        8
302
GRIDFORMAT
  1
GRIDFORMAT_BEGIN
 90
        0
 91
        1
 62
     0
 92
       -2
340
0
 93
        0
 40
1.125
309
GRIDFORMAT_END
 95
       16
302
GRIDFORMAT
  1
GRIDFORMAT_BEGIN
 90
        0
 91
        1
 62
     0
 92
       -2
340
0
 93
        0
 40
1.125
309
GRIDFORMAT_END
 95
       32
302
GRIDFORMAT
  1
GRIDFORMAT_BEGIN
 90
        0
 91
        1
 62
     0
 92
       -2
340
0
 93
        0
 40
1.125
309
GRIDFORMAT_END
309
TABLEFORMAT_END
  1
CELLSTYLE_BEGIN
 90
        3
 91
        2
300
_DATA
309
CELLSTYLE_END
  0
XRECORD
  5
BE2
102
{ACAD_REACTORS
330
BB3
102
}
330
BB3
100
AcDbXrecord
280
     1
102
ACAD_ROUNDTRIP_PRE2007_TABLESTYLE
 90
      512
 91
        0
  1

 92
      512
 93
        0
  2

 94
      512
 95
        0
  3

  0
ENDSEC
  0
EOF
