  0
SECTION
  2
HEADER
  9
$ACADVER
  1
AC1015
  9
$ACADMAINTVER
 70
    20
  9
$DWGCODEPAGE
  3
ANSI_949
  9
$INSBASE
 10
0.0
 20
0.0
 30
0.0
  9
$EXTMIN
 10
1292.52743220434
 20
-1857.851002329202
 30
-0.0000091545749633
  9
$EXTMAX
 10
1661.097686001056
 20
-1663.45015322118
 30
0.0000137332594111
  9
$LIMMIN
 10
0.0
 20
0.0
  9
$LIMMAX
 10
420.0
 20
297.0
  9
$ORTHOMODE
 70
     1
  9
$REGENMODE
 70
     1
  9
$FILLMODE
 70
     1
  9
$QTEXTMODE
 70
     0
  9
$MIRRTEXT
 70
     0
  9
$LTSCALE
 40
1.0
  9
$ATTMODE
 70
     1
  9
$TEXTSIZE
 40
2.5
  9
$TRACEWID
 40
1.0
  9
$TEXTSTYLE
  7
Standard
  9
$CLAYER
  8
0
  9
$CELTYPE
  6
ByLayer
  9
$CECOLOR
 62
   256
  9
$CELTSCALE
 40
1.0
  9
$DISPSILH
 70
     0
  9
$DIMSCALE
 40
1.0
  9
$DIMASZ
 40
4.0
  9
$DIMEXO
 40
1.0
  9
$DIMDLI
 40
10.0
  9
$DIMRND
 40
0.0
  9
$DIMDLE
 40
0.0
  9
$DIMEXE
 40
0.6
  9
$DIMTP
 40
0.0
  9
$DIMTM
 40
0.0
  9
$DIMTXT
 40
5.0
  9
$DIMCEN
 40
0.09
  9
$DIMTSZ
 40
0.0
  9
$DIMTOL
 70
     0
  9
$DIMLIM
 70
     0
  9
$DIMTIH
 70
     0
  9
$DIMTOH
 70
     0
  9
$DIMSE1
 70
     0
  9
$DIMSE2
 70
     0
  9
$DIMTAD
 70
     1
  9
$DIMZIN
 70
     8
  9
$DIMBLK
  1

  9
$DIMASO
 70
     1
  9
$DIMSHO
 70
     1
  9
$DIMPOST
  1

  9
$DIMAPOST
  1

  9
$DIMALT
 70
     0
  9
$DIMALTD
 70
     2
  9
$DIMALTF
 40
25.4
  9
$DIMLFAC
 40
1.0
  9
$DIMTOFL
 70
     1
  9
$DIMTVP
 40
0.0
  9
$DIMTIX
 70
     1
  9
$DIMSOXD
 70
     0
  9
$DIMSAH
 70
     0
  9
$DIMBLK1
  1

  9
$DIMBLK2
  1

  9
$DIMSTYLE
  2
STANDARD
  9
$DIMCLRD
 70
   123
  9
$DIMCLRE
 70
   123
  9
$DIMCLRT
 70
     3
  9
$DIMTFAC
 40
1.0
  9
$DIMGAP
 40
1.5
  9
$DIMJUST
 70
     0
  9
$DIMSD1
 70
     0
  9
$DIMSD2
 70
     0
  9
$DIMTOLJ
 70
     1
  9
$DIMTZIN
 70
     0
  9
$DIMALTZ
 70
     0
  9
$DIMALTTZ
 70
     0
  9
$DIMUPT
 70
     1
  9
$DIMDEC
 70
     2
  9
$DIMTDEC
 70
     2
  9
$DIMALTU
 70
     2
  9
$DIMALTTD
 70
     2
  9
$DIMTXSTY
  7
Standard
  9
$DIMAUNIT
 70
     1
  9
$DIMADEC
 70
     1
  9
$DIMALTRND
 40
0.0
  9
$DIMAZIN
 70
     2
  9
$DIMDSEP
 70
    46
  9
$DIMATFIT
 70
     0
  9
$DIMFRAC
 70
     0
  9
$DIMLDRBLK
  1

  9
$DIMLUNIT
 70
     2
  9
$DIMLWD
 70
    -2
  9
$DIMLWE
 70
    -2
  9
$DIMTMOVE
 70
     0
  9
$LUNITS
 70
     2
  9
$LUPREC
 70
     4
  9
$SKETCHINC
 40
1.0
  9
$FILLETRAD
 40
0.0
  9
$AUNITS
 70
     0
  9
$AUPREC
 70
     0
  9
$MENU
  1
.
  9
$ELEVATION
 40
0.0
  9
$PELEVATION
 40
0.0
  9
$THICKNESS
 40
0.0
  9
$LIMCHECK
 70
     0
  9
$CHAMFERA
 40
0.5
  9
$CHAMFERB
 40
0.5
  9
$CHAMFERC
 40
0.0
  9
$CHAMFERD
 40
0.0
  9
$SKPOLY
 70
     0
  9
$TDCREATE
 40
2455638.478663565
  9
$TDUCREATE
 40
2455638.103663565
  9
$TDUPDATE
 40
2455916.470781250
  9
$TDUUPDATE
 40
2455916.095781250
  9
$TDINDWG
 40
3.4848425694
  9
$TDUSRTIMER
 40
3.4848422106
  9
$USRTIMER
 70
     1
  9
$ANGBASE
 50
0.0
  9
$ANGDIR
 70
     0
  9
$PDMODE
 70
     0
  9
$PDSIZE
 40
0.0
  9
$PLINEWID
 40
0.0
  9
$SPLFRAME
 70
     0
  9
$SPLINETYPE
 70
     6
  9
$SPLINESEGS
 70
     8
  9
$HANDSEED
  5
247
  9
$SURFTAB1
 70
     6
  9
$SURFTAB2
 70
     6
  9
$SURFTYPE
 70
     6
  9
$SURFU
 70
     6
  9
$SURFV
 70
     6
  9
$UCSBASE
  2

  9
$UCSNAME
  2

  9
$UCSORG
 10
0.0
 20
0.0
 30
0.0
  9
$UCSXDIR
 10
1.0
 20
0.0
 30
0.0
  9
$UCSYDIR
 10
0.0
 20
1.0
 30
0.0
  9
$UCSORTHOREF
  2

  9
$UCSORTHOVIEW
 70
     0
  9
$UCSORGTOP
 10
0.0
 20
0.0
 30
0.0
  9
$UCSORGBOTTOM
 10
0.0
 20
0.0
 30
0.0
  9
$UCSORGLEFT
 10
0.0
 20
0.0
 30
0.0
  9
$UCSORGRIGHT
 10
0.0
 20
0.0
 30
0.0
  9
$UCSORGFRONT
 10
0.0
 20
0.0
 30
0.0
  9
$UCSORGBACK
 10
0.0
 20
0.0
 30
0.0
  9
$PUCSBASE
  2

  9
$PUCSNAME
  2

  9
$PUCSORG
 10
0.0
 20
0.0
 30
0.0
  9
$PUCSXDIR
 10
1.0
 20
0.0
 30
0.0
  9
$PUCSYDIR
 10
0.0
 20
1.0
 30
0.0
  9
$PUCSORTHOREF
  2

  9
$PUCSORTHOVIEW
 70
     0
  9
$PUCSORGTOP
 10
0.0
 20
0.0
 30
0.0
  9
$PUCSORGBOTTOM
 10
0.0
 20
0.0
 30
0.0
  9
$PUCSORGLEFT
 10
0.0
 20
0.0
 30
0.0
  9
$PUCSORGRIGHT
 10
0.0
 20
0.0
 30
0.0
  9
$PUCSORGFRONT
 10
0.0
 20
0.0
 30
0.0
  9
$PUCSORGBACK
 10
0.0
 20
0.0
 30
0.0
  9
$USERI1
 70
     0
  9
$USERI2
 70
     0
  9
$USERI3
 70
     0
  9
$USERI4
 70
     0
  9
$USERI5
 70
     0
  9
$USERR1
 40
0.0
  9
$USERR2
 40
0.0
  9
$USERR3
 40
0.0
  9
$USERR4
 40
0.0
  9
$USERR5
 40
0.0
  9
$WORLDVIEW
 70
     1
  9
$SHADEDGE
 70
     3
  9
$SHADEDIF
 70
    70
  9
$TILEMODE
 70
     1
  9
$MAXACTVP
 70
    48
  9
$PINSBASE
 10
0.0
 20
0.0
 30
0.0
  9
$PLIMCHECK
 70
     0
  9
$PEXTMIN
 10
0.0
 20
0.0
 30
0.0
  9
$PEXTMAX
 10
0.0
 20
0.0
 30
0.0
  9
$PLIMMIN
 10
0.0
 20
0.0
  9
$PLIMMAX
 10
12.0
 20
9.0
  9
$UNITMODE
 70
     0
  9
$VISRETAIN
 70
     1
  9
$PLINEGEN
 70
     0
  9
$PSLTSCALE
 70
     1
  9
$TREEDEPTH
 70
  3020
  9
$CMLSTYLE
  2
Standard
  9
$CMLJUST
 70
     0
  9
$CMLSCALE
 40
20.0
  9
$PROXYGRAPHICS
 70
     1
  9
$MEASUREMENT
 70
     1
  9
$CELWEIGHT
370
    -1
  9
$ENDCAPS
280
     0
  9
$JOINSTYLE
280
     0
  9
$LWDISPLAY
290
     0
  9
$INSUNITS
 70
     4
  9
$HYPERLINKBASE
  1

  9
$STYLESHEET
  1

  9
$XEDIT
290
     1
  9
$CEPSNTYPE
380
     0
  9
$PSTYLEMODE
290
     1
  9
$FINGERPRINTGUID
  2
{1052AC8C-E3FD-4EDB-A1D7-4656E95A91F1}
  9
$VERSIONGUID
  2
{084A0DD2-32D0-4E02-9D1D-B3B924F10E34}
  9
$EXTNAMES
290
     1
  9
$PSVPSCALE
 40
0.0
  9
$OLESTARTUP
290
     0
  0
ENDSEC
  0
SECTION
  2
CLASSES
  0
CLASS
  1
ACDBDICTIONARYWDFLT
  2
AcDbDictionaryWithDefault
  3
ObjectDBX Classes
 90
        0
280
     0
281
     0
  0
CLASS
  1
ACDBPLACEHOLDER
  2
AcDbPlaceHolder
  3
ObjectDBX Classes
 90
        0
280
     0
281
     0
  0
CLASS
  1
LAYOUT
  2
AcDbLayout
  3
ObjectDBX Classes
 90
        0
280
     0
281
     0
  0
CLASS
  1
DICTIONARYVAR
  2
AcDbDictionaryVar
  3
ObjectDBX Classes
 90
        0
280
     0
281
     0
  0
CLASS
  1
TABLESTYLE
  2
AcDbTableStyle
  3
ObjectDBX Classes
 90
     4095
280
     0
281
     0
  0
CLASS
  1
MATERIAL
  2
AcDbMaterial
  3
ObjectDBX Classes
 90
     1153
280
     0
281
     0
  0
CLASS
  1
VISUALSTYLE
  2
AcDbVisualStyle
  3
ObjectDBX Classes
 90
     4095
280
     0
281
     0
  0
CLASS
  1
SCALE
  2
AcDbScale
  3
ObjectDBX Classes
 90
     1153
280
     0
281
     0
  0
CLASS
  1
MLEADERSTYLE
  2
AcDbMLeaderStyle
  3
ACDB_MLEADERSTYLE_CLASS
 90
     4095
280
     0
281
     0
  0
CLASS
  1
CELLSTYLEMAP
  2
AcDbCellStyleMap
  3
ObjectDBX Classes
 90
     1152
280
     0
281
     0
  0
CLASS
  1
DIMASSOC
  2
AcDbDimAssoc
  3
"AcDbDimAssoc|Product Desc:     AcDim ARX App For Dimension|Company:          Autodesk, Inc.|WEB Address:      www.autodesk.com"
 90
        0
280
     0
281
     0
  0
CLASS
  1
SORTENTSTABLE
  2
AcDbSortentsTable
  3
ObjectDBX Classes
 90
        0
280
     0
281
     0
  0
CLASS
  1
BREAKDATA
  2
AcDbBreakData
  3
ObjectDBX Classes
 90
    33792
280
     0
281
     0
  0
CLASS
  1
EXACXREFPANELOBJECT
  2
ExAcXREFPanelObject
  3
EXAC_ESW
 90
     1025
280
     0
281
     0
  0
CLASS
  1
NPOCOLLECTION
  2
AcDbImpNonPersistentObjectsCollection
  3
ObjectDBX Classes
 90
     1153
280
     0
281
     0
  0
CLASS
  1
SOLID_BACKGROUND
  2
AcDbSolidBackground
  3
SCENEOE
 90
    36863
280
     0
281
     0
  0
ENDSEC
  0
SECTION
  2
TABLES
  0
TABLE
  2
VPORT
  5
2B
102
{ACAD_XDICTIONARY
360
2F
102
}
330
0
100
AcDbSymbolTable
 70
     1
  0
VPORT
  5
2C
330
2B
100
AcDbSymbolTableRecord
100
AcDbViewportTableRecord
  2
*Active
 70
     0
 10
0.0
 20
0.0
 11
1.0
 21
1.0
 12
1476.812559102698
 22
-1760.650577775191
 13
0.0
 23
0.0
 14
10.0
 24
10.0
 15
10.0
 25
10.0
 16
0.0
 26
0.0
 36
1.0
 17
0.0
 27
0.0
 37
0.0
 40
248.0634165907861
 41
1.492874109263657
 42
50.0
 43
0.0
 44
0.0
 50
0.0
 51
0.0
 71
     0
 72
  1000
 73
     1
 74
     3
 75
     0
 76
     0
 77
     0
 78
     0
281
     0
 65
     1
110
0.0
120
0.0
130
0.0
111
1.0
121
0.0
131
0.0
112
0.0
122
1.0
132
0.0
 79
     0
146
0.0
  0
ENDTAB
  0
TABLE
  2
LTYPE
  5
26
330
0
100
AcDbSymbolTable
 70
     2
  0
LTYPE
  5
27
330
26
100
AcDbSymbolTableRecord
100
AcDbLinetypeTableRecord
  2
ByBlock
 70
     0
  3

 72
    65
 73
     0
 40
0.0
  0
LTYPE
  5
28
330
26
100
AcDbSymbolTableRecord
100
AcDbLinetypeTableRecord
  2
ByLayer
 70
     0
  3

 72
    65
 73
     0
 40
0.0
  0
LTYPE
  5
15
330
26
100
AcDbSymbolTableRecord
100
AcDbLinetypeTableRecord
  2
Continuous
 70
     0
  3
Solid line
 72
    65
 73
     0
 40
0.0
  0
LTYPE
  5
A4
330
26
100
AcDbSymbolTableRecord
100
AcDbLinetypeTableRecord
  2
CENTER
 70
     0
  3
Center ____ _ ____ _ ____ _ ____ _ ____ _ ____
 72
    65
 73
     4
 40
50.8
 49
31.75
 74
     0
 49
-6.349999999999998
 74
     0
 49
6.349999999999998
 74
     0
 49
-6.349999999999998
 74
     0
  0
ENDTAB
  0
TABLE
  2
LAYER
  5
20
102
{ACAD_XDICTIONARY
360
21
102
}
330
0
100
AcDbSymbolTable
 70
     2
  0
LAYER
  5
7
102
{ACAD_XDICTIONARY
360
8
102
}
330
20
100
AcDbSymbolTableRecord
100
AcDbLayerTableRecord
  2
0
 70
     0
 62
     7
  6
Continuous
370
    -3
390
A
  0
LAYER
  5
70
330
20
100
AcDbSymbolTableRecord
100
AcDbLayerTableRecord
  2
Defpoints
 70
     0
 62
     7
  6
Continuous
290
     0
370
    -3
390
A
  0
ENDTAB
  0
TABLE
  2
STYLE
  5
23
330
0
100
AcDbSymbolTable
 70
     1
  0
STYLE
  5
24
330
23
100
AcDbSymbolTableRecord
100
AcDbTextStyleTableRecord
  2
Standard
 70
     0
 40
0.0
 41
1.0
 50
0.0
 71
     0
 42
2.5
  3
romans.shx
  4
whgtxt.shx
  0
ENDTAB
  0
TABLE
  2
VIEW
  5
29
330
0
100
AcDbSymbolTable
 70
     0
  0
ENDTAB
  0
TABLE
  2
UCS
  5
2A
330
0
100
AcDbSymbolTable
 70
     0
  0
ENDTAB
  0
TABLE
  2
APPID
  5
30
330
0
100
AcDbSymbolTable
 70
     5
  0
APPID
  5
14
330
30
100
AcDbSymbolTableRecord
100
AcDbRegAppTableRecord
  2
ACAD
 70
     0
  0
APPID
  5
19
330
30
100
AcDbSymbolTableRecord
100
AcDbRegAppTableRecord
  2
ACAD_PSEXT
 70
     0
  0
APPID
  5
41
330
30
100
AcDbSymbolTableRecord
100
AcDbRegAppTableRecord
  2
ACAD_DSTYLE_DIMJAG
 70
     0
  0
APPID
  5
42
330
30
100
AcDbSymbolTableRecord
100
AcDbRegAppTableRecord
  2
ACAD_DSTYLE_DIMTALN
 70
     0
  0
APPID
  5
236
330
30
100
AcDbSymbolTableRecord
100
AcDbRegAppTableRecord
  2
ACAD_MLEADERVER
 70
     0
  0
ENDTAB
  0
TABLE
  2
DIMSTYLE
  5
31
330
0
100
AcDbSymbolTable
 70
     1
100
AcDbDimStyleTable
 71
     0
  0
DIMSTYLE
105
40
102
{ACAD_REACTORS
330
1F7
330
1EA
330
1DA
330
19C
330
19B
330
17F
330
163
330
146
330
132
330
11B
330
E9
330
D4
330
A6
330
94
330
85
330
76
330
64
102
}
330
31
100
AcDbSymbolTableRecord
100
AcDbDimStyleTableRecord
  2
STANDARD
 70
     0
 41
4.0
 42
1.0
 43
10.0
 44
0.6
 73
     0
 74
     0
 77
     1
 78
     8
 79
     2
140
5.0
147
1.5
172
     1
174
     1
176
   123
177
   123
178
     3
179
     1
271
     2
272
     2
275
     1
288
     1
289
     0
340
24
1001
ACAD_DSTYLE_DIMJAG
1070
   388
1040
1.5
1001
ACAD_DSTYLE_DIMTALN
1070
   392
1070
     0
  0
ENDTAB
  0
TABLE
  2
BLOCK_RECORD
  5
1
330
0
100
AcDbSymbolTable
 70
    16
  0
BLOCK_RECORD
  5
2
102
{ACAD_XDICTIONARY
360
3
102
}
330
1
100
AcDbSymbolTableRecord
100
AcDbBlockTableRecord
  2
*Model_Space
340
17
  0
BLOCK_RECORD
  5
1A
102
{ACAD_XDICTIONARY
360
1B
102
}
330
1
100
AcDbSymbolTableRecord
100
AcDbBlockTableRecord
  2
*Paper_Space
340
1F
  0
BLOCK_RECORD
  5
164
330
1
100
AcDbSymbolTableRecord
100
AcDbBlockTableRecord
  2
*D0
340
0
  0
BLOCK_RECORD
  5
19D
330
1
100
AcDbSymbolTableRecord
100
AcDbBlockTableRecord
  2
*D1
340
0
  0
BLOCK_RECORD
  5
1DB
330
1
100
AcDbSymbolTableRecord
100
AcDbBlockTableRecord
  2
*D2
340
0
  0
BLOCK_RECORD
  5
1EB
330
1
100
AcDbSymbolTableRecord
100
AcDbBlockTableRecord
  2
*D3
340
0
  0
BLOCK_RECORD
  5
67
330
1
100
AcDbSymbolTableRecord
100
AcDbBlockTableRecord
  2
*D4
340
0
  0
BLOCK_RECORD
  5
79
330
1
100
AcDbSymbolTableRecord
100
AcDbBlockTableRecord
  2
*D5
340
0
  0
BLOCK_RECORD
  5
88
330
1
100
AcDbSymbolTableRecord
100
AcDbBlockTableRecord
  2
*D6
340
0
  0
BLOCK_RECORD
  5
97
330
1
100
AcDbSymbolTableRecord
100
AcDbBlockTableRecord
  2
*D7
340
0
  0
BLOCK_RECORD
  5
A9
330
1
100
AcDbSymbolTableRecord
100
AcDbBlockTableRecord
  2
*D8
340
0
  0
BLOCK_RECORD
  5
D7
330
1
100
AcDbSymbolTableRecord
100
AcDbBlockTableRecord
  2
*D9
340
0
  0
BLOCK_RECORD
  5
EC
330
1
100
AcDbSymbolTableRecord
100
AcDbBlockTableRecord
  2
*D10
340
0
  0
BLOCK_RECORD
  5
11E
330
1
100
AcDbSymbolTableRecord
100
AcDbBlockTableRecord
  2
*D11
340
0
  0
BLOCK_RECORD
  5
135
330
1
100
AcDbSymbolTableRecord
100
AcDbBlockTableRecord
  2
*D12
340
0
  0
BLOCK_RECORD
  5
149
330
1
100
AcDbSymbolTableRecord
100
AcDbBlockTableRecord
  2
*D13
340
0
  0
BLOCK_RECORD
  5
182
330
1
100
AcDbSymbolTableRecord
100
AcDbBlockTableRecord
  2
*D14
340
0
  0
BLOCK_RECORD
  5
1FA
330
1
100
AcDbSymbolTableRecord
100
AcDbBlockTableRecord
  2
*D15
340
0
  0
ENDTAB
  0
ENDSEC
  0
SECTION
  2
BLOCKS
  0
BLOCK
  5
6
330
2
100
AcDbEntity
  8
0
100
AcDbBlockBegin
  2
*Model_Space
 70
     0
 10
0.0
 20
0.0
 30
0.0
  3
*Model_Space
  1

  0
ENDBLK
  5
16
330
2
100
AcDbEntity
  8
0
100
AcDbBlockEnd
  0
BLOCK
  5
1D
330
1A
100
AcDbEntity
 67
     1
  8
0
100
AcDbBlockBegin
  2
*Paper_Space
 70
     0
 10
0.0
 20
0.0
 30
0.0
  3
*Paper_Space
  1

  0
ENDBLK
  5
1E
330
1A
100
AcDbEntity
 67
     1
  8
0
100
AcDbBlockEnd
  0
BLOCK
  5
165
330
164
100
AcDbEntity
  8
0
100
AcDbBlockBegin
  2
*D0
 70
     1
 10
0.0
 20
0.0
 30
0.0
  3
*D0
  1

  0
LINE
  5
166
330
164
100
AcDbEntity
  8
0
 62
   123
370
    -2
100
AcDbLine
 10
1641.39755376846
 20
-1730.542456264533
 30
0.0
 11
1660.671564212841
 21
-1730.542456264533
 31
0.0
  0
LINE
  5
167
330
164
100
AcDbEntity
  8
0
 62
   123
370
    -2
100
AcDbLine
 10
1641.39755376846
 20
-1820.542456264533
 30
0.0
 11
1660.671564212841
 21
-1820.542456264533
 31
0.0
  0
LINE
  5
168
330
164
100
AcDbEntity
  8
0
 62
   123
370
    -2
100
AcDbLine
 10
1660.071564212841
 20
-1734.542456264533
 30
0.0
 11
1660.071564212841
 21
-1816.542456264533
 31
0.0
  0
SOLID
  5
169
330
164
100
AcDbEntity
  8
0
 62
   123
100
AcDbTrace
 10
1659.404897546174
 20
-1734.542456264533
 30
0.0
 11
1660.738230879507
 21
-1734.542456264533
 31
0.0
 12
1660.071564212841
 22
-1730.542456264533
 32
0.0
 13
1660.071564212841
 23
-1730.542456264533
 33
0.0
  0
SOLID
  5
16A
330
164
100
AcDbEntity
  8
0
 62
   123
100
AcDbTrace
 10
1659.404897546174
 20
-1816.542456264533
 30
0.0
 11
1660.738230879507
 21
-1816.542456264533
 31
0.0
 12
1660.071564212841
 22
-1820.542456264533
 32
0.0
 13
1660.071564212841
 23
-1820.542456264533
 33
0.0
  0
MTEXT
  5
16B
330
164
100
AcDbEntity
  8
0
 62
     3
100
AcDbMText
 10
1656.071564212842
 20
-1775.542456264533
 30
0.0
 40
5.0
 41
0.0
 71
     5
 72
     1
  1
\A1;90
 11
0.0000000000000001
 21
1.0
 31
0.0
 73
     1
 44
1.0
1001
ACAD
1000
MTEXTBEGIN
1070
    73
1070
     1
1070
    44
1040
1.0
1070
    74
1070
     0
1000
MTEXTEND
  0
POINT
  5
16C
330
164
100
AcDbEntity
  8
Defpoints
 62
     0
100
AcDbPoint
 10
1640.39755376846
 20
-1730.542456264533
 30
0.0
  0
POINT
  5
16D
330
164
100
AcDbEntity
  8
Defpoints
 62
     0
100
AcDbPoint
 10
1640.39755376846
 20
-1820.542456264533
 30
0.0
  0
POINT
  5
16E
330
164
100
AcDbEntity
  8
Defpoints
 62
     0
100
AcDbPoint
 10
1660.071564212841
 20
-1820.542456264533
 30
0.0
  0
ENDBLK
  5
16F
330
164
100
AcDbEntity
  8
0
100
AcDbBlockEnd
  0
BLOCK
  5
19E
330
19D
100
AcDbEntity
  8
0
100
AcDbBlockBegin
  2
*D1
 70
     1
 10
0.0
 20
0.0
 30
0.0
  3
*D1
  1

  0
LINE
  5
19F
330
19D
100
AcDbEntity
  8
0
 62
   123
370
    -2
100
AcDbLine
 10
1298.662976697669
 20
-1816.542456264464
 30
0.0
 11
1298.662976697669
 21
-1840.321006376663
 31
0.0
  0
LINE
  5
1A0
330
19D
100
AcDbEntity
  8
0
 62
   123
370
    -2
100
AcDbLine
 10
1388.662976697669
 20
-1816.542456264464
 30
0.0
 11
1388.662976697669
 21
-1840.321006376663
 31
0.0
  0
LINE
  5
1A1
330
19D
100
AcDbEntity
  8
0
 62
   123
370
    -2
100
AcDbLine
 10
1302.662976697669
 20
-1839.721006376663
 30
0.0
 11
1384.662976697669
 21
-1839.721006376663
 31
0.0
  0
SOLID
  5
1A2
330
19D
100
AcDbEntity
  8
0
 62
   123
100
AcDbTrace
 10
1302.662976697669
 20
-1839.054339709997
 30
0.0
 11
1302.662976697669
 21
-1840.38767304333
 31
0.0
 12
1298.662976697669
 22
-1839.721006376663
 32
0.0
 13
1298.662976697669
 23
-1839.721006376663
 33
0.0
  0
SOLID
  5
1A3
330
19D
100
AcDbEntity
  8
0
 62
   123
100
AcDbTrace
 10
1384.662976697669
 20
-1839.054339709997
 30
0.0
 11
1384.662976697669
 21
-1840.38767304333
 31
0.0
 12
1388.662976697669
 22
-1839.721006376663
 32
0.0
 13
1388.662976697669
 23
-1839.721006376663
 33
0.0
  0
MTEXT
  5
1A4
330
19D
100
AcDbEntity
  8
0
 62
     3
100
AcDbMText
 10
1343.415702446546
 20
-1835.721006376663
 30
0.0
 40
5.0
 41
0.0
 71
     5
 72
     1
  1
\A1;90
 73
     1
 44
1.0
1001
ACAD
1000
MTEXTBEGIN
1070
    73
1070
     1
1070
    44
1040
1.0
1070
    74
1070
     0
1000
MTEXTEND
  0
POINT
  5
1A5
330
19D
100
AcDbEntity
  8
Defpoints
 62
     0
100
AcDbPoint
 10
1298.662976697669
 20
-1815.542456264464
 30
0.0
  0
POINT
  5
1A6
330
19D
100
AcDbEntity
  8
Defpoints
 62
     0
100
AcDbPoint
 10
1388.662976697669
 20
-1815.542456264464
 30
0.0
  0
POINT
  5
1A7
330
19D
100
AcDbEntity
  8
Defpoints
 62
     0
100
AcDbPoint
 10
1388.662976697669
 20
-1839.721006376663
 30
0.0
  0
ENDBLK
  5
1A8
330
19D
100
AcDbEntity
  8
0
100
AcDbBlockEnd
  0
BLOCK
  5
1DC
330
1DB
100
AcDbEntity
  8
0
100
AcDbBlockBegin
  2
*D2
 70
     1
 10
0.0
 20
0.0
 30
0.0
  3
*D2
  1

  0
LINE
  5
1DD
330
1DB
100
AcDbEntity
  8
0
 62
   123
370
    -2
100
AcDbLine
 10
1384.97087112537
 20
-1730.542456264464
 30
0.0
 11
1391.335048517799
 21
-1730.542456264464
 31
0.0
  0
LINE
  5
1DE
330
1DB
100
AcDbEntity
  8
0
 62
   123
370
    -2
100
AcDbLine
 10
1372.579132131657
 20
-1687.542456264464
 30
0.0
 11
1391.335048517799
 21
-1687.542456264464
 31
0.0
  0
LINE
  5
1DF
330
1DB
100
AcDbEntity
  8
0
 62
   123
370
    -2
100
AcDbLine
 10
1390.735048517799
 20
-1726.542456264464
 30
0.0
 11
1390.735048517799
 21
-1691.542456264464
 31
0.0
  0
SOLID
  5
1E0
330
1DB
100
AcDbEntity
  8
0
 62
   123
100
AcDbTrace
 10
1390.068381851132
 20
-1726.542456264464
 30
0.0
 11
1391.401715184465
 21
-1726.542456264464
 31
0.0
 12
1390.735048517799
 22
-1730.542456264464
 32
0.0
 13
1390.735048517799
 23
-1730.542456264464
 33
0.0
  0
SOLID
  5
1E1
330
1DB
100
AcDbEntity
  8
0
 62
   123
100
AcDbTrace
 10
1390.068381851132
 20
-1691.542456264464
 30
0.0
 11
1391.401715184465
 21
-1691.542456264464
 31
0.0
 12
1390.735048517799
 22
-1687.542456264464
 32
0.0
 13
1390.735048517799
 23
-1687.542456264464
 33
0.0
  0
MTEXT
  5
1E2
330
1DB
100
AcDbEntity
  8
0
 62
     3
100
AcDbMText
 10
1386.735048517799
 20
-1707.447620467379
 30
0.0
 40
5.0
 41
0.0
 71
     5
 72
     1
  1
\A1;43
 11
0.0000000000000001
 21
1.0
 31
0.0
 73
     1
 44
1.0
1001
ACAD
1000
MTEXTBEGIN
1070
    73
1070
     1
1070
    44
1040
1.0
1070
    74
1070
     0
1000
MTEXTEND
  0
POINT
  5
1E3
330
1DB
100
AcDbEntity
  8
Defpoints
 62
     0
100
AcDbPoint
 10
1383.970871125369
 20
-1730.542456264464
 30
0.0
  0
POINT
  5
1E4
330
1DB
100
AcDbEntity
  8
Defpoints
 62
     0
100
AcDbPoint
 10
1371.579132131657
 20
-1687.542456264464
 30
0.0
  0
POINT
  5
1E5
330
1DB
100
AcDbEntity
  8
Defpoints
 62
     0
100
AcDbPoint
 10
1390.735048517799
 20
-1687.542456264464
 30
0.0
  0
ENDBLK
  5
1E6
330
1DB
100
AcDbEntity
  8
0
100
AcDbBlockEnd
  0
BLOCK
  5
1EC
330
1EB
100
AcDbEntity
  8
0
100
AcDbBlockBegin
  2
*D3
 70
     1
 10
0.0
 20
0.0
 30
0.0
  3
*D3
  1

  0
LINE
  5
1ED
330
1EB
100
AcDbEntity
  8
0
 62
   123
370
    -2
100
AcDbLine
 10
1312.415701946546
 20
-1720.854230862371
 30
0.0
 11
1312.415701946546
 21
-1669.522812640972
 31
0.0
  0
LINE
  5
1EE
330
1EB
100
AcDbEntity
  8
0
 62
   123
370
    -2
100
AcDbLine
 10
1374.415701946546
 20
-1720.854230862371
 30
0.0
 11
1374.415701946546
 21
-1669.522812640972
 31
0.0
  0
LINE
  5
1EF
330
1EB
100
AcDbEntity
  8
0
 62
   123
370
    -2
100
AcDbLine
 10
1316.415701946546
 20
-1670.122812640971
 30
0.0
 11
1370.415701946546
 21
-1670.122812640971
 31
0.0
  0
SOLID
  5
1F0
330
1EB
100
AcDbEntity
  8
0
 62
   123
100
AcDbTrace
 10
1316.415701946546
 20
-1669.456145974305
 30
0.0
 11
1316.415701946546
 21
-1670.789479307638
 31
0.0
 12
1312.415701946546
 22
-1670.122812640971
 32
0.0
 13
1312.415701946546
 23
-1670.122812640971
 33
0.0
  0
SOLID
  5
1F1
330
1EB
100
AcDbEntity
  8
0
 62
   123
100
AcDbTrace
 10
1370.415701946546
 20
-1669.456145974305
 30
0.0
 11
1370.415701946546
 21
-1670.789479307638
 31
0.0
 12
1374.415701946546
 22
-1670.122812640971
 32
0.0
 13
1374.415701946546
 23
-1670.122812640971
 33
0.0
  0
MTEXT
  5
1F2
330
1EB
100
AcDbEntity
  8
0
 62
     3
100
AcDbMText
 10
1343.578296693346
 20
-1666.122812640971
 30
0.0
 40
5.0
 41
0.0
 71
     5
 72
     1
  1
\A1;62
 73
     1
 44
1.0
1001
ACAD
1000
MTEXTBEGIN
1070
    73
1070
     1
1070
    44
1040
1.0
1070
    74
1070
     0
1000
MTEXTEND
  0
POINT
  5
1F3
330
1EB
100
AcDbEntity
  8
Defpoints
 62
     0
100
AcDbPoint
 10
1312.415701946546
 20
-1721.854230862371
 30
0.0
  0
POINT
  5
1F4
330
1EB
100
AcDbEntity
  8
Defpoints
 62
     0
100
AcDbPoint
 10
1374.415701946546
 20
-1721.854230862371
 30
0.0
  0
POINT
  5
1F5
330
1EB
100
AcDbEntity
  8
Defpoints
 62
     0
100
AcDbPoint
 10
1374.415701946546
 20
-1670.122812640971
 30
0.0
  0
ENDBLK
  5
1F6
330
1EB
100
AcDbEntity
  8
0
100
AcDbBlockEnd
  0
BLOCK
  5
68
330
67
100
AcDbEntity
  8
0
100
AcDbBlockBegin
  2
*D4
 70
     1
 10
0.0
 20
0.0
 30
0.0
  3
*D4
  1

  0
LINE
  5
69
330
67
100
AcDbEntity
  8
0
 62
   123
370
    -2
100
AcDbLine
 10
1454.39755376846
 20
-1769.542456264533
 30
0.0
 11
1454.39755376846
 21
-1758.869098855132
 31
0.0
  0
LINE
  5
6A
330
67
100
AcDbEntity
  8
0
 62
   123
370
    -2
100
AcDbLine
 10
1484.39755376846
 20
-1768.542456264533
 30
0.0
 11
1484.39755376846
 21
-1758.869098855132
 31
0.0
  0
LINE
  5
6B
330
67
100
AcDbEntity
  8
0
 62
   123
370
    -2
100
AcDbLine
 10
1458.39755376846
 20
-1759.469098855132
 30
0.0
 11
1480.39755376846
 21
-1759.469098855132
 31
0.0
  0
SOLID
  5
6C
330
67
100
AcDbEntity
  8
0
 62
   123
100
AcDbTrace
 10
1458.39755376846
 20
-1758.802432188465
 30
0.0
 11
1458.39755376846
 21
-1760.135765521799
 31
0.0
 12
1454.39755376846
 22
-1759.469098855132
 32
0.0
 13
1454.39755376846
 23
-1759.469098855132
 33
0.0
  0
SOLID
  5
6D
330
67
100
AcDbEntity
  8
0
 62
   123
100
AcDbTrace
 10
1480.39755376846
 20
-1758.802432188465
 30
0.0
 11
1480.39755376846
 21
-1760.135765521799
 31
0.0
 12
1484.39755376846
 22
-1759.469098855132
 32
0.0
 13
1484.39755376846
 23
-1759.469098855132
 33
0.0
  0
MTEXT
  5
6E
330
67
100
AcDbEntity
  8
0
 62
     3
100
AcDbMText
 10
1470.656238132957
 20
-1755.469098855132
 30
0.0
 40
5.0
 41
0.0
 71
     5
 72
     1
  1
\A1;30
 73
     1
 44
1.0
1001
ACAD
1000
MTEXTBEGIN
1070
    73
1070
     1
1070
    44
1040
1.0
1070
    74
1070
     0
1000
MTEXTEND
  0
POINT
  5
6F
330
67
100
AcDbEntity
  8
Defpoints
 62
     0
100
AcDbPoint
 10
1454.39755376846
 20
-1770.542456264533
 30
0.0
  0
POINT
  5
71
330
67
100
AcDbEntity
  8
Defpoints
 62
     0
100
AcDbPoint
 10
1484.39755376846
 20
-1769.542456264533
 30
0.0
  0
POINT
  5
72
330
67
100
AcDbEntity
  8
Defpoints
 62
     0
100
AcDbPoint
 10
1484.39755376846
 20
-1759.469098855132
 30
0.0
  0
ENDBLK
  5
73
330
67
100
AcDbEntity
  8
0
100
AcDbBlockEnd
  0
BLOCK
  5
7A
330
79
100
AcDbEntity
  8
0
100
AcDbBlockBegin
  2
*D5
 70
     1
 10
0.0
 20
0.0
 30
0.0
  3
*D5
  1

  0
LINE
  5
7B
330
79
100
AcDbEntity
  8
0
 62
   123
370
    -2
100
AcDbLine
 10
1454.39755376846
 20
-1782.542456264533
 30
0.0
 11
1454.39755376846
 21
-1857.758978900728
 31
0.0
  0
LINE
  5
7C
330
79
100
AcDbEntity
  8
0
 62
   123
370
    -2
100
AcDbLine
 10
1491.39755376846
 20
-1821.542456264533
 30
0.0
 11
1491.39755376846
 21
-1857.758978900728
 31
0.0
  0
LINE
  5
7D
330
79
100
AcDbEntity
  8
0
 62
   123
370
    -2
100
AcDbLine
 10
1458.39755376846
 20
-1857.158978900728
 30
0.0
 11
1487.39755376846
 21
-1857.158978900728
 31
0.0
  0
SOLID
  5
7E
330
79
100
AcDbEntity
  8
0
 62
   123
100
AcDbTrace
 10
1458.39755376846
 20
-1856.492312234061
 30
0.0
 11
1458.39755376846
 21
-1857.825645567395
 31
0.0
 12
1454.39755376846
 22
-1857.158978900728
 32
0.0
 13
1454.39755376846
 23
-1857.158978900728
 33
0.0
  0
SOLID
  5
7F
330
79
100
AcDbEntity
  8
0
 62
   123
100
AcDbTrace
 10
1487.39755376846
 20
-1856.492312234061
 30
0.0
 11
1487.39755376846
 21
-1857.825645567395
 31
0.0
 12
1491.39755376846
 22
-1857.158978900728
 32
0.0
 13
1491.39755376846
 23
-1857.158978900728
 33
0.0
  0
MTEXT
  5
80
330
79
100
AcDbEntity
  8
0
 62
     3
100
AcDbMText
 10
1472.89755376846
 20
-1853.158978900728
 30
0.0
 40
5.0
 41
0.0
 71
     5
 72
     1
  1
\A1;37
 73
     1
 44
1.0
1001
ACAD
1000
MTEXTBEGIN
1070
    73
1070
     1
1070
    44
1040
1.0
1070
    74
1070
     0
1000
MTEXTEND
  0
POINT
  5
81
330
79
100
AcDbEntity
  8
Defpoints
 62
     0
100
AcDbPoint
 10
1454.39755376846
 20
-1781.542456264533
 30
0.0
  0
POINT
  5
82
330
79
100
AcDbEntity
  8
Defpoints
 62
     0
100
AcDbPoint
 10
1491.39755376846
 20
-1820.542456264533
 30
0.0
  0
POINT
  5
83
330
79
100
AcDbEntity
  8
Defpoints
 62
     0
100
AcDbPoint
 10
1491.39755376846
 20
-1857.158978900728
 30
0.0
  0
ENDBLK
  5
84
330
79
100
AcDbEntity
  8
0
100
AcDbBlockEnd
  0
BLOCK
  5
89
330
88
100
AcDbEntity
  8
0
100
AcDbBlockBegin
  2
*D6
 70
     1
 10
0.0
 20
0.0
 30
0.0
  3
*D6
  1

  0
LINE
  5
8A
330
88
100
AcDbEntity
  8
0
 62
   123
370
    -2
100
AcDbLine
 10
1453.39755376846
 20
-1781.542456264533
 30
0.0
 11
1431.616417934865
 21
-1781.542456264533
 31
0.0
  0
LINE
  5
8B
330
88
100
AcDbEntity
  8
0
 62
   123
370
    -2
100
AcDbLine
 10
1483.39755376846
 20
-1769.542456264533
 30
0.0
 11
1431.616417934865
 21
-1769.542456264533
 31
0.0
  0
LINE
  5
8C
330
88
100
AcDbEntity
  8
0
 62
   123
370
    -2
100
AcDbLine
 10
1432.216417934865
 20
-1777.542456264533
 30
0.0
 11
1432.216417934865
 21
-1773.542456264533
 31
0.0
  0
SOLID
  5
8D
330
88
100
AcDbEntity
  8
0
 62
   123
100
AcDbTrace
 10
1431.549751268198
 20
-1777.542456264533
 30
0.0
 11
1432.883084601532
 21
-1777.542456264533
 31
0.0
 12
1432.216417934865
 22
-1781.542456264533
 32
0.0
 13
1432.216417934865
 23
-1781.542456264533
 33
0.0
  0
SOLID
  5
8E
330
88
100
AcDbEntity
  8
0
 62
   123
100
AcDbTrace
 10
1431.549751268198
 20
-1773.542456264533
 30
0.0
 11
1432.883084601532
 21
-1773.542456264533
 31
0.0
 12
1432.216417934865
 22
-1769.542456264533
 32
0.0
 13
1432.216417934865
 23
-1769.542456264533
 33
0.0
  0
MTEXT
  5
8F
330
88
100
AcDbEntity
  8
0
 62
     3
100
AcDbMText
 10
1425.799501268199
 20
-1775.542456264532
 30
0.0
 40
5.0
 41
0.0
 71
     5
 72
     1
  1
\A1;\A1;{\f??|b0|i0|c0|p49;%%C}12{\f??|b0|i0|c0|p49;\H0.7x;\S+0^ -0.018;\H1.429x;(h}7{\f??|b0|i0|c0|p49;)}
 11
0.0000000000000001
 21
1.0
 31
0.0
 73
     1
 44
1.0
1001
ACAD
1000
MTEXTBEGIN
1070
    73
1070
     1
1070
    44
1040
1.0
1070
    74
1070
     0
1000
MTEXTEND
  0
POINT
  5
90
330
88
100
AcDbEntity
  8
Defpoints
 62
     0
100
AcDbPoint
 10
1454.39755376846
 20
-1781.542456264533
 30
0.0
  0
POINT
  5
91
330
88
100
AcDbEntity
  8
Defpoints
 62
     0
100
AcDbPoint
 10
1484.39755376846
 20
-1769.542456264533
 30
0.0
  0
POINT
  5
92
330
88
100
AcDbEntity
  8
Defpoints
 62
     0
100
AcDbPoint
 10
1432.216417934865
 20
-1769.542456264533
 30
0.0
  0
ENDBLK
  5
93
330
88
100
AcDbEntity
  8
0
100
AcDbBlockEnd
  0
BLOCK
  5
98
330
97
100
AcDbEntity
  8
0
100
AcDbBlockBegin
  2
*D7
 70
     1
 10
0.0
 20
0.0
 30
0.0
  3
*D7
  1

  0
LINE
  5
99
330
97
100
AcDbEntity
  8
0
 62
   123
370
    -2
100
AcDbLine
 10
1488.39755376846
 20
-1734.042456264533
 30
0.0
 11
1419.316412547176
 21
-1734.042456264533
 31
0.0
  0
LINE
  5
9A
330
97
100
AcDbEntity
  8
0
 62
   123
370
    -2
100
AcDbLine
 10
1488.39755376846
 20
-1817.042456264533
 30
0.0
 11
1419.316412547176
 21
-1817.042456264533
 31
0.0
  0
LINE
  5
9B
330
97
100
AcDbEntity
  8
0
 62
   123
370
    -2
100
AcDbLine
 10
1419.916412547175
 20
-1738.042456264533
 30
0.0
 11
1419.916412547175
 21
-1813.042456264533
 31
0.0
  0
SOLID
  5
9C
330
97
100
AcDbEntity
  8
0
 62
   123
100
AcDbTrace
 10
1419.249745880509
 20
-1738.042456264533
 30
0.0
 11
1420.583079213842
 21
-1738.042456264533
 31
0.0
 12
1419.916412547175
 22
-1734.042456264533
 32
0.0
 13
1419.916412547175
 23
-1734.042456264533
 33
0.0
  0
SOLID
  5
9D
330
97
100
AcDbEntity
  8
0
 62
   123
100
AcDbTrace
 10
1419.249745880509
 20
-1813.042456264533
 30
0.0
 11
1420.583079213842
 21
-1813.042456264533
 31
0.0
 12
1419.916412547175
 22
-1817.042456264533
 32
0.0
 13
1419.916412547175
 23
-1817.042456264533
 33
0.0
  0
MTEXT
  5
9E
330
97
100
AcDbEntity
  8
0
 62
     3
100
AcDbMText
 10
1413.49949588051
 20
-1777.561754705044
 30
0.0
 40
5.0
 41
0.0
 71
     5
 72
     1
  1
\A1;\A1;{\f??|b0|i0|c0|p49;%%c}83{\f??|b0|i0|c0|p49;\H0.7x;\S+0^ -0.035;\H1.429x;(h7)}
 11
0.0000000000000001
 21
1.0
 31
0.0
 73
     1
 44
1.0
1001
ACAD
1000
MTEXTBEGIN
1070
    73
1070
     1
1070
    44
1040
1.0
1070
    74
1070
     0
1000
MTEXTEND
  0
POINT
  5
9F
330
97
100
AcDbEntity
  8
Defpoints
 62
     0
100
AcDbPoint
 10
1489.39755376846
 20
-1734.042456264533
 30
0.0
  0
POINT
  5
A0
330
97
100
AcDbEntity
  8
Defpoints
 62
     0
100
AcDbPoint
 10
1489.39755376846
 20
-1817.042456264533
 30
0.0
  0
POINT
  5
A1
330
97
100
AcDbEntity
  8
Defpoints
 62
     0
100
AcDbPoint
 10
1419.916412547175
 20
-1817.042456264533
 30
0.0
  0
ENDBLK
  5
A2
330
97
100
AcDbEntity
  8
0
100
AcDbBlockEnd
  0
BLOCK
  5
AA
330
A9
100
AcDbEntity
  8
0
100
AcDbBlockBegin
  2
*D8
 70
     1
 10
0.0
 20
0.0
 30
0.0
  3
*D8
  1

  0
LINE
  5
AB
330
A9
100
AcDbEntity
  8
0
 62
   123
370
    -2
100
AcDbLine
 10
1453.39755376846
 20
-1781.542456264533
 30
0.0
 11
1441.329072887753
 21
-1781.542456264533
 31
0.0
  0
LINE
  5
AC
330
A9
100
AcDbEntity
  8
0
 62
   123
370
    -2
100
AcDbLine
 10
1453.39755376846
 20
-1770.542456264533
 30
0.0
 11
1441.329072887753
 21
-1770.542456264533
 31
0.0
  0
LINE
  5
AD
330
A9
100
AcDbEntity
  8
0
 62
   123
370
    -2
100
AcDbLine
 10
1441.929072887752
 20
-1777.542456264533
 30
0.0
 11
1441.929072887752
 21
-1774.542456264533
 31
0.0
  0
SOLID
  5
AE
330
A9
100
AcDbEntity
  8
0
 62
   123
100
AcDbTrace
 10
1441.262406221086
 20
-1777.542456264533
 30
0.0
 11
1442.595739554419
 21
-1777.542456264533
 31
0.0
 12
1441.929072887752
 22
-1781.542456264533
 32
0.0
 13
1441.929072887752
 23
-1781.542456264533
 33
0.0
  0
SOLID
  5
AF
330
A9
100
AcDbEntity
  8
0
 62
   123
100
AcDbTrace
 10
1441.262406221086
 20
-1774.542456264533
 30
0.0
 11
1442.595739554419
 21
-1774.542456264533
 31
0.0
 12
1441.929072887752
 22
-1770.542456264533
 32
0.0
 13
1441.929072887752
 23
-1770.542456264533
 33
0.0
  0
MTEXT
  5
B0
330
A9
100
AcDbEntity
  8
0
 62
     3
100
AcDbMText
 10
1437.929072887753
 20
-1776.042456264533
 30
0.0
 40
5.0
 41
0.0
 71
     5
 72
     1
  1
\A1;11
 11
0.0000000000000001
 21
1.0
 31
0.0
 73
     1
 44
1.0
1001
ACAD
1000
MTEXTBEGIN
1070
    73
1070
     1
1070
    44
1040
1.0
1070
    74
1070
     0
1000
MTEXTEND
  0
POINT
  5
B1
330
A9
100
AcDbEntity
  8
Defpoints
 62
     0
100
AcDbPoint
 10
1454.39755376846
 20
-1781.542456264533
 30
0.0
  0
POINT
  5
B2
330
A9
100
AcDbEntity
  8
Defpoints
 62
     0
100
AcDbPoint
 10
1454.39755376846
 20
-1770.542456264533
 30
0.0
  0
POINT
  5
B3
330
A9
100
AcDbEntity
  8
Defpoints
 62
     0
100
AcDbPoint
 10
1441.929072887752
 20
-1770.542456264533
 30
0.0
  0
ENDBLK
  5
B4
330
A9
100
AcDbEntity
  8
0
100
AcDbBlockEnd
  0
BLOCK
  5
D8
330
D7
100
AcDbEntity
  8
0
100
AcDbBlockBegin
  2
*D9
 70
     1
 10
0.0
 20
0.0
 30
0.0
  3
*D9
  1

  0
LINE
  5
D9
330
D7
100
AcDbEntity
  8
0
 62
   123
370
    -2
100
AcDbLine
 10
1489.39755376846
 20
-1818.042456264533
 30
0.0
 11
1489.39755376846
 21
-1835.582923947364
 31
0.0
  0
LINE
  5
DA
330
D7
100
AcDbEntity
  8
0
 62
   123
370
    -2
100
AcDbLine
 10
1491.39755376846
 20
-1821.542456264533
 30
0.0
 11
1491.39755376846
 21
-1835.582923947364
 31
0.0
  0
LINE
  5
DB
330
D7
100
AcDbEntity
  8
0
 62
   123
370
    -2
100
AcDbLine
 10
1495.39755376846
 20
-1834.982923947364
 30
0.0
 11
1499.39755376846
 21
-1834.982923947364
 31
0.0
  0
LINE
  5
DC
330
D7
100
AcDbEntity
  8
0
 62
   123
370
    -2
100
AcDbLine
 10
1485.39755376846
 20
-1834.982923947364
 30
0.0
 11
1475.064220435126
 21
-1834.982923947364
 31
0.0
  0
LINE
  5
DD
330
D7
100
AcDbEntity
  8
0
 62
   123
370
    -2
100
AcDbLine
 10
1491.39755376846
 20
-1834.982923947364
 30
0.0
 11
1489.39755376846
 21
-1834.982923947364
 31
0.0
  0
SOLID
  5
DE
330
D7
100
AcDbEntity
  8
0
 62
   123
100
AcDbTrace
 10
1495.39755376846
 20
-1834.316257280697
 30
0.0
 11
1495.39755376846
 21
-1835.64959061403
 31
0.0
 12
1491.39755376846
 22
-1834.982923947364
 32
0.0
 13
1491.39755376846
 23
-1834.982923947364
 33
0.0
  0
SOLID
  5
DF
330
D7
100
AcDbEntity
  8
0
 62
   123
100
AcDbTrace
 10
1485.39755376846
 20
-1834.316257280697
 30
0.0
 11
1485.39755376846
 21
-1835.64959061403
 31
0.0
 12
1489.39755376846
 22
-1834.982923947364
 32
0.0
 13
1489.39755376846
 23
-1834.982923947364
 33
0.0
  0
MTEXT
  5
E0
330
D7
100
AcDbEntity
  8
0
 62
     3
100
AcDbMText
 10
1478.230887101793
 20
-1830.982923947364
 30
0.0
 40
5.0
 41
0.0
 71
     5
 72
     1
  1
\A1;2
 73
     1
 44
1.0
1001
ACAD
1000
MTEXTBEGIN
1070
    73
1070
     1
1070
    44
1040
1.0
1070
    74
1070
     0
1000
MTEXTEND
  0
POINT
  5
E1
330
D7
100
AcDbEntity
  8
Defpoints
 62
     0
100
AcDbPoint
 10
1489.39755376846
 20
-1817.042456264533
 30
0.0
  0
POINT
  5
E2
330
D7
100
AcDbEntity
  8
Defpoints
 62
     0
100
AcDbPoint
 10
1491.39755376846
 20
-1820.542456264533
 30
0.0
  0
POINT
  5
E3
330
D7
100
AcDbEntity
  8
Defpoints
 62
     0
100
AcDbPoint
 10
1491.39755376846
 20
-1834.982923947364
 30
0.0
  0
ENDBLK
  5
E4
330
D7
100
AcDbEntity
  8
0
100
AcDbBlockEnd
  0
BLOCK
  5
ED
330
EC
100
AcDbEntity
  8
0
100
AcDbBlockBegin
  2
*D10
 70
     1
 10
0.0
 20
0.0
 30
0.0
  3
*D10
  1

  0
LINE
  5
EE
330
EC
100
AcDbEntity
  8
0
 62
   123
370
    -2
100
AcDbLine
 10
1491.39755376846
 20
-1821.542456264533
 30
0.0
 11
1491.39755376846
 21
-1847.13609991717
 31
0.0
  0
LINE
  5
EF
330
EC
100
AcDbEntity
  8
0
 62
   123
370
    -2
100
AcDbLine
 10
1498.89755376846
 20
-1820.141193606063
 30
0.0
 11
1498.89755376846
 21
-1847.13609991717
 31
0.0
  0
LINE
  5
F0
330
EC
100
AcDbEntity
  8
0
 62
   123
370
    -2
100
AcDbLine
 10
1487.39755376846
 20
-1846.53609991717
 30
0.0
 11
1483.39755376846
 21
-1846.53609991717
 31
0.0
  0
LINE
  5
F1
330
EC
100
AcDbEntity
  8
0
 62
   123
370
    -2
100
AcDbLine
 10
1502.89755376846
 20
-1846.53609991717
 30
0.0
 11
1520.37374424465
 21
-1846.53609991717
 31
0.0
  0
LINE
  5
F2
330
EC
100
AcDbEntity
  8
0
 62
   123
370
    -2
100
AcDbLine
 10
1491.39755376846
 20
-1846.53609991717
 30
0.0
 11
1498.89755376846
 21
-1846.53609991717
 31
0.0
  0
SOLID
  5
F3
330
EC
100
AcDbEntity
  8
0
 62
   123
100
AcDbTrace
 10
1487.39755376846
 20
-1845.869433250503
 30
0.0
 11
1487.39755376846
 21
-1847.202766583836
 31
0.0
 12
1491.39755376846
 22
-1846.53609991717
 32
0.0
 13
1491.39755376846
 23
-1846.53609991717
 33
0.0
  0
SOLID
  5
F4
330
EC
100
AcDbEntity
  8
0
 62
   123
100
AcDbTrace
 10
1502.89755376846
 20
-1845.869433250503
 30
0.0
 11
1502.89755376846
 21
-1847.202766583836
 31
0.0
 12
1498.89755376846
 22
-1846.53609991717
 32
0.0
 13
1498.89755376846
 23
-1846.53609991717
 33
0.0
  0
MTEXT
  5
F5
330
EC
100
AcDbEntity
  8
0
 62
     3
100
AcDbMText
 10
1513.635649006555
 20
-1842.53609991717
 30
0.0
 40
5.0
 41
0.0
 71
     5
 72
     1
  1
\A1;7.5
 73
     1
 44
1.0
1001
ACAD
1000
MTEXTBEGIN
1070
    73
1070
     1
1070
    44
1040
1.0
1070
    74
1070
     0
1000
MTEXTEND
  0
POINT
  5
F6
330
EC
100
AcDbEntity
  8
Defpoints
 62
     0
100
AcDbPoint
 10
1491.39755376846
 20
-1820.542456264533
 30
0.0
  0
POINT
  5
F7
330
EC
100
AcDbEntity
  8
Defpoints
 62
     0
100
AcDbPoint
 10
1498.89755376846
 20
-1819.141193606063
 30
0.0
  0
POINT
  5
F8
330
EC
100
AcDbEntity
  8
Defpoints
 62
     0
100
AcDbPoint
 10
1498.89755376846
 20
-1846.53609991717
 30
0.0
  0
ENDBLK
  5
F9
330
EC
100
AcDbEntity
  8
0
100
AcDbBlockEnd
  0
BLOCK
  5
11F
330
11E
100
AcDbEntity
  8
0
100
AcDbBlockBegin
  2
*D11
 70
     1
 10
0.0
 20
0.0
 30
0.0
  3
*D11
  1

  0
LINE
  5
120
330
11E
100
AcDbEntity
  8
0
 62
   123
370
    -2
100
AcDbLine
 10
1497.39755376846
 20
-1720.842457264533
 30
0.0
 11
1497.39755376846
 21
-1674.886852759845
 31
0.0
  0
LINE
  5
121
330
11E
100
AcDbEntity
  8
0
 62
   123
370
    -2
100
AcDbLine
 10
1572.394220768459
 20
-1689.542457264529
 30
0.0
 11
1572.394220768459
 21
-1674.886852759845
 31
0.0
  0
LINE
  5
122
330
11E
100
AcDbEntity
  8
0
 62
   123
370
    -2
100
AcDbLine
 10
1501.39755376846
 20
-1675.486852759846
 30
0.0
 11
1568.394220768459
 21
-1675.486852759846
 31
0.0
  0
SOLID
  5
123
330
11E
100
AcDbEntity
  8
0
 62
   123
100
AcDbTrace
 10
1501.39755376846
 20
-1674.820186093179
 30
0.0
 11
1501.39755376846
 21
-1676.153519426513
 31
0.0
 12
1497.39755376846
 22
-1675.486852759846
 32
0.0
 13
1497.39755376846
 23
-1675.486852759846
 33
0.0
  0
SOLID
  5
124
330
11E
100
AcDbEntity
  8
0
 62
   123
100
AcDbTrace
 10
1568.394220768459
 20
-1674.820186093179
 30
0.0
 11
1568.394220768459
 21
-1676.153519426513
 31
0.0
 12
1572.394220768459
 22
-1675.486852759846
 32
0.0
 13
1572.394220768459
 23
-1675.486852759846
 33
0.0
  0
MTEXT
  5
125
330
11E
100
AcDbEntity
  8
0
 62
     3
100
AcDbMText
 10
1534.89588726846
 20
-1671.486852759846
 30
0.0
 40
5.0
 41
0.0
 71
     5
 72
     1
  1
\A1;75
 73
     1
 44
1.0
1001
ACAD
1000
MTEXTBEGIN
1070
    73
1070
     1
1070
    44
1040
1.0
1070
    74
1070
     0
1000
MTEXTEND
  0
POINT
  5
126
330
11E
100
AcDbEntity
  8
Defpoints
 62
     0
100
AcDbPoint
 10
1497.39755376846
 20
-1721.842457264532
 30
0.0
  0
POINT
  5
127
330
11E
100
AcDbEntity
  8
Defpoints
 62
     0
100
AcDbPoint
 10
1572.394220768459
 20
-1690.54245726453
 30
0.0
  0
POINT
  5
128
330
11E
100
AcDbEntity
  8
Defpoints
 62
     0
100
AcDbPoint
 10
1572.394220768459
 20
-1675.486852759846
 30
0.0
  0
ENDBLK
  5
129
330
11E
100
AcDbEntity
  8
0
100
AcDbBlockEnd
  0
BLOCK
  5
136
330
135
100
AcDbEntity
  8
0
100
AcDbBlockBegin
  2
*D12
 70
     1
 10
0.0
 20
0.0
 30
0.0
  3
*D12
  1

  0
LINE
  5
137
330
135
100
AcDbEntity
  8
0
 62
   123
370
    -2
100
AcDbLine
 10
1491.39755376846
 20
-1729.542456264533
 30
0.0
 11
1491.39755376846
 21
-1674.886852759845
 31
0.0
  0
LINE
  5
138
330
135
100
AcDbEntity
  8
0
 62
   123
370
    -2
100
AcDbLine
 10
1497.39755376846
 20
-1720.842457264533
 30
0.0
 11
1497.39755376846
 21
-1674.886852759845
 31
0.0
  0
LINE
  5
139
330
135
100
AcDbEntity
  8
0
 62
   123
370
    -2
100
AcDbLine
 10
1487.39755376846
 20
-1675.486852759846
 30
0.0
 11
1483.39755376846
 21
-1675.486852759846
 31
0.0
  0
LINE
  5
13A
330
135
100
AcDbEntity
  8
0
 62
   123
370
    -2
100
AcDbLine
 10
1501.39755376846
 20
-1675.486852759846
 30
0.0
 11
1505.39755376846
 21
-1675.486852759846
 31
0.0
  0
LINE
  5
13B
330
135
100
AcDbEntity
  8
0
 62
   123
370
    -2
100
AcDbLine
 10
1491.39755376846
 20
-1675.486852759846
 30
0.0
 11
1497.39755376846
 21
-1675.486852759846
 31
0.0
  0
SOLID
  5
13C
330
135
100
AcDbEntity
  8
0
 62
   123
100
AcDbTrace
 10
1487.39755376846
 20
-1674.820186093179
 30
0.0
 11
1487.39755376846
 21
-1676.153519426513
 31
0.0
 12
1491.39755376846
 22
-1675.486852759846
 32
0.0
 13
1491.39755376846
 23
-1675.486852759846
 33
0.0
  0
SOLID
  5
13D
330
135
100
AcDbEntity
  8
0
 62
   123
100
AcDbTrace
 10
1501.39755376846
 20
-1674.820186093179
 30
0.0
 11
1501.39755376846
 21
-1676.153519426513
 31
0.0
 12
1497.39755376846
 22
-1675.486852759846
 32
0.0
 13
1497.39755376846
 23
-1675.486852759846
 33
0.0
  0
MTEXT
  5
13E
330
135
100
AcDbEntity
  8
0
 62
     3
100
AcDbMText
 10
1494.39755376846
 20
-1671.486852759846
 30
0.0
 40
5.0
 41
0.0
 71
     5
 72
     1
  1
\A1;6
 73
     1
 44
1.0
1001
ACAD
1000
MTEXTBEGIN
1070
    73
1070
     1
1070
    44
1040
1.0
1070
    74
1070
     0
1000
MTEXTEND
  0
POINT
  5
13F
330
135
100
AcDbEntity
  8
Defpoints
 62
     0
100
AcDbPoint
 10
1491.39755376846
 20
-1730.542456264533
 30
0.0
  0
POINT
  5
140
330
135
100
AcDbEntity
  8
Defpoints
 62
     0
100
AcDbPoint
 10
1497.39755376846
 20
-1721.842457264532
 30
0.0
  0
POINT
  5
141
330
135
100
AcDbEntity
  8
Defpoints
 62
     0
100
AcDbPoint
 10
1497.39755376846
 20
-1675.486852759846
 30
0.0
  0
ENDBLK
  5
142
330
135
100
AcDbEntity
  8
0
100
AcDbBlockEnd
  0
BLOCK
  5
14A
330
149
100
AcDbEntity
  8
0
100
AcDbBlockBegin
  2
*D13
 70
     1
 10
0.0
 20
0.0
 30
0.0
  3
*D13
  1

  0
LINE
  5
14B
330
149
100
AcDbEntity
  8
0
 62
   123
370
    -2
100
AcDbLine
 10
1572.394220768459
 20
-1689.542457264529
 30
0.0
 11
1572.394220768459
 21
-1674.903423780358
 31
0.0
  0
LINE
  5
14C
330
149
100
AcDbEntity
  8
0
 62
   123
370
    -2
100
AcDbLine
 10
1600.394220768459
 20
-1697.54245726453
 30
0.0
 11
1600.394220768459
 21
-1674.903423780358
 31
0.0
  0
LINE
  5
14D
330
149
100
AcDbEntity
  8
0
 62
   123
370
    -2
100
AcDbLine
 10
1576.394220768459
 20
-1675.503423780357
 30
0.0
 11
1596.394220768459
 21
-1675.503423780357
 31
0.0
  0
SOLID
  5
14E
330
149
100
AcDbEntity
  8
0
 62
   123
100
AcDbTrace
 10
1576.394220768459
 20
-1674.836757113691
 30
0.0
 11
1576.394220768459
 21
-1676.170090447024
 31
0.0
 12
1572.394220768459
 22
-1675.503423780357
 32
0.0
 13
1572.394220768459
 23
-1675.503423780357
 33
0.0
  0
SOLID
  5
14F
330
149
100
AcDbEntity
  8
0
 62
   123
100
AcDbTrace
 10
1596.394220768459
 20
-1674.836757113691
 30
0.0
 11
1596.394220768459
 21
-1676.170090447024
 31
0.0
 12
1600.394220768459
 22
-1675.503423780357
 32
0.0
 13
1600.394220768459
 23
-1675.503423780357
 33
0.0
  0
MTEXT
  5
150
330
149
100
AcDbEntity
  8
0
 62
     3
100
AcDbMText
 10
1586.394220768459
 20
-1671.503423780357
 30
0.0
 40
5.0
 41
0.0
 71
     5
 72
     1
  1
\A1;MAX. 28
 73
     1
 44
1.0
1001
ACAD
1000
MTEXTBEGIN
1070
    73
1070
     1
1070
    44
1040
1.0
1070
    74
1070
     0
1000
MTEXTEND
  0
POINT
  5
151
330
149
100
AcDbEntity
  8
Defpoints
 62
     0
100
AcDbPoint
 10
1572.394220768459
 20
-1690.54245726453
 30
0.0
  0
POINT
  5
152
330
149
100
AcDbEntity
  8
Defpoints
 62
     0
100
AcDbPoint
 10
1600.394220768459
 20
-1698.54245726453
 30
0.0
  0
POINT
  5
153
330
149
100
AcDbEntity
  8
Defpoints
 62
     0
100
AcDbPoint
 10
1600.394220768459
 20
-1675.503423780357
 30
0.0
  0
ENDBLK
  5
154
330
149
100
AcDbEntity
  8
0
100
AcDbBlockEnd
  0
BLOCK
  5
183
330
182
100
AcDbEntity
  8
0
100
AcDbBlockBegin
  2
*D14
 70
     1
 10
0.0
 20
0.0
 30
0.0
  3
*D14
  1

  0
LINE
  5
184
330
182
100
AcDbEntity
  8
0
 62
   123
100
AcDbLine
 10
1429.216997251181
 20
-1709.171411957311
 30
0.0
 11
1387.710161608508
 21
-1741.278759914764
 31
0.0
  0
LINE
  5
185
330
182
100
AcDbEntity
  8
0
 62
   123
100
AcDbLine
 10
1299.12124328458
 20
-1809.806152614303
 30
0.0
 11
1295.95735334444
 21
-1812.253559496429
 31
0.0
  0
MTEXT
  5
186
102
{ACAD_XDICTIONARY
360
245
102
}
330
182
100
AcDbEntity
  8
0
 62
     3
100
AcDbMText
 10
1411.552786371237
 20
-1717.77838368835
 30
0.0
 40
5.0
 41
0.0
 71
     5
 72
     1
  1
\A1;\U+2205104%%P0.5
 11
0.7909724850350564
 21
0.6118517205315907
 31
0.0
 73
     1
 44
1.0
1001
ACAD
1000
MTEXTBEGIN
1070
    73
1070
     1
1070
    44
1040
1.0
1070
    74
1070
     0
1000
MTEXTEND
  0
LINE
  5
187
330
182
100
AcDbEntity
  8
0
 62
   123
100
AcDbLine
 10
1302.28513322472
 20
-1807.358745732176
 30
0.0
 11
1384.546271668368
 21
-1743.726166796889
 31
0.0
  0
SOLID
  5
188
330
182
100
AcDbEntity
  8
0
 62
   123
100
AcDbTrace
 10
1298.713342137559
 20
-1809.278837624279
 30
0.0
 11
1299.529144431601
 21
-1810.333467604326
 31
0.0
 12
1302.28513322472
 22
-1807.358745732176
 32
0.0
 13
1302.28513322472
 23
-1807.358745732176
 33
0.0
  0
SOLID
  5
189
330
182
100
AcDbEntity
  8
0
 62
   123
100
AcDbTrace
 10
1387.302260461487
 20
-1740.75144492474
 30
0.0
 11
1388.118062755529
 21
-1741.806074904787
 31
0.0
 12
1384.546271668368
 22
-1743.726166796889
 32
0.0
 13
1384.546271668368
 23
-1743.726166796889
 33
0.0
  0
POINT
  5
18A
330
182
100
AcDbEntity
  8
Defpoints
 62
     0
100
AcDbPoint
 10
1384.546271668368
 20
-1743.726166796889
 30
0.0
  0
POINT
  5
18B
330
182
100
AcDbEntity
  8
Defpoints
 62
     0
100
AcDbPoint
 10
1302.28513322472
 20
-1807.358745732176
 30
0.0
  0
ENDBLK
  5
18C
330
182
100
AcDbEntity
  8
0
100
AcDbBlockEnd
  0
BLOCK
  5
1FB
330
1FA
100
AcDbEntity
  8
0
100
AcDbBlockBegin
  2
*D15
 70
     1
 10
0.0
 20
0.0
 30
0.0
  3
*D15
  1

  0
LINE
  5
1FC
330
1FA
100
AcDbEntity
  8
0
 62
   123
370
    -2
100
AcDbLine
 10
1491.39755376846
 20
-1821.542456264533
 30
0.0
 11
1491.39755376846
 21
-1857.758978900728
 31
0.0
  0
LINE
  5
1FD
330
1FA
100
AcDbEntity
  8
0
 62
   123
370
    -2
100
AcDbLine
 10
1646.39755376846
 20
-1815.542456264533
 30
0.0
 11
1646.39755376846
 21
-1857.758978900728
 31
0.0
  0
LINE
  5
1FE
330
1FA
100
AcDbEntity
  8
0
 62
   123
370
    -2
100
AcDbLine
 10
1495.39755376846
 20
-1857.158978900728
 30
0.0
 11
1642.39755376846
 21
-1857.158978900728
 31
0.0
  0
SOLID
  5
1FF
330
1FA
100
AcDbEntity
  8
0
 62
   123
100
AcDbTrace
 10
1495.39755376846
 20
-1856.492312234061
 30
0.0
 11
1495.39755376846
 21
-1857.825645567395
 31
0.0
 12
1491.39755376846
 22
-1857.158978900728
 32
0.0
 13
1491.39755376846
 23
-1857.158978900728
 33
0.0
  0
SOLID
  5
200
330
1FA
100
AcDbEntity
  8
0
 62
   123
100
AcDbTrace
 10
1642.39755376846
 20
-1856.492312234061
 30
0.0
 11
1642.39755376846
 21
-1857.825645567395
 31
0.0
 12
1646.39755376846
 22
-1857.158978900728
 32
0.0
 13
1646.39755376846
 23
-1857.158978900728
 33
0.0
  0
MTEXT
  5
201
330
1FA
100
AcDbEntity
  8
0
 62
     3
100
AcDbMText
 10
1568.89755376846
 20
-1853.158978900728
 30
0.0
 40
5.0
 41
0.0
 71
     5
 72
     1
  1
\A1;155
 73
     1
 44
1.0
1001
ACAD
1000
MTEXTBEGIN
1070
    73
1070
     1
1070
    44
1040
1.0
1070
    74
1070
     0
1000
MTEXTEND
  0
POINT
  5
202
330
1FA
100
AcDbEntity
  8
Defpoints
 62
     0
100
AcDbPoint
 10
1491.39755376846
 20
-1820.542456264533
 30
0.0
  0
POINT
  5
203
330
1FA
100
AcDbEntity
  8
Defpoints
 62
     0
100
AcDbPoint
 10
1646.39755376846
 20
-1814.542456264533
 30
0.0
  0
POINT
  5
204
330
1FA
100
AcDbEntity
  8
Defpoints
 62
     0
100
AcDbPoint
 10
1646.39755376846
 20
-1857.158978900728
 30
0.0
  0
ENDBLK
  5
205
330
1FA
100
AcDbEntity
  8
0
100
AcDbBlockEnd
  0
ENDSEC
  0
SECTION
  2
ENTITIES
  0
DIMENSION
  5
64
102
{ACAD_XDICTIONARY
360
65
102
}
102
{ACAD_REACTORS
330
66
102
}
330
2
100
AcDbEntity
  8
0
100
AcDbDimension
  2
*D4
 10
1484.39755376846
 20
-1759.469098855132
 30
0.0
 11
1470.656238132957
 21
-1759.469098855132
 31
0.0
 70
   128
 71
     5
 42
-1.0
  3
STANDARD
100
AcDbAlignedDimension
 13
1454.39755376846
 23
-1770.542456264533
 33
0.0
 14
1484.39755376846
 24
-1769.542456264533
 34
0.0
100
AcDbRotatedDimension
  0
LINE
  5
74
102
{ACAD_REACTORS
330
66
330
A8
102
}
330
2
100
AcDbEntity
  8
0
100
AcDbLine
 10
1484.39755376846
 20
-1770.542456264533
 30
0.0
 11
1454.39755376846
 21
-1770.542456264533
 31
0.0
  0
LINE
  5
75
102
{ACAD_REACTORS
330
A8
330
87
102
}
330
2
100
AcDbEntity
  8
0
100
AcDbLine
 10
1489.39755376846
 20
-1781.542456264533
 30
0.0
 11
1454.39755376846
 21
-1781.542456264533
 31
0.0
  0
DIMENSION
  5
76
102
{ACAD_XDICTIONARY
360
77
102
}
102
{ACAD_REACTORS
330
78
102
}
330
2
100
AcDbEntity
  8
0
100
AcDbDimension
  2
*D5
 10
1491.39755376846
 20
-1857.158978900728
 30
0.0
 11
1472.89755376846
 21
-1857.158978900728
 31
0.0
 70
   128
 71
     5
 42
-1.0
  3
STANDARD
100
AcDbAlignedDimension
 13
1454.39755376846
 23
-1781.542456264533
 33
0.0
 14
1491.39755376846
 24
-1820.542456264533
 34
0.0
100
AcDbRotatedDimension
  0
DIMENSION
  5
85
102
{ACAD_XDICTIONARY
360
86
102
}
102
{ACAD_REACTORS
330
87
102
}
330
2
100
AcDbEntity
  8
0
100
AcDbDimension
  2
*D6
 10
1432.216417934865
 20
-1769.542456264533
 30
0.0
 11
1432.216417934865
 21
-1775.542456264532
 31
0.0
 70
   128
  1
\A1;{\f??|b0|i0|c0|p49;%%C}12{\f??|b0|i0|c0|p49;\H0.7x;\S+0^ -0.018;\H1.429x;(h}7{\f??|b0|i0|c0|p49;)}
 71
     5
 42
-1.0
  3
STANDARD
100
AcDbAlignedDimension
 13
1454.39755376846
 23
-1781.542456264533
 33
0.0
 14
1484.39755376846
 24
-1769.542456264533
 34
0.0
 50
90.0
100
AcDbRotatedDimension
  0
DIMENSION
  5
94
102
{ACAD_XDICTIONARY
360
95
102
}
102
{ACAD_REACTORS
330
96
102
}
330
2
100
AcDbEntity
  8
0
100
AcDbDimension
  2
*D7
 10
1419.916412547175
 20
-1817.042456264533
 30
0.0
 11
1419.916412547176
 21
-1777.561754705044
 31
0.0
 70
   128
  1
\A1;{\f??|b0|i0|c0|p49;%%c}<>{\f??|b0|i0|c0|p49;\H0.7x;\S+0^ -0.035;\H1.429x;(h7)}
 71
     5
 42
-1.0
  3
STANDARD
100
AcDbAlignedDimension
 13
1489.39755376846
 23
-1734.042456264533
 33
0.0
 14
1489.39755376846
 24
-1817.042456264533
 34
0.0
 50
90.0
100
AcDbRotatedDimension
  0
LINE
  5
A3
330
2
100
AcDbEntity
  8
0
  6
CENTER
 62
     1
100
AcDbLine
 10
1651.921117196863
 20
-1775.542456264533
 30
0.0
 11
1444.749845423292
 21
-1775.542456264533
 31
0.0
  0
LINE
  5
A5
330
2
100
AcDbEntity
  8
0
100
AcDbLine
 10
1454.39755376846
 20
-1770.542456264533
 30
0.0
 11
1454.39755376846
 21
-1781.542456264533
 31
0.0
  0
DIMENSION
  5
A6
102
{ACAD_XDICTIONARY
360
A7
102
}
102
{ACAD_REACTORS
330
A8
102
}
330
2
100
AcDbEntity
  8
0
100
AcDbDimension
  2
*D8
 10
1441.929072887752
 20
-1770.542456264533
 30
0.0
 11
1441.929072887753
 21
-1776.042456264533
 31
0.0
 70
   128
  1
<>
 71
     5
 42
-1.0
  3
STANDARD
100
AcDbAlignedDimension
 13
1454.39755376846
 23
-1781.542456264533
 33
0.0
 14
1454.39755376846
 24
-1770.542456264533
 34
0.0
 50
90.0
100
AcDbRotatedDimension
  0
LINE
  5
B5
330
2
100
AcDbEntity
  8
0
100
AcDbLine
 10
1621.39755376846
 20
-1795.946380866296
 30
0.0
 11
1639.39755376846
 21
-1795.946380866296
 31
0.0
  0
LINE
  5
B6
330
2
100
AcDbEntity
  8
0
100
AcDbLine
 10
1621.39755376846
 20
-1755.138531662773
 30
0.0
 11
1639.39755376846
 21
-1755.138531662773
 31
0.0
  0
ARC
  5
B7
330
2
100
AcDbEntity
  8
0
100
AcDbCircle
 10
1593.894220768459
 20
-1710.842457264532
 30
0.0
 40
6.718630999999999
100
AcDbArc
 50
274.2678929999532
 51
345.3432489998626
  0
ARC
  5
B8
330
2
100
AcDbEntity
  8
0
100
AcDbCircle
 10
1593.894220768459
 20
-1700.242457264534
 30
0.0
 40
6.718630999999999
100
AcDbArc
 50
14.65675100013736
 51
85.73210700004672
  0
LINE
  5
B9
330
2
100
AcDbEntity
  8
0
100
AcDbLine
 10
1593.394220768459
 20
-1693.542457264529
 30
0.0
 11
1593.394220768459
 21
-1717.54245726453
 31
0.0
  0
LINE
  5
BA
102
{ACAD_REACTORS
330
148
102
}
330
2
100
AcDbEntity
  8
0
100
AcDbLine
 10
1600.394220768459
 20
-1698.54245726453
 30
0.0
 11
1600.394220768459
 21
-1712.54245726453
 31
0.0
  0
LINE
  5
BB
330
2
100
AcDbEntity
  8
0
100
AcDbLine
 10
1625.864593717371
 20
-1728.65352087889
 30
0.0
 11
1628.29791318989
 21
-1728.65352087889
 31
0.0
  0
LINE
  5
BC
330
2
100
AcDbEntity
  8
0
100
AcDbLine
 10
1625.864593717371
 20
-1822.431391650179
 30
0.0
 11
1628.29791318989
 21
-1822.431391650179
 31
0.0
  0
CIRCLE
  5
BD
330
2
100
AcDbEntity
  8
0
100
AcDbCircle
 10
1627.692398961204
 20
-1775.542456264533
 30
0.0
 40
2.147836038934201
  0
LINE
  5
BE
330
2
100
AcDbEntity
  8
0
100
AcDbLine
 10
1628.547421972911
 20
-1774.687433252826
 30
0.0
 11
1626.841014745583
 21
-1776.393840480157
 31
0.0
  0
LINE
  5
BF
330
2
100
AcDbEntity
  8
0
100
AcDbLine
 10
1626.837375949497
 20
-1774.687433252826
 30
0.0
 11
1628.543783176828
 21
-1776.393840480157
 31
0.0
  0
LINE
  5
C0
330
2
100
AcDbEntity
  8
0
100
AcDbLine
 10
1624.864593717371
 20
-1730.542456264533
 30
0.0
 11
1624.864593717371
 21
-1729.65352087889
 31
0.0
  0
ARC
  5
C1
330
2
100
AcDbEntity
  8
0
100
AcDbCircle
 10
1625.864593717371
 20
-1729.65352087889
 30
0.0
 40
1.0
100
AcDbArc
 50
90.0
 51
180.0
  0
LINE
  5
C2
330
2
100
AcDbEntity
  8
0
100
AcDbLine
 10
1624.864593717371
 20
-1820.542456264533
 30
0.0
 11
1624.864593717371
 21
-1821.43139165018
 31
0.0
  0
ARC
  5
C3
330
2
100
AcDbEntity
  8
0
100
AcDbCircle
 10
1625.864593717371
 20
-1821.43139165018
 30
0.0
 40
1.0
100
AcDbArc
 50
180.0
 51
270.0
  0
LINE
  5
C4
330
2
100
AcDbEntity
  8
0
100
AcDbLine
 10
1621.39755376846
 20
-1820.042456264533
 30
0.0
 11
1621.39755376846
 21
-1731.042456264533
 31
0.0
  0
ARC
  5
C5
330
2
100
AcDbEntity
  8
0
100
AcDbCircle
 10
1628.29791318989
 20
-1729.65352087889
 30
0.0
 40
1.0
100
AcDbArc
 50
0.0
 51
90.0
  0
LINE
  5
C6
330
2
100
AcDbEntity
  8
0
100
AcDbLine
 10
1629.29791318989
 20
-1729.65352087889
 30
0.0
 11
1629.29791318989
 21
-1730.542456264533
 31
0.0
  0
ARC
  5
C7
330
2
100
AcDbEntity
  8
0
100
AcDbCircle
 10
1628.29791318989
 20
-1821.43139165018
 30
0.0
 40
1.0
100
AcDbArc
 50
270.0
 51
0.0
  0
LINE
  5
C8
330
2
100
AcDbEntity
  8
0
100
AcDbLine
 10
1629.29791318989
 20
-1821.43139165018
 30
0.0
 11
1629.29791318989
 21
-1820.542456264533
 31
0.0
  0
LINE
  5
C9
330
2
100
AcDbEntity
  8
0
100
AcDbLine
 10
1498.89755376846
 20
-1739.643718923004
 30
0.0
 11
1498.89755376846
 21
-1731.943718923003
 31
0.0
  0
LINE
  5
CA
330
2
100
AcDbEntity
  8
0
100
AcDbLine
 10
1554.514220768462
 20
-1730.04245726453
 30
0.0
 11
1554.514220768462
 21
-1740.377738923004
 31
0.0
  0
LINE
  5
CB
330
2
100
AcDbEntity
  8
0
100
AcDbLine
 10
1497.997553768458
 20
-1728.54245726453
 30
0.0
 11
1497.997553768458
 21
-1820.542456264533
 31
0.0
  0
LINE
  5
CC
330
2
100
AcDbEntity
  8
0
100
AcDbLine
 10
1491.39755376846
 20
-1730.542456264533
 30
0.0
 11
1491.39755376846
 21
-1820.542456264533
 31
0.0
  0
LINE
  5
CD
330
2
100
AcDbEntity
  8
0
100
AcDbLine
 10
1484.39755376846
 20
-1769.542456264533
 30
0.0
 11
1484.39755376846
 21
-1770.542456264533
 31
0.0
  0
LINE
  5
CE
102
{ACAD_REACTORS
330
66
330
87
102
}
330
2
100
AcDbEntity
  8
0
100
AcDbLine
 10
1489.39755376846
 20
-1769.542456264533
 30
0.0
 11
1484.39755376846
 21
-1769.542456264533
 31
0.0
  0
LINE
  5
CF
330
2
100
AcDbEntity
  8
0
100
AcDbLine
 10
1498.89755376846
 20
-1811.441193606062
 30
0.0
 11
1498.89755376846
 21
-1819.141193606063
 31
0.0
  0
LINE
  5
D0
102
{ACAD_REACTORS
330
96
102
}
330
2
100
AcDbEntity
  8
0
100
AcDbLine
 10
1489.39755376846
 20
-1734.042456264533
 30
0.0
 11
1489.39755376846
 21
-1817.042456264533
 31
0.0
  0
LINE
  5
D1
102
{ACAD_REACTORS
330
D6
102
}
330
2
100
AcDbEntity
  8
0
100
AcDbLine
 10
1491.39755376846
 20
-1817.042456264533
 30
0.0
 11
1489.39755376846
 21
-1817.042456264533
 31
0.0
  0
LINE
  5
D2
330
2
100
AcDbEntity
  8
0
100
AcDbLine
 10
1491.39755376846
 20
-1734.042456264533
 30
0.0
 11
1489.39755376846
 21
-1734.042456264533
 31
0.0
  0
LINE
  5
D3
102
{ACAD_REACTORS
330
EB
330
D6
330
78
330
1F9
102
}
330
2
100
AcDbEntity
  8
0
100
AcDbLine
 10
1491.39755376846
 20
-1820.542456264533
 30
0.0
 11
1639.39755376846
 21
-1820.542456264536
 31
0.0
  0
DIMENSION
  5
D4
102
{ACAD_XDICTIONARY
360
D5
102
}
102
{ACAD_REACTORS
330
D6
102
}
330
2
100
AcDbEntity
  8
0
100
AcDbDimension
  2
*D9
 10
1491.39755376846
 20
-1834.982923947364
 30
0.0
 11
1478.230887101793
 21
-1834.982923947364
 31
0.0
 70
   128
 71
     5
 42
-1.0
  3
STANDARD
100
AcDbAlignedDimension
 13
1489.39755376846
 23
-1817.042456264533
 33
0.0
 14
1491.39755376846
 24
-1820.542456264533
 34
0.0
100
AcDbRotatedDimension
  0
LINE
  5
E5
102
{ACAD_REACTORS
330
EB
102
}
330
2
100
AcDbEntity
  8
0
100
AcDbLine
 10
1497.997553768458
 20
-1819.141193606063
 30
0.0
 11
1498.89755376846
 21
-1819.141193606063
 31
0.0
  0
LINE
  5
E6
330
2
100
AcDbEntity
  8
0
100
AcDbLine
 10
1497.997553768458
 20
-1811.441193606062
 30
0.0
 11
1498.89755376846
 21
-1811.441193606062
 31
0.0
  0
LINE
  5
E7
330
2
100
AcDbEntity
  8
0
100
AcDbLine
 10
1497.997553768458
 20
-1739.643718923004
 30
0.0
 11
1498.89755376846
 21
-1739.643718923004
 31
0.0
  0
LINE
  5
E8
330
2
100
AcDbEntity
  8
0
100
AcDbLine
 10
1554.514220768462
 20
-1740.377738923004
 30
0.0
 11
1497.997553768458
 21
-1740.377738923004
 31
0.0
  0
DIMENSION
  5
E9
102
{ACAD_XDICTIONARY
360
EA
102
}
102
{ACAD_REACTORS
330
EB
102
}
330
2
100
AcDbEntity
  8
0
100
AcDbDimension
  2
*D10
 10
1498.89755376846
 20
-1846.53609991717
 30
0.0
 11
1513.635649006555
 21
-1846.53609991717
 31
0.0
 70
   128
 71
     5
 42
-1.0
  3
STANDARD
100
AcDbAlignedDimension
 13
1491.39755376846
 23
-1820.542456264533
 33
0.0
 14
1498.89755376846
 24
-1819.141193606063
 34
0.0
100
AcDbRotatedDimension
  0
LINE
  5
FA
330
2
100
AcDbEntity
  8
0
100
AcDbLine
 10
1572.394220768459
 20
-1721.842457264532
 30
0.0
 11
1570.42167876846
 21
-1688.013352264532
 31
0.0
  0
LINE
  5
FB
102
{ACAD_REACTORS
330
148
102
}
330
2
100
AcDbEntity
  8
0
100
AcDbLine
 10
1572.394220768459
 20
-1690.54245726453
 30
0.0
 11
1572.394220768459
 21
-1721.842457264532
 31
0.0
  0
LINE
  5
FC
330
2
100
AcDbEntity
  8
0
100
AcDbLine
 10
1583.394220768458
 20
-1692.542457264529
 30
0.0
 11
1583.394220768458
 21
-1718.54245726453
 31
0.0
  0
LINE
  5
FD
330
2
100
AcDbEntity
  8
0
100
AcDbLine
 10
1577.394220768459
 20
-1692.542457264529
 30
0.0
 11
1577.394220768459
 21
-1718.54245726453
 31
0.0
  0
LINE
  5
FE
330
2
100
AcDbEntity
  8
0
100
AcDbLine
 10
1577.394220768459
 20
-1718.54245726453
 30
0.0
 11
1572.394220768459
 21
-1718.54245726453
 31
0.0
  0
LINE
  5
FF
330
2
100
AcDbEntity
  8
0
100
AcDbLine
 10
1577.394220768459
 20
-1713.54245726453
 30
0.0
 11
1572.394220768459
 21
-1713.54245726453
 31
0.0
  0
LINE
  5
100
330
2
100
AcDbEntity
  8
0
100
AcDbLine
 10
1577.394220768459
 20
-1711.04245726453
 30
0.0
 11
1572.394220768459
 21
-1711.04245726453
 31
0.0
  0
LINE
  5
101
330
2
100
AcDbEntity
  8
0
100
AcDbLine
 10
1571.694220768462
 20
-1721.842457264532
 30
0.0
 11
1571.694220768462
 21
-1722.54245726453
 31
0.0
  0
LINE
  5
102
330
2
100
AcDbEntity
  8
0
100
AcDbLine
 10
1591.894220768459
 20
-1710.54245726453
 30
0.0
 11
1583.394220768458
 21
-1710.54245726453
 31
0.0
  0
LINE
  5
103
330
2
100
AcDbEntity
  8
0
100
AcDbLine
 10
1591.894220768459
 20
-1718.54245726453
 30
0.0
 11
1583.394220768458
 21
-1718.54245726453
 31
0.0
  0
LINE
  5
104
330
2
100
AcDbEntity
  8
0
100
AcDbLine
 10
1591.894220768459
 20
-1712.54245726453
 30
0.0
 11
1583.394220768458
 21
-1712.54245726453
 31
0.0
  0
LINE
  5
105
330
2
100
AcDbEntity
  8
0
100
AcDbLine
 10
1592.311946768459
 20
-1713.242457264534
 30
0.0
 11
1583.394220768458
 21
-1713.242457264534
 31
0.0
  0
LINE
  5
106
330
2
100
AcDbEntity
  8
0
100
AcDbLine
 10
1591.894220768459
 20
-1710.54245726453
 30
0.0
 11
1591.894220768459
 21
-1712.54245726453
 31
0.0
  0
LINE
  5
107
330
2
100
AcDbEntity
  8
0
100
AcDbLine
 10
1583.394220768458
 20
-1714.54245726453
 30
0.0
 11
1577.394220768459
 21
-1714.54245726453
 31
0.0
  0
LINE
  5
108
330
2
100
AcDbEntity
  8
0
100
AcDbLine
 10
1583.394220768458
 20
-1715.54245726453
 30
0.0
 11
1577.394220768459
 21
-1715.54245726453
 31
0.0
  0
LINE
  5
109
330
2
100
AcDbEntity
  8
0
100
AcDbLine
 10
1577.394220768459
 20
-1700.04245726453
 30
0.0
 11
1572.394220768459
 21
-1700.04245726453
 31
0.0
  0
LINE
  5
10A
330
2
100
AcDbEntity
  8
0
100
AcDbLine
 10
1577.394220768459
 20
-1697.54245726453
 30
0.0
 11
1572.394220768459
 21
-1697.54245726453
 31
0.0
  0
LINE
  5
10B
330
2
100
AcDbEntity
  8
0
100
AcDbLine
 10
1577.394220768459
 20
-1692.542457264529
 30
0.0
 11
1572.394220768459
 21
-1692.542457264529
 31
0.0
  0
LINE
  5
10C
102
{ACAD_REACTORS
330
11D
102
}
330
2
100
AcDbEntity
  8
0
100
AcDbLine
 10
1572.394220768459
 20
-1690.54245726453
 30
0.0
 11
1571.04084276846
 21
-1690.54245726453
 31
0.0
  0
ARC
  5
10D
330
2
100
AcDbEntity
  8
0
100
AcDbCircle
 10
1571.04084276846
 20
-1690.04245726453
 30
0.0
 40
0.5
100
AcDbArc
 50
183.3370829999345
 51
270.0
  0
LINE
  5
10E
330
2
100
AcDbEntity
  8
0
100
AcDbLine
 10
1591.894220768459
 20
-1692.542457264529
 30
0.0
 11
1583.394220768458
 21
-1692.542457264529
 31
0.0
  0
LINE
  5
10F
330
2
100
AcDbEntity
  8
0
100
AcDbLine
 10
1591.894220768459
 20
-1698.54245726453
 30
0.0
 11
1591.894220768459
 21
-1700.542457264529
 31
0.0
  0
LINE
  5
110
330
2
100
AcDbEntity
  8
0
100
AcDbLine
 10
1591.894220768459
 20
-1700.542457264529
 30
0.0
 11
1583.394220768458
 21
-1700.542457264529
 31
0.0
  0
LINE
  5
111
330
2
100
AcDbEntity
  8
0
100
AcDbLine
 10
1591.894220768459
 20
-1698.54245726453
 30
0.0
 11
1583.394220768458
 21
-1698.54245726453
 31
0.0
  0
LINE
  5
112
330
2
100
AcDbEntity
  8
0
100
AcDbLine
 10
1592.311946768459
 20
-1697.842457264532
 30
0.0
 11
1583.394220768458
 21
-1697.842457264532
 31
0.0
  0
LINE
  5
113
330
2
100
AcDbEntity
  8
0
100
AcDbLine
 10
1592.69282876846
 20
-1702.04245726453
 30
0.0
 11
1583.394220768458
 21
-1702.04245726453
 31
0.0
  0
LINE
  5
114
330
2
100
AcDbEntity
  8
0
100
AcDbLine
 10
1592.69282876846
 20
-1709.042457264529
 30
0.0
 11
1583.394220768458
 21
-1709.042457264529
 31
0.0
  0
LINE
  5
115
330
2
100
AcDbEntity
  8
0
100
AcDbLine
 10
1583.394220768458
 20
-1696.54245726453
 30
0.0
 11
1577.394220768459
 21
-1696.54245726453
 31
0.0
  0
LINE
  5
116
330
2
100
AcDbEntity
  8
0
100
AcDbLine
 10
1583.394220768458
 20
-1695.54245726453
 30
0.0
 11
1577.394220768459
 21
-1695.54245726453
 31
0.0
  0
LINE
  5
117
330
2
100
AcDbEntity
  8
0
100
AcDbLine
 10
1498.214220768459
 20
-1721.842457264532
 30
0.0
 11
1498.214220768459
 21
-1722.54245726453
 31
0.0
  0
LINE
  5
118
330
2
100
AcDbEntity
  8
0
100
AcDbLine
 10
1569.922525768459
 20
-1687.54245726453
 30
0.0
 11
1499.984316768459
 21
-1687.54245726453
 31
0.0
  0
ARC
  5
119
330
2
100
AcDbEntity
  8
0
100
AcDbCircle
 10
1499.984316768459
 20
-1688.042457264529
 30
0.0
 40
0.5
100
AcDbArc
 50
90.0
 51
176.4687330000455
  0
ARC
  5
11A
330
2
100
AcDbEntity
  8
0
100
AcDbCircle
 10
1569.922525768459
 20
-1688.042457264529
 30
0.0
 40
0.5
100
AcDbArc
 50
3.33708299993448
 51
90.0
  0
DIMENSION
  5
11B
102
{ACAD_XDICTIONARY
360
11C
102
}
102
{ACAD_REACTORS
330
11D
102
}
330
2
100
AcDbEntity
  8
0
100
AcDbDimension
  2
*D11
 10
1572.394220768459
 20
-1675.486852759846
 30
0.0
 11
1534.89588726846
 21
-1675.486852759846
 31
0.0
 70
   128
 71
     5
 42
-1.0
  3
STANDARD
100
AcDbAlignedDimension
 13
1497.39755376846
 23
-1721.842457264532
 33
0.0
 14
1572.394220768459
 24
-1690.54245726453
 34
0.0
100
AcDbRotatedDimension
  0
LINE
  5
12A
330
2
100
AcDbEntity
  8
0
100
AcDbLine
 10
1497.39755376846
 20
-1721.842457264532
 30
0.0
 11
1499.48526576846
 21
-1688.01166026453
 31
0.0
  0
LINE
  5
12B
102
{ACAD_REACTORS
330
134
330
11D
102
}
330
2
100
AcDbEntity
  8
0
100
AcDbLine
 10
1572.394220768459
 20
-1721.842457264532
 30
0.0
 11
1497.39755376846
 21
-1721.842457264532
 31
0.0
  0
LINE
  5
12C
330
2
100
AcDbEntity
  8
0
100
AcDbLine
 10
1572.394220768459
 20
-1722.54245726453
 30
0.0
 11
1497.514220768462
 21
-1722.54245726453
 31
0.0
  0
ARC
  5
12D
330
2
100
AcDbEntity
  8
0
100
AcDbCircle
 10
1570.547093768458
 20
-1727.54245726453
 30
0.0
 40
1.0
100
AcDbArc
 50
270.0
 51
350.5376779999537
  0
ARC
  5
12E
330
2
100
AcDbEntity
  8
0
100
AcDbCircle
 10
1556.014220768462
 20
-1730.04245726453
 30
0.0
 40
1.5
100
AcDbArc
 50
90.0
 51
180.0
  0
LINE
  5
12F
330
2
100
AcDbEntity
  8
0
100
AcDbLine
 10
1491.39755376846
 20
-1730.542456264533
 30
0.0
 11
1639.39755376846
 21
-1730.542456264537
 31
0.0
  0
LINE
  5
130
330
2
100
AcDbEntity
  8
0
100
AcDbLine
 10
1497.997553768458
 20
-1731.943718923003
 30
0.0
 11
1498.89755376846
 21
-1731.943718923003
 31
0.0
  0
LINE
  5
131
330
2
100
AcDbEntity
  8
0
100
AcDbLine
 10
1570.547093768458
 20
-1728.54245726453
 30
0.0
 11
1497.997553768458
 21
-1728.54245726453
 31
0.0
  0
DIMENSION
  5
132
102
{ACAD_XDICTIONARY
360
133
102
}
102
{ACAD_REACTORS
330
134
102
}
330
2
100
AcDbEntity
  8
0
100
AcDbDimension
  2
*D12
 10
1497.39755376846
 20
-1675.486852759846
 30
0.0
 11
1494.39755376846
 21
-1675.486852759846
 31
0.0
 70
   128
 71
     5
 42
-1.0
  3
STANDARD
100
AcDbAlignedDimension
 13
1491.39755376846
 23
-1730.542456264533
 33
0.0
 14
1497.39755376846
 24
-1721.842457264532
 34
0.0
100
AcDbRotatedDimension
  0
LINE
  5
143
330
2
100
AcDbEntity
  8
0
100
AcDbLine
 10
1497.514220768462
 20
-1722.54245726453
 30
0.0
 11
1498.514220768462
 21
-1728.54245726453
 31
0.0
  0
LINE
  5
144
330
2
100
AcDbEntity
  8
0
100
AcDbLine
 10
1572.394220768459
 20
-1722.54245726453
 30
0.0
 11
1571.533487768458
 21
-1727.70685626453
 31
0.0
  0
LINE
  5
145
330
2
100
AcDbEntity
  8
0
  6
CENTER
 62
     1
 48
0.6
100
AcDbLine
 10
1606.178014768462
 20
-1705.542457264529
 30
0.0
 11
1494.96891181538
 21
-1705.542457264529
 31
0.0
  0
DIMENSION
  5
146
102
{ACAD_XDICTIONARY
360
147
102
}
102
{ACAD_REACTORS
330
148
102
}
330
2
100
AcDbEntity
  8
0
100
AcDbDimension
  2
*D13
 10
1600.394220768459
 20
-1675.503423780357
 30
0.0
 11
1586.394220768459
 21
-1675.503423780357
 31
0.0
 70
   128
  1
MAX. <>
 71
     5
 42
-1.0
  3
STANDARD
100
AcDbAlignedDimension
 13
1572.394220768459
 23
-1690.54245726453
 33
0.0
 14
1600.394220768459
 24
-1698.54245726453
 34
0.0
100
AcDbRotatedDimension
  0
ARC
  5
155
330
2
100
AcDbEntity
  8
0
100
AcDbCircle
 10
1584.310887768461
 20
-1705.542457264529
 30
0.0
 40
9.083332999999999
100
AcDbArc
 50
326.6015119999464
 51
33.39848800005356
  0
LINE
  5
156
330
2
100
AcDbEntity
  8
0
100
AcDbLine
 10
1591.894220768459
 20
-1718.54245726453
 30
0.0
 11
1593.394220768459
 21
-1717.54245726453
 31
0.0
  0
ARC
  5
157
330
2
100
AcDbEntity
  8
0
100
AcDbCircle
 10
1584.310887768461
 20
-1717.54245726453
 30
0.0
 40
9.083332999999999
100
AcDbArc
 50
0.0
 51
33.39848800005356
  0
LINE
  5
158
330
2
100
AcDbEntity
  8
0
100
AcDbLine
 10
1583.394220768458
 20
-1717.54245726453
 30
0.0
 11
1594.394220768459
 21
-1717.54245726453
 31
0.0
  0
LINE
  5
159
330
2
100
AcDbEntity
  8
0
100
AcDbLine
 10
1591.894220768459
 20
-1692.542457264529
 30
0.0
 11
1593.394220768459
 21
-1693.542457264529
 31
0.0
  0
LINE
  5
15A
330
2
100
AcDbEntity
  8
0
100
AcDbLine
 10
1583.394220768458
 20
-1693.542457264529
 30
0.0
 11
1594.394220768459
 21
-1693.542457264529
 31
0.0
  0
ARC
  5
15B
330
2
100
AcDbEntity
  8
0
100
AcDbCircle
 10
1584.310887768461
 20
-1693.542457264529
 30
0.0
 40
9.083332999999999
100
AcDbArc
 50
326.6015119999464
 51
0.0
  0
ARC
  5
15C
330
2
100
AcDbEntity
  8
0
100
AcDbCircle
 10
1639.39755376846
 20
-1802.946380866297
 30
0.0
 40
7.0
100
AcDbArc
 50
0.0
 51
90.0
  0
ARC
  5
15D
330
2
100
AcDbEntity
  8
0
100
AcDbCircle
 10
1639.39755376846
 20
-1788.946380866297
 30
0.0
 40
7.0
100
AcDbArc
 50
270.0
 51
0.0
  0
LINE
  5
15E
330
2
100
AcDbEntity
  8
0
100
AcDbLine
 10
1646.39755376846
 20
-1813.542456264533
 30
0.0
 11
1646.39755376846
 21
-1737.542456264533
 31
0.0
  0
ARC
  5
15F
330
2
100
AcDbEntity
  8
0
100
AcDbCircle
 10
1639.39755376846
 20
-1813.542456264533
 30
0.0
 40
7.0
100
AcDbArc
 50
270.0
 51
0.0
  0
ARC
  5
160
330
2
100
AcDbEntity
  8
0
100
AcDbCircle
 10
1639.39755376846
 20
-1748.138531662773
 30
0.0
 40
7.0
100
AcDbArc
 50
270.0
 51
0.0
  0
ARC
  5
161
330
2
100
AcDbEntity
  8
0
100
AcDbCircle
 10
1639.39755376846
 20
-1762.138531662773
 30
0.0
 40
7.0
100
AcDbArc
 50
0.0
 51
90.0
  0
ARC
  5
162
330
2
100
AcDbEntity
  8
0
100
AcDbCircle
 10
1639.39755376846
 20
-1737.542456264533
 30
0.0
 40
7.0
100
AcDbArc
 50
0.0
 51
90.0
  0
DIMENSION
  5
163
330
2
100
AcDbEntity
  8
0
100
AcDbDimension
  2
*D0
 10
1660.071564212841
 20
-1820.542456264533
 30
0.0
 11
1660.071564212842
 21
-1775.542456264533
 31
0.0
 70
   128
 71
     5
 42
-1.0
  3
STANDARD
100
AcDbAlignedDimension
 13
1640.39755376846
 23
-1730.542456264533
 33
0.0
 14
1640.39755376846
 24
-1820.542456264533
 34
0.0
 50
90.0
100
AcDbRotatedDimension
  0
LINE
  5
170
330
2
100
AcDbEntity
  8
0
 62
     3
100
AcDbLine
 10
1657.854124137651
 20
-1784.736923084561
 30
0.0
 11
1657.854124137651
 21
-1781.106923084562
 31
0.0
  0
LINE
  5
171
330
2
100
AcDbEntity
  8
0
 62
     3
100
AcDbLine
 10
1657.854124137651
 20
-1781.106923084562
 30
0.0
 11
1654.004124137651
 21
-1781.106923084562
 31
0.0
  0
LINE
  5
172
330
2
100
AcDbEntity
  8
0
 62
     3
100
AcDbLine
 10
1654.004124137651
 20
-1781.106923084562
 30
0.0
 11
1654.004124137651
 21
-1784.736923084561
 31
0.0
  0
LINE
  5
173
330
2
100
AcDbEntity
  8
0
 62
     3
100
AcDbLine
 10
1654.004124137651
 20
-1784.736923084561
 30
0.0
 11
1657.854124137651
 21
-1784.736923084561
 31
0.0
  0
LINE
  5
174
330
2
100
AcDbEntity
  8
0
100
AcDbLine
 10
1303.415702446546
 20
-1820.542456264533
 30
0.0
 11
1383.415702446546
 21
-1820.542456264533
 31
0.0
  0
ARC
  5
175
330
2
100
AcDbEntity
  8
0
100
AcDbCircle
 10
1383.415702446546
 20
-1815.542456264533
 30
0.0
 40
5.0
100
AcDbArc
 50
270.0
 51
0.0
  0
LINE
  5
176
330
2
100
AcDbEntity
  8
0
100
AcDbLine
 10
1388.415702446545
 20
-1815.542456264533
 30
0.0
 11
1388.415702446545
 21
-1735.542456264533
 31
0.0
  0
ARC
  5
177
330
2
100
AcDbEntity
  8
0
100
AcDbCircle
 10
1383.415702446546
 20
-1735.542456264533
 30
0.0
 40
5.0
100
AcDbArc
 50
0.0
 51
90.0
  0
LINE
  5
178
330
2
100
AcDbEntity
  8
0
100
AcDbLine
 10
1383.415702446546
 20
-1730.542456264533
 30
0.0
 11
1303.415702446546
 21
-1730.542456264533
 31
0.0
  0
ARC
  5
179
330
2
100
AcDbEntity
  8
0
100
AcDbCircle
 10
1303.415702446546
 20
-1735.542456264533
 30
0.0
 40
5.0
100
AcDbArc
 50
90.0
 51
180.0
  0
LINE
  5
17A
330
2
100
AcDbEntity
  8
0
100
AcDbLine
 10
1298.415702446546
 20
-1735.542456264533
 30
0.0
 11
1298.415702446546
 21
-1815.542456264533
 31
0.0
  0
ARC
  5
17B
330
2
100
AcDbEntity
  8
0
100
AcDbCircle
 10
1303.415702446546
 20
-1815.542456264533
 30
0.0
 40
5.0
100
AcDbArc
 50
180.0
 51
270.0
  0
CIRCLE
  5
17C
330
2
100
AcDbEntity
  8
0
100
AcDbCircle
 10
1380.185255068245
 20
-1738.772903642833
 30
0.0
 40
3.25
  0
LINE
  5
17D
330
2
100
AcDbEntity
  8
0
  6
CENTER
 62
     1
 48
0.6
100
AcDbLine
 10
1376.472944467015
 20
-1742.485214244059
 30
0.0
 11
1383.897565669475
 21
-1735.060593041604
 31
0.0
  0
ARC
  5
17E
102
{ACAD_REACTORS
330
181
102
}
330
2
100
AcDbEntity
  8
0
  6
CENTER
 62
     1
 48
0.6
100
AcDbCircle
 10
1343.415702446546
 20
-1775.542456264533
 30
0.0
 40
51.9999999999996
100
AcDbArc
 50
35.900243375384
 51
54.099756624552
  0
DIMENSION
  5
17F
102
{ACAD_XDICTIONARY
360
180
102
}
102
{ACAD_REACTORS
330
181
102
}
330
2
100
AcDbEntity
  8
0
100
AcDbDimension
  2
*D14
 10
1302.28513322472
 20
-1807.358745732176
 30
0.0
 11
1414.000193253364
 21
-1720.94227362849
 31
0.0
 70
   131
  1
<>%%P0.5
 71
     5
 42
-1.0
  3
STANDARD
100
AcDbDiametricDimension
 15
1384.546271668368
 25
-1743.726166796889
 35
0.0
 40
0.0
1001
ACAD
1000
DSTYLE
1002
{
1070
   287
1070
     4
1070
   287
1070
     4
1070
   287
1070
     4
1070
   287
1070
     4
1070
   287
1070
     4
1070
   287
1070
     4
1070
   279
1070
     1
1070
   289
1070
     3
1002
}
  0
ARC
  5
18D
330
2
100
AcDbEntity
  8
0
  6
CENTER
 62
     1
 48
0.6
100
AcDbCircle
 10
1343.415702446546
 20
-1775.542456264533
 30
0.0
 40
52.0
100
AcDbArc
 50
129.2128702779684
 51
140.7871297220763
  0
LINE
  5
18E
330
2
100
AcDbEntity
  8
0
  6
CENTER
 62
     1
 48
0.6
100
AcDbLine
 10
1310.358460426076
 20
-1742.485214244059
 30
0.0
 11
1302.933839223617
 21
-1735.0605930416
 31
0.0
  0
CIRCLE
  5
18F
330
2
100
AcDbEntity
  8
0
100
AcDbCircle
 10
1306.646149824846
 20
-1738.77290364283
 30
0.0
 40
3.25
  0
LINE
  5
190
330
2
100
AcDbEntity
  8
0
  6
CENTER
 62
     1
 48
0.6
100
AcDbLine
 10
1310.358460426076
 20
-1808.599698285006
 30
0.0
 11
1302.933839223617
 21
-1816.024319487462
 31
0.0
  0
CIRCLE
  5
191
330
2
100
AcDbEntity
  8
0
100
AcDbCircle
 10
1306.646149824846
 20
-1812.312008886232
 30
0.0
 40
3.25
  0
ARC
  5
192
330
2
100
AcDbEntity
  8
0
  6
CENTER
 62
     1
 48
0.6
100
AcDbCircle
 10
1343.415702446546
 20
-1775.542456264533
 30
0.0
 40
51.9999999999996
100
AcDbArc
 50
215.900243375384
 51
234.099756624552
  0
ARC
  5
193
330
2
100
AcDbEntity
  8
0
  6
CENTER
 62
     1
 48
0.6
100
AcDbCircle
 10
1343.415702446546
 20
-1775.542456264533
 30
0.0
 40
52.0
100
AcDbArc
 50
309.2128702779683
 51
320.7871297220763
  0
LINE
  5
194
330
2
100
AcDbEntity
  8
0
  6
CENTER
 62
     1
 48
0.6
100
AcDbLine
 10
1376.472944467015
 20
-1808.599698285006
 30
0.0
 11
1383.897565669475
 21
-1816.024319487465
 31
0.0
  0
CIRCLE
  5
195
330
2
100
AcDbEntity
  8
0
100
AcDbCircle
 10
1380.185255068245
 20
-1812.312008886236
 30
0.0
 40
3.25
  0
ARC
  5
196
330
2
100
AcDbEntity
  8
0
100
AcDbCircle
 10
1343.340238132365
 20
-1775.542456264533
 30
0.0
 40
36.81561599999999
100
AcDbArc
 50
296.36567250327
 51
333.6343274967311
  0
CIRCLE
  5
197
330
2
100
AcDbEntity
  8
0
100
AcDbCircle
 10
1343.415702446546
 20
-1775.542456264533
 30
0.0
 40
43.5
  0
CIRCLE
  5
198
330
2
100
AcDbEntity
  8
0
100
AcDbCircle
 10
1343.415702446546
 20
-1775.542456264533
 30
0.0
 40
42.00000000000005
  0
ARC
  5
199
330
2
100
AcDbEntity
  8
0
100
AcDbCircle
 10
1343.340238132365
 20
-1775.542456264533
 30
0.0
 40
36.81561599999999
100
AcDbArc
 50
206.3656725032689
 51
243.63432749673
  0
LINE
  5
19A
330
2
100
AcDbEntity
  8
0
  6
CENTER
 62
     1
100
AcDbLine
 10
1343.415702446546
 20
-1826.810076482763
 30
0.0
 11
1343.415702446546
 21
-1681.291031589704
 31
0.0
  0
LEADER
  5
19B
330
2
100
AcDbEntity
  8
0
100
AcDbLeader
  3
STANDARD
 74
     0
 76
     2
 10
1381.166949701867
 20
-1815.176094372064
 30
0.0
 10
1398.019372392042
 20
-1839.851183773109
 30
0.0
1001
ACAD
1000
DSTYLE
1002
{
1070
     5
1000

1002
}
  0
DIMENSION
  5
19C
330
2
100
AcDbEntity
  8
0
100
AcDbDimension
  2
*D1
 10
1388.662976697669
 20
-1839.721006376663
 30
0.0
 11
1343.415702446546
 21
-1839.721006376663
 31
0.0
 70
   128
 71
     5
 42
-1.0
  3
STANDARD
100
AcDbAlignedDimension
 13
1298.662976697669
 23
-1815.542456264464
 33
0.0
 14
1388.662976697669
 24
-1815.542456264464
 34
0.0
100
AcDbRotatedDimension
  0
ARC
  5
1A9
330
2
100
AcDbEntity
  8
0
100
AcDbCircle
 10
1358.327516420468
 20
-1805.779606180602
 30
0.0
 40
3.067967999999998
100
AcDbArc
 50
231.9486744805064
 51
296.36567250327
  0
ARC
  5
1AA
330
2
100
AcDbEntity
  8
0
100
AcDbCircle
 10
1343.340238132365
 20
-1775.542456264533
 30
0.0
 40
33.74764799999999
100
AcDbArc
 50
252.2801918473123
 51
287.7198081526877
  0
ARC
  5
1AB
330
2
100
AcDbEntity
  8
0
100
AcDbCircle
 10
1354.545527172428
 20
-1810.611403767814
 30
0.0
 40
3.067967999999998
100
AcDbArc
 50
51.94867448050636
 51
107.7198081526877
  0
LINE
  5
1AC
330
2
100
AcDbEntity
  8
0
 62
     3
100
AcDbLine
 10
1334.165242013025
 20
-1837.822896122949
 30
0.0
 11
1337.795242013024
 21
-1837.822896122949
 31
0.0
  0
LINE
  5
1AD
330
2
100
AcDbEntity
  8
0
 62
     3
100
AcDbLine
 10
1337.795242013024
 20
-1837.822896122949
 30
0.0
 11
1337.795242013024
 21
-1833.972896122949
 31
0.0
  0
LINE
  5
1AE
330
2
100
AcDbEntity
  8
0
 62
     3
100
AcDbLine
 10
1337.795242013024
 20
-1833.972896122949
 30
0.0
 11
1334.165242013025
 21
-1833.972896122949
 31
0.0
  0
LINE
  5
1AF
330
2
100
AcDbEntity
  8
0
 62
     3
100
AcDbLine
 10
1334.165242013025
 20
-1833.972896122949
 30
0.0
 11
1334.165242013025
 21
-1837.822896122949
 31
0.0
  0
ARC
  5
1B0
330
2
100
AcDbEntity
  8
0
100
AcDbCircle
 10
1328.352959844262
 20
-1805.779606180602
 30
0.0
 40
3.067967999999998
100
AcDbArc
 50
243.63432749673
 51
308.0513255194936
  0
ARC
  5
1B1
330
2
100
AcDbEntity
  8
0
100
AcDbCircle
 10
1332.134949092302
 20
-1810.611403767814
 30
0.0
 40
3.067967999999998
100
AcDbArc
 50
72.2801918473123
 51
128.0513255194936
  0
MTEXT
  5
1B2
102
{ACAD_REACTORS
330
19B
102
}
330
2
100
AcDbEntity
  8
0
 62
     3
100
AcDbMText
 10
1399.019372392042
 20
-1836.219941167993
 30
0.0
 40
5.0
 41
0.0
 71
     4
 72
     1
  1
4-%%C6.5 hole
 73
     1
 44
1.0
1001
ACAD
1000
MTEXTBEGIN
1070
    73
1070
     1
1070
    44
1040
1.0
1070
    74
1070
     0
1000
MTEXTEND
  0
LINE
  5
1B3
330
2
100
AcDbEntity
  8
0
  6
CENTER
 62
     1
100
AcDbLine
 10
1294.162426232149
 20
-1775.542456264533
 30
0.0
 11
1392.668978660942
 21
-1775.542456264533
 31
0.0
  0
ARC
  5
1B4
330
2
100
AcDbEntity
  8
0
100
AcDbCircle
 10
1371.944008446546
 20
-1688.042456264463
 30
0.0
 40
0.5
100
AcDbArc
 50
3.33708299993448
 51
90.0
  0
LINE
  5
1B5
330
2
100
AcDbEntity
  8
0
100
AcDbLine
 10
1314.887397446546
 20
-1687.542456264464
 30
0.0
 11
1371.944008446546
 21
-1687.542456264464
 31
0.0
  0
ARC
  5
1B6
330
2
100
AcDbEntity
  8
0
100
AcDbCircle
 10
1314.887397446546
 20
-1688.042456264463
 30
0.0
 40
0.5
100
AcDbArc
 50
90.0
 51
176.6629170000655
  0
ARC
  5
1B7
330
2
100
AcDbEntity
  8
0
100
AcDbCircle
 10
1343.340238132365
 20
-1775.542456264533
 30
0.0
 40
36.81561599999999
100
AcDbArc
 50
26.3656725032689
 51
63.63432749672993
  0
ARC
  5
1B8
330
2
100
AcDbEntity
  8
0
100
AcDbCircle
 10
1343.340238132365
 20
-1775.542456264533
 30
0.0
 40
33.74764799999999
100
AcDbArc
 50
72.2801918473123
 51
107.7198081526877
  0
ARC
  5
1B9
330
2
100
AcDbEntity
  8
0
100
AcDbCircle
 10
1354.545527172428
 20
-1740.473508761252
 30
0.0
 40
3.067967999999998
100
AcDbArc
 50
252.2801918473123
 51
308.0513255194936
  0
ARC
  5
1BA
330
2
100
AcDbEntity
  8
0
100
AcDbCircle
 10
1358.327516420468
 20
-1745.305306348464
 30
0.0
 40
3.067967999999998
100
AcDbArc
 50
63.63432749672993
 51
128.0513255194936
  0
ARC
  5
1BB
330
2
100
AcDbEntity
  8
0
100
AcDbCircle
 10
1308.27129062908
 20
-1764.33716722447
 30
0.0
 40
3.067967999999998
100
AcDbArc
 50
342.2801918473044
 51
38.05132551942916
  0
ARC
  5
1BC
330
2
100
AcDbEntity
  8
0
100
AcDbCircle
 10
1343.340238132365
 20
-1775.542456264533
 30
0.0
 40
33.74764799999999
100
AcDbArc
 50
162.2801918473043
 51
197.7198081526957
  0
ARC
  5
1BD
330
2
100
AcDbEntity
  8
0
100
AcDbCircle
 10
1308.27129062908
 20
-1786.747745304596
 30
0.0
 40
3.067967999999998
100
AcDbArc
 50
321.9486744805708
 51
17.71980815269565
  0
ARC
  5
1BE
330
2
100
AcDbEntity
  8
0
100
AcDbCircle
 10
1313.103088216296
 20
-1790.529734552636
 30
0.0
 40
3.067967999999998
100
AcDbArc
 50
141.9486744805708
 51
206.3656725032689
  0
ARC
  5
1BF
330
2
100
AcDbEntity
  8
0
100
AcDbCircle
 10
1343.340238132365
 20
-1775.542456264533
 30
0.0
 40
36.81561599999999
100
AcDbArc
 50
116.3656725032701
 51
153.6343274967311
  0
ARC
  5
1C0
330
2
100
AcDbEntity
  8
0
100
AcDbCircle
 10
1313.103088216296
 20
-1760.55517797643
 30
0.0
 40
3.067967999999998
100
AcDbArc
 50
153.6343274967311
 51
218.0513255194291
  0
ARC
  5
1C1
330
2
100
AcDbEntity
  8
0
100
AcDbCircle
 10
1328.352959844262
 20
-1745.305306348464
 30
0.0
 40
3.067967999999998
100
AcDbArc
 50
51.94867448050636
 51
116.3656725032701
  0
CIRCLE
  5
1C2
330
2
100
AcDbEntity
  8
0
100
AcDbCircle
 10
1343.662976697669
 20
-1775.542456264533
 30
0.0
 40
20.0
  0
ARC
  5
1C3
330
2
100
AcDbEntity
  8
0
100
AcDbCircle
 10
1332.134949092302
 20
-1740.473508761252
 30
0.0
 40
3.067967999999998
100
AcDbArc
 50
231.9486744805064
 51
287.7198081526877
  0
ARC
  5
1C4
330
2
100
AcDbEntity
  8
0
100
AcDbCircle
 10
1378.409185635646
 20
-1764.33716722447
 30
0.0
 40
3.067967999999998
100
AcDbArc
 50
141.9486744805708
 51
197.7198081526957
  0
ARC
  5
1C5
330
2
100
AcDbEntity
  8
0
100
AcDbCircle
 10
1343.340238132365
 20
-1775.542456264533
 30
0.0
 40
33.74764799999999
100
AcDbArc
 50
342.2801918473044
 51
17.71980815269565
  0
ARC
  5
1C6
330
2
100
AcDbEntity
  8
0
100
AcDbCircle
 10
1378.409185635646
 20
-1786.747745304596
 30
0.0
 40
3.067967999999998
100
AcDbArc
 50
162.2801918473043
 51
218.0513255194291
  0
ARC
  5
1C7
330
2
100
AcDbEntity
  8
0
100
AcDbCircle
 10
1373.577388048434
 20
-1790.529734552636
 30
0.0
 40
3.067967999999998
100
AcDbArc
 50
333.6343274967311
 51
38.05132551942916
  0
ARC
  5
1C8
330
2
100
AcDbEntity
  8
0
100
AcDbCircle
 10
1373.577388048434
 20
-1760.55517797643
 30
0.0
 40
3.067967999999998
100
AcDbArc
 50
321.9486744805708
 51
26.3656725032689
  0
LINE
  5
1C9
330
2
100
AcDbEntity
  8
0
100
AcDbLine
 10
1374.415702446546
 20
-1721.842456264463
 30
0.0
 11
1312.415702446546
 21
-1721.842456264463
 31
0.0
  0
LINE
  5
1CA
330
2
100
AcDbEntity
  8
0
100
AcDbLine
 10
1358.415702446546
 20
-1728.542456264464
 30
0.0
 11
1372.995570446546
 21
-1728.542456264464
 31
0.0
  0
LINE
  5
1CB
330
2
100
AcDbEntity
  8
0
100
AcDbLine
 10
1358.415702446546
 20
-1728.542456264464
 30
0.0
 11
1358.415702446546
 21
-1730.542456264464
 31
0.0
  0
ARC
  5
1CC
330
2
100
AcDbEntity
  8
0
100
AcDbCircle
 10
1371.415702446546
 20
-1729.542456264464
 30
0.0
 40
1.0
100
AcDbArc
 50
90.0
 51
180.0
  0
ARC
  5
1CD
330
2
100
AcDbEntity
  8
0
100
AcDbCircle
 10
1372.995570446546
 20
-1727.542456264464
 30
0.0
 40
1.0
100
AcDbArc
 50
270.0
 51
355.2363579999958
  0
LINE
  5
1CE
330
2
100
AcDbEntity
  8
0
100
AcDbLine
 10
1373.992115446548
 20
-1727.625501264463
 30
0.0
 11
1374.415702446546
 21
-1722.542456264464
 31
0.0
  0
LINE
  5
1CF
330
2
100
AcDbEntity
  8
0
100
AcDbLine
 10
1373.715702446548
 20
-1721.842456264463
 30
0.0
 11
1373.715702446548
 21
-1722.542456264464
 31
0.0
  0
LINE
  5
1D0
330
2
100
AcDbEntity
  8
0
100
AcDbLine
 10
1370.415702446545
 20
-1729.542456264464
 30
0.0
 11
1370.415702446545
 21
-1730.542456264464
 31
0.0
  0
LINE
  5
1D1
330
2
100
AcDbEntity
  8
0
100
AcDbLine
 10
1328.415702446546
 20
-1728.542456264464
 30
0.0
 11
1328.415702446546
 21
-1730.542456264464
 31
0.0
  0
ARC
  5
1D2
330
2
100
AcDbEntity
  8
0
100
AcDbCircle
 10
1313.835835446545
 20
-1727.542456264464
 30
0.0
 40
1.0
100
AcDbArc
 50
184.7636420000043
 51
270.0
  0
LINE
  5
1D3
330
2
100
AcDbEntity
  8
0
100
AcDbLine
 10
1312.839290446547
 20
-1727.625501264463
 30
0.0
 11
1312.415702446546
 21
-1722.542456264464
 31
0.0
  0
ARC
  5
1D4
330
2
100
AcDbEntity
  8
0
100
AcDbCircle
 10
1315.415702446546
 20
-1729.542456264464
 30
0.0
 40
1.0
100
AcDbArc
 50
0.0
 51
90.0
  0
LINE
  5
1D5
330
2
100
AcDbEntity
  8
0
100
AcDbLine
 10
1316.415702446546
 20
-1729.542456264464
 30
0.0
 11
1316.415702446546
 21
-1730.542456264464
 31
0.0
  0
LINE
  5
1D6
330
2
100
AcDbEntity
  8
0
100
AcDbLine
 10
1328.415702446546
 20
-1728.542456264464
 30
0.0
 11
1313.835835446545
 21
-1728.542456264464
 31
0.0
  0
LINE
  5
1D7
330
2
100
AcDbEntity
  8
0
100
AcDbLine
 10
1312.415702446546
 20
-1722.542456264464
 30
0.0
 11
1374.415702446546
 21
-1722.542456264464
 31
0.0
  0
LINE
  5
1D8
330
2
100
AcDbEntity
  8
0
100
AcDbLine
 10
1313.115702446546
 20
-1721.842456264463
 30
0.0
 11
1313.115702446546
 21
-1722.542456264464
 31
0.0
  0
LINE
  5
1D9
330
2
100
AcDbEntity
  8
0
100
AcDbLine
 10
1374.415702446546
 20
-1721.842456264463
 30
0.0
 11
1372.443160446546
 21
-1688.013351264462
 31
0.0
  0
DIMENSION
  5
1DA
330
2
100
AcDbEntity
  8
0
100
AcDbDimension
  2
*D2
 10
1390.735048517799
 20
-1687.542456264464
 30
0.0
 11
1390.735048517799
 21
-1707.447620467379
 31
0.0
 70
   128
 71
     5
 42
-1.0
  3
STANDARD
100
AcDbAlignedDimension
 13
1383.970871125369
 23
-1730.542456264464
 33
0.0
 14
1371.579132131657
 24
-1687.542456264464
 34
0.0
 50
90.0
100
AcDbRotatedDimension
  0
LINE
  5
1E7
330
2
100
AcDbEntity
  8
0
100
AcDbLine
 10
1312.415702446546
 20
-1721.842456264463
 30
0.0
 11
1314.388245446546
 21
-1688.013351264462
 31
0.0
  0
LINE
  5
1E8
330
2
100
AcDbEntity
  8
0
100
AcDbLine
 10
1346.732327236903
 20
-1770.542456264533
 30
0.0
 11
1340.099077656188
 21
-1770.542456264533
 31
0.0
  0
CIRCLE
  5
1E9
330
2
100
AcDbEntity
  8
0
100
AcDbCircle
 10
1343.415702446546
 20
-1775.542456264533
 30
0.0
 40
6.0
  0
DIMENSION
  5
1EA
330
2
100
AcDbEntity
  8
0
100
AcDbDimension
  2
*D3
 10
1374.415701946546
 20
-1670.122812640971
 30
0.0
 11
1343.578296693346
 21
-1670.122812640971
 31
0.0
 70
   128
 71
     5
 42
-1.0
  3
STANDARD
100
AcDbAlignedDimension
 13
1312.415701946546
 23
-1721.854230862371
 33
0.0
 14
1374.415701946546
 24
-1721.854230862371
 34
0.0
100
AcDbRotatedDimension
  0
DIMENSION
  5
1F7
102
{ACAD_XDICTIONARY
360
1F8
102
}
102
{ACAD_REACTORS
330
1F9
102
}
330
2
100
AcDbEntity
  8
0
100
AcDbDimension
  2
*D15
 10
1646.39755376846
 20
-1857.158978900728
 30
0.0
 11
1568.89755376846
 21
-1853.158978900728
 31
0.0
 71
     5
 42
-1.0
  3
STANDARD
100
AcDbAlignedDimension
 13
1491.39755376846
 23
-1820.542456264533
 33
0.0
 14
1646.39755376846
 24
-1814.542456264533
 34
0.0
100
AcDbRotatedDimension
  0
LINE
  5
206
330
2
100
AcDbEntity
  8
0
 62
   123
100
AcDbLine
 10
1398.019372392042
 20
-1839.851183773109
 30
0.0
 11
1444.899697707461
 21
-1839.851183773109
 31
0.0
  0
ENDSEC
  0
SECTION
  2
OBJECTS
  0
DICTIONARY
  5
C
330
0
100
AcDbDictionary
281
     1
  3
ACAD_COLOR
350
38
  3
ACAD_GROUP
350
33
  3
ACAD_LAYOUT
350
18
  3
ACAD_MATERIAL
350
E
  3
ACAD_MLEADERSTYLE
350
234
  3
ACAD_MLINESTYLE
350
34
  3
ACAD_PLOTSETTINGS
350
35
  3
ACAD_PLOTSTYLENAME
350
B
  3
ACAD_SCALELIST
350
39
  3
ACAD_TABLESTYLE
350
3A
  3
ACAD_VISUALSTYLE
350
2E
  3
ACDB_RECOMPOSE_DATA
350
218
  3
AcDbVariableDictionary
350
20B
  3
DWGPROPS
350
23F
  0
DICTIONARY
  5
2F
330
2B
100
AcDbDictionary
280
     1
281
     1
  0
DICTIONARY
  5
21
330
20
100
AcDbDictionary
280
     1
281
     1
  3
ACAD_LAYERSTATES
360
22
  0
DICTIONARY
  5
8
330
7
100
AcDbDictionary
280
     1
281
     1
  3
ADSK_XREC_LAYER_RECONCILED
360
9
  0
DICTIONARY
  5
3
330
2
100
AcDbDictionary
280
     1
281
     1
  3
ACAD_LAYOUTSELFREF
360
4
  3
ACAD_SORTENTS
360
207
  0
DICTIONARY
  5
1B
330
1A
100
AcDbDictionary
280
     1
281
     1
  3
ACAD_LAYOUTSELFREF
360
1C
  0
DICTIONARY
  5
245
330
186
100
AcDbDictionary
280
     1
281
     1
  3
ACAD_MTEXT_RT
360
246
  0
DICTIONARY
  5
65
330
64
100
AcDbDictionary
280
     1
281
     1
  3
ACAD_DIMASSOC
360
66
  0
DICTIONARY
  5
77
330
76
100
AcDbDictionary
280
     1
281
     1
  3
ACAD_DIMASSOC
360
78
  0
DICTIONARY
  5
86
330
85
100
AcDbDictionary
280
     1
281
     1
  3
ACAD_DIMASSOC
360
87
  0
DICTIONARY
  5
95
330
94
100
AcDbDictionary
280
     1
281
     1
  3
ACAD_DIMASSOC
360
96
  0
DICTIONARY
  5
A7
330
A6
100
AcDbDictionary
280
     1
281
     1
  3
ACAD_DIMASSOC
360
A8
  0
DICTIONARY
  5
D5
330
D4
100
AcDbDictionary
280
     1
281
     1
  3
ACAD_DIMASSOC
360
D6
  0
DICTIONARY
  5
EA
330
E9
100
AcDbDictionary
280
     1
281
     1
  3
ACAD_DIMASSOC
360
EB
  0
DICTIONARY
  5
11C
330
11B
100
AcDbDictionary
280
     1
281
     1
  3
ACAD_DIMASSOC
360
11D
  0
DICTIONARY
  5
133
330
132
100
AcDbDictionary
280
     1
281
     1
  3
ACAD_DIMASSOC
360
134
  0
DICTIONARY
  5
147
330
146
100
AcDbDictionary
280
     1
281
     1
  3
ACAD_DIMASSOC
360
148
  0
DICTIONARY
  5
180
330
17F
100
AcDbDictionary
280
     1
281
     1
  3
ACAD_DIMASSOC
360
181
  0
DICTIONARY
  5
1F8
330
1F7
100
AcDbDictionary
280
     1
281
     1
  3
ACAD_DIMASSOC
360
1F9
  0
DICTIONARY
  5
38
102
{ACAD_REACTORS
330
C
102
}
330
C
100
AcDbDictionary
281
     1
  0
DICTIONARY
  5
33
102
{ACAD_REACTORS
330
C
102
}
330
C
100
AcDbDictionary
281
     1
  0
DICTIONARY
  5
18
102
{ACAD_REACTORS
330
C
102
}
330
C
100
AcDbDictionary
281
     1
  3
Model
350
17
  3
배치1
350
1F
  0
DICTIONARY
  5
E
102
{ACAD_REACTORS
330
C
102
}
330
C
100
AcDbDictionary
281
     1
  3
ByBlock
350
37
  3
ByLayer
350
36
  3
Global
350
D
  0
DICTIONARY
  5
234
102
{ACAD_REACTORS
330
C
102
}
330
C
100
AcDbDictionary
281
     1
  3
Standard
350
235
  0
DICTIONARY
  5
34
102
{ACAD_REACTORS
330
C
102
}
330
C
100
AcDbDictionary
281
     1
  3
Standard
350
3B
  0
DICTIONARY
  5
35
102
{ACAD_REACTORS
330
C
102
}
330
C
100
AcDbDictionary
281
     1
  0
ACDBDICTIONARYWDFLT
  5
B
102
{ACAD_REACTORS
330
C
102
}
330
C
100
AcDbDictionary
281
     1
  3
Normal
350
A
100
AcDbDictionaryWithDefault
340
A
  0
DICTIONARY
  5
39
102
{ACAD_REACTORS
330
C
102
}
330
C
100
AcDbDictionary
281
     1
  3
A0
350
43
  3
A1
350
44
  3
A2
350
45
  3
A3
350
46
  3
A4
350
47
  3
A5
350
48
  3
A6
350
49
  3
A7
350
4A
  3
A8
350
4B
  3
A9
350
4C
  3
B0
350
4D
  3
B1
350
4E
  3
B2
350
4F
  3
B3
350
50
  3
B4
350
51
  3
B5
350
52
  3
B6
350
53
  3
B7
350
54
  3
B8
350
55
  3
B9
350
56
  3
C0
350
57
  3
C1
350
58
  3
C2
350
59
  3
C3
350
5A
  3
C4
350
5B
  3
C5
350
5C
  3
C6
350
5D
  3
C7
350
5E
  3
C8
350
5F
  3
C9
350
60
  3
D0
350
61
  3
D1
350
62
  3
D2
350
63
  0
DICTIONARY
  5
3A
102
{ACAD_REACTORS
330
C
102
}
330
C
100
AcDbDictionary
281
     1
  3
Standard
350
3C
  0
DICTIONARY
  5
2E
102
{ACAD_REACTORS
330
C
102
}
330
C
100
AcDbDictionary
281
     1
  3
2dWireframe
350
2D
  3
3D Hidden
350
22C
  3
3dWireframe
350
3F
  3
Basic
350
22B
  3
Brighten
350
22F
  3
ColorChange
350
233
  3
Conceptual
350
22D
  3
Dim
350
22E
  3
Facepattern
350
232
  3
Flat
350
227
  3
FlatWithEdges
350
228
  3
Gouraud
350
229
  3
GouraudWithEdges
350
22A
  3
Linepattern
350
231
  3
Realistic
350
3E
  3
Thicken
350
230
  0
XRECORD
  5
218
102
{ACAD_REACTORS
330
C
102
}
330
C
100
AcDbXrecord
280
     1
 90
        1
330
3C
  0
DICTIONARY
  5
20B
102
{ACAD_REACTORS
330
C
102
}
330
C
100
AcDbDictionary
281
     1
  3
CANNOSCALE
350
20F
  3
CMLEADERSTYLE
350
20D
  3
CTABLESTYLE
350
20C
  3
DIMASSOC
350
214
  3
HIDETEXT
350
213
  3
INDEXCTL
350
212
  3
LIGHTINGUNITS
350
210
  3
MSLTSCALE
350
20E
  3
PSOLHEIGHT
350
23D
  3
PSOLWIDTH
350
23C
  3
SORTENTS
350
211
  0
XRECORD
  5
23F
102
{ACAD_REACTORS
330
C
102
}
330
C
100
AcDbXrecord
280
     1
  1
DWGPROPS COOKIE
  2

  3

  4

  6

  7

  8
김성진
  9

300
=
301
=
302
=
303
=
304
=
305
=
306
=
307
=
308
=
309
=
 40
3.484842395833333
 41
2455638.478663565
 42
2455916.47078125
  1

 90
        0
  0
DICTIONARY
  5
22
102
{ACAD_REACTORS
330
21
102
}
330
21
100
AcDbDictionary
281
     1
  0
XRECORD
  5
9
102
{ACAD_REACTORS
330
8
102
}
330
8
100
AcDbXrecord
280
     1
290
     1
  0
XRECORD
  5
4
102
{ACAD_REACTORS
330
3
102
}
330
3
100
AcDbXrecord
280
     1
340
2
  0
SORTENTSTABLE
  5
207
102
{ACAD_REACTORS
330
3
102
}
330
3
100
AcDbSortentsTable
330
2
  0
XRECORD
  5
1C
102
{ACAD_REACTORS
330
1B
102
}
330
1B
100
AcDbXrecord
280
     1
340
1A
  0
XRECORD
  5
246
102
{ACAD_REACTORS
330
245
102
}
330
245
100
AcDbXrecord
280
     1
 40
11034.0
  1
\A1;\U+2205104%%P0.5
  0
DIMASSOC
  5
66
102
{ACAD_REACTORS
330
65
102
}
330
65
100
AcDbDimAssoc
330
64
 90
        3
 70
     0
 71
     0
  1
AcDbOsnapPointRef
 72
     1
331
74
 73
     2
 91
        0
 40
1.0
 10
10746.93568229063
 20
-4114.883866320462
 30
0.0
 75
     0
  1
AcDbOsnapPointRef
 72
     1
331
CE
 73
     2
 91
        0
 40
1.0
 10
10776.93568229062
 20
-4113.883866320462
 30
0.0
 75
     0
  0
DIMASSOC
  5
78
102
{ACAD_REACTORS
330
77
102
}
330
77
100
AcDbDimAssoc
330
76
 90
        2
 70
     0
 71
     0
  1
AcDbOsnapPointRef
 72
    13
331
D3
 73
     2
 91
        0
 40
0.0
 10
10783.93568229062
 20
-4164.883866320462
 30
0.0
 75
     0
  0
DIMASSOC
  5
87
102
{ACAD_REACTORS
330
86
102
}
330
86
100
AcDbDimAssoc
330
85
 90
        3
 70
     0
 71
     0
  1
AcDbOsnapPointRef
 72
     1
331
75
 73
     2
 91
        0
 40
1.0
 10
10746.93568229063
 20
-4125.883866320463
 30
0.0
 75
     0
  1
AcDbOsnapPointRef
 72
     1
331
CE
 73
     2
 91
        0
 40
1.0
 10
10776.93568229062
 20
-4113.883866320462
 30
0.0
 75
     0
  0
DIMASSOC
  5
96
102
{ACAD_REACTORS
330
95
102
}
330
95
100
AcDbDimAssoc
330
94
 90
        3
 70
     0
 71
     0
  1
AcDbOsnapPointRef
 72
    13
331
D0
 73
     2
 91
        0
 40
0.0
 10
10781.93568229062
 20
-4078.383866320463
 30
0.0
 75
     0
  1
AcDbOsnapPointRef
 72
     1
331
D0
 73
     2
 91
        0
 40
1.0
 10
10781.93568229062
 20
-4161.383866320462
 30
0.0
 75
     0
  0
DIMASSOC
  5
A8
102
{ACAD_REACTORS
330
A7
102
}
330
A7
100
AcDbDimAssoc
330
A6
 90
        3
 70
     0
 71
     0
  1
AcDbOsnapPointRef
 72
     1
331
75
 73
     2
 91
        0
 40
1.0
 10
10746.93568229063
 20
-4125.883866320463
 30
0.0
 75
     0
  1
AcDbOsnapPointRef
 72
     1
331
74
 73
     2
 91
        0
 40
1.0
 10
10746.93568229063
 20
-4114.883866320462
 30
0.0
 75
     0
  0
DIMASSOC
  5
D6
102
{ACAD_REACTORS
330
D5
102
}
330
D5
100
AcDbDimAssoc
330
D4
 90
        3
 70
     0
 71
     0
  1
AcDbOsnapPointRef
 72
     1
331
D1
 73
     2
 91
        0
 40
1.0
 10
10781.93568229062
 20
-4161.383866320462
 30
0.0
 75
     0
  1
AcDbOsnapPointRef
 72
    13
331
D3
 73
     2
 91
        0
 40
0.0
 10
10783.93568229062
 20
-4164.883866320462
 30
0.0
 75
     0
  0
DIMASSOC
  5
EB
102
{ACAD_REACTORS
330
EA
102
}
330
EA
100
AcDbDimAssoc
330
E9
 90
        3
 70
     0
 71
     0
  1
AcDbOsnapPointRef
 72
    13
331
D3
 73
     2
 91
        0
 40
0.0
 10
10783.93568229062
 20
-4164.883866320462
 30
0.0
 75
     0
  1
AcDbOsnapPointRef
 72
     1
331
E5
 73
     2
 91
        0
 40
1.0
 10
10791.43568229062
 20
-4163.482603661989
 30
0.0
 75
     0
  0
DIMASSOC
  5
11D
102
{ACAD_REACTORS
330
11C
102
}
330
11C
100
AcDbDimAssoc
330
11B
 90
        3
 70
     0
 71
     0
  1
AcDbOsnapPointRef
 72
     1
331
12B
 73
     2
 91
        0
 40
1.0
 10
10789.93568229063
 20
-4066.18386732046
 30
0.0
 75
     0
  1
AcDbOsnapPointRef
 72
    13
331
10C
 73
     2
 91
        0
 40
0.0
 10
10864.93234929063
 20
-4034.883867320461
 30
0.0
 75
     0
  0
DIMASSOC
  5
134
102
{ACAD_REACTORS
330
133
102
}
330
133
100
AcDbDimAssoc
330
132
 90
        2
 70
     0
 71
     0
  1
AcDbOsnapPointRef
 72
     1
331
12B
 73
     2
 91
        0
 40
1.0
 10
10789.93568229063
 20
-4066.18386732046
 30
0.0
 75
     0
  0
DIMASSOC
  5
148
102
{ACAD_REACTORS
330
147
102
}
330
147
100
AcDbDimAssoc
330
146
 90
        3
 70
     0
 71
     0
  1
AcDbOsnapPointRef
 72
    13
331
FB
 73
     2
 91
        0
 40
0.0
 10
10864.93234929063
 20
-4034.883867320461
 30
0.0
 75
     0
  1
AcDbOsnapPointRef
 72
    13
331
BA
 73
     2
 91
        0
 40
0.0
 10
10892.93234929063
 20
-4042.883867320461
 30
0.0
 75
     0
  0
DIMASSOC
  5
181
102
{ACAD_REACTORS
330
180
102
}
330
180
100
AcDbDimAssoc
330
17F
 90
        2
 70
     0
 71
     0
  1
AcDbOsnapPointRef
 72
     3
331
17E
 73
     2
 91
        0
 40
0.0
 10
0.0
 20
0.0
 30
0.0
 75
     0
  0
DIMASSOC
  5
1F9
102
{ACAD_REACTORS
330
1F8
102
}
330
1F8
100
AcDbDimAssoc
330
1F7
 90
        1
 70
     0
 71
     0
  1
AcDbOsnapPointRef
 72
    13
331
D3
 73
     2
 91
        0
 40
0.0
 10
0.0
 20
0.0
 30
2.000000000000000E+50
 75
     0
  0
LAYOUT
  5
17
102
{ACAD_XDICTIONARY
360
240
102
}
102
{ACAD_REACTORS
330
18
102
}
330
18
100
AcDbPlotSettings
  1

  2
none_device
  4
ISO_A4_(210.00_x_297.00_MM)
  6

 40
7.5
 41
20.0
 42
7.5
 43
20.0
 44
210.0
 45
297.0
 46
11.54999923706054
 47
-13.65000009536743
 48
0.0
 49
0.0
140
0.0
141
0.0
142
1.0
143
8.704084754739808
 70
 11952
 72
     1
 73
     0
 74
     0
  7

 75
     0
147
0.1148885871608098
148
0.0
149
0.0
100
AcDbLayout
  1
Model
 70
     1
 71
     0
 10
0.0
 20
0.0
 11
12.0
 21
9.0
 12
0.0
 22
0.0
 32
0.0
 14
0.0
 24
0.0
 34
0.0
 15
0.0
 25
0.0
 35
0.0
146
0.0
 13
0.0
 23
0.0
 33
0.0
 16
1.0
 26
0.0
 36
0.0
 17
0.0
 27
1.0
 37
0.0
 76
     0
330
2
331
2C
1001
ACAD_PSEXT
1000
None
1000
None
1000
Not applicable
1000
The layout will not be plotted unless a new plotter configuration name is selected.
1070
     0
  0
LAYOUT
  5
1F
102
{ACAD_XDICTIONARY
360
242
102
}
102
{ACAD_REACTORS
330
18
102
}
330
18
100
AcDbPlotSettings
  1

  2
C:\Documents and Settings\basas\Application Data\Autodesk\AutoCAD 2005\R16.1\enu\plotters\Default Windows System Printer.pc3
  4

  6

 40
0.0
 41
0.0
 42
0.0
 43
0.0
 44
0.0
 45
0.0
 46
0.0
 47
0.0
 48
0.0
 49
0.0
140
0.0
141
0.0
142
1.0
143
1.0
 70
   688
 72
     0
 73
     0
 74
     5
  7

 75
    16
147
1.0
148
0.0
149
0.0
100
AcDbLayout
  1
배치1
 70
     1
 71
     1
 10
0.0
 20
0.0
 11
12.0
 21
9.0
 12
0.0
 22
0.0
 32
0.0
 14
0.0
 24
0.0
 34
0.0
 15
0.0
 25
0.0
 35
0.0
146
0.0
 13
0.0
 23
0.0
 33
0.0
 16
1.0
 26
0.0
 36
0.0
 17
0.0
 27
1.0
 37
0.0
 76
     0
330
1A
  0
MATERIAL
  5
37
102
{ACAD_XDICTIONARY
360
220
102
}
102
{ACAD_REACTORS
330
E
102
}
330
E
100
AcDbMaterial
  1
ByBlock
  0
MATERIAL
  5
36
102
{ACAD_XDICTIONARY
360
21E
102
}
102
{ACAD_REACTORS
330
E
102
}
330
E
100
AcDbMaterial
  1
ByLayer
  0
MATERIAL
  5
D
102
{ACAD_XDICTIONARY
360
F
102
}
102
{ACAD_REACTORS
330
E
102
}
330
E
100
AcDbMaterial
  1
Global
 43
0.0007999999797903
 43
0.0
 43
0.0
 43
0.0
 43
0.0
 43
0.0007999999797903
 43
0.0
 43
0.0
 43
0.0
 43
0.0
 43
1.0
 43
0.0
 43
0.0
 43
0.0
 43
0.0
 43
1.0
 49
0.0007999999797903
 49
0.0
 49
0.0
 49
0.0
 49
0.0
 49
0.0007999999797903
 49
0.0
 49
0.0
 49
0.0
 49
0.0
 49
1.0
 49
0.0
 49
0.0
 49
0.0
 49
0.0
 49
1.0
142
0.0007999999797903
142
0.0
142
0.0
142
0.0
142
0.0
142
0.0007999999797903
142
0.0
142
0.0
142
0.0
142
0.0
142
1.0
142
0.0
142
0.0
142
0.0
142
0.0
142
1.0
144
0.0007999999797903
144
0.0
144
0.0
144
0.0
144
0.0
144
0.0007999999797903
144
0.0
144
0.0
144
0.0
144
0.0
144
1.0
144
0.0
144
0.0
144
0.0
144
0.0
144
1.0
1001
ACAD
1070
    -1
1070
     3
1070
     0
1000

1071
        0
1070
     0
  0
MLEADERSTYLE
  5
235
102
{ACAD_REACTORS
330
234
102
}
330
234
100
AcDbMLeaderStyle
170
     2
171
     1
172
     0
 90
        2
 40
0.0
 41
0.0
173
     1
 91
-1056964608
340
27
 92
       -2
290
     1
 42
2.0
291
     1
 43
0.36
  3
Standard
 44
4.0
300

342
24
174
     1
178
     6
175
     1
176
     0
 93
-1056964608
 45
4.0
292
     0
297
     0
 46
4.0
 94
-1056964608
 47
1.0
 49
1.0
140
1.0
293
     1
141
0.0
294
     1
177
     0
142
1.0
295
     0
296
     0
143
0.125
1001
ACAD_MLEADERVER
1070
     2
  0
MLINESTYLE
  5
3B
102
{ACAD_REACTORS
330
34
102
}
330
34
100
AcDbMlineStyle
  2
STANDARD
 70
     0
  3

 62
   256
 51
90.0
 52
90.0
 71
     2
 49
0.5
 62
   256
  6
BYLAYER
 49
-0.5
 62
   256
  6
BYLAYER
  0
ACDBPLACEHOLDER
  5
A
102
{ACAD_REACTORS
330
B
102
}
330
B
  0
SCALE
  5
43
102
{ACAD_REACTORS
330
39
102
}
330
39
100
AcDbScale
 70
     0
300
1:1
140
1.0
141
1.0
290
     1
  0
SCALE
  5
44
102
{ACAD_REACTORS
330
39
102
}
330
39
100
AcDbScale
 70
     0
300
1:2
140
1.0
141
2.0
290
     0
  0
SCALE
  5
45
102
{ACAD_REACTORS
330
39
102
}
330
39
100
AcDbScale
 70
     0
300
1:4
140
1.0
141
4.0
290
     0
  0
SCALE
  5
46
102
{ACAD_REACTORS
330
39
102
}
330
39
100
AcDbScale
 70
     0
300
1:5
140
1.0
141
5.0
290
     0
  0
SCALE
  5
47
102
{ACAD_REACTORS
330
39
102
}
330
39
100
AcDbScale
 70
     0
300
1:8
140
1.0
141
8.0
290
     0
  0
SCALE
  5
48
102
{ACAD_REACTORS
330
39
102
}
330
39
100
AcDbScale
 70
     0
300
1:10
140
1.0
141
10.0
290
     0
  0
SCALE
  5
49
102
{ACAD_REACTORS
330
39
102
}
330
39
100
AcDbScale
 70
     0
300
1:16
140
1.0
141
16.0
290
     0
  0
SCALE
  5
4A
102
{ACAD_REACTORS
330
39
102
}
330
39
100
AcDbScale
 70
     0
300
1:20
140
1.0
141
20.0
290
     0
  0
SCALE
  5
4B
102
{ACAD_REACTORS
330
39
102
}
330
39
100
AcDbScale
 70
     0
300
1:30
140
1.0
141
30.0
290
     0
  0
SCALE
  5
4C
102
{ACAD_REACTORS
330
39
102
}
330
39
100
AcDbScale
 70
     0
300
1:40
140
1.0
141
40.0
290
     0
  0
SCALE
  5
4D
102
{ACAD_REACTORS
330
39
102
}
330
39
100
AcDbScale
 70
     0
300
1:50
140
1.0
141
50.0
290
     0
  0
SCALE
  5
4E
102
{ACAD_REACTORS
330
39
102
}
330
39
100
AcDbScale
 70
     0
300
1:100
140
1.0
141
100.0
290
     0
  0
SCALE
  5
4F
102
{ACAD_REACTORS
330
39
102
}
330
39
100
AcDbScale
 70
     0
300
2:1
140
2.0
141
1.0
290
     0
  0
SCALE
  5
50
102
{ACAD_REACTORS
330
39
102
}
330
39
100
AcDbScale
 70
     0
300
4:1
140
4.0
141
1.0
290
     0
  0
SCALE
  5
51
102
{ACAD_REACTORS
330
39
102
}
330
39
100
AcDbScale
 70
     0
300
8:1
140
8.0
141
1.0
290
     0
  0
SCALE
  5
52
102
{ACAD_REACTORS
330
39
102
}
330
39
100
AcDbScale
 70
     0
300
10:1
140
10.0
141
1.0
290
     0
  0
SCALE
  5
53
102
{ACAD_REACTORS
330
39
102
}
330
39
100
AcDbScale
 70
     0
300
100:1
140
100.0
141
1.0
290
     0
  0
SCALE
  5
54
102
{ACAD_REACTORS
330
39
102
}
330
39
100
AcDbScale
 70
     0
300
1/128" = 1'-0"
140
0.0078125
141
12.0
290
     0
  0
SCALE
  5
55
102
{ACAD_REACTORS
330
39
102
}
330
39
100
AcDbScale
 70
     0
300
1/64" = 1'-0"
140
0.015625
141
12.0
290
     0
  0
SCALE
  5
56
102
{ACAD_REACTORS
330
39
102
}
330
39
100
AcDbScale
 70
     0
300
1/32" = 1'-0"
140
0.03125
141
12.0
290
     0
  0
SCALE
  5
57
102
{ACAD_REACTORS
330
39
102
}
330
39
100
AcDbScale
 70
     0
300
1/16" = 1'-0"
140
0.0625
141
12.0
290
     0
  0
SCALE
  5
58
102
{ACAD_REACTORS
330
39
102
}
330
39
100
AcDbScale
 70
     0
300
3/32" = 1'-0"
140
0.09375
141
12.0
290
     0
  0
SCALE
  5
59
102
{ACAD_REACTORS
330
39
102
}
330
39
100
AcDbScale
 70
     0
300
1/8" = 1'-0"
140
0.125
141
12.0
290
     0
  0
SCALE
  5
5A
102
{ACAD_REACTORS
330
39
102
}
330
39
100
AcDbScale
 70
     0
300
3/16" = 1'-0"
140
0.1875
141
12.0
290
     0
  0
SCALE
  5
5B
102
{ACAD_REACTORS
330
39
102
}
330
39
100
AcDbScale
 70
     0
300
1/4" = 1'-0"
140
0.25
141
12.0
290
     0
  0
SCALE
  5
5C
102
{ACAD_REACTORS
330
39
102
}
330
39
100
AcDbScale
 70
     0
300
3/8" = 1'-0"
140
0.375
141
12.0
290
     0
  0
SCALE
  5
5D
102
{ACAD_REACTORS
330
39
102
}
330
39
100
AcDbScale
 70
     0
300
1/2" = 1'-0"
140
0.5
141
12.0
290
     0
  0
SCALE
  5
5E
102
{ACAD_REACTORS
330
39
102
}
330
39
100
AcDbScale
 70
     0
300
3/4" = 1'-0"
140
0.75
141
12.0
290
     0
  0
SCALE
  5
5F
102
{ACAD_REACTORS
330
39
102
}
330
39
100
AcDbScale
 70
     0
300
1" = 1'-0"
140
1.0
141
12.0
290
     0
  0
SCALE
  5
60
102
{ACAD_REACTORS
330
39
102
}
330
39
100
AcDbScale
 70
     0
300
1-1/2" = 1'-0"
140
1.5
141
12.0
290
     0
  0
SCALE
  5
61
102
{ACAD_REACTORS
330
39
102
}
330
39
100
AcDbScale
 70
     0
300
3" = 1'-0"
140
3.0
141
12.0
290
     0
  0
SCALE
  5
62
102
{ACAD_REACTORS
330
39
102
}
330
39
100
AcDbScale
 70
     0
300
6" = 1'-0"
140
6.0
141
12.0
290
     0
  0
SCALE
  5
63
102
{ACAD_REACTORS
330
39
102
}
330
39
100
AcDbScale
 70
     0
300
1'-0" = 1'-0"
140
12.0
141
12.0
290
     0
  0
TABLESTYLE
  5
3C
102
{ACAD_XDICTIONARY
360
3D
102
}
102
{ACAD_REACTORS
330
3A
102
}
330
3A
100
AcDbTableStyle
  3
Standard
 70
     0
 71
     0
 40
1.5
 41
1.5
280
     0
281
     0
  7
Standard
140
4.5
170
     2
 62
     0
 63
     7
283
     0
274
    -2
284
     1
 64
     0
275
    -2
285
     1
 65
     0
276
    -2
286
     1
 66
     0
277
    -2
287
     1
 67
     0
278
    -2
288
     1
 68
     0
279
    -2
289
     1
 69
     0
  7
Standard
140
6.0
170
     5
 62
     0
 63
     7
283
     0
274
    -2
284
     1
 64
     0
275
    -2
285
     1
 65
     0
276
    -2
286
     1
 66
     0
277
    -2
287
     1
 67
     0
278
    -2
288
     1
 68
     0
279
    -2
289
     1
 69
     0
  7
Standard
140
4.5
170
     5
 62
     0
 63
     7
283
     0
274
    -2
284
     1
 64
     0
275
    -2
285
     1
 65
     0
276
    -2
286
     1
 66
     0
277
    -2
287
     1
 67
     0
278
    -2
288
     1
 68
     0
279
    -2
289
     1
 69
     0
  0
VISUALSTYLE
  5
2D
102
{ACAD_REACTORS
330
2E
102
}
330
2E
100
AcDbVisualStyle
  2
2dWireframe
 70
     4
 71
     0
 72
     2
 73
     1
 90
        0
 40
-0.6
 41
-30.0
 62
     5
 63
     7
 74
     1
 91
        4
 64
     7
 65
   257
 75
     1
175
     1
 42
1.0
 92
        0
 66
   257
 43
1.0
 76
     1
 77
     6
 78
     2
 67
     7
 79
     5
170
     0
171
     0
290
     0
174
     0
 93
        1
 44
0.0
173
     0
291
     0
 45
0.0
1001
ACAD
1000
AcDbSavedByObjectVersion
1070
     0
1000
AcDbSavedByObjectVersion
1070
     0
  0
VISUALSTYLE
  5
22C
102
{ACAD_REACTORS
330
2E
102
}
330
2E
100
AcDbVisualStyle
  2
3D Hidden
 70
     6
 71
     1
 72
     2
 73
     2
 90
        0
 40
-0.6
 41
-30.0
 62
     5
 63
     7
 74
     2
 91
        2
 64
     7
 65
   257
 75
     2
175
     1
 42
40.0
 92
        0
 66
   257
 43
1.0
 76
     1
 77
     6
 78
     2
 67
     7
 79
     3
170
     0
171
     0
290
     0
174
     0
 93
        1
 44
0.0
173
     0
291
     0
 45
0.0
1001
ACAD
1000
AcDbSavedByObjectVersion
1070
     0
  0
VISUALSTYLE
  5
3F
102
{ACAD_REACTORS
330
2E
102
}
330
2E
100
AcDbVisualStyle
  2
3dWireframe
 70
     5
 71
     0
 72
     2
 73
     1
 90
        0
 40
-0.6
 41
-30.0
 62
     5
 63
     7
 74
     1
 91
        4
 64
     7
 65
   257
 75
     1
175
     1
 42
1.0
 92
        0
 66
   257
 43
1.0
 76
     1
 77
     6
 78
     2
 67
     7
 79
     5
170
     0
171
     0
290
     0
174
     0
 93
        1
 44
0.0
173
     0
291
     0
 45
0.0
1001
ACAD
1000
AcDbSavedByObjectVersion
1070
     0
1000
AcDbSavedByObjectVersion
1070
     0
  0
VISUALSTYLE
  5
22B
102
{ACAD_REACTORS
330
2E
102
}
330
2E
100
AcDbVisualStyle
  2
Basic
 70
     7
 71
     1
 72
     0
 73
     1
 90
        0
 40
-0.6
 41
-30.0
 62
     5
 63
     7
 74
     0
 91
        4
 64
     7
 65
   257
 75
     1
175
     1
 42
1.0
 92
        8
 66
     7
 43
1.0
 76
     1
 77
     6
 78
     2
 67
     7
 79
     5
170
     0
171
     0
290
     0
174
     0
 93
        1
 44
0.0
173
     0
291
     1
 45
0.0
1001
ACAD
1000
AcDbSavedByObjectVersion
1070
     0
  0
VISUALSTYLE
  5
22F
102
{ACAD_REACTORS
330
2E
102
}
330
2E
100
AcDbVisualStyle
  2
Brighten
 70
    12
 71
     2
 72
     2
 73
     0
 90
        0
 40
-0.6
 41
-30.0
 62
     5
 63
     7
 74
     1
 91
        4
 64
     7
 65
   257
 75
     1
175
     1
 42
1.0
 92
        8
 66
     7
 43
1.0
 76
     1
 77
     6
 78
     2
 67
     7
 79
     5
170
     0
171
     0
290
     0
174
     0
 93
        1
 44
50.0
173
     0
291
     1
 45
0.0
1001
ACAD
1000
AcDbSavedByObjectVersion
1070
     0
  0
VISUALSTYLE
  5
233
102
{ACAD_REACTORS
330
2E
102
}
330
2E
100
AcDbVisualStyle
  2
ColorChange
 70
    16
 71
     2
 72
     2
 73
     3
 90
        0
 40
-0.6
 41
-30.0
 62
     5
 63
     8
 74
     1
 91
        4
 64
     7
 65
   257
 75
     1
175
     1
 42
1.0
 92
        8
 66
     8
 43
1.0
 76
     1
 77
     6
 78
     2
 67
     7
 79
     5
170
     0
171
     0
290
     0
174
     0
 93
        1
 44
0.0
173
     0
291
     1
 45
0.0
1001
ACAD
1000
AcDbSavedByObjectVersion
1070
     0
  0
VISUALSTYLE
  5
22D
102
{ACAD_REACTORS
330
2E
102
}
330
2E
100
AcDbVisualStyle
  2
Conceptual
 70
     9
 71
     3
 72
     2
 73
     0
 90
        0
 40
-0.6
 41
-30.0
 62
     5
 63
     7
 74
     2
 91
        2
 64
     7
 65
   257
 75
     1
175
     1
 42
40.0
 92
        8
 66
     7
 43
1.0
 76
     1
 77
     6
 78
     2
 67
     7
 79
     3
170
     0
171
     0
290
     0
174
     0
 93
        1
 44
0.0
173
     0
291
     0
 45
0.0
1001
ACAD
1000
AcDbSavedByObjectVersion
1070
     0
  0
VISUALSTYLE
  5
22E
102
{ACAD_REACTORS
330
2E
102
}
330
2E
100
AcDbVisualStyle
  2
Dim
 70
    11
 71
     2
 72
     2
 73
     0
 90
        0
 40
-0.6
 41
-30.0
 62
     5
 63
     7
 74
     1
 91
        4
 64
     7
 65
   257
 75
     1
175
     1
 42
1.0
 92
        8
 66
     7
 43
1.0
 76
     1
 77
     6
 78
     2
 67
     7
 79
     5
170
     0
171
     0
290
     0
174
     0
 93
        1
 44
-50.0
173
     0
291
     1
 45
0.0
1001
ACAD
1000
AcDbSavedByObjectVersion
1070
     0
  0
VISUALSTYLE
  5
232
102
{ACAD_REACTORS
330
2E
102
}
330
2E
100
AcDbVisualStyle
  2
Facepattern
 70
    15
 71
     2
 72
     2
 73
     0
 90
        0
 40
-0.6
 41
-30.0
 62
     5
 63
     7
 74
     1
 91
        4
 64
     7
 65
   257
 75
     1
175
     1
 42
1.0
 92
        8
 66
     7
 43
1.0
 76
     1
 77
     6
 78
     2
 67
     7
 79
     5
170
     0
171
     0
290
     0
174
     0
 93
        1
 44
0.0
173
     0
291
     1
 45
0.0
1001
ACAD
1000
AcDbSavedByObjectVersion
1070
     0
  0
VISUALSTYLE
  5
227
102
{ACAD_REACTORS
330
2E
102
}
330
2E
100
AcDbVisualStyle
  2
Flat
 70
     0
 71
     2
 72
     1
 73
     1
 90
        2
 40
-0.6
 41
30.0
 62
     5
 63
     7
 74
     0
 91
        4
 64
     7
 65
   257
 75
     1
175
     1
 42
1.0
 92
        8
 66
     7
 43
1.0
 76
     1
 77
     6
 78
     2
 67
     7
 79
     5
170
     0
171
     0
290
     0
174
     0
 93
       13
 44
0.0
173
     0
291
     1
 45
0.0
1001
ACAD
1000
AcDbSavedByObjectVersion
1070
     0
  0
VISUALSTYLE
  5
228
102
{ACAD_REACTORS
330
2E
102
}
330
2E
100
AcDbVisualStyle
  2
FlatWithEdges
 70
     1
 71
     2
 72
     1
 73
     1
 90
        2
 40
-0.6
 41
30.0
 62
     5
 63
     7
 74
     1
 91
        4
 64
     7
 65
   257
 75
     1
175
     1
 42
1.0
 92
        0
 66
   257
 43
1.0
 76
     1
 77
     6
 78
     2
 67
     7
 79
     5
170
     0
171
     0
290
     0
174
     0
 93
       13
 44
0.0
173
     0
291
     1
 45
0.0
1001
ACAD
1000
AcDbSavedByObjectVersion
1070
     0
  0
VISUALSTYLE
  5
229
102
{ACAD_REACTORS
330
2E
102
}
330
2E
100
AcDbVisualStyle
  2
Gouraud
 70
     2
 71
     2
 72
     2
 73
     1
 90
        2
 40
-0.6
 41
30.0
 62
     5
 63
     7
 74
     0
 91
        4
 64
     7
 65
   257
 75
     1
175
     1
 42
1.0
 92
        0
 66
     7
 43
1.0
 76
     1
 77
     6
 78
     2
 67
     7
 79
     5
170
     0
171
     0
290
     0
174
     0
 93
       13
 44
0.0
173
     0
291
     1
 45
0.0
1001
ACAD
1000
AcDbSavedByObjectVersion
1070
     0
  0
VISUALSTYLE
  5
22A
102
{ACAD_REACTORS
330
2E
102
}
330
2E
100
AcDbVisualStyle
  2
GouraudWithEdges
 70
     3
 71
     2
 72
     2
 73
     1
 90
        2
 40
-0.6
 41
30.0
 62
     5
 63
     7
 74
     1
 91
        4
 64
     7
 65
   257
 75
     1
175
     1
 42
1.0
 92
        0
 66
   257
 43
1.0
 76
     1
 77
     6
 78
     2
 67
     7
 79
     5
170
     0
171
     0
290
     0
174
     0
 93
       13
 44
0.0
173
     0
291
     1
 45
0.0
1001
ACAD
1000
AcDbSavedByObjectVersion
1070
     0
  0
VISUALSTYLE
  5
231
102
{ACAD_REACTORS
330
2E
102
}
330
2E
100
AcDbVisualStyle
  2
Linepattern
 70
    14
 71
     2
 72
     2
 73
     0
 90
        0
 40
-0.6
 41
-30.0
 62
     5
 63
     7
 74
     1
 91
        4
 64
     7
 65
   257
 75
     7
175
     7
 42
1.0
 92
        8
 66
     7
 43
1.0
 76
     1
 77
     6
 78
     2
 67
     7
 79
     5
170
     0
171
     0
290
     0
174
     0
 93
        1
 44
0.0
173
     0
291
     1
 45
0.0
1001
ACAD
1000
AcDbSavedByObjectVersion
1070
     0
  0
VISUALSTYLE
  5
3E
102
{ACAD_REACTORS
330
2E
102
}
330
2E
100
AcDbVisualStyle
  2
Realistic
 70
     8
 71
     2
 72
     2
 73
     1
 90
        0
 40
-0.6
 41
-30.0
 62
     5
 63
     7
 74
     1
 91
        0
 64
     7
 65
   257
 75
     1
175
     1
 42
1.0
 92
        8
 66
     8
 43
1.0
 76
     1
 77
     6
 78
     2
 67
     7
 79
     5
170
     0
171
     0
290
     0
174
     0
 93
       13
 44
0.0
173
     0
291
     0
 45
0.0
1001
ACAD
1000
AcDbSavedByObjectVersion
1070
     0
1000
AcDbSavedByObjectVersion
1070
     0
  0
VISUALSTYLE
  5
230
102
{ACAD_REACTORS
330
2E
102
}
330
2E
100
AcDbVisualStyle
  2
Thicken
 70
    13
 71
     2
 72
     2
 73
     0
 90
        0
 40
-0.6
 41
-30.0
 62
     5
 63
     7
 74
     1
 91
        4
 64
     7
 65
   257
 75
     1
175
     1
 42
1.0
 92
       12
 66
     7
 43
1.0
 76
     1
 77
     6
 78
     2
 67
     7
 79
     5
170
     0
171
     0
290
     0
174
     0
 93
        1
 44
0.0
173
     0
291
     1
 45
0.0
1001
ACAD
1000
AcDbSavedByObjectVersion
1070
     0
  0
DICTIONARYVAR
  5
20F
102
{ACAD_REACTORS
330
20B
102
}
330
20B
100
DictionaryVariables
280
     0
  1
1:1
  0
DICTIONARYVAR
  5
20D
102
{ACAD_REACTORS
330
20B
102
}
330
20B
100
DictionaryVariables
280
     0
  1
STANDARD
  0
DICTIONARYVAR
  5
20C
102
{ACAD_REACTORS
330
20B
102
}
330
20B
100
DictionaryVariables
280
     0
  1
STANDARD
  0
DICTIONARYVAR
  5
214
102
{ACAD_REACTORS
330
20B
102
}
330
20B
100
DictionaryVariables
280
     0
  1
2
  0
DICTIONARYVAR
  5
213
102
{ACAD_REACTORS
330
20B
102
}
330
20B
100
DictionaryVariables
280
     0
  1
1
  0
DICTIONARYVAR
  5
212
102
{ACAD_REACTORS
330
20B
102
}
330
20B
100
DictionaryVariables
280
     0
  1
0
  0
DICTIONARYVAR
  5
210
102
{ACAD_REACTORS
330
20B
102
}
330
20B
100
DictionaryVariables
280
     0
  1
2
  0
DICTIONARYVAR
  5
20E
102
{ACAD_REACTORS
330
20B
102
}
330
20B
100
DictionaryVariables
280
     0
  1
1
  0
DICTIONARYVAR
  5
23D
102
{ACAD_REACTORS
330
20B
102
}
330
20B
100
DictionaryVariables
280
     0
  1
80.000000
  0
DICTIONARYVAR
  5
23C
102
{ACAD_REACTORS
330
20B
102
}
330
20B
100
DictionaryVariables
280
     0
  1
5.000000
  0
DICTIONARYVAR
  5
211
102
{ACAD_REACTORS
330
20B
102
}
330
20B
100
DictionaryVariables
280
     0
  1
127
  0
DICTIONARY
  5
240
330
17
100
AcDbDictionary
280
     1
281
     1
  3
ACAD_XREC_ROUNDTRIP
360
241
  0
DICTIONARY
  5
242
330
1F
100
AcDbDictionary
280
     1
281
     1
  3
ACAD_XREC_ROUNDTRIP
360
243
  0
DICTIONARY
  5
220
330
37
100
AcDbDictionary
280
     1
281
     1
  3
ACAD_XREC_ROUNDTRIP
360
221
  0
DICTIONARY
  5
21E
330
36
100
AcDbDictionary
280
     1
281
     1
  3
ACAD_XREC_ROUNDTRIP
360
21F
  0
DICTIONARY
  5
F
330
D
100
AcDbDictionary
280
     1
281
     1
  3
ACAD_XREC_ROUNDTRIP
360
219
  3
BUMPTILE
360
10
  3
DIFFUSETILE
360
11
  3
OPACITYTILE
360
12
  3
REFLECTIONTILE
360
13
  0
DICTIONARY
  5
3D
330
3C
100
AcDbDictionary
280
     1
281
     1
  3
ACAD_ROUNDTRIP_2008_TABLESTYLE_CELLSTYLEMAP
360
23E
  3
ACAD_XREC_ROUNDTRIP
360
244
  0
XRECORD
  5
241
102
{ACAD_REACTORS
330
240
102
}
330
240
100
AcDbXrecord
280
     1
102
SHADEPLOT
 70
     0
102
SHADEPLOTRESLEVEL
 70
     2
102
SHADEPLOTCUSTOMDPI
 70
   300
  0
XRECORD
  5
243
102
{ACAD_REACTORS
330
242
102
}
330
242
100
AcDbXrecord
280
     1
102
SHADEPLOT
 70
     0
102
SHADEPLOTRESLEVEL
 70
     2
102
SHADEPLOTCUSTOMDPI
 70
   300
  0
XRECORD
  5
221
102
{ACAD_REACTORS
330
220
102
}
330
220
100
AcDbXrecord
280
     1
102
MATERIAL
148
0.0
149
0.0
149
0.0
 93
        0
 94
      127
282
     0
 72
     1
 77
     1
171
     1
175
     1
179
     1
273
     0
  0
XRECORD
  5
21F
102
{ACAD_REACTORS
330
21E
102
}
330
21E
100
AcDbXrecord
280
     1
102
MATERIAL
148
0.0
149
0.0
149
0.0
 93
        0
 94
      127
282
     0
 72
     1
 77
     1
171
     1
175
     1
179
     1
273
     0
  0
XRECORD
  5
219
102
{ACAD_REACTORS
330
F
102
}
330
F
100
AcDbXrecord
280
     1
102
MATERIAL
148
0.0
149
0.0
149
0.0
 93
        0
 94
      127
282
     0
 72
     1
 77
     1
171
     1
175
     1
179
     1
273
     0
  0
XRECORD
  5
10
102
{ACAD_REACTORS
330
F
102
}
330
F
100
AcDbXrecord
280
     1
270
     1
271
     1
  0
XRECORD
  5
11
102
{ACAD_REACTORS
330
F
102
}
330
F
100
AcDbXrecord
280
     1
270
     1
271
     1
  0
XRECORD
  5
12
102
{ACAD_REACTORS
330
F
102
}
330
F
100
AcDbXrecord
280
     1
270
     1
271
     1
  0
XRECORD
  5
13
102
{ACAD_REACTORS
330
F
102
}
330
F
100
AcDbXrecord
280
     1
270
     1
271
     1
  0
CELLSTYLEMAP
  5
23E
102
{ACAD_REACTORS
330
3D
102
}
330
3D
100
AcDbCellStyleMap
 90
        3
300
CELLSTYLE
  1
TABLEFORMAT_BEGIN
 90
        5
170
     1
 91
        0
 92
    32768
 62
   257
 93
        1
300
CONTENTFORMAT
  1
CONTENTFORMAT_BEGIN
 90
        0
 91
        0
 92
      512
 93
        0
300

 40
0.0
140
1.0
 94
        5
 62
     0
340
24
144
6.0
309
CONTENTFORMAT_END
171
     1
301
MARGIN
  1
CELLMARGIN_BEGIN
 40
1.5
 40
1.5
 40
1.5
 40
1.5
 40
0.18
 40
0.18
309
CELLMARGIN_END
 94
        6
 95
        1
302
GRIDFORMAT
  1
GRIDFORMAT_BEGIN
 90
        0
 91
        1
 62
     0
 92
       -2
340
27
 93
        0
 40
1.125
309
GRIDFORMAT_END
 95
        2
302
GRIDFORMAT
  1
GRIDFORMAT_BEGIN
 90
        0
 91
        1
 62
     0
 92
       -2
340
27
 93
        0
 40
1.125
309
GRIDFORMAT_END
 95
        4
302
GRIDFORMAT
  1
GRIDFORMAT_BEGIN
 90
        0
 91
        1
 62
     0
 92
       -2
340
27
 93
        0
 40
1.125
309
GRIDFORMAT_END
 95
        8
302
GRIDFORMAT
  1
GRIDFORMAT_BEGIN
 90
        0
 91
        1
 62
     0
 92
       -2
340
27
 93
        0
 40
1.125
309
GRIDFORMAT_END
 95
       16
302
GRIDFORMAT
  1
GRIDFORMAT_BEGIN
 90
        0
 91
        1
 62
     0
 92
       -2
340
27
 93
        0
 40
1.125
309
GRIDFORMAT_END
 95
       32
302
GRIDFORMAT
  1
GRIDFORMAT_BEGIN
 90
        0
 91
        1
 62
     0
 92
       -2
340
27
 93
        0
 40
1.125
309
GRIDFORMAT_END
309
TABLEFORMAT_END
  1
CELLSTYLE_BEGIN
 90
        1
 91
        1
300
_TITLE
309
CELLSTYLE_END
300
CELLSTYLE
  1
TABLEFORMAT_BEGIN
 90
        5
170
     1
 91
        0
 92
        0
 62
   257
 93
        1
300
CONTENTFORMAT
  1
CONTENTFORMAT_BEGIN
 90
        0
 91
        0
 92
      512
 93
        0
300

 40
0.0
140
1.0
 94
        5
 62
     0
340
24
144
4.5
309
CONTENTFORMAT_END
171
     1
301
MARGIN
  1
CELLMARGIN_BEGIN
 40
1.5
 40
1.5
 40
1.5
 40
1.5
 40
0.18
 40
0.18
309
CELLMARGIN_END
 94
        6
 95
        1
302
GRIDFORMAT
  1
GRIDFORMAT_BEGIN
 90
        0
 91
        1
 62
     0
 92
       -2
340
27
 93
        0
 40
1.125
309
GRIDFORMAT_END
 95
        2
302
GRIDFORMAT
  1
GRIDFORMAT_BEGIN
 90
        0
 91
        1
 62
     0
 92
       -2
340
27
 93
        0
 40
1.125
309
GRIDFORMAT_END
 95
        4
302
GRIDFORMAT
  1
GRIDFORMAT_BEGIN
 90
        0
 91
        1
 62
     0
 92
       -2
340
27
 93
        0
 40
1.125
309
GRIDFORMAT_END
 95
        8
302
GRIDFORMAT
  1
GRIDFORMAT_BEGIN
 90
        0
 91
        1
 62
     0
 92
       -2
340
27
 93
        0
 40
1.125
309
GRIDFORMAT_END
 95
       16
302
GRIDFORMAT
  1
GRIDFORMAT_BEGIN
 90
        0
 91
        1
 62
     0
 92
       -2
340
27
 93
        0
 40
1.125
309
GRIDFORMAT_END
 95
       32
302
GRIDFORMAT
  1
GRIDFORMAT_BEGIN
 90
        0
 91
        1
 62
     0
 92
       -2
340
27
 93
        0
 40
1.125
309
GRIDFORMAT_END
309
TABLEFORMAT_END
  1
CELLSTYLE_BEGIN
 90
        2
 91
        1
300
_HEADER
309
CELLSTYLE_END
300
CELLSTYLE
  1
TABLEFORMAT_BEGIN
 90
        5
170
     1
 91
        0
 92
        0
 62
   257
 93
        1
300
CONTENTFORMAT
  1
CONTENTFORMAT_BEGIN
 90
        0
 91
        0
 92
      512
 93
        0
300

 40
0.0
140
1.0
 94
        2
 62
     0
340
24
144
4.5
309
CONTENTFORMAT_END
171
     1
301
MARGIN
  1
CELLMARGIN_BEGIN
 40
1.5
 40
1.5
 40
1.5
 40
1.5
 40
0.18
 40
0.18
309
CELLMARGIN_END
 94
        6
 95
        1
302
GRIDFORMAT
  1
GRIDFORMAT_BEGIN
 90
        0
 91
        1
 62
     0
 92
       -2
340
27
 93
        0
 40
1.125
309
GRIDFORMAT_END
 95
        2
302
GRIDFORMAT
  1
GRIDFORMAT_BEGIN
 90
        0
 91
        1
 62
     0
 92
       -2
340
27
 93
        0
 40
1.125
309
GRIDFORMAT_END
 95
        4
302
GRIDFORMAT
  1
GRIDFORMAT_BEGIN
 90
        0
 91
        1
 62
     0
 92
       -2
340
27
 93
        0
 40
1.125
309
GRIDFORMAT_END
 95
        8
302
GRIDFORMAT
  1
GRIDFORMAT_BEGIN
 90
        0
 91
        1
 62
     0
 92
       -2
340
27
 93
        0
 40
1.125
309
GRIDFORMAT_END
 95
       16
302
GRIDFORMAT
  1
GRIDFORMAT_BEGIN
 90
        0
 91
        1
 62
     0
 92
       -2
340
27
 93
        0
 40
1.125
309
GRIDFORMAT_END
 95
       32
302
GRIDFORMAT
  1
GRIDFORMAT_BEGIN
 90
        0
 91
        1
 62
     0
 92
       -2
340
27
 93
        0
 40
1.125
309
GRIDFORMAT_END
309
TABLEFORMAT_END
  1
CELLSTYLE_BEGIN
 90
        3
 91
        2
300
_DATA
309
CELLSTYLE_END
  0
XRECORD
  5
244
102
{ACAD_REACTORS
330
3D
102
}
330
3D
100
AcDbXrecord
280
     1
102
ACAD_ROUNDTRIP_PRE2007_TABLESTYLE
 90
      512
 91
        0
  1

 92
      512
 93
        0
  2

 94
      512
 95
        0
  3

  0
ENDSEC
  0
EOF
