  0
SECTION
  2
HEADER
  9
$ACADVER
  1
AC1015
  9
$ACADMAINTVER
 70
    20
  9
$DWGCODEPAGE
  3
ANSI_949
  9
$INSBASE
 10
0.0
 20
0.0
 30
0.0
  9
$EXTMIN
 10
1365.384355765418
 20
-1391.492158535095
 30
-0.0000091545749633
  9
$EXTMAX
 10
1712.5261026324
 20
-1196.075277087651
 30
0.0000137332594111
  9
$LIMMIN
 10
0.0
 20
0.0
  9
$LIMMAX
 10
420.0
 20
297.0
  9
$ORTHOMODE
 70
     1
  9
$REGENMODE
 70
     1
  9
$FILLMODE
 70
     1
  9
$QTEXTMODE
 70
     0
  9
$MIRRTEXT
 70
     0
  9
$LTSCALE
 40
1.0
  9
$ATTMODE
 70
     1
  9
$TEXTSIZE
 40
2.5
  9
$TRACEWID
 40
1.0
  9
$TEXTSTYLE
  7
Standard
  9
$CLAYER
  8
0
  9
$CELTYPE
  6
ByLayer
  9
$CECOLOR
 62
   256
  9
$CELTSCALE
 40
1.0
  9
$DISPSILH
 70
     0
  9
$DIMSCALE
 40
1.0
  9
$DIMASZ
 40
4.0
  9
$DIMEXO
 40
1.0
  9
$DIMDLI
 40
10.0
  9
$DIMRND
 40
0.0
  9
$DIMDLE
 40
0.0
  9
$DIMEXE
 40
0.6
  9
$DIMTP
 40
0.0
  9
$DIMTM
 40
0.0
  9
$DIMTXT
 40
5.0
  9
$DIMCEN
 40
0.09
  9
$DIMTSZ
 40
0.0
  9
$DIMTOL
 70
     0
  9
$DIMLIM
 70
     0
  9
$DIMTIH
 70
     0
  9
$DIMTOH
 70
     0
  9
$DIMSE1
 70
     0
  9
$DIMSE2
 70
     0
  9
$DIMTAD
 70
     1
  9
$DIMZIN
 70
     8
  9
$DIMBLK
  1

  9
$DIMASO
 70
     1
  9
$DIMSHO
 70
     1
  9
$DIMPOST
  1

  9
$DIMAPOST
  1

  9
$DIMALT
 70
     0
  9
$DIMALTD
 70
     2
  9
$DIMALTF
 40
25.4
  9
$DIMLFAC
 40
1.0
  9
$DIMTOFL
 70
     1
  9
$DIMTVP
 40
0.0
  9
$DIMTIX
 70
     1
  9
$DIMSOXD
 70
     0
  9
$DIMSAH
 70
     0
  9
$DIMBLK1
  1

  9
$DIMBLK2
  1

  9
$DIMSTYLE
  2
STANDARD
  9
$DIMCLRD
 70
   123
  9
$DIMCLRE
 70
   123
  9
$DIMCLRT
 70
     3
  9
$DIMTFAC
 40
1.0
  9
$DIMGAP
 40
1.5
  9
$DIMJUST
 70
     0
  9
$DIMSD1
 70
     0
  9
$DIMSD2
 70
     0
  9
$DIMTOLJ
 70
     1
  9
$DIMTZIN
 70
     0
  9
$DIMALTZ
 70
     0
  9
$DIMALTTZ
 70
     0
  9
$DIMUPT
 70
     1
  9
$DIMDEC
 70
     2
  9
$DIMTDEC
 70
     2
  9
$DIMALTU
 70
     2
  9
$DIMALTTD
 70
     2
  9
$DIMTXSTY
  7
Standard
  9
$DIMAUNIT
 70
     1
  9
$DIMADEC
 70
     1
  9
$DIMALTRND
 40
0.0
  9
$DIMAZIN
 70
     2
  9
$DIMDSEP
 70
    46
  9
$DIMATFIT
 70
     0
  9
$DIMFRAC
 70
     0
  9
$DIMLDRBLK
  1

  9
$DIMLUNIT
 70
     2
  9
$DIMLWD
 70
    -2
  9
$DIMLWE
 70
    -2
  9
$DIMTMOVE
 70
     0
  9
$LUNITS
 70
     2
  9
$LUPREC
 70
     4
  9
$SKETCHINC
 40
1.0
  9
$FILLETRAD
 40
0.0
  9
$AUNITS
 70
     0
  9
$AUPREC
 70
     0
  9
$MENU
  1
.
  9
$ELEVATION
 40
0.0
  9
$PELEVATION
 40
0.0
  9
$THICKNESS
 40
0.0
  9
$LIMCHECK
 70
     0
  9
$CHAMFERA
 40
0.5
  9
$CHAMFERB
 40
0.5
  9
$CHAMFERC
 40
0.0
  9
$CHAMFERD
 40
0.0
  9
$SKPOLY
 70
     0
  9
$TDCREATE
 40
2455638.478663565
  9
$TDUCREATE
 40
2455638.103663565
  9
$TDUPDATE
 40
2455916.471199364
  9
$TDUUPDATE
 40
2455916.096199363
  9
$TDINDWG
 40
3.4842540972
  9
$TDUSRTIMER
 40
3.4842539120
  9
$USRTIMER
 70
     1
  9
$ANGBASE
 50
0.0
  9
$ANGDIR
 70
     0
  9
$PDMODE
 70
     0
  9
$PDSIZE
 40
0.0
  9
$PLINEWID
 40
0.0
  9
$SPLFRAME
 70
     0
  9
$SPLINETYPE
 70
     6
  9
$SPLINESEGS
 70
     8
  9
$HANDSEED
  5
247
  9
$SURFTAB1
 70
     6
  9
$SURFTAB2
 70
     6
  9
$SURFTYPE
 70
     6
  9
$SURFU
 70
     6
  9
$SURFV
 70
     6
  9
$UCSBASE
  2

  9
$UCSNAME
  2

  9
$UCSORG
 10
0.0
 20
0.0
 30
0.0
  9
$UCSXDIR
 10
1.0
 20
0.0
 30
0.0
  9
$UCSYDIR
 10
0.0
 20
1.0
 30
0.0
  9
$UCSORTHOREF
  2

  9
$UCSORTHOVIEW
 70
     0
  9
$UCSORGTOP
 10
0.0
 20
0.0
 30
0.0
  9
$UCSORGBOTTOM
 10
0.0
 20
0.0
 30
0.0
  9
$UCSORGLEFT
 10
0.0
 20
0.0
 30
0.0
  9
$UCSORGRIGHT
 10
0.0
 20
0.0
 30
0.0
  9
$UCSORGFRONT
 10
0.0
 20
0.0
 30
0.0
  9
$UCSORGBACK
 10
0.0
 20
0.0
 30
0.0
  9
$PUCSBASE
  2

  9
$PUCSNAME
  2

  9
$PUCSORG
 10
0.0
 20
0.0
 30
0.0
  9
$PUCSXDIR
 10
1.0
 20
0.0
 30
0.0
  9
$PUCSYDIR
 10
0.0
 20
1.0
 30
0.0
  9
$PUCSORTHOREF
  2

  9
$PUCSORTHOVIEW
 70
     0
  9
$PUCSORGTOP
 10
0.0
 20
0.0
 30
0.0
  9
$PUCSORGBOTTOM
 10
0.0
 20
0.0
 30
0.0
  9
$PUCSORGLEFT
 10
0.0
 20
0.0
 30
0.0
  9
$PUCSORGRIGHT
 10
0.0
 20
0.0
 30
0.0
  9
$PUCSORGFRONT
 10
0.0
 20
0.0
 30
0.0
  9
$PUCSORGBACK
 10
0.0
 20
0.0
 30
0.0
  9
$USERI1
 70
     0
  9
$USERI2
 70
     0
  9
$USERI3
 70
     0
  9
$USERI4
 70
     0
  9
$USERI5
 70
     0
  9
$USERR1
 40
0.0
  9
$USERR2
 40
0.0
  9
$USERR3
 40
0.0
  9
$USERR4
 40
0.0
  9
$USERR5
 40
0.0
  9
$WORLDVIEW
 70
     1
  9
$SHADEDGE
 70
     3
  9
$SHADEDIF
 70
    70
  9
$TILEMODE
 70
     1
  9
$MAXACTVP
 70
    48
  9
$PINSBASE
 10
0.0
 20
0.0
 30
0.0
  9
$PLIMCHECK
 70
     0
  9
$PEXTMIN
 10
0.0
 20
0.0
 30
0.0
  9
$PEXTMAX
 10
0.0
 20
0.0
 30
0.0
  9
$PLIMMIN
 10
0.0
 20
0.0
  9
$PLIMMAX
 10
12.0
 20
9.0
  9
$UNITMODE
 70
     0
  9
$VISRETAIN
 70
     1
  9
$PLINEGEN
 70
     0
  9
$PSLTSCALE
 70
     1
  9
$TREEDEPTH
 70
  3020
  9
$CMLSTYLE
  2
Standard
  9
$CMLJUST
 70
     0
  9
$CMLSCALE
 40
20.0
  9
$PROXYGRAPHICS
 70
     1
  9
$MEASUREMENT
 70
     1
  9
$CELWEIGHT
370
    -1
  9
$ENDCAPS
280
     0
  9
$JOINSTYLE
280
     0
  9
$LWDISPLAY
290
     0
  9
$INSUNITS
 70
     4
  9
$HYPERLINKBASE
  1

  9
$STYLESHEET
  1

  9
$XEDIT
290
     1
  9
$CEPSNTYPE
380
     0
  9
$PSTYLEMODE
290
     1
  9
$FINGERPRINTGUID
  2
{EB602E58-889F-452E-934E-063113800779}
  9
$VERSIONGUID
  2
{6E52EC99-B23C-4561-81E7-FE42996F711F}
  9
$EXTNAMES
290
     1
  9
$PSVPSCALE
 40
0.0
  9
$OLESTARTUP
290
     0
  0
ENDSEC
  0
SECTION
  2
CLASSES
  0
CLASS
  1
ACDBDICTIONARYWDFLT
  2
AcDbDictionaryWithDefault
  3
ObjectDBX Classes
 90
        0
280
     0
281
     0
  0
CLASS
  1
ACDBPLACEHOLDER
  2
AcDbPlaceHolder
  3
ObjectDBX Classes
 90
        0
280
     0
281
     0
  0
CLASS
  1
LAYOUT
  2
AcDbLayout
  3
ObjectDBX Classes
 90
        0
280
     0
281
     0
  0
CLASS
  1
DICTIONARYVAR
  2
AcDbDictionaryVar
  3
ObjectDBX Classes
 90
        0
280
     0
281
     0
  0
CLASS
  1
TABLESTYLE
  2
AcDbTableStyle
  3
ObjectDBX Classes
 90
     4095
280
     0
281
     0
  0
CLASS
  1
MATERIAL
  2
AcDbMaterial
  3
ObjectDBX Classes
 90
     1153
280
     0
281
     0
  0
CLASS
  1
VISUALSTYLE
  2
AcDbVisualStyle
  3
ObjectDBX Classes
 90
     4095
280
     0
281
     0
  0
CLASS
  1
SCALE
  2
AcDbScale
  3
ObjectDBX Classes
 90
     1153
280
     0
281
     0
  0
CLASS
  1
MLEADERSTYLE
  2
AcDbMLeaderStyle
  3
ACDB_MLEADERSTYLE_CLASS
 90
     4095
280
     0
281
     0
  0
CLASS
  1
CELLSTYLEMAP
  2
AcDbCellStyleMap
  3
ObjectDBX Classes
 90
     1152
280
     0
281
     0
  0
CLASS
  1
DIMASSOC
  2
AcDbDimAssoc
  3
"AcDbDimAssoc|Product Desc:     AcDim ARX App For Dimension|Company:          Autodesk, Inc.|WEB Address:      www.autodesk.com"
 90
        0
280
     0
281
     0
  0
CLASS
  1
SORTENTSTABLE
  2
AcDbSortentsTable
  3
ObjectDBX Classes
 90
        0
280
     0
281
     0
  0
CLASS
  1
BREAKDATA
  2
AcDbBreakData
  3
ObjectDBX Classes
 90
    33792
280
     0
281
     0
  0
CLASS
  1
EXACXREFPANELOBJECT
  2
ExAcXREFPanelObject
  3
EXAC_ESW
 90
     1025
280
     0
281
     0
  0
CLASS
  1
NPOCOLLECTION
  2
AcDbImpNonPersistentObjectsCollection
  3
ObjectDBX Classes
 90
     1153
280
     0
281
     0
  0
CLASS
  1
SOLID_BACKGROUND
  2
AcDbSolidBackground
  3
SCENEOE
 90
    36863
280
     0
281
     0
  0
ENDSEC
  0
SECTION
  2
TABLES
  0
TABLE
  2
VPORT
  5
2B
102
{ACAD_XDICTIONARY
360
2F
102
}
330
0
100
AcDbSymbolTable
 70
     1
  0
VPORT
  5
2C
330
2B
100
AcDbSymbolTableRecord
100
AcDbViewportTableRecord
  2
*Active
 70
     0
 10
0.0
 20
0.0
 11
1.0
 21
1.0
 12
1538.955229198909
 22
-1293.783717811373
 13
0.0
 23
0.0
 14
10.0
 24
10.0
 15
10.0
 25
10.0
 16
0.0
 26
0.0
 36
1.0
 17
0.0
 27
0.0
 37
0.0
 40
233.6411223696125
 41
1.492874109263657
 42
50.0
 43
0.0
 44
0.0
 50
0.0
 51
0.0
 71
     0
 72
  1000
 73
     1
 74
     3
 75
     0
 76
     0
 77
     0
 78
     0
281
     0
 65
     1
110
0.0
120
0.0
130
0.0
111
1.0
121
0.0
131
0.0
112
0.0
122
1.0
132
0.0
 79
     0
146
0.0
  0
ENDTAB
  0
TABLE
  2
LTYPE
  5
26
330
0
100
AcDbSymbolTable
 70
     2
  0
LTYPE
  5
27
330
26
100
AcDbSymbolTableRecord
100
AcDbLinetypeTableRecord
  2
ByBlock
 70
     0
  3

 72
    65
 73
     0
 40
0.0
  0
LTYPE
  5
28
330
26
100
AcDbSymbolTableRecord
100
AcDbLinetypeTableRecord
  2
ByLayer
 70
     0
  3

 72
    65
 73
     0
 40
0.0
  0
LTYPE
  5
15
330
26
100
AcDbSymbolTableRecord
100
AcDbLinetypeTableRecord
  2
Continuous
 70
     0
  3
Solid line
 72
    65
 73
     0
 40
0.0
  0
LTYPE
  5
A4
330
26
100
AcDbSymbolTableRecord
100
AcDbLinetypeTableRecord
  2
CENTER
 70
     0
  3
Center ____ _ ____ _ ____ _ ____ _ ____ _ ____
 72
    65
 73
     4
 40
50.8
 49
31.75
 74
     0
 49
-6.349999999999998
 74
     0
 49
6.349999999999998
 74
     0
 49
-6.349999999999998
 74
     0
  0
ENDTAB
  0
TABLE
  2
LAYER
  5
20
102
{ACAD_XDICTIONARY
360
21
102
}
330
0
100
AcDbSymbolTable
 70
     2
  0
LAYER
  5
7
102
{ACAD_XDICTIONARY
360
8
102
}
330
20
100
AcDbSymbolTableRecord
100
AcDbLayerTableRecord
  2
0
 70
     0
 62
     7
  6
Continuous
370
    -3
390
A
  0
LAYER
  5
70
330
20
100
AcDbSymbolTableRecord
100
AcDbLayerTableRecord
  2
Defpoints
 70
     0
 62
     7
  6
Continuous
290
     0
370
    -3
390
A
  0
ENDTAB
  0
TABLE
  2
STYLE
  5
23
330
0
100
AcDbSymbolTable
 70
     1
  0
STYLE
  5
24
330
23
100
AcDbSymbolTableRecord
100
AcDbTextStyleTableRecord
  2
Standard
 70
     0
 40
0.0
 41
1.0
 50
0.0
 71
     0
 42
2.5
  3
romans.shx
  4
whgtxt.shx
  0
ENDTAB
  0
TABLE
  2
VIEW
  5
29
330
0
100
AcDbSymbolTable
 70
     0
  0
ENDTAB
  0
TABLE
  2
UCS
  5
2A
330
0
100
AcDbSymbolTable
 70
     0
  0
ENDTAB
  0
TABLE
  2
APPID
  5
30
330
0
100
AcDbSymbolTable
 70
     5
  0
APPID
  5
14
330
30
100
AcDbSymbolTableRecord
100
AcDbRegAppTableRecord
  2
ACAD
 70
     0
  0
APPID
  5
19
330
30
100
AcDbSymbolTableRecord
100
AcDbRegAppTableRecord
  2
ACAD_PSEXT
 70
     0
  0
APPID
  5
41
330
30
100
AcDbSymbolTableRecord
100
AcDbRegAppTableRecord
  2
ACAD_DSTYLE_DIMJAG
 70
     0
  0
APPID
  5
42
330
30
100
AcDbSymbolTableRecord
100
AcDbRegAppTableRecord
  2
ACAD_DSTYLE_DIMTALN
 70
     0
  0
APPID
  5
236
330
30
100
AcDbSymbolTableRecord
100
AcDbRegAppTableRecord
  2
ACAD_MLEADERVER
 70
     0
  0
ENDTAB
  0
TABLE
  2
DIMSTYLE
  5
31
330
0
100
AcDbSymbolTable
 70
     1
100
AcDbDimStyleTable
 71
     0
  0
DIMSTYLE
105
40
102
{ACAD_REACTORS
330
1F9
330
1E9
330
1AB
330
1AA
330
18E
330
172
330
155
330
141
330
12A
330
F8
330
E3
330
B7
330
A6
330
94
330
85
330
76
330
64
102
}
330
31
100
AcDbSymbolTableRecord
100
AcDbDimStyleTableRecord
  2
STANDARD
 70
     0
 41
4.0
 42
1.0
 43
10.0
 44
0.6
 73
     0
 74
     0
 77
     1
 78
     8
 79
     2
140
5.0
147
1.5
172
     1
174
     1
176
   123
177
   123
178
     3
179
     1
271
     2
272
     2
275
     1
288
     1
289
     0
340
24
1001
ACAD_DSTYLE_DIMJAG
1070
   388
1040
1.5
1001
ACAD_DSTYLE_DIMTALN
1070
   392
1070
     0
  0
ENDTAB
  0
TABLE
  2
BLOCK_RECORD
  5
1
330
0
100
AcDbSymbolTable
 70
    16
  0
BLOCK_RECORD
  5
2
102
{ACAD_XDICTIONARY
360
3
102
}
330
1
100
AcDbSymbolTableRecord
100
AcDbBlockTableRecord
  2
*Model_Space
340
17
  0
BLOCK_RECORD
  5
1A
102
{ACAD_XDICTIONARY
360
1B
102
}
330
1
100
AcDbSymbolTableRecord
100
AcDbBlockTableRecord
  2
*Paper_Space
340
1F
  0
BLOCK_RECORD
  5
173
330
1
100
AcDbSymbolTableRecord
100
AcDbBlockTableRecord
  2
*D0
340
0
  0
BLOCK_RECORD
  5
1AC
330
1
100
AcDbSymbolTableRecord
100
AcDbBlockTableRecord
  2
*D1
340
0
  0
BLOCK_RECORD
  5
1EA
330
1
100
AcDbSymbolTableRecord
100
AcDbBlockTableRecord
  2
*D2
340
0
  0
BLOCK_RECORD
  5
1FA
330
1
100
AcDbSymbolTableRecord
100
AcDbBlockTableRecord
  2
*D3
340
0
  0
BLOCK_RECORD
  5
12D
330
1
100
AcDbSymbolTableRecord
100
AcDbBlockTableRecord
  2
*D4
340
0
  0
BLOCK_RECORD
  5
144
330
1
100
AcDbSymbolTableRecord
100
AcDbBlockTableRecord
  2
*D5
340
0
  0
BLOCK_RECORD
  5
158
330
1
100
AcDbSymbolTableRecord
100
AcDbBlockTableRecord
  2
*D6
340
0
  0
BLOCK_RECORD
  5
191
330
1
100
AcDbSymbolTableRecord
100
AcDbBlockTableRecord
  2
*D7
340
0
  0
BLOCK_RECORD
  5
67
330
1
100
AcDbSymbolTableRecord
100
AcDbBlockTableRecord
  2
*D8
340
0
  0
BLOCK_RECORD
  5
79
330
1
100
AcDbSymbolTableRecord
100
AcDbBlockTableRecord
  2
*D9
340
0
  0
BLOCK_RECORD
  5
88
330
1
100
AcDbSymbolTableRecord
100
AcDbBlockTableRecord
  2
*D10
340
0
  0
BLOCK_RECORD
  5
97
330
1
100
AcDbSymbolTableRecord
100
AcDbBlockTableRecord
  2
*D11
340
0
  0
BLOCK_RECORD
  5
A9
330
1
100
AcDbSymbolTableRecord
100
AcDbBlockTableRecord
  2
*D12
340
0
  0
BLOCK_RECORD
  5
BA
330
1
100
AcDbSymbolTableRecord
100
AcDbBlockTableRecord
  2
*D13
340
0
  0
BLOCK_RECORD
  5
E6
330
1
100
AcDbSymbolTableRecord
100
AcDbBlockTableRecord
  2
*D14
340
0
  0
BLOCK_RECORD
  5
FB
330
1
100
AcDbSymbolTableRecord
100
AcDbBlockTableRecord
  2
*D15
340
0
  0
ENDTAB
  0
ENDSEC
  0
SECTION
  2
BLOCKS
  0
BLOCK
  5
6
330
2
100
AcDbEntity
  8
0
100
AcDbBlockBegin
  2
*Model_Space
 70
     0
 10
0.0
 20
0.0
 30
0.0
  3
*Model_Space
  1

  0
ENDBLK
  5
16
330
2
100
AcDbEntity
  8
0
100
AcDbBlockEnd
  0
BLOCK
  5
1D
330
1A
100
AcDbEntity
 67
     1
  8
0
100
AcDbBlockBegin
  2
*Paper_Space
 70
     0
 10
0.0
 20
0.0
 30
0.0
  3
*Paper_Space
  1

  0
ENDBLK
  5
1E
330
1A
100
AcDbEntity
 67
     1
  8
0
100
AcDbBlockEnd
  0
BLOCK
  5
174
330
173
100
AcDbEntity
  8
0
100
AcDbBlockBegin
  2
*D0
 70
     1
 10
0.0
 20
0.0
 30
0.0
  3
*D0
  1

  0
LINE
  5
175
330
173
100
AcDbEntity
  8
0
 62
   123
370
    -2
100
AcDbLine
 10
1691.144900343877
 20
-1263.120843343054
 30
0.0
 11
1712.037074826922
 21
-1263.120843343054
 31
0.0
  0
LINE
  5
176
330
173
100
AcDbEntity
  8
0
 62
   123
370
    -2
100
AcDbLine
 10
1691.144900343877
 20
-1353.120843343055
 30
0.0
 11
1712.037074826922
 21
-1353.120843343055
 31
0.0
  0
LINE
  5
177
330
173
100
AcDbEntity
  8
0
 62
   123
370
    -2
100
AcDbLine
 10
1711.437074826922
 20
-1267.120843343055
 30
0.0
 11
1711.437074826922
 21
-1349.120843343055
 31
0.0
  0
SOLID
  5
178
330
173
100
AcDbEntity
  8
0
 62
   123
100
AcDbTrace
 10
1710.770408160255
 20
-1267.120843343055
 30
0.0
 11
1712.103741493589
 21
-1267.120843343055
 31
0.0
 12
1711.437074826922
 22
-1263.120843343054
 32
0.0
 13
1711.437074826922
 23
-1263.120843343054
 33
0.0
  0
SOLID
  5
179
330
173
100
AcDbEntity
  8
0
 62
   123
100
AcDbTrace
 10
1710.770408160255
 20
-1349.120843343055
 30
0.0
 11
1712.103741493589
 21
-1349.120843343055
 31
0.0
 12
1711.437074826922
 22
-1353.120843343055
 32
0.0
 13
1711.437074826922
 23
-1353.120843343055
 33
0.0
  0
MTEXT
  5
17A
330
173
100
AcDbEntity
  8
0
 62
     3
100
AcDbMText
 10
1707.437074826922
 20
-1308.120843343054
 30
0.0
 40
5.0
 41
0.0
 71
     5
 72
     1
  1
\A1;90
 11
0.0000000000000001
 21
1.0
 31
0.0
 73
     1
 44
1.0
1001
ACAD
1000
MTEXTBEGIN
1070
    73
1070
     1
1070
    44
1040
1.0
1070
    74
1070
     0
1000
MTEXTEND
  0
POINT
  5
17B
330
173
100
AcDbEntity
  8
Defpoints
 62
     0
100
AcDbPoint
 10
1690.144900343877
 20
-1263.120843343054
 30
0.0
  0
POINT
  5
17C
330
173
100
AcDbEntity
  8
Defpoints
 62
     0
100
AcDbPoint
 10
1690.144900343877
 20
-1353.120843343055
 30
0.0
  0
POINT
  5
17D
330
173
100
AcDbEntity
  8
Defpoints
 62
     0
100
AcDbPoint
 10
1711.437074826922
 20
-1353.120843343055
 30
0.0
  0
ENDBLK
  5
17E
330
173
100
AcDbEntity
  8
0
100
AcDbBlockEnd
  0
BLOCK
  5
1AD
330
1AC
100
AcDbEntity
  8
0
100
AcDbBlockBegin
  2
*D1
 70
     1
 10
0.0
 20
0.0
 30
0.0
  3
*D1
  1

  0
LINE
  5
1AE
330
1AC
100
AcDbEntity
  8
0
 62
   123
370
    -2
100
AcDbLine
 10
1372.984835600351
 20
-1349.120843342985
 30
0.0
 11
1372.984835600351
 21
-1369.401024029082
 31
0.0
  0
LINE
  5
1AF
330
1AC
100
AcDbEntity
  8
0
 62
   123
370
    -2
100
AcDbLine
 10
1462.984835600351
 20
-1349.120843342985
 30
0.0
 11
1462.984835600351
 21
-1369.401024029082
 31
0.0
  0
LINE
  5
1B0
330
1AC
100
AcDbEntity
  8
0
 62
   123
370
    -2
100
AcDbLine
 10
1376.984835600351
 20
-1368.801024029082
 30
0.0
 11
1458.984835600351
 21
-1368.801024029082
 31
0.0
  0
SOLID
  5
1B1
330
1AC
100
AcDbEntity
  8
0
 62
   123
100
AcDbTrace
 10
1376.984835600351
 20
-1368.134357362415
 30
0.0
 11
1376.984835600351
 21
-1369.467690695749
 31
0.0
 12
1372.984835600351
 22
-1368.801024029082
 32
0.0
 13
1372.984835600351
 23
-1368.801024029082
 33
0.0
  0
SOLID
  5
1B2
330
1AC
100
AcDbEntity
  8
0
 62
   123
100
AcDbTrace
 10
1458.984835600351
 20
-1368.134357362415
 30
0.0
 11
1458.984835600351
 21
-1369.467690695749
 31
0.0
 12
1462.984835600351
 22
-1368.801024029082
 32
0.0
 13
1462.984835600351
 23
-1368.801024029082
 33
0.0
  0
MTEXT
  5
1B3
330
1AC
100
AcDbEntity
  8
0
 62
     3
100
AcDbMText
 10
1417.737561349227
 20
-1364.801024029082
 30
0.0
 40
5.0
 41
0.0
 71
     5
 72
     1
  1
\A1;90
 73
     1
 44
1.0
1001
ACAD
1000
MTEXTBEGIN
1070
    73
1070
     1
1070
    44
1040
1.0
1070
    74
1070
     0
1000
MTEXTEND
  0
POINT
  5
1B4
330
1AC
100
AcDbEntity
  8
Defpoints
 62
     0
100
AcDbPoint
 10
1372.984835600351
 20
-1348.120843342985
 30
0.0
  0
POINT
  5
1B5
330
1AC
100
AcDbEntity
  8
Defpoints
 62
     0
100
AcDbPoint
 10
1462.984835600351
 20
-1348.120843342985
 30
0.0
  0
POINT
  5
1B6
330
1AC
100
AcDbEntity
  8
Defpoints
 62
     0
100
AcDbPoint
 10
1462.984835600351
 20
-1368.801024029082
 30
0.0
  0
ENDBLK
  5
1B7
330
1AC
100
AcDbEntity
  8
0
100
AcDbBlockEnd
  0
BLOCK
  5
1EB
330
1EA
100
AcDbEntity
  8
0
100
AcDbBlockBegin
  2
*D2
 70
     1
 10
0.0
 20
0.0
 30
0.0
  3
*D2
  1

  0
LINE
  5
1EC
330
1EA
100
AcDbEntity
  8
0
 62
   123
370
    -2
100
AcDbLine
 10
1459.292730028051
 20
-1263.120843342985
 30
0.0
 11
1465.656907420481
 21
-1263.120843342985
 31
0.0
  0
LINE
  5
1ED
330
1EA
100
AcDbEntity
  8
0
 62
   123
370
    -2
100
AcDbLine
 10
1446.900991034339
 20
-1220.120843342985
 30
0.0
 11
1465.656907420481
 21
-1220.120843342985
 31
0.0
  0
LINE
  5
1EE
330
1EA
100
AcDbEntity
  8
0
 62
   123
370
    -2
100
AcDbLine
 10
1465.05690742048
 20
-1259.120843342985
 30
0.0
 11
1465.05690742048
 21
-1224.120843342985
 31
0.0
  0
SOLID
  5
1EF
330
1EA
100
AcDbEntity
  8
0
 62
   123
100
AcDbTrace
 10
1464.390240753814
 20
-1259.120843342985
 30
0.0
 11
1465.723574087147
 21
-1259.120843342985
 31
0.0
 12
1465.05690742048
 22
-1263.120843342985
 32
0.0
 13
1465.05690742048
 23
-1263.120843342985
 33
0.0
  0
SOLID
  5
1F0
330
1EA
100
AcDbEntity
  8
0
 62
   123
100
AcDbTrace
 10
1464.390240753814
 20
-1224.120843342985
 30
0.0
 11
1465.723574087147
 21
-1224.120843342985
 31
0.0
 12
1465.05690742048
 22
-1220.120843342985
 32
0.0
 13
1465.05690742048
 23
-1220.120843342985
 33
0.0
  0
MTEXT
  5
1F1
330
1EA
100
AcDbEntity
  8
0
 62
     3
100
AcDbMText
 10
1461.056907420481
 20
-1240.026007545901
 30
0.0
 40
5.0
 41
0.0
 71
     5
 72
     1
  1
\A1;43
 11
0.0000000000000001
 21
1.0
 31
0.0
 73
     1
 44
1.0
1001
ACAD
1000
MTEXTBEGIN
1070
    73
1070
     1
1070
    44
1040
1.0
1070
    74
1070
     0
1000
MTEXTEND
  0
POINT
  5
1F2
330
1EA
100
AcDbEntity
  8
Defpoints
 62
     0
100
AcDbPoint
 10
1458.292730028051
 20
-1263.120843342985
 30
0.0
  0
POINT
  5
1F3
330
1EA
100
AcDbEntity
  8
Defpoints
 62
     0
100
AcDbPoint
 10
1445.900991034339
 20
-1220.120843342985
 30
0.0
  0
POINT
  5
1F4
330
1EA
100
AcDbEntity
  8
Defpoints
 62
     0
100
AcDbPoint
 10
1465.05690742048
 20
-1220.120843342985
 30
0.0
  0
ENDBLK
  5
1F5
330
1EA
100
AcDbEntity
  8
0
100
AcDbBlockEnd
  0
BLOCK
  5
1FB
330
1FA
100
AcDbEntity
  8
0
100
AcDbBlockBegin
  2
*D3
 70
     1
 10
0.0
 20
0.0
 30
0.0
  3
*D3
  1

  0
LINE
  5
1FC
330
1FA
100
AcDbEntity
  8
0
 62
   123
370
    -2
100
AcDbLine
 10
1386.737560849227
 20
-1253.432617940893
 30
0.0
 11
1386.737560849227
 21
-1202.101199719493
 31
0.0
  0
LINE
  5
1FD
330
1FA
100
AcDbEntity
  8
0
 62
   123
370
    -2
100
AcDbLine
 10
1448.737560849227
 20
-1253.432617940893
 30
0.0
 11
1448.737560849227
 21
-1202.101199719493
 31
0.0
  0
LINE
  5
1FE
330
1FA
100
AcDbEntity
  8
0
 62
   123
370
    -2
100
AcDbLine
 10
1390.737560849227
 20
-1202.701199719493
 30
0.0
 11
1444.737560849227
 21
-1202.701199719493
 31
0.0
  0
SOLID
  5
1FF
330
1FA
100
AcDbEntity
  8
0
 62
   123
100
AcDbTrace
 10
1390.737560849227
 20
-1202.034533052826
 30
0.0
 11
1390.737560849227
 21
-1203.36786638616
 31
0.0
 12
1386.737560849227
 22
-1202.701199719493
 32
0.0
 13
1386.737560849227
 23
-1202.701199719493
 33
0.0
  0
SOLID
  5
200
330
1FA
100
AcDbEntity
  8
0
 62
   123
100
AcDbTrace
 10
1444.737560849227
 20
-1202.034533052826
 30
0.0
 11
1444.737560849227
 21
-1203.36786638616
 31
0.0
 12
1448.737560849227
 22
-1202.701199719493
 32
0.0
 13
1448.737560849227
 23
-1202.701199719493
 33
0.0
  0
MTEXT
  5
201
330
1FA
100
AcDbEntity
  8
0
 62
     3
100
AcDbMText
 10
1417.900155596028
 20
-1198.701199719493
 30
0.0
 40
5.0
 41
0.0
 71
     5
 72
     1
  1
\A1;62
 73
     1
 44
1.0
1001
ACAD
1000
MTEXTBEGIN
1070
    73
1070
     1
1070
    44
1040
1.0
1070
    74
1070
     0
1000
MTEXTEND
  0
POINT
  5
202
330
1FA
100
AcDbEntity
  8
Defpoints
 62
     0
100
AcDbPoint
 10
1386.737560849227
 20
-1254.432617940892
 30
0.0
  0
POINT
  5
203
330
1FA
100
AcDbEntity
  8
Defpoints
 62
     0
100
AcDbPoint
 10
1448.737560849227
 20
-1254.432617940892
 30
0.0
  0
POINT
  5
204
330
1FA
100
AcDbEntity
  8
Defpoints
 62
     0
100
AcDbPoint
 10
1448.737560849227
 20
-1202.701199719493
 30
0.0
  0
ENDBLK
  5
205
330
1FA
100
AcDbEntity
  8
0
100
AcDbBlockEnd
  0
BLOCK
  5
12E
330
12D
100
AcDbEntity
  8
0
100
AcDbBlockBegin
  2
*D4
 70
     1
 10
0.0
 20
0.0
 30
0.0
  3
*D4
  1

  0
LINE
  5
12F
330
12D
100
AcDbEntity
  8
0
 62
   123
370
    -2
100
AcDbLine
 10
1567.144900343877
 20
-1253.420844343054
 30
0.0
 11
1567.144900343877
 21
-1207.465239838368
 31
0.0
  0
LINE
  5
130
330
12D
100
AcDbEntity
  8
0
 62
   123
370
    -2
100
AcDbLine
 10
1642.141567343876
 20
-1222.120844343051
 30
0.0
 11
1642.141567343876
 21
-1207.465239838368
 31
0.0
  0
LINE
  5
131
330
12D
100
AcDbEntity
  8
0
 62
   123
370
    -2
100
AcDbLine
 10
1571.144900343877
 20
-1208.065239838368
 30
0.0
 11
1638.141567343876
 21
-1208.065239838368
 31
0.0
  0
SOLID
  5
132
330
12D
100
AcDbEntity
  8
0
 62
   123
100
AcDbTrace
 10
1571.144900343877
 20
-1207.398573171701
 30
0.0
 11
1571.144900343877
 21
-1208.731906505035
 31
0.0
 12
1567.144900343877
 22
-1208.065239838368
 32
0.0
 13
1567.144900343877
 23
-1208.065239838368
 33
0.0
  0
SOLID
  5
133
330
12D
100
AcDbEntity
  8
0
 62
   123
100
AcDbTrace
 10
1638.141567343876
 20
-1207.398573171701
 30
0.0
 11
1638.141567343876
 21
-1208.731906505035
 31
0.0
 12
1642.141567343876
 22
-1208.065239838368
 32
0.0
 13
1642.141567343876
 23
-1208.065239838368
 33
0.0
  0
MTEXT
  5
134
330
12D
100
AcDbEntity
  8
0
 62
     3
100
AcDbMText
 10
1604.643233843876
 20
-1204.065239838368
 30
0.0
 40
5.0
 41
0.0
 71
     5
 72
     1
  1
\A1;75
 73
     1
 44
1.0
1001
ACAD
1000
MTEXTBEGIN
1070
    73
1070
     1
1070
    44
1040
1.0
1070
    74
1070
     0
1000
MTEXTEND
  0
POINT
  5
135
330
12D
100
AcDbEntity
  8
Defpoints
 62
     0
100
AcDbPoint
 10
1567.144900343877
 20
-1254.420844343054
 30
0.0
  0
POINT
  5
136
330
12D
100
AcDbEntity
  8
Defpoints
 62
     0
100
AcDbPoint
 10
1642.141567343876
 20
-1223.120844343051
 30
0.0
  0
POINT
  5
137
330
12D
100
AcDbEntity
  8
Defpoints
 62
     0
100
AcDbPoint
 10
1642.141567343876
 20
-1208.065239838368
 30
0.0
  0
ENDBLK
  5
138
330
12D
100
AcDbEntity
  8
0
100
AcDbBlockEnd
  0
BLOCK
  5
145
330
144
100
AcDbEntity
  8
0
100
AcDbBlockBegin
  2
*D5
 70
     1
 10
0.0
 20
0.0
 30
0.0
  3
*D5
  1

  0
LINE
  5
146
330
144
100
AcDbEntity
  8
0
 62
   123
370
    -2
100
AcDbLine
 10
1561.144900343877
 20
-1262.120843343055
 30
0.0
 11
1561.144900343877
 21
-1207.465239838368
 31
0.0
  0
LINE
  5
147
330
144
100
AcDbEntity
  8
0
 62
   123
370
    -2
100
AcDbLine
 10
1567.144900343877
 20
-1253.420844343054
 30
0.0
 11
1567.144900343877
 21
-1207.465239838368
 31
0.0
  0
LINE
  5
148
330
144
100
AcDbEntity
  8
0
 62
   123
370
    -2
100
AcDbLine
 10
1557.144900343877
 20
-1208.065239838368
 30
0.0
 11
1553.144900343877
 21
-1208.065239838368
 31
0.0
  0
LINE
  5
149
330
144
100
AcDbEntity
  8
0
 62
   123
370
    -2
100
AcDbLine
 10
1571.144900343877
 20
-1208.065239838368
 30
0.0
 11
1575.144900343877
 21
-1208.065239838368
 31
0.0
  0
LINE
  5
14A
330
144
100
AcDbEntity
  8
0
 62
   123
370
    -2
100
AcDbLine
 10
1561.144900343877
 20
-1208.065239838368
 30
0.0
 11
1567.144900343877
 21
-1208.065239838368
 31
0.0
  0
SOLID
  5
14B
330
144
100
AcDbEntity
  8
0
 62
   123
100
AcDbTrace
 10
1557.144900343877
 20
-1207.398573171701
 30
0.0
 11
1557.144900343877
 21
-1208.731906505035
 31
0.0
 12
1561.144900343877
 22
-1208.065239838368
 32
0.0
 13
1561.144900343877
 23
-1208.065239838368
 33
0.0
  0
SOLID
  5
14C
330
144
100
AcDbEntity
  8
0
 62
   123
100
AcDbTrace
 10
1571.144900343877
 20
-1207.398573171701
 30
0.0
 11
1571.144900343877
 21
-1208.731906505035
 31
0.0
 12
1567.144900343877
 22
-1208.065239838368
 32
0.0
 13
1567.144900343877
 23
-1208.065239838368
 33
0.0
  0
MTEXT
  5
14D
330
144
100
AcDbEntity
  8
0
 62
     3
100
AcDbMText
 10
1564.144900343877
 20
-1204.065239838368
 30
0.0
 40
5.0
 41
0.0
 71
     5
 72
     1
  1
\A1;6
 73
     1
 44
1.0
1001
ACAD
1000
MTEXTBEGIN
1070
    73
1070
     1
1070
    44
1040
1.0
1070
    74
1070
     0
1000
MTEXTEND
  0
POINT
  5
14E
330
144
100
AcDbEntity
  8
Defpoints
 62
     0
100
AcDbPoint
 10
1561.144900343877
 20
-1263.120843343054
 30
0.0
  0
POINT
  5
14F
330
144
100
AcDbEntity
  8
Defpoints
 62
     0
100
AcDbPoint
 10
1567.144900343877
 20
-1254.420844343054
 30
0.0
  0
POINT
  5
150
330
144
100
AcDbEntity
  8
Defpoints
 62
     0
100
AcDbPoint
 10
1567.144900343877
 20
-1208.065239838368
 30
0.0
  0
ENDBLK
  5
151
330
144
100
AcDbEntity
  8
0
100
AcDbBlockEnd
  0
BLOCK
  5
159
330
158
100
AcDbEntity
  8
0
100
AcDbBlockBegin
  2
*D6
 70
     1
 10
0.0
 20
0.0
 30
0.0
  3
*D6
  1

  0
LINE
  5
15A
330
158
100
AcDbEntity
  8
0
 62
   123
370
    -2
100
AcDbLine
 10
1642.141567343876
 20
-1222.120844343051
 30
0.0
 11
1642.141567343876
 21
-1207.481810858879
 31
0.0
  0
LINE
  5
15B
330
158
100
AcDbEntity
  8
0
 62
   123
370
    -2
100
AcDbLine
 10
1670.141567343876
 20
-1230.120844343051
 30
0.0
 11
1670.141567343876
 21
-1207.481810858879
 31
0.0
  0
LINE
  5
15C
330
158
100
AcDbEntity
  8
0
 62
   123
370
    -2
100
AcDbLine
 10
1646.141567343876
 20
-1208.081810858879
 30
0.0
 11
1666.141567343876
 21
-1208.081810858879
 31
0.0
  0
SOLID
  5
15D
330
158
100
AcDbEntity
  8
0
 62
   123
100
AcDbTrace
 10
1646.141567343876
 20
-1207.415144192212
 30
0.0
 11
1646.141567343876
 21
-1208.748477525546
 31
0.0
 12
1642.141567343876
 22
-1208.081810858879
 32
0.0
 13
1642.141567343876
 23
-1208.081810858879
 33
0.0
  0
SOLID
  5
15E
330
158
100
AcDbEntity
  8
0
 62
   123
100
AcDbTrace
 10
1666.141567343876
 20
-1207.415144192212
 30
0.0
 11
1666.141567343876
 21
-1208.748477525546
 31
0.0
 12
1670.141567343876
 22
-1208.081810858879
 32
0.0
 13
1670.141567343876
 23
-1208.081810858879
 33
0.0
  0
MTEXT
  5
15F
330
158
100
AcDbEntity
  8
0
 62
     3
100
AcDbMText
 10
1656.141567343876
 20
-1204.081810858879
 30
0.0
 40
5.0
 41
0.0
 71
     5
 72
     1
  1
\A1;MAX. 28
 73
     1
 44
1.0
1001
ACAD
1000
MTEXTBEGIN
1070
    73
1070
     1
1070
    44
1040
1.0
1070
    74
1070
     0
1000
MTEXTEND
  0
POINT
  5
160
330
158
100
AcDbEntity
  8
Defpoints
 62
     0
100
AcDbPoint
 10
1642.141567343876
 20
-1223.120844343051
 30
0.0
  0
POINT
  5
161
330
158
100
AcDbEntity
  8
Defpoints
 62
     0
100
AcDbPoint
 10
1670.141567343876
 20
-1231.120844343051
 30
0.0
  0
POINT
  5
162
330
158
100
AcDbEntity
  8
Defpoints
 62
     0
100
AcDbPoint
 10
1670.141567343876
 20
-1208.081810858879
 30
0.0
  0
ENDBLK
  5
163
330
158
100
AcDbEntity
  8
0
100
AcDbBlockEnd
  0
BLOCK
  5
192
330
191
100
AcDbEntity
  8
0
100
AcDbBlockBegin
  2
*D7
 70
     1
 10
0.0
 20
0.0
 30
0.0
  3
*D7
  1

  0
LINE
  5
193
330
191
100
AcDbEntity
  8
0
 62
   123
100
AcDbLine
 10
1502.527887435341
 20
-1245.355277435429
 30
0.0
 11
1462.747446718237
 21
-1274.802526772907
 31
0.0
  0
LINE
  5
194
330
191
100
AcDbEntity
  8
0
 62
   123
100
AcDbLine
 10
1372.727675980216
 20
-1341.439159913205
 30
0.0
 11
1369.512684168144
 21
-1343.819039668216
 31
0.0
  0
MTEXT
  5
195
102
{ACAD_XDICTIONARY
360
245
102
}
330
191
100
AcDbEntity
  8
0
 62
     3
100
AcDbMText
 10
1484.685428012745
 20
-1253.586373968884
 30
0.0
 40
5.0
 41
0.0
 71
     5
 72
     1
  1
\A1;\U+2205104%%P0.5
 11
0.8037479530180252
 21
0.5949699387526516
 31
0.0
 73
     1
 44
1.0
1001
ACAD
1000
MTEXTBEGIN
1070
    73
1070
     1
1070
    44
1040
1.0
1070
    74
1070
     0
1000
MTEXTEND
  0
LINE
  5
196
330
191
100
AcDbEntity
  8
0
 62
   123
100
AcDbLine
 10
1375.942667792289
 20
-1339.059280158194
 30
0.0
 11
1459.532454906165
 21
-1277.182406527917
 31
0.0
  0
SOLID
  5
197
330
191
100
AcDbEntity
  8
0
 62
   123
100
AcDbTrace
 10
1372.331029354381
 20
-1340.903327944526
 30
0.0
 11
1373.124322606052
 21
-1341.974991881883
 31
0.0
 12
1375.942667792289
 22
-1339.059280158194
 32
0.0
 13
1375.942667792289
 23
-1339.059280158194
 33
0.0
  0
SOLID
  5
198
330
191
100
AcDbEntity
  8
0
 62
   123
100
AcDbTrace
 10
1462.350800092402
 20
-1274.266694804228
 30
0.0
 11
1463.144093344072
 21
-1275.338358741585
 31
0.0
 12
1459.532454906165
 22
-1277.182406527917
 32
0.0
 13
1459.532454906165
 23
-1277.182406527917
 33
0.0
  0
POINT
  5
199
330
191
100
AcDbEntity
  8
Defpoints
 62
     0
100
AcDbPoint
 10
1459.532454906165
 20
-1277.182406527917
 30
0.0
  0
POINT
  5
19A
330
191
100
AcDbEntity
  8
Defpoints
 62
     0
100
AcDbPoint
 10
1375.942667792289
 20
-1339.059280158194
 30
0.0
  0
ENDBLK
  5
19B
330
191
100
AcDbEntity
  8
0
100
AcDbBlockEnd
  0
BLOCK
  5
68
330
67
100
AcDbEntity
  8
0
100
AcDbBlockBegin
  2
*D8
 70
     1
 10
0.0
 20
0.0
 30
0.0
  3
*D8
  1

  0
LINE
  5
69
330
67
100
AcDbEntity
  8
0
 62
   123
370
    -2
100
AcDbLine
 10
1524.144900343877
 20
-1302.120843343055
 30
0.0
 11
1524.144900343877
 21
-1291.447485933654
 31
0.0
  0
LINE
  5
6A
330
67
100
AcDbEntity
  8
0
 62
   123
370
    -2
100
AcDbLine
 10
1554.144900343877
 20
-1301.120843343055
 30
0.0
 11
1554.144900343877
 21
-1291.447485933654
 31
0.0
  0
LINE
  5
6B
330
67
100
AcDbEntity
  8
0
 62
   123
370
    -2
100
AcDbLine
 10
1528.144900343877
 20
-1292.047485933653
 30
0.0
 11
1550.144900343877
 21
-1292.047485933653
 31
0.0
  0
SOLID
  5
6C
330
67
100
AcDbEntity
  8
0
 62
   123
100
AcDbTrace
 10
1528.144900343877
 20
-1291.380819266987
 30
0.0
 11
1528.144900343877
 21
-1292.71415260032
 31
0.0
 12
1524.144900343877
 22
-1292.047485933653
 32
0.0
 13
1524.144900343877
 23
-1292.047485933653
 33
0.0
  0
SOLID
  5
6D
330
67
100
AcDbEntity
  8
0
 62
   123
100
AcDbTrace
 10
1550.144900343877
 20
-1291.380819266987
 30
0.0
 11
1550.144900343877
 21
-1292.71415260032
 31
0.0
 12
1554.144900343877
 22
-1292.047485933653
 32
0.0
 13
1554.144900343877
 23
-1292.047485933653
 33
0.0
  0
MTEXT
  5
6E
330
67
100
AcDbEntity
  8
0
 62
     3
100
AcDbMText
 10
1540.403584708373
 20
-1288.047485933654
 30
0.0
 40
5.0
 41
0.0
 71
     5
 72
     1
  1
\A1;30
 73
     1
 44
1.0
1001
ACAD
1000
MTEXTBEGIN
1070
    73
1070
     1
1070
    44
1040
1.0
1070
    74
1070
     0
1000
MTEXTEND
  0
POINT
  5
6F
330
67
100
AcDbEntity
  8
Defpoints
 62
     0
100
AcDbPoint
 10
1524.144900343877
 20
-1303.120843343055
 30
0.0
  0
POINT
  5
71
330
67
100
AcDbEntity
  8
Defpoints
 62
     0
100
AcDbPoint
 10
1554.144900343877
 20
-1302.120843343055
 30
0.0
  0
POINT
  5
72
330
67
100
AcDbEntity
  8
Defpoints
 62
     0
100
AcDbPoint
 10
1554.144900343877
 20
-1292.047485933653
 30
0.0
  0
ENDBLK
  5
73
330
67
100
AcDbEntity
  8
0
100
AcDbBlockEnd
  0
BLOCK
  5
7A
330
79
100
AcDbEntity
  8
0
100
AcDbBlockBegin
  2
*D9
 70
     1
 10
0.0
 20
0.0
 30
0.0
  3
*D9
  1

  0
LINE
  5
7B
330
79
100
AcDbEntity
  8
0
 62
   123
370
    -2
100
AcDbLine
 10
1524.144900343877
 20
-1315.120843343055
 30
0.0
 11
1524.144900343877
 21
-1391.381629883757
 31
0.0
  0
LINE
  5
7C
330
79
100
AcDbEntity
  8
0
 62
   123
370
    -2
100
AcDbLine
 10
1561.144900343877
 20
-1354.120843343055
 30
0.0
 11
1561.144900343877
 21
-1391.381629883757
 31
0.0
  0
LINE
  5
7D
330
79
100
AcDbEntity
  8
0
 62
   123
370
    -2
100
AcDbLine
 10
1528.144900343877
 20
-1390.781629883757
 30
0.0
 11
1557.144900343877
 21
-1390.781629883757
 31
0.0
  0
SOLID
  5
7E
330
79
100
AcDbEntity
  8
0
 62
   123
100
AcDbTrace
 10
1528.144900343877
 20
-1390.11496321709
 30
0.0
 11
1528.144900343877
 21
-1391.448296550424
 31
0.0
 12
1524.144900343877
 22
-1390.781629883757
 32
0.0
 13
1524.144900343877
 23
-1390.781629883757
 33
0.0
  0
SOLID
  5
7F
330
79
100
AcDbEntity
  8
0
 62
   123
100
AcDbTrace
 10
1557.144900343877
 20
-1390.11496321709
 30
0.0
 11
1557.144900343877
 21
-1391.448296550424
 31
0.0
 12
1561.144900343877
 22
-1390.781629883757
 32
0.0
 13
1561.144900343877
 23
-1390.781629883757
 33
0.0
  0
MTEXT
  5
80
330
79
100
AcDbEntity
  8
0
 62
     3
100
AcDbMText
 10
1542.644900343877
 20
-1386.781629883757
 30
0.0
 40
5.0
 41
0.0
 71
     5
 72
     1
  1
\A1;37
 73
     1
 44
1.0
1001
ACAD
1000
MTEXTBEGIN
1070
    73
1070
     1
1070
    44
1040
1.0
1070
    74
1070
     0
1000
MTEXTEND
  0
POINT
  5
81
330
79
100
AcDbEntity
  8
Defpoints
 62
     0
100
AcDbPoint
 10
1524.144900343877
 20
-1314.120843343055
 30
0.0
  0
POINT
  5
82
330
79
100
AcDbEntity
  8
Defpoints
 62
     0
100
AcDbPoint
 10
1561.144900343877
 20
-1353.120843343055
 30
0.0
  0
POINT
  5
83
330
79
100
AcDbEntity
  8
Defpoints
 62
     0
100
AcDbPoint
 10
1561.144900343877
 20
-1390.781629883757
 30
0.0
  0
ENDBLK
  5
84
330
79
100
AcDbEntity
  8
0
100
AcDbBlockEnd
  0
BLOCK
  5
89
330
88
100
AcDbEntity
  8
0
100
AcDbBlockBegin
  2
*D10
 70
     1
 10
0.0
 20
0.0
 30
0.0
  3
*D10
  1

  0
LINE
  5
8A
330
88
100
AcDbEntity
  8
0
 62
   123
370
    -2
100
AcDbLine
 10
1523.144900343877
 20
-1314.120843343055
 30
0.0
 11
1501.363764510282
 21
-1314.120843343055
 31
0.0
  0
LINE
  5
8B
330
88
100
AcDbEntity
  8
0
 62
   123
370
    -2
100
AcDbLine
 10
1553.144900343877
 20
-1302.120843343055
 30
0.0
 11
1501.363764510282
 21
-1302.120843343054
 31
0.0
  0
LINE
  5
8C
330
88
100
AcDbEntity
  8
0
 62
   123
370
    -2
100
AcDbLine
 10
1501.963764510282
 20
-1310.120843343055
 30
0.0
 11
1501.963764510282
 21
-1306.120843343054
 31
0.0
  0
SOLID
  5
8D
330
88
100
AcDbEntity
  8
0
 62
   123
100
AcDbTrace
 10
1501.297097843615
 20
-1310.120843343055
 30
0.0
 11
1502.630431176949
 21
-1310.120843343055
 31
0.0
 12
1501.963764510282
 22
-1314.120843343055
 32
0.0
 13
1501.963764510282
 23
-1314.120843343055
 33
0.0
  0
SOLID
  5
8E
330
88
100
AcDbEntity
  8
0
 62
   123
100
AcDbTrace
 10
1501.297097843615
 20
-1306.120843343054
 30
0.0
 11
1502.630431176949
 21
-1306.120843343054
 31
0.0
 12
1501.963764510282
 22
-1302.120843343054
 32
0.0
 13
1501.963764510282
 23
-1302.120843343054
 33
0.0
  0
MTEXT
  5
8F
330
88
100
AcDbEntity
  8
0
 62
     3
100
AcDbMText
 10
1495.546847843616
 20
-1308.120843343054
 30
0.0
 40
5.0
 41
0.0
 71
     5
 72
     1
  1
\A1;\A1;{\f??|b0|i0|c0|p49;%%C}12{\f??|b0|i0|c0|p49;\H0.7x;\S+0^ -0.018;\H1.429x;(h}7{\f??|b0|i0|c0|p49;)}
 11
0.0000000000000001
 21
1.0
 31
0.0
 73
     1
 44
1.0
1001
ACAD
1000
MTEXTBEGIN
1070
    73
1070
     1
1070
    44
1040
1.0
1070
    74
1070
     0
1000
MTEXTEND
  0
POINT
  5
90
330
88
100
AcDbEntity
  8
Defpoints
 62
     0
100
AcDbPoint
 10
1524.144900343877
 20
-1314.120843343055
 30
0.0
  0
POINT
  5
91
330
88
100
AcDbEntity
  8
Defpoints
 62
     0
100
AcDbPoint
 10
1554.144900343877
 20
-1302.120843343055
 30
0.0
  0
POINT
  5
92
330
88
100
AcDbEntity
  8
Defpoints
 62
     0
100
AcDbPoint
 10
1501.963764510282
 20
-1302.120843343054
 30
0.0
  0
ENDBLK
  5
93
330
88
100
AcDbEntity
  8
0
100
AcDbBlockEnd
  0
BLOCK
  5
98
330
97
100
AcDbEntity
  8
0
100
AcDbBlockBegin
  2
*D11
 70
     1
 10
0.0
 20
0.0
 30
0.0
  3
*D11
  1

  0
LINE
  5
99
330
97
100
AcDbEntity
  8
0
 62
   123
370
    -2
100
AcDbLine
 10
1558.144900343877
 20
-1266.620843343055
 30
0.0
 11
1489.063759122593
 21
-1266.620843343054
 31
0.0
  0
LINE
  5
9A
330
97
100
AcDbEntity
  8
0
 62
   123
370
    -2
100
AcDbLine
 10
1558.144900343877
 20
-1349.620843343054
 30
0.0
 11
1489.063759122593
 21
-1349.620843343054
 31
0.0
  0
LINE
  5
9B
330
97
100
AcDbEntity
  8
0
 62
   123
370
    -2
100
AcDbLine
 10
1489.663759122593
 20
-1270.620843343054
 30
0.0
 11
1489.663759122593
 21
-1345.620843343054
 31
0.0
  0
SOLID
  5
9C
330
97
100
AcDbEntity
  8
0
 62
   123
100
AcDbTrace
 10
1488.997092455926
 20
-1270.620843343054
 30
0.0
 11
1490.33042578926
 21
-1270.620843343054
 31
0.0
 12
1489.663759122593
 22
-1266.620843343054
 32
0.0
 13
1489.663759122593
 23
-1266.620843343054
 33
0.0
  0
SOLID
  5
9D
330
97
100
AcDbEntity
  8
0
 62
   123
100
AcDbTrace
 10
1488.997092455926
 20
-1345.620843343054
 30
0.0
 11
1490.33042578926
 21
-1345.620843343054
 31
0.0
 12
1489.663759122593
 22
-1349.620843343054
 32
0.0
 13
1489.663759122593
 23
-1349.620843343054
 33
0.0
  0
MTEXT
  5
9E
330
97
100
AcDbEntity
  8
0
 62
     3
100
AcDbMText
 10
1483.246842455926
 20
-1310.140141783566
 30
0.0
 40
5.0
 41
0.0
 71
     5
 72
     1
  1
\A1;\A1;{\f??|b0|i0|c0|p49;%%c}83{\f??|b0|i0|c0|p49;\H0.7x;\S+0^ -0.035;\H1.429x;(h7)}
 11
0.0000000000000001
 21
1.0
 31
0.0
 73
     1
 44
1.0
1001
ACAD
1000
MTEXTBEGIN
1070
    73
1070
     1
1070
    44
1040
1.0
1070
    74
1070
     0
1000
MTEXTEND
  0
POINT
  5
9F
330
97
100
AcDbEntity
  8
Defpoints
 62
     0
100
AcDbPoint
 10
1559.144900343877
 20
-1266.620843343055
 30
0.0
  0
POINT
  5
A0
330
97
100
AcDbEntity
  8
Defpoints
 62
     0
100
AcDbPoint
 10
1559.144900343877
 20
-1349.620843343054
 30
0.0
  0
POINT
  5
A1
330
97
100
AcDbEntity
  8
Defpoints
 62
     0
100
AcDbPoint
 10
1489.663759122593
 20
-1349.620843343054
 30
0.0
  0
ENDBLK
  5
A2
330
97
100
AcDbEntity
  8
0
100
AcDbBlockEnd
  0
BLOCK
  5
AA
330
A9
100
AcDbEntity
  8
0
100
AcDbBlockBegin
  2
*D12
 70
     1
 10
0.0
 20
0.0
 30
0.0
  3
*D12
  1

  0
LINE
  5
AB
330
A9
100
AcDbEntity
  8
0
 62
   123
370
    -2
100
AcDbLine
 10
1523.144900343877
 20
-1314.120843343055
 30
0.0
 11
1511.07641946317
 21
-1314.120843343055
 31
0.0
  0
LINE
  5
AC
330
A9
100
AcDbEntity
  8
0
 62
   123
370
    -2
100
AcDbLine
 10
1523.144900343877
 20
-1303.120843343055
 30
0.0
 11
1511.07641946317
 21
-1303.120843343055
 31
0.0
  0
LINE
  5
AD
330
A9
100
AcDbEntity
  8
0
 62
   123
370
    -2
100
AcDbLine
 10
1511.67641946317
 20
-1310.120843343055
 30
0.0
 11
1511.67641946317
 21
-1307.120843343055
 31
0.0
  0
SOLID
  5
AE
330
A9
100
AcDbEntity
  8
0
 62
   123
100
AcDbTrace
 10
1511.009752796503
 20
-1310.120843343055
 30
0.0
 11
1512.343086129837
 21
-1310.120843343055
 31
0.0
 12
1511.67641946317
 22
-1314.120843343055
 32
0.0
 13
1511.67641946317
 23
-1314.120843343055
 33
0.0
  0
SOLID
  5
AF
330
A9
100
AcDbEntity
  8
0
 62
   123
100
AcDbTrace
 10
1511.009752796503
 20
-1307.120843343055
 30
0.0
 11
1512.343086129837
 21
-1307.120843343055
 31
0.0
 12
1511.67641946317
 22
-1303.120843343055
 32
0.0
 13
1511.67641946317
 23
-1303.120843343055
 33
0.0
  0
MTEXT
  5
B0
330
A9
100
AcDbEntity
  8
0
 62
     3
100
AcDbMText
 10
1507.67641946317
 20
-1308.620843343055
 30
0.0
 40
5.0
 41
0.0
 71
     5
 72
     1
  1
\A1;11
 11
0.0000000000000001
 21
1.0
 31
0.0
 73
     1
 44
1.0
1001
ACAD
1000
MTEXTBEGIN
1070
    73
1070
     1
1070
    44
1040
1.0
1070
    74
1070
     0
1000
MTEXTEND
  0
POINT
  5
B1
330
A9
100
AcDbEntity
  8
Defpoints
 62
     0
100
AcDbPoint
 10
1524.144900343877
 20
-1314.120843343055
 30
0.0
  0
POINT
  5
B2
330
A9
100
AcDbEntity
  8
Defpoints
 62
     0
100
AcDbPoint
 10
1524.144900343877
 20
-1303.120843343055
 30
0.0
  0
POINT
  5
B3
330
A9
100
AcDbEntity
  8
Defpoints
 62
     0
100
AcDbPoint
 10
1511.67641946317
 20
-1303.120843343055
 30
0.0
  0
ENDBLK
  5
B4
330
A9
100
AcDbEntity
  8
0
100
AcDbBlockEnd
  0
BLOCK
  5
BB
330
BA
100
AcDbEntity
  8
0
100
AcDbBlockBegin
  2
*D13
 70
     1
 10
0.0
 20
0.0
 30
0.0
  3
*D13
  1

  0
LINE
  5
BC
330
BA
100
AcDbEntity
  8
0
 62
   123
370
    -2
100
AcDbLine
 10
1561.144900343877
 20
-1354.120843343055
 30
0.0
 11
1561.144900343877
 21
-1391.381629883757
 31
0.0
  0
LINE
  5
BD
330
BA
100
AcDbEntity
  8
0
 62
   123
370
    -2
100
AcDbLine
 10
1696.144900343877
 20
-1347.120843343055
 30
0.0
 11
1696.144900343877
 21
-1391.381629883757
 31
0.0
  0
LINE
  5
BE
330
BA
100
AcDbEntity
  8
0
 62
   123
370
    -2
100
AcDbLine
 10
1565.144900343877
 20
-1390.781629883757
 30
0.0
 11
1692.144900343877
 21
-1390.781629883757
 31
0.0
  0
SOLID
  5
BF
330
BA
100
AcDbEntity
  8
0
 62
   123
100
AcDbTrace
 10
1565.144900343877
 20
-1390.11496321709
 30
0.0
 11
1565.144900343877
 21
-1391.448296550424
 31
0.0
 12
1561.144900343877
 22
-1390.781629883757
 32
0.0
 13
1561.144900343877
 23
-1390.781629883757
 33
0.0
  0
SOLID
  5
C0
330
BA
100
AcDbEntity
  8
0
 62
   123
100
AcDbTrace
 10
1692.144900343877
 20
-1390.11496321709
 30
0.0
 11
1692.144900343877
 21
-1391.448296550424
 31
0.0
 12
1696.144900343877
 22
-1390.781629883757
 32
0.0
 13
1696.144900343877
 23
-1390.781629883757
 33
0.0
  0
MTEXT
  5
C1
330
BA
100
AcDbEntity
  8
0
 62
     3
100
AcDbMText
 10
1628.644900343877
 20
-1386.781629883757
 30
0.0
 40
5.0
 41
0.0
 71
     5
 72
     1
  1
\A1;M
 73
     1
 44
1.0
1001
ACAD
1000
MTEXTBEGIN
1070
    73
1070
     1
1070
    44
1040
1.0
1070
    74
1070
     0
1000
MTEXTEND
  0
POINT
  5
C2
330
BA
100
AcDbEntity
  8
Defpoints
 62
     0
100
AcDbPoint
 10
1561.144900343877
 20
-1353.120843343055
 30
0.0
  0
POINT
  5
C3
330
BA
100
AcDbEntity
  8
Defpoints
 62
     0
100
AcDbPoint
 10
1696.144900343877
 20
-1346.120843343055
 30
0.0
  0
POINT
  5
C4
330
BA
100
AcDbEntity
  8
Defpoints
 62
     0
100
AcDbPoint
 10
1696.144900343877
 20
-1390.781629883757
 30
0.0
  0
ENDBLK
  5
C5
330
BA
100
AcDbEntity
  8
0
100
AcDbBlockEnd
  0
BLOCK
  5
E7
330
E6
100
AcDbEntity
  8
0
100
AcDbBlockBegin
  2
*D14
 70
     1
 10
0.0
 20
0.0
 30
0.0
  3
*D14
  1

  0
LINE
  5
E8
330
E6
100
AcDbEntity
  8
0
 62
   123
370
    -2
100
AcDbLine
 10
1559.144900343877
 20
-1350.620843343055
 30
0.0
 11
1559.144900343877
 21
-1368.161311025885
 31
0.0
  0
LINE
  5
E9
330
E6
100
AcDbEntity
  8
0
 62
   123
370
    -2
100
AcDbLine
 10
1561.144900343877
 20
-1354.120843343055
 30
0.0
 11
1561.144900343877
 21
-1368.161311025885
 31
0.0
  0
LINE
  5
EA
330
E6
100
AcDbEntity
  8
0
 62
   123
370
    -2
100
AcDbLine
 10
1565.144900343877
 20
-1367.561311025885
 30
0.0
 11
1569.144900343877
 21
-1367.561311025885
 31
0.0
  0
LINE
  5
EB
330
E6
100
AcDbEntity
  8
0
 62
   123
370
    -2
100
AcDbLine
 10
1555.144900343877
 20
-1367.561311025885
 30
0.0
 11
1544.811567010544
 21
-1367.561311025885
 31
0.0
  0
LINE
  5
EC
330
E6
100
AcDbEntity
  8
0
 62
   123
370
    -2
100
AcDbLine
 10
1561.144900343877
 20
-1367.561311025885
 30
0.0
 11
1559.144900343877
 21
-1367.561311025885
 31
0.0
  0
SOLID
  5
ED
330
E6
100
AcDbEntity
  8
0
 62
   123
100
AcDbTrace
 10
1565.144900343877
 20
-1366.894644359219
 30
0.0
 11
1565.144900343877
 21
-1368.227977692552
 31
0.0
 12
1561.144900343877
 22
-1367.561311025885
 32
0.0
 13
1561.144900343877
 23
-1367.561311025885
 33
0.0
  0
SOLID
  5
EE
330
E6
100
AcDbEntity
  8
0
 62
   123
100
AcDbTrace
 10
1555.144900343877
 20
-1366.894644359219
 30
0.0
 11
1555.144900343877
 21
-1368.227977692552
 31
0.0
 12
1559.144900343877
 22
-1367.561311025885
 32
0.0
 13
1559.144900343877
 23
-1367.561311025885
 33
0.0
  0
MTEXT
  5
EF
330
E6
100
AcDbEntity
  8
0
 62
     3
100
AcDbMText
 10
1547.97823367721
 20
-1363.561311025885
 30
0.0
 40
5.0
 41
0.0
 71
     5
 72
     1
  1
\A1;2
 73
     1
 44
1.0
1001
ACAD
1000
MTEXTBEGIN
1070
    73
1070
     1
1070
    44
1040
1.0
1070
    74
1070
     0
1000
MTEXTEND
  0
POINT
  5
F0
330
E6
100
AcDbEntity
  8
Defpoints
 62
     0
100
AcDbPoint
 10
1559.144900343877
 20
-1349.620843343054
 30
0.0
  0
POINT
  5
F1
330
E6
100
AcDbEntity
  8
Defpoints
 62
     0
100
AcDbPoint
 10
1561.144900343877
 20
-1353.120843343055
 30
0.0
  0
POINT
  5
F2
330
E6
100
AcDbEntity
  8
Defpoints
 62
     0
100
AcDbPoint
 10
1561.144900343877
 20
-1367.561311025885
 30
0.0
  0
ENDBLK
  5
F3
330
E6
100
AcDbEntity
  8
0
100
AcDbBlockEnd
  0
BLOCK
  5
FC
330
FB
100
AcDbEntity
  8
0
100
AcDbBlockBegin
  2
*D15
 70
     1
 10
0.0
 20
0.0
 30
0.0
  3
*D15
  1

  0
LINE
  5
FD
330
FB
100
AcDbEntity
  8
0
 62
   123
370
    -2
100
AcDbLine
 10
1561.144900343877
 20
-1354.120843343055
 30
0.0
 11
1561.144900343877
 21
-1379.752187661137
 31
0.0
  0
LINE
  5
FE
330
FB
100
AcDbEntity
  8
0
 62
   123
370
    -2
100
AcDbLine
 10
1568.644900343877
 20
-1352.719580684585
 30
0.0
 11
1568.644900343877
 21
-1379.752187661137
 31
0.0
  0
LINE
  5
FF
330
FB
100
AcDbEntity
  8
0
 62
   123
370
    -2
100
AcDbLine
 10
1557.144900343877
 20
-1379.152187661137
 30
0.0
 11
1553.144900343877
 21
-1379.152187661137
 31
0.0
  0
LINE
  5
100
330
FB
100
AcDbEntity
  8
0
 62
   123
370
    -2
100
AcDbLine
 10
1572.644900343877
 20
-1379.152187661137
 30
0.0
 11
1590.121090820067
 21
-1379.152187661137
 31
0.0
  0
LINE
  5
101
330
FB
100
AcDbEntity
  8
0
 62
   123
370
    -2
100
AcDbLine
 10
1561.144900343877
 20
-1379.152187661137
 30
0.0
 11
1568.644900343877
 21
-1379.152187661137
 31
0.0
  0
SOLID
  5
102
330
FB
100
AcDbEntity
  8
0
 62
   123
100
AcDbTrace
 10
1557.144900343877
 20
-1378.48552099447
 30
0.0
 11
1557.144900343877
 21
-1379.818854327803
 31
0.0
 12
1561.144900343877
 22
-1379.152187661137
 32
0.0
 13
1561.144900343877
 23
-1379.152187661137
 33
0.0
  0
SOLID
  5
103
330
FB
100
AcDbEntity
  8
0
 62
   123
100
AcDbTrace
 10
1572.644900343877
 20
-1378.48552099447
 30
0.0
 11
1572.644900343877
 21
-1379.818854327803
 31
0.0
 12
1568.644900343877
 22
-1379.152187661137
 32
0.0
 13
1568.644900343877
 23
-1379.152187661137
 33
0.0
  0
MTEXT
  5
104
330
FB
100
AcDbEntity
  8
0
 62
     3
100
AcDbMText
 10
1583.382995581972
 20
-1375.152187661137
 30
0.0
 40
5.0
 41
0.0
 71
     5
 72
     1
  1
\A1;7.5
 73
     1
 44
1.0
1001
ACAD
1000
MTEXTBEGIN
1070
    73
1070
     1
1070
    44
1040
1.0
1070
    74
1070
     0
1000
MTEXTEND
  0
POINT
  5
105
330
FB
100
AcDbEntity
  8
Defpoints
 62
     0
100
AcDbPoint
 10
1561.144900343877
 20
-1353.120843343055
 30
0.0
  0
POINT
  5
106
330
FB
100
AcDbEntity
  8
Defpoints
 62
     0
100
AcDbPoint
 10
1568.644900343877
 20
-1351.719580684585
 30
0.0
  0
POINT
  5
107
330
FB
100
AcDbEntity
  8
Defpoints
 62
     0
100
AcDbPoint
 10
1568.644900343877
 20
-1379.152187661137
 30
0.0
  0
ENDBLK
  5
108
330
FB
100
AcDbEntity
  8
0
100
AcDbBlockEnd
  0
ENDSEC
  0
SECTION
  2
ENTITIES
  0
DIMENSION
  5
64
102
{ACAD_XDICTIONARY
360
65
102
}
102
{ACAD_REACTORS
330
66
102
}
330
2
100
AcDbEntity
  8
0
100
AcDbDimension
  2
*D8
 10
1554.144900343877
 20
-1292.047485933653
 30
0.0
 11
1540.403584708373
 21
-1292.047485933653
 31
0.0
 70
   128
 71
     5
 42
-1.0
  3
STANDARD
100
AcDbAlignedDimension
 13
1524.144900343877
 23
-1303.120843343055
 33
0.0
 14
1554.144900343877
 24
-1302.120843343055
 34
0.0
100
AcDbRotatedDimension
  0
LINE
  5
74
102
{ACAD_REACTORS
330
66
330
A8
102
}
330
2
100
AcDbEntity
  8
0
100
AcDbLine
 10
1554.144900343877
 20
-1303.120843343055
 30
0.0
 11
1524.144900343877
 21
-1303.120843343055
 31
0.0
  0
LINE
  5
75
102
{ACAD_REACTORS
330
A8
330
87
102
}
330
2
100
AcDbEntity
  8
0
100
AcDbLine
 10
1559.144900343877
 20
-1314.120843343055
 30
0.0
 11
1524.144900343877
 21
-1314.120843343055
 31
0.0
  0
DIMENSION
  5
76
102
{ACAD_XDICTIONARY
360
77
102
}
102
{ACAD_REACTORS
330
78
102
}
330
2
100
AcDbEntity
  8
0
100
AcDbDimension
  2
*D9
 10
1561.144900343877
 20
-1390.781629883757
 30
0.0
 11
1542.644900343877
 21
-1390.781629883757
 31
0.0
 70
   128
 71
     5
 42
-1.0
  3
STANDARD
100
AcDbAlignedDimension
 13
1524.144900343877
 23
-1314.120843343055
 33
0.0
 14
1561.144900343877
 24
-1353.120843343055
 34
0.0
100
AcDbRotatedDimension
  0
DIMENSION
  5
85
102
{ACAD_XDICTIONARY
360
86
102
}
102
{ACAD_REACTORS
330
87
102
}
330
2
100
AcDbEntity
  8
0
100
AcDbDimension
  2
*D10
 10
1501.963764510282
 20
-1302.120843343054
 30
0.0
 11
1501.963764510282
 21
-1308.120843343054
 31
0.0
 70
   128
  1
\A1;{\f??|b0|i0|c0|p49;%%C}12{\f??|b0|i0|c0|p49;\H0.7x;\S+0^ -0.018;\H1.429x;(h}7{\f??|b0|i0|c0|p49;)}
 71
     5
 42
-1.0
  3
STANDARD
100
AcDbAlignedDimension
 13
1524.144900343877
 23
-1314.120843343055
 33
0.0
 14
1554.144900343877
 24
-1302.120843343055
 34
0.0
 50
90.0
100
AcDbRotatedDimension
  0
DIMENSION
  5
94
102
{ACAD_XDICTIONARY
360
95
102
}
102
{ACAD_REACTORS
330
96
102
}
330
2
100
AcDbEntity
  8
0
100
AcDbDimension
  2
*D11
 10
1489.663759122593
 20
-1349.620843343054
 30
0.0
 11
1489.663759122593
 21
-1310.140141783566
 31
0.0
 70
   128
  1
\A1;{\f??|b0|i0|c0|p49;%%c}<>{\f??|b0|i0|c0|p49;\H0.7x;\S+0^ -0.035;\H1.429x;(h7)}
 71
     5
 42
-1.0
  3
STANDARD
100
AcDbAlignedDimension
 13
1559.144900343877
 23
-1266.620843343055
 33
0.0
 14
1559.144900343877
 24
-1349.620843343054
 34
0.0
 50
90.0
100
AcDbRotatedDimension
  0
LINE
  5
A3
330
2
100
AcDbEntity
  8
0
  6
CENTER
 62
     1
100
AcDbLine
 10
1702.134598757679
 20
-1308.120843343054
 30
0.0
 11
1514.497191998709
 21
-1308.120843343054
 31
0.0
  0
LINE
  5
A5
330
2
100
AcDbEntity
  8
0
100
AcDbLine
 10
1524.144900343877
 20
-1303.120843343055
 30
0.0
 11
1524.144900343877
 21
-1314.120843343055
 31
0.0
  0
DIMENSION
  5
A6
102
{ACAD_XDICTIONARY
360
A7
102
}
102
{ACAD_REACTORS
330
A8
102
}
330
2
100
AcDbEntity
  8
0
100
AcDbDimension
  2
*D12
 10
1511.67641946317
 20
-1303.120843343055
 30
0.0
 11
1511.67641946317
 21
-1308.620843343055
 31
0.0
 70
   128
  1
<>
 71
     5
 42
-1.0
  3
STANDARD
100
AcDbAlignedDimension
 13
1524.144900343877
 23
-1314.120843343055
 33
0.0
 14
1524.144900343877
 24
-1303.120843343055
 34
0.0
 50
90.0
100
AcDbRotatedDimension
  0
LINE
  5
B5
330
2
100
AcDbEntity
  8
0
100
AcDbLine
 10
1671.144900343877
 20
-1328.524767944818
 30
0.0
 11
1689.144900343877
 21
-1328.524767944818
 31
0.0
  0
LINE
  5
B6
330
2
100
AcDbEntity
  8
0
100
AcDbLine
 10
1671.144900343877
 20
-1287.716918741294
 30
0.0
 11
1689.144900343877
 21
-1287.716918741294
 31
0.0
  0
DIMENSION
  5
B7
102
{ACAD_XDICTIONARY
360
B8
102
}
102
{ACAD_REACTORS
330
B9
102
}
330
2
100
AcDbEntity
  8
0
100
AcDbDimension
  2
*D13
 10
1696.144900343877
 20
-1390.781629883757
 30
0.0
 11
1628.644900343877
 21
-1390.781629883757
 31
0.0
 70
   128
  1
M
 71
     5
 42
-1.0
  3
STANDARD
100
AcDbAlignedDimension
 13
1561.144900343877
 23
-1353.120843343055
 33
0.0
 14
1696.144900343877
 24
-1346.120843343055
 34
0.0
100
AcDbRotatedDimension
  0
ARC
  5
C6
330
2
100
AcDbEntity
  8
0
100
AcDbCircle
 10
1663.641567343876
 20
-1243.420844343054
 30
0.0
 40
6.718630999999999
100
AcDbArc
 50
274.267892999953
 51
345.3432489998626
  0
ARC
  5
C7
330
2
100
AcDbEntity
  8
0
100
AcDbCircle
 10
1663.641567343876
 20
-1232.820844343056
 30
0.0
 40
6.718630999999999
100
AcDbArc
 50
14.65675100013736
 51
85.73210700004693
  0
LINE
  5
C8
330
2
100
AcDbEntity
  8
0
100
AcDbLine
 10
1663.141567343876
 20
-1226.120844343051
 30
0.0
 11
1663.141567343876
 21
-1250.120844343051
 31
0.0
  0
LINE
  5
C9
102
{ACAD_REACTORS
330
157
102
}
330
2
100
AcDbEntity
  8
0
100
AcDbLine
 10
1670.141567343876
 20
-1231.120844343051
 30
0.0
 11
1670.141567343876
 21
-1245.120844343051
 31
0.0
  0
LINE
  5
CA
330
2
100
AcDbEntity
  8
0
100
AcDbLine
 10
1675.611940292788
 20
-1261.231907957412
 30
0.0
 11
1678.045259765307
 21
-1261.231907957412
 31
0.0
  0
LINE
  5
CB
330
2
100
AcDbEntity
  8
0
100
AcDbLine
 10
1675.611940292788
 20
-1355.009778728701
 30
0.0
 11
1678.045259765307
 21
-1355.009778728701
 31
0.0
  0
CIRCLE
  5
CC
330
2
100
AcDbEntity
  8
0
100
AcDbCircle
 10
1677.439745536621
 20
-1308.120843343054
 30
0.0
 40
2.147836038934201
  0
LINE
  5
CD
330
2
100
AcDbEntity
  8
0
100
AcDbLine
 10
1678.294768548328
 20
-1307.265820331348
 30
0.0
 11
1676.588361321
 21
-1308.972227558679
 31
0.0
  0
LINE
  5
CE
330
2
100
AcDbEntity
  8
0
100
AcDbLine
 10
1676.584722524914
 20
-1307.265820331348
 30
0.0
 11
1678.291129752246
 21
-1308.972227558679
 31
0.0
  0
LINE
  5
CF
330
2
100
AcDbEntity
  8
0
100
AcDbLine
 10
1674.611940292788
 20
-1263.120843343054
 30
0.0
 11
1674.611940292788
 21
-1262.231907957412
 31
0.0
  0
ARC
  5
D0
330
2
100
AcDbEntity
  8
0
100
AcDbCircle
 10
1675.611940292788
 20
-1262.231907957412
 30
0.0
 40
1.0
100
AcDbArc
 50
90.0
 51
180.0
  0
LINE
  5
D1
330
2
100
AcDbEntity
  8
0
100
AcDbLine
 10
1674.611940292788
 20
-1353.120843343055
 30
0.0
 11
1674.611940292788
 21
-1354.009778728701
 31
0.0
  0
ARC
  5
D2
330
2
100
AcDbEntity
  8
0
100
AcDbCircle
 10
1675.611940292788
 20
-1354.009778728701
 30
0.0
 40
1.0
100
AcDbArc
 50
180.0
 51
270.0
  0
LINE
  5
D3
330
2
100
AcDbEntity
  8
0
100
AcDbLine
 10
1671.144900343877
 20
-1352.620843343055
 30
0.0
 11
1671.144900343877
 21
-1263.620843343055
 31
0.0
  0
ARC
  5
D4
330
2
100
AcDbEntity
  8
0
100
AcDbCircle
 10
1678.045259765307
 20
-1262.231907957412
 30
0.0
 40
1.0
100
AcDbArc
 50
0.0
 51
90.0
  0
LINE
  5
D5
330
2
100
AcDbEntity
  8
0
100
AcDbLine
 10
1679.045259765307
 20
-1262.231907957412
 30
0.0
 11
1679.045259765307
 21
-1263.120843343054
 31
0.0
  0
ARC
  5
D6
330
2
100
AcDbEntity
  8
0
100
AcDbCircle
 10
1678.045259765307
 20
-1354.009778728701
 30
0.0
 40
1.0
100
AcDbArc
 50
270.0
 51
0.0
  0
LINE
  5
D7
330
2
100
AcDbEntity
  8
0
100
AcDbLine
 10
1679.045259765307
 20
-1354.009778728701
 30
0.0
 11
1679.045259765307
 21
-1353.120843343055
 31
0.0
  0
LINE
  5
D8
330
2
100
AcDbEntity
  8
0
100
AcDbLine
 10
1568.644900343877
 20
-1272.222106001525
 30
0.0
 11
1568.644900343877
 21
-1264.522106001525
 31
0.0
  0
LINE
  5
D9
330
2
100
AcDbEntity
  8
0
100
AcDbLine
 10
1624.261567343879
 20
-1262.620844343051
 30
0.0
 11
1624.261567343879
 21
-1272.956126001525
 31
0.0
  0
LINE
  5
DA
330
2
100
AcDbEntity
  8
0
100
AcDbLine
 10
1567.744900343875
 20
-1261.120844343051
 30
0.0
 11
1567.744900343875
 21
-1353.120843343055
 31
0.0
  0
LINE
  5
DB
330
2
100
AcDbEntity
  8
0
100
AcDbLine
 10
1561.144900343877
 20
-1263.120843343054
 30
0.0
 11
1561.144900343877
 21
-1353.120843343055
 31
0.0
  0
LINE
  5
DC
330
2
100
AcDbEntity
  8
0
100
AcDbLine
 10
1554.144900343877
 20
-1302.120843343055
 30
0.0
 11
1554.144900343877
 21
-1303.120843343055
 31
0.0
  0
LINE
  5
DD
102
{ACAD_REACTORS
330
66
330
87
102
}
330
2
100
AcDbEntity
  8
0
100
AcDbLine
 10
1559.144900343877
 20
-1302.120843343055
 30
0.0
 11
1554.144900343877
 21
-1302.120843343055
 31
0.0
  0
LINE
  5
DE
330
2
100
AcDbEntity
  8
0
100
AcDbLine
 10
1568.644900343877
 20
-1344.019580684584
 30
0.0
 11
1568.644900343877
 21
-1351.719580684585
 31
0.0
  0
LINE
  5
DF
102
{ACAD_REACTORS
330
96
102
}
330
2
100
AcDbEntity
  8
0
100
AcDbLine
 10
1559.144900343877
 20
-1266.620843343055
 30
0.0
 11
1559.144900343877
 21
-1349.620843343054
 31
0.0
  0
LINE
  5
E0
102
{ACAD_REACTORS
330
E5
102
}
330
2
100
AcDbEntity
  8
0
100
AcDbLine
 10
1561.144900343877
 20
-1349.620843343054
 30
0.0
 11
1559.144900343877
 21
-1349.620843343054
 31
0.0
  0
LINE
  5
E1
330
2
100
AcDbEntity
  8
0
100
AcDbLine
 10
1561.144900343877
 20
-1266.620843343055
 30
0.0
 11
1559.144900343877
 21
-1266.620843343055
 31
0.0
  0
LINE
  5
E2
102
{ACAD_REACTORS
330
B9
330
FA
330
E5
330
78
102
}
330
2
100
AcDbEntity
  8
0
100
AcDbLine
 10
1561.144900343877
 20
-1353.120843343055
 30
0.0
 11
1689.144900343877
 21
-1353.120843343058
 31
0.0
  0
DIMENSION
  5
E3
102
{ACAD_XDICTIONARY
360
E4
102
}
102
{ACAD_REACTORS
330
E5
102
}
330
2
100
AcDbEntity
  8
0
100
AcDbDimension
  2
*D14
 10
1561.144900343877
 20
-1367.561311025885
 30
0.0
 11
1547.97823367721
 21
-1367.561311025885
 31
0.0
 70
   128
 71
     5
 42
-1.0
  3
STANDARD
100
AcDbAlignedDimension
 13
1559.144900343877
 23
-1349.620843343054
 33
0.0
 14
1561.144900343877
 24
-1353.120843343055
 34
0.0
100
AcDbRotatedDimension
  0
LINE
  5
F4
102
{ACAD_REACTORS
330
FA
102
}
330
2
100
AcDbEntity
  8
0
100
AcDbLine
 10
1567.744900343875
 20
-1351.719580684585
 30
0.0
 11
1568.644900343877
 21
-1351.719580684585
 31
0.0
  0
LINE
  5
F5
330
2
100
AcDbEntity
  8
0
100
AcDbLine
 10
1567.744900343875
 20
-1344.019580684584
 30
0.0
 11
1568.644900343877
 21
-1344.019580684584
 31
0.0
  0
LINE
  5
F6
330
2
100
AcDbEntity
  8
0
100
AcDbLine
 10
1567.744900343875
 20
-1272.222106001525
 30
0.0
 11
1568.644900343877
 21
-1272.222106001525
 31
0.0
  0
LINE
  5
F7
330
2
100
AcDbEntity
  8
0
100
AcDbLine
 10
1624.261567343879
 20
-1272.956126001525
 30
0.0
 11
1567.744900343875
 21
-1272.956126001525
 31
0.0
  0
DIMENSION
  5
F8
102
{ACAD_XDICTIONARY
360
F9
102
}
102
{ACAD_REACTORS
330
FA
102
}
330
2
100
AcDbEntity
  8
0
100
AcDbDimension
  2
*D15
 10
1568.644900343877
 20
-1379.152187661137
 30
0.0
 11
1583.382995581972
 21
-1379.152187661137
 31
0.0
 70
   128
 71
     5
 42
-1.0
  3
STANDARD
100
AcDbAlignedDimension
 13
1561.144900343877
 23
-1353.120843343055
 33
0.0
 14
1568.644900343877
 24
-1351.719580684585
 34
0.0
100
AcDbRotatedDimension
  0
LINE
  5
109
330
2
100
AcDbEntity
  8
0
100
AcDbLine
 10
1642.141567343876
 20
-1254.420844343054
 30
0.0
 11
1640.169025343877
 21
-1220.591739343054
 31
0.0
  0
LINE
  5
10A
102
{ACAD_REACTORS
330
157
102
}
330
2
100
AcDbEntity
  8
0
100
AcDbLine
 10
1642.141567343876
 20
-1223.120844343051
 30
0.0
 11
1642.141567343876
 21
-1254.420844343054
 31
0.0
  0
LINE
  5
10B
330
2
100
AcDbEntity
  8
0
100
AcDbLine
 10
1653.141567343876
 20
-1225.120844343051
 30
0.0
 11
1653.141567343876
 21
-1251.120844343051
 31
0.0
  0
LINE
  5
10C
330
2
100
AcDbEntity
  8
0
100
AcDbLine
 10
1647.141567343876
 20
-1225.120844343051
 30
0.0
 11
1647.141567343876
 21
-1251.120844343051
 31
0.0
  0
LINE
  5
10D
330
2
100
AcDbEntity
  8
0
100
AcDbLine
 10
1647.141567343876
 20
-1251.120844343051
 30
0.0
 11
1642.141567343876
 21
-1251.120844343051
 31
0.0
  0
LINE
  5
10E
330
2
100
AcDbEntity
  8
0
100
AcDbLine
 10
1647.141567343876
 20
-1246.120844343051
 30
0.0
 11
1642.141567343876
 21
-1246.120844343051
 31
0.0
  0
LINE
  5
10F
330
2
100
AcDbEntity
  8
0
100
AcDbLine
 10
1647.141567343876
 20
-1243.620844343051
 30
0.0
 11
1642.141567343876
 21
-1243.620844343051
 31
0.0
  0
LINE
  5
110
330
2
100
AcDbEntity
  8
0
100
AcDbLine
 10
1641.441567343879
 20
-1254.420844343054
 30
0.0
 11
1641.441567343879
 21
-1255.120844343051
 31
0.0
  0
LINE
  5
111
330
2
100
AcDbEntity
  8
0
100
AcDbLine
 10
1661.641567343876
 20
-1243.120844343051
 30
0.0
 11
1653.141567343876
 21
-1243.120844343051
 31
0.0
  0
LINE
  5
112
330
2
100
AcDbEntity
  8
0
100
AcDbLine
 10
1661.641567343876
 20
-1251.120844343051
 30
0.0
 11
1653.141567343876
 21
-1251.120844343051
 31
0.0
  0
LINE
  5
113
330
2
100
AcDbEntity
  8
0
100
AcDbLine
 10
1661.641567343876
 20
-1245.120844343051
 30
0.0
 11
1653.141567343876
 21
-1245.120844343051
 31
0.0
  0
LINE
  5
114
330
2
100
AcDbEntity
  8
0
100
AcDbLine
 10
1662.059293343876
 20
-1245.820844343056
 30
0.0
 11
1653.141567343876
 21
-1245.820844343056
 31
0.0
  0
LINE
  5
115
330
2
100
AcDbEntity
  8
0
100
AcDbLine
 10
1661.641567343876
 20
-1243.120844343051
 30
0.0
 11
1661.641567343876
 21
-1245.120844343051
 31
0.0
  0
LINE
  5
116
330
2
100
AcDbEntity
  8
0
100
AcDbLine
 10
1653.141567343876
 20
-1247.120844343051
 30
0.0
 11
1647.141567343876
 21
-1247.120844343051
 31
0.0
  0
LINE
  5
117
330
2
100
AcDbEntity
  8
0
100
AcDbLine
 10
1653.141567343876
 20
-1248.120844343051
 30
0.0
 11
1647.141567343876
 21
-1248.120844343051
 31
0.0
  0
LINE
  5
118
330
2
100
AcDbEntity
  8
0
100
AcDbLine
 10
1647.141567343876
 20
-1232.620844343051
 30
0.0
 11
1642.141567343876
 21
-1232.620844343051
 31
0.0
  0
LINE
  5
119
330
2
100
AcDbEntity
  8
0
100
AcDbLine
 10
1647.141567343876
 20
-1230.120844343051
 30
0.0
 11
1642.141567343876
 21
-1230.120844343051
 31
0.0
  0
LINE
  5
11A
330
2
100
AcDbEntity
  8
0
100
AcDbLine
 10
1647.141567343876
 20
-1225.120844343051
 30
0.0
 11
1642.141567343876
 21
-1225.120844343051
 31
0.0
  0
LINE
  5
11B
102
{ACAD_REACTORS
330
12C
102
}
330
2
100
AcDbEntity
  8
0
100
AcDbLine
 10
1642.141567343876
 20
-1223.120844343051
 30
0.0
 11
1640.788189343876
 21
-1223.120844343051
 31
0.0
  0
ARC
  5
11C
330
2
100
AcDbEntity
  8
0
100
AcDbCircle
 10
1640.788189343876
 20
-1222.620844343051
 30
0.0
 40
0.5
100
AcDbArc
 50
183.3370829999345
 51
270.0
  0
LINE
  5
11D
330
2
100
AcDbEntity
  8
0
100
AcDbLine
 10
1661.641567343876
 20
-1225.120844343051
 30
0.0
 11
1653.141567343876
 21
-1225.120844343051
 31
0.0
  0
LINE
  5
11E
330
2
100
AcDbEntity
  8
0
100
AcDbLine
 10
1661.641567343876
 20
-1231.120844343051
 30
0.0
 11
1661.641567343876
 21
-1233.120844343051
 31
0.0
  0
LINE
  5
11F
330
2
100
AcDbEntity
  8
0
100
AcDbLine
 10
1661.641567343876
 20
-1233.120844343051
 30
0.0
 11
1653.141567343876
 21
-1233.120844343051
 31
0.0
  0
LINE
  5
120
330
2
100
AcDbEntity
  8
0
100
AcDbLine
 10
1661.641567343876
 20
-1231.120844343051
 30
0.0
 11
1653.141567343876
 21
-1231.120844343051
 31
0.0
  0
LINE
  5
121
330
2
100
AcDbEntity
  8
0
100
AcDbLine
 10
1662.059293343876
 20
-1230.420844343054
 30
0.0
 11
1653.141567343876
 21
-1230.420844343054
 31
0.0
  0
LINE
  5
122
330
2
100
AcDbEntity
  8
0
100
AcDbLine
 10
1662.440175343877
 20
-1234.620844343051
 30
0.0
 11
1653.141567343876
 21
-1234.620844343051
 31
0.0
  0
LINE
  5
123
330
2
100
AcDbEntity
  8
0
100
AcDbLine
 10
1662.440175343877
 20
-1241.620844343051
 30
0.0
 11
1653.141567343876
 21
-1241.620844343051
 31
0.0
  0
LINE
  5
124
330
2
100
AcDbEntity
  8
0
100
AcDbLine
 10
1653.141567343876
 20
-1229.120844343051
 30
0.0
 11
1647.141567343876
 21
-1229.120844343051
 31
0.0
  0
LINE
  5
125
330
2
100
AcDbEntity
  8
0
100
AcDbLine
 10
1653.141567343876
 20
-1228.120844343051
 30
0.0
 11
1647.141567343876
 21
-1228.120844343051
 31
0.0
  0
LINE
  5
126
330
2
100
AcDbEntity
  8
0
100
AcDbLine
 10
1567.961567343876
 20
-1254.420844343054
 30
0.0
 11
1567.961567343876
 21
-1255.120844343051
 31
0.0
  0
LINE
  5
127
330
2
100
AcDbEntity
  8
0
100
AcDbLine
 10
1639.669872343876
 20
-1220.120844343051
 30
0.0
 11
1569.731663343876
 21
-1220.120844343051
 31
0.0
  0
ARC
  5
128
330
2
100
AcDbEntity
  8
0
100
AcDbCircle
 10
1569.731663343876
 20
-1220.620844343051
 30
0.0
 40
0.5
100
AcDbArc
 50
90.0
 51
176.4687330000455
  0
ARC
  5
129
330
2
100
AcDbEntity
  8
0
100
AcDbCircle
 10
1639.669872343876
 20
-1220.620844343051
 30
0.0
 40
0.5
100
AcDbArc
 50
3.33708299993448
 51
90.0
  0
DIMENSION
  5
12A
102
{ACAD_XDICTIONARY
360
12B
102
}
102
{ACAD_REACTORS
330
12C
102
}
330
2
100
AcDbEntity
  8
0
100
AcDbDimension
  2
*D4
 10
1642.141567343876
 20
-1208.065239838368
 30
0.0
 11
1604.643233843876
 21
-1208.065239838368
 31
0.0
 70
   128
 71
     5
 42
-1.0
  3
STANDARD
100
AcDbAlignedDimension
 13
1567.144900343877
 23
-1254.420844343054
 33
0.0
 14
1642.141567343876
 24
-1223.120844343051
 34
0.0
100
AcDbRotatedDimension
  0
LINE
  5
139
330
2
100
AcDbEntity
  8
0
100
AcDbLine
 10
1567.144900343877
 20
-1254.420844343054
 30
0.0
 11
1569.232612343877
 21
-1220.590047343052
 31
0.0
  0
LINE
  5
13A
102
{ACAD_REACTORS
330
143
330
12C
102
}
330
2
100
AcDbEntity
  8
0
100
AcDbLine
 10
1642.141567343876
 20
-1254.420844343054
 30
0.0
 11
1567.144900343877
 21
-1254.420844343054
 31
0.0
  0
LINE
  5
13B
330
2
100
AcDbEntity
  8
0
100
AcDbLine
 10
1642.141567343876
 20
-1255.120844343051
 30
0.0
 11
1567.261567343879
 21
-1255.120844343051
 31
0.0
  0
ARC
  5
13C
330
2
100
AcDbEntity
  8
0
100
AcDbCircle
 10
1640.294440343875
 20
-1260.120844343051
 30
0.0
 40
1.0
100
AcDbArc
 50
270.0
 51
350.5376779999537
  0
ARC
  5
13D
330
2
100
AcDbEntity
  8
0
100
AcDbCircle
 10
1625.761567343879
 20
-1262.620844343051
 30
0.0
 40
1.5
100
AcDbArc
 50
90.0
 51
180.0
  0
LINE
  5
13E
330
2
100
AcDbEntity
  8
0
100
AcDbLine
 10
1561.144900343877
 20
-1263.120843343054
 30
0.0
 11
1689.144900343877
 21
-1263.120843343058
 31
0.0
  0
LINE
  5
13F
330
2
100
AcDbEntity
  8
0
100
AcDbLine
 10
1567.744900343875
 20
-1264.522106001525
 30
0.0
 11
1568.644900343877
 21
-1264.522106001525
 31
0.0
  0
LINE
  5
140
330
2
100
AcDbEntity
  8
0
100
AcDbLine
 10
1640.294440343875
 20
-1261.120844343051
 30
0.0
 11
1567.744900343875
 21
-1261.120844343051
 31
0.0
  0
DIMENSION
  5
141
102
{ACAD_XDICTIONARY
360
142
102
}
102
{ACAD_REACTORS
330
143
102
}
330
2
100
AcDbEntity
  8
0
100
AcDbDimension
  2
*D5
 10
1567.144900343877
 20
-1208.065239838368
 30
0.0
 11
1564.144900343877
 21
-1208.065239838368
 31
0.0
 70
   128
 71
     5
 42
-1.0
  3
STANDARD
100
AcDbAlignedDimension
 13
1561.144900343877
 23
-1263.120843343054
 33
0.0
 14
1567.144900343877
 24
-1254.420844343054
 34
0.0
100
AcDbRotatedDimension
  0
LINE
  5
152
330
2
100
AcDbEntity
  8
0
100
AcDbLine
 10
1567.261567343879
 20
-1255.120844343051
 30
0.0
 11
1568.261567343879
 21
-1261.120844343051
 31
0.0
  0
LINE
  5
153
330
2
100
AcDbEntity
  8
0
100
AcDbLine
 10
1642.141567343876
 20
-1255.120844343051
 30
0.0
 11
1641.280834343875
 21
-1260.285243343052
 31
0.0
  0
LINE
  5
154
330
2
100
AcDbEntity
  8
0
  6
CENTER
 62
     1
 48
0.6
100
AcDbLine
 10
1675.925361343879
 20
-1238.120844343051
 30
0.0
 11
1564.716258390797
 21
-1238.120844343051
 31
0.0
  0
DIMENSION
  5
155
102
{ACAD_XDICTIONARY
360
156
102
}
102
{ACAD_REACTORS
330
157
102
}
330
2
100
AcDbEntity
  8
0
100
AcDbDimension
  2
*D6
 10
1670.141567343876
 20
-1208.081810858879
 30
0.0
 11
1656.141567343876
 21
-1208.081810858879
 31
0.0
 70
   128
  1
MAX. <>
 71
     5
 42
-1.0
  3
STANDARD
100
AcDbAlignedDimension
 13
1642.141567343876
 23
-1223.120844343051
 33
0.0
 14
1670.141567343876
 24
-1231.120844343051
 34
0.0
100
AcDbRotatedDimension
  0
ARC
  5
164
330
2
100
AcDbEntity
  8
0
100
AcDbCircle
 10
1654.058234343878
 20
-1238.120844343051
 30
0.0
 40
9.083332999999999
100
AcDbArc
 50
326.6015119999464
 51
33.39848800005366
  0
LINE
  5
165
330
2
100
AcDbEntity
  8
0
100
AcDbLine
 10
1661.641567343876
 20
-1251.120844343051
 30
0.0
 11
1663.141567343876
 21
-1250.120844343051
 31
0.0
  0
ARC
  5
166
330
2
100
AcDbEntity
  8
0
100
AcDbCircle
 10
1654.058234343878
 20
-1250.120844343051
 30
0.0
 40
9.083332999999999
100
AcDbArc
 50
0.0
 51
33.39848800005366
  0
LINE
  5
167
330
2
100
AcDbEntity
  8
0
100
AcDbLine
 10
1653.141567343876
 20
-1250.120844343051
 30
0.0
 11
1664.141567343876
 21
-1250.120844343051
 31
0.0
  0
LINE
  5
168
330
2
100
AcDbEntity
  8
0
100
AcDbLine
 10
1661.641567343876
 20
-1225.120844343051
 30
0.0
 11
1663.141567343876
 21
-1226.120844343051
 31
0.0
  0
LINE
  5
169
330
2
100
AcDbEntity
  8
0
100
AcDbLine
 10
1653.141567343876
 20
-1226.120844343051
 30
0.0
 11
1664.141567343876
 21
-1226.120844343051
 31
0.0
  0
ARC
  5
16A
330
2
100
AcDbEntity
  8
0
100
AcDbCircle
 10
1654.058234343878
 20
-1226.120844343051
 30
0.0
 40
9.083332999999999
100
AcDbArc
 50
326.6015119999464
 51
0.0
  0
ARC
  5
16B
330
2
100
AcDbEntity
  8
0
100
AcDbCircle
 10
1689.144900343877
 20
-1335.524767944818
 30
0.0
 40
7.0
100
AcDbArc
 50
0.0
 51
90.0
  0
ARC
  5
16C
330
2
100
AcDbEntity
  8
0
100
AcDbCircle
 10
1689.144900343877
 20
-1321.524767944818
 30
0.0
 40
7.0
100
AcDbArc
 50
270.0
 51
0.0
  0
LINE
  5
16D
330
2
100
AcDbEntity
  8
0
100
AcDbLine
 10
1696.144900343877
 20
-1346.120843343055
 30
0.0
 11
1696.144900343877
 21
-1270.120843343055
 31
0.0
  0
ARC
  5
16E
330
2
100
AcDbEntity
  8
0
100
AcDbCircle
 10
1689.144900343877
 20
-1346.120843343055
 30
0.0
 40
7.0
100
AcDbArc
 50
270.0
 51
0.0
  0
ARC
  5
16F
330
2
100
AcDbEntity
  8
0
100
AcDbCircle
 10
1689.144900343877
 20
-1280.716918741295
 30
0.0
 40
7.0
100
AcDbArc
 50
270.0
 51
0.0
  0
ARC
  5
170
330
2
100
AcDbEntity
  8
0
100
AcDbCircle
 10
1689.144900343877
 20
-1294.716918741295
 30
0.0
 40
7.0
100
AcDbArc
 50
0.0
 51
90.0
  0
ARC
  5
171
330
2
100
AcDbEntity
  8
0
100
AcDbCircle
 10
1689.144900343877
 20
-1270.120843343055
 30
0.0
 40
7.0
100
AcDbArc
 50
0.0
 51
90.0
  0
DIMENSION
  5
172
330
2
100
AcDbEntity
  8
0
100
AcDbDimension
  2
*D0
 10
1711.437074826922
 20
-1353.120843343055
 30
0.0
 11
1711.437074826922
 21
-1308.120843343054
 31
0.0
 70
   128
 71
     5
 42
-1.0
  3
STANDARD
100
AcDbAlignedDimension
 13
1690.144900343877
 23
-1263.120843343054
 33
0.0
 14
1690.144900343877
 24
-1353.120843343055
 34
0.0
 50
90.0
100
AcDbRotatedDimension
  0
LINE
  5
17F
330
2
100
AcDbEntity
  8
0
 62
     3
100
AcDbLine
 10
1709.349735998259
 20
-1317.462698985089
 30
0.0
 11
1709.349735998259
 21
-1313.83269898509
 31
0.0
  0
LINE
  5
180
330
2
100
AcDbEntity
  8
0
 62
     3
100
AcDbLine
 10
1709.349735998259
 20
-1313.83269898509
 30
0.0
 11
1705.499735998258
 21
-1313.83269898509
 31
0.0
  0
LINE
  5
181
330
2
100
AcDbEntity
  8
0
 62
     3
100
AcDbLine
 10
1705.499735998258
 20
-1313.83269898509
 30
0.0
 11
1705.499735998258
 21
-1317.462698985089
 31
0.0
  0
LINE
  5
182
330
2
100
AcDbEntity
  8
0
 62
     3
100
AcDbLine
 10
1705.499735998258
 20
-1317.462698985089
 30
0.0
 11
1709.349735998259
 21
-1317.462698985089
 31
0.0
  0
LINE
  5
183
330
2
100
AcDbEntity
  8
0
100
AcDbLine
 10
1377.737561349227
 20
-1353.120843343055
 30
0.0
 11
1457.737561349227
 21
-1353.120843343055
 31
0.0
  0
ARC
  5
184
330
2
100
AcDbEntity
  8
0
100
AcDbCircle
 10
1457.737561349227
 20
-1348.120843343054
 30
0.0
 40
5.0
100
AcDbArc
 50
270.0
 51
0.0
  0
LINE
  5
185
330
2
100
AcDbEntity
  8
0
100
AcDbLine
 10
1462.737561349227
 20
-1348.120843343054
 30
0.0
 11
1462.737561349227
 21
-1268.120843343055
 31
0.0
  0
ARC
  5
186
330
2
100
AcDbEntity
  8
0
100
AcDbCircle
 10
1457.737561349227
 20
-1268.120843343055
 30
0.0
 40
5.0
100
AcDbArc
 50
0.0
 51
90.0
  0
LINE
  5
187
330
2
100
AcDbEntity
  8
0
100
AcDbLine
 10
1457.737561349227
 20
-1263.120843343054
 30
0.0
 11
1377.737561349227
 21
-1263.120843343054
 31
0.0
  0
ARC
  5
188
330
2
100
AcDbEntity
  8
0
100
AcDbCircle
 10
1377.737561349227
 20
-1268.120843343055
 30
0.0
 40
5.0
100
AcDbArc
 50
90.0
 51
180.0
  0
LINE
  5
189
330
2
100
AcDbEntity
  8
0
100
AcDbLine
 10
1372.737561349227
 20
-1268.120843343055
 30
0.0
 11
1372.737561349227
 21
-1348.120843343054
 31
0.0
  0
ARC
  5
18A
330
2
100
AcDbEntity
  8
0
100
AcDbCircle
 10
1377.737561349227
 20
-1348.120843343054
 30
0.0
 40
5.0
100
AcDbArc
 50
180.0
 51
270.0
  0
CIRCLE
  5
18B
330
2
100
AcDbEntity
  8
0
100
AcDbCircle
 10
1454.507113970926
 20
-1271.351290721355
 30
0.0
 40
3.25
  0
LINE
  5
18C
330
2
100
AcDbEntity
  8
0
  6
CENTER
 62
     1
 48
0.6
100
AcDbLine
 10
1450.794803369697
 20
-1275.063601322581
 30
0.0
 11
1458.219424572156
 21
-1267.638980120126
 31
0.0
  0
ARC
  5
18D
102
{ACAD_REACTORS
330
190
102
}
330
2
100
AcDbEntity
  8
0
  6
CENTER
 62
     1
 48
0.6
100
AcDbCircle
 10
1417.737561349227
 20
-1308.120843343054
 30
0.0
 40
51.9999999999996
100
AcDbArc
 50
35.90024337538395
 51
54.09975662455199
  0
DIMENSION
  5
18E
102
{ACAD_XDICTIONARY
360
18F
102
}
102
{ACAD_REACTORS
330
190
102
}
330
2
100
AcDbEntity
  8
0
100
AcDbDimension
  2
*D7
 10
1375.942667792289
 20
-1339.059280158194
 30
0.0
 11
1487.065307767756
 21
-1256.801365780957
 31
0.0
 70
   131
  1
<>%%P0.5
 71
     5
 42
-1.0
  3
STANDARD
100
AcDbDiametricDimension
 15
1459.532454906165
 25
-1277.182406527917
 35
0.0
 40
0.0
1001
ACAD
1000
DSTYLE
1002
{
1070
   287
1070
     4
1070
   287
1070
     4
1070
   287
1070
     4
1070
   287
1070
     4
1070
   287
1070
     4
1070
   287
1070
     4
1070
   279
1070
     1
1070
   289
1070
     3
1002
}
  0
ARC
  5
19C
330
2
100
AcDbEntity
  8
0
  6
CENTER
 62
     1
 48
0.6
100
AcDbCircle
 10
1417.737561349227
 20
-1308.120843343054
 30
0.0
 40
52.0
100
AcDbArc
 50
129.2128702779684
 51
140.7871297220765
  0
LINE
  5
19D
330
2
100
AcDbEntity
  8
0
  6
CENTER
 62
     1
 48
0.6
100
AcDbLine
 10
1384.680319328757
 20
-1275.063601322581
 30
0.0
 11
1377.255698126298
 21
-1267.638980120122
 31
0.0
  0
CIRCLE
  5
19E
330
2
100
AcDbEntity
  8
0
100
AcDbCircle
 10
1380.968008727528
 20
-1271.351290721352
 30
0.0
 40
3.25
  0
LINE
  5
19F
330
2
100
AcDbEntity
  8
0
  6
CENTER
 62
     1
 48
0.6
100
AcDbLine
 10
1384.680319328757
 20
-1341.178085363528
 30
0.0
 11
1377.255698126298
 21
-1348.602706565984
 31
0.0
  0
CIRCLE
  5
1A0
330
2
100
AcDbEntity
  8
0
100
AcDbCircle
 10
1380.968008727528
 20
-1344.890395964754
 30
0.0
 40
3.25
  0
ARC
  5
1A1
330
2
100
AcDbEntity
  8
0
  6
CENTER
 62
     1
 48
0.6
100
AcDbCircle
 10
1417.737561349227
 20
-1308.120843343054
 30
0.0
 40
51.9999999999996
100
AcDbArc
 50
215.9002433753839
 51
234.099756624552
  0
ARC
  5
1A2
330
2
100
AcDbEntity
  8
0
  6
CENTER
 62
     1
 48
0.6
100
AcDbCircle
 10
1417.737561349227
 20
-1308.120843343054
 30
0.0
 40
52.0
100
AcDbArc
 50
309.2128702779683
 51
320.7871297220764
  0
LINE
  5
1A3
330
2
100
AcDbEntity
  8
0
  6
CENTER
 62
     1
 48
0.6
100
AcDbLine
 10
1450.794803369697
 20
-1341.178085363528
 30
0.0
 11
1458.219424572156
 21
-1348.602706565987
 31
0.0
  0
CIRCLE
  5
1A4
330
2
100
AcDbEntity
  8
0
100
AcDbCircle
 10
1454.507113970926
 20
-1344.890395964758
 30
0.0
 40
3.25
  0
ARC
  5
1A5
330
2
100
AcDbEntity
  8
0
100
AcDbCircle
 10
1417.662097035046
 20
-1308.120843343054
 30
0.0
 40
36.81561599999999
100
AcDbArc
 50
296.3656725032698
 51
333.6343274967311
  0
CIRCLE
  5
1A6
330
2
100
AcDbEntity
  8
0
100
AcDbCircle
 10
1417.737561349227
 20
-1308.120843343054
 30
0.0
 40
43.5
  0
CIRCLE
  5
1A7
330
2
100
AcDbEntity
  8
0
100
AcDbCircle
 10
1417.737561349227
 20
-1308.120843343054
 30
0.0
 40
42.00000000000005
  0
ARC
  5
1A8
330
2
100
AcDbEntity
  8
0
100
AcDbCircle
 10
1417.662097035046
 20
-1308.120843343054
 30
0.0
 40
36.81561599999999
100
AcDbArc
 50
206.3656725032689
 51
243.6343274967302
  0
LINE
  5
1A9
330
2
100
AcDbEntity
  8
0
  6
CENTER
 62
     1
100
AcDbLine
 10
1417.737561349227
 20
-1359.388463561285
 30
0.0
 11
1417.737561349227
 21
-1213.869418668226
 31
0.0
  0
LEADER
  5
1AA
330
2
100
AcDbEntity
  8
0
100
AcDbLeader
  3
STANDARD
 74
     0
 76
     2
 10
1455.488808604548
 20
-1347.754481450585
 30
0.0
 10
1473.1382745237
 20
-1374.563152711233
 30
0.0
1001
ACAD
1000
DSTYLE
1002
{
1070
     5
1000

1002
}
  0
DIMENSION
  5
1AB
330
2
100
AcDbEntity
  8
0
100
AcDbDimension
  2
*D1
 10
1462.984835600351
 20
-1368.801024029082
 30
0.0
 11
1417.737561349227
 21
-1368.801024029082
 31
0.0
 70
   128
 71
     5
 42
-1.0
  3
STANDARD
100
AcDbAlignedDimension
 13
1372.984835600351
 23
-1348.120843342985
 33
0.0
 14
1462.984835600351
 24
-1348.120843342985
 34
0.0
100
AcDbRotatedDimension
  0
ARC
  5
1B8
330
2
100
AcDbEntity
  8
0
100
AcDbCircle
 10
1432.649375323149
 20
-1338.357993259124
 30
0.0
 40
3.067967999999998
100
AcDbArc
 50
231.9486744805067
 51
296.3656725032698
  0
ARC
  5
1B9
330
2
100
AcDbEntity
  8
0
100
AcDbCircle
 10
1417.662097035046
 20
-1308.120843343054
 30
0.0
 40
33.74764799999999
100
AcDbArc
 50
252.280191847312
 51
287.7198081526878
  0
ARC
  5
1BA
330
2
100
AcDbEntity
  8
0
100
AcDbCircle
 10
1428.867386075109
 20
-1343.189790846336
 30
0.0
 40
3.067967999999998
100
AcDbArc
 50
51.94867448050672
 51
107.7198081526878
  0
LINE
  5
1BB
330
2
100
AcDbEntity
  8
0
 62
     3
100
AcDbLine
 10
1408.591825270734
 20
-1366.947516334287
 30
0.0
 11
1412.221825270733
 21
-1366.947516334287
 31
0.0
  0
LINE
  5
1BC
330
2
100
AcDbEntity
  8
0
 62
     3
100
AcDbLine
 10
1412.221825270733
 20
-1366.947516334287
 30
0.0
 11
1412.221825270733
 21
-1363.097516334287
 31
0.0
  0
LINE
  5
1BD
330
2
100
AcDbEntity
  8
0
 62
     3
100
AcDbLine
 10
1412.221825270733
 20
-1363.097516334287
 30
0.0
 11
1408.591825270734
 21
-1363.097516334287
 31
0.0
  0
LINE
  5
1BE
330
2
100
AcDbEntity
  8
0
 62
     3
100
AcDbLine
 10
1408.591825270734
 20
-1363.097516334287
 30
0.0
 11
1408.591825270734
 21
-1366.947516334287
 31
0.0
  0
ARC
  5
1BF
330
2
100
AcDbEntity
  8
0
100
AcDbCircle
 10
1402.674818746943
 20
-1338.357993259124
 30
0.0
 40
3.067967999999998
100
AcDbArc
 50
243.6343274967302
 51
308.0513255194933
  0
ARC
  5
1C0
330
2
100
AcDbEntity
  8
0
100
AcDbCircle
 10
1406.456807994984
 20
-1343.189790846336
 30
0.0
 40
3.067967999999998
100
AcDbArc
 50
72.28019184731211
 51
128.0513255194932
  0
MTEXT
  5
1C1
102
{ACAD_REACTORS
330
1AA
102
}
330
2
100
AcDbEntity
  8
0
 62
     3
100
AcDbMText
 10
1474.1382745237
 20
-1371.09659076877
 30
0.0
 40
5.0
 41
0.0
 71
     4
 72
     1
  1
4-%%C6.5 hole
 73
     1
 44
1.0
1001
ACAD
1000
MTEXTBEGIN
1070
    73
1070
     1
1070
    44
1040
1.0
1070
    74
1070
     0
1000
MTEXTEND
  0
LINE
  5
1C2
330
2
100
AcDbEntity
  8
0
  6
CENTER
 62
     1
100
AcDbLine
 10
1368.484285134831
 20
-1308.120843343054
 30
0.0
 11
1466.990837563623
 21
-1308.120843343054
 31
0.0
  0
ARC
  5
1C3
330
2
100
AcDbEntity
  8
0
100
AcDbCircle
 10
1446.265867349227
 20
-1220.620843342985
 30
0.0
 40
0.5
100
AcDbArc
 50
3.33708299993448
 51
90.0
  0
LINE
  5
1C4
330
2
100
AcDbEntity
  8
0
100
AcDbLine
 10
1389.209256349227
 20
-1220.120843342985
 30
0.0
 11
1446.265867349227
 21
-1220.120843342985
 31
0.0
  0
ARC
  5
1C5
330
2
100
AcDbEntity
  8
0
100
AcDbCircle
 10
1389.209256349227
 20
-1220.620843342985
 30
0.0
 40
0.5
100
AcDbArc
 50
90.0
 51
176.6629170000655
  0
ARC
  5
1C6
330
2
100
AcDbEntity
  8
0
100
AcDbCircle
 10
1417.662097035046
 20
-1308.120843343054
 30
0.0
 40
36.81561599999999
100
AcDbArc
 50
26.36567250326889
 51
63.63432749673013
  0
ARC
  5
1C7
330
2
100
AcDbEntity
  8
0
100
AcDbCircle
 10
1417.662097035046
 20
-1308.120843343054
 30
0.0
 40
33.74764799999999
100
AcDbArc
 50
72.28019184731211
 51
107.7198081526878
  0
ARC
  5
1C8
330
2
100
AcDbEntity
  8
0
100
AcDbCircle
 10
1428.867386075109
 20
-1273.051895839773
 30
0.0
 40
3.067967999999998
100
AcDbArc
 50
252.280191847312
 51
308.0513255194933
  0
ARC
  5
1C9
330
2
100
AcDbEntity
  8
0
100
AcDbCircle
 10
1432.649375323149
 20
-1277.883693426986
 30
0.0
 40
3.067967999999998
100
AcDbArc
 50
63.63432749673013
 51
128.0513255194932
  0
ARC
  5
1CA
330
2
100
AcDbEntity
  8
0
100
AcDbCircle
 10
1382.593149531761
 20
-1296.915554302992
 30
0.0
 40
3.067967999999998
100
AcDbArc
 50
342.2801918473044
 51
38.05132551942936
  0
ARC
  5
1CB
330
2
100
AcDbEntity
  8
0
100
AcDbCircle
 10
1417.662097035046
 20
-1308.120843343054
 30
0.0
 40
33.74764799999999
100
AcDbArc
 50
162.2801918473043
 51
197.7198081526957
  0
ARC
  5
1CC
330
2
100
AcDbEntity
  8
0
100
AcDbCircle
 10
1382.593149531761
 20
-1319.326132383117
 30
0.0
 40
3.067967999999998
100
AcDbArc
 50
321.9486744805706
 51
17.71980815269565
  0
ARC
  5
1CD
330
2
100
AcDbEntity
  8
0
100
AcDbCircle
 10
1387.424947118977
 20
-1323.108121631158
 30
0.0
 40
3.067967999999998
100
AcDbArc
 50
141.9486744805706
 51
206.3656725032689
  0
ARC
  5
1CE
330
2
100
AcDbEntity
  8
0
100
AcDbCircle
 10
1417.662097035046
 20
-1308.120843343054
 30
0.0
 40
36.81561599999999
100
AcDbArc
 50
116.3656725032698
 51
153.634327496731
  0
ARC
  5
1CF
330
2
100
AcDbEntity
  8
0
100
AcDbCircle
 10
1387.424947118977
 20
-1293.133565054952
 30
0.0
 40
3.067967999999998
100
AcDbArc
 50
153.634327496731
 51
218.0513255194294
  0
ARC
  5
1D0
330
2
100
AcDbEntity
  8
0
100
AcDbCircle
 10
1402.674818746943
 20
-1277.883693426986
 30
0.0
 40
3.067967999999998
100
AcDbArc
 50
51.94867448050672
 51
116.3656725032698
  0
CIRCLE
  5
1D1
330
2
100
AcDbEntity
  8
0
100
AcDbCircle
 10
1417.984835600351
 20
-1308.120843343054
 30
0.0
 40
20.0
  0
ARC
  5
1D2
330
2
100
AcDbEntity
  8
0
100
AcDbCircle
 10
1406.456807994984
 20
-1273.051895839773
 30
0.0
 40
3.067967999999998
100
AcDbArc
 50
231.9486744805067
 51
287.7198081526878
  0
ARC
  5
1D3
330
2
100
AcDbEntity
  8
0
100
AcDbCircle
 10
1452.731044538328
 20
-1296.915554302992
 30
0.0
 40
3.067967999999998
100
AcDbArc
 50
141.9486744805706
 51
197.7198081526957
  0
ARC
  5
1D4
330
2
100
AcDbEntity
  8
0
100
AcDbCircle
 10
1417.662097035046
 20
-1308.120843343054
 30
0.0
 40
33.74764799999999
100
AcDbArc
 50
342.2801918473044
 51
17.71980815269565
  0
ARC
  5
1D5
330
2
100
AcDbEntity
  8
0
100
AcDbCircle
 10
1452.731044538328
 20
-1319.326132383117
 30
0.0
 40
3.067967999999998
100
AcDbArc
 50
162.2801918473043
 51
218.0513255194294
  0
ARC
  5
1D6
330
2
100
AcDbEntity
  8
0
100
AcDbCircle
 10
1447.899246951115
 20
-1323.108121631158
 30
0.0
 40
3.067967999999998
100
AcDbArc
 50
333.6343274967311
 51
38.05132551942936
  0
ARC
  5
1D7
330
2
100
AcDbEntity
  8
0
100
AcDbCircle
 10
1447.899246951115
 20
-1293.133565054952
 30
0.0
 40
3.067967999999998
100
AcDbArc
 50
321.9486744805706
 51
26.36567250326889
  0
LINE
  5
1D8
330
2
100
AcDbEntity
  8
0
100
AcDbLine
 10
1448.737561349227
 20
-1254.420843342985
 30
0.0
 11
1386.737561349227
 21
-1254.420843342985
 31
0.0
  0
LINE
  5
1D9
330
2
100
AcDbEntity
  8
0
100
AcDbLine
 10
1432.737561349227
 20
-1261.120843342985
 30
0.0
 11
1447.317429349228
 21
-1261.120843342985
 31
0.0
  0
LINE
  5
1DA
330
2
100
AcDbEntity
  8
0
100
AcDbLine
 10
1432.737561349227
 20
-1261.120843342985
 30
0.0
 11
1432.737561349227
 21
-1263.120843342985
 31
0.0
  0
ARC
  5
1DB
330
2
100
AcDbEntity
  8
0
100
AcDbCircle
 10
1445.737561349227
 20
-1262.120843342986
 30
0.0
 40
1.0
100
AcDbArc
 50
90.0
 51
180.0
  0
ARC
  5
1DC
330
2
100
AcDbEntity
  8
0
100
AcDbCircle
 10
1447.317429349228
 20
-1260.120843342986
 30
0.0
 40
1.0
100
AcDbArc
 50
270.0
 51
355.2363579999958
  0
LINE
  5
1DD
330
2
100
AcDbEntity
  8
0
100
AcDbLine
 10
1448.31397434923
 20
-1260.203888342985
 30
0.0
 11
1448.737561349227
 21
-1255.120843342985
 31
0.0
  0
LINE
  5
1DE
330
2
100
AcDbEntity
  8
0
100
AcDbLine
 10
1448.03756134923
 20
-1254.420843342985
 30
0.0
 11
1448.03756134923
 21
-1255.120843342985
 31
0.0
  0
LINE
  5
1DF
330
2
100
AcDbEntity
  8
0
100
AcDbLine
 10
1444.737561349227
 20
-1262.120843342986
 30
0.0
 11
1444.737561349227
 21
-1263.120843342985
 31
0.0
  0
LINE
  5
1E0
330
2
100
AcDbEntity
  8
0
100
AcDbLine
 10
1402.737561349227
 20
-1261.120843342985
 30
0.0
 11
1402.737561349227
 21
-1263.120843342985
 31
0.0
  0
ARC
  5
1E1
330
2
100
AcDbEntity
  8
0
100
AcDbCircle
 10
1388.157694349227
 20
-1260.120843342986
 30
0.0
 40
1.0
100
AcDbArc
 50
184.7636420000043
 51
270.0
  0
LINE
  5
1E2
330
2
100
AcDbEntity
  8
0
100
AcDbLine
 10
1387.161149349229
 20
-1260.203888342985
 30
0.0
 11
1386.737561349227
 21
-1255.120843342985
 31
0.0
  0
ARC
  5
1E3
330
2
100
AcDbEntity
  8
0
100
AcDbCircle
 10
1389.737561349227
 20
-1262.120843342986
 30
0.0
 40
1.0
100
AcDbArc
 50
0.0
 51
90.0
  0
LINE
  5
1E4
330
2
100
AcDbEntity
  8
0
100
AcDbLine
 10
1390.737561349227
 20
-1262.120843342986
 30
0.0
 11
1390.737561349227
 21
-1263.120843342985
 31
0.0
  0
LINE
  5
1E5
330
2
100
AcDbEntity
  8
0
100
AcDbLine
 10
1402.737561349227
 20
-1261.120843342985
 30
0.0
 11
1388.157694349227
 21
-1261.120843342985
 31
0.0
  0
LINE
  5
1E6
330
2
100
AcDbEntity
  8
0
100
AcDbLine
 10
1386.737561349227
 20
-1255.120843342985
 30
0.0
 11
1448.737561349227
 21
-1255.120843342985
 31
0.0
  0
LINE
  5
1E7
330
2
100
AcDbEntity
  8
0
100
AcDbLine
 10
1387.437561349228
 20
-1254.420843342985
 30
0.0
 11
1387.437561349228
 21
-1255.120843342985
 31
0.0
  0
LINE
  5
1E8
330
2
100
AcDbEntity
  8
0
100
AcDbLine
 10
1448.737561349227
 20
-1254.420843342985
 30
0.0
 11
1446.765019349228
 21
-1220.591738342984
 31
0.0
  0
DIMENSION
  5
1E9
330
2
100
AcDbEntity
  8
0
100
AcDbDimension
  2
*D2
 10
1465.05690742048
 20
-1220.120843342985
 30
0.0
 11
1465.056907420481
 21
-1240.026007545901
 31
0.0
 70
   128
 71
     5
 42
-1.0
  3
STANDARD
100
AcDbAlignedDimension
 13
1458.292730028051
 23
-1263.120843342985
 33
0.0
 14
1445.900991034339
 24
-1220.120843342985
 34
0.0
 50
90.0
100
AcDbRotatedDimension
  0
LINE
  5
1F6
330
2
100
AcDbEntity
  8
0
100
AcDbLine
 10
1386.737561349227
 20
-1254.420843342985
 30
0.0
 11
1388.710104349227
 21
-1220.591738342984
 31
0.0
  0
LINE
  5
1F7
330
2
100
AcDbEntity
  8
0
100
AcDbLine
 10
1421.054186139584
 20
-1303.120843343055
 30
0.0
 11
1414.42093655887
 21
-1303.120843343055
 31
0.0
  0
CIRCLE
  5
1F8
330
2
100
AcDbEntity
  8
0
100
AcDbCircle
 10
1417.737561349227
 20
-1308.120843343054
 30
0.0
 40
6.0
  0
DIMENSION
  5
1F9
330
2
100
AcDbEntity
  8
0
100
AcDbDimension
  2
*D3
 10
1448.737560849227
 20
-1202.701199719493
 30
0.0
 11
1417.900155596028
 21
-1202.701199719493
 31
0.0
 70
   128
 71
     5
 42
-1.0
  3
STANDARD
100
AcDbAlignedDimension
 13
1386.737560849227
 23
-1254.432617940892
 33
0.0
 14
1448.737560849227
 24
-1254.432617940892
 34
0.0
100
AcDbRotatedDimension
  0
LINE
  5
206
330
2
100
AcDbEntity
  8
0
 62
   123
100
AcDbLine
 10
1473.1382745237
 20
-1374.563152711233
 30
0.0
 11
1519.768168306699
 21
-1374.563152711233
 31
0.0
  0
ENDSEC
  0
SECTION
  2
OBJECTS
  0
DICTIONARY
  5
C
330
0
100
AcDbDictionary
281
     1
  3
ACAD_COLOR
350
38
  3
ACAD_GROUP
350
33
  3
ACAD_LAYOUT
350
18
  3
ACAD_MATERIAL
350
E
  3
ACAD_MLEADERSTYLE
350
234
  3
ACAD_MLINESTYLE
350
34
  3
ACAD_PLOTSETTINGS
350
35
  3
ACAD_PLOTSTYLENAME
350
B
  3
ACAD_SCALELIST
350
39
  3
ACAD_TABLESTYLE
350
3A
  3
ACAD_VISUALSTYLE
350
2E
  3
ACDB_RECOMPOSE_DATA
350
218
  3
AcDbVariableDictionary
350
20B
  3
DWGPROPS
350
23F
  0
DICTIONARY
  5
2F
330
2B
100
AcDbDictionary
280
     1
281
     1
  0
DICTIONARY
  5
21
330
20
100
AcDbDictionary
280
     1
281
     1
  3
ACAD_LAYERSTATES
360
22
  0
DICTIONARY
  5
8
330
7
100
AcDbDictionary
280
     1
281
     1
  3
ADSK_XREC_LAYER_RECONCILED
360
9
  0
DICTIONARY
  5
3
330
2
100
AcDbDictionary
280
     1
281
     1
  3
ACAD_LAYOUTSELFREF
360
4
  3
ACAD_SORTENTS
360
207
  0
DICTIONARY
  5
1B
330
1A
100
AcDbDictionary
280
     1
281
     1
  3
ACAD_LAYOUTSELFREF
360
1C
  0
DICTIONARY
  5
245
330
195
100
AcDbDictionary
280
     1
281
     1
  3
ACAD_MTEXT_RT
360
246
  0
DICTIONARY
  5
65
330
64
100
AcDbDictionary
280
     1
281
     1
  3
ACAD_DIMASSOC
360
66
  0
DICTIONARY
  5
77
330
76
100
AcDbDictionary
280
     1
281
     1
  3
ACAD_DIMASSOC
360
78
  0
DICTIONARY
  5
86
330
85
100
AcDbDictionary
280
     1
281
     1
  3
ACAD_DIMASSOC
360
87
  0
DICTIONARY
  5
95
330
94
100
AcDbDictionary
280
     1
281
     1
  3
ACAD_DIMASSOC
360
96
  0
DICTIONARY
  5
A7
330
A6
100
AcDbDictionary
280
     1
281
     1
  3
ACAD_DIMASSOC
360
A8
  0
DICTIONARY
  5
B8
330
B7
100
AcDbDictionary
280
     1
281
     1
  3
ACAD_DIMASSOC
360
B9
  0
DICTIONARY
  5
E4
330
E3
100
AcDbDictionary
280
     1
281
     1
  3
ACAD_DIMASSOC
360
E5
  0
DICTIONARY
  5
F9
330
F8
100
AcDbDictionary
280
     1
281
     1
  3
ACAD_DIMASSOC
360
FA
  0
DICTIONARY
  5
12B
330
12A
100
AcDbDictionary
280
     1
281
     1
  3
ACAD_DIMASSOC
360
12C
  0
DICTIONARY
  5
142
330
141
100
AcDbDictionary
280
     1
281
     1
  3
ACAD_DIMASSOC
360
143
  0
DICTIONARY
  5
156
330
155
100
AcDbDictionary
280
     1
281
     1
  3
ACAD_DIMASSOC
360
157
  0
DICTIONARY
  5
18F
330
18E
100
AcDbDictionary
280
     1
281
     1
  3
ACAD_DIMASSOC
360
190
  0
DICTIONARY
  5
38
102
{ACAD_REACTORS
330
C
102
}
330
C
100
AcDbDictionary
281
     1
  0
DICTIONARY
  5
33
102
{ACAD_REACTORS
330
C
102
}
330
C
100
AcDbDictionary
281
     1
  0
DICTIONARY
  5
18
102
{ACAD_REACTORS
330
C
102
}
330
C
100
AcDbDictionary
281
     1
  3
Model
350
17
  3
배치1
350
1F
  0
DICTIONARY
  5
E
102
{ACAD_REACTORS
330
C
102
}
330
C
100
AcDbDictionary
281
     1
  3
ByBlock
350
37
  3
ByLayer
350
36
  3
Global
350
D
  0
DICTIONARY
  5
234
102
{ACAD_REACTORS
330
C
102
}
330
C
100
AcDbDictionary
281
     1
  3
Standard
350
235
  0
DICTIONARY
  5
34
102
{ACAD_REACTORS
330
C
102
}
330
C
100
AcDbDictionary
281
     1
  3
Standard
350
3B
  0
DICTIONARY
  5
35
102
{ACAD_REACTORS
330
C
102
}
330
C
100
AcDbDictionary
281
     1
  0
ACDBDICTIONARYWDFLT
  5
B
102
{ACAD_REACTORS
330
C
102
}
330
C
100
AcDbDictionary
281
     1
  3
Normal
350
A
100
AcDbDictionaryWithDefault
340
A
  0
DICTIONARY
  5
39
102
{ACAD_REACTORS
330
C
102
}
330
C
100
AcDbDictionary
281
     1
  3
A0
350
43
  3
A1
350
44
  3
A2
350
45
  3
A3
350
46
  3
A4
350
47
  3
A5
350
48
  3
A6
350
49
  3
A7
350
4A
  3
A8
350
4B
  3
A9
350
4C
  3
B0
350
4D
  3
B1
350
4E
  3
B2
350
4F
  3
B3
350
50
  3
B4
350
51
  3
B5
350
52
  3
B6
350
53
  3
B7
350
54
  3
B8
350
55
  3
B9
350
56
  3
C0
350
57
  3
C1
350
58
  3
C2
350
59
  3
C3
350
5A
  3
C4
350
5B
  3
C5
350
5C
  3
C6
350
5D
  3
C7
350
5E
  3
C8
350
5F
  3
C9
350
60
  3
D0
350
61
  3
D1
350
62
  3
D2
350
63
  0
DICTIONARY
  5
3A
102
{ACAD_REACTORS
330
C
102
}
330
C
100
AcDbDictionary
281
     1
  3
Standard
350
3C
  0
DICTIONARY
  5
2E
102
{ACAD_REACTORS
330
C
102
}
330
C
100
AcDbDictionary
281
     1
  3
2dWireframe
350
2D
  3
3D Hidden
350
22C
  3
3dWireframe
350
3F
  3
Basic
350
22B
  3
Brighten
350
22F
  3
ColorChange
350
233
  3
Conceptual
350
22D
  3
Dim
350
22E
  3
Facepattern
350
232
  3
Flat
350
227
  3
FlatWithEdges
350
228
  3
Gouraud
350
229
  3
GouraudWithEdges
350
22A
  3
Linepattern
350
231
  3
Realistic
350
3E
  3
Thicken
350
230
  0
XRECORD
  5
218
102
{ACAD_REACTORS
330
C
102
}
330
C
100
AcDbXrecord
280
     1
 90
        1
330
3C
  0
DICTIONARY
  5
20B
102
{ACAD_REACTORS
330
C
102
}
330
C
100
AcDbDictionary
281
     1
  3
CANNOSCALE
350
20F
  3
CMLEADERSTYLE
350
20D
  3
CTABLESTYLE
350
20C
  3
DIMASSOC
350
214
  3
HIDETEXT
350
213
  3
INDEXCTL
350
212
  3
LIGHTINGUNITS
350
210
  3
MSLTSCALE
350
20E
  3
PSOLHEIGHT
350
23D
  3
PSOLWIDTH
350
23C
  3
SORTENTS
350
211
  0
XRECORD
  5
23F
102
{ACAD_REACTORS
330
C
102
}
330
C
100
AcDbXrecord
280
     1
  1
DWGPROPS COOKIE
  2

  3

  4

  6

  7

  8
김성진
  9

300
=
301
=
302
=
303
=
304
=
305
=
306
=
307
=
308
=
309
=
 40
3.484254097222222
 41
2455638.478663565
 42
2455916.471199364
  1

 90
        0
  0
DICTIONARY
  5
22
102
{ACAD_REACTORS
330
21
102
}
330
21
100
AcDbDictionary
281
     1
  0
XRECORD
  5
9
102
{ACAD_REACTORS
330
8
102
}
330
8
100
AcDbXrecord
280
     1
290
     1
  0
XRECORD
  5
4
102
{ACAD_REACTORS
330
3
102
}
330
3
100
AcDbXrecord
280
     1
340
2
  0
SORTENTSTABLE
  5
207
102
{ACAD_REACTORS
330
3
102
}
330
3
100
AcDbSortentsTable
330
2
  0
XRECORD
  5
1C
102
{ACAD_REACTORS
330
1B
102
}
330
1B
100
AcDbXrecord
280
     1
340
1A
  0
XRECORD
  5
246
102
{ACAD_REACTORS
330
245
102
}
330
245
100
AcDbXrecord
280
     1
 40
11034.0
  1
\A1;\U+2205104%%P0.5
  0
DIMASSOC
  5
66
102
{ACAD_REACTORS
330
65
102
}
330
65
100
AcDbDimAssoc
330
64
 90
        3
 70
     0
 71
     0
  1
AcDbOsnapPointRef
 72
     1
331
74
 73
     2
 91
        0
 40
1.0
 10
10746.93568229063
 20
-4114.883866320462
 30
0.0
 75
     0
  1
AcDbOsnapPointRef
 72
     1
331
DD
 73
     2
 91
        0
 40
1.0
 10
10776.93568229062
 20
-4113.883866320462
 30
0.0
 75
     0
  0
DIMASSOC
  5
78
102
{ACAD_REACTORS
330
77
102
}
330
77
100
AcDbDimAssoc
330
76
 90
        2
 70
     0
 71
     0
  1
AcDbOsnapPointRef
 72
    13
331
E2
 73
     2
 91
        0
 40
0.0
 10
10783.93568229062
 20
-4164.883866320462
 30
0.0
 75
     0
  0
DIMASSOC
  5
87
102
{ACAD_REACTORS
330
86
102
}
330
86
100
AcDbDimAssoc
330
85
 90
        3
 70
     0
 71
     0
  1
AcDbOsnapPointRef
 72
     1
331
75
 73
     2
 91
        0
 40
1.0
 10
10746.93568229063
 20
-4125.883866320463
 30
0.0
 75
     0
  1
AcDbOsnapPointRef
 72
     1
331
DD
 73
     2
 91
        0
 40
1.0
 10
10776.93568229062
 20
-4113.883866320462
 30
0.0
 75
     0
  0
DIMASSOC
  5
96
102
{ACAD_REACTORS
330
95
102
}
330
95
100
AcDbDimAssoc
330
94
 90
        3
 70
     0
 71
     0
  1
AcDbOsnapPointRef
 72
    13
331
DF
 73
     2
 91
        0
 40
0.0
 10
10781.93568229062
 20
-4078.383866320463
 30
0.0
 75
     0
  1
AcDbOsnapPointRef
 72
     1
331
DF
 73
     2
 91
        0
 40
1.0
 10
10781.93568229062
 20
-4161.383866320462
 30
0.0
 75
     0
  0
DIMASSOC
  5
A8
102
{ACAD_REACTORS
330
A7
102
}
330
A7
100
AcDbDimAssoc
330
A6
 90
        3
 70
     0
 71
     0
  1
AcDbOsnapPointRef
 72
     1
331
75
 73
     2
 91
        0
 40
1.0
 10
10746.93568229063
 20
-4125.883866320463
 30
0.0
 75
     0
  1
AcDbOsnapPointRef
 72
     1
331
74
 73
     2
 91
        0
 40
1.0
 10
10746.93568229063
 20
-4114.883866320462
 30
0.0
 75
     0
  0
DIMASSOC
  5
B9
102
{ACAD_REACTORS
330
B8
102
}
330
B8
100
AcDbDimAssoc
330
B7
 90
        1
 70
     0
 71
     0
  1
AcDbOsnapPointRef
 72
    13
331
E2
 73
     2
 91
        0
 40
0.0
 10
10783.93568229062
 20
-4164.883866320462
 30
0.0
 75
     0
  0
DIMASSOC
  5
E5
102
{ACAD_REACTORS
330
E4
102
}
330
E4
100
AcDbDimAssoc
330
E3
 90
        3
 70
     0
 71
     0
  1
AcDbOsnapPointRef
 72
     1
331
E0
 73
     2
 91
        0
 40
1.0
 10
10781.93568229062
 20
-4161.383866320462
 30
0.0
 75
     0
  1
AcDbOsnapPointRef
 72
    13
331
E2
 73
     2
 91
        0
 40
0.0
 10
10783.93568229062
 20
-4164.883866320462
 30
0.0
 75
     0
  0
DIMASSOC
  5
FA
102
{ACAD_REACTORS
330
F9
102
}
330
F9
100
AcDbDimAssoc
330
F8
 90
        3
 70
     0
 71
     0
  1
AcDbOsnapPointRef
 72
    13
331
E2
 73
     2
 91
        0
 40
0.0
 10
10783.93568229062
 20
-4164.883866320462
 30
0.0
 75
     0
  1
AcDbOsnapPointRef
 72
     1
331
F4
 73
     2
 91
        0
 40
1.0
 10
10791.43568229062
 20
-4163.482603661989
 30
0.0
 75
     0
  0
DIMASSOC
  5
12C
102
{ACAD_REACTORS
330
12B
102
}
330
12B
100
AcDbDimAssoc
330
12A
 90
        3
 70
     0
 71
     0
  1
AcDbOsnapPointRef
 72
     1
331
13A
 73
     2
 91
        0
 40
1.0
 10
10789.93568229063
 20
-4066.18386732046
 30
0.0
 75
     0
  1
AcDbOsnapPointRef
 72
    13
331
11B
 73
     2
 91
        0
 40
0.0
 10
10864.93234929063
 20
-4034.883867320461
 30
0.0
 75
     0
  0
DIMASSOC
  5
143
102
{ACAD_REACTORS
330
142
102
}
330
142
100
AcDbDimAssoc
330
141
 90
        2
 70
     0
 71
     0
  1
AcDbOsnapPointRef
 72
     1
331
13A
 73
     2
 91
        0
 40
1.0
 10
10789.93568229063
 20
-4066.18386732046
 30
0.0
 75
     0
  0
DIMASSOC
  5
157
102
{ACAD_REACTORS
330
156
102
}
330
156
100
AcDbDimAssoc
330
155
 90
        3
 70
     0
 71
     0
  1
AcDbOsnapPointRef
 72
    13
331
10A
 73
     2
 91
        0
 40
0.0
 10
10864.93234929063
 20
-4034.883867320461
 30
0.0
 75
     0
  1
AcDbOsnapPointRef
 72
    13
331
C9
 73
     2
 91
        0
 40
0.0
 10
10892.93234929063
 20
-4042.883867320461
 30
0.0
 75
     0
  0
DIMASSOC
  5
190
102
{ACAD_REACTORS
330
18F
102
}
330
18F
100
AcDbDimAssoc
330
18E
 90
        2
 70
     0
 71
     0
  1
AcDbOsnapPointRef
 72
     3
331
18D
 73
     2
 91
        0
 40
0.0
 10
0.0
 20
0.0
 30
0.0
 75
     0
  0
LAYOUT
  5
17
102
{ACAD_XDICTIONARY
360
240
102
}
102
{ACAD_REACTORS
330
18
102
}
330
18
100
AcDbPlotSettings
  1

  2
none_device
  4
ISO_A4_(210.00_x_297.00_MM)
  6

 40
7.5
 41
20.0
 42
7.5
 43
20.0
 44
210.0
 45
297.0
 46
11.54999923706054
 47
-13.65000009536743
 48
0.0
 49
0.0
140
0.0
141
0.0
142
1.0
143
8.704084754739808
 70
 11952
 72
     1
 73
     0
 74
     0
  7

 75
     0
147
0.1148885871608098
148
0.0
149
0.0
100
AcDbLayout
  1
Model
 70
     1
 71
     0
 10
0.0
 20
0.0
 11
12.0
 21
9.0
 12
0.0
 22
0.0
 32
0.0
 14
0.0
 24
0.0
 34
0.0
 15
0.0
 25
0.0
 35
0.0
146
0.0
 13
0.0
 23
0.0
 33
0.0
 16
1.0
 26
0.0
 36
0.0
 17
0.0
 27
1.0
 37
0.0
 76
     0
330
2
331
2C
1001
ACAD_PSEXT
1000
None
1000
None
1000
Not applicable
1000
The layout will not be plotted unless a new plotter configuration name is selected.
1070
     0
  0
LAYOUT
  5
1F
102
{ACAD_XDICTIONARY
360
242
102
}
102
{ACAD_REACTORS
330
18
102
}
330
18
100
AcDbPlotSettings
  1

  2
C:\Documents and Settings\basas\Application Data\Autodesk\AutoCAD 2005\R16.1\enu\plotters\Default Windows System Printer.pc3
  4

  6

 40
0.0
 41
0.0
 42
0.0
 43
0.0
 44
0.0
 45
0.0
 46
0.0
 47
0.0
 48
0.0
 49
0.0
140
0.0
141
0.0
142
1.0
143
1.0
 70
   688
 72
     0
 73
     0
 74
     5
  7

 75
    16
147
1.0
148
0.0
149
0.0
100
AcDbLayout
  1
배치1
 70
     1
 71
     1
 10
0.0
 20
0.0
 11
12.0
 21
9.0
 12
0.0
 22
0.0
 32
0.0
 14
0.0
 24
0.0
 34
0.0
 15
0.0
 25
0.0
 35
0.0
146
0.0
 13
0.0
 23
0.0
 33
0.0
 16
1.0
 26
0.0
 36
0.0
 17
0.0
 27
1.0
 37
0.0
 76
     0
330
1A
  0
MATERIAL
  5
37
102
{ACAD_XDICTIONARY
360
220
102
}
102
{ACAD_REACTORS
330
E
102
}
330
E
100
AcDbMaterial
  1
ByBlock
  0
MATERIAL
  5
36
102
{ACAD_XDICTIONARY
360
21E
102
}
102
{ACAD_REACTORS
330
E
102
}
330
E
100
AcDbMaterial
  1
ByLayer
  0
MATERIAL
  5
D
102
{ACAD_XDICTIONARY
360
F
102
}
102
{ACAD_REACTORS
330
E
102
}
330
E
100
AcDbMaterial
  1
Global
 43
0.0007999999797903
 43
0.0
 43
0.0
 43
0.0
 43
0.0
 43
0.0007999999797903
 43
0.0
 43
0.0
 43
0.0
 43
0.0
 43
1.0
 43
0.0
 43
0.0
 43
0.0
 43
0.0
 43
1.0
 49
0.0007999999797903
 49
0.0
 49
0.0
 49
0.0
 49
0.0
 49
0.0007999999797903
 49
0.0
 49
0.0
 49
0.0
 49
0.0
 49
1.0
 49
0.0
 49
0.0
 49
0.0
 49
0.0
 49
1.0
142
0.0007999999797903
142
0.0
142
0.0
142
0.0
142
0.0
142
0.0007999999797903
142
0.0
142
0.0
142
0.0
142
0.0
142
1.0
142
0.0
142
0.0
142
0.0
142
0.0
142
1.0
144
0.0007999999797903
144
0.0
144
0.0
144
0.0
144
0.0
144
0.0007999999797903
144
0.0
144
0.0
144
0.0
144
0.0
144
1.0
144
0.0
144
0.0
144
0.0
144
0.0
144
1.0
1001
ACAD
1070
    -1
1070
     3
1070
     0
1000

1071
        0
1070
     0
  0
MLEADERSTYLE
  5
235
102
{ACAD_REACTORS
330
234
102
}
330
234
100
AcDbMLeaderStyle
170
     2
171
     1
172
     0
 90
        2
 40
0.0
 41
0.0
173
     1
 91
-1056964608
340
27
 92
       -2
290
     1
 42
2.0
291
     1
 43
0.36
  3
Standard
 44
4.0
300

342
24
174
     1
178
     6
175
     1
176
     0
 93
-1056964608
 45
4.0
292
     0
297
     0
 46
4.0
 94
-1056964608
 47
1.0
 49
1.0
140
1.0
293
     1
141
0.0
294
     1
177
     0
142
1.0
295
     0
296
     0
143
0.125
1001
ACAD_MLEADERVER
1070
     2
  0
MLINESTYLE
  5
3B
102
{ACAD_REACTORS
330
34
102
}
330
34
100
AcDbMlineStyle
  2
STANDARD
 70
     0
  3

 62
   256
 51
90.0
 52
90.0
 71
     2
 49
0.5
 62
   256
  6
BYLAYER
 49
-0.5
 62
   256
  6
BYLAYER
  0
ACDBPLACEHOLDER
  5
A
102
{ACAD_REACTORS
330
B
102
}
330
B
  0
SCALE
  5
43
102
{ACAD_REACTORS
330
39
102
}
330
39
100
AcDbScale
 70
     0
300
1:1
140
1.0
141
1.0
290
     1
  0
SCALE
  5
44
102
{ACAD_REACTORS
330
39
102
}
330
39
100
AcDbScale
 70
     0
300
1:2
140
1.0
141
2.0
290
     0
  0
SCALE
  5
45
102
{ACAD_REACTORS
330
39
102
}
330
39
100
AcDbScale
 70
     0
300
1:4
140
1.0
141
4.0
290
     0
  0
SCALE
  5
46
102
{ACAD_REACTORS
330
39
102
}
330
39
100
AcDbScale
 70
     0
300
1:5
140
1.0
141
5.0
290
     0
  0
SCALE
  5
47
102
{ACAD_REACTORS
330
39
102
}
330
39
100
AcDbScale
 70
     0
300
1:8
140
1.0
141
8.0
290
     0
  0
SCALE
  5
48
102
{ACAD_REACTORS
330
39
102
}
330
39
100
AcDbScale
 70
     0
300
1:10
140
1.0
141
10.0
290
     0
  0
SCALE
  5
49
102
{ACAD_REACTORS
330
39
102
}
330
39
100
AcDbScale
 70
     0
300
1:16
140
1.0
141
16.0
290
     0
  0
SCALE
  5
4A
102
{ACAD_REACTORS
330
39
102
}
330
39
100
AcDbScale
 70
     0
300
1:20
140
1.0
141
20.0
290
     0
  0
SCALE
  5
4B
102
{ACAD_REACTORS
330
39
102
}
330
39
100
AcDbScale
 70
     0
300
1:30
140
1.0
141
30.0
290
     0
  0
SCALE
  5
4C
102
{ACAD_REACTORS
330
39
102
}
330
39
100
AcDbScale
 70
     0
300
1:40
140
1.0
141
40.0
290
     0
  0
SCALE
  5
4D
102
{ACAD_REACTORS
330
39
102
}
330
39
100
AcDbScale
 70
     0
300
1:50
140
1.0
141
50.0
290
     0
  0
SCALE
  5
4E
102
{ACAD_REACTORS
330
39
102
}
330
39
100
AcDbScale
 70
     0
300
1:100
140
1.0
141
100.0
290
     0
  0
SCALE
  5
4F
102
{ACAD_REACTORS
330
39
102
}
330
39
100
AcDbScale
 70
     0
300
2:1
140
2.0
141
1.0
290
     0
  0
SCALE
  5
50
102
{ACAD_REACTORS
330
39
102
}
330
39
100
AcDbScale
 70
     0
300
4:1
140
4.0
141
1.0
290
     0
  0
SCALE
  5
51
102
{ACAD_REACTORS
330
39
102
}
330
39
100
AcDbScale
 70
     0
300
8:1
140
8.0
141
1.0
290
     0
  0
SCALE
  5
52
102
{ACAD_REACTORS
330
39
102
}
330
39
100
AcDbScale
 70
     0
300
10:1
140
10.0
141
1.0
290
     0
  0
SCALE
  5
53
102
{ACAD_REACTORS
330
39
102
}
330
39
100
AcDbScale
 70
     0
300
100:1
140
100.0
141
1.0
290
     0
  0
SCALE
  5
54
102
{ACAD_REACTORS
330
39
102
}
330
39
100
AcDbScale
 70
     0
300
1/128" = 1'-0"
140
0.0078125
141
12.0
290
     0
  0
SCALE
  5
55
102
{ACAD_REACTORS
330
39
102
}
330
39
100
AcDbScale
 70
     0
300
1/64" = 1'-0"
140
0.015625
141
12.0
290
     0
  0
SCALE
  5
56
102
{ACAD_REACTORS
330
39
102
}
330
39
100
AcDbScale
 70
     0
300
1/32" = 1'-0"
140
0.03125
141
12.0
290
     0
  0
SCALE
  5
57
102
{ACAD_REACTORS
330
39
102
}
330
39
100
AcDbScale
 70
     0
300
1/16" = 1'-0"
140
0.0625
141
12.0
290
     0
  0
SCALE
  5
58
102
{ACAD_REACTORS
330
39
102
}
330
39
100
AcDbScale
 70
     0
300
3/32" = 1'-0"
140
0.09375
141
12.0
290
     0
  0
SCALE
  5
59
102
{ACAD_REACTORS
330
39
102
}
330
39
100
AcDbScale
 70
     0
300
1/8" = 1'-0"
140
0.125
141
12.0
290
     0
  0
SCALE
  5
5A
102
{ACAD_REACTORS
330
39
102
}
330
39
100
AcDbScale
 70
     0
300
3/16" = 1'-0"
140
0.1875
141
12.0
290
     0
  0
SCALE
  5
5B
102
{ACAD_REACTORS
330
39
102
}
330
39
100
AcDbScale
 70
     0
300
1/4" = 1'-0"
140
0.25
141
12.0
290
     0
  0
SCALE
  5
5C
102
{ACAD_REACTORS
330
39
102
}
330
39
100
AcDbScale
 70
     0
300
3/8" = 1'-0"
140
0.375
141
12.0
290
     0
  0
SCALE
  5
5D
102
{ACAD_REACTORS
330
39
102
}
330
39
100
AcDbScale
 70
     0
300
1/2" = 1'-0"
140
0.5
141
12.0
290
     0
  0
SCALE
  5
5E
102
{ACAD_REACTORS
330
39
102
}
330
39
100
AcDbScale
 70
     0
300
3/4" = 1'-0"
140
0.75
141
12.0
290
     0
  0
SCALE
  5
5F
102
{ACAD_REACTORS
330
39
102
}
330
39
100
AcDbScale
 70
     0
300
1" = 1'-0"
140
1.0
141
12.0
290
     0
  0
SCALE
  5
60
102
{ACAD_REACTORS
330
39
102
}
330
39
100
AcDbScale
 70
     0
300
1-1/2" = 1'-0"
140
1.5
141
12.0
290
     0
  0
SCALE
  5
61
102
{ACAD_REACTORS
330
39
102
}
330
39
100
AcDbScale
 70
     0
300
3" = 1'-0"
140
3.0
141
12.0
290
     0
  0
SCALE
  5
62
102
{ACAD_REACTORS
330
39
102
}
330
39
100
AcDbScale
 70
     0
300
6" = 1'-0"
140
6.0
141
12.0
290
     0
  0
SCALE
  5
63
102
{ACAD_REACTORS
330
39
102
}
330
39
100
AcDbScale
 70
     0
300
1'-0" = 1'-0"
140
12.0
141
12.0
290
     0
  0
TABLESTYLE
  5
3C
102
{ACAD_XDICTIONARY
360
3D
102
}
102
{ACAD_REACTORS
330
3A
102
}
330
3A
100
AcDbTableStyle
  3
Standard
 70
     0
 71
     0
 40
1.5
 41
1.5
280
     0
281
     0
  7
Standard
140
4.5
170
     2
 62
     0
 63
     7
283
     0
274
    -2
284
     1
 64
     0
275
    -2
285
     1
 65
     0
276
    -2
286
     1
 66
     0
277
    -2
287
     1
 67
     0
278
    -2
288
     1
 68
     0
279
    -2
289
     1
 69
     0
  7
Standard
140
6.0
170
     5
 62
     0
 63
     7
283
     0
274
    -2
284
     1
 64
     0
275
    -2
285
     1
 65
     0
276
    -2
286
     1
 66
     0
277
    -2
287
     1
 67
     0
278
    -2
288
     1
 68
     0
279
    -2
289
     1
 69
     0
  7
Standard
140
4.5
170
     5
 62
     0
 63
     7
283
     0
274
    -2
284
     1
 64
     0
275
    -2
285
     1
 65
     0
276
    -2
286
     1
 66
     0
277
    -2
287
     1
 67
     0
278
    -2
288
     1
 68
     0
279
    -2
289
     1
 69
     0
  0
VISUALSTYLE
  5
2D
102
{ACAD_REACTORS
330
2E
102
}
330
2E
100
AcDbVisualStyle
  2
2dWireframe
 70
     4
 71
     0
 72
     2
 73
     1
 90
        0
 40
-0.6
 41
-30.0
 62
     5
 63
     7
 74
     1
 91
        4
 64
     7
 65
   257
 75
     1
175
     1
 42
1.0
 92
        0
 66
   257
 43
1.0
 76
     1
 77
     6
 78
     2
 67
     7
 79
     5
170
     0
171
     0
290
     0
174
     0
 93
        1
 44
0.0
173
     0
291
     0
 45
0.0
1001
ACAD
1000
AcDbSavedByObjectVersion
1070
     0
1000
AcDbSavedByObjectVersion
1070
     0
  0
VISUALSTYLE
  5
22C
102
{ACAD_REACTORS
330
2E
102
}
330
2E
100
AcDbVisualStyle
  2
3D Hidden
 70
     6
 71
     1
 72
     2
 73
     2
 90
        0
 40
-0.6
 41
-30.0
 62
     5
 63
     7
 74
     2
 91
        2
 64
     7
 65
   257
 75
     2
175
     1
 42
40.0
 92
        0
 66
   257
 43
1.0
 76
     1
 77
     6
 78
     2
 67
     7
 79
     3
170
     0
171
     0
290
     0
174
     0
 93
        1
 44
0.0
173
     0
291
     0
 45
0.0
1001
ACAD
1000
AcDbSavedByObjectVersion
1070
     0
  0
VISUALSTYLE
  5
3F
102
{ACAD_REACTORS
330
2E
102
}
330
2E
100
AcDbVisualStyle
  2
3dWireframe
 70
     5
 71
     0
 72
     2
 73
     1
 90
        0
 40
-0.6
 41
-30.0
 62
     5
 63
     7
 74
     1
 91
        4
 64
     7
 65
   257
 75
     1
175
     1
 42
1.0
 92
        0
 66
   257
 43
1.0
 76
     1
 77
     6
 78
     2
 67
     7
 79
     5
170
     0
171
     0
290
     0
174
     0
 93
        1
 44
0.0
173
     0
291
     0
 45
0.0
1001
ACAD
1000
AcDbSavedByObjectVersion
1070
     0
1000
AcDbSavedByObjectVersion
1070
     0
  0
VISUALSTYLE
  5
22B
102
{ACAD_REACTORS
330
2E
102
}
330
2E
100
AcDbVisualStyle
  2
Basic
 70
     7
 71
     1
 72
     0
 73
     1
 90
        0
 40
-0.6
 41
-30.0
 62
     5
 63
     7
 74
     0
 91
        4
 64
     7
 65
   257
 75
     1
175
     1
 42
1.0
 92
        8
 66
     7
 43
1.0
 76
     1
 77
     6
 78
     2
 67
     7
 79
     5
170
     0
171
     0
290
     0
174
     0
 93
        1
 44
0.0
173
     0
291
     1
 45
0.0
1001
ACAD
1000
AcDbSavedByObjectVersion
1070
     0
  0
VISUALSTYLE
  5
22F
102
{ACAD_REACTORS
330
2E
102
}
330
2E
100
AcDbVisualStyle
  2
Brighten
 70
    12
 71
     2
 72
     2
 73
     0
 90
        0
 40
-0.6
 41
-30.0
 62
     5
 63
     7
 74
     1
 91
        4
 64
     7
 65
   257
 75
     1
175
     1
 42
1.0
 92
        8
 66
     7
 43
1.0
 76
     1
 77
     6
 78
     2
 67
     7
 79
     5
170
     0
171
     0
290
     0
174
     0
 93
        1
 44
50.0
173
     0
291
     1
 45
0.0
1001
ACAD
1000
AcDbSavedByObjectVersion
1070
     0
  0
VISUALSTYLE
  5
233
102
{ACAD_REACTORS
330
2E
102
}
330
2E
100
AcDbVisualStyle
  2
ColorChange
 70
    16
 71
     2
 72
     2
 73
     3
 90
        0
 40
-0.6
 41
-30.0
 62
     5
 63
     8
 74
     1
 91
        4
 64
     7
 65
   257
 75
     1
175
     1
 42
1.0
 92
        8
 66
     8
 43
1.0
 76
     1
 77
     6
 78
     2
 67
     7
 79
     5
170
     0
171
     0
290
     0
174
     0
 93
        1
 44
0.0
173
     0
291
     1
 45
0.0
1001
ACAD
1000
AcDbSavedByObjectVersion
1070
     0
  0
VISUALSTYLE
  5
22D
102
{ACAD_REACTORS
330
2E
102
}
330
2E
100
AcDbVisualStyle
  2
Conceptual
 70
     9
 71
     3
 72
     2
 73
     0
 90
        0
 40
-0.6
 41
-30.0
 62
     5
 63
     7
 74
     2
 91
        2
 64
     7
 65
   257
 75
     1
175
     1
 42
40.0
 92
        8
 66
     7
 43
1.0
 76
     1
 77
     6
 78
     2
 67
     7
 79
     3
170
     0
171
     0
290
     0
174
     0
 93
        1
 44
0.0
173
     0
291
     0
 45
0.0
1001
ACAD
1000
AcDbSavedByObjectVersion
1070
     0
  0
VISUALSTYLE
  5
22E
102
{ACAD_REACTORS
330
2E
102
}
330
2E
100
AcDbVisualStyle
  2
Dim
 70
    11
 71
     2
 72
     2
 73
     0
 90
        0
 40
-0.6
 41
-30.0
 62
     5
 63
     7
 74
     1
 91
        4
 64
     7
 65
   257
 75
     1
175
     1
 42
1.0
 92
        8
 66
     7
 43
1.0
 76
     1
 77
     6
 78
     2
 67
     7
 79
     5
170
     0
171
     0
290
     0
174
     0
 93
        1
 44
-50.0
173
     0
291
     1
 45
0.0
1001
ACAD
1000
AcDbSavedByObjectVersion
1070
     0
  0
VISUALSTYLE
  5
232
102
{ACAD_REACTORS
330
2E
102
}
330
2E
100
AcDbVisualStyle
  2
Facepattern
 70
    15
 71
     2
 72
     2
 73
     0
 90
        0
 40
-0.6
 41
-30.0
 62
     5
 63
     7
 74
     1
 91
        4
 64
     7
 65
   257
 75
     1
175
     1
 42
1.0
 92
        8
 66
     7
 43
1.0
 76
     1
 77
     6
 78
     2
 67
     7
 79
     5
170
     0
171
     0
290
     0
174
     0
 93
        1
 44
0.0
173
     0
291
     1
 45
0.0
1001
ACAD
1000
AcDbSavedByObjectVersion
1070
     0
  0
VISUALSTYLE
  5
227
102
{ACAD_REACTORS
330
2E
102
}
330
2E
100
AcDbVisualStyle
  2
Flat
 70
     0
 71
     2
 72
     1
 73
     1
 90
        2
 40
-0.6
 41
30.0
 62
     5
 63
     7
 74
     0
 91
        4
 64
     7
 65
   257
 75
     1
175
     1
 42
1.0
 92
        8
 66
     7
 43
1.0
 76
     1
 77
     6
 78
     2
 67
     7
 79
     5
170
     0
171
     0
290
     0
174
     0
 93
       13
 44
0.0
173
     0
291
     1
 45
0.0
1001
ACAD
1000
AcDbSavedByObjectVersion
1070
     0
  0
VISUALSTYLE
  5
228
102
{ACAD_REACTORS
330
2E
102
}
330
2E
100
AcDbVisualStyle
  2
FlatWithEdges
 70
     1
 71
     2
 72
     1
 73
     1
 90
        2
 40
-0.6
 41
30.0
 62
     5
 63
     7
 74
     1
 91
        4
 64
     7
 65
   257
 75
     1
175
     1
 42
1.0
 92
        0
 66
   257
 43
1.0
 76
     1
 77
     6
 78
     2
 67
     7
 79
     5
170
     0
171
     0
290
     0
174
     0
 93
       13
 44
0.0
173
     0
291
     1
 45
0.0
1001
ACAD
1000
AcDbSavedByObjectVersion
1070
     0
  0
VISUALSTYLE
  5
229
102
{ACAD_REACTORS
330
2E
102
}
330
2E
100
AcDbVisualStyle
  2
Gouraud
 70
     2
 71
     2
 72
     2
 73
     1
 90
        2
 40
-0.6
 41
30.0
 62
     5
 63
     7
 74
     0
 91
        4
 64
     7
 65
   257
 75
     1
175
     1
 42
1.0
 92
        0
 66
     7
 43
1.0
 76
     1
 77
     6
 78
     2
 67
     7
 79
     5
170
     0
171
     0
290
     0
174
     0
 93
       13
 44
0.0
173
     0
291
     1
 45
0.0
1001
ACAD
1000
AcDbSavedByObjectVersion
1070
     0
  0
VISUALSTYLE
  5
22A
102
{ACAD_REACTORS
330
2E
102
}
330
2E
100
AcDbVisualStyle
  2
GouraudWithEdges
 70
     3
 71
     2
 72
     2
 73
     1
 90
        2
 40
-0.6
 41
30.0
 62
     5
 63
     7
 74
     1
 91
        4
 64
     7
 65
   257
 75
     1
175
     1
 42
1.0
 92
        0
 66
   257
 43
1.0
 76
     1
 77
     6
 78
     2
 67
     7
 79
     5
170
     0
171
     0
290
     0
174
     0
 93
       13
 44
0.0
173
     0
291
     1
 45
0.0
1001
ACAD
1000
AcDbSavedByObjectVersion
1070
     0
  0
VISUALSTYLE
  5
231
102
{ACAD_REACTORS
330
2E
102
}
330
2E
100
AcDbVisualStyle
  2
Linepattern
 70
    14
 71
     2
 72
     2
 73
     0
 90
        0
 40
-0.6
 41
-30.0
 62
     5
 63
     7
 74
     1
 91
        4
 64
     7
 65
   257
 75
     7
175
     7
 42
1.0
 92
        8
 66
     7
 43
1.0
 76
     1
 77
     6
 78
     2
 67
     7
 79
     5
170
     0
171
     0
290
     0
174
     0
 93
        1
 44
0.0
173
     0
291
     1
 45
0.0
1001
ACAD
1000
AcDbSavedByObjectVersion
1070
     0
  0
VISUALSTYLE
  5
3E
102
{ACAD_REACTORS
330
2E
102
}
330
2E
100
AcDbVisualStyle
  2
Realistic
 70
     8
 71
     2
 72
     2
 73
     1
 90
        0
 40
-0.6
 41
-30.0
 62
     5
 63
     7
 74
     1
 91
        0
 64
     7
 65
   257
 75
     1
175
     1
 42
1.0
 92
        8
 66
     8
 43
1.0
 76
     1
 77
     6
 78
     2
 67
     7
 79
     5
170
     0
171
     0
290
     0
174
     0
 93
       13
 44
0.0
173
     0
291
     0
 45
0.0
1001
ACAD
1000
AcDbSavedByObjectVersion
1070
     0
1000
AcDbSavedByObjectVersion
1070
     0
  0
VISUALSTYLE
  5
230
102
{ACAD_REACTORS
330
2E
102
}
330
2E
100
AcDbVisualStyle
  2
Thicken
 70
    13
 71
     2
 72
     2
 73
     0
 90
        0
 40
-0.6
 41
-30.0
 62
     5
 63
     7
 74
     1
 91
        4
 64
     7
 65
   257
 75
     1
175
     1
 42
1.0
 92
       12
 66
     7
 43
1.0
 76
     1
 77
     6
 78
     2
 67
     7
 79
     5
170
     0
171
     0
290
     0
174
     0
 93
        1
 44
0.0
173
     0
291
     1
 45
0.0
1001
ACAD
1000
AcDbSavedByObjectVersion
1070
     0
  0
DICTIONARYVAR
  5
20F
102
{ACAD_REACTORS
330
20B
102
}
330
20B
100
DictionaryVariables
280
     0
  1
1:1
  0
DICTIONARYVAR
  5
20D
102
{ACAD_REACTORS
330
20B
102
}
330
20B
100
DictionaryVariables
280
     0
  1
STANDARD
  0
DICTIONARYVAR
  5
20C
102
{ACAD_REACTORS
330
20B
102
}
330
20B
100
DictionaryVariables
280
     0
  1
STANDARD
  0
DICTIONARYVAR
  5
214
102
{ACAD_REACTORS
330
20B
102
}
330
20B
100
DictionaryVariables
280
     0
  1
2
  0
DICTIONARYVAR
  5
213
102
{ACAD_REACTORS
330
20B
102
}
330
20B
100
DictionaryVariables
280
     0
  1
1
  0
DICTIONARYVAR
  5
212
102
{ACAD_REACTORS
330
20B
102
}
330
20B
100
DictionaryVariables
280
     0
  1
0
  0
DICTIONARYVAR
  5
210
102
{ACAD_REACTORS
330
20B
102
}
330
20B
100
DictionaryVariables
280
     0
  1
2
  0
DICTIONARYVAR
  5
20E
102
{ACAD_REACTORS
330
20B
102
}
330
20B
100
DictionaryVariables
280
     0
  1
1
  0
DICTIONARYVAR
  5
23D
102
{ACAD_REACTORS
330
20B
102
}
330
20B
100
DictionaryVariables
280
     0
  1
80.000000
  0
DICTIONARYVAR
  5
23C
102
{ACAD_REACTORS
330
20B
102
}
330
20B
100
DictionaryVariables
280
     0
  1
5.000000
  0
DICTIONARYVAR
  5
211
102
{ACAD_REACTORS
330
20B
102
}
330
20B
100
DictionaryVariables
280
     0
  1
127
  0
DICTIONARY
  5
240
330
17
100
AcDbDictionary
280
     1
281
     1
  3
ACAD_XREC_ROUNDTRIP
360
241
  0
DICTIONARY
  5
242
330
1F
100
AcDbDictionary
280
     1
281
     1
  3
ACAD_XREC_ROUNDTRIP
360
243
  0
DICTIONARY
  5
220
330
37
100
AcDbDictionary
280
     1
281
     1
  3
ACAD_XREC_ROUNDTRIP
360
221
  0
DICTIONARY
  5
21E
330
36
100
AcDbDictionary
280
     1
281
     1
  3
ACAD_XREC_ROUNDTRIP
360
21F
  0
DICTIONARY
  5
F
330
D
100
AcDbDictionary
280
     1
281
     1
  3
ACAD_XREC_ROUNDTRIP
360
219
  3
BUMPTILE
360
10
  3
DIFFUSETILE
360
11
  3
OPACITYTILE
360
12
  3
REFLECTIONTILE
360
13
  0
DICTIONARY
  5
3D
330
3C
100
AcDbDictionary
280
     1
281
     1
  3
ACAD_ROUNDTRIP_2008_TABLESTYLE_CELLSTYLEMAP
360
23E
  3
ACAD_XREC_ROUNDTRIP
360
244
  0
XRECORD
  5
241
102
{ACAD_REACTORS
330
240
102
}
330
240
100
AcDbXrecord
280
     1
102
SHADEPLOT
 70
     0
102
SHADEPLOTRESLEVEL
 70
     2
102
SHADEPLOTCUSTOMDPI
 70
   300
  0
XRECORD
  5
243
102
{ACAD_REACTORS
330
242
102
}
330
242
100
AcDbXrecord
280
     1
102
SHADEPLOT
 70
     0
102
SHADEPLOTRESLEVEL
 70
     2
102
SHADEPLOTCUSTOMDPI
 70
   300
  0
XRECORD
  5
221
102
{ACAD_REACTORS
330
220
102
}
330
220
100
AcDbXrecord
280
     1
102
MATERIAL
148
0.0
149
0.0
149
0.0
 93
        0
 94
      127
282
     0
 72
     1
 77
     1
171
     1
175
     1
179
     1
273
     0
  0
XRECORD
  5
21F
102
{ACAD_REACTORS
330
21E
102
}
330
21E
100
AcDbXrecord
280
     1
102
MATERIAL
148
0.0
149
0.0
149
0.0
 93
        0
 94
      127
282
     0
 72
     1
 77
     1
171
     1
175
     1
179
     1
273
     0
  0
XRECORD
  5
219
102
{ACAD_REACTORS
330
F
102
}
330
F
100
AcDbXrecord
280
     1
102
MATERIAL
148
0.0
149
0.0
149
0.0
 93
        0
 94
      127
282
     0
 72
     1
 77
     1
171
     1
175
     1
179
     1
273
     0
  0
XRECORD
  5
10
102
{ACAD_REACTORS
330
F
102
}
330
F
100
AcDbXrecord
280
     1
270
     1
271
     1
  0
XRECORD
  5
11
102
{ACAD_REACTORS
330
F
102
}
330
F
100
AcDbXrecord
280
     1
270
     1
271
     1
  0
XRECORD
  5
12
102
{ACAD_REACTORS
330
F
102
}
330
F
100
AcDbXrecord
280
     1
270
     1
271
     1
  0
XRECORD
  5
13
102
{ACAD_REACTORS
330
F
102
}
330
F
100
AcDbXrecord
280
     1
270
     1
271
     1
  0
CELLSTYLEMAP
  5
23E
102
{ACAD_REACTORS
330
3D
102
}
330
3D
100
AcDbCellStyleMap
 90
        3
300
CELLSTYLE
  1
TABLEFORMAT_BEGIN
 90
        5
170
     1
 91
        0
 92
    32768
 62
   257
 93
        1
300
CONTENTFORMAT
  1
CONTENTFORMAT_BEGIN
 90
        0
 91
        0
 92
      512
 93
        0
300

 40
0.0
140
1.0
 94
        5
 62
     0
340
24
144
6.0
309
CONTENTFORMAT_END
171
     1
301
MARGIN
  1
CELLMARGIN_BEGIN
 40
1.5
 40
1.5
 40
1.5
 40
1.5
 40
0.18
 40
0.18
309
CELLMARGIN_END
 94
        6
 95
        1
302
GRIDFORMAT
  1
GRIDFORMAT_BEGIN
 90
        0
 91
        1
 62
     0
 92
       -2
340
27
 93
        0
 40
1.125
309
GRIDFORMAT_END
 95
        2
302
GRIDFORMAT
  1
GRIDFORMAT_BEGIN
 90
        0
 91
        1
 62
     0
 92
       -2
340
27
 93
        0
 40
1.125
309
GRIDFORMAT_END
 95
        4
302
GRIDFORMAT
  1
GRIDFORMAT_BEGIN
 90
        0
 91
        1
 62
     0
 92
       -2
340
27
 93
        0
 40
1.125
309
GRIDFORMAT_END
 95
        8
302
GRIDFORMAT
  1
GRIDFORMAT_BEGIN
 90
        0
 91
        1
 62
     0
 92
       -2
340
27
 93
        0
 40
1.125
309
GRIDFORMAT_END
 95
       16
302
GRIDFORMAT
  1
GRIDFORMAT_BEGIN
 90
        0
 91
        1
 62
     0
 92
       -2
340
27
 93
        0
 40
1.125
309
GRIDFORMAT_END
 95
       32
302
GRIDFORMAT
  1
GRIDFORMAT_BEGIN
 90
        0
 91
        1
 62
     0
 92
       -2
340
27
 93
        0
 40
1.125
309
GRIDFORMAT_END
309
TABLEFORMAT_END
  1
CELLSTYLE_BEGIN
 90
        1
 91
        1
300
_TITLE
309
CELLSTYLE_END
300
CELLSTYLE
  1
TABLEFORMAT_BEGIN
 90
        5
170
     1
 91
        0
 92
        0
 62
   257
 93
        1
300
CONTENTFORMAT
  1
CONTENTFORMAT_BEGIN
 90
        0
 91
        0
 92
      512
 93
        0
300

 40
0.0
140
1.0
 94
        5
 62
     0
340
24
144
4.5
309
CONTENTFORMAT_END
171
     1
301
MARGIN
  1
CELLMARGIN_BEGIN
 40
1.5
 40
1.5
 40
1.5
 40
1.5
 40
0.18
 40
0.18
309
CELLMARGIN_END
 94
        6
 95
        1
302
GRIDFORMAT
  1
GRIDFORMAT_BEGIN
 90
        0
 91
        1
 62
     0
 92
       -2
340
27
 93
        0
 40
1.125
309
GRIDFORMAT_END
 95
        2
302
GRIDFORMAT
  1
GRIDFORMAT_BEGIN
 90
        0
 91
        1
 62
     0
 92
       -2
340
27
 93
        0
 40
1.125
309
GRIDFORMAT_END
 95
        4
302
GRIDFORMAT
  1
GRIDFORMAT_BEGIN
 90
        0
 91
        1
 62
     0
 92
       -2
340
27
 93
        0
 40
1.125
309
GRIDFORMAT_END
 95
        8
302
GRIDFORMAT
  1
GRIDFORMAT_BEGIN
 90
        0
 91
        1
 62
     0
 92
       -2
340
27
 93
        0
 40
1.125
309
GRIDFORMAT_END
 95
       16
302
GRIDFORMAT
  1
GRIDFORMAT_BEGIN
 90
        0
 91
        1
 62
     0
 92
       -2
340
27
 93
        0
 40
1.125
309
GRIDFORMAT_END
 95
       32
302
GRIDFORMAT
  1
GRIDFORMAT_BEGIN
 90
        0
 91
        1
 62
     0
 92
       -2
340
27
 93
        0
 40
1.125
309
GRIDFORMAT_END
309
TABLEFORMAT_END
  1
CELLSTYLE_BEGIN
 90
        2
 91
        1
300
_HEADER
309
CELLSTYLE_END
300
CELLSTYLE
  1
TABLEFORMAT_BEGIN
 90
        5
170
     1
 91
        0
 92
        0
 62
   257
 93
        1
300
CONTENTFORMAT
  1
CONTENTFORMAT_BEGIN
 90
        0
 91
        0
 92
      512
 93
        0
300

 40
0.0
140
1.0
 94
        2
 62
     0
340
24
144
4.5
309
CONTENTFORMAT_END
171
     1
301
MARGIN
  1
CELLMARGIN_BEGIN
 40
1.5
 40
1.5
 40
1.5
 40
1.5
 40
0.18
 40
0.18
309
CELLMARGIN_END
 94
        6
 95
        1
302
GRIDFORMAT
  1
GRIDFORMAT_BEGIN
 90
        0
 91
        1
 62
     0
 92
       -2
340
27
 93
        0
 40
1.125
309
GRIDFORMAT_END
 95
        2
302
GRIDFORMAT
  1
GRIDFORMAT_BEGIN
 90
        0
 91
        1
 62
     0
 92
       -2
340
27
 93
        0
 40
1.125
309
GRIDFORMAT_END
 95
        4
302
GRIDFORMAT
  1
GRIDFORMAT_BEGIN
 90
        0
 91
        1
 62
     0
 92
       -2
340
27
 93
        0
 40
1.125
309
GRIDFORMAT_END
 95
        8
302
GRIDFORMAT
  1
GRIDFORMAT_BEGIN
 90
        0
 91
        1
 62
     0
 92
       -2
340
27
 93
        0
 40
1.125
309
GRIDFORMAT_END
 95
       16
302
GRIDFORMAT
  1
GRIDFORMAT_BEGIN
 90
        0
 91
        1
 62
     0
 92
       -2
340
27
 93
        0
 40
1.125
309
GRIDFORMAT_END
 95
       32
302
GRIDFORMAT
  1
GRIDFORMAT_BEGIN
 90
        0
 91
        1
 62
     0
 92
       -2
340
27
 93
        0
 40
1.125
309
GRIDFORMAT_END
309
TABLEFORMAT_END
  1
CELLSTYLE_BEGIN
 90
        3
 91
        2
300
_DATA
309
CELLSTYLE_END
  0
XRECORD
  5
244
102
{ACAD_REACTORS
330
3D
102
}
330
3D
100
AcDbXrecord
280
     1
102
ACAD_ROUNDTRIP_PRE2007_TABLESTYLE
 90
      512
 91
        0
  1

 92
      512
 93
        0
  2

 94
      512
 95
        0
  3

  0
ENDSEC
  0
EOF
