  0
SECTION
  2
HEADER
  9
$ACADVER
  1
AC1014
  9
$ACADMAINTVER
 70
     9
  9
$DWGCODEPAGE
  3
ANSI_949
  9
$INSBASE
 10
0.0
 20
0.0
 30
0.0
  9
$EXTMIN
 10
-17.90805666647793
 20
13.72024592171465
 30
-0.0000000349181948
  9
$EXTMAX
 10
410.4714958305533
 20
355.9378529722351
 30
0.0000000814935747
  9
$LIMMIN
 10
0.0
 20
0.0
  9
$LIMMAX
 10
420.0
 20
297.0
  9
$ORTHOMODE
 70
     0
  9
$REGENMODE
 70
     1
  9
$FILLMODE
 70
     1
  9
$QTEXTMODE
 70
     0
  9
$MIRRTEXT
 70
     0
  9
$DRAGMODE
 70
     2
  9
$LTSCALE
 40
0.2
  9
$OSMODE
 70
  3071
  9
$ATTMODE
 70
     1
  9
$TEXTSIZE
 40
5.777225951253058
  9
$TRACEWID
 40
1.0
  9
$TEXTSTYLE
  7
STANDARD
  9
$CLAYER
  8
0
  9
$CELTYPE
  6
BYLAYER
  9
$CECOLOR
 62
   256
  9
$CELTSCALE
 40
1.0
  9
$DELOBJ
 70
     1
  9
$DISPSILH
 70
     0
  9
$DIMSCALE
 40
1.0
  9
$DIMASZ
 40
3.0
  9
$DIMEXO
 40
1.0
  9
$DIMDLI
 40
10.0
  9
$DIMRND
 40
0.0
  9
$DIMDLE
 40
0.0
  9
$DIMEXE
 40
0.6
  9
$DIMTP
 40
0.0
  9
$DIMTM
 40
0.0
  9
$DIMTXT
 40
3.5
  9
$DIMCEN
 40
0.09
  9
$DIMTSZ
 40
0.0
  9
$DIMTOL
 70
     0
  9
$DIMLIM
 70
     0
  9
$DIMTIH
 70
     0
  9
$DIMTOH
 70
     0
  9
$DIMSE1
 70
     0
  9
$DIMSE2
 70
     0
  9
$DIMTAD
 70
     1
  9
$DIMZIN
 70
     8
  9
$DIMBLK
  1

  9
$DIMASO
 70
     1
  9
$DIMSHO
 70
     1
  9
$DIMPOST
  1

  9
$DIMAPOST
  1

  9
$DIMALT
 70
     0
  9
$DIMALTD
 70
     2
  9
$DIMALTF
 40
25.4
  9
$DIMLFAC
 40
1.0
  9
$DIMTOFL
 70
     1
  9
$DIMTVP
 40
0.0
  9
$DIMTIX
 70
     1
  9
$DIMSOXD
 70
     0
  9
$DIMSAH
 70
     0
  9
$DIMBLK1
  1

  9
$DIMBLK2
  1

  9
$DIMSTYLE
  2
1_1_2
  9
$DIMCLRD
 70
   123
  9
$DIMCLRE
 70
   123
  9
$DIMCLRT
 70
     3
  9
$DIMTFAC
 40
1.0
  9
$DIMGAP
 40
1.0
  9
$DIMJUST
 70
     0
  9
$DIMSD1
 70
     0
  9
$DIMSD2
 70
     0
  9
$DIMTOLJ
 70
     1
  9
$DIMTZIN
 70
     0
  9
$DIMALTZ
 70
     0
  9
$DIMALTTZ
 70
     0
  9
$DIMFIT
 70
     3
  9
$DIMUPT
 70
     1
  9
$DIMUNIT
 70
     2
  9
$DIMDEC
 70
     2
  9
$DIMTDEC
 70
     2
  9
$DIMALTU
 70
     2
  9
$DIMALTTD
 70
     2
  9
$DIMTXSTY
  7
STANDARD
  9
$DIMAUNIT
 70
     1
  9
$LUNITS
 70
     2
  9
$LUPREC
 70
     4
  9
$SKETCHINC
 40
1.0
  9
$FILLETRAD
 40
0.5
  9
$AUNITS
 70
     0
  9
$AUPREC
 70
     0
  9
$MENU
  1
.
  9
$ELEVATION
 40
0.0
  9
$PELEVATION
 40
0.0
  9
$THICKNESS
 40
0.0
  9
$LIMCHECK
 70
     0
  9
$BLIPMODE
 70
     0
  9
$CHAMFERA
 40
1.0
  9
$CHAMFERB
 40
1.0
  9
$CHAMFERC
 40
20.0
  9
$CHAMFERD
 40
0.0
  9
$SKPOLY
 70
     0
  9
$TDCREATE
 40
2452839.586179271
  9
$TDUPDATE
 40
2453384.784529780
  9
$TDINDWG
 40
11.1168483565
  9
$TDUSRTIMER
 40
11.1168479977
  9
$USRTIMER
 70
     1
  9
$ANGBASE
 50
0.0
  9
$ANGDIR
 70
     0
  9
$PDMODE
 70
     0
  9
$PDSIZE
 40
0.0
  9
$PLINEWID
 40
0.0
  9
$COORDS
 70
     1
  9
$SPLFRAME
 70
     0
  9
$SPLINETYPE
 70
     6
  9
$SPLINESEGS
 70
   800
  9
$ATTDIA
 70
     0
  9
$ATTREQ
 70
     1
  9
$HANDLING
 70
 22529
  9
$HANDSEED
  5
48E
  9
$SURFTAB1
 70
     6
  9
$SURFTAB2
 70
     6
  9
$SURFTYPE
 70
     6
  9
$SURFU
 70
     6
  9
$SURFV
 70
     6
  9
$UCSNAME
  2

  9
$UCSORG
 10
0.0
 20
0.0
 30
0.0
  9
$UCSXDIR
 10
1.0
 20
0.0
 30
0.0
  9
$UCSYDIR
 10
0.0
 20
1.0
 30
0.0
  9
$PUCSNAME
  2

  9
$PUCSORG
 10
0.0
 20
0.0
 30
0.0
  9
$PUCSXDIR
 10
1.0
 20
0.0
 30
0.0
  9
$PUCSYDIR
 10
0.0
 20
1.0
 30
0.0
  9
$USERI1
 70
     0
  9
$USERI2
 70
     0
  9
$USERI3
 70
     0
  9
$USERI4
 70
     0
  9
$USERI5
 70
     0
  9
$USERR1
 40
0.0
  9
$USERR2
 40
0.0
  9
$USERR3
 40
0.0
  9
$USERR4
 40
0.0
  9
$USERR5
 40
0.0
  9
$WORLDVIEW
 70
     1
  9
$SHADEDGE
 70
     3
  9
$SHADEDIF
 70
    70
  9
$TILEMODE
 70
     1
  9
$MAXACTVP
 70
    48
  9
$PINSBASE
 10
0.0
 20
0.0
 30
0.0
  9
$PLIMCHECK
 70
     0
  9
$PEXTMIN
 10
0.0
 20
0.0
 30
0.0
  9
$PEXTMAX
 10
0.0
 20
0.0
 30
0.0
  9
$PLIMMIN
 10
0.0
 20
0.0
  9
$PLIMMAX
 10
12.0
 20
9.0
  9
$UNITMODE
 70
     0
  9
$VISRETAIN
 70
     1
  9
$PLINEGEN
 70
     0
  9
$PSLTSCALE
 70
     1
  9
$TREEDEPTH
 70
  3020
  9
$PICKSTYLE
 70
     1
  9
$CMLSTYLE
  2
STANDARD
  9
$CMLJUST
 70
     0
  9
$CMLSCALE
 40
20.0
  9
$PROXYGRAPHICS
 70
     1
  9
$MEASUREMENT
 70
     1
  0
ENDSEC
  0
SECTION
  2
CLASSES
  0
CLASS
  1
ACDBDICTIONARYWDFLT
  2
AcDbDictionaryWithDefault
  3
AutoCAD 2000
 90
        0
280
     0
281
     0
  0
CLASS
  1
ACDBPLACEHOLDER
  2
AcDbPlaceHolder
  3
AutoCAD 2000
 90
        0
280
     0
281
     0
  0
CLASS
  1
LAYOUT
  2
AcDbLayout
  3
AutoCAD 2000
 90
        0
280
     0
281
     0
  0
CLASS
  1
DICTIONARYVAR
  2
AcDbDictionaryVar
  3
AutoCAD 2000
 90
        0
280
     0
281
     0
  0
CLASS
  1
DIMASSOC
  2
AcDbDimAssoc
  3
"AcDbDimAssoc|Product Desc:     AcDim ARX App For Dimension|Company:          Autodesk, Inc.|WEB Address:      www.autodesk.com"
 90
        0
280
     0
281
     0
  0
CLASS
  1
LONG_TRANSACTION
  2
AcDbLongTransaction
  3
AutoCAD 2000
 90
        0
280
     0
281
     0
  0
CLASS
  1
LWPOLYLINE
  2
AcDbPolyline
  3
AutoCAD 2000
 90
        0
280
     0
281
     1
  0
CLASS
  1
HATCH
  2
AcDbHatch
  3
AutoCAD 2000
 90
        0
280
     0
281
     1
  0
CLASS
  1
XRECORD
  2
AcDbXrecord
  3
AutoCAD 2000
 90
        0
280
     0
281
     0
  0
CLASS
  1
LONG_TRANSACTION
  2
AcDbLongTransaction
  3
AutoCAD 2000
 90
        0
280
     0
281
     0
  0
CLASS
  1
LWPOLYLINE
  2
AcDbPolyline
  3
AutoCAD 2000
 90
        0
280
     0
281
     1
  0
CLASS
  1
HATCH
  2
AcDbHatch
  3
AutoCAD 2000
 90
        0
280
     0
281
     1
  0
CLASS
  1
XRECORD
  2
AcDbXrecord
  3
AutoCAD 2000
 90
        0
280
     0
281
     0
  0
CLASS
  1
LONG_TRANSACTION
  2
AcDbLongTransaction
  3
AutoCAD 2000
 90
        0
280
     0
281
     0
  0
CLASS
  1
LWPOLYLINE
  2
AcDbPolyline
  3
AutoCAD 2000
 90
        0
280
     0
281
     1
  0
CLASS
  1
HATCH
  2
AcDbHatch
  3
AutoCAD 2000
 90
        0
280
     0
281
     1
  0
CLASS
  1
XRECORD
  2
AcDbXrecord
  3
AutoCAD 2000
 90
        0
280
     0
281
     0
  0
CLASS
  1
LONG_TRANSACTION
  2
AcDbLongTransaction
  3
AutoCAD 2000
 90
        0
280
     0
281
     0
  0
CLASS
  1
LWPOLYLINE
  2
AcDbPolyline
  3
AutoCAD 2000
 90
        0
280
     0
281
     1
  0
CLASS
  1
HATCH
  2
AcDbHatch
  3
AutoCAD 2000
 90
        0
280
     0
281
     1
  0
CLASS
  1
XRECORD
  2
AcDbXrecord
  3
AutoCAD 2000
 90
        0
280
     0
281
     0
  0
CLASS
  1
LONG_TRANSACTION
  2
AcDbLongTransaction
  3
AutoCAD 2000
 90
        0
280
     0
281
     0
  0
CLASS
  1
LWPOLYLINE
  2
AcDbPolyline
  3
AutoCAD 2000
 90
        0
280
     0
281
     1
  0
CLASS
  1
HATCH
  2
AcDbHatch
  3
AutoCAD 2000
 90
        0
280
     0
281
     1
  0
CLASS
  1
XRECORD
  2
AcDbXrecord
  3
AutoCAD 2000
 90
        0
280
     0
281
     0
  0
CLASS
  1
LONG_TRANSACTION
  2
AcDbLongTransaction
  3
AutoCAD 2000
 90
        0
280
     0
281
     0
  0
CLASS
  1
LWPOLYLINE
  2
AcDbPolyline
  3
AutoCAD 2000
 90
        0
280
     0
281
     1
  0
CLASS
  1
HATCH
  2
AcDbHatch
  3
AutoCAD 2000
 90
        0
280
     0
281
     1
  0
CLASS
  1
XRECORD
  2
AcDbXrecord
  3
AutoCAD 2000
 90
        0
280
     0
281
     0
  0
CLASS
  1
LONG_TRANSACTION
  2
AcDbLongTransaction
  3
AutoCAD 2000
 90
        0
280
     0
281
     0
  0
CLASS
  1
LWPOLYLINE
  2
AcDbPolyline
  3
AutoCAD 2000
 90
        0
280
     0
281
     1
  0
CLASS
  1
HATCH
  2
AcDbHatch
  3
AutoCAD 2000
 90
        0
280
     0
281
     1
  0
CLASS
  1
XRECORD
  2
AcDbXrecord
  3
AutoCAD 2000
 90
        0
280
     0
281
     0
  0
CLASS
  1
LONG_TRANSACTION
  2
AcDbLongTransaction
  3
AutoCAD 2000
 90
        0
280
     0
281
     0
  0
CLASS
  1
LWPOLYLINE
  2
AcDbPolyline
  3
AutoCAD 2000
 90
        0
280
     0
281
     1
  0
CLASS
  1
HATCH
  2
AcDbHatch
  3
AutoCAD 2000
 90
        0
280
     0
281
     1
  0
CLASS
  1
XRECORD
  2
AcDbXrecord
  3
AutoCAD 2000
 90
        0
280
     0
281
     0
  0
CLASS
  1
LONG_TRANSACTION
  2
AcDbLongTransaction
  3
AutoCAD 2000
 90
        0
280
     0
281
     0
  0
CLASS
  1
LWPOLYLINE
  2
AcDbPolyline
  3
AutoCAD 2000
 90
        0
280
     0
281
     1
  0
CLASS
  1
HATCH
  2
AcDbHatch
  3
AutoCAD 2000
 90
        0
280
     0
281
     1
  0
CLASS
  1
XRECORD
  2
AcDbXrecord
  3
AutoCAD 2000
 90
        0
280
     0
281
     0
  0
CLASS
  1
LONG_TRANSACTION
  2
AcDbLongTransaction
  3
AutoCAD 2000
 90
        0
280
     0
281
     0
  0
CLASS
  1
LWPOLYLINE
  2
AcDbPolyline
  3
AutoCAD 2000
 90
        0
280
     0
281
     1
  0
CLASS
  1
HATCH
  2
AcDbHatch
  3
AutoCAD 2000
 90
        0
280
     0
281
     1
  0
CLASS
  1
XRECORD
  2
AcDbXrecord
  3
AutoCAD 2000
 90
        0
280
     0
281
     0
  0
CLASS
  1
LONG_TRANSACTION
  2
AcDbLongTransaction
  3
AutoCAD 2000
 90
        0
280
     0
281
     0
  0
CLASS
  1
LWPOLYLINE
  2
AcDbPolyline
  3
AutoCAD 2000
 90
        0
280
     0
281
     1
  0
CLASS
  1
HATCH
  2
AcDbHatch
  3
AutoCAD 2000
 90
        0
280
     0
281
     1
  0
CLASS
  1
XRECORD
  2
AcDbXrecord
  3
AutoCAD 2000
 90
        0
280
     0
281
     0
  0
CLASS
  1
LONG_TRANSACTION
  2
AcDbLongTransaction
  3
AutoCAD 2000
 90
        0
280
     0
281
     0
  0
CLASS
  1
LWPOLYLINE
  2
AcDbPolyline
  3
AutoCAD 2000
 90
        0
280
     0
281
     1
  0
CLASS
  1
HATCH
  2
AcDbHatch
  3
AutoCAD 2000
 90
        0
280
     0
281
     1
  0
CLASS
  1
XRECORD
  2
AcDbXrecord
  3
AutoCAD 2000
 90
        0
280
     0
281
     0
  0
CLASS
  1
LONG_TRANSACTION
  2
AcDbLongTransaction
  3
AutoCAD 2000
 90
        0
280
     0
281
     0
  0
CLASS
  1
LWPOLYLINE
  2
AcDbPolyline
  3
AutoCAD 2000
 90
        0
280
     0
281
     1
  0
CLASS
  1
HATCH
  2
AcDbHatch
  3
AutoCAD 2000
 90
        0
280
     0
281
     1
  0
CLASS
  1
XRECORD
  2
AcDbXrecord
  3
AutoCAD 2000
 90
        0
280
     0
281
     0
  0
CLASS
  1
LONG_TRANSACTION
  2
AcDbLongTransaction
  3
AutoCAD 2000
 90
        0
280
     0
281
     0
  0
CLASS
  1
LWPOLYLINE
  2
AcDbPolyline
  3
AutoCAD 2000
 90
        0
280
     0
281
     1
  0
CLASS
  1
HATCH
  2
AcDbHatch
  3
AutoCAD 2000
 90
        0
280
     0
281
     1
  0
CLASS
  1
XRECORD
  2
AcDbXrecord
  3
AutoCAD 2000
 90
        0
280
     0
281
     0
  0
CLASS
  1
LONG_TRANSACTION
  2
AcDbLongTransaction
  3
AutoCAD 2000
 90
        0
280
     0
281
     0
  0
CLASS
  1
LWPOLYLINE
  2
AcDbPolyline
  3
AutoCAD 2000
 90
        0
280
     0
281
     1
  0
CLASS
  1
HATCH
  2
AcDbHatch
  3
AutoCAD 2000
 90
        0
280
     0
281
     1
  0
CLASS
  1
XRECORD
  2
AcDbXrecord
  3
AutoCAD 2000
 90
        0
280
     0
281
     0
  0
CLASS
  1
LONG_TRANSACTION
  2
AcDbLongTransaction
  3
AutoCAD 2000
 90
        0
280
     0
281
     0
  0
CLASS
  1
LWPOLYLINE
  2
AcDbPolyline
  3
AutoCAD 2000
 90
        0
280
     0
281
     1
  0
CLASS
  1
HATCH
  2
AcDbHatch
  3
AutoCAD 2000
 90
        0
280
     0
281
     1
  0
CLASS
  1
XRECORD
  2
AcDbXrecord
  3
AutoCAD 2000
 90
        0
280
     0
281
     0
  0
CLASS
  1
LONG_TRANSACTION
  2
AcDbLongTransaction
  3
AutoCAD 2000
 90
        0
280
     0
281
     0
  0
CLASS
  1
LWPOLYLINE
  2
AcDbPolyline
  3
AutoCAD 2000
 90
        0
280
     0
281
     1
  0
CLASS
  1
HATCH
  2
AcDbHatch
  3
AutoCAD 2000
 90
        0
280
     0
281
     1
  0
CLASS
  1
XRECORD
  2
AcDbXrecord
  3
AutoCAD 2000
 90
        0
280
     0
281
     0
  0
CLASS
  1
LONG_TRANSACTION
  2
AcDbLongTransaction
  3
AutoCAD 2000
 90
        0
280
     0
281
     0
  0
CLASS
  1
LWPOLYLINE
  2
AcDbPolyline
  3
AutoCAD 2000
 90
        0
280
     0
281
     1
  0
CLASS
  1
HATCH
  2
AcDbHatch
  3
AutoCAD 2000
 90
        0
280
     0
281
     1
  0
CLASS
  1
XRECORD
  2
AcDbXrecord
  3
AutoCAD 2000
 90
        0
280
     0
281
     0
  0
CLASS
  1
LONG_TRANSACTION
  2
AcDbLongTransaction
  3
AutoCAD 2000
 90
        0
280
     0
281
     0
  0
CLASS
  1
LWPOLYLINE
  2
AcDbPolyline
  3
AutoCAD 2000
 90
        0
280
     0
281
     1
  0
CLASS
  1
HATCH
  2
AcDbHatch
  3
AutoCAD 2000
 90
        0
280
     0
281
     1
  0
CLASS
  1
XRECORD
  2
AcDbXrecord
  3
AutoCAD 2000
 90
        0
280
     0
281
     0
  0
CLASS
  1
LONG_TRANSACTION
  2
AcDbLongTransaction
  3
AutoCAD 2000
 90
        0
280
     0
281
     0
  0
CLASS
  1
LWPOLYLINE
  2
AcDbPolyline
  3
AutoCAD 2000
 90
        0
280
     0
281
     1
  0
CLASS
  1
HATCH
  2
AcDbHatch
  3
AutoCAD 2000
 90
        0
280
     0
281
     1
  0
CLASS
  1
XRECORD
  2
AcDbXrecord
  3
AutoCAD 2000
 90
        0
280
     0
281
     0
  0
CLASS
  1
LONG_TRANSACTION
  2
AcDbLongTransaction
  3
AutoCAD 2000
 90
        0
280
     0
281
     0
  0
CLASS
  1
LWPOLYLINE
  2
AcDbPolyline
  3
AutoCAD 2000
 90
        0
280
     0
281
     1
  0
CLASS
  1
HATCH
  2
AcDbHatch
  3
AutoCAD 2000
 90
        0
280
     0
281
     1
  0
CLASS
  1
XRECORD
  2
AcDbXrecord
  3
AutoCAD 2000
 90
        0
280
     0
281
     0
  0
CLASS
  1
LONG_TRANSACTION
  2
AcDbLongTransaction
  3
AutoCAD 2000
 90
        0
280
     0
281
     0
  0
CLASS
  1
LWPOLYLINE
  2
AcDbPolyline
  3
AutoCAD 2000
 90
        0
280
     0
281
     1
  0
CLASS
  1
HATCH
  2
AcDbHatch
  3
AutoCAD 2000
 90
        0
280
     0
281
     1
  0
CLASS
  1
XRECORD
  2
AcDbXrecord
  3
AutoCAD 2000
 90
        0
280
     0
281
     0
  0
CLASS
  1
LONG_TRANSACTION
  2
AcDbLongTransaction
  3
AutoCAD 2000
 90
        0
280
     0
281
     0
  0
CLASS
  1
LWPOLYLINE
  2
AcDbPolyline
  3
AutoCAD 2000
 90
        0
280
     0
281
     1
  0
CLASS
  1
HATCH
  2
AcDbHatch
  3
AutoCAD 2000
 90
        0
280
     0
281
     1
  0
CLASS
  1
XRECORD
  2
AcDbXrecord
  3
AutoCAD 2000
 90
        0
280
     0
281
     0
  0
CLASS
  1
LONG_TRANSACTION
  2
AcDbLongTransaction
  3
AutoCAD 2000
 90
        0
280
     0
281
     0
  0
CLASS
  1
LWPOLYLINE
  2
AcDbPolyline
  3
AutoCAD 2000
 90
        0
280
     0
281
     1
  0
CLASS
  1
HATCH
  2
AcDbHatch
  3
AutoCAD 2000
 90
        0
280
     0
281
     1
  0
CLASS
  1
XRECORD
  2
AcDbXrecord
  3
AutoCAD 2000
 90
        0
280
     0
281
     0
  0
CLASS
  1
LONG_TRANSACTION
  2
AcDbLongTransaction
  3
AutoCAD 2000
 90
        0
280
     0
281
     0
  0
CLASS
  1
LWPOLYLINE
  2
AcDbPolyline
  3
AutoCAD 2000
 90
        0
280
     0
281
     1
  0
CLASS
  1
HATCH
  2
AcDbHatch
  3
AutoCAD 2000
 90
        0
280
     0
281
     1
  0
CLASS
  1
XRECORD
  2
AcDbXrecord
  3
AutoCAD 2000
 90
        0
280
     0
281
     0
  0
CLASS
  1
LONG_TRANSACTION
  2
AcDbLongTransaction
  3
AutoCAD 2000
 90
        0
280
     0
281
     0
  0
CLASS
  1
LWPOLYLINE
  2
AcDbPolyline
  3
AutoCAD 2000
 90
        0
280
     0
281
     1
  0
CLASS
  1
HATCH
  2
AcDbHatch
  3
AutoCAD 2000
 90
        0
280
     0
281
     1
  0
CLASS
  1
XRECORD
  2
AcDbXrecord
  3
AutoCAD 2000
 90
        0
280
     0
281
     0
  0
CLASS
  1
LONG_TRANSACTION
  2
AcDbLongTransaction
  3
AutoCAD 2000
 90
        0
280
     0
281
     0
  0
CLASS
  1
LWPOLYLINE
  2
AcDbPolyline
  3
AutoCAD 2000
 90
        0
280
     0
281
     1
  0
CLASS
  1
HATCH
  2
AcDbHatch
  3
AutoCAD 2000
 90
        0
280
     0
281
     1
  0
CLASS
  1
XRECORD
  2
AcDbXrecord
  3
AutoCAD 2000
 90
        0
280
     0
281
     0
  0
CLASS
  1
LONG_TRANSACTION
  2
AcDbLongTransaction
  3
AutoCAD 2000
 90
        0
280
     0
281
     0
  0
CLASS
  1
LWPOLYLINE
  2
AcDbPolyline
  3
AutoCAD 2000
 90
        0
280
     0
281
     1
  0
CLASS
  1
HATCH
  2
AcDbHatch
  3
AutoCAD 2000
 90
        0
280
     0
281
     1
  0
CLASS
  1
XRECORD
  2
AcDbXrecord
  3
AutoCAD 2000
 90
        0
280
     0
281
     0
  0
CLASS
  1
LONG_TRANSACTION
  2
AcDbLongTransaction
  3
AutoCAD 2000
 90
        0
280
     0
281
     0
  0
CLASS
  1
LWPOLYLINE
  2
AcDbPolyline
  3
AutoCAD 2000
 90
        0
280
     0
281
     1
  0
CLASS
  1
HATCH
  2
AcDbHatch
  3
AutoCAD 2000
 90
        0
280
     0
281
     1
  0
CLASS
  1
XRECORD
  2
AcDbXrecord
  3
AutoCAD 2000
 90
        0
280
     0
281
     0
  0
CLASS
  1
LONG_TRANSACTION
  2
AcDbLongTransaction
  3
AutoCAD 2000
 90
        0
280
     0
281
     0
  0
CLASS
  1
LWPOLYLINE
  2
AcDbPolyline
  3
AutoCAD 2000
 90
        0
280
     0
281
     1
  0
CLASS
  1
HATCH
  2
AcDbHatch
  3
AutoCAD 2000
 90
        0
280
     0
281
     1
  0
CLASS
  1
XRECORD
  2
AcDbXrecord
  3
AutoCAD 2000
 90
        0
280
     0
281
     0
  0
CLASS
  1
LONG_TRANSACTION
  2
AcDbLongTransaction
  3
AutoCAD 2000
 90
        0
280
     0
281
     0
  0
CLASS
  1
LWPOLYLINE
  2
AcDbPolyline
  3
AutoCAD 2000
 90
        0
280
     0
281
     1
  0
CLASS
  1
HATCH
  2
AcDbHatch
  3
AutoCAD 2000
 90
        0
280
     0
281
     1
  0
CLASS
  1
XRECORD
  2
AcDbXrecord
  3
AutoCAD 2000
 90
        0
280
     0
281
     0
  0
CLASS
  1
LONG_TRANSACTION
  2
AcDbLongTransaction
  3
AutoCAD 2000
 90
        0
280
     0
281
     0
  0
CLASS
  1
LWPOLYLINE
  2
AcDbPolyline
  3
AutoCAD 2000
 90
        0
280
     0
281
     1
  0
CLASS
  1
HATCH
  2
AcDbHatch
  3
AutoCAD 2000
 90
        0
280
     0
281
     1
  0
CLASS
  1
XRECORD
  2
AcDbXrecord
  3
AutoCAD 2000
 90
        0
280
     0
281
     0
  0
CLASS
  1
LONG_TRANSACTION
  2
AcDbLongTransaction
  3
AutoCAD 2000
 90
        0
280
     0
281
     0
  0
CLASS
  1
LWPOLYLINE
  2
AcDbPolyline
  3
AutoCAD 2000
 90
        0
280
     0
281
     1
  0
CLASS
  1
HATCH
  2
AcDbHatch
  3
AutoCAD 2000
 90
        0
280
     0
281
     1
  0
CLASS
  1
XRECORD
  2
AcDbXrecord
  3
AutoCAD 2000
 90
        0
280
     0
281
     0
  0
CLASS
  1
LONG_TRANSACTION
  2
AcDbLongTransaction
  3
AutoCAD 2000
 90
        0
280
     0
281
     0
  0
CLASS
  1
LWPOLYLINE
  2
AcDbPolyline
  3
AutoCAD 2000
 90
        0
280
     0
281
     1
  0
CLASS
  1
HATCH
  2
AcDbHatch
  3
AutoCAD 2000
 90
        0
280
     0
281
     1
  0
CLASS
  1
XRECORD
  2
AcDbXrecord
  3
AutoCAD 2000
 90
        0
280
     0
281
     0
  0
CLASS
  1
LONG_TRANSACTION
  2
AcDbLongTransaction
  3
AutoCAD 2000
 90
        0
280
     0
281
     0
  0
CLASS
  1
LWPOLYLINE
  2
AcDbPolyline
  3
AutoCAD 2000
 90
        0
280
     0
281
     1
  0
CLASS
  1
HATCH
  2
AcDbHatch
  3
AutoCAD 2000
 90
        0
280
     0
281
     1
  0
CLASS
  1
XRECORD
  2
AcDbXrecord
  3
AutoCAD 2000
 90
        0
280
     0
281
     0
  0
CLASS
  1
LONG_TRANSACTION
  2
AcDbLongTransaction
  3
AutoCAD 2000
 90
        0
280
     0
281
     0
  0
CLASS
  1
LWPOLYLINE
  2
AcDbPolyline
  3
AutoCAD 2000
 90
        0
280
     0
281
     1
  0
CLASS
  1
HATCH
  2
AcDbHatch
  3
AutoCAD 2000
 90
        0
280
     0
281
     1
  0
CLASS
  1
XRECORD
  2
AcDbXrecord
  3
AutoCAD 2000
 90
        0
280
     0
281
     0
  0
CLASS
  1
LONG_TRANSACTION
  2
AcDbLongTransaction
  3
AutoCAD 2000
 90
        0
280
     0
281
     0
  0
CLASS
  1
LWPOLYLINE
  2
AcDbPolyline
  3
AutoCAD 2000
 90
        0
280
     0
281
     1
  0
CLASS
  1
HATCH
  2
AcDbHatch
  3
AutoCAD 2000
 90
        0
280
     0
281
     1
  0
CLASS
  1
XRECORD
  2
AcDbXrecord
  3
AutoCAD 2000
 90
        0
280
     0
281
     0
  0
CLASS
  1
LONG_TRANSACTION
  2
AcDbLongTransaction
  3
AutoCAD 2000
 90
        0
280
     0
281
     0
  0
CLASS
  1
LWPOLYLINE
  2
AcDbPolyline
  3
AutoCAD 2000
 90
        0
280
     0
281
     1
  0
CLASS
  1
HATCH
  2
AcDbHatch
  3
AutoCAD 2000
 90
        0
280
     0
281
     1
  0
CLASS
  1
XRECORD
  2
AcDbXrecord
  3
AutoCAD 2000
 90
        0
280
     0
281
     0
  0
CLASS
  1
LONG_TRANSACTION
  2
AcDbLongTransaction
  3
AutoCAD 2000
 90
        0
280
     0
281
     0
  0
CLASS
  1
LWPOLYLINE
  2
AcDbPolyline
  3
AutoCAD 2000
 90
        0
280
     0
281
     1
  0
CLASS
  1
HATCH
  2
AcDbHatch
  3
AutoCAD 2000
 90
        0
280
     0
281
     1
  0
CLASS
  1
XRECORD
  2
AcDbXrecord
  3
AutoCAD 2000
 90
        0
280
     0
281
     0
  0
CLASS
  1
LONG_TRANSACTION
  2
AcDbLongTransaction
  3
AutoCAD 2000
 90
        0
280
     0
281
     0
  0
CLASS
  1
LWPOLYLINE
  2
AcDbPolyline
  3
AutoCAD 2000
 90
        0
280
     0
281
     1
  0
CLASS
  1
HATCH
  2
AcDbHatch
  3
AutoCAD 2000
 90
        0
280
     0
281
     1
  0
CLASS
  1
XRECORD
  2
AcDbXrecord
  3
AutoCAD 2000
 90
        0
280
     0
281
     0
  0
CLASS
  1
LONG_TRANSACTION
  2
AcDbLongTransaction
  3
AutoCAD 2000
 90
        0
280
     0
281
     0
  0
CLASS
  1
LWPOLYLINE
  2
AcDbPolyline
  3
AutoCAD 2000
 90
        0
280
     0
281
     1
  0
CLASS
  1
HATCH
  2
AcDbHatch
  3
AutoCAD 2000
 90
        0
280
     0
281
     1
  0
CLASS
  1
XRECORD
  2
AcDbXrecord
  3
AutoCAD 2000
 90
        0
280
     0
281
     0
  0
CLASS
  1
LONG_TRANSACTION
  2
AcDbLongTransaction
  3
AutoCAD 2000
 90
        0
280
     0
281
     0
  0
CLASS
  1
LWPOLYLINE
  2
AcDbPolyline
  3
AutoCAD 2000
 90
        0
280
     0
281
     1
  0
CLASS
  1
HATCH
  2
AcDbHatch
  3
AutoCAD 2000
 90
        0
280
     0
281
     1
  0
CLASS
  1
XRECORD
  2
AcDbXrecord
  3
AutoCAD 2000
 90
        0
280
     0
281
     0
  0
CLASS
  1
LONG_TRANSACTION
  2
AcDbLongTransaction
  3
AutoCAD 2000
 90
        0
280
     0
281
     0
  0
CLASS
  1
LWPOLYLINE
  2
AcDbPolyline
  3
AutoCAD 2000
 90
        0
280
     0
281
     1
  0
CLASS
  1
HATCH
  2
AcDbHatch
  3
AutoCAD 2000
 90
        0
280
     0
281
     1
  0
CLASS
  1
XRECORD
  2
AcDbXrecord
  3
AutoCAD 2000
 90
        0
280
     0
281
     0
  0
CLASS
  1
LONG_TRANSACTION
  2
AcDbLongTransaction
  3
AutoCAD 2000
 90
        0
280
     0
281
     0
  0
CLASS
  1
LWPOLYLINE
  2
AcDbPolyline
  3
AutoCAD 2000
 90
        0
280
     0
281
     1
  0
CLASS
  1
HATCH
  2
AcDbHatch
  3
AutoCAD 2000
 90
        0
280
     0
281
     1
  0
CLASS
  1
XRECORD
  2
AcDbXrecord
  3
AutoCAD 2000
 90
        0
280
     0
281
     0
  0
CLASS
  1
LONG_TRANSACTION
  2
AcDbLongTransaction
  3
AutoCAD 2000
 90
        0
280
     0
281
     0
  0
CLASS
  1
LWPOLYLINE
  2
AcDbPolyline
  3
AutoCAD 2000
 90
        0
280
     0
281
     1
  0
CLASS
  1
HATCH
  2
AcDbHatch
  3
AutoCAD 2000
 90
        0
280
     0
281
     1
  0
CLASS
  1
XRECORD
  2
AcDbXrecord
  3
AutoCAD 2000
 90
        0
280
     0
281
     0
  0
CLASS
  1
LONG_TRANSACTION
  2
AcDbLongTransaction
  3
AutoCAD 2000
 90
        0
280
     0
281
     0
  0
CLASS
  1
LWPOLYLINE
  2
AcDbPolyline
  3
AutoCAD 2000
 90
        0
280
     0
281
     1
  0
CLASS
  1
HATCH
  2
AcDbHatch
  3
AutoCAD 2000
 90
        0
280
     0
281
     1
  0
CLASS
  1
XRECORD
  2
AcDbXrecord
  3
AutoCAD 2000
 90
        0
280
     0
281
     0
  0
CLASS
  1
LONG_TRANSACTION
  2
AcDbLongTransaction
  3
AutoCAD 2000
 90
        0
280
     0
281
     0
  0
CLASS
  1
LWPOLYLINE
  2
AcDbPolyline
  3
AutoCAD 2000
 90
        0
280
     0
281
     1
  0
CLASS
  1
HATCH
  2
AcDbHatch
  3
AutoCAD 2000
 90
        0
280
     0
281
     1
  0
CLASS
  1
XRECORD
  2
AcDbXrecord
  3
AutoCAD 2000
 90
        0
280
     0
281
     0
  0
CLASS
  1
LONG_TRANSACTION
  2
AcDbLongTransaction
  3
AutoCAD 2000
 90
        0
280
     0
281
     0
  0
CLASS
  1
LWPOLYLINE
  2
AcDbPolyline
  3
AutoCAD 2000
 90
        0
280
     0
281
     1
  0
CLASS
  1
HATCH
  2
AcDbHatch
  3
AutoCAD 2000
 90
        0
280
     0
281
     1
  0
CLASS
  1
XRECORD
  2
AcDbXrecord
  3
AutoCAD 2000
 90
        0
280
     0
281
     0
  0
CLASS
  1
LONG_TRANSACTION
  2
AcDbLongTransaction
  3
AutoCAD 2000
 90
        0
280
     0
281
     0
  0
CLASS
  1
LWPOLYLINE
  2
AcDbPolyline
  3
AutoCAD 2000
 90
        0
280
     0
281
     1
  0
CLASS
  1
HATCH
  2
AcDbHatch
  3
AutoCAD 2000
 90
        0
280
     0
281
     1
  0
CLASS
  1
XRECORD
  2
AcDbXrecord
  3
AutoCAD 2000
 90
        0
280
     0
281
     0
  0
CLASS
  1
LONG_TRANSACTION
  2
AcDbLongTransaction
  3
AutoCAD 2000
 90
        0
280
     0
281
     0
  0
CLASS
  1
LWPOLYLINE
  2
AcDbPolyline
  3
AutoCAD 2000
 90
        0
280
     0
281
     1
  0
CLASS
  1
HATCH
  2
AcDbHatch
  3
AutoCAD 2000
 90
        0
280
     0
281
     1
  0
CLASS
  1
XRECORD
  2
AcDbXrecord
  3
AutoCAD 2000
 90
        0
280
     0
281
     0
  0
CLASS
  1
LONG_TRANSACTION
  2
AcDbLongTransaction
  3
AutoCAD 2000
 90
        0
280
     0
281
     0
  0
CLASS
  1
LWPOLYLINE
  2
AcDbPolyline
  3
AutoCAD 2000
 90
        0
280
     0
281
     1
  0
CLASS
  1
HATCH
  2
AcDbHatch
  3
AutoCAD 2000
 90
        0
280
     0
281
     1
  0
CLASS
  1
XRECORD
  2
AcDbXrecord
  3
AutoCAD 2000
 90
        0
280
     0
281
     0
  0
CLASS
  1
LONG_TRANSACTION
  2
AcDbLongTransaction
  3
AutoCAD 2000
 90
        0
280
     0
281
     0
  0
CLASS
  1
LWPOLYLINE
  2
AcDbPolyline
  3
AutoCAD 2000
 90
        0
280
     0
281
     1
  0
CLASS
  1
HATCH
  2
AcDbHatch
  3
AutoCAD 2000
 90
        0
280
     0
281
     1
  0
CLASS
  1
XRECORD
  2
AcDbXrecord
  3
AutoCAD 2000
 90
        0
280
     0
281
     0
  0
CLASS
  1
LONG_TRANSACTION
  2
AcDbLongTransaction
  3
AutoCAD 2000
 90
        0
280
     0
281
     0
  0
CLASS
  1
LWPOLYLINE
  2
AcDbPolyline
  3
AutoCAD 2000
 90
        0
280
     0
281
     1
  0
CLASS
  1
HATCH
  2
AcDbHatch
  3
AutoCAD 2000
 90
        0
280
     0
281
     1
  0
CLASS
  1
XRECORD
  2
AcDbXrecord
  3
AutoCAD 2000
 90
        0
280
     0
281
     0
  0
CLASS
  1
LONG_TRANSACTION
  2
AcDbLongTransaction
  3
AutoCAD 2000
 90
        0
280
     0
281
     0
  0
CLASS
  1
LWPOLYLINE
  2
AcDbPolyline
  3
AutoCAD 2000
 90
        0
280
     0
281
     1
  0
CLASS
  1
HATCH
  2
AcDbHatch
  3
AutoCAD 2000
 90
        0
280
     0
281
     1
  0
CLASS
  1
XRECORD
  2
AcDbXrecord
  3
AutoCAD 2000
 90
        0
280
     0
281
     0
  0
CLASS
  1
LONG_TRANSACTION
  2
AcDbLongTransaction
  3
AutoCAD 2000
 90
        0
280
     0
281
     0
  0
CLASS
  1
LWPOLYLINE
  2
AcDbPolyline
  3
AutoCAD 2000
 90
        0
280
     0
281
     1
  0
CLASS
  1
HATCH
  2
AcDbHatch
  3
AutoCAD 2000
 90
        0
280
     0
281
     1
  0
CLASS
  1
XRECORD
  2
AcDbXrecord
  3
AutoCAD 2000
 90
        0
280
     0
281
     0
  0
CLASS
  1
LONG_TRANSACTION
  2
AcDbLongTransaction
  3
AutoCAD 2000
 90
        0
280
     0
281
     0
  0
CLASS
  1
LWPOLYLINE
  2
AcDbPolyline
  3
AutoCAD 2000
 90
        0
280
     0
281
     1
  0
CLASS
  1
HATCH
  2
AcDbHatch
  3
AutoCAD 2000
 90
        0
280
     0
281
     1
  0
CLASS
  1
XRECORD
  2
AcDbXrecord
  3
AutoCAD 2000
 90
        0
280
     0
281
     0
  0
CLASS
  1
LONG_TRANSACTION
  2
AcDbLongTransaction
  3
AutoCAD 2000
 90
        0
280
     0
281
     0
  0
CLASS
  1
LWPOLYLINE
  2
AcDbPolyline
  3
AutoCAD 2000
 90
        0
280
     0
281
     1
  0
CLASS
  1
HATCH
  2
AcDbHatch
  3
AutoCAD 2000
 90
        0
280
     0
281
     1
  0
CLASS
  1
XRECORD
  2
AcDbXrecord
  3
AutoCAD 2000
 90
        0
280
     0
281
     0
  0
CLASS
  1
LONG_TRANSACTION
  2
AcDbLongTransaction
  3
AutoCAD 2000
 90
        0
280
     0
281
     0
  0
CLASS
  1
LWPOLYLINE
  2
AcDbPolyline
  3
AutoCAD 2000
 90
        0
280
     0
281
     1
  0
CLASS
  1
HATCH
  2
AcDbHatch
  3
AutoCAD 2000
 90
        0
280
     0
281
     1
  0
CLASS
  1
XRECORD
  2
AcDbXrecord
  3
AutoCAD 2000
 90
        0
280
     0
281
     0
  0
CLASS
  1
LONG_TRANSACTION
  2
AcDbLongTransaction
  3
AutoCAD 2000
 90
        0
280
     0
281
     0
  0
CLASS
  1
LWPOLYLINE
  2
AcDbPolyline
  3
AutoCAD 2000
 90
        0
280
     0
281
     1
  0
CLASS
  1
HATCH
  2
AcDbHatch
  3
AutoCAD 2000
 90
        0
280
     0
281
     1
  0
CLASS
  1
XRECORD
  2
AcDbXrecord
  3
AutoCAD 2000
 90
        0
280
     0
281
     0
  0
CLASS
  1
LONG_TRANSACTION
  2
AcDbLongTransaction
  3
AutoCAD 2000
 90
        0
280
     0
281
     0
  0
CLASS
  1
LWPOLYLINE
  2
AcDbPolyline
  3
AutoCAD 2000
 90
        0
280
     0
281
     1
  0
CLASS
  1
HATCH
  2
AcDbHatch
  3
AutoCAD 2000
 90
        0
280
     0
281
     1
  0
CLASS
  1
XRECORD
  2
AcDbXrecord
  3
AutoCAD 2000
 90
        0
280
     0
281
     0
  0
CLASS
  1
LONG_TRANSACTION
  2
AcDbLongTransaction
  3
AutoCAD 2000
 90
        0
280
     0
281
     0
  0
CLASS
  1
LWPOLYLINE
  2
AcDbPolyline
  3
AutoCAD 2000
 90
        0
280
     0
281
     1
  0
CLASS
  1
HATCH
  2
AcDbHatch
  3
AutoCAD 2000
 90
        0
280
     0
281
     1
  0
CLASS
  1
XRECORD
  2
AcDbXrecord
  3
AutoCAD 2000
 90
        0
280
     0
281
     0
  0
CLASS
  1
LONG_TRANSACTION
  2
AcDbLongTransaction
  3
AutoCAD 2000
 90
        0
280
     0
281
     0
  0
CLASS
  1
LWPOLYLINE
  2
AcDbPolyline
  3
AutoCAD 2000
 90
        0
280
     0
281
     1
  0
CLASS
  1
HATCH
  2
AcDbHatch
  3
AutoCAD 2000
 90
        0
280
     0
281
     1
  0
CLASS
  1
XRECORD
  2
AcDbXrecord
  3
AutoCAD 2000
 90
        0
280
     0
281
     0
  0
CLASS
  1
LONG_TRANSACTION
  2
AcDbLongTransaction
  3
AutoCAD 2000
 90
        0
280
     0
281
     0
  0
CLASS
  1
LWPOLYLINE
  2
AcDbPolyline
  3
AutoCAD 2000
 90
        0
280
     0
281
     1
  0
CLASS
  1
HATCH
  2
AcDbHatch
  3
AutoCAD 2000
 90
        0
280
     0
281
     1
  0
CLASS
  1
XRECORD
  2
AcDbXrecord
  3
AutoCAD 2000
 90
        0
280
     0
281
     0
  0
CLASS
  1
LONG_TRANSACTION
  2
AcDbLongTransaction
  3
AutoCAD 2000
 90
        0
280
     0
281
     0
  0
CLASS
  1
LWPOLYLINE
  2
AcDbPolyline
  3
AutoCAD 2000
 90
        0
280
     0
281
     1
  0
CLASS
  1
HATCH
  2
AcDbHatch
  3
AutoCAD 2000
 90
        0
280
     0
281
     1
  0
CLASS
  1
XRECORD
  2
AcDbXrecord
  3
AutoCAD 2000
 90
        0
280
     0
281
     0
  0
CLASS
  1
LONG_TRANSACTION
  2
AcDbLongTransaction
  3
AutoCAD 2000
 90
        0
280
     0
281
     0
  0
CLASS
  1
LWPOLYLINE
  2
AcDbPolyline
  3
AutoCAD 2000
 90
        0
280
     0
281
     1
  0
CLASS
  1
HATCH
  2
AcDbHatch
  3
AutoCAD 2000
 90
        0
280
     0
281
     1
  0
CLASS
  1
XRECORD
  2
AcDbXrecord
  3
AutoCAD 2000
 90
        0
280
     0
281
     0
  0
CLASS
  1
LONG_TRANSACTION
  2
AcDbLongTransaction
  3
AutoCAD 2000
 90
        0
280
     0
281
     0
  0
CLASS
  1
LWPOLYLINE
  2
AcDbPolyline
  3
AutoCAD 2000
 90
        0
280
     0
281
     1
  0
CLASS
  1
HATCH
  2
AcDbHatch
  3
AutoCAD 2000
 90
        0
280
     0
281
     1
  0
CLASS
  1
XRECORD
  2
AcDbXrecord
  3
AutoCAD 2000
 90
        0
280
     0
281
     0
  0
CLASS
  1
LONG_TRANSACTION
  2
AcDbLongTransaction
  3
AutoCAD 2000
 90
        0
280
     0
281
     0
  0
CLASS
  1
LWPOLYLINE
  2
AcDbPolyline
  3
AutoCAD 2000
 90
        0
280
     0
281
     1
  0
CLASS
  1
HATCH
  2
AcDbHatch
  3
AutoCAD 2000
 90
        0
280
     0
281
     1
  0
CLASS
  1
XRECORD
  2
AcDbXrecord
  3
AutoCAD 2000
 90
        0
280
     0
281
     0
  0
CLASS
  1
LONG_TRANSACTION
  2
AcDbLongTransaction
  3
AutoCAD 2000
 90
        0
280
     0
281
     0
  0
CLASS
  1
LWPOLYLINE
  2
AcDbPolyline
  3
AutoCAD 2000
 90
        0
280
     0
281
     1
  0
CLASS
  1
HATCH
  2
AcDbHatch
  3
AutoCAD 2000
 90
        0
280
     0
281
     1
  0
CLASS
  1
XRECORD
  2
AcDbXrecord
  3
AutoCAD 2000
 90
        0
280
     0
281
     0
  0
CLASS
  1
LONG_TRANSACTION
  2
AcDbLongTransaction
  3
AutoCAD 2000
 90
        0
280
     0
281
     0
  0
CLASS
  1
LWPOLYLINE
  2
AcDbPolyline
  3
AutoCAD 2000
 90
        0
280
     0
281
     1
  0
CLASS
  1
HATCH
  2
AcDbHatch
  3
AutoCAD 2000
 90
        0
280
     0
281
     1
  0
CLASS
  1
XRECORD
  2
AcDbXrecord
  3
AutoCAD 2000
 90
        0
280
     0
281
     0
  0
CLASS
  1
LONG_TRANSACTION
  2
AcDbLongTransaction
  3
AutoCAD 2000
 90
        0
280
     0
281
     0
  0
CLASS
  1
LWPOLYLINE
  2
AcDbPolyline
  3
AutoCAD 2000
 90
        0
280
     0
281
     1
  0
CLASS
  1
HATCH
  2
AcDbHatch
  3
AutoCAD 2000
 90
        0
280
     0
281
     1
  0
CLASS
  1
XRECORD
  2
AcDbXrecord
  3
AutoCAD 2000
 90
        0
280
     0
281
     0
  0
CLASS
  1
LONG_TRANSACTION
  2
AcDbLongTransaction
  3
AutoCAD 2000
 90
        0
280
     0
281
     0
  0
CLASS
  1
LWPOLYLINE
  2
AcDbPolyline
  3
AutoCAD 2000
 90
        0
280
     0
281
     1
  0
CLASS
  1
HATCH
  2
AcDbHatch
  3
AutoCAD 2000
 90
        0
280
     0
281
     1
  0
CLASS
  1
XRECORD
  2
AcDbXrecord
  3
AutoCAD 2000
 90
        0
280
     0
281
     0
  0
CLASS
  1
LONG_TRANSACTION
  2
AcDbLongTransaction
  3
AutoCAD 2000
 90
        0
280
     0
281
     0
  0
CLASS
  1
LWPOLYLINE
  2
AcDbPolyline
  3
AutoCAD 2000
 90
        0
280
     0
281
     1
  0
CLASS
  1
HATCH
  2
AcDbHatch
  3
AutoCAD 2000
 90
        0
280
     0
281
     1
  0
CLASS
  1
XRECORD
  2
AcDbXrecord
  3
AutoCAD 2000
 90
        0
280
     0
281
     0
  0
CLASS
  1
LONG_TRANSACTION
  2
AcDbLongTransaction
  3
AutoCAD 2000
 90
        0
280
     0
281
     0
  0
CLASS
  1
LWPOLYLINE
  2
AcDbPolyline
  3
AutoCAD 2000
 90
        0
280
     0
281
     1
  0
CLASS
  1
HATCH
  2
AcDbHatch
  3
AutoCAD 2000
 90
        0
280
     0
281
     1
  0
CLASS
  1
XRECORD
  2
AcDbXrecord
  3
AutoCAD 2000
 90
        0
280
     0
281
     0
  0
CLASS
  1
LONG_TRANSACTION
  2
AcDbLongTransaction
  3
AutoCAD 2000
 90
        0
280
     0
281
     0
  0
CLASS
  1
LWPOLYLINE
  2
AcDbPolyline
  3
AutoCAD 2000
 90
        0
280
     0
281
     1
  0
CLASS
  1
HATCH
  2
AcDbHatch
  3
AutoCAD 2000
 90
        0
280
     0
281
     1
  0
CLASS
  1
XRECORD
  2
AcDbXrecord
  3
AutoCAD 2000
 90
        0
280
     0
281
     0
  0
CLASS
  1
LONG_TRANSACTION
  2
AcDbLongTransaction
  3
AutoCAD 2000
 90
        0
280
     0
281
     0
  0
CLASS
  1
LWPOLYLINE
  2
AcDbPolyline
  3
AutoCAD 2000
 90
        0
280
     0
281
     1
  0
CLASS
  1
HATCH
  2
AcDbHatch
  3
AutoCAD 2000
 90
        0
280
     0
281
     1
  0
CLASS
  1
XRECORD
  2
AcDbXrecord
  3
AutoCAD 2000
 90
        0
280
     0
281
     0
  0
CLASS
  1
LONG_TRANSACTION
  2
AcDbLongTransaction
  3
AutoCAD 2000
 90
        0
280
     0
281
     0
  0
CLASS
  1
LWPOLYLINE
  2
AcDbPolyline
  3
AutoCAD 2000
 90
        0
280
     0
281
     1
  0
CLASS
  1
HATCH
  2
AcDbHatch
  3
AutoCAD 2000
 90
        0
280
     0
281
     1
  0
CLASS
  1
XRECORD
  2
AcDbXrecord
  3
AutoCAD 2000
 90
        0
280
     0
281
     0
  0
CLASS
  1
LONG_TRANSACTION
  2
AcDbLongTransaction
  3
AutoCAD 2000
 90
        0
280
     0
281
     0
  0
CLASS
  1
LWPOLYLINE
  2
AcDbPolyline
  3
AutoCAD 2000
 90
        0
280
     0
281
     1
  0
CLASS
  1
HATCH
  2
AcDbHatch
  3
AutoCAD 2000
 90
        0
280
     0
281
     1
  0
CLASS
  1
XRECORD
  2
AcDbXrecord
  3
AutoCAD 2000
 90
        0
280
     0
281
     0
  0
CLASS
  1
LONG_TRANSACTION
  2
AcDbLongTransaction
  3
AutoCAD 2000
 90
        0
280
     0
281
     0
  0
CLASS
  1
LWPOLYLINE
  2
AcDbPolyline
  3
AutoCAD 2000
 90
        0
280
     0
281
     1
  0
CLASS
  1
HATCH
  2
AcDbHatch
  3
AutoCAD 2000
 90
        0
280
     0
281
     1
  0
CLASS
  1
XRECORD
  2
AcDbXrecord
  3
AutoCAD 2000
 90
        0
280
     0
281
     0
  0
CLASS
  1
LONG_TRANSACTION
  2
AcDbLongTransaction
  3
AutoCAD 2000
 90
        0
280
     0
281
     0
  0
CLASS
  1
LWPOLYLINE
  2
AcDbPolyline
  3
AutoCAD 2000
 90
        0
280
     0
281
     1
  0
CLASS
  1
HATCH
  2
AcDbHatch
  3
AutoCAD 2000
 90
        0
280
     0
281
     1
  0
CLASS
  1
XRECORD
  2
AcDbXrecord
  3
AutoCAD 2000
 90
        0
280
     0
281
     0
  0
CLASS
  1
LONG_TRANSACTION
  2
AcDbLongTransaction
  3
AutoCAD 2000
 90
        0
280
     0
281
     0
  0
CLASS
  1
LWPOLYLINE
  2
AcDbPolyline
  3
AutoCAD 2000
 90
        0
280
     0
281
     1
  0
CLASS
  1
HATCH
  2
AcDbHatch
  3
AutoCAD 2000
 90
        0
280
     0
281
     1
  0
CLASS
  1
XRECORD
  2
AcDbXrecord
  3
AutoCAD 2000
 90
        0
280
     0
281
     0
  0
CLASS
  1
LONG_TRANSACTION
  2
AcDbLongTransaction
  3
AutoCAD 2000
 90
        0
280
     0
281
     0
  0
CLASS
  1
LWPOLYLINE
  2
AcDbPolyline
  3
AutoCAD 2000
 90
        0
280
     0
281
     1
  0
CLASS
  1
HATCH
  2
AcDbHatch
  3
AutoCAD 2000
 90
        0
280
     0
281
     1
  0
CLASS
  1
XRECORD
  2
AcDbXrecord
  3
AutoCAD 2000
 90
        0
280
     0
281
     0
  0
CLASS
  1
LONG_TRANSACTION
  2
AcDbLongTransaction
  3
AutoCAD 2000
 90
        0
280
     0
281
     0
  0
CLASS
  1
LWPOLYLINE
  2
AcDbPolyline
  3
AutoCAD 2000
 90
        0
280
     0
281
     1
  0
CLASS
  1
HATCH
  2
AcDbHatch
  3
AutoCAD 2000
 90
        0
280
     0
281
     1
  0
CLASS
  1
XRECORD
  2
AcDbXrecord
  3
AutoCAD 2000
 90
        0
280
     0
281
     0
  0
CLASS
  1
LONG_TRANSACTION
  2
AcDbLongTransaction
  3
AutoCAD 2000
 90
        0
280
     0
281
     0
  0
CLASS
  1
LWPOLYLINE
  2
AcDbPolyline
  3
AutoCAD 2000
 90
        0
280
     0
281
     1
  0
CLASS
  1
HATCH
  2
AcDbHatch
  3
AutoCAD 2000
 90
        0
280
     0
281
     1
  0
CLASS
  1
XRECORD
  2
AcDbXrecord
  3
AutoCAD 2000
 90
        0
280
     0
281
     0
  0
CLASS
  1
LONG_TRANSACTION
  2
AcDbLongTransaction
  3
AutoCAD 2000
 90
        0
280
     0
281
     0
  0
CLASS
  1
LWPOLYLINE
  2
AcDbPolyline
  3
AutoCAD 2000
 90
        0
280
     0
281
     1
  0
CLASS
  1
HATCH
  2
AcDbHatch
  3
AutoCAD 2000
 90
        0
280
     0
281
     1
  0
CLASS
  1
XRECORD
  2
AcDbXrecord
  3
AutoCAD 2000
 90
        0
280
     0
281
     0
  0
CLASS
  1
LONG_TRANSACTION
  2
AcDbLongTransaction
  3
AutoCAD 2000
 90
        0
280
     0
281
     0
  0
CLASS
  1
LWPOLYLINE
  2
AcDbPolyline
  3
AutoCAD 2000
 90
        0
280
     0
281
     1
  0
CLASS
  1
HATCH
  2
AcDbHatch
  3
AutoCAD 2000
 90
        0
280
     0
281
     1
  0
CLASS
  1
XRECORD
  2
AcDbXrecord
  3
AutoCAD 2000
 90
        0
280
     0
281
     0
  0
CLASS
  1
LONG_TRANSACTION
  2
AcDbLongTransaction
  3
AutoCAD 2000
 90
        0
280
     0
281
     0
  0
CLASS
  1
LWPOLYLINE
  2
AcDbPolyline
  3
AutoCAD 2000
 90
        0
280
     0
281
     1
  0
CLASS
  1
HATCH
  2
AcDbHatch
  3
AutoCAD 2000
 90
        0
280
     0
281
     1
  0
CLASS
  1
XRECORD
  2
AcDbXrecord
  3
AutoCAD 2000
 90
        0
280
     0
281
     0
  0
CLASS
  1
LONG_TRANSACTION
  2
AcDbLongTransaction
  3
AutoCAD 2000
 90
        0
280
     0
281
     0
  0
CLASS
  1
LWPOLYLINE
  2
AcDbPolyline
  3
AutoCAD 2000
 90
        0
280
     0
281
     1
  0
CLASS
  1
HATCH
  2
AcDbHatch
  3
AutoCAD 2000
 90
        0
280
     0
281
     1
  0
CLASS
  1
XRECORD
  2
AcDbXrecord
  3
AutoCAD 2000
 90
        0
280
     0
281
     0
  0
CLASS
  1
LONG_TRANSACTION
  2
AcDbLongTransaction
  3
AutoCAD 2000
 90
        0
280
     0
281
     0
  0
CLASS
  1
LWPOLYLINE
  2
AcDbPolyline
  3
AutoCAD 2000
 90
        0
280
     0
281
     1
  0
CLASS
  1
HATCH
  2
AcDbHatch
  3
AutoCAD 2000
 90
        0
280
     0
281
     1
  0
CLASS
  1
XRECORD
  2
AcDbXrecord
  3
AutoCAD 2000
 90
        0
280
     0
281
     0
  0
CLASS
  1
LONG_TRANSACTION
  2
AcDbLongTransaction
  3
AutoCAD 2000
 90
        0
280
     0
281
     0
  0
CLASS
  1
LWPOLYLINE
  2
AcDbPolyline
  3
AutoCAD 2000
 90
        0
280
     0
281
     1
  0
CLASS
  1
HATCH
  2
AcDbHatch
  3
AutoCAD 2000
 90
        0
280
     0
281
     1
  0
CLASS
  1
XRECORD
  2
AcDbXrecord
  3
AutoCAD 2000
 90
        0
280
     0
281
     0
  0
CLASS
  1
LONG_TRANSACTION
  2
AcDbLongTransaction
  3
AutoCAD 2000
 90
        0
280
     0
281
     0
  0
CLASS
  1
LWPOLYLINE
  2
AcDbPolyline
  3
AutoCAD 2000
 90
        0
280
     0
281
     1
  0
CLASS
  1
HATCH
  2
AcDbHatch
  3
AutoCAD 2000
 90
        0
280
     0
281
     1
  0
CLASS
  1
XRECORD
  2
AcDbXrecord
  3
AutoCAD 2000
 90
        0
280
     0
281
     0
  0
CLASS
  1
LONG_TRANSACTION
  2
AcDbLongTransaction
  3
AutoCAD 2000
 90
        0
280
     0
281
     0
  0
CLASS
  1
LWPOLYLINE
  2
AcDbPolyline
  3
AutoCAD 2000
 90
        0
280
     0
281
     1
  0
CLASS
  1
HATCH
  2
AcDbHatch
  3
AutoCAD 2000
 90
        0
280
     0
281
     1
  0
CLASS
  1
XRECORD
  2
AcDbXrecord
  3
AutoCAD 2000
 90
        0
280
     0
281
     0
  0
CLASS
  1
LONG_TRANSACTION
  2
AcDbLongTransaction
  3
AutoCAD 2000
 90
        0
280
     0
281
     0
  0
CLASS
  1
LWPOLYLINE
  2
AcDbPolyline
  3
AutoCAD 2000
 90
        0
280
     0
281
     1
  0
CLASS
  1
HATCH
  2
AcDbHatch
  3
AutoCAD 2000
 90
        0
280
     0
281
     1
  0
CLASS
  1
XRECORD
  2
AcDbXrecord
  3
AutoCAD 2000
 90
        0
280
     0
281
     0
  0
CLASS
  1
LONG_TRANSACTION
  2
AcDbLongTransaction
  3
AutoCAD 2000
 90
        0
280
     0
281
     0
  0
CLASS
  1
LWPOLYLINE
  2
AcDbPolyline
  3
AutoCAD 2000
 90
        0
280
     0
281
     1
  0
CLASS
  1
HATCH
  2
AcDbHatch
  3
AutoCAD 2000
 90
        0
280
     0
281
     1
  0
CLASS
  1
XRECORD
  2
AcDbXrecord
  3
AutoCAD 2000
 90
        0
280
     0
281
     0
  0
CLASS
  1
LONG_TRANSACTION
  2
AcDbLongTransaction
  3
AutoCAD 2000
 90
        0
280
     0
281
     0
  0
CLASS
  1
LWPOLYLINE
  2
AcDbPolyline
  3
AutoCAD 2000
 90
        0
280
     0
281
     1
  0
CLASS
  1
HATCH
  2
AcDbHatch
  3
AutoCAD 2000
 90
        0
280
     0
281
     1
  0
CLASS
  1
XRECORD
  2
AcDbXrecord
  3
AutoCAD 2000
 90
        0
280
     0
281
     0
  0
CLASS
  1
LONG_TRANSACTION
  2
AcDbLongTransaction
  3
AutoCAD 2000
 90
        0
280
     0
281
     0
  0
CLASS
  1
LWPOLYLINE
  2
AcDbPolyline
  3
AutoCAD 2000
 90
        0
280
     0
281
     1
  0
CLASS
  1
HATCH
  2
AcDbHatch
  3
AutoCAD 2000
 90
        0
280
     0
281
     1
  0
CLASS
  1
XRECORD
  2
AcDbXrecord
  3
AutoCAD 2000
 90
        0
280
     0
281
     0
  0
CLASS
  1
LONG_TRANSACTION
  2
AcDbLongTransaction
  3
AutoCAD 2000
 90
        0
280
     0
281
     0
  0
CLASS
  1
LWPOLYLINE
  2
AcDbPolyline
  3
AutoCAD 2000
 90
        0
280
     0
281
     1
  0
CLASS
  1
HATCH
  2
AcDbHatch
  3
AutoCAD 2000
 90
        0
280
     0
281
     1
  0
CLASS
  1
XRECORD
  2
AcDbXrecord
  3
AutoCAD 2000
 90
        0
280
     0
281
     0
  0
CLASS
  1
LONG_TRANSACTION
  2
AcDbLongTransaction
  3
AutoCAD 2000
 90
        0
280
     0
281
     0
  0
CLASS
  1
LWPOLYLINE
  2
AcDbPolyline
  3
AutoCAD 2000
 90
        0
280
     0
281
     1
  0
CLASS
  1
HATCH
  2
AcDbHatch
  3
AutoCAD 2000
 90
        0
280
     0
281
     1
  0
CLASS
  1
XRECORD
  2
AcDbXrecord
  3
AutoCAD 2000
 90
        0
280
     0
281
     0
  0
CLASS
  1
LONG_TRANSACTION
  2
AcDbLongTransaction
  3
AutoCAD 2000
 90
        0
280
     0
281
     0
  0
CLASS
  1
LWPOLYLINE
  2
AcDbPolyline
  3
AutoCAD 2000
 90
        0
280
     0
281
     1
  0
CLASS
  1
HATCH
  2
AcDbHatch
  3
AutoCAD 2000
 90
        0
280
     0
281
     1
  0
CLASS
  1
XRECORD
  2
AcDbXrecord
  3
AutoCAD 2000
 90
        0
280
     0
281
     0
  0
CLASS
  1
LONG_TRANSACTION
  2
AcDbLongTransaction
  3
AutoCAD 2000
 90
        0
280
     0
281
     0
  0
CLASS
  1
LWPOLYLINE
  2
AcDbPolyline
  3
AutoCAD 2000
 90
        0
280
     0
281
     1
  0
CLASS
  1
HATCH
  2
AcDbHatch
  3
AutoCAD 2000
 90
        0
280
     0
281
     1
  0
CLASS
  1
XRECORD
  2
AcDbXrecord
  3
AutoCAD 2000
 90
        0
280
     0
281
     0
  0
CLASS
  1
LONG_TRANSACTION
  2
AcDbLongTransaction
  3
AutoCAD 2000
 90
        0
280
     0
281
     0
  0
CLASS
  1
LWPOLYLINE
  2
AcDbPolyline
  3
AutoCAD 2000
 90
        0
280
     0
281
     1
  0
CLASS
  1
HATCH
  2
AcDbHatch
  3
AutoCAD 2000
 90
        0
280
     0
281
     1
  0
CLASS
  1
XRECORD
  2
AcDbXrecord
  3
AutoCAD 2000
 90
        0
280
     0
281
     0
  0
CLASS
  1
LONG_TRANSACTION
  2
AcDbLongTransaction
  3
AutoCAD 2000
 90
        0
280
     0
281
     0
  0
CLASS
  1
LWPOLYLINE
  2
AcDbPolyline
  3
AutoCAD 2000
 90
        0
280
     0
281
     1
  0
CLASS
  1
HATCH
  2
AcDbHatch
  3
AutoCAD 2000
 90
        0
280
     0
281
     1
  0
CLASS
  1
XRECORD
  2
AcDbXrecord
  3
AutoCAD 2000
 90
        0
280
     0
281
     0
  0
ENDSEC
  0
SECTION
  2
TABLES
  0
TABLE
  2
VPORT
  5
92
330
0
100
AcDbSymbolTable
 70
     2
  0
VPORT
  5
454
330
92
100
AcDbSymbolTableRecord
100
AcDbViewportTableRecord
  2
*ACTIVE
 70
     0
 10
0.0
 20
0.0
 11
1.0
 21
1.0
 12
196.2817195820376
 22
184.8290494469748
 13
0.0
 23
0.0
 14
10.0
 24
10.0
 15
10.0
 25
10.0
 16
0.0
 26
0.0
 36
1.0
 17
0.0
 27
0.0
 37
0.0
 40
344.8068953762494
 41
1.593434343434343
 42
50.0
 43
0.0
 44
0.0
 50
0.0
 51
0.0
 71
     0
 72
 10000
 73
     1
 74
     3
 75
     0
 76
     0
 77
     0
 78
     1
  0
ENDTAB
  0
TABLE
  2
LTYPE
  5
8D
330
0
100
AcDbSymbolTable
 70
     3
  0
LTYPE
  5
8E
330
8D
100
AcDbSymbolTableRecord
100
AcDbLinetypeTableRecord
  2
BYBLOCK
 70
     0
  3

 72
    65
 73
     0
 40
0.0
  0
LTYPE
  5
8F
330
8D
100
AcDbSymbolTableRecord
100
AcDbLinetypeTableRecord
  2
BYLAYER
 70
     0
  3

 72
    65
 73
     0
 40
0.0
  0
LTYPE
  5
A
330
8D
100
AcDbSymbolTableRecord
100
AcDbLinetypeTableRecord
  2
CONTINUOUS
 70
     0
  3
Solid line
 72
    65
 73
     0
 40
0.0
  0
LTYPE
  5
BC
330
8D
100
AcDbSymbolTableRecord
100
AcDbLinetypeTableRecord
  2
CENTER
 70
     0
  3
Center ____ _ ____ _ ____ _ ____ _ ____ _ ____
 72
    65
 73
     4
 40
50.8
 49
31.75
 74
     0
 49
-6.349999999999997
 74
     0
 49
6.349999999999997
 74
     0
 49
-6.349999999999997
 74
     0
  0
LTYPE
  5
C1
330
8D
100
AcDbSymbolTableRecord
100
AcDbLinetypeTableRecord
  2
CENTERX2
 70
     0
  3
Center (2x) ________  __  ________  __  _____
 72
    65
 73
     4
 40
101.6
 49
63.5
 74
     0
 49
-12.7
 74
     0
 49
12.7
 74
     0
 49
-12.7
 74
     0
  0
ENDTAB
  0
TABLE
  2
LAYER
  5
14
102
{ACAD_XDICTIONARY
360
15
102
}
330
0
100
AcDbSymbolTable
 70
     6
  0
LAYER
  5
6
330
14
100
AcDbSymbolTableRecord
100
AcDbLayerTableRecord
  2
0
 70
     0
 62
     7
  6
CONTINUOUS
  0
LAYER
  5
A8
330
14
100
AcDbSymbolTableRecord
100
AcDbLayerTableRecord
  2
DEFPOINTS
 70
     0
 62
     7
  6
CONTINUOUS
  0
LAYER
  5
B4
330
14
100
AcDbSymbolTableRecord
100
AcDbLayerTableRecord
  2
DIM
 70
     0
 62
     3
  6
CONTINUOUS
  0
LAYER
  5
C0
330
14
100
AcDbSymbolTableRecord
100
AcDbLayerTableRecord
  2
CL
 70
     0
 62
     1
  6
CENTERX2
  0
LAYER
  5
BB
330
14
100
AcDbSymbolTableRecord
100
AcDbLayerTableRecord
  2
CEN
 70
     0
 62
     1
  6
CENTER
  0
LAYER
  5
1EF
330
14
100
AcDbSymbolTableRecord
100
AcDbLayerTableRecord
  2
2
 70
     0
 62
     2
  6
CONTINUOUS
  0
ENDTAB
  0
TABLE
  2
STYLE
  5
8A
330
0
100
AcDbSymbolTable
 70
     1
  0
STYLE
  5
8B
330
8A
100
AcDbSymbolTableRecord
100
AcDbTextStyleTableRecord
  2
STANDARD
 70
     0
 40
0.0
 41
1.0
 50
0.0
 71
     0
 42
5.777225951253058
  3
romans.shx
  4
whgtxt.shx
  0
ENDTAB
  0
TABLE
  2
VIEW
  5
90
330
0
100
AcDbSymbolTable
 70
     0
  0
ENDTAB
  0
TABLE
  2
UCS
  5
91
330
0
100
AcDbSymbolTable
 70
     0
  0
ENDTAB
  0
TABLE
  2
APPID
  5
94
330
0
100
AcDbSymbolTable
 70
     1
  0
APPID
  5
95
330
94
100
AcDbSymbolTableRecord
100
AcDbRegAppTableRecord
  2
ACAD
 70
     0
  0
ENDTAB
  0
TABLE
  2
DIMSTYLE
  5
96
330
0
100
AcDbSymbolTable
 70
     1
  0
DIMSTYLE
105
9C
102
{ACAD_REACTORS
330
DE
330
9F
330
C3
330
217
330
29A
330
28B
330
24A
330
23B
330
22A
330
2E8
330
2CE
330
10E
330
17E
330
1BB
330
FF
330
158
330
F0
330
18E
330
1AA
330
D0
330
19B
102
}
330
96
100
AcDbSymbolTableRecord
100
AcDbDimStyleTableRecord
  2
1_1_2
 70
     0
  3

  4

  5

  6

  7

 40
1.0
 41
3.0
 42
1.0
 43
10.0
 44
0.6
 45
0.0
 46
0.0
 47
0.0
 48
0.0
140
3.5
141
0.09
142
0.0
143
25.4
144
1.0
145
0.0
146
1.0
147
1.0
 71
     0
 72
     0
 73
     0
 74
     0
 75
     0
 76
     0
 77
     1
 78
     8
170
     0
171
     2
172
     1
173
     0
174
     1
175
     0
176
   123
177
   123
178
     3
270
     2
271
     2
272
     2
273
     2
274
     2
340
8B
275
     1
280
     0
281
     0
282
     0
283
     1
284
     0
285
     0
286
     0
287
     3
288
     1
  0
ENDTAB
  0
TABLE
  2
BLOCK_RECORD
  5
1
330
0
100
AcDbSymbolTable
 70
    42
  0
BLOCK_RECORD
  5
2
102
{ACAD_XDICTIONARY
360
3
102
}
330
1
100
AcDbSymbolTableRecord
100
AcDbBlockTableRecord
  2
*MODEL_SPACE
  0
BLOCK_RECORD
  5
E
102
{ACAD_XDICTIONARY
360
F
102
}
330
1
100
AcDbSymbolTableRecord
100
AcDbBlockTableRecord
  2
*PAPER_SPACE
  0
BLOCK_RECORD
  5
DF
330
1
100
AcDbSymbolTableRecord
100
AcDbBlockTableRecord
  2
*D0
  0
BLOCK_RECORD
  5
A0
330
1
100
AcDbSymbolTableRecord
100
AcDbBlockTableRecord
  2
*D1
  0
BLOCK_RECORD
  5
C4
330
1
100
AcDbSymbolTableRecord
100
AcDbBlockTableRecord
  2
*D2
  0
BLOCK_RECORD
  5
28C
330
1
100
AcDbSymbolTableRecord
100
AcDbBlockTableRecord
  2
*D3
  0
BLOCK_RECORD
  5
24B
330
1
100
AcDbSymbolTableRecord
100
AcDbBlockTableRecord
  2
*D4
  0
BLOCK_RECORD
  5
23C
330
1
100
AcDbSymbolTableRecord
100
AcDbBlockTableRecord
  2
*D5
  0
BLOCK_RECORD
  5
2E9
330
1
100
AcDbSymbolTableRecord
100
AcDbBlockTableRecord
  2
*D6
  0
BLOCK_RECORD
  5
2CF
330
1
100
AcDbSymbolTableRecord
100
AcDbBlockTableRecord
  2
*D7
  0
BLOCK_RECORD
  5
18F
330
1
100
AcDbSymbolTableRecord
100
AcDbBlockTableRecord
  2
*D8
  0
BLOCK_RECORD
  5
D1
330
1
100
AcDbSymbolTableRecord
100
AcDbBlockTableRecord
  2
*D9
  0
BLOCK_RECORD
  5
19C
330
1
100
AcDbSymbolTableRecord
100
AcDbBlockTableRecord
  2
*D10
  0
BLOCK_RECORD
  5
21A
330
1
100
AcDbSymbolTableRecord
100
AcDbBlockTableRecord
  2
*D11
  0
BLOCK_RECORD
  5
29D
330
1
100
AcDbSymbolTableRecord
100
AcDbBlockTableRecord
  2
*D12
  0
BLOCK_RECORD
  5
22D
330
1
100
AcDbSymbolTableRecord
100
AcDbBlockTableRecord
  2
*D13
  0
BLOCK_RECORD
  5
111
330
1
100
AcDbSymbolTableRecord
100
AcDbBlockTableRecord
  2
*D14
  0
BLOCK_RECORD
  5
181
330
1
100
AcDbSymbolTableRecord
100
AcDbBlockTableRecord
  2
*D15
  0
BLOCK_RECORD
  5
1BE
330
1
100
AcDbSymbolTableRecord
100
AcDbBlockTableRecord
  2
*D16
  0
BLOCK_RECORD
  5
102
330
1
100
AcDbSymbolTableRecord
100
AcDbBlockTableRecord
  2
*D17
  0
BLOCK_RECORD
  5
15B
330
1
100
AcDbSymbolTableRecord
100
AcDbBlockTableRecord
  2
*D18
  0
BLOCK_RECORD
  5
F3
330
1
100
AcDbSymbolTableRecord
100
AcDbBlockTableRecord
  2
*D19
  0
BLOCK_RECORD
  5
1AD
330
1
100
AcDbSymbolTableRecord
100
AcDbBlockTableRecord
  2
*D20
  0
BLOCK_RECORD
  5
2FD
330
1
100
AcDbSymbolTableRecord
100
AcDbBlockTableRecord
  2
*D21
  0
BLOCK_RECORD
  5
30B
330
1
100
AcDbSymbolTableRecord
100
AcDbBlockTableRecord
  2
*D22
  0
BLOCK_RECORD
  5
317
330
1
100
AcDbSymbolTableRecord
100
AcDbBlockTableRecord
  2
*D23
  0
BLOCK_RECORD
  5
323
330
1
100
AcDbSymbolTableRecord
100
AcDbBlockTableRecord
  2
*D24
  0
BLOCK_RECORD
  5
331
330
1
100
AcDbSymbolTableRecord
100
AcDbBlockTableRecord
  2
*D25
  0
BLOCK_RECORD
  5
33D
330
1
100
AcDbSymbolTableRecord
100
AcDbBlockTableRecord
  2
*D26
  0
BLOCK_RECORD
  5
34B
330
1
100
AcDbSymbolTableRecord
100
AcDbBlockTableRecord
  2
*D27
  0
BLOCK_RECORD
  5
359
330
1
100
AcDbSymbolTableRecord
100
AcDbBlockTableRecord
  2
*D28
  0
BLOCK_RECORD
  5
365
330
1
100
AcDbSymbolTableRecord
100
AcDbBlockTableRecord
  2
*D29
  0
BLOCK_RECORD
  5
370
330
1
100
AcDbSymbolTableRecord
100
AcDbBlockTableRecord
  2
*D30
  0
BLOCK_RECORD
  5
37C
330
1
100
AcDbSymbolTableRecord
100
AcDbBlockTableRecord
  2
*D31
  0
BLOCK_RECORD
  5
388
330
1
100
AcDbSymbolTableRecord
100
AcDbBlockTableRecord
  2
*D32
  0
BLOCK_RECORD
  5
394
330
1
100
AcDbSymbolTableRecord
100
AcDbBlockTableRecord
  2
*D33
  0
BLOCK_RECORD
  5
3A0
330
1
100
AcDbSymbolTableRecord
100
AcDbBlockTableRecord
  2
*D34
  0
BLOCK_RECORD
  5
3AB
330
1
100
AcDbSymbolTableRecord
100
AcDbBlockTableRecord
  2
*D35
  0
BLOCK_RECORD
  5
3B7
330
1
100
AcDbSymbolTableRecord
100
AcDbBlockTableRecord
  2
*D36
  0
BLOCK_RECORD
  5
3C3
330
1
100
AcDbSymbolTableRecord
100
AcDbBlockTableRecord
  2
*D37
  0
BLOCK_RECORD
  5
3D1
330
1
100
AcDbSymbolTableRecord
100
AcDbBlockTableRecord
  2
*D38
  0
BLOCK_RECORD
  5
3DF
330
1
100
AcDbSymbolTableRecord
100
AcDbBlockTableRecord
  2
*D39
  0
BLOCK_RECORD
  5
3EB
330
1
100
AcDbSymbolTableRecord
100
AcDbBlockTableRecord
  2
*D40
  0
BLOCK_RECORD
  5
3F7
330
1
100
AcDbSymbolTableRecord
100
AcDbBlockTableRecord
  2
*D41
  0
ENDTAB
  0
ENDSEC
  0
SECTION
  2
BLOCKS
  0
BLOCK
  5
5
330
2
100
AcDbEntity
  8
0
100
AcDbBlockBegin
  2
*MODEL_SPACE
 70
     0
 10
0.0
 20
0.0
 30
0.0
  3
*MODEL_SPACE
  1

  0
ENDBLK
  5
B
330
2
100
AcDbEntity
  8
0
100
AcDbBlockEnd
  0
BLOCK
  5
11
330
E
100
AcDbEntity
 67
     1
  8
0
100
AcDbBlockBegin
  2
*PAPER_SPACE
 70
     0
 10
0.0
 20
0.0
 30
0.0
  3
*PAPER_SPACE
  1

  0
ENDBLK
  5
12
330
E
100
AcDbEntity
 67
     1
  8
0
100
AcDbBlockEnd
  0
BLOCK
  5
EB
330
DF
100
AcDbEntity
  8
0
100
AcDbBlockBegin
  2
*D0
 70
     1
 10
0.0
 20
0.0
 30
0.0
  3
*D0
  1

  0
LINE
  5
E0
330
DF
100
AcDbEntity
  8
0
 62
   123
100
AcDbLine
 10
-10679.32838038808
 20
-6134.054327785262
 30
0.0
 11
-10679.32731271812
 21
-6152.472573361573
 31
0.0
  0
LINE
  5
E1
330
DF
100
AcDbEntity
  8
0
 62
   123
100
AcDbLine
 10
-10660.30603566644
 20
-6125.348017419381
 30
0.0
 11
-10651.37205175482
 21
-6146.9093702595
 31
0.0
  0
ARC
  5
E2
330
DF
100
AcDbEntity
  8
0
 62
   123
100
AcDbCircle
 10
-10679.3315467566
 20
-6079.431686962931
 30
0.0
 40
72.44088652136245
100
AcDbArc
 50
272.3762854377743
 51
290.1337927847923
  0
SOLID
  5
E3
330
DF
100
AcDbEntity
  8
0
 62
   123
100
AcDbTrace
 10
-10676.31761206799
 20
-6152.310172077855
 30
0.0
 11
-10676.338376562
 21
-6151.310387683206
 31
0.0
 12
-10679.32734749895
 22
-6151.872573362581
 32
0.0
 13
-10679.32734749895
 23
-6151.872573362581
 33
0.0
  0
SOLID
  5
E4
330
DF
100
AcDbEntity
  8
0
 62
   123
100
AcDbTrace
 10
-10654.57820551838
 20
-6146.980031003275
 30
0.0
 11
-10654.21462461985
 21
-6147.911593631458
 31
0.0
 12
-10651.60172718456
 22
-6146.355069621787
 32
0.0
 13
-10651.60172718456
 23
-6146.355069621787
 33
0.0
  0
MTEXT
  5
E5
330
DF
100
AcDbEntity
  8
0
 62
     3
100
AcDbMText
 10
-10665.79457669852
 20
-6147.455363913512
 30
0.0
 40
3.5
 41
0.0
 71
     5
 72
     1
  1
\A1;22°30'
 11
0.9807681185950707
 21
0.1951765804277893
 31
0.0
1001
ACAD
1000
MTEXTBEGIN
1070
    73
1070
     1
1070
    44
1040
1.0
1070
    74
1070
     0
1000
MTEXTEND
1000
MTEXTBEGIN
1070
    73
1070
     1
1070
    44
1040
1.0
1070
    74
1070
     0
1000
MTEXTEND
  0
POINT
  5
E6
330
DF
100
AcDbEntity
  8
DEFPOINTS
 62
     0
100
AcDbPoint
 10
-10669.87051485996
 20
-6151.252094337518
 30
0.0
  0
POINT
  5
E7
330
DF
100
AcDbEntity
  8
DEFPOINTS
 62
     0
100
AcDbPoint
 10
-10679.32843835614
 20
-6133.054327786943
 30
0.0
  0
POINT
  5
E8
330
DF
100
AcDbEntity
  8
DEFPOINTS
 62
     0
100
AcDbPoint
 10
-10679.33465602703
 20
-6079.424183023191
 30
0.0
  0
POINT
  5
E9
330
DF
100
AcDbEntity
  8
DEFPOINTS
 62
     0
100
AcDbPoint
 10
-10660.68882804935
 20
-6124.424183023191
 30
0.0
  0
POINT
  5
EA
330
DF
100
AcDbEntity
  8
DEFPOINTS
 62
     0
100
AcDbPoint
 10
-10679.33465602703
 20
-6025.794038259439
 30
0.0
  0
ENDBLK
  5
EC
330
DF
100
AcDbEntity
  8
0
100
AcDbBlockEnd
  0
BLOCK
  5
AD
330
A0
100
AcDbEntity
  8
0
100
AcDbBlockBegin
  2
*D1
 70
     1
 10
0.0
 20
0.0
 30
0.0
  3
*D1
  1

  0
LINE
  5
A1
330
A0
100
AcDbEntity
  8
0
 62
   123
100
AcDbLine
 10
-10677.30479561004
 20
-6315.650834827975
 30
0.0
 11
-10677.30372794007
 21
-6334.06908040429
 31
0.0
  0
LINE
  5
A2
330
A0
100
AcDbEntity
  8
0
 62
   123
100
AcDbLine
 10
-10658.2824508884
 20
-6306.944524462092
 30
0.0
 11
-10649.34846697678
 21
-6328.50587730222
 31
0.0
  0
ARC
  5
A3
330
A0
100
AcDbEntity
  8
0
 62
   123
100
AcDbCircle
 10
-10677.30796197856
 20
-6261.028194005637
 30
0.0
 40
72.4408865213723
100
AcDbArc
 50
272.376285437773
 51
290.1337927847898
  0
SOLID
  5
A4
330
A0
100
AcDbEntity
  8
0
 62
   123
100
AcDbTrace
 10
-10674.29402728995
 20
-6333.906679120572
 30
0.0
 11
-10674.31479178397
 21
-6332.90689472592
 31
0.0
 12
-10677.30376272089
 22
-6333.469080405299
 32
0.0
 13
-10677.30376272089
 23
-6333.469080405299
 33
0.0
  0
SOLID
  5
A5
330
A0
100
AcDbEntity
  8
0
 62
   123
100
AcDbTrace
 10
-10652.55462074033
 20
-6328.576538045993
 30
0.0
 11
-10652.1910398418
 21
-6329.508100674175
 31
0.0
 12
-10649.57814240653
 22
-6327.951576664505
 32
0.0
 13
-10649.57814240653
 23
-6327.951576664505
 33
0.0
  0
MTEXT
  5
A6
330
A0
100
AcDbEntity
  8
0
 62
     3
100
AcDbMText
 10
-10663.77099192048
 20
-6329.051870956229
 30
0.0
 40
3.5
 41
0.0
 71
     5
 72
     1
  1
\A1;22°30'
 11
0.9807681185950707
 21
0.1951765804277893
 31
0.0
1001
ACAD
1000
MTEXTBEGIN
1070
    73
1070
     1
1070
    44
1040
1.0
1070
    74
1070
     0
1000
MTEXTEND
1000
MTEXTBEGIN
1070
    73
1070
     1
1070
    44
1040
1.0
1070
    74
1070
     0
1000
MTEXTEND
  0
POINT
  5
A7
330
A0
100
AcDbEntity
  8
DEFPOINTS
 62
     0
100
AcDbPoint
 10
-10667.84693008192
 20
-6332.848601380236
 30
0.0
  0
POINT
  5
A9
330
A0
100
AcDbEntity
  8
DEFPOINTS
 62
     0
100
AcDbPoint
 10
-10677.3048535781
 20
-6314.650834829656
 30
0.0
  0
POINT
  5
AA
330
A0
100
AcDbEntity
  8
DEFPOINTS
 62
     0
100
AcDbPoint
 10
-10677.31107124899
 20
-6261.020690065903
 30
0.0
  0
POINT
  5
AB
330
A0
100
AcDbEntity
  8
DEFPOINTS
 62
     0
100
AcDbPoint
 10
-10658.66524327131
 20
-6306.020690065903
 30
0.0
  0
POINT
  5
AC
330
A0
100
AcDbEntity
  8
DEFPOINTS
 62
     0
100
AcDbPoint
 10
-10677.31107124899
 20
-6207.390545302151
 30
0.0
  0
ENDBLK
  5
AE
330
A0
100
AcDbEntity
  8
0
100
AcDbBlockEnd
  0
BLOCK
  5
CE
330
C4
100
AcDbEntity
  8
0
100
AcDbBlockBegin
  2
*D2
 70
     1
 10
0.0
 20
0.0
 30
0.0
  3
*D2
  1

  0
LINE
  5
C5
330
C4
100
AcDbEntity
  8
0
 62
   123
100
AcDbLine
 10
-10569.30785838751
 20
-6032.924183023191
 30
0.0
 11
-10569.30785838751
 21
-5995.956114293147
 31
0.0
  0
LINE
  5
C6
330
C4
100
AcDbEntity
  8
0
 62
   123
100
AcDbLine
 10
-10353.30713589682
 20
-6036.924183023192
 30
0.0
 11
-10353.30713589682
 21
-5995.956114293147
 31
0.0
  0
LINE
  5
C7
330
C4
100
AcDbEntity
  8
0
 62
   123
100
AcDbLine
 10
-10566.30785838751
 20
-5996.556114293149
 30
0.0
 11
-10356.30713589682
 21
-5996.556114293149
 31
0.0
  0
SOLID
  5
C8
330
C4
100
AcDbEntity
  8
0
 62
   123
100
AcDbTrace
 10
-10566.30785838751
 20
-5996.056114293147
 30
0.0
 11
-10566.30785838751
 21
-5997.056114293147
 31
0.0
 12
-10569.30785838751
 22
-5996.556114293149
 32
0.0
 13
-10569.30785838751
 23
-5996.556114293149
 33
0.0
  0
SOLID
  5
C9
330
C4
100
AcDbEntity
  8
0
 62
   123
100
AcDbTrace
 10
-10356.30713589682
 20
-5996.056114293147
 30
0.0
 11
-10356.30713589682
 21
-5997.056114293147
 31
0.0
 12
-10353.30713589682
 22
-5996.556114293149
 32
0.0
 13
-10353.30713589682
 23
-5996.556114293149
 33
0.0
  0
MTEXT
  5
CA
330
C4
100
AcDbEntity
  8
0
 62
     3
100
AcDbMText
 10
-10441.30785838751
 20
-5993.806114293147
 30
0.0
 40
3.5
 41
0.0
 71
     5
 72
     1
  1
\A1;216
1001
ACAD
1000
MTEXTBEGIN
1070
    73
1070
     1
1070
    44
1040
1.0
1070
    74
1070
     0
1000
MTEXTEND
1000
MTEXTBEGIN
1070
    73
1070
     1
1070
    44
1040
1.0
1070
    74
1070
     0
1000
MTEXTEND
  0
POINT
  5
CB
330
C4
100
AcDbEntity
  8
DEFPOINTS
 62
     0
100
AcDbPoint
 10
-10569.30785838751
 20
-6033.924183023192
 30
0.0
  0
POINT
  5
CC
330
C4
100
AcDbEntity
  8
DEFPOINTS
 62
     0
100
AcDbPoint
 10
-10353.30713589682
 20
-6037.924183023191
 30
0.0
  0
POINT
  5
CD
330
C4
100
AcDbEntity
  8
DEFPOINTS
 62
     0
100
AcDbPoint
 10
-10353.30713589682
 20
-5996.556114293149
 30
0.0
  0
ENDBLK
  5
CF
330
C4
100
AcDbEntity
  8
0
100
AcDbBlockEnd
  0
BLOCK
  5
296
330
28C
100
AcDbEntity
  8
0
100
AcDbBlockBegin
  2
*D3
 70
     1
 10
0.0
 20
0.0
 30
0.0
  3
*D3
  1

  0
LINE
  5
28D
330
28C
100
AcDbEntity
  8
0
 62
   123
100
AcDbLine
 10
-10724.32843835614
 20
-6038.466976781989
 30
0.0
 11
-10724.32843835614
 21
-6013.602421245288
 31
0.0
  0
LINE
  5
28E
330
28C
100
AcDbEntity
  8
0
 62
   123
100
AcDbLine
 10
-10634.32843835615
 20
-6038.466976781989
 30
0.0
 11
-10634.32843835615
 21
-6013.602421245288
 31
0.0
  0
LINE
  5
28F
330
28C
100
AcDbEntity
  8
0
 62
   123
100
AcDbLine
 10
-10721.32843835614
 20
-6014.202421245288
 30
0.0
 11
-10637.32843835615
 21
-6014.202421245288
 31
0.0
  0
SOLID
  5
290
330
28C
100
AcDbEntity
  8
0
 62
   123
100
AcDbTrace
 10
-10721.32843835614
 20
-6013.702421245287
 30
0.0
 11
-10721.32843835614
 21
-6014.702421245289
 31
0.0
 12
-10724.32843835614
 22
-6014.202421245288
 32
0.0
 13
-10724.32843835614
 23
-6014.202421245288
 33
0.0
  0
SOLID
  5
291
330
28C
100
AcDbEntity
  8
0
 62
   123
100
AcDbTrace
 10
-10637.32843835615
 20
-6013.702421245287
 30
0.0
 11
-10637.32843835615
 21
-6014.702421245289
 31
0.0
 12
-10634.32843835615
 22
-6014.202421245288
 32
0.0
 13
-10634.32843835615
 23
-6014.202421245288
 33
0.0
  0
MTEXT
  5
292
330
28C
100
AcDbEntity
  8
0
 62
     3
100
AcDbMText
 10
-10678.93778671616
 20
-6011.452421245287
 30
0.0
 40
3.5
 41
0.0
 71
     5
 72
     1
  1
\A1;90
1001
ACAD
1000
MTEXTBEGIN
1070
    73
1070
     1
1070
    44
1040
1.0
1070
    74
1070
     0
1000
MTEXTEND
1000
MTEXTBEGIN
1070
    73
1070
     1
1070
    44
1040
1.0
1070
    74
1070
     0
1000
MTEXTEND
  0
POINT
  5
293
330
28C
100
AcDbEntity
  8
DEFPOINTS
 62
     0
100
AcDbPoint
 10
-10724.32843835614
 20
-6039.466976781989
 30
0.0
  0
POINT
  5
294
330
28C
100
AcDbEntity
  8
DEFPOINTS
 62
     0
100
AcDbPoint
 10
-10634.32843835615
 20
-6039.466976781989
 30
0.0
  0
POINT
  5
295
330
28C
100
AcDbEntity
  8
DEFPOINTS
 62
     0
100
AcDbPoint
 10
-10634.32843835615
 20
-6014.202421245288
 30
0.0
  0
ENDBLK
  5
297
330
28C
100
AcDbEntity
  8
0
100
AcDbBlockEnd
  0
BLOCK
  5
255
330
24B
100
AcDbEntity
  8
0
100
AcDbBlockBegin
  2
*D4
 70
     1
 10
0.0
 20
0.0
 30
0.0
  3
*D4
  1

  0
LINE
  5
24C
330
24B
100
AcDbEntity
  8
0
 62
   123
100
AcDbLine
 10
-10590.30785838751
 20
-6073.774183023193
 30
0.0
 11
-10590.30785838751
 21
-5995.956114293147
 31
0.0
  0
LINE
  5
24D
330
24B
100
AcDbEntity
  8
0
 62
   123
100
AcDbLine
 10
-10569.30785838751
 20
-6033.215849689857
 30
0.0
 11
-10569.30785838751
 21
-5995.956114293147
 31
0.0
  0
LINE
  5
24E
330
24B
100
AcDbEntity
  8
0
 62
   123
100
AcDbLine
 10
-10587.30785838751
 20
-5996.556114293149
 30
0.0
 11
-10572.30785838751
 21
-5996.556114293149
 31
0.0
  0
SOLID
  5
24F
330
24B
100
AcDbEntity
  8
0
 62
   123
100
AcDbTrace
 10
-10587.30785838751
 20
-5996.056114293147
 30
0.0
 11
-10587.30785838751
 21
-5997.056114293147
 31
0.0
 12
-10590.30785838751
 22
-5996.556114293149
 32
0.0
 13
-10590.30785838751
 23
-5996.556114293149
 33
0.0
  0
SOLID
  5
250
330
24B
100
AcDbEntity
  8
0
 62
   123
100
AcDbTrace
 10
-10572.30785838751
 20
-5996.056114293147
 30
0.0
 11
-10572.30785838751
 21
-5997.056114293147
 31
0.0
 12
-10569.30785838751
 22
-5996.556114293149
 32
0.0
 13
-10569.30785838751
 23
-5996.556114293149
 33
0.0
  0
MTEXT
  5
251
330
24B
100
AcDbEntity
  8
0
 62
     3
100
AcDbMText
 10
-10579.80785838751
 20
-5993.806114293147
 30
0.0
 40
3.5
 41
0.0
 71
     5
 72
     1
  1
\A1;21
1001
ACAD
1000
MTEXTBEGIN
1070
    73
1070
     1
1070
    44
1040
1.0
1070
    74
1070
     0
1000
MTEXTEND
1000
MTEXTBEGIN
1070
    73
1070
     1
1070
    44
1040
1.0
1070
    74
1070
     0
1000
MTEXTEND
  0
POINT
  5
252
330
24B
100
AcDbEntity
  8
DEFPOINTS
 62
     0
100
AcDbPoint
 10
-10590.30785838751
 20
-6074.77418302319
 30
0.0
  0
POINT
  5
253
330
24B
100
AcDbEntity
  8
DEFPOINTS
 62
     0
100
AcDbPoint
 10
-10569.30785838751
 20
-6034.215849689857
 30
0.0
  0
POINT
  5
254
330
24B
100
AcDbEntity
  8
DEFPOINTS
 62
     0
100
AcDbPoint
 10
-10569.30785838751
 20
-5996.556114293149
 30
0.0
  0
ENDBLK
  5
256
330
24B
100
AcDbEntity
  8
0
100
AcDbBlockEnd
  0
BLOCK
  5
248
330
23C
100
AcDbEntity
  8
0
100
AcDbBlockBegin
  2
*D5
 70
     1
 10
0.0
 20
0.0
 30
0.0
  3
*D5
  1

  0
LINE
  5
23D
330
23C
100
AcDbEntity
  8
0
 62
   123
100
AcDbLine
 10
-10571.30785838751
 20
-6036.924183023192
 30
0.0
 11
-10571.30785838751
 21
-6021.191529458942
 31
0.0
  0
LINE
  5
23E
330
23C
100
AcDbEntity
  8
0
 62
   123
100
AcDbLine
 10
-10569.30785838751
 20
-6033.424183023193
 30
0.0
 11
-10569.30785838751
 21
-6021.191529458942
 31
0.0
  0
LINE
  5
23F
330
23C
100
AcDbEntity
  8
0
 62
   123
100
AcDbLine
 10
-10566.30785838751
 20
-6021.791529458942
 30
0.0
 11
-10563.30785838751
 21
-6021.791529458942
 31
0.0
  0
LINE
  5
240
330
23C
100
AcDbEntity
  8
0
 62
   123
100
AcDbLine
 10
-10574.30785838751
 20
-6021.791529458942
 30
0.0
 11
-10582.47452505417
 21
-6021.791529458942
 31
0.0
  0
LINE
  5
241
330
23C
100
AcDbEntity
  8
0
 62
   123
100
AcDbLine
 10
-10569.30785838751
 20
-6021.791529458942
 30
0.0
 11
-10571.30785838751
 21
-6021.791529458942
 31
0.0
  0
SOLID
  5
242
330
23C
100
AcDbEntity
  8
0
 62
   123
100
AcDbTrace
 10
-10566.30785838751
 20
-6021.291529458942
 30
0.0
 11
-10566.30785838751
 21
-6022.291529458942
 31
0.0
 12
-10569.30785838751
 22
-6021.791529458942
 32
0.0
 13
-10569.30785838751
 23
-6021.791529458942
 33
0.0
  0
SOLID
  5
243
330
23C
100
AcDbEntity
  8
0
 62
   123
100
AcDbTrace
 10
-10574.30785838751
 20
-6021.291529458942
 30
0.0
 11
-10574.30785838751
 21
-6022.291529458942
 31
0.0
 12
-10571.30785838751
 22
-6021.791529458942
 32
0.0
 13
-10571.30785838751
 23
-6021.791529458942
 33
0.0
  0
MTEXT
  5
244
330
23C
100
AcDbEntity
  8
0
 62
     3
100
AcDbMText
 10
-10580.3078583875
 20
-6019.041529458942
 30
0.0
 40
3.5
 41
0.0
 71
     5
 72
     1
  1
\A1;2
1001
ACAD
1000
MTEXTBEGIN
1070
    73
1070
     1
1070
    44
1040
1.0
1070
    74
1070
     0
1000
MTEXTEND
1000
MTEXTBEGIN
1070
    73
1070
     1
1070
    44
1040
1.0
1070
    74
1070
     0
1000
MTEXTEND
  0
POINT
  5
245
330
23C
100
AcDbEntity
  8
DEFPOINTS
 62
     0
100
AcDbPoint
 10
-10571.30785838751
 20
-6037.924183023191
 30
0.0
  0
POINT
  5
246
330
23C
100
AcDbEntity
  8
DEFPOINTS
 62
     0
100
AcDbPoint
 10
-10569.30785838751
 20
-6034.424183023191
 30
0.0
  0
POINT
  5
247
330
23C
100
AcDbEntity
  8
DEFPOINTS
 62
     0
100
AcDbPoint
 10
-10569.30785838751
 20
-6021.791529458942
 30
0.0
  0
ENDBLK
  5
249
330
23C
100
AcDbEntity
  8
0
100
AcDbBlockEnd
  0
BLOCK
  5
2F3
330
2E9
100
AcDbEntity
  8
0
100
AcDbBlockBegin
  2
*D6
 70
     1
 10
0.0
 20
0.0
 30
0.0
  3
*D6
  1

  0
LINE
  5
2EA
330
2E9
100
AcDbEntity
  8
0
 62
   123
100
AcDbLine
 10
-10355.80713589682
 20
-6034.424183023191
 30
0.0
 11
-10331.1125325073
 21
-6034.424183023191
 31
0.0
  0
LINE
  5
2EB
330
2E9
100
AcDbEntity
  8
0
 62
   123
100
AcDbLine
 10
-10355.80713589682
 20
-6124.424183023191
 30
0.0
 11
-10331.1125325073
 21
-6124.424183023191
 31
0.0
  0
LINE
  5
2EC
330
2E9
100
AcDbEntity
  8
0
 62
   123
100
AcDbLine
 10
-10331.7125325073
 20
-6037.424183023191
 30
0.0
 11
-10331.7125325073
 21
-6121.424183023191
 31
0.0
  0
SOLID
  5
2ED
330
2E9
100
AcDbEntity
  8
0
 62
   123
100
AcDbTrace
 10
-10332.21253250728
 20
-6037.424183023191
 30
0.0
 11
-10331.21253250729
 21
-6037.424183023191
 31
0.0
 12
-10331.7125325073
 22
-6034.424183023191
 32
0.0
 13
-10331.7125325073
 23
-6034.424183023191
 33
0.0
  0
SOLID
  5
2EE
330
2E9
100
AcDbEntity
  8
0
 62
   123
100
AcDbTrace
 10
-10332.21253250728
 20
-6121.424183023191
 30
0.0
 11
-10331.21253250729
 21
-6121.424183023191
 31
0.0
 12
-10331.7125325073
 22
-6124.424183023191
 32
0.0
 13
-10331.7125325073
 23
-6124.424183023191
 33
0.0
  0
MTEXT
  5
2EF
330
2E9
100
AcDbEntity
  8
0
 62
     3
100
AcDbMText
 10
-10334.4625325073
 20
-6076.674293781957
 30
0.0
 40
3.5
 41
0.0
 71
     5
 72
     1
  1
\A1;90
 11
0.0000000000000001
 21
1.0
 31
0.0
1001
ACAD
1000
MTEXTBEGIN
1070
    73
1070
     1
1070
    44
1040
1.0
1070
    74
1070
     0
1000
MTEXTEND
1000
MTEXTBEGIN
1070
    73
1070
     1
1070
    44
1040
1.0
1070
    74
1070
     0
1000
MTEXTEND
  0
POINT
  5
2F0
330
2E9
100
AcDbEntity
  8
DEFPOINTS
 62
     0
100
AcDbPoint
 10
-10356.80713589682
 20
-6034.424183023191
 30
0.0
  0
POINT
  5
2F1
330
2E9
100
AcDbEntity
  8
DEFPOINTS
 62
     0
100
AcDbPoint
 10
-10356.80713589682
 20
-6124.424183023191
 30
0.0
  0
POINT
  5
2F2
330
2E9
100
AcDbEntity
  8
DEFPOINTS
 62
     0
100
AcDbPoint
 10
-10331.7125325073
 20
-6124.424183023191
 30
0.0
  0
ENDBLK
  5
2F4
330
2E9
100
AcDbEntity
  8
0
100
AcDbBlockEnd
  0
BLOCK
  5
2D9
330
2CF
100
AcDbEntity
  8
0
100
AcDbBlockBegin
  2
*D7
 70
     1
 10
0.0
 20
0.0
 30
0.0
  3
*D7
  1

  0
LINE
  5
2D0
330
2CF
100
AcDbEntity
  8
0
 62
   123
100
AcDbLine
 10
-10324.94406040617
 20
-6216.020690065903
 30
0.0
 11
-10300.24945701667
 21
-6216.020690065903
 31
0.0
  0
LINE
  5
2D1
330
2CF
100
AcDbEntity
  8
0
 62
   123
100
AcDbLine
 10
-10324.94406040617
 20
-6306.020690065903
 30
0.0
 11
-10300.24945701667
 21
-6306.020690065903
 31
0.0
  0
LINE
  5
2D2
330
2CF
100
AcDbEntity
  8
0
 62
   123
100
AcDbLine
 10
-10300.84945701665
 20
-6219.020690065903
 30
0.0
 11
-10300.84945701665
 21
-6303.020690065903
 31
0.0
  0
SOLID
  5
2D3
330
2CF
100
AcDbEntity
  8
0
 62
   123
100
AcDbTrace
 10
-10301.34945701667
 20
-6219.020690065903
 30
0.0
 11
-10300.34945701667
 21
-6219.020690065903
 31
0.0
 12
-10300.84945701665
 22
-6216.020690065903
 32
0.0
 13
-10300.84945701665
 23
-6216.020690065903
 33
0.0
  0
SOLID
  5
2D4
330
2CF
100
AcDbEntity
  8
0
 62
   123
100
AcDbTrace
 10
-10301.34945701667
 20
-6303.020690065903
 30
0.0
 11
-10300.34945701667
 21
-6303.020690065903
 31
0.0
 12
-10300.84945701665
 22
-6306.020690065903
 32
0.0
 13
-10300.84945701665
 23
-6306.020690065903
 33
0.0
  0
MTEXT
  5
2D5
330
2CF
100
AcDbEntity
  8
0
 62
     3
100
AcDbMText
 10
-10303.59945701667
 20
-6261.013900093664
 30
0.0
 40
3.5
 41
0.0
 71
     5
 72
     1
  1
\A1;90
 11
0.0000000000000001
 21
1.0
 31
0.0
1001
ACAD
1000
MTEXTBEGIN
1070
    73
1070
     1
1070
    44
1040
1.0
1070
    74
1070
     0
1000
MTEXTEND
1000
MTEXTBEGIN
1070
    73
1070
     1
1070
    44
1040
1.0
1070
    74
1070
     0
1000
MTEXTEND
  0
POINT
  5
2D6
330
2CF
100
AcDbEntity
  8
DEFPOINTS
 62
     0
100
AcDbPoint
 10
-10325.94406040617
 20
-6216.020690065903
 30
0.0
  0
POINT
  5
2D7
330
2CF
100
AcDbEntity
  8
DEFPOINTS
 62
     0
100
AcDbPoint
 10
-10325.94406040617
 20
-6306.020690065903
 30
0.0
  0
POINT
  5
2D8
330
2CF
100
AcDbEntity
  8
DEFPOINTS
 62
     0
100
AcDbPoint
 10
-10300.84945701665
 20
-6306.020690065903
 30
0.0
  0
ENDBLK
  5
2DA
330
2CF
100
AcDbEntity
  8
0
100
AcDbBlockEnd
  0
BLOCK
  5
199
330
18F
100
AcDbEntity
  8
0
100
AcDbBlockBegin
  2
*D8
 70
     1
 10
0.0
 20
0.0
 30
0.0
  3
*D8
  1

  0
LINE
  5
190
330
18F
100
AcDbEntity
  8
0
 62
   123
100
AcDbLine
 10
-10722.30485357809
 20
-6220.063483824699
 30
0.0
 11
-10722.30485357809
 21
-6195.198928288
 31
0.0
  0
LINE
  5
191
330
18F
100
AcDbEntity
  8
0
 62
   123
100
AcDbLine
 10
-10632.3048535781
 20
-6220.063483824699
 30
0.0
 11
-10632.3048535781
 21
-6195.198928288
 31
0.0
  0
LINE
  5
192
330
18F
100
AcDbEntity
  8
0
 62
   123
100
AcDbLine
 10
-10719.30485357809
 20
-6195.798928288001
 30
0.0
 11
-10635.3048535781
 21
-6195.798928288001
 31
0.0
  0
SOLID
  5
193
330
18F
100
AcDbEntity
  8
0
 62
   123
100
AcDbTrace
 10
-10719.30485357809
 20
-6195.298928288001
 30
0.0
 11
-10719.30485357809
 21
-6196.298928288001
 31
0.0
 12
-10722.30485357809
 22
-6195.798928288001
 32
0.0
 13
-10722.30485357809
 23
-6195.798928288001
 33
0.0
  0
SOLID
  5
194
330
18F
100
AcDbEntity
  8
0
 62
   123
100
AcDbTrace
 10
-10635.3048535781
 20
-6195.298928288001
 30
0.0
 11
-10635.3048535781
 21
-6196.298928288001
 31
0.0
 12
-10632.3048535781
 22
-6195.798928288001
 32
0.0
 13
-10632.3048535781
 23
-6195.798928288001
 33
0.0
  0
MTEXT
  5
195
330
18F
100
AcDbEntity
  8
0
 62
     3
100
AcDbMText
 10
-10676.91420193812
 20
-6193.048928288001
 30
0.0
 40
3.5
 41
0.0
 71
     5
 72
     1
  1
\A1;90
1001
ACAD
1000
MTEXTBEGIN
1070
    73
1070
     1
1070
    44
1040
1.0
1070
    74
1070
     0
1000
MTEXTEND
1000
MTEXTBEGIN
1070
    73
1070
     1
1070
    44
1040
1.0
1070
    74
1070
     0
1000
MTEXTEND
  0
POINT
  5
196
330
18F
100
AcDbEntity
  8
DEFPOINTS
 62
     0
100
AcDbPoint
 10
-10722.30485357809
 20
-6221.063483824701
 30
0.0
  0
POINT
  5
197
330
18F
100
AcDbEntity
  8
DEFPOINTS
 62
     0
100
AcDbPoint
 10
-10632.3048535781
 20
-6221.063483824701
 30
0.0
  0
POINT
  5
198
330
18F
100
AcDbEntity
  8
DEFPOINTS
 62
     0
100
AcDbPoint
 10
-10632.3048535781
 20
-6195.798928288001
 30
0.0
  0
ENDBLK
  5
19A
330
18F
100
AcDbEntity
  8
0
100
AcDbBlockEnd
  0
BLOCK
  5
DB
330
D1
100
AcDbEntity
  8
0
100
AcDbBlockBegin
  2
*D9
 70
     1
 10
0.0
 20
0.0
 30
0.0
  3
*D9
  1

  0
LINE
  5
D2
330
D1
100
AcDbEntity
  8
0
 62
   123
100
AcDbLine
 10
-10538.44478289688
 20
-6214.520690065903
 30
0.0
 11
-10538.44478289688
 21
-6180.943526358159
 31
0.0
  0
LINE
  5
D3
330
D1
100
AcDbEntity
  8
0
 62
   123
100
AcDbLine
 10
-10322.44406040619
 20
-6218.520690065903
 30
0.0
 11
-10322.44406040619
 21
-6180.943526358159
 31
0.0
  0
LINE
  5
D4
330
D1
100
AcDbEntity
  8
0
 62
   123
100
AcDbLine
 10
-10535.44478289688
 20
-6181.543526358161
 30
0.0
 11
-10325.44406040619
 21
-6181.543526358161
 31
0.0
  0
SOLID
  5
D5
330
D1
100
AcDbEntity
  8
0
 62
   123
100
AcDbTrace
 10
-10535.44478289688
 20
-6181.04352635816
 30
0.0
 11
-10535.44478289688
 21
-6182.04352635816
 31
0.0
 12
-10538.44478289688
 22
-6181.543526358161
 32
0.0
 13
-10538.44478289688
 23
-6181.543526358161
 33
0.0
  0
SOLID
  5
D6
330
D1
100
AcDbEntity
  8
0
 62
   123
100
AcDbTrace
 10
-10325.44406040619
 20
-6181.04352635816
 30
0.0
 11
-10325.44406040619
 21
-6182.04352635816
 31
0.0
 12
-10322.44406040619
 22
-6181.543526358161
 32
0.0
 13
-10322.44406040619
 23
-6181.543526358161
 33
0.0
  0
MTEXT
  5
D7
330
D1
100
AcDbEntity
  8
0
 62
     3
100
AcDbMText
 10
-10435.44478289688
 20
-6178.79352635816
 30
0.0
 40
3.5
 41
0.0
 71
     5
 72
     1
  1
\A1;216
1001
ACAD
1000
MTEXTBEGIN
1070
    73
1070
     1
1070
    44
1040
1.0
1070
    74
1070
     0
1000
MTEXTEND
1000
MTEXTBEGIN
1070
    73
1070
     1
1070
    44
1040
1.0
1070
    74
1070
     0
1000
MTEXTEND
  0
POINT
  5
D8
330
D1
100
AcDbEntity
  8
DEFPOINTS
 62
     0
100
AcDbPoint
 10
-10538.44478289688
 20
-6215.520690065903
 30
0.0
  0
POINT
  5
D9
330
D1
100
AcDbEntity
  8
DEFPOINTS
 62
     0
100
AcDbPoint
 10
-10322.44406040619
 20
-6219.520690065903
 30
0.0
  0
POINT
  5
DA
330
D1
100
AcDbEntity
  8
DEFPOINTS
 62
     0
100
AcDbPoint
 10
-10322.44406040619
 20
-6181.543526358161
 30
0.0
  0
ENDBLK
  5
DC
330
D1
100
AcDbEntity
  8
0
100
AcDbBlockEnd
  0
BLOCK
  5
1A8
330
19C
100
AcDbEntity
  8
0
100
AcDbBlockBegin
  2
*D10
 70
     1
 10
0.0
 20
0.0
 30
0.0
  3
*D10
  1

  0
LINE
  5
19D
330
19C
100
AcDbEntity
  8
0
 62
   123
100
AcDbLine
 10
-10540.44478289688
 20
-6218.520690065903
 30
0.0
 11
-10540.44478289688
 21
-6202.788036501655
 31
0.0
  0
LINE
  5
19E
330
19C
100
AcDbEntity
  8
0
 62
   123
100
AcDbLine
 10
-10538.44478289688
 20
-6215.020690065903
 30
0.0
 11
-10538.44478289688
 21
-6202.788036501655
 31
0.0
  0
LINE
  5
19F
330
19C
100
AcDbEntity
  8
0
 62
   123
100
AcDbLine
 10
-10535.44478289688
 20
-6203.388036501654
 30
0.0
 11
-10532.44478289688
 21
-6203.388036501654
 31
0.0
  0
LINE
  5
1A0
330
19C
100
AcDbEntity
  8
0
 62
   123
100
AcDbLine
 10
-10543.44478289688
 20
-6203.388036501654
 30
0.0
 11
-10551.61144956354
 21
-6203.388036501654
 31
0.0
  0
LINE
  5
1A1
330
19C
100
AcDbEntity
  8
0
 62
   123
100
AcDbLine
 10
-10538.44478289688
 20
-6203.388036501654
 30
0.0
 11
-10540.44478289688
 21
-6203.388036501654
 31
0.0
  0
SOLID
  5
1A2
330
19C
100
AcDbEntity
  8
0
 62
   123
100
AcDbTrace
 10
-10535.44478289688
 20
-6202.888036501654
 30
0.0
 11
-10535.44478289688
 21
-6203.888036501654
 31
0.0
 12
-10538.44478289688
 22
-6203.388036501654
 32
0.0
 13
-10538.44478289688
 23
-6203.388036501654
 33
0.0
  0
SOLID
  5
1A3
330
19C
100
AcDbEntity
  8
0
 62
   123
100
AcDbTrace
 10
-10543.44478289688
 20
-6202.888036501654
 30
0.0
 11
-10543.44478289688
 21
-6203.888036501654
 31
0.0
 12
-10540.44478289688
 22
-6203.388036501654
 32
0.0
 13
-10540.44478289688
 23
-6203.388036501654
 33
0.0
  0
MTEXT
  5
1A4
330
19C
100
AcDbEntity
  8
0
 62
     3
100
AcDbMText
 10
-10549.44478289688
 20
-6200.638036501654
 30
0.0
 40
3.5
 41
0.0
 71
     5
 72
     1
  1
\A1;2
1001
ACAD
1000
MTEXTBEGIN
1070
    73
1070
     1
1070
    44
1040
1.0
1070
    74
1070
     0
1000
MTEXTEND
1000
MTEXTBEGIN
1070
    73
1070
     1
1070
    44
1040
1.0
1070
    74
1070
     0
1000
MTEXTEND
  0
POINT
  5
1A5
330
19C
100
AcDbEntity
  8
DEFPOINTS
 62
     0
100
AcDbPoint
 10
-10540.44478289688
 20
-6219.520690065903
 30
0.0
  0
POINT
  5
1A6
330
19C
100
AcDbEntity
  8
DEFPOINTS
 62
     0
100
AcDbPoint
 10
-10538.44478289688
 20
-6216.020690065903
 30
0.0
  0
POINT
  5
1A7
330
19C
100
AcDbEntity
  8
DEFPOINTS
 62
     0
100
AcDbPoint
 10
-10538.44478289688
 20
-6203.388036501654
 30
0.0
  0
ENDBLK
  5
1A9
330
19C
100
AcDbEntity
  8
0
100
AcDbBlockEnd
  0
BLOCK
  5
224
330
21A
100
AcDbEntity
  8
0
100
AcDbBlockBegin
  2
*D11
 70
     1
 10
0.0
 20
0.0
 30
0.0
  3
*D11
  1

  0
LINE
  5
21B
330
21A
100
AcDbEntity
  8
0
 62
   123
100
AcDbLine
 10
-10572.30785838751
 20
-6037.924183023191
 30
0.0
 11
-10608.17517195155
 21
-6037.924183023191
 31
0.0
  0
LINE
  5
21C
330
21A
100
AcDbEntity
  8
0
 62
   123
100
AcDbLine
 10
-10572.30785838751
 20
-6120.924183023191
 30
0.0
 11
-10608.17517195155
 21
-6120.924183023191
 31
0.0
  0
LINE
  5
21D
330
21A
100
AcDbEntity
  8
0
 62
   123
100
AcDbLine
 10
-10607.57517195155
 20
-6040.924183023191
 30
0.0
 11
-10607.57517195155
 21
-6117.924183023191
 31
0.0
  0
SOLID
  5
21E
330
21A
100
AcDbEntity
  8
0
 62
   123
100
AcDbTrace
 10
-10608.07517195154
 20
-6040.924183023191
 30
0.0
 11
-10607.07517195154
 21
-6040.924183023191
 31
0.0
 12
-10607.57517195155
 22
-6037.924183023191
 32
0.0
 13
-10607.57517195155
 23
-6037.924183023191
 33
0.0
  0
SOLID
  5
21F
330
21A
100
AcDbEntity
  8
0
 62
   123
100
AcDbTrace
 10
-10608.07517195154
 20
-6117.924183023191
 30
0.0
 11
-10607.07517195154
 21
-6117.924183023191
 31
0.0
 12
-10607.57517195155
 22
-6120.924183023191
 32
0.0
 13
-10607.57517195155
 23
-6120.924183023191
 33
0.0
  0
MTEXT
  5
220
330
21A
100
AcDbEntity
  8
0
 62
     3
100
AcDbMText
 10
-10612.01701361822
 20
-6079.424183023191
 30
0.0
 40
3.5
 41
0.0
 71
     5
 72
     1
  1
\A1;\A1;{\f??|b0|i0|c0|p49;%%C}83{\f??|b0|i0|c0|p49;\H0.7x;\S+0^ -0.035;\H1.429x;(h}7{\f??|b0|i0|c0|p49;)}
 11
0.0000000000000001
 21
1.0
 31
0.0
1001
ACAD
1000
MTEXTBEGIN
1070
    73
1070
     1
1070
    44
1040
1.0
1070
    74
1070
     0
1000
MTEXTEND
1000
MTEXTBEGIN
1070
    73
1070
     1
1070
    44
1040
1.0
1070
    74
1070
     0
1000
MTEXTEND
  0
POINT
  5
221
330
21A
100
AcDbEntity
  8
DEFPOINTS
 62
     0
100
AcDbPoint
 10
-10571.30785838751
 20
-6037.924183023191
 30
0.0
  0
POINT
  5
222
330
21A
100
AcDbEntity
  8
DEFPOINTS
 62
     0
100
AcDbPoint
 10
-10571.30785838751
 20
-6120.924183023191
 30
0.0
  0
POINT
  5
223
330
21A
100
AcDbEntity
  8
DEFPOINTS
 62
     0
100
AcDbPoint
 10
-10607.57517195155
 20
-6120.924183023191
 30
0.0
  0
ENDBLK
  5
225
330
21A
100
AcDbEntity
  8
0
100
AcDbBlockEnd
  0
BLOCK
  5
2A6
330
29D
100
AcDbEntity
  8
0
100
AcDbBlockBegin
  2
*D12
 70
     1
 10
0.0
 20
0.0
 30
0.0
  3
*D12
  1

  0
LINE
  5
29E
330
29D
100
AcDbEntity
  8
0
 62
   123
100
AcDbLine
 10
-10723.08470214025
 20
-6112.746688626081
 30
0.0
 11
-10725.47140743757
 21
-6114.564279840786
 31
0.0
  0
LINE
  5
29F
330
29D
100
AcDbEntity
  8
0
 62
   123
100
AcDbLine
 10
-10635.57217457202
 20
-6046.1016774203
 30
0.0
 11
-10611.01200250442
 21
-6027.397921647906
 31
0.0
  0
LINE
  5
2A0
330
29D
100
AcDbEntity
  8
0
 62
   123
100
AcDbLine
 10
-10720.69799684294
 20
-6110.929097411379
 30
0.0
 11
-10637.95887986934
 21
-6047.919268635002
 31
0.0
  0
SOLID
  5
2A1
330
29D
100
AcDbEntity
  8
0
 62
   123
100
AcDbTrace
 10
-10723.38763400938
 20
-6112.348904409864
 30
0.0
 11
-10722.78177027114
 21
-6113.144472842304
 31
0.0
 12
-10720.69799684294
 22
-6110.929097411379
 32
0.0
 13
-10720.69799684294
 23
-6110.929097411379
 33
0.0
  0
SOLID
  5
2A2
330
29D
100
AcDbEntity
  8
0
 62
   123
100
AcDbTrace
 10
-10635.87510644114
 20
-6045.70389320408
 30
0.0
 11
-10635.2692427029
 21
-6046.49946163652
 31
0.0
 12
-10637.95887986934
 22
-6047.919268635002
 32
0.0
 13
-10637.95887986934
 23
-6047.919268635002
 33
0.0
  0
MTEXT
  5
2A3
330
29D
100
AcDbEntity
  8
0
 62
     3
100
AcDbMText
 10
-10623.35200425312
 20
-6033.338780280011
 30
0.0
 40
3.5
 41
0.0
 71
     5
 72
     1
  1
\A1;\U+2205104%%P0.5
 11
0.7955684324385023
 21
0.6058637382343857
 31
0.0
1001
ACAD
1000
MTEXTBEGIN
1070
    73
1070
     1
1070
    44
1040
1.0
1070
    74
1070
     0
1000
MTEXTEND
1000
MTEXTBEGIN
1070
    73
1070
     1
1070
    44
1040
1.0
1070
    74
1070
     0
1000
MTEXTEND
  0
POINT
  5
2A4
330
29D
100
AcDbEntity
  8
DEFPOINTS
 62
     0
100
AcDbPoint
 10
-10637.95887986934
 20
-6047.919268635002
 30
0.0
  0
POINT
  5
2A5
330
29D
100
AcDbEntity
  8
DEFPOINTS
 62
     0
100
AcDbPoint
 10
-10720.69799684294
 20
-6110.929097411379
 30
0.0
  0
ENDBLK
  5
2A7
330
29D
100
AcDbEntity
  8
0
100
AcDbBlockEnd
  0
BLOCK
  5
239
330
22D
100
AcDbEntity
  8
0
100
AcDbBlockBegin
  2
*D13
 70
     1
 10
0.0
 20
0.0
 30
0.0
  3
*D13
  1

  0
LINE
  5
22E
330
22D
100
AcDbEntity
  8
0
 62
   123
100
AcDbLine
 10
-10569.30785838751
 20
-6033.215849689857
 30
0.0
 11
-10569.30785838751
 21
-6009.367209228025
 31
0.0
  0
LINE
  5
22F
330
22D
100
AcDbEntity
  8
0
 62
   123
100
AcDbLine
 10
-10561.80785838751
 20
-6034.825445681661
 30
0.0
 11
-10561.80785838751
 21
-6009.367209228025
 31
0.0
  0
LINE
  5
230
330
22D
100
AcDbEntity
  8
0
 62
   123
100
AcDbLine
 10
-10572.30785838751
 20
-6009.967209228025
 30
0.0
 11
-10575.30785838751
 21
-6009.967209228025
 31
0.0
  0
LINE
  5
231
330
22D
100
AcDbEntity
  8
0
 62
   123
100
AcDbLine
 10
-10558.80785838751
 20
-6009.967209228025
 30
0.0
 11
-10555.80785838751
 21
-6009.967209228025
 31
0.0
  0
LINE
  5
232
330
22D
100
AcDbEntity
  8
0
 62
   123
100
AcDbLine
 10
-10569.30785838751
 20
-6009.967209228025
 30
0.0
 11
-10561.80785838751
 21
-6009.967209228025
 31
0.0
  0
SOLID
  5
233
330
22D
100
AcDbEntity
  8
0
 62
   123
100
AcDbTrace
 10
-10572.30785838751
 20
-6009.467209228025
 30
0.0
 11
-10572.30785838751
 21
-6010.467209228025
 31
0.0
 12
-10569.30785838751
 22
-6009.967209228025
 32
0.0
 13
-10569.30785838751
 23
-6009.967209228025
 33
0.0
  0
SOLID
  5
234
330
22D
100
AcDbEntity
  8
0
 62
   123
100
AcDbTrace
 10
-10558.80785838751
 20
-6009.467209228025
 30
0.0
 11
-10558.80785838751
 21
-6010.467209228025
 31
0.0
 12
-10561.80785838751
 22
-6009.967209228025
 32
0.0
 13
-10561.80785838751
 23
-6009.967209228025
 33
0.0
  0
MTEXT
  5
235
330
22D
100
AcDbEntity
  8
0
 62
     3
100
AcDbMText
 10
-10565.55785838751
 20
-6007.217209228025
 30
0.0
 40
3.5
 41
0.0
 71
     5
 72
     1
  1
\A1;7.5
1001
ACAD
1000
MTEXTBEGIN
1070
    73
1070
     1
1070
    44
1040
1.0
1070
    74
1070
     0
1000
MTEXTEND
1000
MTEXTBEGIN
1070
    73
1070
     1
1070
    44
1040
1.0
1070
    74
1070
     0
1000
MTEXTEND
  0
POINT
  5
236
330
22D
100
AcDbEntity
  8
DEFPOINTS
 62
     0
100
AcDbPoint
 10
-10569.30785838751
 20
-6034.215849689857
 30
0.0
  0
POINT
  5
237
330
22D
100
AcDbEntity
  8
DEFPOINTS
 62
     0
100
AcDbPoint
 10
-10561.80785838751
 20
-6035.825445681661
 30
0.0
  0
POINT
  5
238
330
22D
100
AcDbEntity
  8
DEFPOINTS
 62
     0
100
AcDbPoint
 10
-10561.80785838751
 20
-6009.967209228025
 30
0.0
  0
ENDBLK
  5
23A
330
22D
100
AcDbEntity
  8
0
100
AcDbBlockEnd
  0
BLOCK
  5
11B
330
111
100
AcDbEntity
  8
0
100
AcDbBlockBegin
  2
*D14
 70
     1
 10
0.0
 20
0.0
 30
0.0
  3
*D14
  1

  0
LINE
  5
112
330
111
100
AcDbEntity
  8
0
 62
   123
100
AcDbLine
 10
-10541.44478289688
 20
-6219.520690065903
 30
0.0
 11
-10611.86086473295
 21
-6219.520690065903
 31
0.0
  0
LINE
  5
113
330
111
100
AcDbEntity
  8
0
 62
   123
100
AcDbLine
 10
-10541.44478289688
 20
-6302.520690065904
 30
0.0
 11
-10611.86086473295
 21
-6302.520690065904
 31
0.0
  0
LINE
  5
114
330
111
100
AcDbEntity
  8
0
 62
   123
100
AcDbLine
 10
-10611.26086473296
 20
-6222.520690065903
 30
0.0
 11
-10611.26086473296
 21
-6299.520690065904
 31
0.0
  0
SOLID
  5
115
330
111
100
AcDbEntity
  8
0
 62
   123
100
AcDbTrace
 10
-10611.76086473295
 20
-6222.520690065903
 30
0.0
 11
-10610.76086473295
 21
-6222.520690065903
 31
0.0
 12
-10611.26086473296
 22
-6219.520690065903
 32
0.0
 13
-10611.26086473296
 23
-6219.520690065903
 33
0.0
  0
SOLID
  5
116
330
111
100
AcDbEntity
  8
0
 62
   123
100
AcDbTrace
 10
-10611.76086473295
 20
-6299.520690065904
 30
0.0
 11
-10610.76086473295
 21
-6299.520690065904
 31
0.0
 12
-10611.26086473296
 22
-6302.520690065904
 32
0.0
 13
-10611.26086473296
 23
-6302.520690065904
 33
0.0
  0
MTEXT
  5
117
330
111
100
AcDbEntity
  8
0
 62
     3
100
AcDbMText
 10
-10615.70270639962
 20
-6259.655733433152
 30
0.0
 40
3.5
 41
0.0
 71
     5
 72
     1
  1
\A1;\A1;{\f??|b0|i0|c0|p49;%%C}83{\f??|b0|i0|c0|p49;\H0.7x;\S+0^ -0.035;\H1.429x;(h}7{\f??|b0|i0|c0|p49;)}
 11
0.0000000000000001
 21
1.0
 31
0.0
1001
ACAD
1000
MTEXTBEGIN
1070
    73
1070
     1
1070
    44
1040
1.0
1070
    74
1070
     0
1000
MTEXTEND
1000
MTEXTBEGIN
1070
    73
1070
     1
1070
    44
1040
1.0
1070
    74
1070
     0
1000
MTEXTEND
  0
POINT
  5
118
330
111
100
AcDbEntity
  8
DEFPOINTS
 62
     0
100
AcDbPoint
 10
-10540.44478289688
 20
-6219.520690065903
 30
0.0
  0
POINT
  5
119
330
111
100
AcDbEntity
  8
DEFPOINTS
 62
     0
100
AcDbPoint
 10
-10540.44478289688
 20
-6302.520690065904
 30
0.0
  0
POINT
  5
11A
330
111
100
AcDbEntity
  8
DEFPOINTS
 62
     0
100
AcDbPoint
 10
-10611.26086473296
 20
-6302.520690065904
 30
0.0
  0
ENDBLK
  5
11C
330
111
100
AcDbEntity
  8
0
100
AcDbBlockEnd
  0
BLOCK
  5
18A
330
181
100
AcDbEntity
  8
0
100
AcDbBlockBegin
  2
*D15
 70
     1
 10
0.0
 20
0.0
 30
0.0
  3
*D15
  1

  0
LINE
  5
182
330
181
100
AcDbEntity
  8
0
 62
   123
100
AcDbLine
 10
-10721.06111736222
 20
-6294.343195668794
 30
0.0
 11
-10723.44782265951
 21
-6296.160786883499
 31
0.0
  0
LINE
  5
183
330
181
100
AcDbEntity
  8
0
 62
   123
100
AcDbLine
 10
-10633.54858979399
 20
-6227.698184463012
 30
0.0
 11
-10608.98841772639
 21
-6208.994428690626
 31
0.0
  0
LINE
  5
184
330
181
100
AcDbEntity
  8
0
 62
   123
100
AcDbLine
 10
-10718.67441206491
 20
-6292.525604454089
 30
0.0
 11
-10635.9352950913
 21
-6229.515775677715
 31
0.0
  0
SOLID
  5
185
330
181
100
AcDbEntity
  8
0
 62
   123
100
AcDbTrace
 10
-10721.36404923134
 20
-6293.945411452575
 30
0.0
 11
-10720.7581854931
 21
-6294.740979885015
 31
0.0
 12
-10718.67441206491
 22
-6292.525604454089
 32
0.0
 13
-10718.67441206491
 23
-6292.525604454089
 33
0.0
  0
SOLID
  5
186
330
181
100
AcDbEntity
  8
0
 62
   123
100
AcDbTrace
 10
-10633.8515216631
 20
-6227.300400246793
 30
0.0
 11
-10633.24565792487
 21
-6228.095968679228
 31
0.0
 12
-10635.9352950913
 22
-6229.515775677715
 32
0.0
 13
-10635.9352950913
 23
-6229.515775677715
 33
0.0
  0
MTEXT
  5
187
330
181
100
AcDbEntity
  8
0
 62
     3
100
AcDbMText
 10
-10621.32841947509
 20
-6214.935287322735
 30
0.0
 40
3.5
 41
0.0
 71
     5
 72
     1
  1
\A1;\U+2205104%%P0.5
 11
0.7955684324384938
 21
0.6058637382343969
 31
0.0
1001
ACAD
1000
MTEXTBEGIN
1070
    73
1070
     1
1070
    44
1040
1.0
1070
    74
1070
     0
1000
MTEXTEND
1000
MTEXTBEGIN
1070
    73
1070
     1
1070
    44
1040
1.0
1070
    74
1070
     0
1000
MTEXTEND
  0
POINT
  5
188
330
181
100
AcDbEntity
  8
DEFPOINTS
 62
     0
100
AcDbPoint
 10
-10635.9352950913
 20
-6229.515775677715
 30
0.0
  0
POINT
  5
189
330
181
100
AcDbEntity
  8
DEFPOINTS
 62
     0
100
AcDbPoint
 10
-10718.67441206491
 20
-6292.525604454089
 30
0.0
  0
ENDBLK
  5
18B
330
181
100
AcDbEntity
  8
0
100
AcDbBlockEnd
  0
BLOCK
  5
1C8
330
1BE
100
AcDbEntity
  8
0
100
AcDbBlockBegin
  2
*D16
 70
     1
 10
0.0
 20
0.0
 30
0.0
  3
*D16
  1

  0
LINE
  5
1BF
330
1BE
100
AcDbEntity
  8
0
 62
   123
100
AcDbLine
 10
-10575.44478289688
 20
-6255.020690065903
 30
0.0
 11
-10575.44478289688
 21
-6180.943526358159
 31
0.0
  0
LINE
  5
1C0
330
1BE
100
AcDbEntity
  8
0
 62
   123
100
AcDbLine
 10
-10538.44478289688
 20
-6214.812356732569
 30
0.0
 11
-10538.44478289688
 21
-6180.943526358159
 31
0.0
  0
LINE
  5
1C1
330
1BE
100
AcDbEntity
  8
0
 62
   123
100
AcDbLine
 10
-10572.44478289688
 20
-6181.543526358161
 30
0.0
 11
-10541.44478289688
 21
-6181.543526358161
 31
0.0
  0
SOLID
  5
1C2
330
1BE
100
AcDbEntity
  8
0
 62
   123
100
AcDbTrace
 10
-10572.44478289688
 20
-6181.04352635816
 30
0.0
 11
-10572.44478289688
 21
-6182.04352635816
 31
0.0
 12
-10575.44478289688
 22
-6181.543526358161
 32
0.0
 13
-10575.44478289688
 23
-6181.543526358161
 33
0.0
  0
SOLID
  5
1C3
330
1BE
100
AcDbEntity
  8
0
 62
   123
100
AcDbTrace
 10
-10541.44478289688
 20
-6181.04352635816
 30
0.0
 11
-10541.44478289688
 21
-6182.04352635816
 31
0.0
 12
-10538.44478289688
 22
-6181.543526358161
 32
0.0
 13
-10538.44478289688
 23
-6181.543526358161
 33
0.0
  0
MTEXT
  5
1C4
330
1BE
100
AcDbEntity
  8
0
 62
     3
100
AcDbMText
 10
-10556.94478289688
 20
-6178.79352635816
 30
0.0
 40
3.5
 41
0.0
 71
     5
 72
     1
  1
\A1;37
1001
ACAD
1000
MTEXTBEGIN
1070
    73
1070
     1
1070
    44
1040
1.0
1070
    74
1070
     0
1000
MTEXTEND
1000
MTEXTBEGIN
1070
    73
1070
     1
1070
    44
1040
1.0
1070
    74
1070
     0
1000
MTEXTEND
  0
POINT
  5
1C5
330
1BE
100
AcDbEntity
  8
DEFPOINTS
 62
     0
100
AcDbPoint
 10
-10575.44478289688
 20
-6256.020690065903
 30
0.0
  0
POINT
  5
1C6
330
1BE
100
AcDbEntity
  8
DEFPOINTS
 62
     0
100
AcDbPoint
 10
-10538.44478289688
 20
-6215.812356732571
 30
0.0
  0
POINT
  5
1C7
330
1BE
100
AcDbEntity
  8
DEFPOINTS
 62
     0
100
AcDbPoint
 10
-10538.44478289688
 20
-6181.543526358161
 30
0.0
  0
ENDBLK
  5
1C9
330
1BE
100
AcDbEntity
  8
0
100
AcDbBlockEnd
  0
BLOCK
  5
10C
330
102
100
AcDbEntity
  8
0
100
AcDbBlockBegin
  2
*D17
 70
     1
 10
0.0
 20
0.0
 30
0.0
  3
*D17
  1

  0
LINE
  5
103
330
102
100
AcDbEntity
  8
0
 62
   123
100
AcDbLine
 10
-10576.44478289688
 20
-6267.020690065903
 30
0.0
 11
-10599.3817446583
 21
-6267.020690065903
 31
0.0
  0
LINE
  5
104
330
102
100
AcDbEntity
  8
0
 62
   123
100
AcDbLine
 10
-10546.44478289687
 20
-6255.020690065903
 30
0.0
 11
-10599.3817446583
 21
-6255.020690065903
 31
0.0
  0
LINE
  5
105
330
102
100
AcDbEntity
  8
0
 62
   123
100
AcDbLine
 10
-10598.7817446583
 20
-6264.020690065903
 30
0.0
 11
-10598.7817446583
 21
-6258.020690065905
 31
0.0
  0
SOLID
  5
106
330
102
100
AcDbEntity
  8
0
 62
   123
100
AcDbTrace
 10
-10599.28174465829
 20
-6264.020690065903
 30
0.0
 11
-10598.28174465829
 21
-6264.020690065903
 31
0.0
 12
-10598.7817446583
 22
-6267.020690065903
 32
0.0
 13
-10598.7817446583
 23
-6267.020690065903
 33
0.0
  0
SOLID
  5
107
330
102
100
AcDbEntity
  8
0
 62
   123
100
AcDbTrace
 10
-10599.28174465829
 20
-6258.020690065905
 30
0.0
 11
-10598.28174465829
 21
-6258.020690065905
 31
0.0
 12
-10598.7817446583
 22
-6255.020690065903
 32
0.0
 13
-10598.7817446583
 23
-6255.020690065903
 33
0.0
  0
MTEXT
  5
108
330
102
100
AcDbEntity
  8
0
 62
     3
100
AcDbMText
 10
-10603.22358632495
 20
-6261.020690065905
 30
0.0
 40
3.5
 41
0.0
 71
     5
 72
     1
  1
\A1;\A1;{\f??|b0|i0|c0|p49;%%C}12{\f??|b0|i0|c0|p49;\H0.7x;\S+0^ -0.018;\H1.429x;(h}7{\f??|b0|i0|c0|p49;)}
 11
0.0000000000000001
 21
1.0
 31
0.0
1001
ACAD
1000
MTEXTBEGIN
1070
    73
1070
     1
1070
    44
1040
1.0
1070
    74
1070
     0
1000
MTEXTEND
1000
MTEXTBEGIN
1070
    73
1070
     1
1070
    44
1040
1.0
1070
    74
1070
     0
1000
MTEXTEND
  0
POINT
  5
109
330
102
100
AcDbEntity
  8
DEFPOINTS
 62
     0
100
AcDbPoint
 10
-10575.44478289688
 20
-6267.020690065903
 30
0.0
  0
POINT
  5
10A
330
102
100
AcDbEntity
  8
DEFPOINTS
 62
     0
100
AcDbPoint
 10
-10545.44478289688
 20
-6255.020690065903
 30
0.0
  0
POINT
  5
10B
330
102
100
AcDbEntity
  8
DEFPOINTS
 62
     0
100
AcDbPoint
 10
-10598.7817446583
 20
-6255.020690065903
 30
0.0
  0
ENDBLK
  5
10D
330
102
100
AcDbEntity
  8
0
100
AcDbBlockEnd
  0
BLOCK
  5
165
330
15B
100
AcDbEntity
  8
0
100
AcDbBlockBegin
  2
*D18
 70
     1
 10
0.0
 20
0.0
 30
0.0
  3
*D18
  1

  0
LINE
  5
15C
330
15B
100
AcDbEntity
  8
0
 62
   123
100
AcDbLine
 10
-10575.44478289688
 20
-6255.020690065903
 30
0.0
 11
-10575.44478289688
 21
-6229.823433578562
 31
0.0
  0
LINE
  5
15D
330
15B
100
AcDbEntity
  8
0
 62
   123
100
AcDbLine
 10
-10545.44478289688
 20
-6254.020690065903
 30
0.0
 11
-10545.44478289688
 21
-6229.823433578562
 31
0.0
  0
LINE
  5
15E
330
15B
100
AcDbEntity
  8
0
 62
   123
100
AcDbLine
 10
-10572.44478289688
 20
-6230.423433578562
 30
0.0
 11
-10548.44478289688
 21
-6230.423433578562
 31
0.0
  0
SOLID
  5
15F
330
15B
100
AcDbEntity
  8
0
 62
   123
100
AcDbTrace
 10
-10572.44478289688
 20
-6229.923433578562
 30
0.0
 11
-10572.44478289688
 21
-6230.923433578563
 31
0.0
 12
-10575.44478289688
 22
-6230.423433578562
 32
0.0
 13
-10575.44478289688
 23
-6230.423433578562
 33
0.0
  0
SOLID
  5
160
330
15B
100
AcDbEntity
  8
0
 62
   123
100
AcDbTrace
 10
-10548.44478289688
 20
-6229.923433578562
 30
0.0
 11
-10548.44478289688
 21
-6230.923433578563
 31
0.0
 12
-10545.44478289688
 22
-6230.423433578562
 32
0.0
 13
-10545.44478289688
 23
-6230.423433578562
 33
0.0
  0
MTEXT
  5
161
330
15B
100
AcDbEntity
  8
0
 62
     3
100
AcDbMText
 10
-10559.18609853237
 20
-6227.673433578562
 30
0.0
 40
3.5
 41
0.0
 71
     5
 72
     1
  1
\A1;30
1001
ACAD
1000
MTEXTBEGIN
1070
    73
1070
     1
1070
    44
1040
1.0
1070
    74
1070
     0
1000
MTEXTEND
1000
MTEXTBEGIN
1070
    73
1070
     1
1070
    44
1040
1.0
1070
    74
1070
     0
1000
MTEXTEND
  0
POINT
  5
162
330
15B
100
AcDbEntity
  8
DEFPOINTS
 62
     0
100
AcDbPoint
 10
-10575.44478289688
 20
-6256.020690065903
 30
0.0
  0
POINT
  5
163
330
15B
100
AcDbEntity
  8
DEFPOINTS
 62
     0
100
AcDbPoint
 10
-10545.44478289688
 20
-6255.020690065903
 30
0.0
  0
POINT
  5
164
330
15B
100
AcDbEntity
  8
DEFPOINTS
 62
     0
100
AcDbPoint
 10
-10545.44478289688
 20
-6230.423433578562
 30
0.0
  0
ENDBLK
  5
166
330
15B
100
AcDbEntity
  8
0
100
AcDbBlockEnd
  0
BLOCK
  5
FD
330
F3
100
AcDbEntity
  8
0
100
AcDbBlockBegin
  2
*D19
 70
     1
 10
0.0
 20
0.0
 30
0.0
  3
*D19
  1

  0
LINE
  5
F4
330
F3
100
AcDbEntity
  8
0
 62
   123
100
AcDbLine
 10
-10576.44478289688
 20
-6267.020690065903
 30
0.0
 11
-10588.51326377759
 21
-6267.020690065903
 31
0.0
  0
LINE
  5
F5
330
F3
100
AcDbEntity
  8
0
 62
   123
100
AcDbLine
 10
-10576.44478289688
 20
-6256.020690065903
 30
0.0
 11
-10588.51326377759
 21
-6256.020690065903
 31
0.0
  0
LINE
  5
F6
330
F3
100
AcDbEntity
  8
0
 62
   123
100
AcDbLine
 10
-10587.91326377759
 20
-6264.020690065903
 30
0.0
 11
-10587.91326377759
 21
-6259.020690065903
 31
0.0
  0
SOLID
  5
F7
330
F3
100
AcDbEntity
  8
0
 62
   123
100
AcDbTrace
 10
-10588.41326377759
 20
-6264.020690065903
 30
0.0
 11
-10587.41326377759
 21
-6264.020690065903
 31
0.0
 12
-10587.91326377759
 22
-6267.020690065903
 32
0.0
 13
-10587.91326377759
 23
-6267.020690065903
 33
0.0
  0
SOLID
  5
F8
330
F3
100
AcDbEntity
  8
0
 62
   123
100
AcDbTrace
 10
-10588.41326377759
 20
-6259.020690065903
 30
0.0
 11
-10587.41326377759
 21
-6259.020690065903
 31
0.0
 12
-10587.91326377759
 22
-6256.020690065903
 32
0.0
 13
-10587.91326377759
 23
-6256.020690065903
 33
0.0
  0
MTEXT
  5
F9
330
F3
100
AcDbEntity
  8
0
 62
     3
100
AcDbMText
 10
-10590.66326377757
 20
-6261.520690065903
 30
0.0
 40
3.5
 41
0.0
 71
     5
 72
     1
  1
\A1;11
 11
0.0000000000000001
 21
1.0
 31
0.0
1001
ACAD
1000
MTEXTBEGIN
1070
    73
1070
     1
1070
    44
1040
1.0
1070
    74
1070
     0
1000
MTEXTEND
1000
MTEXTBEGIN
1070
    73
1070
     1
1070
    44
1040
1.0
1070
    74
1070
     0
1000
MTEXTEND
  0
POINT
  5
FA
330
F3
100
AcDbEntity
  8
DEFPOINTS
 62
     0
100
AcDbPoint
 10
-10575.44478289688
 20
-6267.020690065903
 30
0.0
  0
POINT
  5
FB
330
F3
100
AcDbEntity
  8
DEFPOINTS
 62
     0
100
AcDbPoint
 10
-10575.44478289688
 20
-6256.020690065903
 30
0.0
  0
POINT
  5
FC
330
F3
100
AcDbEntity
  8
DEFPOINTS
 62
     0
100
AcDbPoint
 10
-10587.91326377759
 20
-6256.020690065903
 30
0.0
  0
ENDBLK
  5
FE
330
F3
100
AcDbEntity
  8
0
100
AcDbBlockEnd
  0
BLOCK
  5
1B9
330
1AD
100
AcDbEntity
  8
0
100
AcDbBlockBegin
  2
*D20
 70
     1
 10
0.0
 20
0.0
 30
0.0
  3
*D20
  1

  0
LINE
  5
1AE
330
1AD
100
AcDbEntity
  8
0
 62
   123
100
AcDbLine
 10
-10538.44478289688
 20
-6214.812356732569
 30
0.0
 11
-10538.44478289688
 21
-6193.482675356427
 31
0.0
  0
LINE
  5
1AF
330
1AD
100
AcDbEntity
  8
0
 62
   123
100
AcDbLine
 10
-10530.94478289688
 20
-6216.421952724372
 30
0.0
 11
-10530.94478289688
 21
-6193.482675356427
 31
0.0
  0
LINE
  5
1B0
330
1AD
100
AcDbEntity
  8
0
 62
   123
100
AcDbLine
 10
-10541.44478289688
 20
-6194.082675356427
 30
0.0
 11
-10544.44478289688
 21
-6194.082675356427
 31
0.0
  0
LINE
  5
1B1
330
1AD
100
AcDbEntity
  8
0
 62
   123
100
AcDbLine
 10
-10527.94478289688
 20
-6194.082675356427
 30
0.0
 11
-10515.61144956353
 21
-6194.082675356427
 31
0.0
  0
LINE
  5
1B2
330
1AD
100
AcDbEntity
  8
0
 62
   123
100
AcDbLine
 10
-10538.44478289688
 20
-6194.082675356427
 30
0.0
 11
-10530.94478289688
 21
-6194.082675356427
 31
0.0
  0
SOLID
  5
1B3
330
1AD
100
AcDbEntity
  8
0
 62
   123
100
AcDbTrace
 10
-10541.44478289688
 20
-6193.582675356427
 30
0.0
 11
-10541.44478289688
 21
-6194.582675356427
 31
0.0
 12
-10538.44478289688
 22
-6194.082675356427
 32
0.0
 13
-10538.44478289688
 23
-6194.082675356427
 33
0.0
  0
SOLID
  5
1B4
330
1AD
100
AcDbEntity
  8
0
 62
   123
100
AcDbTrace
 10
-10527.94478289688
 20
-6193.582675356427
 30
0.0
 11
-10527.94478289688
 21
-6194.582675356427
 31
0.0
 12
-10530.94478289688
 22
-6194.082675356427
 32
0.0
 13
-10530.94478289688
 23
-6194.082675356427
 33
0.0
  0
MTEXT
  5
1B5
330
1AD
100
AcDbEntity
  8
0
 62
     3
100
AcDbMText
 10
-10520.27811623021
 20
-6191.332675356427
 30
0.0
 40
3.5
 41
0.0
 71
     5
 72
     1
  1
\A1;7.5
1001
ACAD
1000
MTEXTBEGIN
1070
    73
1070
     1
1070
    44
1040
1.0
1070
    74
1070
     0
1000
MTEXTEND
1000
MTEXTBEGIN
1070
    73
1070
     1
1070
    44
1040
1.0
1070
    74
1070
     0
1000
MTEXTEND
  0
POINT
  5
1B6
330
1AD
100
AcDbEntity
  8
DEFPOINTS
 62
     0
100
AcDbPoint
 10
-10538.44478289688
 20
-6215.812356732571
 30
0.0
  0
POINT
  5
1B7
330
1AD
100
AcDbEntity
  8
DEFPOINTS
 62
     0
100
AcDbPoint
 10
-10530.94478289688
 20
-6217.421952724372
 30
0.0
  0
POINT
  5
1B8
330
1AD
100
AcDbEntity
  8
DEFPOINTS
 62
     0
100
AcDbPoint
 10
-10530.94478289688
 20
-6194.082675356427
 30
0.0
  0
ENDBLK
  5
1BA
330
1AD
100
AcDbEntity
  8
0
100
AcDbBlockEnd
  0
BLOCK
  5
309
330
2FD
100
AcDbEntity
  8
0
100
AcDbBlockBegin
  2
*D21
 70
     1
 10
0.0
 20
0.0
 30
0.0
  3
*D21
  1

  0
LINE
  5
478
330
2FD
100
AcDbEntity
  8
0
 62
   123
100
AcDbLine
 10
33.38796273509234
 20
32.32871098019618
 30
0.0
 11
33.38903040505558
 21
13.91046540388072
 31
0.0
  0
LINE
  5
479
330
2FD
100
AcDbEntity
  8
0
 62
   123
100
AcDbLine
 10
52.41030745673911
 20
41.03502134607956
 30
0.0
 11
61.34429136836176
 21
19.47366850595721
 31
0.0
  0
ARC
  5
47A
330
2FD
100
AcDbEntity
  8
0
 62
   123
100
AcDbCircle
 10
33.38479636657601
 20
86.95135180252897
 30
0.0
 40
72.44088652136776
100
AcDbArc
 50
272.3762854377745
 51
290.1337927847963
  0
SOLID
  5
47B
330
2FD
100
AcDbEntity
  8
0
 62
   123
100
AcDbTrace
 10
36.39873105518218
 20
14.07286668759922
 30
0.0
 11
36.37796656116478
 21
15.07265108225048
 31
0.0
 12
33.38899562421969
 22
14.51046540287263
 32
0.0
 13
33.38899562421969
 23
14.51046540287263
 33
0.0
  0
SOLID
  5
47C
330
2FD
100
AcDbEntity
  8
0
 62
   123
100
AcDbTrace
 10
58.13813760480116
 20
19.40300776218168
 30
0.0
 11
58.50171850332789
 21
18.47144513399907
 31
0.0
 12
61.11461593861236
 22
20.02796914367056
 32
0.0
 13
61.11461593861236
 23
20.02796914367056
 33
0.0
  0
MTEXT
  5
47D
330
2FD
100
AcDbEntity
  8
0
 62
     3
100
AcDbMText
 10
46.9868252848007
 20
18.60075214574515
 30
0.0
 40
3.5
 41
0.0
 71
     5
 72
     1
  1
\A1;23°
 11
0.980768118595062
 21
0.1951765804278328
 31
0.0
  0
POINT
  5
47E
330
2FD
100
AcDbEntity
  8
DEFPOINTS
 62
     0
100
AcDbPoint
 10
42.8458282632156
 20
15.13094442793628
 30
0.0
  0
POINT
  5
47F
330
2FD
100
AcDbEntity
  8
DEFPOINTS
 62
     0
100
AcDbPoint
 10
33.38790476703251
 20
33.32871097851603
 30
0.0
  0
POINT
  5
480
330
2FD
100
AcDbEntity
  8
DEFPOINTS
 62
     0
100
AcDbPoint
 10
33.38168709614183
 20
86.95885574226847
 30
0.0
  0
POINT
  5
481
330
2FD
100
AcDbEntity
  8
DEFPOINTS
 62
     0
100
AcDbPoint
 10
52.02751507382346
 20
41.95885574226848
 30
0.0
  0
POINT
  5
482
330
2FD
100
AcDbEntity
  8
DEFPOINTS
 62
     0
100
AcDbPoint
 10
33.38168709614184
 20
140.5890005060209
 30
0.0
  0
ENDBLK
  5
30A
330
2FD
100
AcDbEntity
  8
0
100
AcDbBlockEnd
  0
BLOCK
  5
315
330
30B
100
AcDbEntity
  8
0
100
AcDbBlockBegin
  2
*D22
 70
     1
 10
0.0
 20
0.0
 30
0.0
  3
*D22
  1

  0
LINE
  5
30C
330
30B
100
AcDbEntity
  8
0
 62
   123
100
AcDbLine
 10
172.2479754482518
 20
133.4588557422685
 30
0.0
 11
172.2479754482518
 21
167.0360194500113
 31
0.0
  0
LINE
  5
30D
330
30B
100
AcDbEntity
  8
0
 62
   123
100
AcDbLine
 10
388.2486979389413
 20
129.4588557422684
 30
0.0
 11
388.2486979389413
 21
167.0360194500113
 31
0.0
  0
LINE
  5
30E
330
30B
100
AcDbEntity
  8
0
 62
   123
100
AcDbLine
 10
175.2479754482519
 20
166.4360194500113
 30
0.0
 11
385.2486979389413
 21
166.4360194500113
 31
0.0
  0
SOLID
  5
30F
330
30B
100
AcDbEntity
  8
0
 62
   123
100
AcDbTrace
 10
175.2479754482519
 20
166.9360194500113
 30
0.0
 11
175.2479754482519
 21
165.9360194500113
 31
0.0
 12
172.2479754482518
 22
166.4360194500113
 32
0.0
 13
172.2479754482518
 23
166.4360194500113
 33
0.0
  0
SOLID
  5
310
330
30B
100
AcDbEntity
  8
0
 62
   123
100
AcDbTrace
 10
385.2486979389413
 20
166.9360194500113
 30
0.0
 11
385.2486979389413
 21
165.9360194500113
 31
0.0
 12
388.2486979389413
 22
166.4360194500113
 32
0.0
 13
388.2486979389413
 23
166.4360194500113
 33
0.0
  0
MTEXT
  5
311
330
30B
100
AcDbEntity
  8
0
 62
     3
100
AcDbMText
 10
275.2479754482519
 20
169.1860194500113
 30
0.0
 40
3.5
 41
0.0
 71
     5
 72
     1
  1
\A1;216
1001
ACAD
1000
MTEXTBEGIN
1070
    73
1070
     1
1070
    44
1040
1.0
1070
    74
1070
     0
1000
MTEXTEND
1000
MTEXTBEGIN
1070
    73
1070
     1
1070
    44
1040
1.0
1070
    74
1070
     0
1000
MTEXTEND
  0
POINT
  5
312
330
30B
100
AcDbEntity
  8
DEFPOINTS
 62
     0
100
AcDbPoint
 10
172.2479754482518
 20
132.4588557422684
 30
0.0
  0
POINT
  5
313
330
30B
100
AcDbEntity
  8
DEFPOINTS
 62
     0
100
AcDbPoint
 10
388.2486979389413
 20
128.4588557422684
 30
0.0
  0
POINT
  5
314
330
30B
100
AcDbEntity
  8
DEFPOINTS
 62
     0
100
AcDbPoint
 10
388.2486979389413
 20
166.4360194500113
 30
0.0
  0
ENDBLK
  5
316
330
30B
100
AcDbEntity
  8
0
100
AcDbBlockEnd
  0
BLOCK
  5
321
330
317
100
AcDbEntity
  8
0
100
AcDbBlockBegin
  2
*D23
 70
     1
 10
0.0
 20
0.0
 30
0.0
  3
*D23
  1

  0
LINE
  5
318
330
317
100
AcDbEntity
  8
0
 62
   123
100
AcDbLine
 10
141.384899957622
 20
315.0553627849793
 30
0.0
 11
141.384899957622
 21
352.0234315150233
 31
0.0
  0
LINE
  5
319
330
317
100
AcDbEntity
  8
0
 62
   123
100
AcDbLine
 10
357.3856224483114
 20
311.0553627849804
 30
0.0
 11
357.3856224483114
 21
352.0234315150233
 31
0.0
  0
LINE
  5
31A
330
317
100
AcDbEntity
  8
0
 62
   123
100
AcDbLine
 10
144.384899957622
 20
351.4234315150233
 30
0.0
 11
354.3856224483114
 21
351.4234315150233
 31
0.0
  0
SOLID
  5
31B
330
317
100
AcDbEntity
  8
0
 62
   123
100
AcDbTrace
 10
144.384899957622
 20
351.9234315150233
 30
0.0
 11
144.384899957622
 21
350.9234315150233
 31
0.0
 12
141.384899957622
 22
351.4234315150233
 32
0.0
 13
141.384899957622
 23
351.4234315150233
 33
0.0
  0
SOLID
  5
31C
330
317
100
AcDbEntity
  8
0
 62
   123
100
AcDbTrace
 10
354.3856224483114
 20
351.9234315150233
 30
0.0
 11
354.3856224483114
 21
350.9234315150233
 31
0.0
 12
357.3856224483114
 22
351.4234315150233
 32
0.0
 13
357.3856224483114
 23
351.4234315150233
 33
0.0
  0
MTEXT
  5
31D
330
317
100
AcDbEntity
  8
0
 62
     3
100
AcDbMText
 10
269.3848999576221
 20
354.1734315150233
 30
0.0
 40
3.5
 41
0.0
 71
     5
 72
     1
  1
\A1;216
1001
ACAD
1000
MTEXTBEGIN
1070
    73
1070
     1
1070
    44
1040
1.0
1070
    74
1070
     0
1000
MTEXTEND
1000
MTEXTBEGIN
1070
    73
1070
     1
1070
    44
1040
1.0
1070
    74
1070
     0
1000
MTEXTEND
  0
POINT
  5
31E
330
317
100
AcDbEntity
  8
DEFPOINTS
 62
     0
100
AcDbPoint
 10
141.384899957622
 20
314.0553627849793
 30
0.0
  0
POINT
  5
31F
330
317
100
AcDbEntity
  8
DEFPOINTS
 62
     0
100
AcDbPoint
 10
357.3856224483114
 20
310.0553627849803
 30
0.0
  0
POINT
  5
320
330
317
100
AcDbEntity
  8
DEFPOINTS
 62
     0
100
AcDbPoint
 10
357.3856224483114
 20
351.4234315150233
 30
0.0
  0
ENDBLK
  5
322
330
317
100
AcDbEntity
  8
0
100
AcDbBlockEnd
  0
BLOCK
  5
32F
330
323
100
AcDbEntity
  8
0
100
AcDbBlockBegin
  2
*D24
 70
     1
 10
0.0
 20
0.0
 30
0.0
  3
*D24
  1

  0
LINE
  5
483
330
323
100
AcDbEntity
  8
0
 62
   123
100
AcDbLine
 10
31.36437795705187
 20
213.925218022908
 30
0.0
 11
31.36544562701478
 21
195.506972446598
 31
0.0
  0
LINE
  5
484
330
323
100
AcDbEntity
  8
0
 62
   123
100
AcDbLine
 10
50.38672267869675
 20
222.6315283887914
 30
0.0
 11
59.32070659031627
 21
201.0701755486723
 31
0.0
  0
ARC
  5
485
330
323
100
AcDbEntity
  8
0
 62
   123
100
AcDbCircle
 10
31.36121158853645
 20
268.547858845243
 30
0.0
 40
72.44088652136446
100
AcDbArc
 50
272.3762854377737
 51
290.1337927847923
  0
SOLID
  5
486
330
323
100
AcDbEntity
  8
0
 62
   123
100
AcDbTrace
 10
34.3751462771414
 20
195.6693737303165
 30
0.0
 11
34.35438178312401
 21
196.6691581249678
 31
0.0
 12
31.36541084617891
 22
196.10697244559
 32
0.0
 13
31.36541084617891
 23
196.10697244559
 33
0.0
  0
SOLID
  5
487
330
323
100
AcDbEntity
  8
0
 62
   123
100
AcDbTrace
 10
56.11455282675566
 20
200.9995148048971
 30
0.0
 11
56.47813372528233
 21
200.0679521767144
 31
0.0
 12
59.09103116056691
 22
201.6244761863857
 32
0.0
 13
59.09103116056691
 23
201.6244761863857
 33
0.0
  0
MTEXT
  5
488
330
323
100
AcDbEntity
  8
0
 62
     3
100
AcDbMText
 10
44.96324050675759
 20
200.1972591884618
 30
0.0
 40
3.5
 41
0.0
 71
     5
 72
     1
  1
\A1;23°
 11
0.9807681185950704
 21
0.195176580427791
 31
0.0
  0
POINT
  5
489
330
323
100
AcDbEntity
  8
DEFPOINTS
 62
     0
100
AcDbPoint
 10
40.82224348517319
 20
196.7274514706533
 30
0.0
  0
POINT
  5
48A
330
323
100
AcDbEntity
  8
DEFPOINTS
 62
     0
100
AcDbPoint
 10
31.36431998899206
 20
214.9252180212279
 30
0.0
  0
POINT
  5
48B
330
323
100
AcDbEntity
  8
DEFPOINTS
 62
     0
100
AcDbPoint
 10
31.35810231810319
 20
268.5553627849803
 30
0.0
  0
POINT
  5
48C
330
323
100
AcDbEntity
  8
DEFPOINTS
 62
     0
100
AcDbPoint
 10
50.00393029578116
 20
223.5553627849804
 30
0.0
  0
POINT
  5
48D
330
323
100
AcDbEntity
  8
DEFPOINTS
 62
     0
100
AcDbPoint
 10
31.35810231810318
 20
322.1855075487328
 30
0.0
  0
ENDBLK
  5
330
330
323
100
AcDbEntity
  8
0
100
AcDbBlockEnd
  0
BLOCK
  5
33B
330
331
100
AcDbEntity
  8
0
100
AcDbBlockBegin
  2
*D25
 70
     1
 10
0.0
 20
0.0
 30
0.0
  3
*D25
  1

  0
LINE
  5
332
330
331
100
AcDbEntity
  8
0
 62
   123
100
AcDbLine
 10
135.2479754482519
 20
92.95885574226849
 30
0.0
 11
135.2479754482519
 21
167.0360194500113
 31
0.0
  0
LINE
  5
333
330
331
100
AcDbEntity
  8
0
 62
   123
100
AcDbLine
 10
172.2479754482518
 20
133.1671890756005
 30
0.0
 11
172.2479754482518
 21
167.0360194500113
 31
0.0
  0
LINE
  5
334
330
331
100
AcDbEntity
  8
0
 62
   123
100
AcDbLine
 10
138.2479754482519
 20
166.4360194500113
 30
0.0
 11
169.2479754482519
 21
166.4360194500113
 31
0.0
  0
SOLID
  5
335
330
331
100
AcDbEntity
  8
0
 62
   123
100
AcDbTrace
 10
138.2479754482519
 20
166.9360194500113
 30
0.0
 11
138.2479754482519
 21
165.9360194500113
 31
0.0
 12
135.2479754482519
 22
166.4360194500113
 32
0.0
 13
135.2479754482519
 23
166.4360194500113
 33
0.0
  0
SOLID
  5
336
330
331
100
AcDbEntity
  8
0
 62
   123
100
AcDbTrace
 10
169.2479754482519
 20
166.9360194500113
 30
0.0
 11
169.2479754482519
 21
165.9360194500113
 31
0.0
 12
172.2479754482518
 22
166.4360194500113
 32
0.0
 13
172.2479754482518
 23
166.4360194500113
 33
0.0
  0
MTEXT
  5
337
330
331
100
AcDbEntity
  8
0
 62
     3
100
AcDbMText
 10
153.7479754482519
 20
169.1860194500113
 30
0.0
 40
3.5
 41
0.0
 71
     5
 72
     1
  1
\A1;37
1001
ACAD
1000
MTEXTBEGIN
1070
    73
1070
     1
1070
    44
1040
1.0
1070
    74
1070
     0
1000
MTEXTEND
1000
MTEXTBEGIN
1070
    73
1070
     1
1070
    44
1040
1.0
1070
    74
1070
     0
1000
MTEXTEND
  0
POINT
  5
338
330
331
100
AcDbEntity
  8
DEFPOINTS
 62
     0
100
AcDbPoint
 10
135.2479754482519
 20
91.95885574226847
 30
0.0
  0
POINT
  5
339
330
331
100
AcDbEntity
  8
DEFPOINTS
 62
     0
100
AcDbPoint
 10
172.2479754482518
 20
132.1671890756005
 30
0.0
  0
POINT
  5
33A
330
331
100
AcDbEntity
  8
DEFPOINTS
 62
     0
100
AcDbPoint
 10
172.2479754482518
 20
166.4360194500113
 30
0.0
  0
ENDBLK
  5
33C
330
331
100
AcDbEntity
  8
0
100
AcDbBlockEnd
  0
BLOCK
  5
349
330
33D
100
AcDbEntity
  8
0
100
AcDbBlockBegin
  2
*D26
 70
     1
 10
0.0
 20
0.0
 30
0.0
  3
*D26
  1

  0
LINE
  5
33E
330
33D
100
AcDbEntity
  8
0
 62
   123
100
AcDbLine
 10
172.2479754482518
 20
133.1671890756005
 30
0.0
 11
172.2479754482518
 21
154.4968704517446
 31
0.0
  0
LINE
  5
33F
330
33D
100
AcDbEntity
  8
0
 62
   123
100
AcDbLine
 10
179.7479754482519
 20
131.5575930837993
 30
0.0
 11
179.7479754482519
 21
154.4968704517446
 31
0.0
  0
LINE
  5
340
330
33D
100
AcDbEntity
  8
0
 62
   123
100
AcDbLine
 10
169.2479754482519
 20
153.8968704517446
 30
0.0
 11
166.2479754482519
 21
153.8968704517446
 31
0.0
  0
LINE
  5
341
330
33D
100
AcDbEntity
  8
0
 62
   123
100
AcDbLine
 10
182.7479754482519
 20
153.8968704517446
 30
0.0
 11
195.0813087815883
 21
153.8968704517446
 31
0.0
  0
LINE
  5
342
330
33D
100
AcDbEntity
  8
0
 62
   123
100
AcDbLine
 10
172.2479754482518
 20
153.8968704517446
 30
0.0
 11
179.7479754482519
 21
153.8968704517446
 31
0.0
  0
SOLID
  5
343
330
33D
100
AcDbEntity
  8
0
 62
   123
100
AcDbTrace
 10
169.2479754482519
 20
154.3968704517446
 30
0.0
 11
169.2479754482519
 21
153.3968704517446
 31
0.0
 12
172.2479754482518
 22
153.8968704517446
 32
0.0
 13
172.2479754482518
 23
153.8968704517446
 33
0.0
  0
SOLID
  5
344
330
33D
100
AcDbEntity
  8
0
 62
   123
100
AcDbTrace
 10
182.7479754482519
 20
154.3968704517446
 30
0.0
 11
182.7479754482519
 21
153.3968704517446
 31
0.0
 12
179.7479754482519
 22
153.8968704517446
 32
0.0
 13
179.7479754482519
 23
153.8968704517446
 33
0.0
  0
MTEXT
  5
345
330
33D
100
AcDbEntity
  8
0
 62
     3
100
AcDbMText
 10
190.4146421149216
 20
156.6468704517447
 30
0.0
 40
3.5
 41
0.0
 71
     5
 72
     1
  1
\A1;7.5
1001
ACAD
1000
MTEXTBEGIN
1070
    73
1070
     1
1070
    44
1040
1.0
1070
    74
1070
     0
1000
MTEXTEND
1000
MTEXTBEGIN
1070
    73
1070
     1
1070
    44
1040
1.0
1070
    74
1070
     0
1000
MTEXTEND
  0
POINT
  5
346
330
33D
100
AcDbEntity
  8
DEFPOINTS
 62
     0
100
AcDbPoint
 10
172.2479754482518
 20
132.1671890756005
 30
0.0
  0
POINT
  5
347
330
33D
100
AcDbEntity
  8
DEFPOINTS
 62
     0
100
AcDbPoint
 10
179.7479754482519
 20
130.5575930837993
 30
0.0
  0
POINT
  5
348
330
33D
100
AcDbEntity
  8
DEFPOINTS
 62
     0
100
AcDbPoint
 10
179.7479754482519
 20
153.8968704517446
 30
0.0
  0
ENDBLK
  5
34A
330
33D
100
AcDbEntity
  8
0
100
AcDbBlockEnd
  0
BLOCK
  5
357
330
34B
100
AcDbEntity
  8
0
100
AcDbBlockBegin
  2
*D27
 70
     1
 10
0.0
 20
0.0
 30
0.0
  3
*D27
  1

  0
LINE
  5
34C
330
34B
100
AcDbEntity
  8
0
 62
   123
100
AcDbLine
 10
170.2479754482519
 20
129.4588557422684
 30
0.0
 11
170.2479754482519
 21
145.1915093065176
 31
0.0
  0
LINE
  5
34D
330
34B
100
AcDbEntity
  8
0
 62
   123
100
AcDbLine
 10
172.2479754482518
 20
132.9588557422684
 30
0.0
 11
172.2479754482518
 21
145.1915093065176
 31
0.0
  0
LINE
  5
34E
330
34B
100
AcDbEntity
  8
0
 62
   123
100
AcDbLine
 10
175.2479754482519
 20
144.5915093065177
 30
0.0
 11
178.2479754482519
 21
144.5915093065177
 31
0.0
  0
LINE
  5
34F
330
34B
100
AcDbEntity
  8
0
 62
   123
100
AcDbLine
 10
167.2479754482519
 20
144.5915093065177
 30
0.0
 11
159.0813087815851
 21
144.5915093065177
 31
0.0
  0
LINE
  5
350
330
34B
100
AcDbEntity
  8
0
 62
   123
100
AcDbLine
 10
172.2479754482518
 20
144.5915093065177
 30
0.0
 11
170.2479754482519
 21
144.5915093065177
 31
0.0
  0
SOLID
  5
351
330
34B
100
AcDbEntity
  8
0
 62
   123
100
AcDbTrace
 10
175.2479754482519
 20
145.0915093065177
 30
0.0
 11
175.2479754482519
 21
144.0915093065177
 31
0.0
 12
172.2479754482518
 22
144.5915093065177
 32
0.0
 13
172.2479754482518
 23
144.5915093065177
 33
0.0
  0
SOLID
  5
352
330
34B
100
AcDbEntity
  8
0
 62
   123
100
AcDbTrace
 10
167.2479754482519
 20
145.0915093065177
 30
0.0
 11
167.2479754482519
 21
144.0915093065177
 31
0.0
 12
170.2479754482519
 22
144.5915093065177
 32
0.0
 13
170.2479754482519
 23
144.5915093065177
 33
0.0
  0
MTEXT
  5
353
330
34B
100
AcDbEntity
  8
0
 62
     3
100
AcDbMText
 10
161.2479754482519
 20
147.3415093065177
 30
0.0
 40
3.5
 41
0.0
 71
     5
 72
     1
  1
\A1;2
1001
ACAD
1000
MTEXTBEGIN
1070
    73
1070
     1
1070
    44
1040
1.0
1070
    74
1070
     0
1000
MTEXTEND
1000
MTEXTBEGIN
1070
    73
1070
     1
1070
    44
1040
1.0
1070
    74
1070
     0
1000
MTEXTEND
  0
POINT
  5
354
330
34B
100
AcDbEntity
  8
DEFPOINTS
 62
     0
100
AcDbPoint
 10
170.2479754482519
 20
128.4588557422684
 30
0.0
  0
POINT
  5
355
330
34B
100
AcDbEntity
  8
DEFPOINTS
 62
     0
100
AcDbPoint
 10
172.2479754482518
 20
131.9588557422685
 30
0.0
  0
POINT
  5
356
330
34B
100
AcDbEntity
  8
DEFPOINTS
 62
     0
100
AcDbPoint
 10
172.2479754482518
 20
144.5915093065177
 30
0.0
  0
ENDBLK
  5
358
330
34B
100
AcDbEntity
  8
0
100
AcDbBlockEnd
  0
BLOCK
  5
363
330
359
100
AcDbEntity
  8
0
100
AcDbBlockBegin
  2
*D28
 70
     1
 10
0.0
 20
0.0
 30
0.0
  3
*D28
  1

  0
LINE
  5
35A
330
359
100
AcDbEntity
  8
0
 62
   123
100
AcDbLine
 10
-11.61209523296746
 20
127.916061983471
 30
0.0
 11
-11.61209523296746
 21
152.7806175201708
 31
0.0
  0
LINE
  5
35B
330
359
100
AcDbEntity
  8
0
 62
   123
100
AcDbLine
 10
78.38790476703252
 20
127.916061983471
 30
0.0
 11
78.38790476703252
 21
152.7806175201708
 31
0.0
  0
LINE
  5
35C
330
359
100
AcDbEntity
  8
0
 62
   123
100
AcDbLine
 10
-8.612095232967472
 20
152.1806175201708
 30
0.0
 11
75.38790476703252
 21
152.1806175201708
 31
0.0
  0
SOLID
  5
35D
330
359
100
AcDbEntity
  8
0
 62
   123
100
AcDbTrace
 10
-8.612095232967472
 20
152.6806175201708
 30
0.0
 11
-8.612095232967472
 21
151.6806175201709
 31
0.0
 12
-11.61209523296746
 22
152.1806175201708
 32
0.0
 13
-11.61209523296746
 23
152.1806175201708
 33
0.0
  0
SOLID
  5
35E
330
359
100
AcDbEntity
  8
0
 62
   123
100
AcDbTrace
 10
75.38790476703252
 20
152.6806175201708
 30
0.0
 11
75.38790476703252
 21
151.6806175201709
 31
0.0
 12
78.38790476703252
 22
152.1806175201708
 32
0.0
 13
78.38790476703252
 23
152.1806175201708
 33
0.0
  0
MTEXT
  5
35F
330
359
100
AcDbEntity
  8
0
 62
     3
100
AcDbMText
 10
33.77855640701273
 20
154.9306175201708
 30
0.0
 40
3.5
 41
0.0
 71
     5
 72
     1
  1
\A1;90
1001
ACAD
1000
MTEXTBEGIN
1070
    73
1070
     1
1070
    44
1040
1.0
1070
    74
1070
     0
1000
MTEXTEND
1000
MTEXTBEGIN
1070
    73
1070
     1
1070
    44
1040
1.0
1070
    74
1070
     0
1000
MTEXTEND
  0
POINT
  5
360
330
359
100
AcDbEntity
  8
DEFPOINTS
 62
     0
100
AcDbPoint
 10
-11.61209523296746
 20
126.916061983471
 30
0.0
  0
POINT
  5
361
330
359
100
AcDbEntity
  8
DEFPOINTS
 62
     0
100
AcDbPoint
 10
78.38790476703252
 20
126.916061983471
 30
0.0
  0
POINT
  5
362
330
359
100
AcDbEntity
  8
DEFPOINTS
 62
     0
100
AcDbPoint
 10
78.38790476703252
 20
152.1806175201708
 30
0.0
  0
ENDBLK
  5
364
330
359
100
AcDbEntity
  8
0
100
AcDbBlockEnd
  0
BLOCK
  5
36E
330
365
100
AcDbEntity
  8
0
100
AcDbBlockBegin
  2
*D29
 70
     1
 10
0.0
 20
0.0
 30
0.0
  3
*D29
  1

  0
LINE
  5
40B
330
365
100
AcDbEntity
  8
0
 62
   123
100
AcDbLine
 10
-10.36835901708831
 20
53.63635013937538
 30
0.0
 11
-12.75506431440383
 21
51.81875892467224
 31
0.0
  0
LINE
  5
40C
330
365
100
AcDbEntity
  8
0
 62
   123
100
AcDbLine
 10
77.14416855115008
 20
120.281361345159
 30
0.0
 11
101.7043406187354
 21
138.9851171175413
 31
0.0
  0
LINE
  5
40D
330
365
100
AcDbEntity
  8
0
 62
   123
100
AcDbLine
 10
-7.981653719772793
 20
55.45394135407851
 30
0.0
 11
74.75746325383453
 21
118.4637701304559
 31
0.0
  0
SOLID
  5
40E
330
365
100
AcDbEntity
  8
0
 62
   123
100
AcDbTrace
 10
-10.6712908862055
 20
54.03413435559464
 30
0.0
 11
-10.06542714797111
 21
53.23856592315614
 31
0.0
 12
-7.981653719772793
 22
55.45394135407851
 32
0.0
 13
-7.981653719772793
 23
55.45394135407851
 33
0.0
  0
SOLID
  5
40F
330
365
100
AcDbEntity
  8
0
 62
   123
100
AcDbTrace
 10
76.84123668203287
 20
120.6791455613782
 30
0.0
 11
77.44710042026723
 21
119.8835771289398
 31
0.0
 12
74.75746325383453
 22
118.4637701304559
 32
0.0
 13
74.75746325383453
 23
118.4637701304559
 33
0.0
  0
MTEXT
  5
410
330
365
100
AcDbEntity
  8
0
 62
     3
100
AcDbMText
 10
89.36433887004087
 20
133.0442584854359
 30
0.0
 40
3.5
 41
0.0
 71
     5
 72
     1
  1
\A1;\U+2205104%%P0.5
 11
0.7955684324385072
 21
0.6058637382343795
 31
0.0
1001
ACAD
1000
MTEXTBEGIN
1070
    73
1070
     1
1070
    44
1040
1.0
1070
    74
1070
     0
1000
MTEXTEND
1000
MTEXTBEGIN
1070
    73
1070
     1
1070
    44
1040
1.0
1070
    74
1070
     0
1000
MTEXTEND
  0
POINT
  5
411
330
365
100
AcDbEntity
  8
DEFPOINTS
 62
     0
100
AcDbPoint
 10
74.75746325383453
 20
118.4637701304559
 30
0.0
  0
POINT
  5
412
330
365
100
AcDbEntity
  8
DEFPOINTS
 62
     0
100
AcDbPoint
 10
-7.981653719772793
 20
55.45394135407851
 30
0.0
  0
ENDBLK
  5
36F
330
365
100
AcDbEntity
  8
0
100
AcDbBlockEnd
  0
BLOCK
  5
37A
330
370
100
AcDbEntity
  8
0
100
AcDbBlockBegin
  2
*D30
 70
     1
 10
0.0
 20
0.0
 30
0.0
  3
*D30
  1

  0
LINE
  5
371
330
370
100
AcDbEntity
  8
0
 62
   123
100
AcDbLine
 10
135.2479754482519
 20
92.95885574226849
 30
0.0
 11
135.2479754482519
 21
118.1561122296094
 31
0.0
  0
LINE
  5
372
330
370
100
AcDbEntity
  8
0
 62
   123
100
AcDbLine
 10
165.2479754482519
 20
93.9588557422685
 30
0.0
 11
165.2479754482519
 21
118.1561122296094
 31
0.0
  0
LINE
  5
373
330
370
100
AcDbEntity
  8
0
 62
   123
100
AcDbLine
 10
138.2479754482519
 20
117.5561122296094
 30
0.0
 11
162.2479754482519
 21
117.5561122296094
 31
0.0
  0
SOLID
  5
374
330
370
100
AcDbEntity
  8
0
 62
   123
100
AcDbTrace
 10
138.2479754482519
 20
118.0561122296094
 30
0.0
 11
138.2479754482519
 21
117.0561122296094
 31
0.0
 12
135.2479754482519
 22
117.5561122296094
 32
0.0
 13
135.2479754482519
 23
117.5561122296094
 33
0.0
  0
SOLID
  5
375
330
370
100
AcDbEntity
  8
0
 62
   123
100
AcDbTrace
 10
162.2479754482519
 20
118.0561122296094
 30
0.0
 11
162.2479754482519
 21
117.0561122296094
 31
0.0
 12
165.2479754482519
 22
117.5561122296094
 32
0.0
 13
165.2479754482519
 23
117.5561122296094
 33
0.0
  0
MTEXT
  5
376
330
370
100
AcDbEntity
  8
0
 62
     3
100
AcDbMText
 10
151.5066598127541
 20
120.3061122296094
 30
0.0
 40
3.5
 41
0.0
 71
     5
 72
     1
  1
\A1;30
1001
ACAD
1000
MTEXTBEGIN
1070
    73
1070
     1
1070
    44
1040
1.0
1070
    74
1070
     0
1000
MTEXTEND
1000
MTEXTBEGIN
1070
    73
1070
     1
1070
    44
1040
1.0
1070
    74
1070
     0
1000
MTEXTEND
  0
POINT
  5
377
330
370
100
AcDbEntity
  8
DEFPOINTS
 62
     0
100
AcDbPoint
 10
135.2479754482519
 20
91.95885574226847
 30
0.0
  0
POINT
  5
378
330
370
100
AcDbEntity
  8
DEFPOINTS
 62
     0
100
AcDbPoint
 10
165.2479754482519
 20
92.95885574226849
 30
0.0
  0
POINT
  5
379
330
370
100
AcDbEntity
  8
DEFPOINTS
 62
     0
100
AcDbPoint
 10
165.2479754482519
 20
117.5561122296094
 30
0.0
  0
ENDBLK
  5
37B
330
370
100
AcDbEntity
  8
0
100
AcDbBlockEnd
  0
BLOCK
  5
386
330
37C
100
AcDbEntity
  8
0
100
AcDbBlockBegin
  2
*D31
 70
     1
 10
0.0
 20
0.0
 30
0.0
  3
*D31
  1

  0
LINE
  5
37D
330
37C
100
AcDbEntity
  8
0
 62
   123
100
AcDbLine
 10
169.2479754482519
 20
128.4588557422684
 30
0.0
 11
98.83189361217269
 21
128.4588557422684
 31
0.0
  0
LINE
  5
37E
330
37C
100
AcDbEntity
  8
0
 62
   123
100
AcDbLine
 10
169.2479754482519
 20
45.45885574226757
 30
0.0
 11
98.83189361217269
 21
45.45885574226761
 31
0.0
  0
LINE
  5
37F
330
37C
100
AcDbEntity
  8
0
 62
   123
100
AcDbLine
 10
99.43189361217269
 20
125.4588557422684
 30
0.0
 11
99.43189361217266
 21
48.45885574226761
 31
0.0
  0
SOLID
  5
380
330
37C
100
AcDbEntity
  8
0
 62
   123
100
AcDbTrace
 10
98.93189361217268
 20
125.4588557422684
 30
0.0
 11
99.93189361217268
 21
125.4588557422684
 31
0.0
 12
99.43189361217269
 22
128.4588557422684
 32
0.0
 13
99.43189361217269
 23
128.4588557422684
 33
0.0
  0
SOLID
  5
381
330
37C
100
AcDbEntity
  8
0
 62
   123
100
AcDbTrace
 10
98.93189361217268
 20
48.45885574226761
 30
0.0
 11
99.93189361217266
 21
48.45885574226761
 31
0.0
 12
99.43189361217266
 22
45.45885574226761
 32
0.0
 13
99.43189361217266
 23
45.45885574226761
 33
0.0
  0
MTEXT
  5
382
330
37C
100
AcDbEntity
  8
0
 62
     3
100
AcDbMText
 10
94.99005194550598
 20
88.32381237501975
 30
0.0
 40
3.5
 41
0.0
 71
     5
 72
     1
  1
\A1;\A1;{\f??|b0|i0|c0|p49;%%C}83{\f??|b0|i0|c0|p49;\H0.7x;\S+0^ -0.035;\H1.429x;(h}7{\f??|b0|i0|c0|p49;)}
 11
0.0000000000000001
 21
1.0
 31
0.0
1001
ACAD
1000
MTEXTBEGIN
1070
    73
1070
     1
1070
    44
1040
1.0
1070
    74
1070
     0
1000
MTEXTEND
1000
MTEXTBEGIN
1070
    73
1070
     1
1070
    44
1040
1.0
1070
    74
1070
     0
1000
MTEXTEND
  0
POINT
  5
383
330
37C
100
AcDbEntity
  8
DEFPOINTS
 62
     0
100
AcDbPoint
 10
170.2479754482519
 20
128.4588557422684
 30
0.0
  0
POINT
  5
384
330
37C
100
AcDbEntity
  8
DEFPOINTS
 62
     0
100
AcDbPoint
 10
170.2479754482519
 20
45.45885574226757
 30
0.0
  0
POINT
  5
385
330
37C
100
AcDbEntity
  8
DEFPOINTS
 62
     0
100
AcDbPoint
 10
99.43189361217266
 20
45.45885574226761
 30
0.0
  0
ENDBLK
  5
387
330
37C
100
AcDbEntity
  8
0
100
AcDbBlockEnd
  0
BLOCK
  5
392
330
388
100
AcDbEntity
  8
0
100
AcDbBlockBegin
  2
*D32
 70
     1
 10
0.0
 20
0.0
 30
0.0
  3
*D32
  1

  0
LINE
  5
389
330
388
100
AcDbEntity
  8
0
 62
   123
100
AcDbLine
 10
134.2479754482519
 20
80.9588557422685
 30
0.0
 11
111.3110136868421
 21
80.9588557422685
 31
0.0
  0
LINE
  5
38A
330
388
100
AcDbEntity
  8
0
 62
   123
100
AcDbLine
 10
164.2479754482519
 20
92.95885574226849
 30
0.0
 11
111.3110136868421
 21
92.95885574226852
 31
0.0
  0
LINE
  5
38B
330
388
100
AcDbEntity
  8
0
 62
   123
100
AcDbLine
 10
111.9110136868421
 20
83.9588557422685
 30
0.0
 11
111.9110136868421
 21
89.95885574226852
 31
0.0
  0
SOLID
  5
38C
330
388
100
AcDbEntity
  8
0
 62
   123
100
AcDbTrace
 10
111.411013686842
 20
83.9588557422685
 30
0.0
 11
112.411013686842
 21
83.9588557422685
 31
0.0
 12
111.9110136868421
 22
80.9588557422685
 32
0.0
 13
111.9110136868421
 23
80.9588557422685
 33
0.0
  0
SOLID
  5
38D
330
388
100
AcDbEntity
  8
0
 62
   123
100
AcDbTrace
 10
111.411013686842
 20
89.95885574226852
 30
0.0
 11
112.411013686842
 21
89.95885574226852
 31
0.0
 12
111.9110136868421
 22
92.95885574226852
 32
0.0
 13
111.9110136868421
 23
92.95885574226852
 33
0.0
  0
MTEXT
  5
38E
330
388
100
AcDbEntity
  8
0
 62
     3
100
AcDbMText
 10
107.4691720201754
 20
86.95885574226853
 30
0.0
 40
3.5
 41
0.0
 71
     5
 72
     1
  1
\A1;\A1;{\f??|b0|i0|c0|p49;%%C}12{\f??|b0|i0|c0|p49;\H0.7x;\S+0^ -0.018;\H1.429x;(h}7{\f??|b0|i0|c0|p49;)}
 11
0.0000000000000001
 21
1.0
 31
0.0
1001
ACAD
1000
MTEXTBEGIN
1070
    73
1070
     1
1070
    44
1040
1.0
1070
    74
1070
     0
1000
MTEXTEND
1000
MTEXTBEGIN
1070
    73
1070
     1
1070
    44
1040
1.0
1070
    74
1070
     0
1000
MTEXTEND
  0
POINT
  5
38F
330
388
100
AcDbEntity
  8
DEFPOINTS
 62
     0
100
AcDbPoint
 10
135.2479754482519
 20
80.9588557422685
 30
0.0
  0
POINT
  5
390
330
388
100
AcDbEntity
  8
DEFPOINTS
 62
     0
100
AcDbPoint
 10
165.2479754482519
 20
92.95885574226849
 30
0.0
  0
POINT
  5
391
330
388
100
AcDbEntity
  8
DEFPOINTS
 62
     0
100
AcDbPoint
 10
111.9110136868421
 20
92.95885574226852
 30
0.0
  0
ENDBLK
  5
393
330
388
100
AcDbEntity
  8
0
100
AcDbBlockEnd
  0
BLOCK
  5
39E
330
394
100
AcDbEntity
  8
0
100
AcDbBlockBegin
  2
*D33
 70
     1
 10
0.0
 20
0.0
 30
0.0
  3
*D33
  1

  0
LINE
  5
395
330
394
100
AcDbEntity
  8
0
 62
   123
100
AcDbLine
 10
134.2479754482519
 20
80.9588557422685
 30
0.0
 11
122.1794945675414
 21
80.9588557422685
 31
0.0
  0
LINE
  5
396
330
394
100
AcDbEntity
  8
0
 62
   123
100
AcDbLine
 10
134.2479754482519
 20
91.95885574226847
 30
0.0
 11
122.1794945675414
 21
91.95885574226847
 31
0.0
  0
LINE
  5
397
330
394
100
AcDbEntity
  8
0
 62
   123
100
AcDbLine
 10
122.7794945675414
 20
83.9588557422685
 30
0.0
 11
122.7794945675414
 21
88.9588557422685
 31
0.0
  0
SOLID
  5
398
330
394
100
AcDbEntity
  8
0
 62
   123
100
AcDbTrace
 10
122.2794945675414
 20
83.9588557422685
 30
0.0
 11
123.2794945675414
 21
83.9588557422685
 31
0.0
 12
122.7794945675414
 22
80.9588557422685
 32
0.0
 13
122.7794945675414
 23
80.9588557422685
 33
0.0
  0
SOLID
  5
399
330
394
100
AcDbEntity
  8
0
 62
   123
100
AcDbTrace
 10
122.2794945675414
 20
88.9588557422685
 30
0.0
 11
123.2794945675414
 21
88.9588557422685
 31
0.0
 12
122.7794945675414
 22
91.95885574226847
 32
0.0
 13
122.7794945675414
 23
91.95885574226847
 33
0.0
  0
MTEXT
  5
39A
330
394
100
AcDbEntity
  8
0
 62
     3
100
AcDbMText
 10
120.0294945675414
 20
86.4588557422685
 30
0.0
 40
3.5
 41
0.0
 71
     5
 72
     1
  1
\A1;11
 11
0.0000000000000001
 21
1.0
 31
0.0
1001
ACAD
1000
MTEXTBEGIN
1070
    73
1070
     1
1070
    44
1040
1.0
1070
    74
1070
     0
1000
MTEXTEND
1000
MTEXTBEGIN
1070
    73
1070
     1
1070
    44
1040
1.0
1070
    74
1070
     0
1000
MTEXTEND
  0
POINT
  5
39B
330
394
100
AcDbEntity
  8
DEFPOINTS
 62
     0
100
AcDbPoint
 10
135.2479754482519
 20
80.9588557422685
 30
0.0
  0
POINT
  5
39C
330
394
100
AcDbEntity
  8
DEFPOINTS
 62
     0
100
AcDbPoint
 10
135.2479754482519
 20
91.95885574226847
 30
0.0
  0
POINT
  5
39D
330
394
100
AcDbEntity
  8
DEFPOINTS
 62
     0
100
AcDbPoint
 10
122.7794945675414
 20
91.95885574226847
 30
0.0
  0
ENDBLK
  5
39F
330
394
100
AcDbEntity
  8
0
100
AcDbBlockEnd
  0
BLOCK
  5
3A9
330
3A0
100
AcDbEntity
  8
0
100
AcDbBlockBegin
  2
*D34
 70
     1
 10
0.0
 20
0.0
 30
0.0
  3
*D34
  1

  0
LINE
  5
403
330
3A0
100
AcDbEntity
  8
0
 62
   123
100
AcDbLine
 10
-12.39194379512446
 20
235.2328571820916
 30
0.0
 11
-14.77864909244
 21
233.4152659673886
 31
0.0
  0
LINE
  5
404
330
3A0
100
AcDbEntity
  8
0
 62
   123
100
AcDbLine
 10
75.12058377311027
 20
301.8778683878701
 30
0.0
 11
99.68075584071307
 21
320.5816241602649
 31
0.0
  0
LINE
  5
405
330
3A0
100
AcDbEntity
  8
0
 62
   123
100
AcDbLine
 10
-10.0052384978089
 20
237.0504483967948
 30
0.0
 11
72.73387847579471
 21
300.0602771731671
 31
0.0
  0
SOLID
  5
406
330
3A0
100
AcDbEntity
  8
0
 62
   123
100
AcDbTrace
 10
-12.69487566424163
 20
235.630641398311
 30
0.0
 11
-12.08901192600726
 21
234.8350729658724
 31
0.0
 12
-10.0052384978089
 22
237.0504483967948
 32
0.0
 13
-10.0052384978089
 23
237.0504483967948
 33
0.0
  0
SOLID
  5
407
330
3A0
100
AcDbEntity
  8
0
 62
   123
100
AcDbTrace
 10
74.81765190399307
 20
302.2756526040895
 30
0.0
 11
75.42351564222744
 21
301.480084171651
 31
0.0
 12
72.73387847579471
 22
300.0602771731671
 32
0.0
 13
72.73387847579471
 23
300.0602771731671
 33
0.0
  0
MTEXT
  5
408
330
3A0
100
AcDbEntity
  8
0
 62
     3
100
AcDbMText
 10
87.34075409201841
 20
314.6407655281598
 30
0.0
 40
3.5
 41
0.0
 71
     5
 72
     1
  1
\A1;\U+2205104%%P0.5
 11
0.795568432438518
 21
0.6058637382343654
 31
0.0
1001
ACAD
1000
MTEXTBEGIN
1070
    73
1070
     1
1070
    44
1040
1.0
1070
    74
1070
     0
1000
MTEXTEND
1000
MTEXTBEGIN
1070
    73
1070
     1
1070
    44
1040
1.0
1070
    74
1070
     0
1000
MTEXTEND
  0
POINT
  5
409
330
3A0
100
AcDbEntity
  8
DEFPOINTS
 62
     0
100
AcDbPoint
 10
72.73387847579471
 20
300.0602771731671
 30
0.0
  0
POINT
  5
40A
330
3A0
100
AcDbEntity
  8
DEFPOINTS
 62
     0
100
AcDbPoint
 10
-10.0052384978089
 20
237.0504483967948
 30
0.0
  0
ENDBLK
  5
3AA
330
3A0
100
AcDbEntity
  8
0
100
AcDbBlockEnd
  0
BLOCK
  5
3B5
330
3AB
100
AcDbEntity
  8
0
100
AcDbBlockBegin
  2
*D35
 70
     1
 10
0.0
 20
0.0
 30
0.0
  3
*D35
  1

  0
LINE
  5
3AC
330
3AB
100
AcDbEntity
  8
0
 62
   123
100
AcDbLine
 10
-13.63568001100793
 20
309.5125690261828
 30
0.0
 11
-13.63568001100793
 21
334.3771245628837
 31
0.0
  0
LINE
  5
3AD
330
3AB
100
AcDbEntity
  8
0
 62
   123
100
AcDbLine
 10
76.36431998898297
 20
309.5125690261828
 30
0.0
 11
76.36431998898297
 21
334.3771245628837
 31
0.0
  0
LINE
  5
3AE
330
3AB
100
AcDbEntity
  8
0
 62
   123
100
AcDbLine
 10
-10.63568001100793
 20
333.7771245628836
 30
0.0
 11
73.36431998898297
 21
333.7771245628836
 31
0.0
  0
SOLID
  5
3AF
330
3AB
100
AcDbEntity
  8
0
 62
   123
100
AcDbTrace
 10
-10.63568001100793
 20
334.2771245628836
 30
0.0
 11
-10.63568001100793
 21
333.2771245628836
 31
0.0
 12
-13.63568001100793
 22
333.7771245628836
 32
0.0
 13
-13.63568001100793
 23
333.7771245628836
 33
0.0
  0
SOLID
  5
3B0
330
3AB
100
AcDbEntity
  8
0
 62
   123
100
AcDbTrace
 10
73.36431998898297
 20
334.2771245628836
 30
0.0
 11
73.36431998898297
 21
333.2771245628836
 31
0.0
 12
76.36431998898297
 22
333.7771245628836
 32
0.0
 13
76.36431998898297
 23
333.7771245628836
 33
0.0
  0
MTEXT
  5
3B1
330
3AB
100
AcDbEntity
  8
0
 62
     3
100
AcDbMText
 10
31.75497162897226
 20
336.5271245628836
 30
0.0
 40
3.5
 41
0.0
 71
     5
 72
     1
  1
\A1;90
1001
ACAD
1000
MTEXTBEGIN
1070
    73
1070
     1
1070
    44
1040
1.0
1070
    74
1070
     0
1000
MTEXTEND
1000
MTEXTBEGIN
1070
    73
1070
     1
1070
    44
1040
1.0
1070
    74
1070
     0
1000
MTEXTEND
  0
POINT
  5
3B2
330
3AB
100
AcDbEntity
  8
DEFPOINTS
 62
     0
100
AcDbPoint
 10
-13.63568001100793
 20
308.5125690261828
 30
0.0
  0
POINT
  5
3B3
330
3AB
100
AcDbEntity
  8
DEFPOINTS
 62
     0
100
AcDbPoint
 10
76.36431998898297
 20
308.5125690261828
 30
0.0
  0
POINT
  5
3B4
330
3AB
100
AcDbEntity
  8
DEFPOINTS
 62
     0
100
AcDbPoint
 10
76.36431998898297
 20
333.7771245628836
 30
0.0
  0
ENDBLK
  5
3B6
330
3AB
100
AcDbEntity
  8
0
100
AcDbBlockEnd
  0
BLOCK
  5
3C1
330
3B7
100
AcDbEntity
  8
0
100
AcDbBlockBegin
  2
*D36
 70
     1
 10
0.0
 20
0.0
 30
0.0
  3
*D36
  1

  0
LINE
  5
3B8
330
3B7
100
AcDbEntity
  8
0
 62
   123
100
AcDbLine
 10
120.384899957622
 20
274.2053627849808
 30
0.0
 11
120.384899957622
 21
352.0234315150233
 31
0.0
  0
LINE
  5
3B9
330
3B7
100
AcDbEntity
  8
0
 62
   123
100
AcDbLine
 10
141.384899957622
 20
314.7636961183143
 30
0.0
 11
141.384899957622
 21
352.0234315150233
 31
0.0
  0
LINE
  5
3BA
330
3B7
100
AcDbEntity
  8
0
 62
   123
100
AcDbLine
 10
123.384899957622
 20
351.4234315150233
 30
0.0
 11
138.384899957622
 21
351.4234315150233
 31
0.0
  0
SOLID
  5
3BB
330
3B7
100
AcDbEntity
  8
0
 62
   123
100
AcDbTrace
 10
123.384899957622
 20
351.9234315150233
 30
0.0
 11
123.384899957622
 21
350.9234315150233
 31
0.0
 12
120.384899957622
 22
351.4234315150233
 32
0.0
 13
120.384899957622
 23
351.4234315150233
 33
0.0
  0
SOLID
  5
3BC
330
3B7
100
AcDbEntity
  8
0
 62
   123
100
AcDbTrace
 10
138.384899957622
 20
351.9234315150233
 30
0.0
 11
138.384899957622
 21
350.9234315150233
 31
0.0
 12
141.384899957622
 22
351.4234315150233
 32
0.0
 13
141.384899957622
 23
351.4234315150233
 33
0.0
  0
MTEXT
  5
3BD
330
3B7
100
AcDbEntity
  8
0
 62
     3
100
AcDbMText
 10
130.884899957622
 20
354.1734315150233
 30
0.0
 40
3.5
 41
0.0
 71
     5
 72
     1
  1
\A1;21
1001
ACAD
1000
MTEXTBEGIN
1070
    73
1070
     1
1070
    44
1040
1.0
1070
    74
1070
     0
1000
MTEXTEND
1000
MTEXTBEGIN
1070
    73
1070
     1
1070
    44
1040
1.0
1070
    74
1070
     0
1000
MTEXTEND
  0
POINT
  5
3BE
330
3B7
100
AcDbEntity
  8
DEFPOINTS
 62
     0
100
AcDbPoint
 10
120.384899957622
 20
273.2053627849808
 30
0.0
  0
POINT
  5
3BF
330
3B7
100
AcDbEntity
  8
DEFPOINTS
 62
     0
100
AcDbPoint
 10
141.384899957622
 20
313.7636961183143
 30
0.0
  0
POINT
  5
3C0
330
3B7
100
AcDbEntity
  8
DEFPOINTS
 62
     0
100
AcDbPoint
 10
141.384899957622
 20
351.4234315150233
 30
0.0
  0
ENDBLK
  5
3C2
330
3B7
100
AcDbEntity
  8
0
100
AcDbBlockEnd
  0
BLOCK
  5
3CF
330
3C3
100
AcDbEntity
  8
0
100
AcDbBlockBegin
  2
*D37
 70
     1
 10
0.0
 20
0.0
 30
0.0
  3
*D37
  1

  0
LINE
  5
3C4
330
3C3
100
AcDbEntity
  8
0
 62
   123
100
AcDbLine
 10
139.384899957622
 20
311.0553627849804
 30
0.0
 11
139.384899957622
 21
326.7880163492296
 31
0.0
  0
LINE
  5
3C5
330
3C3
100
AcDbEntity
  8
0
 62
   123
100
AcDbLine
 10
141.384899957622
 20
314.5553627849803
 30
0.0
 11
141.384899957622
 21
326.7880163492296
 31
0.0
  0
LINE
  5
3C6
330
3C3
100
AcDbEntity
  8
0
 62
   123
100
AcDbLine
 10
144.384899957622
 20
326.1880163492296
 30
0.0
 11
147.384899957622
 21
326.1880163492296
 31
0.0
  0
LINE
  5
3C7
330
3C3
100
AcDbEntity
  8
0
 62
   123
100
AcDbLine
 10
136.384899957622
 20
326.1880163492296
 30
0.0
 11
128.2182332909554
 21
326.1880163492296
 31
0.0
  0
LINE
  5
3C8
330
3C3
100
AcDbEntity
  8
0
 62
   123
100
AcDbLine
 10
141.384899957622
 20
326.1880163492296
 30
0.0
 11
139.384899957622
 21
326.1880163492296
 31
0.0
  0
SOLID
  5
3C9
330
3C3
100
AcDbEntity
  8
0
 62
   123
100
AcDbTrace
 10
144.384899957622
 20
326.6880163492296
 30
0.0
 11
144.384899957622
 21
325.6880163492295
 31
0.0
 12
141.384899957622
 22
326.1880163492296
 32
0.0
 13
141.384899957622
 23
326.1880163492296
 33
0.0
  0
SOLID
  5
3CA
330
3C3
100
AcDbEntity
  8
0
 62
   123
100
AcDbTrace
 10
136.384899957622
 20
326.6880163492296
 30
0.0
 11
136.384899957622
 21
325.6880163492295
 31
0.0
 12
139.384899957622
 22
326.1880163492296
 32
0.0
 13
139.384899957622
 23
326.1880163492296
 33
0.0
  0
MTEXT
  5
3CB
330
3C3
100
AcDbEntity
  8
0
 62
     3
100
AcDbMText
 10
130.384899957622
 20
328.9380163492296
 30
0.0
 40
3.5
 41
0.0
 71
     5
 72
     1
  1
\A1;2
1001
ACAD
1000
MTEXTBEGIN
1070
    73
1070
     1
1070
    44
1040
1.0
1070
    74
1070
     0
1000
MTEXTEND
1000
MTEXTBEGIN
1070
    73
1070
     1
1070
    44
1040
1.0
1070
    74
1070
     0
1000
MTEXTEND
  0
POINT
  5
3CC
330
3C3
100
AcDbEntity
  8
DEFPOINTS
 62
     0
100
AcDbPoint
 10
139.384899957622
 20
310.0553627849803
 30
0.0
  0
POINT
  5
3CD
330
3C3
100
AcDbEntity
  8
DEFPOINTS
 62
     0
100
AcDbPoint
 10
141.384899957622
 20
313.5553627849803
 30
0.0
  0
POINT
  5
3CE
330
3C3
100
AcDbEntity
  8
DEFPOINTS
 62
     0
100
AcDbPoint
 10
141.384899957622
 20
326.1880163492296
 30
0.0
  0
ENDBLK
  5
3D0
330
3C3
100
AcDbEntity
  8
0
100
AcDbBlockEnd
  0
BLOCK
  5
3DD
330
3D1
100
AcDbEntity
  8
0
100
AcDbBlockBegin
  2
*D38
 70
     1
 10
0.0
 20
0.0
 30
0.0
  3
*D38
  1

  0
LINE
  5
3D2
330
3D1
100
AcDbEntity
  8
0
 62
   123
100
AcDbLine
 10
141.384899957622
 20
314.7636961183143
 30
0.0
 11
141.384899957622
 21
338.6123365801463
 31
0.0
  0
LINE
  5
3D3
330
3D1
100
AcDbEntity
  8
0
 62
   123
100
AcDbLine
 10
148.884899957622
 20
313.1541001265103
 30
0.0
 11
148.884899957622
 21
338.6123365801463
 31
0.0
  0
LINE
  5
3D4
330
3D1
100
AcDbEntity
  8
0
 62
   123
100
AcDbLine
 10
138.384899957622
 20
338.0123365801463
 30
0.0
 11
135.384899957622
 21
338.0123365801463
 31
0.0
  0
LINE
  5
3D5
330
3D1
100
AcDbEntity
  8
0
 62
   123
100
AcDbLine
 10
151.884899957622
 20
338.0123365801463
 30
0.0
 11
154.884899957622
 21
338.0123365801463
 31
0.0
  0
LINE
  5
3D6
330
3D1
100
AcDbEntity
  8
0
 62
   123
100
AcDbLine
 10
141.384899957622
 20
338.0123365801463
 30
0.0
 11
148.884899957622
 21
338.0123365801463
 31
0.0
  0
SOLID
  5
3D7
330
3D1
100
AcDbEntity
  8
0
 62
   123
100
AcDbTrace
 10
138.384899957622
 20
338.5123365801463
 30
0.0
 11
138.384899957622
 21
337.5123365801464
 31
0.0
 12
141.384899957622
 22
338.0123365801463
 32
0.0
 13
141.384899957622
 23
338.0123365801463
 33
0.0
  0
SOLID
  5
3D8
330
3D1
100
AcDbEntity
  8
0
 62
   123
100
AcDbTrace
 10
151.884899957622
 20
338.5123365801463
 30
0.0
 11
151.884899957622
 21
337.5123365801464
 31
0.0
 12
148.884899957622
 22
338.0123365801463
 32
0.0
 13
148.884899957622
 23
338.0123365801463
 33
0.0
  0
MTEXT
  5
3D9
330
3D1
100
AcDbEntity
  8
0
 62
     3
100
AcDbMText
 10
145.134899957622
 20
340.7623365801463
 30
0.0
 40
3.5
 41
0.0
 71
     5
 72
     1
  1
\A1;7.5
1001
ACAD
1000
MTEXTBEGIN
1070
    73
1070
     1
1070
    44
1040
1.0
1070
    74
1070
     0
1000
MTEXTEND
1000
MTEXTBEGIN
1070
    73
1070
     1
1070
    44
1040
1.0
1070
    74
1070
     0
1000
MTEXTEND
  0
POINT
  5
3DA
330
3D1
100
AcDbEntity
  8
DEFPOINTS
 62
     0
100
AcDbPoint
 10
141.384899957622
 20
313.7636961183143
 30
0.0
  0
POINT
  5
3DB
330
3D1
100
AcDbEntity
  8
DEFPOINTS
 62
     0
100
AcDbPoint
 10
148.884899957622
 20
312.1541001265104
 30
0.0
  0
POINT
  5
3DC
330
3D1
100
AcDbEntity
  8
DEFPOINTS
 62
     0
100
AcDbPoint
 10
148.884899957622
 20
338.0123365801463
 30
0.0
  0
ENDBLK
  5
3DE
330
3D1
100
AcDbEntity
  8
0
100
AcDbBlockEnd
  0
BLOCK
  5
3E9
330
3DF
100
AcDbEntity
  8
0
100
AcDbBlockBegin
  2
*D39
 70
     1
 10
0.0
 20
0.0
 30
0.0
  3
*D39
  1

  0
LINE
  5
3E0
330
3DF
100
AcDbEntity
  8
0
 62
   123
100
AcDbLine
 10
138.384899957622
 20
310.0553627849803
 30
0.0
 11
102.5175863935823
 21
310.0553627849803
 31
0.0
  0
LINE
  5
3E1
330
3DF
100
AcDbEntity
  8
0
 62
   123
100
AcDbLine
 10
138.384899957622
 20
227.0553627849803
 30
0.0
 11
102.5175863935823
 21
227.0553627849803
 31
0.0
  0
LINE
  5
3E2
330
3DF
100
AcDbEntity
  8
0
 62
   123
100
AcDbLine
 10
103.1175863935823
 20
307.0553627849804
 30
0.0
 11
103.1175863935823
 21
230.0553627849803
 31
0.0
  0
SOLID
  5
3E3
330
3DF
100
AcDbEntity
  8
0
 62
   123
100
AcDbTrace
 10
102.6175863935822
 20
307.0553627849804
 30
0.0
 11
103.6175863935822
 21
307.0553627849804
 31
0.0
 12
103.1175863935823
 22
310.0553627849803
 32
0.0
 13
103.1175863935823
 23
310.0553627849803
 33
0.0
  0
SOLID
  5
3E4
330
3DF
100
AcDbEntity
  8
0
 62
   123
100
AcDbTrace
 10
102.6175863935822
 20
230.0553627849803
 30
0.0
 11
103.6175863935822
 21
230.0553627849803
 31
0.0
 12
103.1175863935823
 22
227.0553627849803
 32
0.0
 13
103.1175863935823
 23
227.0553627849803
 33
0.0
  0
MTEXT
  5
3E5
330
3DF
100
AcDbEntity
  8
0
 62
     3
100
AcDbMText
 10
98.67574472691565
 20
268.5553627849803
 30
0.0
 40
3.5
 41
0.0
 71
     5
 72
     1
  1
\A1;\A1;{\f??|b0|i0|c0|p49;%%C}83{\f??|b0|i0|c0|p49;\H0.7x;\S+0^ -0.035;\H1.429x;(h}7{\f??|b0|i0|c0|p49;)}
 11
0.0000000000000001
 21
1.0
 31
0.0
1001
ACAD
1000
MTEXTBEGIN
1070
    73
1070
     1
1070
    44
1040
1.0
1070
    74
1070
     0
1000
MTEXTEND
1000
MTEXTBEGIN
1070
    73
1070
     1
1070
    44
1040
1.0
1070
    74
1070
     0
1000
MTEXTEND
  0
POINT
  5
3E6
330
3DF
100
AcDbEntity
  8
DEFPOINTS
 62
     0
100
AcDbPoint
 10
139.384899957622
 20
310.0553627849803
 30
0.0
  0
POINT
  5
3E7
330
3DF
100
AcDbEntity
  8
DEFPOINTS
 62
     0
100
AcDbPoint
 10
139.384899957622
 20
227.0553627849803
 30
0.0
  0
POINT
  5
3E8
330
3DF
100
AcDbEntity
  8
DEFPOINTS
 62
     0
100
AcDbPoint
 10
103.1175863935823
 20
227.0553627849803
 30
0.0
  0
ENDBLK
  5
3EA
330
3DF
100
AcDbEntity
  8
0
100
AcDbBlockEnd
  0
BLOCK
  5
3F5
330
3EB
100
AcDbEntity
  8
0
100
AcDbBlockBegin
  2
*D40
 70
     1
 10
0.0
 20
0.0
 30
0.0
  3
*D40
  1

  0
LINE
  5
3EC
330
3EB
100
AcDbEntity
  8
0
 62
   123
100
AcDbLine
 10
385.7486979389541
 20
131.9588557422685
 30
0.0
 11
410.443301328463
 21
131.9588557422685
 31
0.0
  0
LINE
  5
3ED
330
3EB
100
AcDbEntity
  8
0
 62
   123
100
AcDbLine
 10
385.7486979389541
 20
41.95885574226848
 30
0.0
 11
410.443301328463
 21
41.95885574226847
 31
0.0
  0
LINE
  5
3EE
330
3EB
100
AcDbEntity
  8
0
 62
   123
100
AcDbLine
 10
409.843301328463
 20
128.9588557422685
 30
0.0
 11
409.843301328463
 21
44.95885574226849
 31
0.0
  0
SOLID
  5
3EF
330
3EB
100
AcDbEntity
  8
0
 62
   123
100
AcDbTrace
 10
409.3433013284629
 20
128.9588557422685
 30
0.0
 11
410.343301328463
 21
128.9588557422685
 31
0.0
 12
409.843301328463
 22
131.9588557422685
 32
0.0
 13
409.843301328463
 23
131.9588557422685
 33
0.0
  0
SOLID
  5
3F0
330
3EB
100
AcDbEntity
  8
0
 62
   123
100
AcDbTrace
 10
409.3433013284629
 20
44.95885574226849
 30
0.0
 11
410.343301328463
 21
44.95885574226849
 31
0.0
 12
409.843301328463
 22
41.95885574226847
 32
0.0
 13
409.843301328463
 23
41.95885574226847
 33
0.0
  0
MTEXT
  5
3F1
330
3EB
100
AcDbEntity
  8
0
 62
     3
100
AcDbMText
 10
407.0933013284629
 20
86.96564571450744
 30
0.0
 40
3.5
 41
0.0
 71
     5
 72
     1
  1
\A1;90
 11
0.0000000000000001
 21
1.0
 31
0.0
1001
ACAD
1000
MTEXTBEGIN
1070
    73
1070
     1
1070
    44
1040
1.0
1070
    74
1070
     0
1000
MTEXTEND
1000
MTEXTBEGIN
1070
    73
1070
     1
1070
    44
1040
1.0
1070
    74
1070
     0
1000
MTEXTEND
  0
POINT
  5
3F2
330
3EB
100
AcDbEntity
  8
DEFPOINTS
 62
     0
100
AcDbPoint
 10
384.7486979389541
 20
131.9588557422685
 30
0.0
  0
POINT
  5
3F3
330
3EB
100
AcDbEntity
  8
DEFPOINTS
 62
     0
100
AcDbPoint
 10
384.7486979389541
 20
41.95885574226848
 30
0.0
  0
POINT
  5
3F4
330
3EB
100
AcDbEntity
  8
DEFPOINTS
 62
     0
100
AcDbPoint
 10
409.843301328463
 20
41.95885574226847
 30
0.0
  0
ENDBLK
  5
3F6
330
3EB
100
AcDbEntity
  8
0
100
AcDbBlockEnd
  0
BLOCK
  5
401
330
3F7
100
AcDbEntity
  8
0
100
AcDbBlockBegin
  2
*D41
 70
     1
 10
0.0
 20
0.0
 30
0.0
  3
*D41
  1

  0
LINE
  5
3F8
330
3F7
100
AcDbEntity
  8
0
 62
   123
100
AcDbLine
 10
354.8856224483114
 20
313.5553627849803
 30
0.0
 11
379.5802258378331
 21
313.5553627849803
 31
0.0
  0
LINE
  5
3F9
330
3F7
100
AcDbEntity
  8
0
 62
   123
100
AcDbLine
 10
354.8856224483114
 20
223.5553627849804
 30
0.0
 11
379.5802258378331
 21
223.5553627849804
 31
0.0
  0
LINE
  5
3FA
330
3F7
100
AcDbEntity
  8
0
 62
   123
100
AcDbLine
 10
378.980225837833
 20
310.5553627849804
 30
0.0
 11
378.980225837833
 21
226.5553627849802
 31
0.0
  0
SOLID
  5
3FB
330
3F7
100
AcDbEntity
  8
0
 62
   123
100
AcDbTrace
 10
378.4802258378332
 20
310.5553627849804
 30
0.0
 11
379.480225837833
 21
310.5553627849804
 31
0.0
 12
378.980225837833
 22
313.5553627849803
 32
0.0
 13
378.980225837833
 23
313.5553627849803
 33
0.0
  0
SOLID
  5
3FC
330
3F7
100
AcDbEntity
  8
0
 62
   123
100
AcDbTrace
 10
378.4802258378332
 20
226.5553627849802
 30
0.0
 11
379.480225837833
 21
226.5553627849802
 31
0.0
 12
378.980225837833
 22
223.5553627849804
 32
0.0
 13
378.980225837833
 23
223.5553627849804
 33
0.0
  0
MTEXT
  5
3FD
330
3F7
100
AcDbEntity
  8
0
 62
     3
100
AcDbMText
 10
376.230225837833
 20
271.3052520262144
 30
0.0
 40
3.5
 41
0.0
 71
     5
 72
     1
  1
\A1;90
 11
0.0000000000000001
 21
1.0
 31
0.0
1001
ACAD
1000
MTEXTBEGIN
1070
    73
1070
     1
1070
    44
1040
1.0
1070
    74
1070
     0
1000
MTEXTEND
1000
MTEXTBEGIN
1070
    73
1070
     1
1070
    44
1040
1.0
1070
    74
1070
     0
1000
MTEXTEND
  0
POINT
  5
3FE
330
3F7
100
AcDbEntity
  8
DEFPOINTS
 62
     0
100
AcDbPoint
 10
353.8856224483114
 20
313.5553627849803
 30
0.0
  0
POINT
  5
3FF
330
3F7
100
AcDbEntity
  8
DEFPOINTS
 62
     0
100
AcDbPoint
 10
353.8856224483114
 20
223.5553627849804
 30
0.0
  0
POINT
  5
400
330
3F7
100
AcDbEntity
  8
DEFPOINTS
 62
     0
100
AcDbPoint
 10
378.980225837833
 20
223.5553627849804
 30
0.0
  0
ENDBLK
  5
402
330
3F7
100
AcDbEntity
  8
0
100
AcDbBlockEnd
  0
ENDSEC
  0
SECTION
  2
ENTITIES
  0
ARC
  5
9D
330
2
100
AcDbEntity
  8
0
 48
0.6
100
AcDbCircle
 10
151.7726346485324
 20
96.08513021666022
 30
0.0
 40
116.9686661741607
100
AcDbArc
 50
210.1560153536115
 51
216.2412691602773
  0
LWPOLYLINE
  5
9E
330
2
100
AcDbEntity
  8
0
100
AcDbPolyline
 90
      548
 70
     0
 43
0.0
 10
57.43334659071297
 20
26.93480414869554
 10
57.43636200583204
 20
26.94937756347917
 10
57.43991045716211
 20
26.96603725214844
 10
57.44353787533327
 20
26.98259029761629
 10
57.44724400562336
 20
26.99903705574888
 10
57.45102859323378
 20
27.01537788242331
 10
57.45489138343145
 20
27.03161313351211
 10
57.45883212145236
 20
27.04774316488965
 10
57.46285055254157
 20
27.06376833242575
 10
57.46694642194235
 20
27.07968899199658
 10
57.47111947489248
 20
27.09550549946834
 10
57.47536945664069
 20
27.11121821072083
 10
57.47969611242297
 20
27.12682748162478
 10
57.48409918748256
 20
27.14233366805364
 10
57.48857842707366
 20
27.15773712587814
 10
57.49313357641222
 20
27.17303821097357
 10
57.49776438077241
 20
27.18823727920971
 10
57.50247058537206
 20
27.20333468646185
 10
57.50725193546168
 20
27.21833078860254
 10
57.51210817629179
 20
27.23322594150431
 10
57.51703905310204
 20
27.2480205010388
 10
57.52204431112295
 20
27.26271482308493
 10
57.52712369561232
 20
27.27730926350614
 10
57.5322769518025
 20
27.29180417818133
 10
57.53750382494217
 20
27.30619992298215
 10
57.5428040602619
 20
27.32049685378205
 10
57.54817740302314
 20
27.33469532645175
 10
57.55362359845276
 20
27.34879569686654
 10
57.55914239180309
 20
27.36279832089712
 10
57.564733528312
 20
27.37670355441968
 10
57.57039675322268
 20
27.39051175330132
 10
57.57613181177294
 20
27.40422327342185
 10
57.58193844922243
 20
27.41783847064743
 10
57.58781641079075
 20
27.4313577008561
 10
57.5937654417321
 20
27.44478131991853
 10
57.59978528728243
 20
27.45810968370642
 10
57.60587569270319
 20
27.47134314809681
 10
57.61203640321219
 20
27.48448206895773
 10
57.61826716406176
 20
27.49752680216443
 10
57.62456772050246
 20
27.51047770358946
 10
57.63093781777206
 20
27.52333512910263
 10
57.63737720110293
 20
27.53609943458559
 10
57.64388561575287
 20
27.54877097590088
 10
57.65046280695242
 20
27.56135010892831
 10
57.65710851994118
 20
27.57383718953679
 10
57.6638224999824
 20
27.58623257360159
 10
57.67060449230303
 20
27.59853661699617
 10
57.67745424214263
 20
27.61074967558761
 10
57.68437149475357
 20
27.62287210525574
 10
57.69135599537367
 20
27.63490426187127
 10
57.69840748924071
 20
27.64684650130402
 10
57.70552572160159
 20
27.65869917943108
 10
57.71271043770321
 20
27.67046265212229
 10
57.71996138278336
 20
27.6821372752529
 10
57.72727830208168
 20
27.69372340469544
 10
57.73466094085232
 20
27.70522139631975
 10
57.74210904432402
 20
27.7166316060011
 10
57.74962235774182
 20
27.72795438961202
 10
57.75720062635264
 20
27.73919010302506
 10
57.76484359540154
 20
27.7503391021155
 10
57.77255101013178
 20
27.76140174275406
 10
57.7803226157739
 20
27.77237838081328
 10
57.78815815758207
 20
27.78326937216478
 10
57.79605738079226
 20
27.79407507268205
 10
57.80402003064228
 20
27.80479583824126
 10
57.81204585239175
 20
27.8154320247113
 10
57.82013459127302
 20
27.82598398796745
 10
57.82828599252207
 20
27.83645208388497
 10
57.83649980139307
 20
27.84683666832915
 10
57.84477576311292
 20
27.85713809717889
 10
57.85311362294123
 20
27.86735672630493
 10
57.86151312612311
 20
27.8774929115807
 10
57.86997401788358
 20
27.88754700887875
 10
57.87849604347321
 20
27.89751937407162
 10
57.88707894813342
 20
27.9074103630337
 10
57.89572247710204
 20
27.91722033163569
 10
57.9044263756332
 20
27.92694963575103
 10
57.91319038897199
 20
27.93659863125503
 10
57.92201426234169
 20
27.94616767401748
 10
57.93089774100373
 20
27.95565711991093
 10
57.93984057018315
 20
27.96506732481248
 10
57.94884249514144
 20
27.97439864459011
 10
57.95790326110363
 20
27.9836514351191
 10
57.96702261332392
 20
27.99282605227198
 10
57.97620029704194
 20
28.00192285192133
 10
57.98543605749181
 20
28.01094218994057
 10
57.99472963993139
 20
28.01988442220407
 10
58.00408078959117
 20
28.02874990457894
 10
58.01348925172352
 20
28.03753899294497
 10
58.02295477156257
 20
28.04625204316926
 10
58.03247709435163
 20
28.05488941112979
 10
58.04205596533211
 20
28.0634514526946
 10
58.05169112975272
 20
28.07193852374075
 10
58.06138233285128
 20
28.08035098013805
 10
58.07112931987285
 20
28.08868917776271
 10
58.08093183606253
 20
28.09695347248362
 10
58.09078962665261
 20
28.10514422017512
 10
58.10070243689188
 20
28.11326177671071
 10
58.11067001203264
 20
28.12130649796381
 10
58.12069209730362
 20
28.12927873980516
 10
58.13076843794078
 20
28.1371788581091
 10
58.14089877920197
 20
28.14500720874912
 10
58.15108286633222
 20
28.15276414759683
 10
58.16132044456208
 20
28.16045003052385
 10
58.17161125914207
 20
28.16806521340641
 10
58.18195505530275
 20
28.17561005211428
 10
58.19235157830188
 20
28.18308490252183
 10
58.20280057337368
 20
28.19049012050344
 10
58.21330178576317
 20
28.19782606192984
 10
58.22385496071183
 20
28.20509308267082
 10
58.23445984346289
 20
28.21229153860622
 10
58.24511617925235
 20
28.21942178560584
 10
58.25582371333258
 20
28.2264841795386
 10
58.26658219094134
 20
28.2334790762834
 10
58.27739135732372
 20
28.24040683170915
 10
58.28825095772298
 20
28.2472678016893
 10
58.29916073737331
 20
28.25406234210003
 10
58.31012044152338
 20
28.26079080880754
 10
58.32112981542377
 20
28.26745355769344
 10
58.33218860430315
 20
28.27405094462301
 10
58.34329655340297
 20
28.28058332547424
 10
58.35445340798287
 20
28.28705105611607
 10
58.36565891326245
 20
28.29345449242099
 10
58.37691281450315
 20
28.29979399026797
 10
58.38821485694096
 20
28.30606990552132
 10
58.3995647858228
 20
28.31228259406179
 10
58.41096234638279
 20
28.31843241175829
 10
58.42240728386241
 20
28.32451971448245
 10
58.43389934351217
 20
28.33054485811044
 10
58.4454382705735
 20
28.33650819851118
 10
58.4570238102824
 20
28.34241009156539
 10
58.46865570788214
 20
28.34825089313381
 10
58.48033370862322
 20
28.35403095909896
 10
58.49205755774164
 20
28.35975064532977
 10
58.50382700049158
 20
28.36541030770057
 10
58.51564178209081
 20
28.37101030208396
 10
58.52750164781173
 20
28.3765509843506
 10
58.5394063428721
 20
28.38203271037581
 10
58.55135561252246
 20
28.38745583603303
 10
58.56334920201152
 20
28.3928207171939
 10
58.57538685658255
 20
28.39812770972912
 10
58.58746832146244
 20
28.4033771695158
 10
58.59959334191263
 20
28.40856945242376
 10
58.61176166316181
 20
28.41370491432644
 10
58.62397303046236
 20
28.41878391109549
 10
58.63622718904299
 20
28.42380679860706
 10
58.64852388417239
 20
28.42877393273465
 10
58.66086286106291
 20
28.43368566934714
 10
58.67324386497239
 20
28.43854236431706
 10
58.68566664114222
 20
28.44334437351972
 10
58.69813093481207
 20
28.44809205282762
 10
58.71063649122334
 20
28.45278575811335
 10
58.72318305563386
 20
28.45742584524851
 10
58.73577037326321
 20
28.46201267010929
 10
58.74839818936197
 20
28.46654658856731
 10
58.76106624918246
 20
28.47102795649242
 10
58.7737742979516
 20
28.47545712975716
 10
58.78652208093264
 20
28.47983446424223
 10
58.79930934334152
 20
28.48416031581291
 10
58.81213583044154
 20
28.48843504034174
 10
58.82500128747232
 20
28.49265899370766
 10
58.83790545967349
 20
28.49683253177863
 10
58.85084809227373
 20
28.50095601042994
 10
58.86382893054179
 20
28.50502978553139
 10
58.8768477196918
 20
28.50905421295829
 10
58.8899042049925
 20
28.51302964858405
 10
58.90299813167257
 20
28.51695644827941
 10
58.91612924498257
 20
28.52083496792056
 10
58.92929729015303
 20
28.52466556337276
 10
58.94250201243265
 20
28.52844859051947
 10
58.95574315706291
 20
28.53218440522596
 10
58.96902046929063
 20
28.53587336336659
 10
58.98233369435184
 20
28.53951582081844
 10
58.99568257749161
 20
28.54311213344772
 10
59.00906686396229
 20
28.54666265713058
 10
59.0224862989926
 20
28.55016774774048
 10
59.03594062782213
 20
28.55362776114997
 10
59.04942959571235
 20
28.55704305323161
 10
59.06295294788288
 20
28.56041397985609
 10
59.0765104295915
 20
28.5637408968996
 10
59.09010178608149
 20
28.56702416023471
 10
59.1037267625925
 20
28.57026412573303
 10
59.11738510436226
 20
28.57346114926622
 10
59.13107655663225
 20
28.57661558670951
 10
59.14480086465299
 20
28.57972779393458
 10
59.15855777366232
 20
28.58279812681394
 10
59.17234702890347
 20
28.58582694122196
 10
59.18616837562331
 20
28.5888145930312
 10
59.20002155905422
 20
28.59176143811146
 10
59.21390632444127
 20
28.59466783234073
 10
59.22782241704226
 20
28.59753413158705
 10
59.24176958207318
 20
28.60036069172473
 10
59.25574756480273
 20
28.60314786863182
 10
59.26975611045236
 20
28.60589601817263
 10
59.28379496428352
 20
28.60860549622339
 10
59.29786387152308
 20
28.61127665865842
 10
59.3119625774234
 20
28.6139098613512
 10
59.32609082721319
 20
28.61650546017154
 10
59.34024836615208
 20
28.61906381099561
 10
59.3544349394724
 20
28.62158526969233
 10
59.3686502924229
 20
28.62407019213788
 10
59.38289417024315
 20
28.62651893420297
 10
59.39716631817281
 20
28.62893185176289
 10
59.4114664814624
 20
28.63130930068837
 10
59.42579440534245
 20
28.63365163685102
 10
59.44014983506168
 20
28.63595921612795
 10
59.45453251586332
 20
28.63823239438898
 10
59.46894219299064
 20
28.64047152750753
 10
59.48337861168329
 20
28.64267697135892
 10
59.49784151719177
 20
28.6448490818093
 10
59.51233065474117
 20
28.6469882147403
 10
59.52684576959109
 20
28.64909472601721
 10
59.541386606983
 20
28.65116897151802
 10
59.55595291214193
 20
28.65321130711254
 10
59.57054443033303
 20
28.65522208867242
 10
59.58516090679221
 20
28.65720167207382
 10
59.59980208674096
 20
28.65915041319112
 10
59.61446771545161
 20
28.66106866789232
 10
59.62915753815287
 20
28.66295679205359
 10
59.64387130009163
 20
28.66481514154566
 10
59.65860874650388
 20
28.6666440722438
 10
59.67336962263289
 20
28.66844394001964
 10
59.68815367372189
 20
28.67021510074483
 10
59.70296064502327
 20
28.67195791029371
 10
59.71779028176206
 20
28.67367272453975
 10
59.73264232920154
 20
28.67535989935186
 10
59.74751653256134
 20
28.67701979060985
 10
59.76241263710289
 20
28.67865275417989
 10
59.77733038805308
 20
28.68025914593908
 10
59.79226953067335
 20
28.68183932175725
 10
59.80722981018335
 20
28.68339363750783
 10
59.82221097185174
 20
28.68492244906519
 10
59.83721276089091
 20
28.6864261123028
 10
59.85223492257317
 20
28.68790498309227
 10
59.86727720212365
 20
28.68935941730614
 10
59.88233934479104
 20
28.69078977081608
 10
59.89742109581311
 20
28.69219639949642
 10
59.91252220043316
 20
28.69357965922063
 10
59.9276424038926
 20
28.69493990586125
 10
59.942781451442
 20
28.69627749529353
 10
59.95793908831182
 20
28.69759278338278
 10
59.97311505975267
 20
28.69888612600698
 10
59.98830911101322
 20
28.70015787904321
 10
60.00352098732401
 20
28.70140839835585
 10
60.01875043392282
 20
28.70263803982196
 10
60.03399719607296
 20
28.70384715931412
 10
60.04926101899219
 20
28.70503611270759
 10
60.06454164794195
 20
28.70620525587219
 10
60.07983882816187
 20
28.70735494467954
 10
60.0951523048916
 20
28.70848553500491
 10
60.11048182337254
 20
28.70959738272086
 10
60.12582712884249
 20
28.71069084370265
 10
60.14118796655385
 20
28.71176627381646
 10
60.15656408174073
 20
28.7128240289403
 10
60.17195521965186
 20
28.71386446494671
 10
60.18736112553233
 20
28.71488793770641
 10
60.20278154461266
 20
28.71589480309557
 10
60.21821622215248
 20
28.71688541698494
 10
60.23366490337321
 20
28.71786013524523
 10
60.24912733353267
 20
28.71881931375355
 10
60.26460325786139
 20
28.71976330838061
 10
60.28009242162261
 20
28.72069247499803
 10
60.29559457004143
 20
28.72160716948019
 10
60.3111094483629
 20
28.72250774769963
 10
60.32663680182304
 20
28.72339456553163
 10
60.34217637568326
 20
28.72426797884418
 10
60.35772791517229
 20
28.72512834351346
 10
60.37329116554065
 20
28.72597601541201
 10
60.38886587202251
 20
28.7268113504133
 10
60.40445177986294
 20
28.72763470438622
 10
60.42004863430157
 20
28.72844643320695
 10
60.43565618058345
 20
28.72924689275169
 10
60.45127416396097
 20
28.7300364388866
 10
60.46690232966285
 20
28.73081542748696
 10
60.48254042293229
 20
28.73158421442804
 10
60.49818818902349
 20
28.73234315558056
 10
60.51384537317243
 20
28.73309260681435
 10
60.52951172061147
 20
28.73383292401013
 10
60.54518697660205
 20
28.73456446303226
 10
60.56087088637287
 20
28.73528757975964
 10
60.57656319517263
 20
28.73600263006391
 10
60.59226364824097
 20
28.73670996981582
 10
60.60797199082299
 20
28.73740995488878
 10
60.62368796815281
 20
28.73810294115537
 10
60.63941132548279
 20
28.73878928449085
 10
60.65514180805258
 20
28.73946934076593
 10
60.67087916110359
 20
28.740143465855
 10
60.68662312988272
 20
28.74081201562876
 10
60.70237345962414
 20
28.74147534596067
 10
60.71812989557293
 20
28.74213381272602
 10
60.73389218298324
 20
28.74278777179734
 10
60.749660067082
 20
28.74343757904171
 10
60.76543329311244
 20
28.74408359033805
 10
60.78121160633236
 20
28.7447261615589
 10
60.79699475197411
 20
28.74536564857317
 10
60.81278247527372
 20
28.74600240725886
 10
60.82857452147255
 20
28.74663679348396
 10
60.84437063583209
 20
28.74726916312373
 10
60.86017056358286
 20
28.74789987205257
 10
60.87597404997177
 20
28.74852927613938
 10
60.89178084023298
 20
28.74915773126122
 10
60.90759067961335
 20
28.74978559328792
 10
60.92340331335254
 20
28.75041321809203
 10
60.93921848670287
 20
28.75104096154973
 10
60.95503594489128
 20
28.75166917952901
 10
60.97085543317371
 20
28.75229822791061
 10
60.98667669679162
 20
28.75292846255796
 10
61.0024994809828
 20
28.75356023934818
 10
61.01832353098142
 20
28.75419391415835
 10
61.03414859205257
 20
28.7548298428519
 10
61.04997440942316
 20
28.75546838131048
 10
61.06580072833276
 20
28.75610988540302
 10
61.08162729403193
 20
28.75675471100112
 10
61.09745385176211
 20
28.75740321398188
 10
61.113280146752
 20
28.75805575021241
 10
61.12910592427397
 20
28.75871267557158
 10
61.14493092954217
 20
28.75937434592923
 10
61.16075490781259
 20
28.76004111715701
 10
61.17657760432304
 20
28.76071334512835
 10
61.19239876432402
 20
28.76139138571943
 10
61.20821813304065
 20
28.76207559479917
 10
61.22403545574162
 20
28.76276632824282
 10
61.23985047765382
 20
28.76346394192023
 10
61.25566294400414
 20
28.76416879170847
 10
61.27147260006132
 20
28.76488123347826
 10
61.28727919106314
 20
28.76560162309942
 10
61.30308246223284
 20
28.76633031645087
 10
61.31888215884282
 20
28.76706766939969
 10
61.33467802611267
 20
28.76781403782296
 10
61.35046980928199
 20
28.76856977759326
 10
61.36625725361227
 20
28.76933524457944
 10
61.38204010434129
 20
28.77011079465956
 10
61.39781810670139
 20
28.77089678370248
 10
61.41359100594128
 20
28.77169356758349
 10
61.4293585473133
 20
28.77250150217331
 10
61.44512047604258
 20
28.77332094334633
 10
61.46087653737414
 20
28.77415224697688
 10
61.47662647655305
 20
28.77499576893296
 10
61.49237003883172
 20
28.7758518650944
 10
61.50810696944245
 20
28.77672089132738
 10
61.52383701363214
 20
28.77760320350626
 10
61.53955991663314
 20
28.7784991575072
 10
61.55527542370328
 20
28.77940910920187
 10
61.57098328008213
 20
28.78033341446188
 10
61.58668323100211
 20
28.78127242915798
 10
61.60237502171185
 20
28.78222650916814
 10
61.61805839745284
 20
28.78319601035945
 10
61.63373310346287
 20
28.78418128861085
 10
61.64939888500339
 20
28.7851826997894
 10
61.66505548729219
 20
28.78620059977311
 10
61.68070265558345
 20
28.7872353444327
 10
61.69634013512222
 20
28.78828728963981
 10
61.71196767115361
 20
28.7893567912688
 10
61.72758500890267
 20
28.79044420519312
 10
61.74319189363267
 20
28.79154988728259
 10
61.75878807057235
 20
28.7926741934134
 10
61.77437328497217
 20
28.79381747945717
 10
61.78994728207364
 20
28.79498010128282
 10
61.80550980710177
 20
28.79616241476924
 10
61.82106060533261
 20
28.79736477578989
 10
61.83659942198392
 20
28.79858754021187
 10
61.85212600230261
 20
28.79983106391046
 10
61.86764009153193
 20
28.80109570275998
 10
61.88314143492243
 20
28.80238181263212
 10
61.89862977770281
 20
28.8036897494012
 10
61.91410486513269
 20
28.80501986893796
 10
61.92956644243167
 20
28.80637252711494
 10
61.94501425486304
 20
28.80774807980651
 10
61.96044804766096
 20
28.80914688288612
 10
61.97586756606324
 20
28.81056929222541
 10
61.99127255532221
 20
28.81201566369509
 10
62.00666276067385
 20
28.81348635317408
 10
62.02203792736327
 20
28.81498171652856
 10
62.0373978006337
 20
28.81650210963562
 10
62.05274212572295
 20
28.8180478883678
 10
62.06807064788335
 20
28.81961940859492
 10
62.08338311234182
 20
28.82121702619133
 10
62.09867926435254
 20
28.82284109703414
 10
62.11395884915146
 20
28.82449197699042
 10
62.12922161199093
 20
28.82617002193546
 10
62.14446729811243
 20
28.82787558774088
 10
62.15969565274281
 20
28.82960903028106
 10
62.17490642114171
 20
28.83137070542762
 10
62.19009934854148
 20
28.83316096905399
 10
62.20527418019266
 20
28.83498017703368
 10
62.2204306613221
 20
28.83682868523829
 10
62.23556853719127
 20
28.83870684954398
 10
62.25068755304164
 20
28.8406150258179
 10
62.26578745410189
 20
28.84255356993525
 10
62.28086798562253
 20
28.84452283777136
 10
62.29592889284321
 20
28.84652318519693
 10
62.31096992101265
 20
28.84855496808631
 10
62.32599081536136
 20
28.85061854231116
 10
62.3409913211417
 20
28.8527142637422
 10
62.35597118360238
 20
28.8548424882556
 10
62.37093014797392
 20
28.857003571723
 10
62.38586795949231
 20
28.85919787001603
 10
62.40078436342265
 20
28.86142573900997
 10
62.41567910499179
 20
28.86368753457827
 10
62.43055192944122
 20
28.86598361258984
 10
62.44540258202324
 20
28.86831432892086
 10
62.46023080797385
 20
28.87068003944205
 10
62.4750363525327
 20
28.87308110002958
 10
62.48981896094119
 20
28.8755178665533
 10
62.50457837845353
 20
28.87799069488301
 10
62.51931435030383
 20
28.8804999408976
 10
62.53402662174085
 20
28.88304596047055
 10
62.54871493800237
 20
28.88562910946892
 10
62.56337904432257
 20
28.88824974376984
 10
62.57801868595198
 20
28.8909082192431
 10
62.5926336081411
 20
28.89360489176397
 10
62.60722355612415
 20
28.89634011720409
 10
62.62178827514254
 20
28.89911425143873
 10
62.63632751044133
 20
28.90192765033679
 10
62.65084100725289
 20
28.90478066977447
 10
62.66532851084229
 20
28.90767366562248
 10
62.67978976643281
 20
28.9106069937552
 10
62.69422451927312
 20
28.91358101004425
 10
62.70863251460287
 20
28.91659607036308
 10
62.72301349767257
 20
28.91965253058332
 10
62.73736721371097
 20
28.92275074658119
 10
62.75169340797218
 20
28.92589107422645
 10
62.76599182570318
 20
28.92907386939258
 10
62.78026221213258
 20
28.93229948795214
 10
62.79450431251097
 20
28.93556828577948
 10
62.80871787207253
 20
28.9388806187453
 10
62.82290263607318
 20
28.94223684272401
 10
62.83705834974171
 20
28.94563731358902
 10
62.85118475833225
 20
28.949082387212
 10
62.86528160708257
 20
28.95257241946728
 10
62.87934864123235
 20
28.95610776622378
 10
62.89338560603209
 20
28.95968878335679
 10
62.90739224671233
 20
28.96331582674246
 10
62.9213683085236
 20
28.96698925224973
 10
62.93531353670187
 20
28.97070941575112
 10
62.94922767650314
 20
28.9744766731219
 10
62.96311047316157
 20
28.97829138023371
 10
62.97696167191134
 20
28.9821538929591
 10
62.99078101801207
 20
28.98606456717061
 10
63.00456825669062
 20
28.9900237587426
 10
63.01832313320301
 20
28.99403182354672
 10
63.0320453927834
 20
28.9980891174564
 10
63.04573478067323
 20
29.0021959963451
 10
63.05939104211211
 20
29.00635281608265
 10
63.0730139223524
 20
29.01055993254795
 10
63.08660316663189
 20
29.01481770160444
 10
63.10015852020296
 20
29.01912647913558
 10
63.11367972828158
 20
29.02348662100576
 10
63.12716653614188
 20
29.02789848309203
 10
63.14061868900353
 20
29.03236242126876
 10
63.15403593212431
 20
29.03687879140488
 10
63.16741801073296
 20
29.04144794937382
 10
63.18076467007267
 20
29.04607025104996
 10
63.19407565540314
 20
29.05074605230764
 10
63.20735071195304
 20
29.05547570901489
 10
63.22058958496199
 20
29.06025957704878
 10
63.23379201968236
 20
29.06509801228094
 10
63.24695776135377
 20
29.06999137058482
 10
63.26008655521218
 20
29.07494000783117
 10
63.27317814651178
 20
29.07994427989432
 10
63.28623228048309
 20
29.08500454264958
 10
63.29924870238209
 20
29.09012115196309
 10
63.31222715743206
 20
29.0952944637147
 10
63.3251673908926
 20
29.10052483377239
 10
63.33806914799061
 20
29.10581261801416
 10
63.35093217399299
 20
29.11115817230711
 10
63.36375621412297
 20
29.11656185252832
 10
63.37654101362385
 20
29.12202401454578
 10
63.38928631774251
 20
29.12754501424114
 10
63.4019918717222
 20
29.13312520747695
 10
63.41465742080253
 20
29.1387649501321
 10
63.42728271022315
 20
29.14446459808003
 10
63.43986748524184
 20
29.1502245071906
 10
63.45241149108186
 20
29.15604503333634
 10
63.46491447299195
 20
29.16192653239249
 10
63.47737617622261
 20
29.16786936023254
 10
63.48979634600254
 20
29.17387387272447
 10
63.5021747275914
 20
29.17994042574719
 10
63.51451106622334
 20
29.18606937517143
 10
63.52680510713253
 20
29.19226107686791
 10
63.53905659557312
 20
29.19851588671189
 10
63.55126527677384
 20
29.20483416057413
 10
63.56343089599249
 20
29.21121625432897
 10
63.57555319847414
 20
29.21766252384895
 10
63.58763192944206
 20
29.22417332500845
 10
63.59966683415223
 20
29.23074901367817
 10
63.61165765784243
 20
29.23738994573067
 10
63.62360414576325
 20
29.24409647704033
 10
63.63550604315242
 20
29.25086896347966
 10
63.64736309524232
 20
29.2577077609194
 10
63.65917504729259
 20
29.26461322523755
 10
63.67094164453192
 20
29.27158571230119
 10
63.68266263221267
 20
29.27862557798653
 10
63.69433775556171
 20
29.28573317816517
 10
63.70596675984234
 20
29.29290886871239
 10
63.71754939029234
 20
29.30015300549712
 10
63.72908539213131
 20
29.30746594439369
 10
63.74057451064071
 20
29.3148480412774
 10
63.75201649103292
 20
29.32229965201713
 10
63.76341107855296
 20
29.32982113248817
 10
63.77475801846229
 20
29.33741283856397
 10
63.78605705598238
 20
29.34507512611617
 10
63.79730793637282
 20
29.35280835101548
 10
63.80851040486231
 20
29.36061286913808
 10
63.81966420670142
 20
29.36848903635655
 10
63.83076908712428
 20
29.3764372085443
 10
63.84182479138326
 20
29.38445774157026
 10
63.85283106471252
 20
29.3925509913115
 10
63.86378765236258
 20
29.40071731363877
 10
63.8746942995731
 20
29.4089570644237
 10
63.88555075159274
 20
29.41727059954519
 10
63.89635675364115
 20
29.4256582748676
 10
63.9071120509816
 20
29.43412044627075
 10
63.91781638886095
 20
29.44265746962264
 10
63.92846951250248
 20
29.45126970079945
 10
63.93907116716218
 20
29.45995749567191
 10
63.9496210980833
 20
29.46872121011529
 10
63.96011905049089
 20
29.47756119999757
 10
63.9705647696519
 20
29.48647782119769
 10
63.98095800080227
 20
29.49547142958545
 10
63.99129848917255
 20
29.50454238103429
 10
64.00158598000236
 20
29.51369103141496
 10
64.01182021855311
 20
29.52291773660181
 10
64.02200095006083
 20
29.5322228524701
 10
64.03212791976328
 20
29.54160673488877
 10
64.04220087291285
 20
29.55106973973396
 10
64.0522195547328
 20
29.56061222287644
 10
64.06218371048272
 20
29.57023454018962
 10
64.07209308539131
 20
29.57993704754699
 10
64.08194742472369
 20
29.58972010081925
 10
64.0917464737031
 20
29.59958405588258
 10
64.10148997757278
 20
29.60952926860773
 10
64.11117768158328
 20
29.61955609486722
 10
64.12080933097421
 20
29.6296648905336
 10
64.13038467098158
 20
29.63985601148214
 10
64.13990344685226
 20
29.6501298135845
 10
64.14936540384224
 20
29.66048665271228
 10
64.15877028717296
 20
29.67092688473985
 10
64.16811784209129
 20
29.68145086553886
 10
64.17740781385328
 20
29.69205895098456
 10
64.18663994769303
 20
29.70275149694589
 10
64.19581398884293
 20
29.71352885929991
 10
64.20492968256076
 20
29.72439139391553
 10
64.21398677408252
 20
29.73533945666986
 10
64.22298500865327
 20
29.74637340343178
 10
64.23192413151264
 20
29.75749359007568
 10
64.24080388790208
 20
29.76870037247499
 10
64.24414833841183
 20
29.77298277108184
  0
DIMENSION
  5
9F
330
2
100
AcDbEntity
  8
0
100
AcDbDimension
  2
*D21
 10
33.38168709614183
 20
140.5890005060209
 30
0.0
 11
46.98682528480071
 21
18.60075214574515
 31
0.0
 70
    34
  1
<>
  3
1_1_2
100
AcDb2LineAngularDimension
 13
33.38168709614183
 23
86.95885574226847
 33
0.0
 14
52.02751507382345
 24
41.95885574226848
 34
0.0
 15
33.38790476703251
 25
33.32871097851603
 35
0.0
 16
42.8458282632156
 26
15.13094442793628
 36
0.0
1001
ACAD
1000
DSTYLE
1002
{
1070
   271
1070
     0
1070
   271
1070
     1
1070
   271
1070
     1
1070
   271
1070
     1
1070
   271
1070
     1
1070
   271
1070
     1
1002
}
  0
ARC
  5
AF
330
2
100
AcDbEntity
  8
0
 48
0.6
100
AcDbCircle
 10
408.1048207265434
 20
107.7820686911533
 30
0.0
 40
237.7113542586542
100
AcDbArc
 50
196.9742718171098
 51
202.4305230078784
  0
ARC
  5
B0
330
2
100
AcDbEntity
  8
0
 48
0.6
100
AcDbCircle
 10
441.711123165573
 20
121.3228770626152
 30
0.0
 40
267.0493380025571
100
AcDbArc
 50
199.2759566546653
 51
202.9688179525496
  0
LEADER
  5
B1
330
2
100
AcDbEntity
  8
0
100
AcDbLeader
  3
1_1_2
 74
     0
 40
13.0
 41
28.50892857142855
 76
     2
 10
182.3400835615119
 20
32.57183618306317
 30
0.0
 10
172.2390673921818
 20
18.35650590337353
 30
0.0
1001
ACAD
1000
DSTYLE
1002
{
1070
     5
1000

1070
   342
1005
0
1002
}
  0
LINE
  5
B2
330
2
100
AcDbEntity
  8
0
 62
   123
 48
0.6
100
AcDbLine
 10
172.2390673921818
 20
18.35650590337353
 30
0.0
 11
112.9849095648131
 21
18.35650590337353
 31
0.0
  0
TEXT
  5
B3
330
2
100
AcDbEntity
  8
DIM
100
AcDbText
 10
114.3549296158034
 20
20.35650590337354
 30
0.0
 40
3.5
  1
 LEAD WIRE 300mm
100
AcDbText
  0
LWPOLYLINE
  5
B5
330
2
100
AcDbEntity
  8
0
100
AcDbPolyline
 90
      467
 70
     0
 43
0.0
 10
188.3780191292291
 20
17.08024619955796
 10
188.380217411298
 20
17.08132128533798
 10
188.4004616615484
 20
17.09112338598043
 10
188.4206811269278
 20
17.10081528985102
 10
188.4408758505497
 20
17.11039743916791
 10
188.4610458755169
 20
17.11987027613742
 10
188.4811912449577
 20
17.12923424297133
 10
188.5013120019676
 20
17.13848978188144
 10
188.5214081896675
 20
17.14763733507953
 10
188.5414798511583
 20
17.1566773447783
 10
188.5615270295684
 20
17.16561025318497
 10
188.5815497679878
 20
17.17443650251226
 10
188.6015481095483
 20
17.18315653497376
 10
188.621522097349
 20
17.19177079277761
 10
188.6414717745074
 20
17.20027971813653
 10
188.6613971841281
 20
17.20868375326046
 10
188.6812983693172
 20
17.21698334036301
 10
188.7011753732086
 20
17.22517892165325
 10
188.7210282388887
 20
17.23327093934386
 10
188.7408570094876
 20
17.24125983564209
 10
188.7606617281082
 20
17.24914605276518
 10
188.7804424378582
 20
17.25693003292036
 10
188.8001991818502
 20
17.26461221831943
 10
188.8199320031991
 20
17.27219305117324
 10
188.839640945017
 20
17.27967297369633
 10
188.8593260504085
 20
17.28705242809502
 10
188.8789873624982
 20
17.29433185658382
 10
188.8986249243891
 20
17.30151170137088
 10
188.9182387791779
 20
17.30859240466981
 10
188.9378289700081
 20
17.31557440869147
 10
188.9573955399582
 20
17.32245815564948
 10
188.9769385321679
 20
17.32924408775017
 10
188.9964579897178
 20
17.33593264720713
 10
189.0159539557489
 20
17.34252427623215
 10
189.0354264733588
 20
17.3490194170343
 10
189.0548755856571
 20
17.35541851182626
 10
189.0743013357578
 20
17.36172200282163
 10
189.0937037667781
 20
17.36793033222676
 10
189.1130829218173
 20
17.37404394225342
 10
189.1324388439871
 20
17.38006327511703
 10
189.1517715764084
 20
17.38598877302667
 10
189.1710811621988
 20
17.39182087819227
 10
189.1903676444482
 20
17.39756003282474
 10
189.2096310662773
 20
17.40320667913858
 10
189.2288714708074
 20
17.40876125934192
 10
189.2480889011286
 20
17.41422421564749
 10
189.2672834003779
 20
17.41959599026523
 10
189.2864550116492
 20
17.42487702540512
 10
189.3056037780579
 20
17.43006776328167
 10
189.3247297427179
 20
17.43516864610484
 10
189.343832948728
 20
17.44018011608551
 10
189.3629134392167
 20
17.44510261543456
 10
189.3819712572977
 20
17.44993658636468
 10
189.401006446059
 20
17.45468247108493
 10
189.4200190486272
 20
17.45934071180528
 10
189.4390091081177
 20
17.46391175074205
 10
189.4579766676279
 20
17.46839603010249
 10
189.4769217702878
 20
17.47279399209839
 10
189.4958444591875
 20
17.47710607894424
 10
189.514744777459
 20
17.48133273284457
 10
189.5336227681973
 20
17.48547439601662
 10
189.5524784745186
 20
17.48953151066763
 10
189.5713119395377
 20
17.49350451901119
 10
189.590123206367
 20
17.4973938632591
 10
189.6089123181073
 20
17.50119998562041
 10
189.6276793178777
 20
17.504923328306
 10
189.6464242487992
 20
17.50856433352765
 10
189.6651471539581
 20
17.51212344349898
 10
189.6838480764882
 20
17.5156011004272
 10
189.7025270594868
 20
17.51899774652684
 10
189.7211841460785
 20
17.52231382400879
 10
189.7398193793679
 20
17.52554977508299
 10
189.7584328024578
 20
17.52870604195669
 10
189.7770244584672
 20
17.53178306684986
 10
189.7955943905173
 20
17.53478129196793
 10
189.8141426417069
 20
17.53770115952266
 10
189.8326692551373
 20
17.54054311172586
 10
189.8511742739492
 20
17.54330759079113
 10
189.8696577412274
 20
17.54599503892478
 10
189.8881197000983
 20
17.54860589834044
 10
189.9065601936592
 20
17.55114061125169
 10
189.9249792650381
 20
17.55359961986306
 10
189.9433769573288
 20
17.55598336639451
 10
189.9617533136579
 20
17.55829229304964
 10
189.9801083771281
 20
17.56052684204206
 10
189.9984421908584
 20
17.56268745558628
 10
190.0167547979499
 20
17.56477457588863
 10
190.0350462415181
 20
17.56678864516453
 10
190.0533165646784
 20
17.56873010562122
 10
190.0715658105392
 20
17.57059939947413
 10
190.0897940222085
 20
17.57239696893231
 10
190.1080012428074
 20
17.57412325620481
 10
190.1261875154278
 20
17.57577870350525
 10
190.1443528831978
 20
17.57736375304358
 10
190.1624973892277
 20
17.5788788470316
 10
190.1806210766181
 20
17.58032442768291
 10
190.1987239884993
 20
17.58170093720565
 10
190.2168061679576
 20
17.58300881780979
 10
190.2348676581287
 20
17.58424851171167
 10
190.2529085021079
 20
17.5854204611158
 10
190.2709287430071
 20
17.58652510824214
 10
190.2889284239492
 20
17.58756289529339
 10
190.3069075880294
 20
17.58853426448223
 10
190.3248662783671
 20
17.5894396580241
 10
190.3428045380779
 20
17.59027951812623
 10
190.3607224102679
 20
17.59105428700223
 10
190.3786199380584
 20
17.59176440686298
 10
190.3964971645373
 20
17.59241031991752
 10
190.4143541328385
 20
17.59299246838037
 10
190.4321908860575
 20
17.59351129445969
 10
190.4500074673297
 20
17.59396724036724
 10
190.4678039197379
 20
17.59436074831666
 10
190.4855802863994
 20
17.59469226051516
 10
190.5033366104389
 20
17.59496221917726
 10
190.5210729349666
 20
17.59517106651384
 10
190.5387893030793
 20
17.59531924473668
 10
190.5564857578984
 20
17.59540719605121
 10
190.5741623425283
 20
17.59543536267466
 10
190.5918191000883
 20
17.595404186817
 10
190.6094560736883
 20
17.5953141106882
 10
190.6270733064384
 20
17.59516557650186
 10
190.6446708414487
 20
17.59495902646614
 10
190.6622487218292
 20
17.59469490279462
 10
190.679806990699
 20
17.59437364769548
 10
190.6973456911591
 20
17.59399570338501
 10
190.7148648663179
 20
17.59356151206958
 10
190.7323645592996
 20
17.59307151596095
 10
190.7498448132073
 20
17.59252615727183
 10
190.7673056711583
 20
17.591925878214
 10
190.7847471762661
 20
17.59127112099742
 10
190.8021693716282
 20
17.59056232783388
 10
190.8195723003582
 20
17.58979994093243
 10
190.8369560055881
 20
17.58898440250669
 10
190.8543205303987
 20
17.58811615476844
 10
190.871665917929
 20
17.58719563992582
 10
190.8889922112676
 20
17.58622330019335
 10
190.9062994535479
 20
17.585199577781
 10
190.9235876878583
 20
17.58412491489781
 10
190.9408569573288
 20
17.58299975375831
 10
190.9581073050585
 20
17.58182453657155
 10
190.9753387741575
 20
17.58059970554933
 10
190.9925514077595
 20
17.57932570290341
 10
191.0097452489382
 20
17.57800297084378
 10
191.0269203408379
 20
17.57663195158312
 10
191.0440767265581
 20
17.5752130873314
 10
191.061214449207
 20
17.5737468202995
 10
191.0783335518999
 20
17.57223359270011
 10
191.0954340777489
 20
17.5706738467432
 10
191.1125160698584
 20
17.56906802463783
 10
191.1295795713495
 20
17.56741656860123
 10
191.1466246253176
 20
17.56571992084246
 10
191.1636512748983
 20
17.56397852356696
 10
191.1806595631778
 20
17.56219281899194
 10
191.1976495332792
 20
17.56036324932648
 10
191.2146212283287
 20
17.55849025678509
 10
191.2315746914091
 20
17.55657428357409
 10
191.2485099656487
 20
17.55461577190436
 10
191.2654270941484
 20
17.55261516399315
 10
191.2823261200383
 20
17.55057290204769
 10
191.2992070864084
 20
17.54848942827794
 10
191.3160700363778
 20
17.54636518489661
 10
191.3329150130586
 20
17.54420061411548
 10
191.3497420595677
 20
17.5419961581436
 10
191.3665512190082
 20
17.53975225919367
 10
191.3833425344974
 20
17.53746935947748
 10
191.400116049138
 20
17.53514790120772
 10
191.4168718060582
 20
17.53278832659072
 10
191.4336098483483
 20
17.53039107784189
 10
191.4503302191288
 20
17.5279565971694
 10
191.4670329615082
 20
17.52548532678685
 10
191.4837181186076
 20
17.52297770890419
 10
191.5003857335296
 20
17.5204341857323
 10
191.5170358493879
 20
17.51785519948481
 10
191.5336685092998
 20
17.51524119237166
 10
191.550283756359
 20
17.51259260660009
 10
191.5668816336883
 20
17.50990988438826
 10
191.5834621844087
 20
17.5071934679425
 10
191.6000254516084
 20
17.50444379947366
 10
191.6165714784174
 20
17.5016613211963
 10
191.6331003079386
 20
17.49884647532036
 10
191.6496119832873
 20
17.49599970405671
 10
191.6661065475773
 20
17.49312144961442
 10
191.6825840439078
 20
17.4902121542089
 10
191.699044515407
 20
17.48727226004649
 10
191.7154880051666
 20
17.48430220934352
 10
191.7319145563169
 20
17.48130244430905
 10
191.7483242119679
 20
17.4782734071494
 10
191.7647170152095
 20
17.47521554008454
 10
191.7810930091791
 20
17.47212928531899
 10
191.7974522369668
 20
17.46901508506727
 10
191.8137947416991
 20
17.46587338153841
 10
191.8301205664784
 20
17.46270461694513
 10
191.8464297544169
 20
17.45950923350011
 10
191.8627223486282
 20
17.45628767341333
 10
191.8789983922297
 20
17.45304037889201
 10
191.8952579283186
 20
17.44976779215249
 10
191.9115010000178
 20
17.44647035540384
 10
191.9277276504391
 20
17.44314851085874
 10
191.9439379226778
 20
17.43980270072444
 10
191.9601318598588
 20
17.43643336721544
 10
191.9763095050994
 20
17.43304095254535
 10
191.9924709014987
 20
17.42962589891869
 10
192.0086160921792
 20
17.42618864855268
 10
192.0247451202386
 20
17.42272964365457
 10
192.0408580287885
 20
17.41924932643797
 10
192.0569548609483
 20
17.41574813911376
 10
192.073035659837
 20
17.41222652389097
 10
192.0891004685482
 20
17.40868492298324
 10
192.1051493302084
 20
17.40512377860233
 10
192.1211822879077
 20
17.40154353295639
 10
192.1371993847797
 20
17.39794462825904
 10
192.1532006639272
 20
17.39432750671932
 10
192.1691861684676
 20
17.39069261055175
 10
192.1851559414981
 20
17.38704038196448
 10
192.201110026138
 20
17.38337126316929
 10
192.2170484654989
 20
17.37968569637979
 10
192.2329713026984
 20
17.37598412380413
 10
192.2488785808373
 20
17.37226698765317
 10
192.2647703430294
 20
17.36853473014054
 10
192.2806466323773
 20
17.364787793478
 10
192.2965074920186
 20
17.36102661987462
 10
192.3123529650376
 20
17.35725165153854
 10
192.3281830945589
 20
17.35346333068884
 10
192.3439979236982
 20
17.34966209953182
 10
192.3597974955492
 20
17.34584840027747
 10
192.3755818532363
 20
17.34202267513939
 10
192.3913510398679
 20
17.33818536632845
 10
192.4071050985576
 20
17.33433691605643
 10
192.4228440724173
 20
17.3304777665333
 10
192.4385680045481
 20
17.32660835996995
 10
192.4542769380778
 20
17.32272913857724
 10
192.4699709160987
 20
17.31884054456969
 10
192.4856499817388
 20
17.31494302015363
 10
192.5013141780991
 20
17.31103700754266
 10
192.5169635482989
 20
17.30712294895039
 10
192.532598135439
 20
17.30320128658314
 10
192.5482179826386
 20
17.29927246265634
 10
192.5638231330076
 20
17.29533691937996
 10
192.5794136296581
 20
17.29139509896123
 10
192.5949895156982
 20
17.28744744361921
 10
192.610550834238
 20
17.28349439555933
 10
192.6260976283984
 20
17.27953639699245
 10
192.6416299412785
 20
17.27557389013401
 10
192.6571478159867
 20
17.27160731719123
 10
192.6726512956584
 20
17.26763712037592
 10
192.6881404233783
 20
17.26366374189984
 10
192.7036152422797
 20
17.25968762397751
 10
192.7190757954495
 20
17.25570920881347
 10
192.7345221260176
 20
17.2517289386231
 10
192.7499542770865
 20
17.24774725561911
 10
192.7653722917794
 20
17.24376460200784
 10
192.7807762131879
 20
17.2397814200047
 10
192.7961660844476
 20
17.23579815181784
 10
192.8115419486376
 20
17.23181523966087
 10
192.8269038489079
 20
17.22783312574557
 10
192.8422518283378
 20
17.22385225228009
 10
192.8575859300481
 20
17.21987306147622
 10
192.872906197158
 20
17.21589599554664
 10
192.8882126727776
 20
17.21192149670224
 10
192.9035054000078
 20
17.20795000715389
 10
192.9187844219677
 20
17.20398196911429
 10
192.9340497817676
 20
17.20001782479158
 10
192.9493015225171
 20
17.19605801639755
 10
192.9645396873285
 20
17.19210298614672
 10
192.9797643193169
 20
17.18815317624541
 10
192.9949754615782
 20
17.18420902890994
 10
193.0101731572476
 20
17.18027098634667
 10
193.0253574494173
 20
17.17633949077009
 10
193.0405283812079
 20
17.17241498439017
 10
193.0556859957278
 20
17.1684979094187
 10
193.0708303360871
 20
17.16458870806565
 10
193.0859614453994
 20
17.16068782254279
 10
193.1010793667783
 20
17.15679569506284
 10
193.1161841433286
 20
17.15291276783301
 10
193.1312758181675
 20
17.14903948306783
 10
193.1463544343997
 20
17.14517628298
 10
193.1614200351387
 20
17.14132360977766
 10
193.1764726634983
 20
17.13748190567258
 10
193.1915123625886
 20
17.13365161287657
 10
193.2065391755287
 20
17.12983317359777
 10
193.2215531454085
 20
17.12602703005251
 10
193.2365543153673
 20
17.12223362444802
 10
193.2515427284989
 20
17.11845339899884
 10
193.2665184279077
 20
17.11468679591308
 10
193.2814814567291
 20
17.11093425740347
 10
193.2964318580498
 20
17.10719622568177
 10
193.3113696749979
 20
17.10347314295796
 10
193.3262949506779
 20
17.09976545144019
 10
193.3412077281982
 20
17.09607359334569
 10
193.356108050667
 20
17.09239801088353
 10
193.370995961216
 20
17.08873914626366
 10
193.3858715029374
 20
17.0850974416997
 10
193.4007347189482
 20
17.08147333939797
 10
193.4155856523584
 20
17.0778672815739
 10
193.4304243462784
 20
17.07427971043836
 10
193.4452508438162
 20
17.07071106820041
 10
193.4600651881002
 20
17.06716179707274
 10
193.4748674222182
 20
17.06363233926805
 10
193.4896575892991
 20
17.06012313699449
 10
193.5044357324486
 20
17.05663463246475
 10
193.5192018947791
 20
17.0531672678897
 10
193.5339561193877
 20
17.04972148548114
 10
193.5486984494082
 20
17.04629772744993
 10
193.5634289279378
 20
17.04289643600606
 10
193.5781475980993
 20
17.0395180533622
 10
193.5928545029883
 20
17.03616302172742
 10
193.6075496857293
 20
17.03283178331713
 10
193.6222331894178
 20
17.02952478033949
 10
193.6369050571876
 20
17.02624245500629
 10
193.6515653321285
 20
17.02298524952749
 10
193.666214057358
 20
17.01975360611851
 10
193.680851275999
 20
17.01654796698477
 10
193.6954770311577
 20
17.01336877433988
 10
193.7100913659369
 20
17.01021647039562
 10
193.7246943234486
 20
17.00709149736377
 10
193.7392859468173
 20
17.0039942974534
 10
193.7538662791385
 20
17.00092531287902
 10
193.7684353635368
 20
16.99788498584877
 10
193.7829932431077
 20
16.99487375857444
 10
193.7975399609796
 20
16.99189207326691
 10
193.8120755602587
 20
16.98894037213887
 10
193.8266000840494
 20
16.98601909740029
 10
193.8411135754677
 20
16.98312869126112
 10
193.8556160776179
 20
16.98026959593681
 10
193.8701076336283
 20
16.97744225363459
 10
193.8845882865889
 20
16.97464710656714
 10
193.899058079628
 20
16.97188459694444
 10
193.9135170558484
 20
16.96915516698011
 10
193.9279652583673
 20
16.96645925888407
 10
193.9424027302875
 20
16.96379731486723
 10
193.9568295147283
 20
16.96116977713865
 10
193.9712456547977
 20
16.95857708791555
 10
193.9856511936077
 20
16.95601968940337
 10
194.0000461742684
 20
16.9534980238148
 10
194.0144306398879
 20
16.95101253336161
 10
194.0288046335872
 20
16.94856366025652
 10
194.0431681984673
 20
16.94615184670675
 10
194.0575213776383
 20
16.94377753492682
 10
194.0718642142283
 20
16.9414411671276
 10
194.0861967513274
 20
16.93914318551998
 10
194.1005190320584
 20
16.936884032313
 10
194.1148310995368
 20
16.93466414972027
 10
194.1291329968582
 20
16.93248397995358
 10
194.1434247671486
 20
16.93034396522108
 10
194.1577064535186
 20
16.92824454773727
 10
194.1719780990671
 20
16.92618616971123
 10
194.1862397469185
 20
16.92416927335381
 10
194.2004914401777
 20
16.92219430087772
 10
194.2147332219583
 20
16.92026169449383
 10
194.2289651353667
 20
16.9183718964112
 10
194.2431872235293
 20
16.91652534884616
 10
194.2573995295288
 20
16.91472249400414
 10
194.271602096499
 20
16.91296377409964
 10
194.285794967559
 20
16.91124963134535
 10
194.2999781857879
 20
16.90958050794671
 10
194.3141517943286
 20
16.90795684611822
 10
194.3283158362783
 20
16.90637908807349
 10
194.3424703547489
 20
16.90484767601975
 10
194.3566153928486
 20
16.90336305217153
 10
194.3707509936876
 20
16.90192565873513
 10
194.3848772003885
 20
16.90053593792782
 10
194.3989940560577
 20
16.89919433195774
 10
194.4131016038092
 20
16.89790128303485
 10
194.4271998867489
 20
16.89665723337185
 10
194.4412889479782
 20
16.89546262518234
 10
194.4553688306287
 20
16.89431790067266
 10
194.4694395777997
 20
16.89322350205731
 10
194.4835012326084
 20
16.89217987154353
 10
194.4975538381577
 20
16.89118745134948
 10
194.5115974375667
 20
16.89024668368057
 10
194.525632073949
 20
16.88935801074859
 10
194.5396577903984
 20
16.88852187476715
 10
194.5536746300487
 20
16.88773871794711
 10
194.5676826359986
 20
16.88700898249663
 10
194.5816818513585
 20
16.88633311063114
 10
194.5956723192494
 20
16.88571154455968
 10
194.6096540827775
 20
16.88514472649222
 10
194.6236271850493
 20
16.88463309864056
 10
194.6375916691677
 20
16.88417710321647
 10
194.6515475782789
 20
16.88377718243174
 10
194.6654949554568
 20
16.88343377849724
 10
194.6794338438277
 20
16.88314733362477
 10
194.6933642865088
 20
16.88291829002338
 10
194.7072863265994
 20
16.88274708990758
 10
194.7212000072077
 20
16.88263417548279
 10
194.7351053714674
 20
16.88257998896716
 10
194.7490024624667
 20
16.88258497256703
 10
194.7628913233375
 20
16.88264956849508
 10
194.7767719971681
 20
16.88277421896492
 10
194.7906445270864
 20
16.88295936618288
 10
194.8045089561992
 20
16.88320545236439
 10
194.8183653276164
 20
16.8835129197185
 10
194.8322136844481
 20
16.88388221045426
 10
194.8460540698079
 20
16.8843137667871
 10
194.8598865268077
 20
16.88480803093062
 10
194.8737110985575
 20
16.88536544508662
 10
194.8875278281676
 20
16.88598645147322
 10
194.9013367587496
 20
16.88667149230133
 10
194.9151379334171
 20
16.88742100978089
 10
194.9289313952786
 20
16.88823544611915
 10
194.9427171874495
 20
16.88911524353517
 10
194.956495353038
 20
16.89006084423619
 10
194.9702659351578
 20
16.89107269042944
 10
194.9840289769081
 20
16.89215122433398
 10
194.9977845214171
 20
16.89329688815524
 10
195.0115326117876
 20
16.89451012410773
 10
195.0252732911367
 20
16.8957913743996
 10
195.0390066025675
 20
16.89714108124445
 10
195.0527325891989
 20
16.89855968685407
 10
195.0664512941285
 20
16.90004763343569
 10
195.0801627604878
 20
16.90160536320291
 10
195.0938670313671
 20
16.90323331836845
 10
195.1075641498983
 20
16.90493194114043
 10
195.1212541591786
 20
16.90670167373338
 10
195.1349371023289
 20
16.90854295835544
 10
195.1486130224484
 20
16.9104562372193
 10
195.1622819626582
 20
16.91244195253585
 10
195.1759439660591
 20
16.91450054651778
 10
195.1895990757794
 20
16.91663246137323
 10
195.2032473349163
 20
16.91883813931491
 10
195.2168887865782
 20
16.9211180225555
 10
195.2305234738988
 20
16.92347255330315
 10
195.2441514399588
 20
16.92590217377329
 10
195.2577727278885
 20
16.92840732617316
 10
195.2713873808089
 20
16.93098845271634
 10
195.2849954417988
 20
16.93364599560919
 10
195.2985969539995
 20
16.93638039707258
 10
195.3121919605083
 20
16.93919209930646
 10
195.3257805044387
 20
16.94208154453173
 10
195.3393626289081
 20
16.94504917495106
 10
195.3529383770174
 20
16.94809543278353
 10
195.3665077918786
 20
16.95122076023455
 10
195.3800709166072
 20
16.95442559951681
 10
195.3936277943167
 20
16.95771039284483
 10
195.4071784681282
 20
16.96107558242494
 10
195.4207229811283
 20
16.96452161047165
 10
195.4342613764484
 20
16.96804891919219
 10
195.4477936971789
 20
16.97165795080383
 10
195.4613199864589
 20
16.97534914751196
 10
195.4748402873783
 20
16.97912295153201
 10
195.4883546430583
 20
16.98297980507215
 10
195.5018630965996
 20
16.98692015034595
 10
195.515365691127
 20
16.99094442956158
 10
195.5288624697487
 20
16.99505308493445
 10
195.5423534755673
 20
16.99924655867363
 10
195.5558387517076
 20
17.00352529298816
 10
195.5693183412669
 20
17.00788973009166
 10
195.5827922873586
 20
17.01234031219593
 10
195.5962606331078
 20
17.01687748150999
 10
195.6097234216077
 20
17.02150168024473
 10
195.6231806959795
 20
17.02621335061377
 10
195.6366324993387
 20
17.03101293482797
 10
195.6500788747882
 20
17.0359008750982
 10
195.6635198654376
 20
17.04087761363536
 10
195.6769555144083
 20
17.04594359264939
 10
195.6903858647993
 20
17.051099254353
 10
195.703810959737
 20
17.05634504095707
 10
195.7172308423188
 20
17.06168139467155
 10
195.7306455556581
 20
17.06710875771097
 10
195.7440551428781
 20
17.07262757228164
 10
195.7574596470687
 20
17.07823828059991
 10
195.7708591113669
 20
17.08394132487484
 10
195.7842535788578
 20
17.08973714731456
 10
195.7976430926783
 20
17.0956261901336
 10
195.8110276959187
 20
17.10160889554373
 10
195.8244074316999
 20
17.10768570575311
 10
195.8341604916886
 20
17.11218589385117
  0
ARC
  5
B6
330
2
100
AcDbEntity
  8
0
100
AcDbCircle
 10
305.3097063649038
 20
43.95885574226759
 30
0.0
 40
3.0
100
AcDbArc
 50
90.00000000000651
 51
180.0
  0
ARC
  5
B7
330
2
100
AcDbEntity
  8
0
100
AcDbCircle
 10
299.3097063648911
 20
43.35853153775133
 30
0.0
 40
3.0
100
AcDbArc
 50
270.0000000000065
 51
0.0
  0
LINE
  5
B8
330
2
100
AcDbEntity
  8
0
100
AcDbLine
 10
353.8856224483243
 20
313.5553627849803
 30
0.0
 11
292.4756224483226
 21
313.5553627849803
 31
0.0
  0
LINE
  5
B9
330
2
100
AcDbEntity
  8
0
100
AcDbLine
 10
353.8856224483243
 20
223.5553627849804
 30
0.0
 11
278.9464359685315
 21
223.5553627849804
 31
0.0
  0
LINE
  5
BA
330
2
100
AcDbEntity
  8
CEN
100
AcDbLine
 10
106.7284731393919
 20
268.5553627849803
 30
0.0
 11
365.409674120172
 21
268.5553627849803
 31
0.0
  0
LINE
  5
BD
330
2
100
AcDbEntity
  8
0
 48
0.6
100
AcDbLine
 10
304.2443900724538
 20
223.5553627849804
 30
0.0
 11
295.2443900724538
 21
223.5553627849804
 31
0.0
  0
LINE
  5
BE
330
2
100
AcDbEntity
  8
0
100
AcDbLine
 10
326.3386979389523
 20
131.9588557422685
 30
0.0
 11
178.8479754482632
 21
131.9588557422685
 31
0.0
  0
LINE
  5
BF
330
2
100
AcDbEntity
  8
CL
 48
0.6
100
AcDbLine
 10
398.7035704431328
 20
86.95885574226847
 30
0.0
 11
127.3979788989235
 21
86.95885574226847
 31
0.0
  0
LINE
  5
C2
330
2
100
AcDbEntity
  8
0
100
AcDbLine
 10
189.218089389942
 20
35.35853153775315
 30
0.0
 11
302.8095114591615
 21
35.35853153775315
 31
0.0
  0
DIMENSION
  5
C3
330
2
100
AcDbEntity
  8
0
100
AcDbDimension
  2
*D23
 10
357.3856224483114
 20
351.4234315150233
 30
0.0
 11
269.3848999576221
 21
351.4234315150233
 31
0.0
 70
   160
  3
1_1_2
100
AcDbAlignedDimension
 13
141.384899957622
 23
314.0553627849793
 33
0.0
 14
357.3856224483114
 24
310.0553627849803
 34
0.0
100
AcDbRotatedDimension
  0
DIMENSION
  5
D0
330
2
100
AcDbEntity
  8
0
100
AcDbDimension
  2
*D22
 10
388.2486979389413
 20
166.4360194500113
 30
0.0
 11
275.2479754482519
 21
166.4360194500113
 31
0.0
 70
   160
  3
1_1_2
100
AcDbAlignedDimension
 13
172.2479754482518
 23
132.4588557422684
 33
0.0
 14
388.2486979389413
 24
128.4588557422684
 34
0.0
100
AcDbRotatedDimension
  0
LEADER
  5
DD
330
2
100
AcDbEntity
  8
0
100
AcDbLeader
  3
1_1_2
 74
     0
 40
13.0
 41
28.50892857142855
 76
     2
 10
151.477008070873
 20
214.168343225774
 30
0.0
 10
141.3759919015536
 20
199.9530129460854
 30
0.0
1001
ACAD
1000
DSTYLE
1002
{
1070
     5
1000

1070
   342
1005
0
1002
}
  0
DIMENSION
  5
DE
330
2
100
AcDbEntity
  8
0
100
AcDbDimension
  2
*D24
 10
31.35810231810319
 20
322.1855075487328
 30
0.0
 11
44.96324050675759
 21
200.1972591884618
 31
0.0
 70
    34
  1
<>
  3
1_1_2
100
AcDb2LineAngularDimension
 13
31.35810231810319
 23
268.5553627849803
 33
0.0
 14
50.00393029578117
 24
223.5553627849804
 34
0.0
 15
31.36431998899205
 25
214.9252180212279
 35
0.0
 16
40.82224348517319
 26
196.7274514706533
 36
0.0
1001
ACAD
1000
DSTYLE
1002
{
1070
   271
1070
     0
1070
   271
1070
     1
1070
   271
1070
     1
1070
   271
1070
     1
1070
   271
1070
     1
1070
   271
1070
     1
1002
}
  0
TEXT
  5
ED
330
2
100
AcDbEntity
  8
DIM
100
AcDbText
 10
83.49185412517362
 20
201.9530129460854
 30
0.0
 40
3.5
  1
 LEAD WIRE 300mm
100
AcDbText
  0
LWPOLYLINE
  5
EE
330
2
100
AcDbEntity
  8
0
 62
     3
100
AcDbPolyline
 90
        4
 70
     1
 43
0.0
 10
27.66328808821162
 20
153.1752349200114
 10
30.30358507424171
 20
153.1752349200114
 10
30.30358507424171
 20
156.2440517377135
 10
27.66328808821162
 20
156.2440517377135
  0
MTEXT
  5
EF
102
{ACAD_REACTORS
330
17D
102
}
330
2
100
AcDbEntity
  8
0
 62
     3
100
AcDbMText
 10
60.48181078995367
 20
144.4308580678534
 30
0.0
 40
3.5
 41
0.0
 71
     9
 72
     1
  1
4-%%C6.5 hole
1001
ACAD
1000
MTEXTBEGIN
1070
    73
1070
     1
1070
    44
1040
1.0
1070
    74
1070
     0
1000
MTEXTEND
1000
MTEXTBEGIN
1070
    73
1070
     1
1070
    44
1040
1.0
1070
    74
1070
     0
1000
MTEXTEND
  0
DIMENSION
  5
F0
102
{ACAD_XDICTIONARY
360
F1
102
}
102
{ACAD_REACTORS
330
F2
102
}
330
2
100
AcDbEntity
  8
0
100
AcDbDimension
  2
*D33
 10
122.7794945675414
 20
91.95885574226847
 30
0.0
 11
122.7794945675414
 21
86.4588557422685
 31
0.0
 70
   160
  1
<>
  3
1_1_2
100
AcDbAlignedDimension
 13
135.2479754482519
 23
80.9588557422685
 33
0.0
 14
135.2479754482519
 24
91.95885574226847
 34
0.0
 50
90.0
100
AcDbRotatedDimension
  0
DIMENSION
  5
FF
102
{ACAD_XDICTIONARY
360
100
102
}
102
{ACAD_REACTORS
330
101
102
}
330
2
100
AcDbEntity
  8
0
100
AcDbDimension
  2
*D32
 10
111.9110136868421
 20
92.95885574226852
 30
0.0
 11
111.9110136868421
 21
86.95885574226853
 31
0.0
 70
   160
  1
\A1;{\f??|b0|i0|c0|p49;%%C}12{\f??|b0|i0|c0|p49;\H0.7x;\S+0^ -0.018;\H1.429x;(h}7{\f??|b0|i0|c0|p49;)}
  3
1_1_2
100
AcDbAlignedDimension
 13
135.2479754482519
 23
80.9588557422685
 33
0.0
 14
165.2479754482519
 24
92.95885574226849
 34
0.0
 50
90.0
100
AcDbRotatedDimension
  0
DIMENSION
  5
10E
102
{ACAD_XDICTIONARY
360
10F
102
}
102
{ACAD_REACTORS
330
110
102
}
330
2
100
AcDbEntity
  8
0
100
AcDbDimension
  2
*D31
 10
99.43189361217266
 20
45.45885574226761
 30
0.0
 11
99.43189361217264
 21
88.32381237501975
 31
0.0
 70
   160
  1
\A1;{\f??|b0|i0|c0|p49;%%C}<>{\f??|b0|i0|c0|p49;\H0.7x;\S+0^ -0.035;\H1.429x;(h}7{\f??|b0|i0|c0|p49;)}
  3
1_1_2
100
AcDbAlignedDimension
 13
170.2479754482519
 23
128.4588557422684
 33
0.0
 14
170.2479754482519
 24
45.45885574226757
 34
0.0
 50
90.0
100
AcDbRotatedDimension
  0
CIRCLE
  5
11D
330
2
100
AcDbEntity
  8
0
 48
0.6
100
AcDbCircle
 10
33.38790476703251
 20
86.95885574226847
 30
0.0
 40
20.0
  0
ARC
  5
11E
330
2
100
AcDbEntity
  8
0
 48
0.6
100
AcDbCircle
 10
33.31244045284256
 20
86.95885574226847
 30
0.0
 40
33.74764799999999
100
AcDbArc
 50
342.2801918472013
 51
17.71980815279839
  0
CIRCLE
  5
11F
330
2
100
AcDbEntity
  8
0
 48
0.6
100
AcDbCircle
 10
33.38790476703251
 20
86.95885574226847
 30
0.0
 40
6.0
  0
ARC
  5
120
330
2
100
AcDbEntity
  8
0
 48
0.6
100
AcDbCircle
 10
33.31244045284256
 20
86.95885574226847
 30
0.0
 40
33.74764799999999
100
AcDbArc
 50
162.2801918472015
 51
197.7198081527984
  0
ARC
  5
121
330
2
100
AcDbEntity
  8
0
 48
0.6
100
AcDbCircle
 10
68.38138795613303
 20
75.7535667022039
 30
0.0
 40
3.067967999999998
100
AcDbArc
 50
162.2801918472015
 51
218.0513255193776
  0
ARC
  5
122
330
2
100
AcDbEntity
  8
0
 48
0.6
100
AcDbCircle
 10
-1.756507050436994
 20
75.7535667022039
 30
0.0
 40
3.067967999999998
100
AcDbArc
 50
321.9486744806221
 51
17.71980815279839
  0
ARC
  5
123
330
2
100
AcDbEntity
  8
0
 48
0.6
100
AcDbCircle
 10
63.54959036892251
 20
71.97157745416554
 30
0.0
 40
3.067967999999998
100
AcDbArc
 50
333.6343274967831
 51
38.05132551937779
  0
ARC
  5
124
330
2
100
AcDbEntity
  8
0
 48
0.6
100
AcDbCircle
 10
3.075290536782631
 20
71.97157745416554
 30
0.0
 40
3.067967999999998
100
AcDbArc
 50
141.9486744806222
 51
206.3656725032168
  0
CIRCLE
  5
125
330
2
100
AcDbEntity
  8
0
100
AcDbCircle
 10
70.15745738873191
 20
123.7284083639679
 30
0.0
 40
3.25
  0
LINE
  5
126
330
2
100
AcDbEntity
  8
CL
 48
0.6
100
AcDbLine
 10
66.44514678750238
 20
120.0160977627392
 30
0.0
 11
73.86976798996148
 21
127.4407189651982
 31
0.0
  0
ARC
  5
127
102
{ACAD_REACTORS
330
180
102
}
330
2
100
AcDbEntity
  8
CL
 48
0.6
100
AcDbCircle
 10
33.38790476703251
 20
86.95885574226847
 30
0.0
 40
51.9999999999996
100
AcDbArc
 50
35.9002433753803
 51
54.09975662461928
  0
ARC
  5
128
330
2
100
AcDbEntity
  8
0
 48
0.6
100
AcDbCircle
 10
68.38138795613303
 20
98.16414478233221
 30
0.0
 40
3.067967999999998
100
AcDbArc
 50
141.9486744806222
 51
197.7198081527984
  0
ARC
  5
129
330
2
100
AcDbEntity
  8
0
 48
0.6
100
AcDbCircle
 10
63.54959036892251
 20
101.9461340303704
 30
0.0
 40
3.067967999999998
100
AcDbArc
 50
321.9486744806221
 51
26.36567250321681
  0
ARC
  5
12A
330
2
100
AcDbEntity
  8
0
 48
0.6
100
AcDbCircle
 10
33.31244045284256
 20
86.95885574226847
 30
0.0
 40
33.74764799999999
100
AcDbArc
 50
72.28019184719491
 51
107.7198081528049
  0
ARC
  5
12B
330
2
100
AcDbEntity
  8
0
 48
0.6
100
AcDbCircle
 10
48.29971874095281
 20
117.1960056583374
 30
0.0
 40
3.067967999999998
100
AcDbArc
 50
63.63432749678904
 51
128.0513255193867
  0
ARC
  5
12C
330
2
100
AcDbEntity
  8
0
 48
0.6
100
AcDbCircle
 10
44.51772949291261
 20
122.0278032455507
 30
0.0
 40
3.067967999999998
100
AcDbArc
 50
252.2801918471949
 51
308.0513255193868
  0
ARC
  5
12D
330
2
100
AcDbEntity
  8
0
 48
0.6
100
AcDbCircle
 10
18.32516216474141
 20
117.1960056583374
 30
0.0
 40
3.067967999999998
100
AcDbArc
 50
51.94867448061305
 51
116.3656725032109
  0
ARC
  5
12E
330
2
100
AcDbEntity
  8
0
 48
0.6
100
AcDbCircle
 10
22.10715141278342
 20
122.0278032455507
 30
0.0
 40
3.067967999999998
100
AcDbArc
 50
231.948674480613
 51
287.7198081528051
  0
ARC
  5
12F
330
2
100
AcDbEntity
  8
0
 48
0.6
100
AcDbCircle
 10
-1.756507050436994
 20
98.16414478233221
 30
0.0
 40
3.067967999999998
100
AcDbArc
 50
342.2801918472013
 51
38.05132551937779
  0
ARC
  5
130
330
2
100
AcDbEntity
  8
0
 48
0.6
100
AcDbCircle
 10
3.075290536782631
 20
101.9461340303704
 30
0.0
 40
3.067967999999998
100
AcDbArc
 50
153.634327496783
 51
218.0513255193776
  0
ARC
  5
131
330
2
100
AcDbEntity
  8
0
 48
0.6
100
AcDbCircle
 10
33.31244045284256
 20
86.95885574226847
 30
0.0
 40
36.81561599999999
100
AcDbArc
 50
116.3656725032109
 51
153.634327496783
  0
ARC
  5
132
330
2
100
AcDbEntity
  8
0
 48
0.6
100
AcDbCircle
 10
33.31244045284256
 20
86.95885574226847
 30
0.0
 40
36.81561599999999
100
AcDbArc
 50
26.36567250321681
 51
63.63432749678904
  0
ARC
  5
133
330
2
100
AcDbEntity
  8
CL
 48
0.6
100
AcDbCircle
 10
33.38790476703251
 20
86.95885574226847
 30
0.0
 40
52.0
100
AcDbArc
 50
129.2128702778031
 51
140.7871297221961
  0
LINE
  5
134
330
2
100
AcDbEntity
  8
CL
 48
0.6
100
AcDbLine
 10
0.3306627465626661
 20
120.0160977627392
 30
0.0
 11
-7.093958455898245
 21
127.4407189651992
 31
0.0
  0
CIRCLE
  5
135
330
2
100
AcDbEntity
  8
0
100
AcDbCircle
 10
-3.381647854666879
 20
123.7284083639687
 30
0.0
 40
3.25
  0
LINE
  5
136
330
2
100
AcDbEntity
  8
CL
 48
0.6
100
AcDbLine
 10
-15.86537144736757
 20
86.95885574226847
 30
0.0
 11
82.64118098143262
 21
86.95885574226847
 31
0.0
  0
ARC
  5
137
330
2
100
AcDbEntity
  8
0
 48
0.6
100
AcDbCircle
 10
33.31244045284256
 20
86.95885574226847
 30
0.0
 40
33.74764799999999
100
AcDbArc
 50
252.2801918471949
 51
287.7198081528051
  0
ARC
  5
138
330
2
100
AcDbEntity
  8
0
 48
0.6
100
AcDbCircle
 10
48.29971874095281
 20
56.72170582619947
 30
0.0
 40
3.067967999999998
100
AcDbArc
 50
231.948674480613
 51
296.3656725032108
  0
ARC
  5
139
330
2
100
AcDbEntity
  8
0
 48
0.6
100
AcDbCircle
 10
44.51772949291261
 20
51.88990823898348
 30
0.0
 40
3.067967999999998
100
AcDbArc
 50
51.94867448061305
 51
107.7198081528049
  0
ARC
  5
13A
330
2
100
AcDbEntity
  8
0
 48
0.6
100
AcDbCircle
 10
18.32516216474141
 20
56.72170582619947
 30
0.0
 40
3.067967999999998
100
AcDbArc
 50
243.634327496789
 51
308.0513255193868
  0
ARC
  5
13B
330
2
100
AcDbEntity
  8
0
 48
0.6
100
AcDbCircle
 10
22.10715141278342
 20
51.88990823898348
 30
0.0
 40
3.067967999999998
100
AcDbArc
 50
72.28019184719491
 51
128.0513255193867
  0
ARC
  5
13C
330
2
100
AcDbEntity
  8
0
 48
0.6
100
AcDbCircle
 10
18.21181906427226
 20
28.37015712542779
 30
0.0
 40
39.15579199999999
100
AcDbArc
 50
16.65391050761257
 51
20.30648800596492
  0
ARC
  5
13D
330
2
100
AcDbEntity
  8
0
 48
0.6
100
AcDbCircle
 10
139.7141794324724
 20
88.85876254666435
 30
0.0
 40
95.84808274048763
100
AcDbArc
 50
210.4975034246499
 51
218.0575295674634
  0
ARC
  5
13E
330
2
100
AcDbEntity
  8
0
 48
0.6
100
AcDbCircle
 10
85.5441096144732
 20
56.26940839080815
 30
0.0
 40
39.15579199999999
100
AcDbArc
 50
201.4369589999631
 51
208.5517089163135
  0
LINE
  5
13F
330
2
100
AcDbEntity
  8
0
100
AcDbLine
 10
50.63442540396136
 20
37.32518214518859
 30
0.0
 11
57.12655674950292
 21
40.21578212191889
 31
0.0
  0
LINE
  5
140
330
2
100
AcDbEntity
  8
0
 48
0.6
100
AcDbLine
 10
54.75119008351247
 20
41.95885574226848
 30
0.0
 11
49.01013985698227
 21
41.95885574226848
 31
0.0
  0
ARC
  5
141
330
2
100
AcDbEntity
  8
CL
 48
0.6
100
AcDbCircle
 10
33.38790476703251
 20
86.95885574226847
 30
0.0
 40
51.9999999999996
100
AcDbArc
 50
215.90024337538
 51
234.0997566246191
  0
LWPOLYLINE
  5
142
330
2
100
AcDbEntity
  8
0
100
AcDbPolyline
 90
        8
 70
     1
 43
0.0
 10
-6.612095232967476
 20
41.9588557422676
 10
73.38790476703252
 20
41.95885574226848
 42
0.4142135623730951
 10
78.38790476703252
 20
46.95885574226759
 10
78.38790476703252
 20
126.9588557422685
 42
0.4142135623730951
 10
73.38790476703252
 20
131.9588557422685
 10
-6.612095232967476
 20
131.9588557422685
 42
0.4142135623730951
 10
-11.61209523296746
 20
126.9588557422685
 10
-11.61209523296746
 20
46.95885574226759
 42
0.4142135623730951
  0
LINE
  5
143
330
2
100
AcDbEntity
  8
CL
 48
0.6
100
AcDbLine
 10
52.02751507382345
 20
41.95885574226848
 30
0.0
 11
33.38790476703251
 21
86.95885574226847
 31
0.0
  0
LINE
  5
144
330
2
100
AcDbEntity
  8
CL
 48
0.6
100
AcDbLine
 10
33.38790476703251
 20
33.32871097851603
 30
0.0
 11
33.38790476703251
 21
140.5890005060209
 31
0.0
  0
CIRCLE
  5
145
330
2
100
AcDbEntity
  8
0
 48
0.6
100
AcDbCircle
 10
33.38790476703251
 20
86.95885574226847
 30
0.0
 40
42.00000000000005
  0
CIRCLE
  5
146
330
2
100
AcDbEntity
  8
0
 48
0.6
100
AcDbCircle
 10
33.38790476703251
 20
86.95885574226847
 30
0.0
 40
43.5
  0
ARC
  5
147
330
2
100
AcDbEntity
  8
CL
 48
0.6
100
AcDbCircle
 10
33.38790476703251
 20
86.95885574226847
 30
0.0
 40
52.0
100
AcDbArc
 50
309.2128702778031
 51
320.7871297221961
  0
LINE
  5
148
330
2
100
AcDbEntity
  8
CL
 48
0.6
100
AcDbLine
 10
66.44514678750238
 20
53.90161372179682
 30
0.0
 11
73.86976798996148
 21
46.47699251933771
 31
0.0
  0
CIRCLE
  5
149
330
2
100
AcDbEntity
  8
0
100
AcDbCircle
 10
70.15745738873191
 20
50.18930312056817
 30
0.0
 40
3.25
  0
LINE
  5
14A
330
2
100
AcDbEntity
  8
CL
 48
0.6
100
AcDbLine
 10
0.3306627465626661
 20
53.90161372179682
 30
0.0
 11
-7.093958455898245
 21
46.47699251933771
 31
0.0
  0
CIRCLE
  5
14B
330
2
100
AcDbEntity
  8
0
100
AcDbCircle
 10
-3.381647854666879
 20
50.18930312056817
 30
0.0
 40
3.25
  0
ARC
  5
14C
330
2
100
AcDbEntity
  8
0
 48
0.6
100
AcDbCircle
 10
33.31244045284256
 20
86.95885574226847
 30
0.0
 40
36.81561599999999
100
AcDbArc
 50
206.3656725032168
 51
243.634327496789
  0
ARC
  5
14D
330
2
100
AcDbEntity
  8
0
 48
0.6
100
AcDbCircle
 10
33.31244045284256
 20
86.95885574226847
 30
0.0
 40
36.81561599999999
100
AcDbArc
 50
296.3656725032108
 51
333.6343274967831
  0
LINE
  5
14E
330
2
100
AcDbEntity
  8
0
100
AcDbLine
 10
172.2479754482518
 20
132.4588557422684
 30
0.0
 11
178.8479754482632
 21
132.4588557422684
 31
0.0
  0
LINE
  5
14F
330
2
100
AcDbEntity
  8
0
100
AcDbLine
 10
172.2479754482518
 20
128.4588557422684
 30
0.0
 11
170.2479754482519
 21
128.4588557422684
 31
0.0
  0
LINE
  5
150
330
2
100
AcDbEntity
  8
0
100
AcDbLine
 10
179.7479754482519
 20
122.8575930837978
 30
0.0
 11
179.7479754482519
 21
130.5575930837993
 31
0.0
  0
LINE
  5
151
330
2
100
AcDbEntity
  8
0
100
AcDbLine
 10
178.8479754482632
 20
122.8575930837978
 30
0.0
 11
179.7479754482519
 21
122.8575930837978
 31
0.0
  0
LINE
  5
152
102
{ACAD_REACTORS
330
1AC
102
}
330
2
100
AcDbEntity
  8
0
100
AcDbLine
 10
178.8479754482632
 20
130.5575930837993
 30
0.0
 11
179.7479754482519
 21
130.5575930837993
 31
0.0
  0
LINE
  5
153
330
2
100
AcDbEntity
  8
0
100
AcDbLine
 10
165.2479754482519
 20
92.95885574226849
 30
0.0
 11
165.2479754482519
 21
91.95885574226847
 31
0.0
  0
LINE
  5
154
102
{ACAD_REACTORS
330
15A
330
101
102
}
330
2
100
AcDbEntity
  8
CL
  6
BYBLOCK
 62
     0
100
AcDbLine
 10
170.2479754482519
 20
92.95885574226849
 30
0.0
 11
165.2479754482519
 21
92.95885574226849
 31
0.0
  0
LINE
  5
155
330
2
100
AcDbEntity
  8
0
100
AcDbLine
 10
135.2479754482519
 20
91.95885574226847
 30
0.0
 11
135.2479754482519
 21
80.9588557422685
 31
0.0
  0
LINE
  5
156
102
{ACAD_REACTORS
330
15A
330
F2
330
1BD
102
}
330
2
100
AcDbEntity
  8
CL
  6
BYBLOCK
 62
     0
100
AcDbLine
 10
165.2479754482519
 20
91.95885574226847
 30
0.0
 11
135.2479754482519
 21
91.95885574226847
 31
0.0
  0
LINE
  5
157
102
{ACAD_REACTORS
330
F2
330
101
102
}
330
2
100
AcDbEntity
  8
CL
  6
BYBLOCK
 62
     0
100
AcDbLine
 10
170.2479754482519
 20
80.9588557422685
 30
0.0
 11
135.2479754482519
 21
80.9588557422685
 31
0.0
  0
DIMENSION
  5
158
102
{ACAD_XDICTIONARY
360
159
102
}
102
{ACAD_REACTORS
330
15A
102
}
330
2
100
AcDbEntity
  8
0
100
AcDbDimension
  2
*D30
 10
165.2479754482519
 20
117.5561122296094
 30
0.0
 11
151.5066598127541
 21
117.5561122296094
 31
0.0
 70
   160
  3
1_1_2
100
AcDbAlignedDimension
 13
135.2479754482519
 23
91.95885574226847
 33
0.0
 14
165.2479754482519
 24
92.95885574226849
 34
0.0
100
AcDbRotatedDimension
  0
LINE
  5
167
330
2
100
AcDbEntity
  8
0
100
AcDbLine
 10
178.8479754482632
 20
51.06011840074007
 30
0.0
 11
179.7479754482519
 21
51.06011840074007
 31
0.0
  0
ARC
  5
168
330
2
100
AcDbEntity
  8
0
100
AcDbCircle
 10
181.5101067751529
 20
29.50933169841118
 30
0.0
 40
8.907313409310658
100
AcDbArc
 50
24.23072274293526
 51
94.90087069773977
  0
ARC
  5
169
330
2
100
AcDbEntity
  8
0
100
AcDbCircle
 10
186.0396400153113
 20
38.55895563882313
 30
0.0
 40
1.804069955425965
100
AcDbArc
 50
94.04501748590988
 51
178.3692744375835
  0
LINE
  5
16A
330
2
100
AcDbEntity
  8
0
100
AcDbLine
 10
189.2479754482519
 20
40.9588557422685
 30
0.0
 11
180.2479754482519
 21
40.9588557422685
 31
0.0
  0
LINE
  5
16B
330
2
100
AcDbEntity
  8
0
100
AcDbLine
 10
172.2479754482518
 20
41.45885574226849
 30
0.0
 11
178.8479754482632
 21
41.45885574226849
 31
0.0
  0
LINE
  5
16C
330
2
100
AcDbEntity
  8
0
100
AcDbLine
 10
172.2479754482518
 20
45.45885574226757
 30
0.0
 11
170.2479754482519
 21
45.45885574226757
 31
0.0
  0
LINE
  5
16D
330
2
100
AcDbEntity
  8
0
100
AcDbLine
 10
184.2363007118528
 20
38.61029529844107
 30
0.0
 11
184.2363007118528
 21
37.9891960128425
 31
0.0
  0
LINE
  5
16E
330
2
100
AcDbEntity
  8
0
100
AcDbLine
 10
178.8479754482632
 20
43.36011840073843
 30
0.0
 11
179.7479754482519
 21
43.36011840073843
 31
0.0
  0
ARC
  5
16F
330
2
100
AcDbEntity
  8
0
 48
0.6
100
AcDbCircle
 10
221.346903384152
 20
40.79482126641777
 30
0.0
 40
37.855792
100
AcDbArc
 50
179.8658330000312
 51
183.9724199931055
  0
ARC
  5
170
330
2
100
AcDbEntity
  8
0
 48
0.6
100
AcDbCircle
 10
221.0506974482632
 20
40.87020974226834
 30
0.0
 40
39.15579199999999
100
AcDbArc
 50
179.8702870000233
 51
183.6102158837779
  0
LINE
  5
171
330
2
100
AcDbEntity
  8
0
100
AcDbLine
 10
179.7479754482519
 20
41.95885574226848
 30
0.0
 11
179.7479754482519
 21
41.45885574226849
 31
0.0
  0
ARC
  5
172
330
2
100
AcDbEntity
  8
0
100
AcDbCircle
 10
180.2479754482519
 20
41.45885574226849
 30
0.0
 40
0.5
100
AcDbArc
 50
180.0
 51
270.0
  0
LINE
  5
173
330
2
100
AcDbEntity
  8
0
100
AcDbLine
 10
188.7184036370616
 20
34.87625576890787
 30
0.0
 11
188.7184036370616
 21
34.74198767050348
 31
0.0
  0
ARC
  5
174
330
2
100
AcDbEntity
  8
0
100
AcDbCircle
 10
189.218089389942
 20
34.85853153775406
 30
0.0
 40
0.5
100
AcDbArc
 50
90.0
 51
177.9685271120391
  0
ARC
  5
175
330
2
100
AcDbEntity
  8
0
 48
0.6
100
AcDbCircle
 10
221.0506974482632
 20
40.87020974226834
 30
0.0
 40
33.95579199999998
100
AcDbArc
 50
179.85042300002
 51
180.8634200380007
  0
LINE
  5
176
330
2
100
AcDbEntity
  8
0
100
AcDbLine
 10
189.7479754482518
 20
41.95885574226848
 30
0.0
 11
189.7479754482518
 21
41.45885574226849
 31
0.0
  0
ARC
  5
177
330
2
100
AcDbEntity
  8
0
100
AcDbCircle
 10
189.2479754482519
 20
41.45885574226849
 30
0.0
 40
0.5
100
AcDbArc
 50
270.0
 51
0.0
  0
ARC
  5
178
330
2
100
AcDbEntity
  8
0
 48
0.6
100
AcDbCircle
 10
220.758203395033
 20
40.95652085127493
 30
0.0
 40
35.255792
100
AcDbArc
 50
179.9962054631615
 51
181.0943561937651
  0
LINE
  5
179
330
2
100
AcDbEntity
  8
0
100
AcDbLine
 10
179.7479754482519
 20
51.06011840074007
 30
0.0
 11
179.7479754482519
 21
43.36011840073843
 31
0.0
  0
LINE
  5
17A
330
2
100
AcDbEntity
  8
0
100
AcDbLine
 10
172.2479754482628
 20
132.4588557422684
 30
0.0
 11
172.2479754482518
 21
41.45885574226849
 31
0.0
  0
LINE
  5
17B
102
{ACAD_REACTORS
330
110
102
}
330
2
100
AcDbEntity
  8
0
100
AcDbLine
 10
170.2479754482519
 20
128.4588557422684
 30
0.0
 11
170.2479754482519
 21
45.45885574226757
 31
0.0
  0
LINE
  5
17C
330
2
100
AcDbEntity
  8
0
100
AcDbLine
 10
178.8479754482632
 20
132.4588557422684
 30
0.0
 11
178.8479754482632
 21
41.45885574226849
 31
0.0
  0
LEADER
  5
17D
330
2
100
AcDbEntity
  8
0
100
AcDbLeader
  3
1_1_2
 73
     0
 75
     1
 40
3.5
 41
31.09375
 76
     3
 10
70.18209796346309
 20
126.8780301950719
 30
0.0
 10
64.48181078995367
 20
143.4308580678534
 30
0.0
 10
61.48181078995367
 20
143.4308580678534
 30
0.0
340
EF
1001
ACAD
1000
DSTYLE
1002
{
1070
     5
1000

1070
   342
1005
0
1002
}
  0
DIMENSION
  5
17E
102
{ACAD_XDICTIONARY
360
17F
102
}
102
{ACAD_REACTORS
330
180
102
}
330
2
100
AcDbEntity
  8
0
100
AcDbDimension
  2
*D29
 10
-7.981653719772793
 20
55.45394135407851
 30
0.0
 11
91.03046415018544
 21
130.85644529623
 31
0.0
 70
   163
  1
<>%%P0.5
  3
1_1_2
100
AcDbDiametricDimension
 15
74.75746325383453
 25
118.4637701304559
 35
0.0
 40
0.0
  0
LINE
  5
18C
330
2
100
AcDbEntity
  8
0
100
AcDbLine
 10
301.9631772367028
 20
41.95885574226848
 30
0.0
 11
178.8479754482632
 21
41.95885574226848
 31
0.0
  0
LINE
  5
18D
330
2
100
AcDbEntity
  8
0
100
AcDbLine
 10
185.9123804848914
 20
40.35853153774769
 30
0.0
 11
299.3097063648911
 21
40.35853153775132
 31
0.0
  0
DIMENSION
  5
18E
330
2
100
AcDbEntity
  8
0
100
AcDbDimension
  2
*D28
 10
78.38790476703252
 20
152.1806175201708
 30
0.0
 11
33.77855640701273
 21
152.1806175201708
 31
0.0
 70
   160
  3
1_1_2
100
AcDbAlignedDimension
 13
-11.61209523296746
 23
126.916061983471
 33
0.0
 14
78.38790476703252
 24
126.916061983471
 34
0.0
100
AcDbRotatedDimension
  0
DIMENSION
  5
19B
330
2
100
AcDbEntity
  8
0
100
AcDbDimension
  2
*D27
 10
172.2479754482518
 20
144.5915093065177
 30
0.0
 11
161.2479754482519
 21
144.5915093065177
 31
0.0
 70
   160
  3
1_1_2
100
AcDbAlignedDimension
 13
170.2479754482519
 23
128.4588557422684
 33
0.0
 14
172.2479754482518
 24
131.9588557422685
 34
0.0
100
AcDbRotatedDimension
  0
DIMENSION
  5
1AA
102
{ACAD_XDICTIONARY
360
1AB
102
}
102
{ACAD_REACTORS
330
1AC
102
}
330
2
100
AcDbEntity
  8
0
100
AcDbDimension
  2
*D26
 10
179.7479754482519
 20
153.8968704517446
 30
0.0
 11
190.4146421149216
 21
153.8968704517446
 31
0.0
 70
   160
  3
1_1_2
100
AcDbAlignedDimension
 13
172.2479754482518
 23
132.1671890756005
 33
0.0
 14
179.7479754482519
 24
130.5575930837993
 34
0.0
100
AcDbRotatedDimension
  0
DIMENSION
  5
1BB
102
{ACAD_XDICTIONARY
360
1BC
102
}
102
{ACAD_REACTORS
330
1BD
102
}
330
2
100
AcDbEntity
  8
0
100
AcDbDimension
  2
*D25
 10
172.2479754482518
 20
166.4360194500113
 30
0.0
 11
153.7479754482519
 21
166.4360194500113
 31
0.0
 70
   160
  3
1_1_2
100
AcDbAlignedDimension
 13
135.2479754482519
 23
91.95885574226847
 33
0.0
 14
172.2479754482518
 24
132.1671890756005
 34
0.0
100
AcDbRotatedDimension
  0
LINE
  5
1CA
330
2
100
AcDbEntity
  8
0
 62
   123
 48
0.6
100
AcDbLine
 10
141.3759919015536
 20
199.9530129460854
 30
0.0
 11
82.12183407418342
 21
199.9530129460854
 31
0.0
  0
LINE
  5
1CB
330
2
100
AcDbEntity
  8
CEN
100
AcDbLine
 10
296.3856224483242
 20
265.1025654542871
 30
0.0
 11
296.3856224483242
 21
272.0081601156724
 31
0.0
  0
CIRCLE
  5
1CC
330
2
100
AcDbEntity
  8
0
100
AcDbCircle
 10
296.3856224483242
 20
268.5553627849803
 30
0.0
 40
2.0
  0
LINE
  5
1CD
330
2
100
AcDbEntity
  8
CEN
 62
    62
100
AcDbLine
 10
295.6856224483235
 20
266.6818633854591
 30
0.0
 11
295.6856224483235
 21
267.8553627849824
 31
0.0
  0
LINE
  5
1CE
330
2
100
AcDbEntity
  8
CEN
 62
    62
100
AcDbLine
 10
297.0856224483121
 20
266.6818633854591
 30
0.0
 11
297.0856224483121
 21
267.8553627849824
 31
0.0
  0
LINE
  5
1CF
330
2
100
AcDbEntity
  8
CL
 62
    62
 48
0.6
100
AcDbLine
 10
298.2591218478318
 20
269.255362784981
 30
0.0
 11
297.0856224483121
 21
269.255362784981
 31
0.0
  0
LINE
  5
1D0
330
2
100
AcDbEntity
  8
CL
 62
    62
 48
0.6
100
AcDbLine
 10
298.2591218478318
 20
267.8553627849824
 30
0.0
 11
297.0856224483121
 21
267.8553627849824
 31
0.0
  0
LINE
  5
1D1
330
2
100
AcDbEntity
  8
CEN
 62
    62
100
AcDbLine
 10
295.6856224483235
 20
269.2553627849819
 30
0.0
 11
295.6856224483235
 21
270.4288621844988
 31
0.0
  0
LINE
  5
1D2
330
2
100
AcDbEntity
  8
CL
 62
    62
 48
0.6
100
AcDbLine
 10
295.6856224483235
 20
269.2553627849819
 30
0.0
 11
294.5121230488038
 21
269.255362784981
 31
0.0
  0
LINE
  5
1D3
330
2
100
AcDbEntity
  8
CL
 62
    62
 48
0.6
100
AcDbLine
 10
295.6856224483235
 20
267.8553627849824
 30
0.0
 11
294.5121230488038
 21
267.8553627849796
 31
0.0
  0
LINE
  5
1D4
330
2
100
AcDbEntity
  8
CEN
 62
    62
100
AcDbLine
 10
297.0856224483121
 20
269.2553627849819
 30
0.0
 11
297.0856224483121
 21
270.4288621844998
 31
0.0
  0
LINE
  5
1D5
330
2
100
AcDbEntity
  8
0
100
AcDbLine
 10
283.4756224483117
 20
313.5553627849803
 30
0.0
 11
296.7256224483226
 21
313.5553627849803
 31
0.0
  0
LINE
  5
1D6
330
2
100
AcDbEntity
  8
0
100
AcDbLine
 10
274.4466308742611
 20
228.5553627849802
 30
0.0
 11
283.3856224483115
 21
228.5553627849802
 31
0.0
  0
ARC
  5
1D7
330
2
100
AcDbEntity
  8
0
100
AcDbCircle
 10
296.258004874011
 20
313.6665539978266
 30
0.0
 40
2.280330085890314
100
AcDbArc
 50
357.2050912589323
 51
55.92501109520566
  0
ARC
  5
1D8
330
2
100
AcDbEntity
  8
0
100
AcDbCircle
 10
296.5132400226228
 20
313.6665539978266
 30
0.0
 40
2.280330085889914
100
AcDbArc
 50
124.0749889047942
 51
182.7949087410673
  0
LINE
  5
1D9
330
2
100
AcDbEntity
  8
0
100
AcDbLine
 10
297.535622448313
 20
315.5553627849803
 30
0.0
 11
295.2356224483118
 21
315.5553627849803
 31
0.0
  0
LINE
  5
1DA
330
2
100
AcDbEntity
  8
CL
 48
0.6
100
AcDbLine
 10
296.3856224483114
 20
317.0391282910186
 30
0.0
 11
296.3856224483114
 21
310.4582715782826
 31
0.0
  0
LINE
  5
1DB
330
2
100
AcDbEntity
  8
0
100
AcDbLine
 10
295.4756224483117
 20
223.5553627849804
 30
0.0
 11
284.2163700563724
 21
223.5553627849804
 31
0.0
  0
LINE
  5
1DC
330
2
100
AcDbEntity
  8
0
100
AcDbLine
 10
271.4466308742611
 20
225.5553627849804
 30
0.0
 11
271.4466308742611
 21
224.9550385804641
 31
0.0
  0
ARC
  5
1DD
330
2
100
AcDbEntity
  8
0
100
AcDbCircle
 10
268.4466308742611
 20
224.9550385804641
 30
0.0
 40
3.0
100
AcDbArc
 50
270.0000000000065
 51
0.0
  0
ARC
  5
1DE
330
2
100
AcDbEntity
  8
0
100
AcDbCircle
 10
278.9464359685315
 20
220.5553627849802
 30
0.0
 40
3.0
100
AcDbArc
 50
90.0
 51
180.0
  0
ARC
  5
1DF
330
2
100
AcDbEntity
  8
0
100
AcDbCircle
 10
271.9294131219921
 20
220.9961353674462
 30
0.0
 40
4.041132640617096
100
AcDbArc
 50
270.2413531633601
 51
353.7382029889954
  0
ARC
  5
1E0
330
2
100
AcDbEntity
  8
0
100
AcDbCircle
 10
296.5132400226228
 20
223.444171572134
 30
0.0
 40
2.280330085890314
100
AcDbArc
 50
177.2050912589325
 51
235.9250110952057
  0
ARC
  5
1E1
330
2
100
AcDbEntity
  8
0
100
AcDbCircle
 10
296.258004874011
 20
223.444171572134
 30
0.0
 40
2.280330085889914
100
AcDbArc
 50
304.0749889047944
 51
2.7949087410675
  0
LINE
  5
1E2
330
2
100
AcDbEntity
  8
0
100
AcDbLine
 10
297.535622448313
 20
221.5553627849793
 30
0.0
 11
295.2356224483118
 21
221.5553627849793
 31
0.0
  0
LINE
  5
1E3
330
2
100
AcDbEntity
  8
CL
 48
0.6
100
AcDbLine
 10
296.3856224483114
 20
226.125000711172
 30
0.0
 11
296.3856224483114
 21
219.1664703936766
 31
0.0
  0
ARC
  5
1E4
330
2
100
AcDbEntity
  8
0
100
AcDbCircle
 10
274.4466308742611
 20
225.5553627849804
 30
0.0
 40
3.0
100
AcDbArc
 50
90.00000000000651
 51
180.0
  0
LINE
  5
1E5
330
2
100
AcDbEntity
  8
0
100
AcDbLine
 10
283.3856224483243
 20
223.5553627849804
 30
0.0
 11
283.3856224483243
 21
313.5553627849803
 31
0.0
  0
LINE
  5
1E6
330
2
100
AcDbEntity
  8
0
100
AcDbLine
 10
147.9848999576224
 20
232.656625443451
 30
0.0
 11
148.884899957622
 21
232.656625443451
 31
0.0
  0
LINE
  5
1E7
330
2
100
AcDbEntity
  8
0
100
AcDbLine
 10
141.384899957622
 20
314.0553627849793
 30
0.0
 11
147.9848999576224
 21
314.0553627849793
 31
0.0
  0
LINE
  5
1E8
330
2
100
AcDbEntity
  8
0
100
AcDbLine
 10
141.384899957622
 20
310.0553627849803
 30
0.0
 11
139.384899957622
 21
310.0553627849803
 31
0.0
  0
LINE
  5
1E9
330
2
100
AcDbEntity
  8
0
100
AcDbLine
 10
148.884899957622
 20
304.4541001265088
 30
0.0
 11
148.884899957622
 21
312.1541001265104
 31
0.0
  0
LINE
  5
1EA
330
2
100
AcDbEntity
  8
0
100
AcDbLine
 10
147.9848999576224
 20
304.4541001265088
 30
0.0
 11
148.884899957622
 21
304.4541001265088
 31
0.0
  0
LINE
  5
1EB
102
{ACAD_REACTORS
330
22C
102
}
330
2
100
AcDbEntity
  8
0
100
AcDbLine
 10
147.9848999576224
 20
312.1541001265104
 30
0.0
 11
148.884899957622
 21
312.1541001265104
 31
0.0
  0
LINE
  5
1EC
330
2
100
AcDbEntity
  8
0
 48
0.6
100
AcDbLine
 10
120.384899957622
 20
273.2053627849808
 30
0.0
 11
121.384899957622
 21
274.2053627849791
 31
0.0
  0
LINE
  5
1ED
330
2
100
AcDbEntity
  8
0
 48
0.6
100
AcDbLine
 10
121.384899957622
 20
273.3053627849804
 30
0.0
 11
134.384899957622
 21
273.3053627849804
 31
0.0
  0
LINE
  5
1EE
330
2
100
AcDbEntity
  8
2
 48
0.6
100
AcDbLine
 10
134.384899957622
 20
272.1539928886631
 30
0.0
 11
121.384899957622
 21
265.5866335766322
 31
0.0
  0
LINE
  5
1F0
330
2
100
AcDbEntity
  8
0
 48
0.6
100
AcDbLine
 10
120.384899957622
 20
263.9053627849806
 30
0.0
 11
121.384899957622
 21
262.9053627849807
 31
0.0
  0
LINE
  5
1F1
330
2
100
AcDbEntity
  8
0
 48
0.6
100
AcDbLine
 10
121.384899957622
 20
263.8053627849803
 30
0.0
 11
134.384899957622
 21
263.8053627849803
 31
0.0
  0
LINE
  5
1F2
330
2
100
AcDbEntity
  8
2
 48
0.6
100
AcDbLine
 10
134.384899957622
 20
270.0102626693297
 30
0.0
 11
122.4823521205234
 21
263.8053627849803
 31
0.0
  0
LINE
  5
1F3
330
2
100
AcDbEntity
  8
2
 48
0.6
100
AcDbLine
 10
134.384899957622
 20
273.3053627849804
 30
0.0
 11
134.384899957622
 21
263.8053627849803
 31
0.0
  0
LINE
  5
1F4
330
2
100
AcDbEntity
  8
2
 48
0.6
100
AcDbLine
 10
121.384899957622
 20
274.2053627849791
 30
0.0
 11
121.384899957622
 21
262.9053627849798
 31
0.0
  0
LINE
  5
1F5
330
2
100
AcDbEntity
  8
0
 48
0.6
100
AcDbLine
 10
120.384899957622
 20
273.2053627849808
 30
0.0
 11
120.384899957622
 21
263.9053627849806
 31
0.0
  0
LINE
  5
1F6
330
2
100
AcDbEntity
  8
2
 48
0.6
100
AcDbLine
 10
134.384899957622
 20
271.1754521619923
 30
0.0
 11
121.384899957622
 21
264.2953614541484
 31
0.0
  0
ARC
  5
1F7
330
2
100
AcDbEntity
  8
0
 48
0.6
100
AcDbCircle
 10
134.4280868684527
 20
300.1215936740009
 30
0.0
 40
26.81626566475105
100
AcDbArc
 50
269.907726570802
 51
280.6520097393285
  0
LINE
  5
1F8
330
2
100
AcDbEntity
  8
0
 48
0.6
100
AcDbLine
 10
121.384899957622
 20
274.2053627849791
 30
0.0
 11
139.384899957622
 21
274.2053627849791
 31
0.0
  0
LINE
  5
1F9
330
2
100
AcDbEntity
  8
0
 48
0.6
100
AcDbLine
 10
128.384899957622
 20
274.2053627849791
 30
0.0
 11
139.384899957622
 21
274.2053627849791
 31
0.0
  0
LINE
  5
1FA
330
2
100
AcDbEntity
  8
CEN
 48
0.6
100
AcDbLine
 10
118.8240680359813
 20
273.6948627849796
 30
0.0
 11
142.384899957622
 21
273.6948627849796
 31
0.0
  0
ARC
  5
1FB
330
2
100
AcDbEntity
  8
0
 48
0.6
100
AcDbCircle
 10
134.4280868684527
 20
236.9891318959306
 30
0.0
 40
26.81626566478071
100
AcDbArc
 50
79.34799026067249
 51
90.09227342919791
  0
LINE
  5
1FC
330
2
100
AcDbEntity
  8
0
 48
0.6
100
AcDbLine
 10
121.384899957622
 20
262.9053627849807
 30
0.0
 11
139.384899957622
 21
262.9053627849807
 31
0.0
  0
LINE
  5
1FD
330
2
100
AcDbEntity
  8
0
 48
0.6
100
AcDbLine
 10
128.384899957622
 20
262.9053627849807
 30
0.0
 11
139.384899957622
 21
262.9053627849807
 31
0.0
  0
LINE
  5
1FE
330
2
100
AcDbEntity
  8
CEN
 48
0.6
100
AcDbLine
 10
118.6306228102729
 20
263.4158627849791
 30
0.0
 11
142.384899957622
 21
263.4158627849791
 31
0.0
  0
ARC
  5
1FF
330
2
100
AcDbEntity
  8
0
100
AcDbCircle
 10
150.6470312845122
 20
211.105838741123
 30
0.0
 40
8.907313409310658
100
AcDbArc
 50
24.23072274293526
 51
94.90087069773977
  0
ARC
  5
200
330
2
100
AcDbEntity
  8
0
 48
0.6
100
AcDbCircle
 10
422.3215636517473
 20
310.3768421916057
 30
0.0
 40
280.3603456872216
100
AcDbArc
 50
199.9405192184126
 51
203.5446418798211
  0
LWPOLYLINE
  5
201
330
2
100
AcDbEntity
  8
0
100
AcDbPolyline
 90
      467
 70
     0
 43
0.0
 10
157.8453244522472
 20
198.3511850766477
 10
157.8475227343271
 20
198.3522601624286
 10
157.8677669845776
 20
198.3620622630711
 10
157.8879864499569
 20
198.3717541669416
 10
157.9081811735752
 20
198.3813363162576
 10
157.928351198546
 20
198.3908091532271
 10
157.9484965679759
 20
198.4001731200601
 10
157.9686173249876
 20
198.409428658973
 10
157.9887135126875
 20
198.4185762121684
 10
158.0087851741875
 20
198.4276162218671
 10
158.0288323525976
 20
198.4365491302755
 10
158.0488550910169
 20
198.4453753796028
 10
158.0688534325756
 20
198.4540954120625
 10
158.0888274203764
 20
198.4627096698665
 10
158.1087770975365
 20
198.4712185952254
 10
158.1287025071571
 20
198.4796226303492
 10
158.1486036923463
 20
198.4879222174519
 10
158.1684806962377
 20
198.496117798743
 10
158.1883335619178
 20
198.5042098164327
 10
158.2081623325168
 20
198.5121987127309
 10
158.2279670511263
 20
198.5200849298549
 10
158.2477477608874
 20
198.5278689100091
 10
158.2675045048756
 20
198.5355510954082
 10
158.2872373262264
 20
198.5431319282639
 10
158.3069462680479
 20
198.5506118507851
 10
158.3266313734377
 20
198.5579913051848
 10
158.3462926855274
 20
198.5652707336726
 10
158.3659302474072
 20
198.5724505784615
 10
158.3855441022071
 20
198.5795312817595
 10
158.4051342930371
 20
198.5865132857821
 10
158.4247008629874
 20
198.5933970327401
 10
158.4442438551879
 20
198.6001829648408
 10
158.4637633127469
 20
198.6068715242977
 10
158.4832592787763
 20
198.613463153321
 10
158.5027317963878
 20
198.6199582941232
 10
158.5221809086862
 20
198.6263573889151
 10
158.541606658787
 20
198.6326608799104
 10
158.5610090897964
 20
198.6388692093155
 10
158.5803882448373
 20
198.644982819344
 10
158.5997441670162
 20
198.6510021522067
 10
158.6190768994376
 20
198.6569276501164
 10
158.6383864852261
 20
198.662759755281
 10
158.6576729674754
 20
198.6684989099154
 10
158.6769363893083
 20
198.6741455562274
 10
158.6961767938257
 20
198.6797001364316
 10
158.7153942241577
 20
198.6851630927364
 10
158.734588723407
 20
198.6905348673541
 10
158.7537603346765
 20
198.6958159024949
 10
158.7729091010871
 20
198.7010066403714
 10
158.792035065747
 20
198.7061075231954
 10
158.8111382717591
 20
198.7111189931752
 10
158.8302187622459
 20
198.7160414925251
 10
158.8492765803159
 20
198.7208754634553
 10
158.8683117690881
 20
198.7256213481746
 10
158.8873243716582
 20
198.7302795888959
 10
158.9063144311469
 20
198.7348506278326
 10
158.9252819906571
 20
198.7393349071932
 10
158.9442270933171
 20
198.743732869189
 10
158.9631497822167
 20
198.7480449560331
 10
158.982050100488
 20
198.7522716099342
 10
159.0009280912266
 20
198.7564132731064
 10
159.0197837975476
 20
198.7604703877582
 10
159.0386172625669
 20
198.7644433961018
 10
159.0574285293871
 20
198.7683327403489
 10
159.0762176411364
 20
198.7721388627092
 10
159.0949846409068
 20
198.7758622053975
 10
159.1137295718173
 20
198.7795032106184
 10
159.1324524769872
 20
198.7830623205887
 10
159.1511533995173
 20
198.786539977516
 10
159.1698323825177
 20
198.7899366236165
 10
159.1884894691076
 20
198.7932527010994
 10
159.207124702397
 20
198.7964886521718
 10
159.2257381254868
 20
198.7996449190474
 10
159.2443297814963
 20
198.8027219439396
 10
159.2628997135463
 20
198.8057201690567
 10
159.2814479647269
 20
198.8086400366115
 10
159.2999745781664
 20
198.8114819888165
 10
159.3184795969766
 20
198.8142464678817
 10
159.3369630642584
 20
198.8169339160154
 10
159.3554250231165
 20
198.8195447754302
 10
159.3738655166882
 20
198.8220794883405
 10
159.3922845880671
 20
198.8245384969509
 10
159.410682280358
 20
198.8269222434834
 10
159.4290586366871
 20
198.8292311701384
 10
159.4474137001572
 20
198.8314657191317
 10
159.4657475138876
 20
198.833626332675
 10
159.4840601209773
 20
198.8357134529793
 10
159.5023515645472
 20
198.8377275222551
 10
159.5206218877076
 20
198.8396689827127
 10
159.5388711335665
 20
198.8415382765638
 10
159.5570993452376
 20
198.8433358460221
 10
159.5753065658274
 20
198.8450621332955
 10
159.5934928384569
 20
198.8467175805959
 10
159.6116582062251
 20
198.8483026301333
 10
159.6298027122567
 20
198.8498177241232
 10
159.6479263996472
 20
198.8512633047727
 10
159.6660293115266
 20
198.8526398142962
 10
159.6841114909886
 20
198.8539476948996
 10
159.7021729811578
 20
198.8551873888013
 10
159.7202138251262
 20
198.8563593382064
 10
159.7382340660362
 20
198.857463985331
 10
159.7562337469673
 20
198.8585017723821
 10
159.7742129110567
 20
198.8594731415729
 10
159.7921716013963
 20
198.8603785351139
 10
159.810109861107
 20
198.861218395215
 10
159.8280277332971
 20
198.861993164092
 10
159.8459252610766
 20
198.8627032839517
 10
159.8638024875683
 20
198.8633491970063
 10
159.8816594558677
 20
198.8639313454691
 10
159.8994962090866
 20
198.8644501715485
 10
159.9173127903588
 20
198.8649061174569
 10
159.9351092427579
 20
198.8652996254055
 10
159.9528856094268
 20
198.8656311376058
 10
159.9706419334681
 20
198.8659010962678
 10
159.9883782579883
 20
198.8661099436044
 10
160.0060946261084
 20
198.8662581218255
 10
160.0237910809275
 20
198.86634607314
 10
160.0414676655575
 20
198.8663742397653
 10
160.0591244231174
 20
198.8663430639068
 10
160.0767613967174
 20
198.8662529877788
 10
160.0943786294676
 20
198.8661044535916
 10
160.1119761644761
 20
198.865897903555
 10
160.1295540448583
 20
198.8656337798843
 10
160.1471123137173
 20
198.865312524787
 10
160.1646510141774
 20
198.8649345804739
 10
160.182170189347
 20
198.8645003891584
 10
160.1996698823251
 20
198.8640103930507
 10
160.2171501362366
 20
198.8634650343625
 10
160.2346109941874
 20
198.8628647553037
 10
160.252052499288
 20
198.862209998089
 10
160.2694746946574
 20
198.8615012049235
 10
160.2868776233874
 20
198.8607388180231
 10
160.3042613286172
 20
198.8599232795974
 10
160.3216258534277
 20
198.8590550318564
 10
160.3389712409582
 20
198.8581345170155
 10
160.3562975342967
 20
198.8571621772831
 10
160.3736047765662
 20
198.8561384548707
 10
160.3908930108875
 20
198.8550637919866
 10
160.408162280358
 20
198.853938630849
 10
160.4254126280877
 20
198.8527634136604
 10
160.4426440971885
 20
198.85153858264
 10
160.4598567307777
 20
198.8502645799932
 10
160.4770505719672
 20
198.8489418479326
 10
160.4942256638671
 20
198.8475708286729
 10
160.5113820495873
 20
198.8461519644221
 10
160.528519772238
 20
198.8446856973882
 10
160.5456388749256
 20
198.8431724697898
 10
160.5627394007762
 20
198.8416127238338
 10
160.5798213928876
 20
198.8400069017275
 10
160.5968848943677
 20
198.83835544569
 10
160.6139299483467
 20
198.8366587979312
 10
160.6309565979165
 20
198.8349174006557
 10
160.647964886207
 20
198.8331316960816
 10
160.6649548563084
 20
198.8313021264161
 10
160.6819265513579
 20
198.8294291338748
 10
160.6988800144383
 20
198.827513160662
 10
160.7158152886761
 20
198.8255546489959
 10
160.7327324171776
 20
198.823554041082
 10
160.7496314430583
 20
198.8215117791375
 10
160.7665124094267
 20
198.8194283053676
 10
160.783375359407
 20
198.8173040619863
 10
160.8002203360876
 20
198.8151394912043
 10
160.8170473825968
 20
198.8129350352352
 10
160.8338565420374
 20
198.8106911362835
 10
160.8506478575265
 20
198.808408236568
 10
160.8674213721671
 20
198.8060867782975
 10
160.8841771290764
 20
198.8037272036813
 10
160.9009151713755
 20
198.8013299549326
 10
160.9176355421579
 20
198.798895474261
 10
160.9343382845374
 20
198.7964242038765
 10
160.9510234416367
 20
198.793916585994
 10
160.9676910565587
 20
198.7913730628239
 10
160.984341172417
 20
198.7887940765754
 10
161.0009738323181
 20
198.7861800694614
 10
161.0175890793882
 20
198.7835314836907
 10
161.0341869567175
 20
198.7808487614788
 10
161.0507675074251
 20
198.7781323450312
 10
161.0673307746376
 20
198.7753826765642
 10
161.0838768014466
 20
198.7726001982879
 10
161.1004056309677
 20
198.7697853524101
 10
161.1169173063182
 20
198.7669385811464
 10
161.1334118706065
 20
198.7640603267059
 10
161.1498893669369
 20
198.7611510312986
 10
161.1663498384379
 20
198.7582111371352
 10
161.1827933281958
 20
198.7552410864323
 10
161.1992198793479
 20
198.7522413213979
 10
161.2156295349879
 20
198.74921228424
 10
161.2320223382386
 20
198.7461544171733
 10
161.2483983321974
 20
198.7430681624086
 10
161.264757559996
 20
198.739953962156
 10
161.2811000647172
 20
198.7368122586281
 10
161.2974258894966
 20
198.7336434940357
 10
161.313735077437
 20
198.7304481105899
 10
161.3300276716574
 20
198.7272265505021
 10
161.3463037152479
 20
198.7239792559836
 10
161.3625632513478
 20
198.7207066692412
 10
161.3788063230469
 20
198.7174092324935
 10
161.3950329734572
 20
198.7140873879475
 10
161.411243245707
 20
198.7107415778141
 10
161.427437182888
 20
198.707372244306
 10
161.4436148281267
 20
198.7039798296341
 10
161.4597762245277
 20
198.7005647760103
 10
161.4759214152083
 20
198.6971275256424
 10
161.4920504432677
 20
198.6936685207451
 10
161.5081633518177
 20
198.6901882035267
 10
161.5242601839756
 20
198.6866870162043
 10
161.5403409828661
 20
198.6831654009806
 10
161.5564057915755
 20
198.6796238000739
 10
161.5724546532266
 20
198.6760626556911
 10
161.5884876109386
 20
198.672482410047
 10
161.6045047078088
 20
198.6688835053487
 10
161.6205059869564
 20
198.6652663838091
 10
161.6364914914877
 20
198.6616314876424
 10
161.6524612645273
 20
198.6579792590542
 10
161.6684153491671
 20
198.654310140258
 10
161.6843537885262
 20
198.6506245734694
 10
161.7002766257166
 20
198.6469230008939
 10
161.7161839038573
 20
198.643205864743
 10
161.7320756660586
 20
198.6394736072321
 10
161.7479519554082
 20
198.6357266705686
 10
161.7638128150367
 20
198.6319654969626
 10
161.7796582880666
 20
198.6281905286283
 10
161.795488417588
 20
198.6244022077785
 10
161.8113032467165
 20
198.6206009766215
 10
161.8271028185765
 20
198.6167872773672
 10
161.8428871762673
 20
198.612961552231
 10
161.8586563628972
 20
198.6091242434172
 10
161.8744104215867
 20
198.6052757931452
 10
161.8901493954464
 20
198.6014166436212
 10
161.9058733275753
 20
198.5975472370578
 10
161.9215822611069
 20
198.593668015667
 10
161.937276239126
 20
198.5897794216586
 10
161.9529553047679
 20
198.5858818972434
 10
161.9686195011265
 20
198.5819758846332
 10
161.9842688713262
 20
198.5780618260393
 10
161.9999034584681
 20
198.5741401636738
 10
162.0155233056677
 20
198.5702113397451
 10
162.0311284560368
 20
198.5662757964705
 10
162.0467189526873
 20
198.5623339760519
 10
162.0622948387255
 20
198.558386320709
 10
162.0778561572671
 20
198.5544332726481
 10
162.0934029514184
 20
198.5504752740822
 10
162.1089352642968
 20
198.5465127672237
 10
162.1244531390158
 20
198.5425461942801
 10
162.1399566186875
 20
198.5385759974647
 10
162.1554457464073
 20
198.5346026189895
 10
162.170920565298
 20
198.5306265010664
 10
162.1863811184768
 20
198.526648085904
 10
162.2018274490466
 20
198.5226678157119
 10
162.2172596001175
 20
198.5186861327079
 10
162.2326776148067
 20
198.5147034790976
 10
162.248081536217
 20
198.5107202970953
 10
162.2634714074676
 20
198.5067370289085
 10
162.2788472716667
 20
198.5027541167516
 10
162.2942091719261
 20
198.4987720028352
 10
162.3095571513669
 20
198.4947911293699
 10
162.3248912530773
 20
198.4908119385659
 10
162.3402115201872
 20
198.4868348726372
 10
162.3555179958068
 20
198.482860373792
 10
162.3708107230369
 20
198.4788888842445
 10
162.3860897449969
 20
198.474920846204
 10
162.4013551047966
 20
198.4709567018803
 10
162.4166068455481
 20
198.4669968934881
 10
162.4318450103575
 20
198.4630418632356
 10
162.447069642337
 20
198.4590920533351
 10
162.4622807846073
 20
198.4551479059987
 10
162.4774784802768
 20
198.4512098634382
 10
162.4926627724464
 20
198.4472783678607
 10
162.507833704237
 20
198.4433538614798
 10
162.5229913187569
 20
198.4394367865085
 10
162.5381356591162
 20
198.4355275851545
 10
162.5532667684267
 20
198.4316266996317
 10
162.5683846898075
 20
198.4277345721516
 10
162.5834894663578
 20
198.4238516449227
 10
162.5985811411876
 20
198.4199783601594
 10
162.6136597574252
 20
198.4161151600697
 10
162.6287253581678
 20
198.4122624868683
 10
162.6437779865256
 20
198.4084207827631
 10
162.6588176856177
 20
198.4045904899654
 10
162.6738444985578
 20
198.4007720506874
 10
162.6888584684376
 20
198.3969659071441
 10
162.7038596383965
 20
198.3931725015377
 10
162.7188480515262
 20
198.3893922760895
 10
162.7338237509386
 20
198.3856256730037
 10
162.7487867797583
 20
198.3818731344932
 10
162.7637371810753
 20
198.3781351027705
 10
162.778674998027
 20
198.3744120200467
 10
162.7936002736962
 20
198.3707043285308
 10
162.8085130512256
 20
198.3670124704355
 10
162.8234133736961
 20
198.3633368879741
 10
162.838301284247
 20
198.3596780233524
 10
162.8531768259665
 20
198.3560363187885
 10
162.8680400419772
 20
198.3524122164876
 10
162.8828909753876
 20
198.3488061586636
 10
162.8977296693075
 20
198.3452185875271
 10
162.9125561668472
 20
198.341649945291
 10
162.9273705111256
 20
198.3381006741615
 10
162.9421727452474
 20
198.3345712163577
 10
162.9569629123263
 20
198.3310620140851
 10
162.971741055476
 20
198.3275735095554
 10
162.9865072178083
 20
198.3241061449794
 10
163.0012614424169
 20
198.32066036257
 10
163.0160037724374
 20
198.3172366045387
 10
163.030734250967
 20
198.3138353130949
 10
163.0454529211267
 20
198.310456930451
 10
163.0601598260174
 20
198.307101898818
 10
163.0748550087475
 20
198.303770660406
 10
163.0895385124469
 20
198.300463657431
 10
163.1042103802075
 20
198.2971813320969
 10
163.1188706551576
 20
198.2939241266191
 10
163.1335193803872
 20
198.2906924832074
 10
163.1481565990263
 20
198.2874868440753
 10
163.1627823541868
 20
198.2843076514287
 10
163.1773966889661
 20
198.2811553474862
 10
163.1919996464759
 20
198.2780303744536
 10
163.2065912698464
 20
198.274933174544
 10
163.2211716021676
 20
198.2718641899687
 10
163.235740686566
 20
198.2688238629385
 10
163.2502985661369
 20
198.2658126356632
 10
163.2648452840087
 20
198.2628309503584
 10
163.2793808832877
 20
198.2598792492294
 10
163.2939054070768
 20
198.2569579744891
 10
163.3084188984878
 20
198.2540675683518
 10
163.3229214006471
 20
198.2512084730266
 10
163.3374129566575
 20
198.2483811307234
 10
163.3518936096163
 20
198.2455859836577
 10
163.3663634026572
 20
198.242823474035
 10
163.3808223788757
 20
198.2400940440689
 10
163.3952705813964
 20
198.2373981359746
 10
163.4097080533168
 20
198.2347361919569
 10
163.4241348377574
 20
198.2321086542292
 10
163.4385509778269
 20
198.2295159650043
 10
163.4529565166369
 20
198.2269585664921
 10
163.4673514972957
 20
198.2244369009055
 10
163.4817359629171
 20
198.2219514104514
 10
163.4961099566073
 20
198.2195025373472
 10
163.5104735214874
 20
198.2170907237973
 10
163.5248267006674
 20
198.2147164120156
 10
163.5391695372574
 20
198.2123800442182
 10
163.5535020743565
 20
198.2100820626087
 10
163.5678243550875
 20
198.2078229094027
 10
163.5821364225677
 20
198.2056030268119
 10
163.5964383198872
 20
198.2034228570423
 10
163.610730090176
 20
198.2012828423098
 10
163.6250117765477
 20
198.1991834248271
 10
163.6392834220962
 20
198.1971250468
 10
163.6535450699459
 20
198.1951081504435
 10
163.6677967632069
 20
198.1931331779684
 10
163.6820385449875
 20
198.1912005715827
 10
163.6962704583958
 20
198.1893107735027
 10
163.7104925465475
 20
198.1874642259359
 10
163.7247048525579
 20
198.185661371093
 10
163.7389074195263
 20
198.1839026511893
 10
163.7531002905772
 20
198.1821885084342
 10
163.7672835088171
 20
198.1805193850373
 10
163.7814571173577
 20
198.1788957232071
 10
163.7956211593074
 20
198.1773179651632
 10
163.8097756777671
 20
198.1757865531094
 10
163.8239207158778
 20
198.1743019292622
 10
163.8380563167167
 20
198.1728645358258
 10
163.8521825234176
 20
198.1714748150175
 10
163.8662993790869
 20
198.1701332090475
 10
163.8804069268382
 20
198.1688401601255
 10
163.8945052097762
 20
198.1675961104615
 10
163.9085942710073
 20
198.1664015022711
 10
163.9226741536578
 20
198.1652567777615
 10
163.936744900827
 20
198.1641623791461
 10
163.9508065556376
 20
198.1631187486332
 10
163.9648591611869
 20
198.1621263284392
 10
163.9789027605977
 20
198.1611855607712
 10
163.9929373969673
 20
198.1602968878384
 10
164.0069631134276
 20
198.159460751856
 10
164.0209799530759
 20
198.1586775950368
 10
164.0349879590259
 20
198.1579478595864
 10
164.0489871743877
 20
198.15727198772
 10
164.0629776422767
 20
198.1566504216475
 10
164.0769594057958
 20
198.1560836035811
 10
164.0909325080767
 20
198.1555719757294
 10
164.1048969921968
 20
198.1551159803071
 10
164.1188529012972
 20
198.1547160595223
 10
164.1328002784877
 20
198.1543726555861
 10
164.1467391668567
 20
198.1540862107145
 10
164.160669609527
 20
198.153857167114
 10
164.1745916496267
 20
198.1536859669965
 10
164.1885053302368
 20
198.1535730525726
 10
164.2024106944965
 20
198.1535188660569
 10
164.2163077854977
 20
198.1535238496567
 10
164.2301966463685
 20
198.1535884455857
 10
164.2440773201971
 20
198.1537130960538
 10
164.2579498501174
 20
198.1538982432734
 10
164.2718142792266
 20
198.1541443294541
 10
164.2856706506383
 20
198.1544517968074
 10
164.2995190074754
 20
198.1548210875449
 10
164.313359392837
 20
198.1552526438777
 10
164.3271918498368
 20
198.1557469080185
 10
164.3410164215867
 20
198.1563043221772
 10
164.3548331511967
 20
198.1569253285638
 10
164.3686420817768
 20
198.1576103693902
 10
164.3824432564462
 20
198.1583598868697
 10
164.3962367183077
 20
198.1591743232097
 10
164.4100225104768
 20
198.1600541206239
 10
164.4238006760672
 20
198.1609997213259
 10
164.437571258187
 20
198.16201156752
 10
164.4513342999373
 20
198.1630901014237
 10
164.4650898444462
 20
198.1642357652459
 10
164.4788379348166
 20
198.1654490011983
 10
164.4925786141659
 20
198.1667302514902
 10
164.5063119255966
 20
198.1680799583332
 10
164.5200379122172
 20
198.169498563942
 10
164.5337566171576
 20
198.1709865105244
 10
164.5474680835171
 20
198.1725442402936
 10
164.5611723543963
 20
198.1741721954555
 10
164.5748694729256
 20
198.1758708182292
 10
164.5885594822077
 20
198.1776405508221
 10
164.602242425358
 20
198.1794818354451
 10
164.6159183454758
 20
198.18139511431
 10
164.6295872856873
 20
198.1833808296256
 10
164.6432492890882
 20
198.1854394236075
 10
164.6569043988086
 20
198.1875713384638
 10
164.6705526579382
 20
198.1897770164055
 10
164.6841941096074
 20
198.1920568996444
 10
164.6978287969171
 20
198.1944114303939
 10
164.7114567629881
 20
198.1968410508621
 10
164.7250780509177
 20
198.199346203262
 10
164.738692703838
 20
198.2019273298051
 10
164.7523007648262
 20
198.2045848726999
 10
164.7659022770269
 20
198.2073192741624
 10
164.7794972835374
 20
198.210130976398
 10
164.7930858274678
 20
198.2130204216197
 10
164.8066679519262
 20
198.2159880520417
 10
164.8202437000374
 20
198.2190343098723
 10
164.8338131149077
 20
198.2221596373251
 10
164.8473762396381
 20
198.2253644766057
 10
164.8609331173458
 20
198.2286492699345
 10
164.8744837911574
 20
198.2320144595146
 10
164.8880283041573
 20
198.2354604875605
 10
164.9015666994666
 20
198.2389877962811
 10
164.915099020208
 20
198.2425968278935
 10
164.928625309488
 20
198.2462880246026
 10
164.9421456104075
 20
198.2500618286209
 10
164.9556599660874
 20
198.253918682161
 10
164.969168419627
 20
198.2578590274357
 10
164.982671014158
 20
198.2618833066522
 10
164.996167792776
 20
198.2659919620233
 10
165.0096587985965
 20
198.2701854357625
 10
165.0231440747276
 20
198.2744641700779
 10
165.0366236642869
 20
198.2788286071824
 10
165.0500976103878
 20
198.2832791892856
 10
165.0635659561368
 20
198.2878163585987
 10
165.0770287446386
 20
198.2924405573335
 10
165.0904860190086
 20
198.2971522277044
 10
165.1039378223678
 20
198.3019518119187
 10
165.1173841978172
 20
198.306839752188
 10
165.1308251884667
 20
198.311816490726
 10
165.1442608374374
 20
198.3168824697392
 10
165.1576911878266
 20
198.3220381314419
 10
165.1711162827661
 20
198.3272839180477
 10
165.1845361653478
 20
198.3326202717621
 10
165.1979508786873
 20
198.3380476347988
 10
165.2113604658963
 20
198.3435664493731
 10
165.2247649700977
 20
198.3491771576906
 10
165.2381644343962
 20
198.3548802019619
 10
165.2515589018868
 20
198.3606760244051
 10
165.2649484157074
 20
198.3665650672232
 10
165.2783330189478
 20
198.3725477726334
 10
165.2917127547272
 20
198.3786245828438
 10
165.3014658147178
 20
198.3831247709409
  0
ARC
  5
202
330
2
100
AcDbEntity
  8
0
 48
0.6
100
AcDbCircle
 10
385.0279736347299
 20
294.2297946026862
 30
0.0
 40
246.586017150636
100
AcDbArc
 50
197.5242094382315
 51
202.8813571236526
  0
ARC
  5
203
330
2
100
AcDbEntity
  8
0
100
AcDbCircle
 10
155.1765645246814
 20
220.1554626815358
 30
0.0
 40
1.804069955425965
100
AcDbArc
 50
94.04501748590988
 51
178.3692744375835
  0
LINE
  5
204
330
2
100
AcDbEntity
  8
0
100
AcDbLine
 10
158.384899957622
 20
222.5553627849802
 30
0.0
 11
149.384899957622
 21
222.5553627849802
 31
0.0
  0
LINE
  5
205
330
2
100
AcDbEntity
  8
0
100
AcDbLine
 10
141.384899957622
 20
223.0553627849793
 30
0.0
 11
147.9848999576224
 21
223.0553627849793
 31
0.0
  0
LINE
  5
206
330
2
100
AcDbEntity
  8
0
100
AcDbLine
 10
141.384899957622
 20
227.0553627849803
 30
0.0
 11
139.384899957622
 21
227.0553627849803
 31
0.0
  0
LINE
  5
207
330
2
100
AcDbEntity
  8
0
100
AcDbLine
 10
153.3732252212229
 20
220.2068023411547
 30
0.0
 11
153.3732252212229
 21
219.5857030555543
 31
0.0
  0
LINE
  5
208
330
2
100
AcDbEntity
  8
0
100
AcDbLine
 10
147.9848999576224
 20
224.9566254434511
 30
0.0
 11
148.884899957622
 21
224.9566254434511
 31
0.0
  0
ARC
  5
209
330
2
100
AcDbEntity
  8
0
 48
0.6
100
AcDbCircle
 10
190.483827893524
 20
222.3913283091295
 30
0.0
 40
37.855792
100
AcDbArc
 50
179.8658330000312
 51
183.9724199931055
  0
ARC
  5
20A
330
2
100
AcDbEntity
  8
0
 48
0.6
100
AcDbCircle
 10
190.1876219576224
 20
222.4667167849811
 30
0.0
 40
39.15579199999999
100
AcDbArc
 50
179.8702870000233
 51
183.6102158837779
  0
LINE
  5
20B
330
2
100
AcDbEntity
  8
0
100
AcDbLine
 10
148.884899957622
 20
223.5553627849804
 30
0.0
 11
148.884899957622
 21
223.0553627849793
 31
0.0
  0
ARC
  5
20C
330
2
100
AcDbEntity
  8
0
100
AcDbCircle
 10
149.384899957622
 20
223.0553627849793
 30
0.0
 40
0.5
100
AcDbArc
 50
180.0
 51
270.0
  0
LINE
  5
20D
330
2
100
AcDbEntity
  8
0
100
AcDbLine
 10
157.8553281464319
 20
216.4727628116196
 30
0.0
 11
157.8553281464319
 21
216.3384947132144
 31
0.0
  0
ARC
  5
20E
330
2
100
AcDbEntity
  8
0
100
AcDbCircle
 10
158.3550138993031
 20
216.455038580465
 30
0.0
 40
0.5
100
AcDbArc
 50
90.0
 51
177.9685271120391
  0
ARC
  5
20F
330
2
100
AcDbEntity
  8
0
 48
0.6
100
AcDbCircle
 10
190.1876219576224
 20
222.4667167849811
 30
0.0
 40
33.95579199999998
100
AcDbArc
 50
179.85042300002
 51
180.8634200380007
  0
LINE
  5
210
330
2
100
AcDbEntity
  8
0
100
AcDbLine
 10
158.884899957622
 20
223.5553627849804
 30
0.0
 11
158.884899957622
 21
223.0553627849793
 31
0.0
  0
ARC
  5
211
330
2
100
AcDbEntity
  8
0
100
AcDbCircle
 10
158.384899957622
 20
223.0553627849793
 30
0.0
 40
0.5
100
AcDbArc
 50
270.0
 51
0.0
  0
ARC
  5
212
330
2
100
AcDbEntity
  8
0
 48
0.6
100
AcDbCircle
 10
189.895127904403
 20
222.5530278939859
 30
0.0
 40
35.255792
100
AcDbArc
 50
179.9962054631615
 51
181.0943561937651
  0
LINE
  5
213
330
2
100
AcDbEntity
  8
0
100
AcDbLine
 10
141.384899957622
 20
314.0553627849793
 30
0.0
 11
141.384899957622
 21
223.0553627849793
 31
0.0
  0
LINE
  5
214
102
{ACAD_REACTORS
330
219
102
}
330
2
100
AcDbEntity
  8
0
100
AcDbLine
 10
139.384899957622
 20
310.0553627849803
 30
0.0
 11
139.384899957622
 21
227.0553627849803
 31
0.0
  0
LINE
  5
215
330
2
100
AcDbEntity
  8
0
100
AcDbLine
 10
147.9848999576224
 20
314.0553627849793
 30
0.0
 11
147.9848999576224
 21
223.0553627849793
 31
0.0
  0
LINE
  5
216
330
2
100
AcDbEntity
  8
0
100
AcDbLine
 10
148.884899957622
 20
232.656625443451
 30
0.0
 11
148.884899957622
 21
224.9566254434511
 31
0.0
  0
DIMENSION
  5
217
102
{ACAD_XDICTIONARY
360
218
102
}
102
{ACAD_REACTORS
330
219
102
}
330
2
100
AcDbEntity
  8
0
100
AcDbDimension
  2
*D39
 10
103.1175863935823
 20
227.0553627849803
 30
0.0
 11
103.1175863935823
 21
268.5553627849803
 31
0.0
 70
   160
  1
\A1;{\f??|b0|i0|c0|p49;%%C}<>{\f??|b0|i0|c0|p49;\H0.7x;\S+0^ -0.035;\H1.429x;(h}7{\f??|b0|i0|c0|p49;)}
  3
1_1_2
100
AcDbAlignedDimension
 13
139.384899957622
 23
310.0553627849803
 33
0.0
 14
139.384899957622
 24
227.0553627849803
 34
0.0
 50
90.0
100
AcDbRotatedDimension
  0
LINE
  5
226
330
2
100
AcDbEntity
  8
0
100
AcDbLine
 10
155.0493049942524
 20
221.9550385804595
 30
0.0
 11
268.4466308742611
 21
221.9550385804641
 31
0.0
  0
LINE
  5
227
330
2
100
AcDbEntity
  8
0
100
AcDbLine
 10
158.3550138993031
 20
216.955038580465
 30
0.0
 11
271.9464359685316
 21
216.955038580465
 31
0.0
  0
LINE
  5
228
330
2
100
AcDbEntity
  8
0
100
AcDbLine
 10
271.100101746073
 20
223.5553627849804
 30
0.0
 11
147.9848999576224
 21
223.5553627849804
 31
0.0
  0
LINE
  5
229
330
2
100
AcDbEntity
  8
0
100
AcDbLine
 10
295.4756224483226
 20
313.5553627849803
 30
0.0
 11
147.9848999576224
 21
313.5553627849803
 31
0.0
  0
DIMENSION
  5
22A
102
{ACAD_XDICTIONARY
360
22B
102
}
102
{ACAD_REACTORS
330
22C
102
}
330
2
100
AcDbEntity
  8
0
100
AcDbDimension
  2
*D38
 10
148.884899957622
 20
338.0123365801463
 30
0.0
 11
145.134899957622
 21
338.0123365801463
 31
0.0
 70
   160
  3
1_1_2
100
AcDbAlignedDimension
 13
141.384899957622
 23
313.7636961183143
 33
0.0
 14
148.884899957622
 24
312.1541001265104
 34
0.0
100
AcDbRotatedDimension
  0
DIMENSION
  5
23B
330
2
100
AcDbEntity
  8
0
100
AcDbDimension
  2
*D37
 10
141.384899957622
 20
326.1880163492296
 30
0.0
 11
130.384899957622
 21
326.1880163492296
 31
0.0
 70
   160
  3
1_1_2
100
AcDbAlignedDimension
 13
139.384899957622
 23
310.0553627849803
 33
0.0
 14
141.384899957622
 24
313.5553627849803
 34
0.0
100
AcDbRotatedDimension
  0
DIMENSION
  5
24A
330
2
100
AcDbEntity
  8
0
100
AcDbDimension
  2
*D36
 10
141.384899957622
 20
351.4234315150233
 30
0.0
 11
130.884899957622
 21
351.4234315150233
 31
0.0
 70
   160
  3
1_1_2
100
AcDbAlignedDimension
 13
120.384899957622
 23
273.2053627849808
 33
0.0
 14
141.384899957622
 24
313.7636961183143
 34
0.0
100
AcDbRotatedDimension
  0
LWPOLYLINE
  5
257
330
2
100
AcDbEntity
  8
0
 62
     3
100
AcDbPolyline
 90
        4
 70
     1
 43
0.0
 10
25.63970331017298
 20
334.7717419627223
 10
28.28000029620307
 20
334.7717419627223
 10
28.28000029620307
 20
337.8405587804254
 10
25.63970331017298
 20
337.8405587804254
  0
MTEXT
  5
258
102
{ACAD_REACTORS
330
299
102
}
330
2
100
AcDbEntity
  8
0
 62
     3
100
AcDbMText
 10
58.45822601191139
 20
326.0273651105644
 30
0.0
 40
3.5
 41
0.0
 71
     9
 72
     1
  1
4-%%C6.5 hole
1001
ACAD
1000
MTEXTBEGIN
1070
    73
1070
     1
1070
    44
1040
1.0
1070
    74
1070
     0
1000
MTEXTEND
1000
MTEXTBEGIN
1070
    73
1070
     1
1070
    44
1040
1.0
1070
    74
1070
     0
1000
MTEXTEND
  0
LINE
  5
259
330
2
100
AcDbEntity
  8
CL
 48
0.6
100
AcDbLine
 10
-17.88895622540803
 20
268.5553627849803
 30
0.0
 11
80.61759620339215
 21
268.5553627849803
 31
0.0
  0
CIRCLE
  5
25A
330
2
100
AcDbEntity
  8
0
 48
0.6
100
AcDbCircle
 10
31.36431998899205
 20
268.5553627849803
 30
0.0
 40
43.5
  0
CIRCLE
  5
25B
330
2
100
AcDbEntity
  8
0
 48
0.6
100
AcDbCircle
 10
31.36431998899205
 20
268.5553627849803
 30
0.0
 40
42.00000000000005
  0
LWPOLYLINE
  5
25C
330
2
100
AcDbEntity
  8
0
100
AcDbPolyline
 90
        8
 70
     1
 43
0.0
 10
-8.635680011007933
 20
223.5553627849793
 10
71.36431998899206
 20
223.5553627849804
 42
0.4142135623730951
 10
76.36431998899206
 20
228.5553627849802
 10
76.36431998899206
 20
308.5553627849804
 42
0.4142135623730951
 10
71.36431998899206
 20
313.5553627849803
 10
-8.635680011007933
 20
313.5553627849803
 42
0.4142135623730951
 10
-13.63568001100793
 20
308.5553627849804
 10
-13.63568001100793
 20
228.5553627849794
 42
0.4142135623730951
  0
ARC
  5
25D
330
2
100
AcDbEntity
  8
CL
 48
0.6
100
AcDbCircle
 10
31.36431998899205
 20
268.5553627849803
 30
0.0
 40
51.9999999999996
100
AcDbArc
 50
215.90024337538
 51
234.0997566246191
  0
ARC
  5
25E
330
2
100
AcDbEntity
  8
0
 48
0.6
100
AcDbCircle
 10
31.2888556748021
 20
268.5553627849803
 30
0.0
 40
36.81561599999999
100
AcDbArc
 50
296.3656725032108
 51
333.6343274967831
  0
ARC
  5
25F
330
2
100
AcDbEntity
  8
0
 48
0.6
100
AcDbCircle
 10
31.2888556748021
 20
268.5553627849803
 30
0.0
 40
36.81561599999999
100
AcDbArc
 50
206.3656725032168
 51
243.634327496789
  0
CIRCLE
  5
260
330
2
100
AcDbEntity
  8
0
100
AcDbCircle
 10
-5.405232632707337
 20
231.785810163279
 30
0.0
 40
3.25
  0
LINE
  5
261
330
2
100
AcDbEntity
  8
CL
 48
0.6
100
AcDbLine
 10
-1.692922031475973
 20
235.4981207645087
 30
0.0
 11
-9.117543233936883
 21
228.0734995620513
 31
0.0
  0
ARC
  5
262
330
2
100
AcDbEntity
  8
0
 48
0.6
100
AcDbCircle
 10
20.08356663474114
 20
233.4864152816961
 30
0.0
 40
3.067967999999998
100
AcDbArc
 50
72.28019184719491
 51
128.0513255193867
  0
ARC
  5
263
330
2
100
AcDbEntity
  8
0
 48
0.6
100
AcDbCircle
 10
16.30157738670276
 20
238.3182128689104
 30
0.0
 40
3.067967999999998
100
AcDbArc
 50
243.634327496789
 51
308.0513255193868
  0
ARC
  5
264
330
2
100
AcDbEntity
  8
0
 48
0.6
100
AcDbCircle
 10
42.49414471487397
 20
233.4864152816961
 30
0.0
 40
3.067967999999998
100
AcDbArc
 50
51.94867448061305
 51
107.7198081528049
  0
ARC
  5
265
330
2
100
AcDbEntity
  8
0
 48
0.6
100
AcDbCircle
 10
46.27613396291234
 20
238.3182128689104
 30
0.0
 40
3.067967999999998
100
AcDbArc
 50
231.948674480613
 51
296.3656725032108
  0
ARC
  5
266
330
2
100
AcDbEntity
  8
0
 48
0.6
100
AcDbCircle
 10
31.2888556748021
 20
268.5553627849803
 30
0.0
 40
33.74764799999999
100
AcDbArc
 50
252.2801918471949
 51
287.7198081528051
  0
CIRCLE
  5
267
330
2
100
AcDbEntity
  8
0
100
AcDbCircle
 10
68.13387261069147
 20
231.785810163279
 30
0.0
 40
3.25
  0
LINE
  5
268
330
2
100
AcDbEntity
  8
CL
 48
0.6
100
AcDbLine
 10
64.42156200946192
 20
235.4981207645087
 30
0.0
 11
71.84618321192282
 21
228.0734995620513
 31
0.0
  0
ARC
  5
269
330
2
100
AcDbEntity
  8
CL
 48
0.6
100
AcDbCircle
 10
31.36431998899205
 20
268.5553627849803
 30
0.0
 40
52.0
100
AcDbArc
 50
309.2128702778031
 51
320.7871297221961
  0
CIRCLE
  5
26A
330
2
100
AcDbEntity
  8
0
100
AcDbCircle
 10
-5.405232632707337
 20
305.3249154066816
 30
0.0
 40
3.25
  0
LINE
  5
26B
330
2
100
AcDbEntity
  8
CL
 48
0.6
100
AcDbLine
 10
-1.692922031475973
 20
301.612604805452
 30
0.0
 11
-9.117543233936883
 21
309.0372260079093
 31
0.0
  0
ARC
  5
26C
330
2
100
AcDbEntity
  8
CL
 48
0.6
100
AcDbCircle
 10
31.36431998899205
 20
268.5553627849803
 30
0.0
 40
52.0
100
AcDbArc
 50
129.2128702778031
 51
140.7871297221961
  0
ARC
  5
26D
330
2
100
AcDbEntity
  8
0
 48
0.6
100
AcDbCircle
 10
31.2888556748021
 20
268.5553627849803
 30
0.0
 40
36.81561599999999
100
AcDbArc
 50
26.36567250321681
 51
63.63432749678904
  0
ARC
  5
26E
330
2
100
AcDbEntity
  8
0
 48
0.6
100
AcDbCircle
 10
31.2888556748021
 20
268.5553627849803
 30
0.0
 40
36.81561599999999
100
AcDbArc
 50
116.3656725032109
 51
153.634327496783
  0
ARC
  5
26F
330
2
100
AcDbEntity
  8
0
 48
0.6
100
AcDbCircle
 10
1.051705758733078
 20
283.5426410730823
 30
0.0
 40
3.067967999999998
100
AcDbArc
 50
153.634327496783
 51
218.0513255193776
  0
ARC
  5
270
330
2
100
AcDbEntity
  8
0
 48
0.6
100
AcDbCircle
 10
-3.780091828477451
 20
279.7606518250431
 30
0.0
 40
3.067967999999998
100
AcDbArc
 50
342.2801918472013
 51
38.05132551937779
  0
ARC
  5
271
330
2
100
AcDbEntity
  8
0
 48
0.6
100
AcDbCircle
 10
20.08356663474114
 20
303.6243102882635
 30
0.0
 40
3.067967999999998
100
AcDbArc
 50
231.948674480613
 51
287.7198081528051
  0
ARC
  5
272
330
2
100
AcDbEntity
  8
0
 48
0.6
100
AcDbCircle
 10
16.30157738670276
 20
298.7925127010484
 30
0.0
 40
3.067967999999998
100
AcDbArc
 50
51.94867448061305
 51
116.3656725032109
  0
ARC
  5
273
330
2
100
AcDbEntity
  8
0
 48
0.6
100
AcDbCircle
 10
42.49414471487397
 20
303.6243102882635
 30
0.0
 40
3.067967999999998
100
AcDbArc
 50
252.2801918471949
 51
308.0513255193868
  0
ARC
  5
274
330
2
100
AcDbEntity
  8
0
 48
0.6
100
AcDbCircle
 10
46.27613396291234
 20
298.7925127010484
 30
0.0
 40
3.067967999999998
100
AcDbArc
 50
63.63432749678904
 51
128.0513255193867
  0
ARC
  5
275
330
2
100
AcDbEntity
  8
0
 48
0.6
100
AcDbCircle
 10
31.2888556748021
 20
268.5553627849803
 30
0.0
 40
33.74764799999999
100
AcDbArc
 50
72.28019184719491
 51
107.7198081528049
  0
ARC
  5
276
330
2
100
AcDbEntity
  8
0
 48
0.6
100
AcDbCircle
 10
61.52600559088204
 20
283.5426410730823
 30
0.0
 40
3.067967999999998
100
AcDbArc
 50
321.9486744806221
 51
26.36567250321681
  0
ARC
  5
277
330
2
100
AcDbEntity
  8
0
 48
0.6
100
AcDbCircle
 10
66.35780317809075
 20
279.7606518250431
 30
0.0
 40
3.067967999999998
100
AcDbArc
 50
141.9486744806222
 51
197.7198081527984
  0
ARC
  5
278
102
{ACAD_REACTORS
330
29C
102
}
330
2
100
AcDbEntity
  8
CL
 48
0.6
100
AcDbCircle
 10
31.36431998899205
 20
268.5553627849803
 30
0.0
 40
51.9999999999996
100
AcDbArc
 50
35.9002433753803
 51
54.09975662461928
  0
LINE
  5
279
330
2
100
AcDbEntity
  8
CL
 48
0.6
100
AcDbLine
 10
64.42156200946192
 20
301.612604805452
 30
0.0
 11
71.84618321192282
 21
309.0372260079093
 31
0.0
  0
CIRCLE
  5
27A
330
2
100
AcDbEntity
  8
0
100
AcDbCircle
 10
68.13387261069147
 20
305.3249154066798
 30
0.0
 40
3.25
  0
ARC
  5
27B
330
2
100
AcDbEntity
  8
0
 48
0.6
100
AcDbCircle
 10
1.051705758733078
 20
253.5680844968773
 30
0.0
 40
3.067967999999998
100
AcDbArc
 50
141.9486744806222
 51
206.3656725032168
  0
ARC
  5
27C
330
2
100
AcDbEntity
  8
0
 48
0.6
100
AcDbCircle
 10
61.52600559088204
 20
253.5680844968773
 30
0.0
 40
3.067967999999998
100
AcDbArc
 50
333.6343274967831
 51
38.05132551937779
  0
ARC
  5
27D
330
2
100
AcDbEntity
  8
0
 48
0.6
100
AcDbCircle
 10
-3.780091828477451
 20
257.3500737449176
 30
0.0
 40
3.067967999999998
100
AcDbArc
 50
321.9486744806221
 51
17.71980815279839
  0
ARC
  5
27E
330
2
100
AcDbEntity
  8
0
 48
0.6
100
AcDbCircle
 10
66.35780317809075
 20
257.3500737449176
 30
0.0
 40
3.067967999999998
100
AcDbArc
 50
162.2801918472015
 51
218.0513255193776
  0
ARC
  5
27F
330
2
100
AcDbEntity
  8
0
 48
0.6
100
AcDbCircle
 10
31.2888556748021
 20
268.5553627849803
 30
0.0
 40
33.74764799999999
100
AcDbArc
 50
162.2801918472015
 51
197.7198081527984
  0
CIRCLE
  5
280
330
2
100
AcDbEntity
  8
0
 48
0.6
100
AcDbCircle
 10
31.36431998899205
 20
268.5553627849803
 30
0.0
 40
6.0
  0
ARC
  5
281
330
2
100
AcDbEntity
  8
0
 48
0.6
100
AcDbCircle
 10
31.2888556748021
 20
268.5553627849803
 30
0.0
 40
33.74764799999999
100
AcDbArc
 50
342.2801918472013
 51
17.71980815279839
  0
CIRCLE
  5
282
330
2
100
AcDbEntity
  8
0
 48
0.6
100
AcDbCircle
 10
31.36431998899205
 20
268.5553627849803
 30
0.0
 40
20.0
  0
LINE
  5
283
330
2
100
AcDbEntity
  8
0
 48
0.6
100
AcDbLine
 10
52.72760530547384
 20
223.5553627849804
 30
0.0
 11
46.98655507894182
 21
223.5553627849804
 31
0.0
  0
LWPOLYLINE
  5
284
330
2
100
AcDbEntity
  8
0
100
AcDbPolyline
 90
      548
 70
     0
 43
0.0
 10
55.4097618126725
 20
208.5313111914073
 10
55.4127772277916
 20
208.5458846061918
 10
55.41632567911256
 20
208.5625442948603
 10
55.41995309730372
 20
208.5790973403263
 10
55.42365922757197
 20
208.5955440984597
 10
55.42744381519151
 20
208.611884925137
 10
55.43130660539099
 20
208.6281201762249
 10
55.4352473434119
 20
208.6442502076006
 10
55.43926577450292
 20
208.6602753751385
 10
55.44336164390371
 20
208.6761960347057
 10
55.447534696852
 20
208.6920125421801
 10
55.45178467860204
 20
208.7077252534327
 10
55.4561113343825
 20
208.7233345243365
 10
55.46051440944211
 20
208.7388407107645
 10
55.46499364902229
 20
208.754244168589
 10
55.46954879837358
 20
208.7695452536826
 10
55.47417960273197
 20
208.7847443219216
 10
55.47888580733161
 20
208.7998417291728
 10
55.48366715742304
 20
208.8148378313153
 10
55.48852339825316
 20
208.8297329842162
 10
55.4934542750616
 20
208.8445275437516
 10
55.49845953308249
 20
208.8592218657959
 10
55.50353891757186
 20
208.8738163062198
 10
55.50869217376202
 20
208.8883112208923
 10
55.51391904689079
 20
208.9027069656949
 10
55.51921928222327
 20
208.9170038964929
 10
55.52459262498269
 20
208.9312023691635
 10
55.53003882041229
 20
208.9453027395774
 10
55.53555761376082
 20
208.959305363609
 10
55.54114875027335
 20
208.9732105971306
 10
55.5468119751822
 20
208.9870187960122
 10
55.55254703373248
 20
209.0007303161327
 10
55.55835367117289
 20
209.0143455133592
 10
55.56423163275393
 20
209.027864743567
 10
55.57018066369164
 20
209.0412883626313
 10
55.57620050924197
 20
209.0546167264183
 10
55.58229091466272
 20
209.0678501908086
 10
55.58845162517354
 20
209.0809891116705
 10
55.59468238602312
 20
209.0940338448771
 10
55.60098294246199
 20
209.1069847463003
 10
55.6073530397316
 20
209.1198421718154
 10
55.61379242306248
 20
209.1326064772964
 10
55.62030083770332
 20
209.1452780186136
 10
55.62687802891196
 20
209.157857151641
 10
55.63352374190253
 20
209.1703442322476
 10
55.64023772194196
 20
209.1827396163124
 10
55.64701971426257
 20
209.1950436597071
 10
55.65386946410217
 20
209.2072567183013
 10
55.66078671671129
 20
209.2193791479667
 10
55.66777121733139
 20
209.231411304583
 10
55.67482271120389
 20
209.243353544015
 10
55.68194094356296
 20
209.2552062221439
 10
55.68912565966275
 20
209.2669696948342
 10
55.6963766047411
 20
209.2786443179657
 10
55.70369352404305
 20
209.2902304474064
 10
55.71107616281188
 20
209.3017284390325
 10
55.71852426628175
 20
209.3131386487139
 10
55.72603757970319
 20
209.3244614323248
 10
55.73361584831218
 20
209.3356971457378
 10
55.74125881736289
 20
209.3468461448283
 10
55.74896623209133
 20
209.357908785464
 10
55.75673783773344
 20
209.3688854235233
 10
55.76457337954161
 20
209.3797764148785
 10
55.77247260274271
 20
209.3905821153948
 10
55.78043525260365
 20
209.4013028809539
 10
55.7884610743531
 20
209.411939067425
 10
55.79654981323256
 20
209.4224910306802
 10
55.80470121448342
 20
209.4329591265958
 10
55.81291502335261
 20
209.4433437110391
 10
55.82119098507246
 20
209.4536451398917
 10
55.82952884490261
 20
209.4638637690168
 10
55.83792834807354
 20
209.4739999542925
 10
55.8463892398413
 20
209.4840540515905
 10
55.85491126542365
 20
209.4940264167834
 10
55.86349417009296
 20
209.5039174057465
 10
55.87213769906156
 20
209.5137273743474
 10
55.88084159760365
 20
209.5234566784646
 10
55.88960561093154
 20
209.5331056739659
 10
55.89842948430304
 20
209.5426747167302
 10
55.90731296296143
 20
209.5521641626219
 10
55.91625579214086
 20
209.5615743675242
 10
55.92525771710278
 20
209.5709056873011
 10
55.93431848306136
 20
209.580158477831
 10
55.94343783528348
 20
209.5893330949848
 10
55.95261551900329
 20
209.5984298946331
 10
55.96185127945318
 20
209.6074492326541
 10
55.97114486189092
 20
209.6163914649159
 10
55.98049601155253
 20
209.6252569472899
 10
55.98990447368304
 20
209.6340460356568
 10
55.99936999352394
 20
209.6427590858829
 10
56.00889231631118
 20
209.6513964538408
 10
56.01847118729165
 20
209.6599584954083
 10
56.02810635171227
 20
209.6684455664525
 10
56.03779755481264
 20
209.6768580228508
 10
56.04754454184149
 20
209.6851962204755
 10
56.05734705802388
 20
209.6934605151945
 10
56.06720484861217
 20
209.701651262887
 10
56.07711765885325
 20
209.7097688194226
 10
56.08708523399219
 20
209.7178135406756
 10
56.09710731926134
 20
209.7257857825161
 10
56.10718365990216
 20
209.733685900821
 10
56.11731400116332
 20
209.74151425146
 10
56.12749808829176
 20
209.7492711903087
 10
56.13773566652344
 20
209.7569570732348
 10
56.14802648110345
 20
209.7645722561173
 10
56.15837027726229
 20
209.772117094826
 10
56.16876680026144
 20
209.7795919452346
 10
56.17921579533322
 20
209.7869971632144
 10
56.18971700772272
 20
209.7943331046399
 10
56.20027018267318
 20
209.8016001253844
 10
56.21087506542244
 20
209.8087985813172
 10
56.22153140121191
 20
209.8159288283167
 10
56.2322389352921
 20
209.8229912222513
 10
56.24299741290268
 20
209.8299861189943
 10
56.25380657928325
 20
209.83691387442
 10
56.26466617968254
 20
209.8437748444011
 10
56.27557595933286
 20
209.8505693848109
 10
56.28653566349203
 20
209.8572978515211
 10
56.2975450373815
 20
209.8639606004053
 10
56.30860382626088
 20
209.8705579873338
 10
56.31971177536252
 20
209.8770903681852
 10
56.3308686299424
 20
209.883558098827
 10
56.342074135222
 20
209.8899615351319
 10
56.35332803646271
 20
209.8963010329798
 10
56.36463007890234
 20
209.9025769482349
 10
56.37598000778234
 20
209.9087896367727
 10
56.38737756833143
 20
209.9149394544691
 10
56.39882250582378
 20
209.9210267571943
 10
56.41031456547352
 20
209.9270519008231
 10
56.42185349253303
 20
209.9330152412249
 10
56.43343903224195
 20
209.9389171342753
 10
56.44507092984166
 20
209.9447579358465
 10
56.45674893058276
 20
209.9505380018107
 10
56.46847277970301
 20
209.9562576880424
 10
56.48024222245293
 20
209.9619173504114
 10
56.492057004054
 20
209.9675173447949
 10
56.50391686977309
 20
209.9730580270634
 10
56.51582156483164
 20
209.9785397530886
 10
56.52777083448381
 20
209.983962878744
 10
56.53976442397288
 20
209.9893277599067
 10
56.55180207854209
 20
209.9946347524419
 10
56.5638835434238
 20
209.9998842122276
 10
56.57600856387215
 20
210.0050764951356
 10
56.58817688512318
 20
210.0102119570374
 10
56.6003882524219
 20
210.0152909538091
 10
56.61264241100251
 20
210.0203138413198
 10
56.62493910612283
 20
210.0252809754455
 10
56.63727808302247
 20
210.0301927120571
 10
56.64965908693375
 20
210.0350494070279
 10
56.66208186310178
 20
210.0398514162316
 10
56.67454615677343
 20
210.0445990955385
 10
56.68705171318288
 20
210.0492928008243
 10
56.69959827759157
 20
210.0539328879603
 10
56.71218559522277
 20
210.0585197128202
 10
56.72481341132335
 20
210.0630536312783
 10
56.73748147114203
 20
210.0675349992034
 10
56.75018951991297
 20
210.0719641724708
 10
56.76293730289035
 20
210.0763415069549
 10
56.77572456530288
 20
210.0806673585247
 10
56.78855105240291
 20
210.0849420830535
 10
56.80141650943369
 20
210.0891660364195
 10
56.81432068162211
 20
210.0933395744914
 10
56.82726331423328
 20
210.0974630531426
 10
56.84024415249222
 20
210.1015368282431
 10
56.85326294165133
 20
210.1055612556691
 10
56.86631942695203
 20
210.109536691295
 10
56.87941335363212
 20
210.1134634909913
 10
56.89254446694213
 20
210.1173420106314
 10
56.9057125121126
 20
210.1211726060864
 10
56.91891723439221
 20
210.1249556332313
 10
56.93215837902243
 20
210.1286914479386
 10
56.9454356912538
 20
210.1323804060793
 10
56.95874891631138
 20
210.1360228635293
 10
56.97209779945296
 20
210.1396191761595
 10
56.98548208592365
 20
210.1431696998424
 10
56.99890152095213
 20
210.1466747904531
 10
57.01235584978167
 20
210.1501348038608
 10
57.02584481767189
 20
210.1535500959434
 10
57.03936816984242
 20
210.1569210225669
 10
57.05292565156195
 20
210.1602479396123
 10
57.06651700804105
 20
210.1635312029465
 10
57.08014198455202
 20
210.1667711684449
 10
57.09380032632179
 20
210.1699681919789
 10
57.10749177859178
 20
210.1731226294205
 10
57.12121608661255
 20
210.1762348366472
 10
57.13497299562368
 20
210.1793051695258
 10
57.148762250863
 20
210.1823339839329
 10
57.16258359758285
 20
210.185321635744
 10
57.17643678101193
 20
210.1882684808241
 10
57.19032154640263
 20
210.1911748750517
 10
57.20423763900362
 20
210.1940411743006
 10
57.21818480404181
 20
210.1968677344375
 10
57.23216278676227
 20
210.1996549113428
 10
57.24617133241189
 20
210.2024030608844
 10
57.26021018624122
 20
210.2051125389361
 10
57.27427909348262
 20
210.2077837013712
 10
57.28837779938293
 20
210.2104169040631
 10
57.30250604917273
 20
210.2130125028834
 10
57.31666358811161
 20
210.2155708537066
 10
57.33085016143196
 20
210.218092312405
 10
57.34506551438244
 20
210.2205772348497
 10
57.35930939220271
 20
210.2230259769156
 10
57.37358154013236
 20
210.2254388944756
 10
57.38788170342377
 20
210.2278163434011
 10
57.402209627302
 20
210.2301586795646
 10
57.41656505702303
 20
210.2324662588406
 10
57.43094773782285
 20
210.2347394371008
 10
57.44535741495383
 20
210.2369785702202
 10
57.45979383365375
 20
210.2391840140699
 10
57.47425673915313
 20
210.241356124522
 10
57.48874587670253
 20
210.2434952574502
 10
57.50326099155246
 20
210.2456017687289
 10
57.51780182894254
 20
210.247676014229
 10
57.53236813411239
 20
210.2497183498234
 10
57.54695965229256
 20
210.2517291313861
 10
57.56157612874268
 20
210.2537087147866
 10
57.57621730870233
 20
210.2556574559021
 10
57.59088293741297
 20
210.2575757106041
 10
57.6055727601124
 20
210.2594638347655
 10
57.62028652205299
 20
210.2613221842584
 10
57.63502396846343
 20
210.2631511149546
 10
57.64978484459242
 20
210.2649509827323
 10
57.66456889568326
 20
210.2667221434558
 10
57.6793758669828
 20
210.2684649530055
 10
57.69420550372342
 20
210.2701797672515
 10
57.70905755115382
 20
210.2718669420645
 10
57.72393175452272
 20
210.2735268333225
 10
57.73882785906243
 20
210.2751597968925
 10
57.75374561001082
 20
210.27676618865
 10
57.76868475263291
 20
210.2783463644682
 10
57.78364503215197
 20
210.2799006802197
 10
57.79862619381129
 20
210.281429491776
 10
57.81362798285226
 20
210.2829331550146
 10
57.82865014453273
 20
210.2844120258023
 10
57.8436924240832
 20
210.2858664600161
 10
57.85875456675238
 20
210.2872968135279
 10
57.87383631777266
 20
210.28870344221
 10
57.8889374223927
 20
210.2900867019316
 10
57.90405762585215
 20
210.2914469485731
 10
57.91919667340335
 20
210.2927845380035
 10
57.93435431027319
 20
210.2940998260955
 10
57.94953028171221
 20
210.2953931687205
 10
57.96472433297275
 20
210.2966649217541
 10
57.97993620927265
 20
210.2979154410668
 10
57.99516565588239
 20
210.2991450825329
 10
58.0104124180325
 20
210.3003542020269
 10
58.02567624095354
 20
210.3015431554204
 10
58.04095686990332
 20
210.3027122985841
 10
58.05625405012325
 20
210.3038619873905
 10
58.07156752685296
 20
210.3049925777185
 10
58.08689704533207
 20
210.3061044254344
 10
58.10224235080204
 20
210.3071978864135
 10
58.11760318851338
 20
210.3082733165273
 10
58.13297930370389
 20
210.3093310716522
 10
58.14837044161141
 20
210.3103715076604
 10
58.16377634749187
 20
210.3113949804192
 10
58.17919676657219
 20
210.3124018458074
 10
58.19463144410292
 20
210.3133924596959
 10
58.21008012533274
 20
210.3143671779579
 10
58.22554255549221
 20
210.3153263564654
 10
58.24101847983182
 20
210.3162703510915
 10
58.25650764358215
 20
210.3171995177099
 10
58.27200979200279
 20
210.3181142121929
 10
58.28752467032245
 20
210.3190147904114
 10
58.30305202378259
 20
210.3199016082434
 10
58.31859159764281
 20
210.3207750215569
 10
58.33414313713182
 20
210.3216353862271
 10
58.3497063874929
 20
210.3224830581239
 10
58.36528109397296
 20
210.3233183931243
 10
58.38086700181158
 20
210.3241417470972
 10
58.3964638562611
 20
210.3249534759196
 10
58.41207140254301
 20
210.3257539354645
 10
58.42768938592417
 20
210.3265434815994
 10
58.44331755162238
 20
210.3273224701988
 10
58.45895564489183
 20
210.328091257139
 10
58.47460341098122
 20
210.3288501982924
 10
58.49026059513199
 20
210.3295996495261
 10
58.50592694257284
 20
210.330339966721
 10
58.5216021985634
 20
210.331071505745
 10
58.5372861083324
 20
210.3317946224724
 10
58.55297841713218
 20
210.3325096727749
 10
58.56867887020417
 20
210.3332170125268
 10
58.58438721277344
 20
210.3339169976005
 10
58.60010319011235
 20
210.3346099838662
 10
58.61582654744234
 20
210.3352963272026
 10
58.63155703001211
 20
210.3359763834778
 10
58.64729438306131
 20
210.3366505085669
 10
58.66303835184226
 20
210.3373190583397
 10
58.67878868158186
 20
210.3379823886733
 10
58.69454511753247
 20
210.338640855437
 10
58.7103074049428
 20
210.3392948145083
 10
58.72607528904154
 20
210.3399446217535
 10
58.74184851507197
 20
210.3405906330499
 10
58.7576268282919
 20
210.3412332042698
 10
58.77340997392274
 20
210.3418726912858
 10
58.78919769723143
 20
210.3425094499706
 10
58.80498974344118
 20
210.3431438361966
 10
58.82078585779163
 20
210.3437762058355
 10
58.83658578554059
 20
210.3444069147634
 10
58.85238927193313
 20
210.3450363188512
 10
58.86819606219251
 20
210.345664773974
 10
58.8840059015729
 20
210.3462926359989
 10
58.89981853531208
 20
210.3469202608048
 10
58.91563370866244
 20
210.3475480042615
 10
58.93145116685264
 20
210.3481762222418
 10
58.94727065513325
 20
210.3488052706214
 10
58.96309191875297
 20
210.3494355052698
 10
58.97891470294053
 20
210.3500672820608
 10
58.99473875294098
 20
210.3507009568692
 10
59.01056381401214
 20
210.3513368855645
 10
59.0263896313827
 20
210.3519754240223
 10
59.0422159502923
 20
210.352616928113
 10
59.05804251599146
 20
210.353261753712
 10
59.07386907371074
 20
210.3539102566936
 10
59.08969536871154
 20
210.3545627929251
 10
59.10552114623168
 20
210.3552197182843
 10
59.12134615150353
 20
210.3558813886401
 10
59.13717012977395
 20
210.3565481598688
 10
59.15299282628257
 20
210.3572203878411
 10
59.16881398628174
 20
210.3578984284294
 10
59.1846333550111
 20
210.3585826375109
 10
59.20045067770296
 20
210.3592733709546
 10
59.21626569960245
 20
210.3599709846339
 10
59.23207816596185
 20
210.3606758344194
 10
59.24788782202267
 20
210.3613882761891
 10
59.26369441302266
 20
210.3621086658121
 10
59.27949768419058
 20
210.3628373591618
 10
59.29529738079145
 20
210.3635747121125
 10
59.31109324806128
 20
210.3643210805357
 10
59.32688503125246
 20
210.3650768203041
 10
59.34267247557365
 20
210.365842287293
 10
59.35845532630263
 20
210.3666178373723
 10
59.37423332866273
 20
210.3674038264153
 10
59.39000622790263
 20
210.3682006102944
 10
59.40577376927286
 20
210.3690085448851
 10
59.42153569799121
 20
210.3698279860573
 10
59.43729175933366
 20
210.3706592896886
 10
59.45304169851262
 20
210.3715028116456
 10
59.46878526079125
 20
210.3723589078045
 10
59.48452219140381
 20
210.3732279340373
 10
59.50025223559169
 20
210.3741102462181
 10
59.5159751386036
 20
210.37500620022
 10
59.53169064566282
 20
210.3759161519128
 10
59.54739850204168
 20
210.3768404571728
 10
59.56309845296164
 20
210.3777794718689
 10
59.5787902436623
 20
210.3787335518791
 10
59.59447361941238
 20
210.3797030530704
 10
59.6101483254224
 20
210.3806883313226
 10
59.62581410696293
 20
210.3816897425013
 10
59.64147070925172
 20
210.3827076424859
 10
59.65711787754298
 20
210.3837423871455
 10
59.67275535708178
 20
210.3847943323516
 10
59.68838289311134
 20
210.3858638339806
 10
59.70400023086221
 20
210.386951247904
 10
59.71960711559223
 20
210.3880569299945
 10
59.73520329253187
 20
210.3891812361261
 10
59.75078850693352
 20
210.390324522168
 10
59.76636250403315
 20
210.3914871439955
 10
59.78192502907223
 20
210.3926694574819
 10
59.79747582729213
 20
210.3938718185025
 10
59.81301464394164
 20
210.3950945829245
 10
59.82854122426215
 20
210.3963381066223
 10
59.84405531349148
 20
210.3976027454728
 10
59.85955665688379
 20
210.3988888553449
 10
59.87504499966235
 20
210.400196792112
 10
59.89052008709222
 20
210.4015269116498
 10
59.90598166439122
 20
210.4028795698268
 10
59.9214294768226
 20
210.4042551225183
 10
59.93686326962414
 20
210.405653925597
 10
59.95228278802279
 20
210.4070763349382
 10
59.96768777728175
 20
210.4085227064079
 10
59.9830779826316
 20
210.4099933958849
 10
59.99845314932281
 20
210.4114887592412
 10
60.01381302259142
 20
210.4130091523466
 10
60.02915734768247
 20
210.4145549310795
 10
60.04448586984108
 20
210.4161264513076
 10
60.05979833430321
 20
210.417724068904
 10
60.07509448631207
 20
210.4193481397451
 10
60.09037407112373
 20
210.4209990197014
 10
60.10563683395411
 20
210.4226770646464
 10
60.12088252007196
 20
210.4243826304518
 10
60.13611087470234
 20
210.4261160729919
 10
60.15132164310307
 20
210.4278777481395
 10
60.16651457050284
 20
210.4296680117649
 10
60.18168940215217
 20
210.4314872197464
 10
60.19684588328164
 20
210.4333357279491
 10
60.21198375915265
 20
210.4352138922549
 10
60.227102775003
 20
210.4371220685298
 10
60.24220267606324
 20
210.4390606126471
 10
60.25728320758208
 20
210.4410298804823
 10
60.27234411480276
 20
210.4430302279088
 10
60.2873851429722
 20
210.4450620107972
 10
60.30240603732273
 20
210.447125585022
 10
60.31740654310307
 20
210.4492213064541
 10
60.33238640556191
 20
210.4513495309674
 10
60.34734536993163
 20
210.4535106144349
 10
60.36228318145368
 20
210.4557049127288
 10
60.37719958538217
 20
210.4579327817226
 10
60.39209432695314
 20
210.4601945772901
 10
60.40696715140256
 20
210.4624906553025
 10
60.42181780398277
 20
210.4648213716336
 10
60.43664602992247
 20
210.4671870821556
 10
60.45145157449224
 20
210.4695881427423
 10
60.46623418290256
 20
210.4720249092641
 10
60.48099360041124
 20
210.4744977375966
 10
60.49572957226336
 20
210.4770069836113
 10
60.51044184370221
 20
210.4795530031815
 10
60.52513015995282
 20
210.4821361521808
 10
60.5397942662821
 20
210.4847567864825
 10
60.5544339079115
 20
210.4874152619558
 10
60.56904883010247
 20
210.4901119344749
 10
60.58363877808369
 20
210.4928471599159
 10
60.59820349710207
 20
210.4956212941505
 10
60.61274273240268
 20
210.4984346930485
 10
60.62725622922336
 20
210.5012877124873
 10
60.64174373280366
 20
210.5041807083352
 10
60.65620498839234
 20
210.507114036466
 10
60.67063974123265
 20
210.5100880527551
 10
60.6850477365624
 20
210.5131031130749
 10
60.69942871963212
 20
210.5161595732951
 10
60.71378243567233
 20
210.5192577892921
 10
60.72810862993175
 20
210.5223981169383
 10
60.7424070476609
 20
210.5255809121044
 10
60.75667743409212
 20
210.5288065306631
 10
60.77091953447415
 20
210.5320753284904
 10
60.78513309403206
 20
210.535387661458
 10
60.79931785803275
 20
210.5387438854358
 10
60.81347357170307
 20
210.5421443563
 10
60.82759998029178
 20
210.5455894299248
 10
60.84169682904212
 20
210.5490794621792
 10
60.85576386319189
 20
210.5526148089357
 10
60.86980082799164
 20
210.5561958260695
 10
60.88380746867187
 20
210.5598228694542
 10
60.89778353048314
 20
210.5634962949615
 10
60.91172875866322
 20
210.5672164584629
 10
60.92564289846269
 20
210.5709837158336
 10
60.93952569512294
 20
210.5747984229456
 10
60.9533768938727
 20
210.5786609356699
 10
60.96719623997342
 20
210.5825716098834
 10
60.98098347865379
 20
210.5865308014545
 10
60.99473835516254
 20
210.5905388662604
 10
61.00846061474111
 20
210.5945961601691
 10
61.02215000263277
 20
210.5987030390569
 10
61.03580626407346
 20
210.6028598587945
 10
61.04942914431195
 20
210.6070669752589
 10
61.06301838859145
 20
210.6113247443163
 10
61.07657374215341
 20
210.6156335218474
 10
61.09009495024293
 20
210.6199936637184
 10
61.10358175810325
 20
210.6244055258048
 10
61.11703391096306
 20
210.6288694639824
 10
61.13045115407294
 20
210.6333858341166
 10
61.14383323269247
 20
210.6379549920866
 10
61.15717989203222
 20
210.6425772937609
 10
61.17049087736268
 20
210.6472530950185
 10
61.18376593391258
 20
210.6519827517268
 10
61.19700480692336
 20
210.6567666197606
 10
61.2102072416419
 20
210.6616050549937
 10
61.22337298331149
 20
210.6664984132958
 10
61.23650177717355
 20
210.6714470505429
 10
61.24959336847314
 20
210.6764513226053
 10
61.26264750244263
 20
210.6815115853605
 10
61.27566392433254
 20
210.6866281946758
 10
61.2886423793916
 20
210.6918015064255
 10
61.30158261285214
 20
210.6970318764841
 10
61.31448436995378
 20
210.702319660725
 10
61.32734739595253
 20
210.707665215019
 10
61.34017143608254
 20
210.713068895241
 10
61.35295623558342
 20
210.7185310572584
 10
61.36570153970207
 20
210.7240520569511
 10
61.37840709368174
 20
210.7296322501897
 10
61.39107264276209
 20
210.7352719928448
 10
61.40369793218268
 20
210.7409716407901
 10
61.41628270720321
 20
210.7467315499015
 10
61.42882671304142
 20
210.7525520760473
 10
61.44132969495331
 20
210.7584335751051
 10
61.45379139818214
 20
210.7643764029435
 10
61.46621156796209
 20
210.7703809154372
 10
61.47858994955278
 20
210.77644746846
 10
61.49092628818289
 20
210.7825764178833
 10
61.50322032909207
 20
210.7887681195788
 10
61.51547181753267
 20
210.7950229294238
 10
61.52768049873158
 20
210.8013412032851
 10
61.53984611796295
 20
210.8077232970399
 10
61.55196842043189
 20
210.8141695665616
 10
61.56404715140343
 20
210.8206803677211
 10
61.5760820561136
 20
210.827256056389
 10
61.58807287980199
 20
210.8338969884433
 10
61.60001936772278
 20
210.8406035197513
 10
61.61192126511195
 20
210.8473760061914
 10
61.62377831720188
 20
210.8542148036322
 10
61.63559026925213
 20
210.8611202679494
 10
61.64735686649146
 20
210.8680927550139
 10
61.65907785417221
 20
210.8751326206983
 10
61.67075297752308
 20
210.8822402208779
 10
61.68238198180188
 20
210.8894159114234
 10
61.69396461224096
 20
210.8966600482099
 10
61.70550061410175
 20
210.9039729871056
 10
61.71698973259299
 20
210.9113550839882
 10
61.72843171299064
 20
210.9188066947281
 10
61.73982630052343
 20
210.9263281752
 10
61.75117324042367
 20
210.9339198812758
 10
61.76247227794192
 20
210.9415821688271
 10
61.77372315833236
 20
210.9493153937272
 10
61.78492562682368
 20
210.9571199118509
 10
61.79607942866278
 20
210.9649960790684
 10
61.807184309082
 20
210.9729442512561
 10
61.81824001334097
 20
210.9809647842839
 10
61.82924628667388
 20
210.9890580340223
 10
61.84020287432395
 20
210.9972243563488
 10
61.85110952153262
 20
211.0054641071365
 10
61.86196597354136
 20
211.013777642256
 10
61.87277197560252
 20
211.0221653175794
 10
61.88352727295205
 20
211.0306274889834
 10
61.89423161082413
 20
211.0391645123345
 10
61.90488473446203
 20
211.0477767435113
 10
61.91548638912355
 20
211.0564645383838
 10
61.92603632004284
 20
211.0652282528262
 10
61.93653427246136
 20
211.0740682427093
 10
61.94697999161143
 20
211.0829848639105
 10
61.95737322275271
 20
211.0919784722973
 10
61.967713711123
 20
211.1010494237453
 10
61.97800120196188
 20
211.1101980741258
 10
61.98823544052356
 20
211.1194247793145
 10
61.99841617202401
 20
211.128729895181
 10
62.00854314172284
 20
211.1381137776005
 10
62.01861609487423
 20
211.1475767824466
 10
62.02863477669052
 20
211.1571192655882
 10
62.03859893244224
 20
211.1667415829014
 10
62.0485083073636
 20
211.1764440902589
 10
62.05836264668324
 20
211.1862271435319
 10
62.06816169566264
 20
211.1960910985954
 10
62.07790519953231
 20
211.2060363113196
 10
62.08759290354102
 20
211.2160631375799
 10
62.09722455293196
 20
211.2261719332444
 10
62.10679989294114
 20
211.2363630541949
 10
62.1163186688118
 20
211.2466368562964
 10
62.12578062580178
 20
211.2569936954249
 10
62.13518550913249
 20
211.2674339274525
 10
62.14453306405267
 20
211.2779579082507
 10
62.15382303581281
 20
211.2885659936964
 10
62.16305516965258
 20
211.2992585396585
 10
62.17222921080247
 20
211.3100359020118
 10
62.18134490452393
 20
211.3208984366283
 10
62.19040199604204
 20
211.3318464993799
 10
62.19940023061281
 20
211.3428804461435
 10
62.208339353474
 20
211.3540006327875
 10
62.21721910986343
 20
211.3652074151867
 10
62.22056356037319
 20
211.3694898137928
  0
LINE
  5
285
330
2
100
AcDbEntity
  8
0
100
AcDbLine
 10
48.61084062592272
 20
218.9216891879004
 30
0.0
 11
55.10297197146247
 21
221.8122891646316
 31
0.0
  0
ARC
  5
286
330
2
100
AcDbEntity
  8
0
 48
0.6
100
AcDbCircle
 10
83.52052483644184
 20
237.8659154335191
 30
0.0
 40
39.15579199999999
100
AcDbArc
 50
201.4369589999631
 51
208.5517089163135
  0
ARC
  5
287
330
2
100
AcDbEntity
  8
0
 48
0.6
100
AcDbCircle
 10
149.7490498704919
 20
277.6816372593738
 30
0.0
 40
116.9686661741607
100
AcDbArc
 50
210.1560153536115
 51
216.2412691602773
  0
ARC
  5
288
330
2
100
AcDbEntity
  8
0
 48
0.6
100
AcDbCircle
 10
137.6905946544338
 20
270.4552695893752
 30
0.0
 40
95.84808274048763
100
AcDbArc
 50
210.4975034246499
 51
218.0575295674634
  0
ARC
  5
289
330
2
100
AcDbEntity
  8
0
 48
0.6
100
AcDbCircle
 10
16.18823428623182
 20
209.9666641681396
 30
0.0
 40
39.15579199999999
100
AcDbArc
 50
16.65391050761257
 51
20.30648800596492
  0
LINE
  5
28A
330
2
100
AcDbEntity
  8
CL
 48
0.6
100
AcDbLine
 10
50.00393029578117
 20
223.5553627849804
 30
0.0
 11
31.36431998899205
 21
268.5553627849803
 31
0.0
  0
DIMENSION
  5
28B
330
2
100
AcDbEntity
  8
0
100
AcDbDimension
  2
*D35
 10
76.36431998898297
 20
333.7771245628836
 30
0.0
 11
31.75497162897226
 21
333.7771245628836
 31
0.0
 70
   160
  3
1_1_2
100
AcDbAlignedDimension
 13
-13.63568001100793
 23
308.5125690261828
 33
0.0
 14
76.36431998898297
 24
308.5125690261828
 34
0.0
100
AcDbRotatedDimension
  0
LINE
  5
298
330
2
100
AcDbEntity
  8
CL
 48
0.6
100
AcDbLine
 10
31.36431998899205
 20
214.9252180212279
 30
0.0
 11
31.36431998899205
 21
322.1855075487328
 31
0.0
  0
LEADER
  5
299
330
2
100
AcDbEntity
  8
0
100
AcDbLeader
  3
1_1_2
 73
     0
 75
     1
 40
3.5
 41
31.09375
 76
     3
 10
68.15851318541172
 20
308.4745372377847
 30
0.0
 10
62.45822601191139
 20
325.0273651105644
 30
0.0
 10
59.45822601191139
 20
325.0273651105644
 30
0.0
340
258
1001
ACAD
1000
DSTYLE
1002
{
1070
     5
1000

1070
   342
1005
0
1002
}
  0
DIMENSION
  5
29A
102
{ACAD_XDICTIONARY
360
29B
102
}
102
{ACAD_REACTORS
330
29C
102
}
330
2
100
AcDbEntity
  8
0
100
AcDbDimension
  2
*D34
 10
-10.0052384978089
 20
237.0504483967948
 30
0.0
 11
89.00687937216289
 21
312.452952338954
 31
0.0
 70
   163
  1
<>%%P0.5
  3
1_1_2
100
AcDbDiametricDimension
 15
72.73387847579471
 25
300.0602771731671
 35
0.0
 40
0.0
  0
LWPOLYLINE
  5
2A8
330
2
100
AcDbEntity
  8
0
 62
     3
100
AcDbPolyline
 90
        4
 70
     1
 43
0.0
 10
405.7982896841731
 20
80.1628538682098
 10
408.7860174578326
 20
80.1628538682098
 10
408.7860174578326
 20
82.8079776226041
 10
405.7982896841731
 20
82.8079776226041
  0
LINE
  5
2A9
330
2
100
AcDbEntity
  8
0
100
AcDbLine
 10
314.3386979389523
 20
131.9588557422685
 30
0.0
 11
327.5886979389523
 21
131.9588557422685
 31
0.0
  0
ARC
  5
2AA
330
2
100
AcDbEntity
  8
0
100
AcDbCircle
 10
384.7486979389541
 20
128.4588557422684
 30
0.0
 40
3.5
100
AcDbArc
 50
0.0
 51
90.0
  0
LINE
  5
2AB
330
2
100
AcDbEntity
  8
0
100
AcDbLine
 10
384.7486979389541
 20
131.9588557422685
 30
0.0
 11
323.3386979389523
 21
131.9588557422685
 31
0.0
  0
LINE
  5
2AC
330
2
100
AcDbEntity
  8
0
100
AcDbLine
 10
328.3986979389537
 20
133.9588557422684
 30
0.0
 11
326.0986979389526
 21
133.9588557422684
 31
0.0
  0
ARC
  5
2AD
330
2
100
AcDbEntity
  8
0
100
AcDbCircle
 10
327.3763155132528
 20
132.0700469551137
 30
0.0
 40
2.280330085889914
100
AcDbArc
 50
124.0749889047942
 51
182.7949087410673
  0
ARC
  5
2AE
330
2
100
AcDbEntity
  8
0
100
AcDbCircle
 10
327.1210803646408
 20
132.0700469551137
 30
0.0
 40
2.280330085890314
100
AcDbArc
 50
357.2050912589323
 51
55.92501109520566
  0
LINE
  5
2AF
330
2
100
AcDbEntity
  8
CEN
 62
    62
100
AcDbLine
 10
327.948697938953
 20
87.65885574226832
 30
0.0
 11
327.948697938953
 21
88.83235514178705
 31
0.0
  0
LINE
  5
2B0
330
2
100
AcDbEntity
  8
CL
 62
    62
 48
0.6
100
AcDbLine
 10
326.5486979389533
 20
86.25885574226868
 30
0.0
 11
325.3751985394336
 21
86.25885574226686
 31
0.0
  0
LINE
  5
2B1
330
2
100
AcDbEntity
  8
CL
 62
    62
 48
0.6
100
AcDbLine
 10
326.5486979389533
 20
87.65885574226832
 30
0.0
 11
325.3751985394336
 21
87.65885574226832
 31
0.0
  0
LINE
  5
2B2
330
2
100
AcDbEntity
  8
CEN
 62
    62
100
AcDbLine
 10
326.5486979389533
 20
87.65885574226832
 30
0.0
 11
326.5486979389533
 21
88.83235514178613
 31
0.0
  0
LINE
  5
2B3
330
2
100
AcDbEntity
  8
CL
 62
    62
 48
0.6
100
AcDbLine
 10
329.1221973384726
 20
86.25885574226868
 30
0.0
 11
327.948697938953
 21
86.25885574226868
 31
0.0
  0
LINE
  5
2B4
330
2
100
AcDbEntity
  8
CL
 62
    62
 48
0.6
100
AcDbLine
 10
329.1221973384726
 20
87.65885574226832
 30
0.0
 11
327.948697938953
 21
87.65885574226832
 31
0.0
  0
LINE
  5
2B5
330
2
100
AcDbEntity
  8
CEN
 62
    62
100
AcDbLine
 10
327.948697938953
 20
85.08535634274812
 30
0.0
 11
327.948697938953
 21
86.25885574226868
 31
0.0
  0
LINE
  5
2B6
330
2
100
AcDbEntity
  8
CEN
 62
    62
100
AcDbLine
 10
326.5486979389533
 20
85.08535634274812
 30
0.0
 11
326.5486979389533
 21
86.25885574226868
 31
0.0
  0
CIRCLE
  5
2B7
330
2
100
AcDbEntity
  8
0
100
AcDbCircle
 10
327.2486979389541
 20
86.95885574226847
 30
0.0
 40
2.0
  0
LINE
  5
2B8
330
2
100
AcDbEntity
  8
CEN
100
AcDbLine
 10
327.2486979389541
 20
83.5060584115763
 30
0.0
 11
327.2486979389541
 21
90.41165307296159
 31
0.0
  0
ARC
  5
2B9
330
2
100
AcDbEntity
  8
0
100
AcDbCircle
 10
388.3600265858312
 20
123.0890188868188
 30
0.0
 40
2.282879329572159
100
AcDbArc
 50
267.2047613210355
 51
325.8911500183373
  0
ARC
  5
2BA
330
2
100
AcDbEntity
  8
0
100
AcDbCircle
 10
388.3600265858312
 20
122.8286925977172
 30
0.0
 40
2.282879329571918
100
AcDbArc
 50
34.10884998166265
 51
92.79523867896429
  0
LINE
  5
2BB
330
2
100
AcDbEntity
  8
0
100
AcDbLine
 10
390.2501906942416
 20
121.808855742267
 30
0.0
 11
390.2501906942416
 21
124.1088557422672
 31
0.0
  0
LINE
  5
2BC
330
2
100
AcDbEntity
  8
CL
 48
0.6
100
AcDbLine
 10
392.2501906942416
 20
122.9588557422685
 30
0.0
 11
386.2486979389541
 21
122.9588557422685
 31
0.0
  0
LINE
  5
2BD
330
2
100
AcDbEntity
  8
CL
 48
0.6
100
AcDbLine
 10
327.2486979389414
 20
135.4426212483067
 30
0.0
 11
327.2486979389414
 21
128.8617645355706
 31
0.0
  0
LINE
  5
2BE
330
2
100
AcDbEntity
  8
0
100
AcDbLine
 10
326.3386979389523
 20
41.95885574226848
 30
0.0
 11
315.0794455470022
 21
41.95885574226848
 31
0.0
  0
LINE
  5
2BF
330
2
100
AcDbEntity
  8
0
100
AcDbLine
 10
302.3097063649038
 20
43.95885574226759
 30
0.0
 11
302.3097063649038
 21
43.35853153775133
 31
0.0
  0
ARC
  5
2C0
330
2
100
AcDbEntity
  8
0
100
AcDbCircle
 10
309.8095114591615
 20
38.95885574226849
 30
0.0
 40
3.0
100
AcDbArc
 50
90.0
 51
180.0
  0
ARC
  5
2C1
330
2
100
AcDbEntity
  8
0
100
AcDbCircle
 10
302.792488612622
 20
39.39962832473428
 30
0.0
 40
4.041132640617096
100
AcDbArc
 50
270.2413531633601
 51
353.7382029889954
  0
LINE
  5
2C2
330
2
100
AcDbEntity
  8
0
100
AcDbLine
 10
305.3097063649038
 20
46.95885574226759
 30
0.0
 11
314.2486979389541
 21
46.95885574226759
 31
0.0
  0
ARC
  5
2C3
330
2
100
AcDbEntity
  8
0
100
AcDbCircle
 10
384.7486979389541
 20
45.45885574226757
 30
0.0
 40
3.5
100
AcDbArc
 50
270.0
 51
0.0
  0
LINE
  5
2C4
330
2
100
AcDbEntity
  8
0
100
AcDbLine
 10
384.7486979389541
 20
41.95885574226848
 30
0.0
 11
309.8095114591615
 21
41.95885574226848
 31
0.0
  0
LINE
  5
2C5
330
2
100
AcDbEntity
  8
0
100
AcDbLine
 10
328.3986979389537
 20
39.9588557422685
 30
0.0
 11
326.0986979389526
 21
39.9588557422685
 31
0.0
  0
ARC
  5
2C6
330
2
100
AcDbEntity
  8
0
100
AcDbCircle
 10
327.1210803646408
 20
41.84766452942129
 30
0.0
 40
2.280330085889914
100
AcDbArc
 50
304.0749889047944
 51
2.7949087410675
  0
ARC
  5
2C7
330
2
100
AcDbEntity
  8
0
100
AcDbCircle
 10
327.3763155132528
 20
41.84766452942129
 30
0.0
 40
2.280330085890314
100
AcDbArc
 50
177.2050912589325
 51
235.9250110952057
  0
LINE
  5
2C8
330
2
100
AcDbEntity
  8
0
100
AcDbLine
 10
390.2501906942416
 20
52.10885574226813
 30
0.0
 11
390.2501906942416
 21
49.80885574226704
 31
0.0
  0
ARC
  5
2C9
330
2
100
AcDbEntity
  8
0
100
AcDbCircle
 10
388.3600265858312
 20
51.08901888681884
 30
0.0
 40
2.282879329571918
100
AcDbArc
 50
267.2047613210355
 51
325.8911500183373
  0
LINE
  5
2CA
330
2
100
AcDbEntity
  8
CL
 48
0.6
100
AcDbLine
 10
392.2501906942416
 20
50.9588557422685
 30
0.0
 11
386.2486979389541
 21
50.9588557422685
 31
0.0
  0
LINE
  5
2CB
330
2
100
AcDbEntity
  8
CL
 48
0.6
100
AcDbLine
 10
327.2486979389414
 20
44.5284936684602
 30
0.0
 11
327.2486979389414
 21
37.56996335096573
 31
0.0
  0
LINE
  5
2CC
330
2
100
AcDbEntity
  8
0
100
AcDbLine
 10
314.2486979389541
 20
41.95885574226848
 30
0.0
 11
314.2486979389541
 21
131.9588557422685
 31
0.0
  0
LINE
  5
2CD
330
2
100
AcDbEntity
  8
0
100
AcDbLine
 10
388.2486979389541
 20
128.4588557422684
 30
0.0
 11
388.2486979389541
 21
45.45885574226757
 31
0.0
  0
DIMENSION
  5
2CE
330
2
100
AcDbEntity
  8
0
100
AcDbDimension
  2
*D40
 10
409.843301328463
 20
41.95885574226847
 30
0.0
 11
409.843301328463
 21
86.96564571450744
 31
0.0
 70
   160
  3
1_1_2
100
AcDbAlignedDimension
 13
384.7486979389541
 23
131.9588557422685
 33
0.0
 14
384.7486979389541
 24
41.95885574226848
 34
0.0
 50
90.0
100
AcDbRotatedDimension
  0
ARC
  5
2DB
330
2
100
AcDbEntity
  8
0
100
AcDbCircle
 10
388.3600265858312
 20
50.82869259771722
 30
0.0
 40
2.282879329572159
100
AcDbArc
 50
34.10884998166265
 51
92.79523867896429
  0
ARC
  5
2DC
330
2
100
AcDbEntity
  8
0
100
AcDbCircle
 10
353.8856224483243
 20
310.0553627849803
 30
0.0
 40
3.5
100
AcDbArc
 50
0.0
 51
90.0
  0
LINE
  5
2DD
330
2
100
AcDbEntity
  8
0
100
AcDbLine
 10
359.3871152036135
 20
303.4053627849779
 30
0.0
 11
359.3871152036135
 21
305.7053627849791
 31
0.0
  0
ARC
  5
2DE
330
2
100
AcDbEntity
  8
0
100
AcDbCircle
 10
357.4969510952031
 20
304.4251996404299
 30
0.0
 40
2.282879329571918
100
AcDbArc
 50
34.10884998166265
 51
92.79523867896429
  0
ARC
  5
2DF
330
2
100
AcDbEntity
  8
0
100
AcDbCircle
 10
357.4969510952031
 20
304.6855259295316
 30
0.0
 40
2.282879329572159
100
AcDbArc
 50
267.2047613210355
 51
325.8911500183373
  0
ARC
  5
2E0
330
2
100
AcDbEntity
  8
0
100
AcDbCircle
 10
357.4969510952031
 20
232.4251996404299
 30
0.0
 40
2.282879329572159
100
AcDbArc
 50
34.10884998166265
 51
92.79523867896429
  0
ARC
  5
2E1
330
2
100
AcDbEntity
  8
0
100
AcDbCircle
 10
357.4969510952031
 20
232.6855259295289
 30
0.0
 40
2.282879329571918
100
AcDbArc
 50
267.2047613210355
 51
325.8911500183373
  0
LINE
  5
2E2
330
2
100
AcDbEntity
  8
0
100
AcDbLine
 10
359.3871152036135
 20
233.705362784979
 30
0.0
 11
359.3871152036135
 21
231.405362784978
 31
0.0
  0
LINE
  5
2E3
330
2
100
AcDbEntity
  8
CL
 48
0.6
100
AcDbLine
 10
361.3871152036135
 20
232.5553627849803
 30
0.0
 11
355.3856224483242
 21
232.5553627849803
 31
0.0
  0
LINE
  5
2E4
330
2
100
AcDbEntity
  8
CL
 48
0.6
100
AcDbLine
 10
361.3871152036135
 20
304.5553627849804
 30
0.0
 11
355.3856224483242
 21
304.5553627849804
 31
0.0
  0
LWPOLYLINE
  5
2E5
330
2
100
AcDbEntity
  8
0
 62
     3
100
AcDbPolyline
 90
        4
 70
     1
 43
0.0
 10
374.9352141935414
 20
264.5024601799168
 10
377.9229419672028
 20
264.5024601799168
 10
377.9229419672028
 20
267.1475839343119
 10
374.9352141935414
 20
267.1475839343119
  0
ARC
  5
2E6
330
2
100
AcDbEntity
  8
0
100
AcDbCircle
 10
353.8856224483243
 20
227.0553627849803
 30
0.0
 40
3.5
100
AcDbArc
 50
270.0
 51
0.0
  0
LINE
  5
2E7
330
2
100
AcDbEntity
  8
0
100
AcDbLine
 10
357.3856224483242
 20
310.0553627849803
 30
0.0
 11
357.3856224483242
 21
227.0553627849803
 31
0.0
  0
DIMENSION
  5
2E8
330
2
100
AcDbEntity
  8
0
100
AcDbDimension
  2
*D41
 10
378.980225837833
 20
223.5553627849804
 30
0.0
 11
378.980225837833
 21
271.3052520262144
 31
0.0
 70
   160
  3
1_1_2
100
AcDbAlignedDimension
 13
353.8856224483114
 23
313.5553627849803
 33
0.0
 14
353.8856224483114
 24
223.5553627849804
 34
0.0
 50
90.0
100
AcDbRotatedDimension
  0
ENDSEC
  0
SECTION
  2
OBJECTS
  0
DICTIONARY
  5
9
330
0
100
AcDbDictionary
  3
ACAD_GROUP
350
98
  3
ACAD_LAYOUT
350
D
  3
ACAD_MLINESTYLE
350
99
  3
ACAD_PLOTSETTINGS
350
9A
  3
ACAD_PLOTSTYLENAME
350
8
  3
ACDBHEADERROUNDTRIPXREC
350
455
  3
ACDBVARIABLEDICTIONARY
350
2F5
  0
DICTIONARY
  5
15
330
14
100
AcDbDictionary
280
     1
  3
ACAD_LAYERFILTERS
360
16
  3
ACAD_LAYERSTATES
360
89
  0
DICTIONARY
  5
3
330
2
100
AcDbDictionary
280
     1
  3
ACAD_LAYOUTSELFREF
360
476
  0
DICTIONARY
  5
F
330
E
100
AcDbDictionary
280
     1
  3
ACAD_LAYOUTSELFREF
360
477
  0
DICTIONARY
  5
F1
330
F0
100
AcDbDictionary
280
     1
  3
ACAD_DIMASSOC
360
F2
  0
DICTIONARY
  5
100
330
FF
100
AcDbDictionary
280
     1
  3
ACAD_DIMASSOC
360
101
  0
DICTIONARY
  5
10F
330
10E
100
AcDbDictionary
280
     1
  3
ACAD_DIMASSOC
360
110
  0
DICTIONARY
  5
159
330
158
100
AcDbDictionary
280
     1
  3
ACAD_DIMASSOC
360
15A
  0
DICTIONARY
  5
17F
330
17E
100
AcDbDictionary
280
     1
  3
ACAD_DIMASSOC
360
180
  0
DICTIONARY
  5
1AB
330
1AA
100
AcDbDictionary
280
     1
  3
ACAD_DIMASSOC
360
1AC
  0
DICTIONARY
  5
1BC
330
1BB
100
AcDbDictionary
280
     1
  3
ACAD_DIMASSOC
360
1BD
  0
DICTIONARY
  5
218
330
217
100
AcDbDictionary
280
     1
  3
ACAD_DIMASSOC
360
219
  0
DICTIONARY
  5
22B
330
22A
100
AcDbDictionary
280
     1
  3
ACAD_DIMASSOC
360
22C
  0
DICTIONARY
  5
29B
330
29A
100
AcDbDictionary
280
     1
  3
ACAD_DIMASSOC
360
29C
  0
DICTIONARY
  5
98
102
{ACAD_REACTORS
330
9
102
}
330
9
100
AcDbDictionary
  0
DICTIONARY
  5
D
102
{ACAD_REACTORS
330
9
102
}
330
9
100
AcDbDictionary
  0
DICTIONARY
  5
99
102
{ACAD_REACTORS
330
9
102
}
330
9
100
AcDbDictionary
  3
STANDARD
350
9B
  0
DICTIONARY
  5
9A
102
{ACAD_REACTORS
330
9
102
}
330
9
100
AcDbDictionary
  0
ACDBDICTIONARYWDFLT
  5
8
102
{ACAD_REACTORS
330
9
102
}
330
9
100
AcDbDictionary
281
     1
  3
Normal
350
7
100
AcDbDictionaryWithDefault
340
7
  0
DICTIONARY
  5
455
102
{ACAD_REACTORS
330
9
102
}
330
9
100
AcDbDictionary
  3
CEPSNTYPE
350
45F
  3
DIMSTYLEDATA
350
463
  3
FINGERPRINTGUID
350
460
  3
HYPERLINKBASE
350
458
  3
INSUNITS
350
45E
  3
LAYOUTDICT
350
45A
  3
LWETCUNION
350
45D
  3
PLOTSETDICT
350
45B
  3
PLOTSTYLNAMDICT
350
45C
  3
PSVPSCALE
350
462
  3
PUCSBASE
350
466
  3
PUCSORGBACK
350
46C
  3
PUCSORGBOTTOM
350
468
  3
PUCSORGFRONT
350
46B
  3
PUCSORGLEFT
350
469
  3
PUCSORGRIGHT
350
46A
  3
PUCSORGTOP
350
467
  3
PUCSORTHOREF
350
464
  3
PUCSORTHOVIEW
350
465
  3
STYLESHEET
350
459
  3
TSTACKALIGN
350
456
  3
TSTACKSIZE
350
457
  3
UCSBASE
350
46F
  3
UCSORGBACK
350
475
  3
UCSORGBOTTOM
350
471
  3
UCSORGFRONT
350
474
  3
UCSORGLEFT
350
472
  3
UCSORGRIGHT
350
473
  3
UCSORGTOP
350
470
  3
UCSORTHOREF
350
46D
  3
UCSORTHOVIEW
350
46E
  3
VERSIONGUID
350
461
  0
DICTIONARY
  5
2F5
102
{ACAD_REACTORS
330
9
102
}
330
9
100
AcDbDictionary
  3
DIMASSOC
350
2F7
  3
HIDETEXT
350
2F6
  0
DICTIONARY
  5
16
102
{ACAD_REACTORS
330
15
102
}
330
15
100
AcDbDictionary
280
     1
  3
$LAYERS
360
17
  3
-_UND_0
360
18
  3
-PEGC
360
19
  3
101
360
1A
  3
102
360
1B
  3
1DUC
360
1C
  3
1EQ
360
1D
  3
1TUB
360
1E
  3
2
360
1F
  3
2000
360
20
  3
50
360
21
  3
58J
360
22
  3
65
360
23
  3
AA
360
24
  3
ACABADOS
360
25
  3
AGUA_Y_DREN
360
26
  3
AIRE
360
27
  3
ALLE_AUS
360
28
  3
ALLES_MIT_S
360
29
  3
AMARILLO
360
2A
  3
APAGADOS
360
2B
  3
ARR
360
2C
  3
BA
360
2D
  3
BACKS
360
2E
  3
BASE
360
2F
  3
BLOQ_INUTIL
360
30
  3
CADKON
360
31
  3
CARPINTERIA
360
32
  3
CERRADOS
360
33
  3
COL
360
34
  3
COLOR
360
35
  3
COLOR_250
360
36
  3
COLORES
360
37
  3
CONGELADOS
360
38
  3
CONJUNTO
360
39
  3
D1
360
3A
  3
DA_
360
3B
  3
DET-
360
3C
  3
DOR-H
360
3D
  3
EJES
360
3E
  3
ELECTRICO
360
3F
  3
F1
360
40
  3
FROZEN
360
41
  3
GRID
360
42
  3
GRIDTXT
360
43
  3
HATCH
360
44
  3
HCAD
360
45
  3
INSTALACIONES
360
46
  3
JIZNI
360
47
  3
KCK
360
48
  3
KKK
360
49
  3
LAY
360
4A
  3
LAYER-0
360
4E
  3
LAYER-1
360
4F
  3
LAYER_1_UND_0
360
4B
  3
LAYER_2_UND_0
360
4C
  3
LAYER_9_UND_0_SCHRAFFUR
360
4D
  3
LOCK
360
50
  3
LOCKED
360
51
  3
LOTES
360
52
  3
LUNAR
360
53
  3
LUNAR2
360
54
  3
M
360
55
  3
MIS_LAYERS
360
56
  3
MRKCK
360
57
  3
NECADKON
360
58
  3
NI_LH
360
59
  3
NI_RH
360
5A
  3
NUM
360
5B
  3
OFF
360
5C
  3
ON
360
5D
  3
PBASE
360
5E
  3
PEGC
360
5F
  3
PEGCT
360
60
  3
PFRAME
360
61
  3
PGRID
360
62
  3
PGRIDT
360
63
  3
PLAFONES
360
64
  3
PLANTAS
360
65
  3
PLOT
360
66
  3
PRENDIDAS
360
67
  3
PRENDIDOS
360
68
  3
PRINT
360
69
  3
PT
360
6A
  3
PTH
360
6B
  3
PVGRID
360
6C
  3
RED_DE_AGUA_POTABLE
360
6D
  3
RED_DE_ENERGIA_ELECTRICA
360
6E
  3
SEVERNI
360
6F
  3
SHIN
360
70
  3
SHOW_ALL_LAYER
360
71
  3
SIN
360
72
  3
STORAGE-CART
360
73
  3
T
360
74
  3
TEXTOS
360
75
  3
TEXTURAS
360
76
  3
TUBERIAS
360
77
  3
UNFRZ
360
78
  3
V\U+0160ECHNY_NEPOU\U+017D\U+00CDVAN\U+00C9
360
79
  3
VA
360
7A
  3
VENTILACI\U+00D3N
360
7B
  3
VYHODNI
360
7C
  3
YO
360
7D
  3
ZAPADNI
360
7E
  3
사용
360
7F
  3
신규
360
80
  3
실박스
360
81
  3
우리토목
360
82
  3
주차
360
83
  3
지상정밀
360
84
  3
쩜선
360
85
  3
플로터_작업층
360
86
  3
현재_작업층
360
87
  3
현재_잠금
360
88
  0
DICTIONARY
  5
89
102
{ACAD_REACTORS
330
15
102
}
330
15
100
AcDbDictionary
  0
XRECORD
  5
476
102
{ACAD_REACTORS
330
3
102
}
330
3
100
AcDbXrecord
340
2
  0
XRECORD
  5
477
102
{ACAD_REACTORS
330
F
102
}
330
F
100
AcDbXrecord
340
E
  0
DIMASSOC
  5
F2
102
{ACAD_REACTORS
330
F1
102
}
330
F1
100
AcDbDimAssoc
330
F0
 90
        3
 70
     0
 71
     0
  1
AcDbOsnapPointRef
 72
     1
331
157
 73
     2
 91
        0
 40
1.0
 10
135.2479754482519
 20
80.9588557422685
 30
0.0
 75
     0
  1
AcDbOsnapPointRef
 72
     1
331
156
 73
     2
 91
        0
 40
1.0
 10
135.2479754482519
 20
91.95885574226847
 30
0.0
 75
     0
  0
DIMASSOC
  5
101
102
{ACAD_REACTORS
330
100
102
}
330
100
100
AcDbDimAssoc
330
FF
 90
        3
 70
     0
 71
     0
  1
AcDbOsnapPointRef
 72
     1
331
157
 73
     2
 91
        0
 40
1.0
 10
135.2479754482519
 20
80.9588557422685
 30
0.0
 75
     0
  1
AcDbOsnapPointRef
 72
     1
331
154
 73
     2
 91
        0
 40
1.0
 10
165.2479754482519
 20
92.95885574226849
 30
0.0
 75
     0
  0
DIMASSOC
  5
110
102
{ACAD_REACTORS
330
10F
102
}
330
10F
100
AcDbDimAssoc
330
10E
 90
        3
 70
     0
 71
     0
  1
AcDbOsnapPointRef
 72
    13
331
17B
 73
     2
 91
        0
 40
0.0
 10
170.2479754482519
 20
128.4588557422684
 30
0.0
 75
     0
  1
AcDbOsnapPointRef
 72
     1
331
17B
 73
     2
 91
        0
 40
1.0
 10
170.2479754482519
 20
45.45885574226757
 30
0.0
 75
     0
  0
DIMASSOC
  5
15A
102
{ACAD_REACTORS
330
159
102
}
330
159
100
AcDbDimAssoc
330
158
 90
        3
 70
     0
 71
     0
  1
AcDbOsnapPointRef
 72
     1
331
156
 73
     2
 91
        0
 40
1.0
 10
135.2479754482519
 20
91.95885574226847
 30
0.0
 75
     0
  1
AcDbOsnapPointRef
 72
     1
331
154
 73
     2
 91
        0
 40
1.0
 10
165.2479754482519
 20
92.95885574226849
 30
0.0
 75
     0
  0
DIMASSOC
  5
180
102
{ACAD_REACTORS
330
17F
102
}
330
17F
100
AcDbDimAssoc
330
17E
 90
        2
 70
     0
 71
     0
  1
AcDbOsnapPointRef
 72
     3
331
127
 73
     2
 91
        0
 40
0.0
 10
33.38790476703251
 20
86.95885574226847
 30
0.0
 75
     0
  0
DIMASSOC
  5
1AC
102
{ACAD_REACTORS
330
1AB
102
}
330
1AB
100
AcDbDimAssoc
330
1AA
 90
        2
 70
     0
 71
     0
  1
AcDbOsnapPointRef
 72
     1
331
152
 73
     2
 91
        0
 40
1.0
 10
179.7479754482519
 20
130.5575930837993
 30
0.0
 75
     0
  0
DIMASSOC
  5
1BD
102
{ACAD_REACTORS
330
1BC
102
}
330
1BC
100
AcDbDimAssoc
330
1BB
 90
        1
 70
     0
 71
     0
  1
AcDbOsnapPointRef
 72
     1
331
156
 73
     2
 91
        0
 40
1.0
 10
135.2479754482519
 20
91.95885574226847
 30
0.0
 75
     0
  0
DIMASSOC
  5
219
102
{ACAD_REACTORS
330
218
102
}
330
218
100
AcDbDimAssoc
330
217
 90
        3
 70
     0
 71
     0
  1
AcDbOsnapPointRef
 72
    13
331
214
 73
     2
 91
        0
 40
0.0
 10
139.384899957622
 20
310.0553627849803
 30
0.0
 75
     0
  1
AcDbOsnapPointRef
 72
     1
331
214
 73
     2
 91
        0
 40
1.0
 10
139.384899957622
 20
227.0553627849803
 30
0.0
 75
     0
  0
DIMASSOC
  5
22C
102
{ACAD_REACTORS
330
22B
102
}
330
22B
100
AcDbDimAssoc
330
22A
 90
        2
 70
     0
 71
     0
  1
AcDbOsnapPointRef
 72
     1
331
1EB
 73
     2
 91
        0
 40
1.0
 10
148.884899957622
 20
312.1541001265104
 30
0.0
 75
     0
  0
DIMASSOC
  5
29C
102
{ACAD_REACTORS
330
29B
102
}
330
29B
100
AcDbDimAssoc
330
29A
 90
        2
 70
     0
 71
     0
  1
AcDbOsnapPointRef
 72
     3
331
278
 73
     2
 91
        0
 40
0.0
 10
31.36431998899205
 20
268.5553627849803
 30
0.0
 75
     0
  0
MLINESTYLE
  5
9B
102
{ACAD_REACTORS
330
99
102
}
330
99
100
AcDbMlineStyle
  2
STANDARD
 70
     0
  3

 62
   256
 51
90.0
 52
90.0
 71
     2
 49
0.5
 62
   256
  6
BYLAYER
 49
-0.5
 62
   256
  6
BYLAYER
  0
ACDBPLACEHOLDER
  5
7
102
{ACAD_REACTORS
330
8
102
}
330
8
100
AcDbPlaceHolder
280
     0
  0
XRECORD
  5
45F
102
{ACAD_REACTORS
330
455
102
}
330
455
100
AcDbXrecord
 90
        0
  0
XRECORD
  5
463
102
{ACAD_REACTORS
330
455
102
}
330
455
100
AcDbXrecord
1000
DSTYLE
1002
{
1070
    79
 70
     2
1070
   179
 70
     1
1002
}
  0
XRECORD
  5
460
102
{ACAD_REACTORS
330
455
102
}
330
455
100
AcDbXrecord
  1
{FDEAD578-A652-11D2-9A35-0060089B3A3F}
  0
XRECORD
  5
458
102
{ACAD_REACTORS
330
455
102
}
330
455
100
AcDbXrecord
  1

  0
XRECORD
  5
45E
102
{ACAD_REACTORS
330
455
102
}
330
455
100
AcDbXrecord
 90
        4
  0
XRECORD
  5
45A
102
{ACAD_REACTORS
330
455
102
}
330
455
100
AcDbXrecord
340
D
  0
XRECORD
  5
45D
102
{ACAD_REACTORS
330
455
102
}
330
455
100
AcDbXrecord
 90
    10781
  0
XRECORD
  5
45B
102
{ACAD_REACTORS
330
455
102
}
330
455
100
AcDbXrecord
340
9A
  0
XRECORD
  5
45C
102
{ACAD_REACTORS
330
455
102
}
330
455
100
AcDbXrecord
340
8
  0
XRECORD
  5
462
102
{ACAD_REACTORS
330
455
102
}
330
455
100
AcDbXrecord
 40
0.0
  0
XRECORD
  5
466
102
{ACAD_REACTORS
330
455
102
}
330
455
100
AcDbXrecord
340
0
  0
XRECORD
  5
46C
102
{ACAD_REACTORS
330
455
102
}
330
455
100
AcDbXrecord
 10
0.0
 20
0.0
 30
0.0
  0
XRECORD
  5
468
102
{ACAD_REACTORS
330
455
102
}
330
455
100
AcDbXrecord
 10
0.0
 20
0.0
 30
0.0
  0
XRECORD
  5
46B
102
{ACAD_REACTORS
330
455
102
}
330
455
100
AcDbXrecord
 10
0.0
 20
0.0
 30
0.0
  0
XRECORD
  5
469
102
{ACAD_REACTORS
330
455
102
}
330
455
100
AcDbXrecord
 10
0.0
 20
0.0
 30
0.0
  0
XRECORD
  5
46A
102
{ACAD_REACTORS
330
455
102
}
330
455
100
AcDbXrecord
 10
0.0
 20
0.0
 30
0.0
  0
XRECORD
  5
467
102
{ACAD_REACTORS
330
455
102
}
330
455
100
AcDbXrecord
 10
0.0
 20
0.0
 30
0.0
  0
XRECORD
  5
464
102
{ACAD_REACTORS
330
455
102
}
330
455
100
AcDbXrecord
340
0
  0
XRECORD
  5
465
102
{ACAD_REACTORS
330
455
102
}
330
455
100
AcDbXrecord
 70
     0
  0
XRECORD
  5
459
102
{ACAD_REACTORS
330
455
102
}
330
455
100
AcDbXrecord
  1

  0
XRECORD
  5
456
102
{ACAD_REACTORS
330
455
102
}
330
455
100
AcDbXrecord
 90
        1
  0
XRECORD
  5
457
102
{ACAD_REACTORS
330
455
102
}
330
455
100
AcDbXrecord
 90
       70
  0
XRECORD
  5
46F
102
{ACAD_REACTORS
330
455
102
}
330
455
100
AcDbXrecord
340
0
  0
XRECORD
  5
475
102
{ACAD_REACTORS
330
455
102
}
330
455
100
AcDbXrecord
 10
0.0
 20
0.0
 30
0.0
  0
XRECORD
  5
471
102
{ACAD_REACTORS
330
455
102
}
330
455
100
AcDbXrecord
 10
0.0
 20
0.0
 30
0.0
  0
XRECORD
  5
474
102
{ACAD_REACTORS
330
455
102
}
330
455
100
AcDbXrecord
 10
0.0
 20
0.0
 30
0.0
  0
XRECORD
  5
472
102
{ACAD_REACTORS
330
455
102
}
330
455
100
AcDbXrecord
 10
0.0
 20
0.0
 30
0.0
  0
XRECORD
  5
473
102
{ACAD_REACTORS
330
455
102
}
330
455
100
AcDbXrecord
 10
0.0
 20
0.0
 30
0.0
  0
XRECORD
  5
470
102
{ACAD_REACTORS
330
455
102
}
330
455
100
AcDbXrecord
 10
0.0
 20
0.0
 30
0.0
  0
XRECORD
  5
46D
102
{ACAD_REACTORS
330
455
102
}
330
455
100
AcDbXrecord
340
0
  0
XRECORD
  5
46E
102
{ACAD_REACTORS
330
455
102
}
330
455
100
AcDbXrecord
 70
     0
  0
XRECORD
  5
461
102
{ACAD_REACTORS
330
455
102
}
330
455
100
AcDbXrecord
  1
{CDAEBCEF-BA1A-4340-8196-59F2AE1BDA4B}
  0
DICTIONARYVAR
  5
2F7
102
{ACAD_REACTORS
330
2F5
102
}
330
2F5
100
DictionaryVariables
280
     0
  1
2
  0
DICTIONARYVAR
  5
2F6
102
{ACAD_REACTORS
330
2F5
102
}
330
2F5
100
DictionaryVariables
280
     0
  1
1
  0
XRECORD
  5
17
102
{ACAD_REACTORS
330
16
102
}
330
16
100
AcDbXrecord
  1
$layers
  1
*
  1
*
  1
*
 70
     0
  1
*
  1
*
  0
XRECORD
  5
18
102
{ACAD_REACTORS
330
16
102
}
330
16
100
AcDbXrecord
  1
- und 0
  1
-*,0
  1
*
  1
*
 70
     0
  1
*
  1
*
  0
XRECORD
  5
19
102
{ACAD_REACTORS
330
16
102
}
330
16
100
AcDbXrecord
  1
-pegc
  1
*-pegc
  1
*
  1
*
 70
     0
  1
*
  1
*
  0
XRECORD
  5
1A
102
{ACAD_REACTORS
330
16
102
}
330
16
100
AcDbXrecord
  1
101
  1
*101
  1
*
  1
*
 70
   256
  1
*
  1
*
  0
XRECORD
  5
1B
102
{ACAD_REACTORS
330
16
102
}
330
16
100
AcDbXrecord
  1
102
  1
102*
  1
*
  1
*
 70
     0
  1
*
  1
*
  0
XRECORD
  5
1C
102
{ACAD_REACTORS
330
16
102
}
330
16
100
AcDbXrecord
  1
1duc
  1
*1duc*
  1
*
  1
*
 70
     0
  1
*
  1
*
  0
XRECORD
  5
1D
102
{ACAD_REACTORS
330
16
102
}
330
16
100
AcDbXrecord
  1
1eq
  1
*1eq*
  1
*
  1
*
 70
     0
  1
*
  1
*
  0
XRECORD
  5
1E
102
{ACAD_REACTORS
330
16
102
}
330
16
100
AcDbXrecord
  1
1tub
  1
*1t*
  1
*
  1
*
 70
     0
  1
*
  1
*
  0
XRECORD
  5
1F
102
{ACAD_REACTORS
330
16
102
}
330
16
100
AcDbXrecord
  1
2
  1
*
  1
2
  1
*
 70
     0
  1
*
  1
*
  0
XRECORD
  5
20
102
{ACAD_REACTORS
330
16
102
}
330
16
100
AcDbXrecord
  1
2000
  1
2000*
  1
*
  1
*
 70
     0
  1
*
  1
*
  0
XRECORD
  5
21
102
{ACAD_REACTORS
330
16
102
}
330
16
100
AcDbXrecord
  1
50
  1
*-50
  1
*
  1
*
 70
     0
  1
*
  1
*
  0
XRECORD
  5
22
102
{ACAD_REACTORS
330
16
102
}
330
16
100
AcDbXrecord
  1
58J
  1
*58*
  1
*
  1
*
 70
     0
  1
*
  1
*
  0
XRECORD
  5
23
102
{ACAD_REACTORS
330
16
102
}
330
16
100
AcDbXrecord
  1
65
  1
*65
  1
*
  1
*
 70
     0
  1
*
  1
*
  0
XRECORD
  5
24
102
{ACAD_REACTORS
330
16
102
}
330
16
100
AcDbXrecord
  1
aa
  1
aa*
  1
*
  1
*
 70
     0
  1
*
  1
*
  0
XRECORD
  5
25
102
{ACAD_REACTORS
330
16
102
}
330
16
100
AcDbXrecord
  1
acabados
  1
a-*
  1
*
  1
*
 70
     5
  1
*
  1
*
  0
XRECORD
  5
26
102
{ACAD_REACTORS
330
16
102
}
330
16
100
AcDbXrecord
  1
AGUA Y DREN
  1
A-DS-*
  1
*
  1
*
 70
     0
  1
*
  1
*
  0
XRECORD
  5
27
102
{ACAD_REACTORS
330
16
102
}
330
16
100
AcDbXrecord
  1
Aire
  1
*
  1
*
  1
*
 70
     0
  1
*
  1
*
  0
XRECORD
  5
28
102
{ACAD_REACTORS
330
16
102
}
330
16
100
AcDbXrecord
  1
alle aus
  1
99999999999
  1
*
  1
*
 70
     0
  1
*
  1
*
  0
XRECORD
  5
29
102
{ACAD_REACTORS
330
16
102
}
330
16
100
AcDbXrecord
  1
Alles mit S
  1
s*
  1
*
  1
*
 70
     0
  1
*
  1
*
  0
XRECORD
  5
2A
102
{ACAD_REACTORS
330
16
102
}
330
16
100
AcDbXrecord
  1
amarillo
  1
*
  1
yellow
  1
*
 70
     0
  1
*
  1
*
  0
XRECORD
  5
2B
102
{ACAD_REACTORS
330
16
102
}
330
16
100
AcDbXrecord
  1
APAGADOS
  1
*
  1
*
  1
*
 70
     4
  1
*
  1
*
  0
XRECORD
  5
2C
102
{ACAD_REACTORS
330
16
102
}
330
16
100
AcDbXrecord
  1
ARR
  1
ARR*
  1
*
  1
*
 70
     0
  1
*
  1
*
  0
XRECORD
  5
2D
102
{ACAD_REACTORS
330
16
102
}
330
16
100
AcDbXrecord
  1
ba
  1
*
  1
*
  1
*
 70
     0
  1
*
  1
*
  0
XRECORD
  5
2E
102
{ACAD_REACTORS
330
16
102
}
330
16
100
AcDbXrecord
  1
BACKS
  1
*-H
  1
*
  1
*
 70
     0
  1
*
  1
*
  0
XRECORD
  5
2F
102
{ACAD_REACTORS
330
16
102
}
330
16
100
AcDbXrecord
  1
BASE
  1
*-PBASE
  1
*
  1
*
 70
     0
  1
*
  1
*
  0
XRECORD
  5
30
102
{ACAD_REACTORS
330
16
102
}
330
16
100
AcDbXrecord
  1
BLOQ_INUTIL
  1
*
  1
*
  1
*
 70
     0
  1
*
  1
*
  0
XRECORD
  5
31
102
{ACAD_REACTORS
330
16
102
}
330
16
100
AcDbXrecord
  1
CADKON
  1
?[KAHBSM]?????[23M],?[KAHBSM]?????[23M][1456A-DGHILN-SU-Z]
  1
*
  1
*
 70
     0
  1
*
  1
*
  0
XRECORD
  5
32
102
{ACAD_REACTORS
330
16
102
}
330
16
100
AcDbXrecord
  1
carpinteria
  1
carp*
  1
*
  1
*
 70
     0
  1
*
  1
*
  0
XRECORD
  5
33
102
{ACAD_REACTORS
330
16
102
}
330
16
100
AcDbXrecord
  1
cerrados
  1
*
  1
*
  1
*
 70
   256
  1
*
  1
*
  0
XRECORD
  5
34
102
{ACAD_REACTORS
330
16
102
}
330
16
100
AcDbXrecord
  1
COL
  1
*
  1
*
  1
*
 70
     1
  1
*
  1
*
  0
XRECORD
  5
35
102
{ACAD_REACTORS
330
16
102
}
330
16
100
AcDbXrecord
  1
COLOR
  1
*
  1
253
  1
*
 70
     0
  1
*
  1
*
  0
XRECORD
  5
36
102
{ACAD_REACTORS
330
16
102
}
330
16
100
AcDbXrecord
  1
color 250
  1
*
  1
250
  1
*
 70
     0
  1
*
  1
*
  0
XRECORD
  5
37
102
{ACAD_REACTORS
330
16
102
}
330
16
100
AcDbXrecord
  1
COLORES
  1
*
  1
6
  1
*
 70
     0
  1
*
  1
*
  0
XRECORD
  5
38
102
{ACAD_REACTORS
330
16
102
}
330
16
100
AcDbXrecord
  1
Congelados
  1
*
  1
*
  1
*
 70
     4
  1
*
  1
*
  0
XRECORD
  5
39
102
{ACAD_REACTORS
330
16
102
}
330
16
100
AcDbXrecord
  1
CONJUNTO
  1
CON-*
  1
*
  1
*
 70
     0
  1
*
  1
*
  0
XRECORD
  5
3A
102
{ACAD_REACTORS
330
16
102
}
330
16
100
AcDbXrecord
  1
d1
  1
achurados
  1
*
  1
*
 70
     0
  1
*
  1
*
  0
XRECORD
  5
3B
102
{ACAD_REACTORS
330
16
102
}
330
16
100
AcDbXrecord
  1
DA_
  1
DA*
  1
*
  1
*
 70
     0
  1
*
  1
*
  0
XRECORD
  5
3C
102
{ACAD_REACTORS
330
16
102
}
330
16
100
AcDbXrecord
  1
DET-
  1
*
  1
*
  1
*
 70
     0
  1
*
  1
*
  0
XRECORD
  5
3D
102
{ACAD_REACTORS
330
16
102
}
330
16
100
AcDbXrecord
  1
DOR-H
  1
*
  1
7
  1
*
 70
     0
  1
*
  1
*
  0
XRECORD
  5
3E
102
{ACAD_REACTORS
330
16
102
}
330
16
100
AcDbXrecord
  1
ejes
  1
eje*
  1
*
  1
*
 70
     0
  1
*
  1
*
  0
XRECORD
  5
3F
102
{ACAD_REACTORS
330
16
102
}
330
16
100
AcDbXrecord
  1
ELECTRICO
  1
ELEC-*
  1
*
  1
*
 70
     0
  1
*
  1
*
  0
XRECORD
  5
40
102
{ACAD_REACTORS
330
16
102
}
330
16
100
AcDbXrecord
  1
F1
  1
Halaxref*
  1
*
  1
*
 70
     0
  1
*
  1
*
  0
XRECORD
  5
41
102
{ACAD_REACTORS
330
16
102
}
330
16
100
AcDbXrecord
  1
frozen
  1
*
  1
*
  1
*
 70
     4
  1
*
  1
*
  0
XRECORD
  5
42
102
{ACAD_REACTORS
330
16
102
}
330
16
100
AcDbXrecord
  1
grid
  1
*-PGRID
  1
*
  1
*
 70
     1
  1
*
  1
*
  0
XRECORD
  5
43
102
{ACAD_REACTORS
330
16
102
}
330
16
100
AcDbXrecord
  1
GRIDTXT
  1
*-PGRIDT
  1
*
  1
*
 70
     0
  1
*
  1
*
  0
XRECORD
  5
44
102
{ACAD_REACTORS
330
16
102
}
330
16
100
AcDbXrecord
  1
HATCH
  1
HAT*
  1
*
  1
*
 70
     0
  1
*
  1
*
  0
XRECORD
  5
45
102
{ACAD_REACTORS
330
16
102
}
330
16
100
AcDbXrecord
  1
HCAD
  1
1HCAD-*
  1
*
  1
*
 70
    13
  1
*
  1
*
  0
XRECORD
  5
46
102
{ACAD_REACTORS
330
16
102
}
330
16
100
AcDbXrecord
  1
INSTALACIONES
  1
I-*
  1
*
  1
*
 70
     0
  1
*
  1
*
  0
XRECORD
  5
47
102
{ACAD_REACTORS
330
16
102
}
330
16
100
AcDbXrecord
  1
JIZNI
  1
*-J
  1
*
  1
*
 70
     0
  1
*
  1
*
  0
XRECORD
  5
48
102
{ACAD_REACTORS
330
16
102
}
330
16
100
AcDbXrecord
  1
kck
  1
*
  1
*
  1
*
 70
     0
  1
*
  1
*
  0
XRECORD
  5
49
102
{ACAD_REACTORS
330
16
102
}
330
16
100
AcDbXrecord
  1
kkk
  1
k
  1
*
  1
*
 70
     0
  1
*
  1
*
  0
XRECORD
  5
4A
102
{ACAD_REACTORS
330
16
102
}
330
16
100
AcDbXrecord
  1
lay
  1
??-*
  1
*
  1
*
 70
     0
  1
*
  1
*
  0
XRECORD
  5
4E
102
{ACAD_REACTORS
330
16
102
}
330
16
100
AcDbXrecord
  1
Layer-0
  1
0*
  1
*
  1
*
 70
     0
  1
*
  1
*
  0
XRECORD
  5
4F
102
{ACAD_REACTORS
330
16
102
}
330
16
100
AcDbXrecord
  1
Layer-1
  1
1*
  1
*
  1
*
 70
     0
  1
*
  1
*
  0
XRECORD
  5
4B
102
{ACAD_REACTORS
330
16
102
}
330
16
100
AcDbXrecord
  1
Layer 1 und 0
  1
1*,0
  1
*
  1
*
 70
     0
  1
*
  1
*
  0
XRECORD
  5
4C
102
{ACAD_REACTORS
330
16
102
}
330
16
100
AcDbXrecord
  1
Layer 2 und 0
  1
2*,0
  1
*
  1
*
 70
     0
  1
*
  1
*
  0
XRECORD
  5
4D
102
{ACAD_REACTORS
330
16
102
}
330
16
100
AcDbXrecord
  1
Layer 9 und 0 Schraffur
  1
9*,0
  1
*
  1
*
 70
     0
  1
*
  1
*
  0
XRECORD
  5
50
102
{ACAD_REACTORS
330
16
102
}
330
16
100
AcDbXrecord
  1
LOCK
  1
*
  1
*
  1
*
 70
   256
  1
*
  1
*
  0
XRECORD
  5
51
102
{ACAD_REACTORS
330
16
102
}
330
16
100
AcDbXrecord
  1
locked
  1
*
  1
*
  1
*
 70
   256
  1
*
  1
*
  0
XRECORD
  5
52
102
{ACAD_REACTORS
330
16
102
}
330
16
100
AcDbXrecord
  1
Lotes
  1
*
  1
*
  1
*
 70
     1
  1
*
  1
*
  0
XRECORD
  5
53
102
{ACAD_REACTORS
330
16
102
}
330
16
100
AcDbXrecord
  1
LUNAR
  1
*
  1
*
  1
*
 70
    48
  1
*
  1
*
  0
XRECORD
  5
54
102
{ACAD_REACTORS
330
16
102
}
330
16
100
AcDbXrecord
  1
LUNAR2
  1
*
  1
*
  1
*
 70
    12
  1
*
  1
*
  0
XRECORD
  5
55
102
{ACAD_REACTORS
330
16
102
}
330
16
100
AcDbXrecord
  1
M
  1
M*
  1
*
  1
*
 70
     0
  1
*
  1
*
  0
XRECORD
  5
56
102
{ACAD_REACTORS
330
16
102
}
330
16
100
AcDbXrecord
  1
mis_layers
  1
mis_*
  1
*
  1
*
 70
     0
  1
*
  1
*
  0
XRECORD
  5
57
102
{ACAD_REACTORS
330
16
102
}
330
16
100
AcDbXrecord
  1
MRKCK
  1
*
  1
*
  1
*
 70
     0
  1
*
  1
*
  0
XRECORD
  5
58
102
{ACAD_REACTORS
330
16
102
}
330
16
100
AcDbXrecord
  1
NECADKON
  1
~*?[KAHBSM]?????[23M]*
  1
*
  1
*
 70
     0
  1
*
  1
*
  0
XRECORD
  5
59
102
{ACAD_REACTORS
330
16
102
}
330
16
100
AcDbXrecord
  1
NI_LH
  1
NI_LH*
  1
*
  1
*
 70
     0
  1
*
  1
*
  0
XRECORD
  5
5A
102
{ACAD_REACTORS
330
16
102
}
330
16
100
AcDbXrecord
  1
NI_RH
  1
NI_RH*
  1
*
  1
*
 70
     0
  1
*
  1
*
  0
XRECORD
  5
5B
102
{ACAD_REACTORS
330
16
102
}
330
16
100
AcDbXrecord
  1
NUM
  1
NUM*
  1
*
  1
*
 70
     0
  1
*
  1
*
  0
XRECORD
  5
5C
102
{ACAD_REACTORS
330
16
102
}
330
16
100
AcDbXrecord
  1
off
  1
*
  1
*
  1
*
 70
     3
  1
*
  1
*
  0
XRECORD
  5
5D
102
{ACAD_REACTORS
330
16
102
}
330
16
100
AcDbXrecord
  1
on
  1
*
  1
*
  1
*
 70
     0
  1
*
  1
*
  0
XRECORD
  5
5E
102
{ACAD_REACTORS
330
16
102
}
330
16
100
AcDbXrecord
  1
PBASE
  1
*PBASE
  1
*
  1
*
 70
     0
  1
*
  1
*
  0
XRECORD
  5
5F
102
{ACAD_REACTORS
330
16
102
}
330
16
100
AcDbXrecord
  1
PEGC
  1
*PEGC
  1
*
  1
*
 70
     0
  1
*
  1
*
  0
XRECORD
  5
60
102
{ACAD_REACTORS
330
16
102
}
330
16
100
AcDbXrecord
  1
PEGCT
  1
*PEGCT
  1
*
  1
*
 70
     0
  1
*
  1
*
  0
XRECORD
  5
61
102
{ACAD_REACTORS
330
16
102
}
330
16
100
AcDbXrecord
  1
PFRAME
  1
PFRAME*
  1
*
  1
*
 70
     0
  1
*
  1
*
  0
XRECORD
  5
62
102
{ACAD_REACTORS
330
16
102
}
330
16
100
AcDbXrecord
  1
PGRID
  1
*PGRID
  1
*
  1
*
 70
     0
  1
*
  1
*
  0
XRECORD
  5
63
102
{ACAD_REACTORS
330
16
102
}
330
16
100
AcDbXrecord
  1
PGRIDT
  1
*PGRIDT
  1
*
  1
*
 70
     0
  1
*
  1
*
  0
XRECORD
  5
64
102
{ACAD_REACTORS
330
16
102
}
330
16
100
AcDbXrecord
  1
PLAFONES
  1
0-*
  1
*
  1
*
 70
     0
  1
*
  1
*
  0
XRECORD
  5
65
102
{ACAD_REACTORS
330
16
102
}
330
16
100
AcDbXrecord
  1
PLANTAS
  1
P-*
  1
*
  1
*
 70
     0
  1
*
  1
*
  0
XRECORD
  5
66
102
{ACAD_REACTORS
330
16
102
}
330
16
100
AcDbXrecord
  1
Plot
  1
*
  1
*
  1
*
 70
  1024
  1
*
  1
*
  0
XRECORD
  5
67
102
{ACAD_REACTORS
330
16
102
}
330
16
100
AcDbXrecord
  1
PRENDIDAS
  1
*
  1
*
  1
*
 70
    13
  1
*
  1
*
  0
XRECORD
  5
68
102
{ACAD_REACTORS
330
16
102
}
330
16
100
AcDbXrecord
  1
PRENDIDOS
  1
*
  1
*
  1
*
 70
    12
  1
*
  1
*
  0
XRECORD
  5
69
102
{ACAD_REACTORS
330
16
102
}
330
16
100
AcDbXrecord
  1
print
  1
*
  1
7
  1
*
 70
  1280
  1
*
  1
*
  0
XRECORD
  5
6A
102
{ACAD_REACTORS
330
16
102
}
330
16
100
AcDbXrecord
  1
PT
  1
PT-*
  1
*
  1
*
 70
     0
  1
*
  1
*
  0
XRECORD
  5
6B
102
{ACAD_REACTORS
330
16
102
}
330
16
100
AcDbXrecord
  1
PTH
  1
PTH*
  1
*
  1
*
 70
     0
  1
*
  1
*
  0
XRECORD
  5
6C
102
{ACAD_REACTORS
330
16
102
}
330
16
100
AcDbXrecord
  1
PVGRID
  1
*PVGRID
  1
*
  1
*
 70
     0
  1
*
  1
*
  0
XRECORD
  5
6D
102
{ACAD_REACTORS
330
16
102
}
330
16
100
AcDbXrecord
  1
Red de Agua Potable
  1
Red de Agua Potable
  1
*
  1
*
 70
     1
  1
*
  1
*
  0
XRECORD
  5
6E
102
{ACAD_REACTORS
330
16
102
}
330
16
100
AcDbXrecord
  1
Red de Energia Electrica
  1
Lotes
  1
*
  1
*
 70
     1
  1
*
  1
*
  0
XRECORD
  5
6F
102
{ACAD_REACTORS
330
16
102
}
330
16
100
AcDbXrecord
  1
SEVERNI
  1
*-S
  1
*
  1
*
 70
     0
  1
*
  1
*
  0
XRECORD
  5
70
102
{ACAD_REACTORS
330
16
102
}
330
16
100
AcDbXrecord
  1
shin
  1
일*
  1
*
  1
*
 70
     0
  1
*
  1
*
  0
XRECORD
  5
71
102
{ACAD_REACTORS
330
16
102
}
330
16
100
AcDbXrecord
  1
SHOW ALL LAYER
  1
*
  1
*
  1
*
 70
     0
  1
*
  1
*
  0
XRECORD
  5
72
102
{ACAD_REACTORS
330
16
102
}
330
16
100
AcDbXrecord
  1
sin
  1
sin
  1
*
  1
*
 70
     0
  1
*
  1
*
  0
XRECORD
  5
73
102
{ACAD_REACTORS
330
16
102
}
330
16
100
AcDbXrecord
  1
STORAGE-CART
  1
STORAGE-CART*
  1
*
  1
*
 70
     0
  1
*
  1
*
  0
XRECORD
  5
74
102
{ACAD_REACTORS
330
16
102
}
330
16
100
AcDbXrecord
  1
T
  1
T*
  1
*
  1
*
 70
     0
  1
*
  1
*
  0
XRECORD
  5
75
102
{ACAD_REACTORS
330
16
102
}
330
16
100
AcDbXrecord
  1
TEXTOS
  1
TXT*
  1
*
  1
*
 70
     0
  1
*
  1
*
  0
XRECORD
  5
76
102
{ACAD_REACTORS
330
16
102
}
330
16
100
AcDbXrecord
  1
TEXTURAS
  1
*TEXTURAS
  1
*
  1
*
 70
     0
  1
*
  1
*
  0
XRECORD
  5
77
102
{ACAD_REACTORS
330
16
102
}
330
16
100
AcDbXrecord
  1
TUBERIAS
  1
T*
  1
*
  1
*
 70
     0
  1
*
  1
*
  0
XRECORD
  5
78
102
{ACAD_REACTORS
330
16
102
}
330
16
100
AcDbXrecord
  1
UNFRZ
  1
*
  1
*
  1
*
 70
    12
  1
*
  1
*
  0
XRECORD
  5
79
102
{ACAD_REACTORS
330
16
102
}
330
16
100
AcDbXrecord
  1
v\U+0161echny nepou\U+017E\U+00EDvan\U+00E9
  1
*
  1
*
  1
*
 70
     0
  1
*
  1
*
  0
XRECORD
  5
7A
102
{ACAD_REACTORS
330
16
102
}
330
16
100
AcDbXrecord
  1
VA
  1
VA*
  1
*
  1
*
 70
     0
  1
*
  1
*
  0
XRECORD
  5
7B
102
{ACAD_REACTORS
330
16
102
}
330
16
100
AcDbXrecord
  1
Ventilaci\U+00F3n
  1
*
  1
*
  1
*
 70
     0
  1
*
  1
*
  0
XRECORD
  5
7C
102
{ACAD_REACTORS
330
16
102
}
330
16
100
AcDbXrecord
  1
VYHODNI
  1
*-V
  1
*
  1
*
 70
     0
  1
*
  1
*
  0
XRECORD
  5
7D
102
{ACAD_REACTORS
330
16
102
}
330
16
100
AcDbXrecord
  1
Yo
  1
Muros
  1
*
  1
*
 70
     0
  1
*
  1
*
  0
XRECORD
  5
7E
102
{ACAD_REACTORS
330
16
102
}
330
16
100
AcDbXrecord
  1
ZAPADNI
  1
*-Z
  1
*
  1
*
 70
     0
  1
*
  1
*
  0
XRECORD
  5
7F
102
{ACAD_REACTORS
330
16
102
}
330
16
100
AcDbXrecord
  1
사용
  1
*
  1
*
  1
*
 70
   256
  1
*
  1
*
  0
XRECORD
  5
80
102
{ACAD_REACTORS
330
16
102
}
330
16
100
AcDbXrecord
  1
신규
  1
신규
  1
*
  1
*
 70
     0
  1
*
  1
*
  0
XRECORD
  5
81
102
{ACAD_REACTORS
330
16
102
}
330
16
100
AcDbXrecord
  1
실박스
  1
BLO,SYM,SYM1,SYM2
  1
*
  1
*
 70
     0
  1
*
  1
*
  0
XRECORD
  5
82
102
{ACAD_REACTORS
330
16
102
}
330
16
100
AcDbXrecord
  1
우리토목
  1
w-*
  1
*
  1
*
 70
     0
  1
*
  1
*
  0
XRECORD
  5
83
102
{ACAD_REACTORS
330
16
102
}
330
16
100
AcDbXrecord
  1
주차
  1
car*
  1
*
  1
*
 70
     0
  1
*
  1
*
  0
XRECORD
  5
84
102
{ACAD_REACTORS
330
16
102
}
330
16
100
AcDbXrecord
  1
지상정밀
  1
*
  1
*
  1
*
 70
     0
  1
*
  1
*
  0
XRECORD
  5
85
102
{ACAD_REACTORS
330
16
102
}
330
16
100
AcDbXrecord
  1
쩜선
  1
*
  1
*
  1
*
 70
     0
  1
*
  1
*
  0
XRECORD
  5
86
102
{ACAD_REACTORS
330
16
102
}
330
16
100
AcDbXrecord
  1
플로터 작업층
  1
*
  1
*
  1
*
 70
  1025
  1
*
  1
*
  0
XRECORD
  5
87
102
{ACAD_REACTORS
330
16
102
}
330
16
100
AcDbXrecord
  1
현재 작업층
  1
*
  1
*
  1
*
 70
     1
  1
*
  1
*
  0
XRECORD
  5
88
102
{ACAD_REACTORS
330
16
102
}
330
16
100
AcDbXrecord
  1
현재 잠금
  1
*
  1
*
  1
*
 70
   257
  1
*
  1
*
  0
ENDSEC
  0
EOF
