  0
SECTION
  2
HEADER
  9
$ACADVER
  1
AC1014
  9
$ACADMAINTVER
 70
     9
  9
$DWGCODEPAGE
  3
ANSI_949
  9
$INSBASE
 10
0.0
 20
0.0
 30
0.0
  9
$EXTMIN
 10
-82.95609294940755
 20
-143.7959436910707
 30
-0.0000000000112498
  9
$EXTMAX
 10
201.1285637452597
 20
134.0807758238284
 30
0.0000000000002956
  9
$LIMMIN
 10
0.0
 20
0.0
  9
$LIMMAX
 10
420.0
 20
297.0
  9
$ORTHOMODE
 70
     0
  9
$REGENMODE
 70
     1
  9
$FILLMODE
 70
     1
  9
$QTEXTMODE
 70
     0
  9
$MIRRTEXT
 70
     0
  9
$DRAGMODE
 70
     2
  9
$LTSCALE
 40
0.2
  9
$OSMODE
 70
  3071
  9
$ATTMODE
 70
     1
  9
$TEXTSIZE
 40
5.777225951253058
  9
$TRACEWID
 40
1.0
  9
$TEXTSTYLE
  7
STANDARD
  9
$CLAYER
  8
0
  9
$CELTYPE
  6
BYLAYER
  9
$CECOLOR
 62
   256
  9
$CELTSCALE
 40
1.0
  9
$DELOBJ
 70
     1
  9
$DISPSILH
 70
     0
  9
$DIMSCALE
 40
1.0
  9
$DIMASZ
 40
3.0
  9
$DIMEXO
 40
1.0
  9
$DIMDLI
 40
10.0
  9
$DIMRND
 40
0.0
  9
$DIMDLE
 40
0.0
  9
$DIMEXE
 40
0.6
  9
$DIMTP
 40
0.0
  9
$DIMTM
 40
0.0
  9
$DIMTXT
 40
3.5
  9
$DIMCEN
 40
0.09
  9
$DIMTSZ
 40
0.0
  9
$DIMTOL
 70
     0
  9
$DIMLIM
 70
     0
  9
$DIMTIH
 70
     0
  9
$DIMTOH
 70
     0
  9
$DIMSE1
 70
     0
  9
$DIMSE2
 70
     0
  9
$DIMTAD
 70
     1
  9
$DIMZIN
 70
     8
  9
$DIMBLK
  1

  9
$DIMASO
 70
     1
  9
$DIMSHO
 70
     1
  9
$DIMPOST
  1

  9
$DIMAPOST
  1

  9
$DIMALT
 70
     0
  9
$DIMALTD
 70
     2
  9
$DIMALTF
 40
25.4
  9
$DIMLFAC
 40
1.0
  9
$DIMTOFL
 70
     1
  9
$DIMTVP
 40
0.0
  9
$DIMTIX
 70
     1
  9
$DIMSOXD
 70
     0
  9
$DIMSAH
 70
     0
  9
$DIMBLK1
  1

  9
$DIMBLK2
  1

  9
$DIMSTYLE
  2
1_1_2
  9
$DIMCLRD
 70
   123
  9
$DIMCLRE
 70
   123
  9
$DIMCLRT
 70
     3
  9
$DIMTFAC
 40
1.0
  9
$DIMGAP
 40
1.0
  9
$DIMJUST
 70
     0
  9
$DIMSD1
 70
     0
  9
$DIMSD2
 70
     0
  9
$DIMTOLJ
 70
     1
  9
$DIMTZIN
 70
     0
  9
$DIMALTZ
 70
     0
  9
$DIMALTTZ
 70
     0
  9
$DIMFIT
 70
     3
  9
$DIMUPT
 70
     1
  9
$DIMUNIT
 70
     2
  9
$DIMDEC
 70
     2
  9
$DIMTDEC
 70
     2
  9
$DIMALTU
 70
     2
  9
$DIMALTTD
 70
     2
  9
$DIMTXSTY
  7
STANDARD
  9
$DIMAUNIT
 70
     1
  9
$LUNITS
 70
     2
  9
$LUPREC
 70
     4
  9
$SKETCHINC
 40
1.0
  9
$FILLETRAD
 40
0.5
  9
$AUNITS
 70
     0
  9
$AUPREC
 70
     0
  9
$MENU
  1
.
  9
$ELEVATION
 40
0.0
  9
$PELEVATION
 40
0.0
  9
$THICKNESS
 40
0.0
  9
$LIMCHECK
 70
     0
  9
$BLIPMODE
 70
     0
  9
$CHAMFERA
 40
1.0
  9
$CHAMFERB
 40
1.0
  9
$CHAMFERC
 40
20.0
  9
$CHAMFERD
 40
0.0
  9
$SKPOLY
 70
     0
  9
$TDCREATE
 40
2452839.586179271
  9
$TDUPDATE
 40
2453385.420380856
  9
$TDINDWG
 40
11.1201673958
  9
$TDUSRTIMER
 40
11.1201661343
  9
$USRTIMER
 70
     1
  9
$ANGBASE
 50
0.0
  9
$ANGDIR
 70
     0
  9
$PDMODE
 70
     0
  9
$PDSIZE
 40
0.0
  9
$PLINEWID
 40
0.0
  9
$COORDS
 70
     1
  9
$SPLFRAME
 70
     0
  9
$SPLINETYPE
 70
     6
  9
$SPLINESEGS
 70
   800
  9
$ATTDIA
 70
     0
  9
$ATTREQ
 70
     1
  9
$HANDLING
 70
 22529
  9
$HANDSEED
  5
50C
  9
$SURFTAB1
 70
     6
  9
$SURFTAB2
 70
     6
  9
$SURFTYPE
 70
     6
  9
$SURFU
 70
     6
  9
$SURFV
 70
     6
  9
$UCSNAME
  2

  9
$UCSORG
 10
0.0
 20
0.0
 30
0.0
  9
$UCSXDIR
 10
1.0
 20
0.0
 30
0.0
  9
$UCSYDIR
 10
0.0
 20
1.0
 30
0.0
  9
$PUCSNAME
  2

  9
$PUCSORG
 10
0.0
 20
0.0
 30
0.0
  9
$PUCSXDIR
 10
1.0
 20
0.0
 30
0.0
  9
$PUCSYDIR
 10
0.0
 20
1.0
 30
0.0
  9
$USERI1
 70
     0
  9
$USERI2
 70
     0
  9
$USERI3
 70
     0
  9
$USERI4
 70
     0
  9
$USERI5
 70
     0
  9
$USERR1
 40
0.0
  9
$USERR2
 40
0.0
  9
$USERR3
 40
0.0
  9
$USERR4
 40
0.0
  9
$USERR5
 40
0.0
  9
$WORLDVIEW
 70
     1
  9
$SHADEDGE
 70
     3
  9
$SHADEDIF
 70
    70
  9
$TILEMODE
 70
     1
  9
$MAXACTVP
 70
    48
  9
$PINSBASE
 10
0.0
 20
0.0
 30
0.0
  9
$PLIMCHECK
 70
     0
  9
$PEXTMIN
 10
0.0
 20
0.0
 30
0.0
  9
$PEXTMAX
 10
0.0
 20
0.0
 30
0.0
  9
$PLIMMIN
 10
0.0
 20
0.0
  9
$PLIMMAX
 10
12.0
 20
9.0
  9
$UNITMODE
 70
     0
  9
$VISRETAIN
 70
     1
  9
$PLINEGEN
 70
     0
  9
$PSLTSCALE
 70
     1
  9
$TREEDEPTH
 70
  3020
  9
$PICKSTYLE
 70
     1
  9
$CMLSTYLE
  2
STANDARD
  9
$CMLJUST
 70
     0
  9
$CMLSCALE
 40
20.0
  9
$PROXYGRAPHICS
 70
     1
  9
$MEASUREMENT
 70
     1
  0
ENDSEC
  0
SECTION
  2
CLASSES
  0
CLASS
  1
ACDBDICTIONARYWDFLT
  2
AcDbDictionaryWithDefault
  3
AutoCAD 2000
 90
        0
280
     0
281
     0
  0
CLASS
  1
ACDBPLACEHOLDER
  2
AcDbPlaceHolder
  3
AutoCAD 2000
 90
        0
280
     0
281
     0
  0
CLASS
  1
LAYOUT
  2
AcDbLayout
  3
AutoCAD 2000
 90
        0
280
     0
281
     0
  0
CLASS
  1
DICTIONARYVAR
  2
AcDbDictionaryVar
  3
AutoCAD 2000
 90
        0
280
     0
281
     0
  0
CLASS
  1
DIMASSOC
  2
AcDbDimAssoc
  3
"AcDbDimAssoc|Product Desc:     AcDim ARX App For Dimension|Company:          Autodesk, Inc.|WEB Address:      www.autodesk.com"
 90
        0
280
     0
281
     0
  0
CLASS
  1
LONG_TRANSACTION
  2
AcDbLongTransaction
  3
AutoCAD 2000
 90
        0
280
     0
281
     0
  0
CLASS
  1
LWPOLYLINE
  2
AcDbPolyline
  3
AutoCAD 2000
 90
        0
280
     0
281
     1
  0
CLASS
  1
HATCH
  2
AcDbHatch
  3
AutoCAD 2000
 90
        0
280
     0
281
     1
  0
CLASS
  1
XRECORD
  2
AcDbXrecord
  3
AutoCAD 2000
 90
        0
280
     0
281
     0
  0
CLASS
  1
LONG_TRANSACTION
  2
AcDbLongTransaction
  3
AutoCAD 2000
 90
        0
280
     0
281
     0
  0
CLASS
  1
LWPOLYLINE
  2
AcDbPolyline
  3
AutoCAD 2000
 90
        0
280
     0
281
     1
  0
CLASS
  1
HATCH
  2
AcDbHatch
  3
AutoCAD 2000
 90
        0
280
     0
281
     1
  0
CLASS
  1
XRECORD
  2
AcDbXrecord
  3
AutoCAD 2000
 90
        0
280
     0
281
     0
  0
CLASS
  1
LONG_TRANSACTION
  2
AcDbLongTransaction
  3
AutoCAD 2000
 90
        0
280
     0
281
     0
  0
CLASS
  1
LWPOLYLINE
  2
AcDbPolyline
  3
AutoCAD 2000
 90
        0
280
     0
281
     1
  0
CLASS
  1
HATCH
  2
AcDbHatch
  3
AutoCAD 2000
 90
        0
280
     0
281
     1
  0
CLASS
  1
XRECORD
  2
AcDbXrecord
  3
AutoCAD 2000
 90
        0
280
     0
281
     0
  0
CLASS
  1
LONG_TRANSACTION
  2
AcDbLongTransaction
  3
AutoCAD 2000
 90
        0
280
     0
281
     0
  0
CLASS
  1
LWPOLYLINE
  2
AcDbPolyline
  3
AutoCAD 2000
 90
        0
280
     0
281
     1
  0
CLASS
  1
HATCH
  2
AcDbHatch
  3
AutoCAD 2000
 90
        0
280
     0
281
     1
  0
CLASS
  1
XRECORD
  2
AcDbXrecord
  3
AutoCAD 2000
 90
        0
280
     0
281
     0
  0
CLASS
  1
LONG_TRANSACTION
  2
AcDbLongTransaction
  3
AutoCAD 2000
 90
        0
280
     0
281
     0
  0
CLASS
  1
LWPOLYLINE
  2
AcDbPolyline
  3
AutoCAD 2000
 90
        0
280
     0
281
     1
  0
CLASS
  1
HATCH
  2
AcDbHatch
  3
AutoCAD 2000
 90
        0
280
     0
281
     1
  0
CLASS
  1
XRECORD
  2
AcDbXrecord
  3
AutoCAD 2000
 90
        0
280
     0
281
     0
  0
CLASS
  1
LONG_TRANSACTION
  2
AcDbLongTransaction
  3
AutoCAD 2000
 90
        0
280
     0
281
     0
  0
CLASS
  1
LWPOLYLINE
  2
AcDbPolyline
  3
AutoCAD 2000
 90
        0
280
     0
281
     1
  0
CLASS
  1
HATCH
  2
AcDbHatch
  3
AutoCAD 2000
 90
        0
280
     0
281
     1
  0
CLASS
  1
XRECORD
  2
AcDbXrecord
  3
AutoCAD 2000
 90
        0
280
     0
281
     0
  0
CLASS
  1
LONG_TRANSACTION
  2
AcDbLongTransaction
  3
AutoCAD 2000
 90
        0
280
     0
281
     0
  0
CLASS
  1
LWPOLYLINE
  2
AcDbPolyline
  3
AutoCAD 2000
 90
        0
280
     0
281
     1
  0
CLASS
  1
HATCH
  2
AcDbHatch
  3
AutoCAD 2000
 90
        0
280
     0
281
     1
  0
CLASS
  1
XRECORD
  2
AcDbXrecord
  3
AutoCAD 2000
 90
        0
280
     0
281
     0
  0
CLASS
  1
LONG_TRANSACTION
  2
AcDbLongTransaction
  3
AutoCAD 2000
 90
        0
280
     0
281
     0
  0
CLASS
  1
LWPOLYLINE
  2
AcDbPolyline
  3
AutoCAD 2000
 90
        0
280
     0
281
     1
  0
CLASS
  1
HATCH
  2
AcDbHatch
  3
AutoCAD 2000
 90
        0
280
     0
281
     1
  0
CLASS
  1
XRECORD
  2
AcDbXrecord
  3
AutoCAD 2000
 90
        0
280
     0
281
     0
  0
CLASS
  1
LONG_TRANSACTION
  2
AcDbLongTransaction
  3
AutoCAD 2000
 90
        0
280
     0
281
     0
  0
CLASS
  1
LWPOLYLINE
  2
AcDbPolyline
  3
AutoCAD 2000
 90
        0
280
     0
281
     1
  0
CLASS
  1
HATCH
  2
AcDbHatch
  3
AutoCAD 2000
 90
        0
280
     0
281
     1
  0
CLASS
  1
XRECORD
  2
AcDbXrecord
  3
AutoCAD 2000
 90
        0
280
     0
281
     0
  0
CLASS
  1
LONG_TRANSACTION
  2
AcDbLongTransaction
  3
AutoCAD 2000
 90
        0
280
     0
281
     0
  0
CLASS
  1
LWPOLYLINE
  2
AcDbPolyline
  3
AutoCAD 2000
 90
        0
280
     0
281
     1
  0
CLASS
  1
HATCH
  2
AcDbHatch
  3
AutoCAD 2000
 90
        0
280
     0
281
     1
  0
CLASS
  1
XRECORD
  2
AcDbXrecord
  3
AutoCAD 2000
 90
        0
280
     0
281
     0
  0
CLASS
  1
LONG_TRANSACTION
  2
AcDbLongTransaction
  3
AutoCAD 2000
 90
        0
280
     0
281
     0
  0
CLASS
  1
LWPOLYLINE
  2
AcDbPolyline
  3
AutoCAD 2000
 90
        0
280
     0
281
     1
  0
CLASS
  1
HATCH
  2
AcDbHatch
  3
AutoCAD 2000
 90
        0
280
     0
281
     1
  0
CLASS
  1
XRECORD
  2
AcDbXrecord
  3
AutoCAD 2000
 90
        0
280
     0
281
     0
  0
CLASS
  1
LONG_TRANSACTION
  2
AcDbLongTransaction
  3
AutoCAD 2000
 90
        0
280
     0
281
     0
  0
CLASS
  1
LWPOLYLINE
  2
AcDbPolyline
  3
AutoCAD 2000
 90
        0
280
     0
281
     1
  0
CLASS
  1
HATCH
  2
AcDbHatch
  3
AutoCAD 2000
 90
        0
280
     0
281
     1
  0
CLASS
  1
XRECORD
  2
AcDbXrecord
  3
AutoCAD 2000
 90
        0
280
     0
281
     0
  0
CLASS
  1
LONG_TRANSACTION
  2
AcDbLongTransaction
  3
AutoCAD 2000
 90
        0
280
     0
281
     0
  0
CLASS
  1
LWPOLYLINE
  2
AcDbPolyline
  3
AutoCAD 2000
 90
        0
280
     0
281
     1
  0
CLASS
  1
HATCH
  2
AcDbHatch
  3
AutoCAD 2000
 90
        0
280
     0
281
     1
  0
CLASS
  1
XRECORD
  2
AcDbXrecord
  3
AutoCAD 2000
 90
        0
280
     0
281
     0
  0
CLASS
  1
LONG_TRANSACTION
  2
AcDbLongTransaction
  3
AutoCAD 2000
 90
        0
280
     0
281
     0
  0
CLASS
  1
LWPOLYLINE
  2
AcDbPolyline
  3
AutoCAD 2000
 90
        0
280
     0
281
     1
  0
CLASS
  1
HATCH
  2
AcDbHatch
  3
AutoCAD 2000
 90
        0
280
     0
281
     1
  0
CLASS
  1
XRECORD
  2
AcDbXrecord
  3
AutoCAD 2000
 90
        0
280
     0
281
     0
  0
CLASS
  1
LONG_TRANSACTION
  2
AcDbLongTransaction
  3
AutoCAD 2000
 90
        0
280
     0
281
     0
  0
CLASS
  1
LWPOLYLINE
  2
AcDbPolyline
  3
AutoCAD 2000
 90
        0
280
     0
281
     1
  0
CLASS
  1
HATCH
  2
AcDbHatch
  3
AutoCAD 2000
 90
        0
280
     0
281
     1
  0
CLASS
  1
XRECORD
  2
AcDbXrecord
  3
AutoCAD 2000
 90
        0
280
     0
281
     0
  0
CLASS
  1
LONG_TRANSACTION
  2
AcDbLongTransaction
  3
AutoCAD 2000
 90
        0
280
     0
281
     0
  0
CLASS
  1
LWPOLYLINE
  2
AcDbPolyline
  3
AutoCAD 2000
 90
        0
280
     0
281
     1
  0
CLASS
  1
HATCH
  2
AcDbHatch
  3
AutoCAD 2000
 90
        0
280
     0
281
     1
  0
CLASS
  1
XRECORD
  2
AcDbXrecord
  3
AutoCAD 2000
 90
        0
280
     0
281
     0
  0
CLASS
  1
LONG_TRANSACTION
  2
AcDbLongTransaction
  3
AutoCAD 2000
 90
        0
280
     0
281
     0
  0
CLASS
  1
LWPOLYLINE
  2
AcDbPolyline
  3
AutoCAD 2000
 90
        0
280
     0
281
     1
  0
CLASS
  1
HATCH
  2
AcDbHatch
  3
AutoCAD 2000
 90
        0
280
     0
281
     1
  0
CLASS
  1
XRECORD
  2
AcDbXrecord
  3
AutoCAD 2000
 90
        0
280
     0
281
     0
  0
CLASS
  1
LONG_TRANSACTION
  2
AcDbLongTransaction
  3
AutoCAD 2000
 90
        0
280
     0
281
     0
  0
CLASS
  1
LWPOLYLINE
  2
AcDbPolyline
  3
AutoCAD 2000
 90
        0
280
     0
281
     1
  0
CLASS
  1
HATCH
  2
AcDbHatch
  3
AutoCAD 2000
 90
        0
280
     0
281
     1
  0
CLASS
  1
XRECORD
  2
AcDbXrecord
  3
AutoCAD 2000
 90
        0
280
     0
281
     0
  0
CLASS
  1
LONG_TRANSACTION
  2
AcDbLongTransaction
  3
AutoCAD 2000
 90
        0
280
     0
281
     0
  0
CLASS
  1
LWPOLYLINE
  2
AcDbPolyline
  3
AutoCAD 2000
 90
        0
280
     0
281
     1
  0
CLASS
  1
HATCH
  2
AcDbHatch
  3
AutoCAD 2000
 90
        0
280
     0
281
     1
  0
CLASS
  1
XRECORD
  2
AcDbXrecord
  3
AutoCAD 2000
 90
        0
280
     0
281
     0
  0
CLASS
  1
LONG_TRANSACTION
  2
AcDbLongTransaction
  3
AutoCAD 2000
 90
        0
280
     0
281
     0
  0
CLASS
  1
LWPOLYLINE
  2
AcDbPolyline
  3
AutoCAD 2000
 90
        0
280
     0
281
     1
  0
CLASS
  1
HATCH
  2
AcDbHatch
  3
AutoCAD 2000
 90
        0
280
     0
281
     1
  0
CLASS
  1
XRECORD
  2
AcDbXrecord
  3
AutoCAD 2000
 90
        0
280
     0
281
     0
  0
CLASS
  1
LONG_TRANSACTION
  2
AcDbLongTransaction
  3
AutoCAD 2000
 90
        0
280
     0
281
     0
  0
CLASS
  1
LWPOLYLINE
  2
AcDbPolyline
  3
AutoCAD 2000
 90
        0
280
     0
281
     1
  0
CLASS
  1
HATCH
  2
AcDbHatch
  3
AutoCAD 2000
 90
        0
280
     0
281
     1
  0
CLASS
  1
XRECORD
  2
AcDbXrecord
  3
AutoCAD 2000
 90
        0
280
     0
281
     0
  0
CLASS
  1
LONG_TRANSACTION
  2
AcDbLongTransaction
  3
AutoCAD 2000
 90
        0
280
     0
281
     0
  0
CLASS
  1
LWPOLYLINE
  2
AcDbPolyline
  3
AutoCAD 2000
 90
        0
280
     0
281
     1
  0
CLASS
  1
HATCH
  2
AcDbHatch
  3
AutoCAD 2000
 90
        0
280
     0
281
     1
  0
CLASS
  1
XRECORD
  2
AcDbXrecord
  3
AutoCAD 2000
 90
        0
280
     0
281
     0
  0
CLASS
  1
LONG_TRANSACTION
  2
AcDbLongTransaction
  3
AutoCAD 2000
 90
        0
280
     0
281
     0
  0
CLASS
  1
LWPOLYLINE
  2
AcDbPolyline
  3
AutoCAD 2000
 90
        0
280
     0
281
     1
  0
CLASS
  1
HATCH
  2
AcDbHatch
  3
AutoCAD 2000
 90
        0
280
     0
281
     1
  0
CLASS
  1
XRECORD
  2
AcDbXrecord
  3
AutoCAD 2000
 90
        0
280
     0
281
     0
  0
CLASS
  1
LONG_TRANSACTION
  2
AcDbLongTransaction
  3
AutoCAD 2000
 90
        0
280
     0
281
     0
  0
CLASS
  1
LWPOLYLINE
  2
AcDbPolyline
  3
AutoCAD 2000
 90
        0
280
     0
281
     1
  0
CLASS
  1
HATCH
  2
AcDbHatch
  3
AutoCAD 2000
 90
        0
280
     0
281
     1
  0
CLASS
  1
XRECORD
  2
AcDbXrecord
  3
AutoCAD 2000
 90
        0
280
     0
281
     0
  0
CLASS
  1
LONG_TRANSACTION
  2
AcDbLongTransaction
  3
AutoCAD 2000
 90
        0
280
     0
281
     0
  0
CLASS
  1
LWPOLYLINE
  2
AcDbPolyline
  3
AutoCAD 2000
 90
        0
280
     0
281
     1
  0
CLASS
  1
HATCH
  2
AcDbHatch
  3
AutoCAD 2000
 90
        0
280
     0
281
     1
  0
CLASS
  1
XRECORD
  2
AcDbXrecord
  3
AutoCAD 2000
 90
        0
280
     0
281
     0
  0
CLASS
  1
LONG_TRANSACTION
  2
AcDbLongTransaction
  3
AutoCAD 2000
 90
        0
280
     0
281
     0
  0
CLASS
  1
LWPOLYLINE
  2
AcDbPolyline
  3
AutoCAD 2000
 90
        0
280
     0
281
     1
  0
CLASS
  1
HATCH
  2
AcDbHatch
  3
AutoCAD 2000
 90
        0
280
     0
281
     1
  0
CLASS
  1
XRECORD
  2
AcDbXrecord
  3
AutoCAD 2000
 90
        0
280
     0
281
     0
  0
CLASS
  1
LONG_TRANSACTION
  2
AcDbLongTransaction
  3
AutoCAD 2000
 90
        0
280
     0
281
     0
  0
CLASS
  1
LWPOLYLINE
  2
AcDbPolyline
  3
AutoCAD 2000
 90
        0
280
     0
281
     1
  0
CLASS
  1
HATCH
  2
AcDbHatch
  3
AutoCAD 2000
 90
        0
280
     0
281
     1
  0
CLASS
  1
XRECORD
  2
AcDbXrecord
  3
AutoCAD 2000
 90
        0
280
     0
281
     0
  0
CLASS
  1
LONG_TRANSACTION
  2
AcDbLongTransaction
  3
AutoCAD 2000
 90
        0
280
     0
281
     0
  0
CLASS
  1
LWPOLYLINE
  2
AcDbPolyline
  3
AutoCAD 2000
 90
        0
280
     0
281
     1
  0
CLASS
  1
HATCH
  2
AcDbHatch
  3
AutoCAD 2000
 90
        0
280
     0
281
     1
  0
CLASS
  1
XRECORD
  2
AcDbXrecord
  3
AutoCAD 2000
 90
        0
280
     0
281
     0
  0
CLASS
  1
LONG_TRANSACTION
  2
AcDbLongTransaction
  3
AutoCAD 2000
 90
        0
280
     0
281
     0
  0
CLASS
  1
LWPOLYLINE
  2
AcDbPolyline
  3
AutoCAD 2000
 90
        0
280
     0
281
     1
  0
CLASS
  1
HATCH
  2
AcDbHatch
  3
AutoCAD 2000
 90
        0
280
     0
281
     1
  0
CLASS
  1
XRECORD
  2
AcDbXrecord
  3
AutoCAD 2000
 90
        0
280
     0
281
     0
  0
CLASS
  1
LONG_TRANSACTION
  2
AcDbLongTransaction
  3
AutoCAD 2000
 90
        0
280
     0
281
     0
  0
CLASS
  1
LWPOLYLINE
  2
AcDbPolyline
  3
AutoCAD 2000
 90
        0
280
     0
281
     1
  0
CLASS
  1
HATCH
  2
AcDbHatch
  3
AutoCAD 2000
 90
        0
280
     0
281
     1
  0
CLASS
  1
XRECORD
  2
AcDbXrecord
  3
AutoCAD 2000
 90
        0
280
     0
281
     0
  0
CLASS
  1
LONG_TRANSACTION
  2
AcDbLongTransaction
  3
AutoCAD 2000
 90
        0
280
     0
281
     0
  0
CLASS
  1
LWPOLYLINE
  2
AcDbPolyline
  3
AutoCAD 2000
 90
        0
280
     0
281
     1
  0
CLASS
  1
HATCH
  2
AcDbHatch
  3
AutoCAD 2000
 90
        0
280
     0
281
     1
  0
CLASS
  1
XRECORD
  2
AcDbXrecord
  3
AutoCAD 2000
 90
        0
280
     0
281
     0
  0
CLASS
  1
LONG_TRANSACTION
  2
AcDbLongTransaction
  3
AutoCAD 2000
 90
        0
280
     0
281
     0
  0
CLASS
  1
LWPOLYLINE
  2
AcDbPolyline
  3
AutoCAD 2000
 90
        0
280
     0
281
     1
  0
CLASS
  1
HATCH
  2
AcDbHatch
  3
AutoCAD 2000
 90
        0
280
     0
281
     1
  0
CLASS
  1
XRECORD
  2
AcDbXrecord
  3
AutoCAD 2000
 90
        0
280
     0
281
     0
  0
CLASS
  1
LONG_TRANSACTION
  2
AcDbLongTransaction
  3
AutoCAD 2000
 90
        0
280
     0
281
     0
  0
CLASS
  1
LWPOLYLINE
  2
AcDbPolyline
  3
AutoCAD 2000
 90
        0
280
     0
281
     1
  0
CLASS
  1
HATCH
  2
AcDbHatch
  3
AutoCAD 2000
 90
        0
280
     0
281
     1
  0
CLASS
  1
XRECORD
  2
AcDbXrecord
  3
AutoCAD 2000
 90
        0
280
     0
281
     0
  0
CLASS
  1
LONG_TRANSACTION
  2
AcDbLongTransaction
  3
AutoCAD 2000
 90
        0
280
     0
281
     0
  0
CLASS
  1
LWPOLYLINE
  2
AcDbPolyline
  3
AutoCAD 2000
 90
        0
280
     0
281
     1
  0
CLASS
  1
HATCH
  2
AcDbHatch
  3
AutoCAD 2000
 90
        0
280
     0
281
     1
  0
CLASS
  1
XRECORD
  2
AcDbXrecord
  3
AutoCAD 2000
 90
        0
280
     0
281
     0
  0
CLASS
  1
LONG_TRANSACTION
  2
AcDbLongTransaction
  3
AutoCAD 2000
 90
        0
280
     0
281
     0
  0
CLASS
  1
LWPOLYLINE
  2
AcDbPolyline
  3
AutoCAD 2000
 90
        0
280
     0
281
     1
  0
CLASS
  1
HATCH
  2
AcDbHatch
  3
AutoCAD 2000
 90
        0
280
     0
281
     1
  0
CLASS
  1
XRECORD
  2
AcDbXrecord
  3
AutoCAD 2000
 90
        0
280
     0
281
     0
  0
CLASS
  1
LONG_TRANSACTION
  2
AcDbLongTransaction
  3
AutoCAD 2000
 90
        0
280
     0
281
     0
  0
CLASS
  1
LWPOLYLINE
  2
AcDbPolyline
  3
AutoCAD 2000
 90
        0
280
     0
281
     1
  0
CLASS
  1
HATCH
  2
AcDbHatch
  3
AutoCAD 2000
 90
        0
280
     0
281
     1
  0
CLASS
  1
XRECORD
  2
AcDbXrecord
  3
AutoCAD 2000
 90
        0
280
     0
281
     0
  0
CLASS
  1
LONG_TRANSACTION
  2
AcDbLongTransaction
  3
AutoCAD 2000
 90
        0
280
     0
281
     0
  0
CLASS
  1
LWPOLYLINE
  2
AcDbPolyline
  3
AutoCAD 2000
 90
        0
280
     0
281
     1
  0
CLASS
  1
HATCH
  2
AcDbHatch
  3
AutoCAD 2000
 90
        0
280
     0
281
     1
  0
CLASS
  1
XRECORD
  2
AcDbXrecord
  3
AutoCAD 2000
 90
        0
280
     0
281
     0
  0
CLASS
  1
LONG_TRANSACTION
  2
AcDbLongTransaction
  3
AutoCAD 2000
 90
        0
280
     0
281
     0
  0
CLASS
  1
LWPOLYLINE
  2
AcDbPolyline
  3
AutoCAD 2000
 90
        0
280
     0
281
     1
  0
CLASS
  1
HATCH
  2
AcDbHatch
  3
AutoCAD 2000
 90
        0
280
     0
281
     1
  0
CLASS
  1
XRECORD
  2
AcDbXrecord
  3
AutoCAD 2000
 90
        0
280
     0
281
     0
  0
CLASS
  1
LONG_TRANSACTION
  2
AcDbLongTransaction
  3
AutoCAD 2000
 90
        0
280
     0
281
     0
  0
CLASS
  1
LWPOLYLINE
  2
AcDbPolyline
  3
AutoCAD 2000
 90
        0
280
     0
281
     1
  0
CLASS
  1
HATCH
  2
AcDbHatch
  3
AutoCAD 2000
 90
        0
280
     0
281
     1
  0
CLASS
  1
XRECORD
  2
AcDbXrecord
  3
AutoCAD 2000
 90
        0
280
     0
281
     0
  0
CLASS
  1
LONG_TRANSACTION
  2
AcDbLongTransaction
  3
AutoCAD 2000
 90
        0
280
     0
281
     0
  0
CLASS
  1
LWPOLYLINE
  2
AcDbPolyline
  3
AutoCAD 2000
 90
        0
280
     0
281
     1
  0
CLASS
  1
HATCH
  2
AcDbHatch
  3
AutoCAD 2000
 90
        0
280
     0
281
     1
  0
CLASS
  1
XRECORD
  2
AcDbXrecord
  3
AutoCAD 2000
 90
        0
280
     0
281
     0
  0
CLASS
  1
LONG_TRANSACTION
  2
AcDbLongTransaction
  3
AutoCAD 2000
 90
        0
280
     0
281
     0
  0
CLASS
  1
LWPOLYLINE
  2
AcDbPolyline
  3
AutoCAD 2000
 90
        0
280
     0
281
     1
  0
CLASS
  1
HATCH
  2
AcDbHatch
  3
AutoCAD 2000
 90
        0
280
     0
281
     1
  0
CLASS
  1
XRECORD
  2
AcDbXrecord
  3
AutoCAD 2000
 90
        0
280
     0
281
     0
  0
CLASS
  1
LONG_TRANSACTION
  2
AcDbLongTransaction
  3
AutoCAD 2000
 90
        0
280
     0
281
     0
  0
CLASS
  1
LWPOLYLINE
  2
AcDbPolyline
  3
AutoCAD 2000
 90
        0
280
     0
281
     1
  0
CLASS
  1
HATCH
  2
AcDbHatch
  3
AutoCAD 2000
 90
        0
280
     0
281
     1
  0
CLASS
  1
XRECORD
  2
AcDbXrecord
  3
AutoCAD 2000
 90
        0
280
     0
281
     0
  0
CLASS
  1
LONG_TRANSACTION
  2
AcDbLongTransaction
  3
AutoCAD 2000
 90
        0
280
     0
281
     0
  0
CLASS
  1
LWPOLYLINE
  2
AcDbPolyline
  3
AutoCAD 2000
 90
        0
280
     0
281
     1
  0
CLASS
  1
HATCH
  2
AcDbHatch
  3
AutoCAD 2000
 90
        0
280
     0
281
     1
  0
CLASS
  1
XRECORD
  2
AcDbXrecord
  3
AutoCAD 2000
 90
        0
280
     0
281
     0
  0
CLASS
  1
LONG_TRANSACTION
  2
AcDbLongTransaction
  3
AutoCAD 2000
 90
        0
280
     0
281
     0
  0
CLASS
  1
LWPOLYLINE
  2
AcDbPolyline
  3
AutoCAD 2000
 90
        0
280
     0
281
     1
  0
CLASS
  1
HATCH
  2
AcDbHatch
  3
AutoCAD 2000
 90
        0
280
     0
281
     1
  0
CLASS
  1
XRECORD
  2
AcDbXrecord
  3
AutoCAD 2000
 90
        0
280
     0
281
     0
  0
CLASS
  1
LONG_TRANSACTION
  2
AcDbLongTransaction
  3
AutoCAD 2000
 90
        0
280
     0
281
     0
  0
CLASS
  1
LWPOLYLINE
  2
AcDbPolyline
  3
AutoCAD 2000
 90
        0
280
     0
281
     1
  0
CLASS
  1
HATCH
  2
AcDbHatch
  3
AutoCAD 2000
 90
        0
280
     0
281
     1
  0
CLASS
  1
XRECORD
  2
AcDbXrecord
  3
AutoCAD 2000
 90
        0
280
     0
281
     0
  0
CLASS
  1
LONG_TRANSACTION
  2
AcDbLongTransaction
  3
AutoCAD 2000
 90
        0
280
     0
281
     0
  0
CLASS
  1
LWPOLYLINE
  2
AcDbPolyline
  3
AutoCAD 2000
 90
        0
280
     0
281
     1
  0
CLASS
  1
HATCH
  2
AcDbHatch
  3
AutoCAD 2000
 90
        0
280
     0
281
     1
  0
CLASS
  1
XRECORD
  2
AcDbXrecord
  3
AutoCAD 2000
 90
        0
280
     0
281
     0
  0
CLASS
  1
LONG_TRANSACTION
  2
AcDbLongTransaction
  3
AutoCAD 2000
 90
        0
280
     0
281
     0
  0
CLASS
  1
LWPOLYLINE
  2
AcDbPolyline
  3
AutoCAD 2000
 90
        0
280
     0
281
     1
  0
CLASS
  1
HATCH
  2
AcDbHatch
  3
AutoCAD 2000
 90
        0
280
     0
281
     1
  0
CLASS
  1
XRECORD
  2
AcDbXrecord
  3
AutoCAD 2000
 90
        0
280
     0
281
     0
  0
CLASS
  1
LONG_TRANSACTION
  2
AcDbLongTransaction
  3
AutoCAD 2000
 90
        0
280
     0
281
     0
  0
CLASS
  1
LWPOLYLINE
  2
AcDbPolyline
  3
AutoCAD 2000
 90
        0
280
     0
281
     1
  0
CLASS
  1
HATCH
  2
AcDbHatch
  3
AutoCAD 2000
 90
        0
280
     0
281
     1
  0
CLASS
  1
XRECORD
  2
AcDbXrecord
  3
AutoCAD 2000
 90
        0
280
     0
281
     0
  0
CLASS
  1
LONG_TRANSACTION
  2
AcDbLongTransaction
  3
AutoCAD 2000
 90
        0
280
     0
281
     0
  0
CLASS
  1
LWPOLYLINE
  2
AcDbPolyline
  3
AutoCAD 2000
 90
        0
280
     0
281
     1
  0
CLASS
  1
HATCH
  2
AcDbHatch
  3
AutoCAD 2000
 90
        0
280
     0
281
     1
  0
CLASS
  1
XRECORD
  2
AcDbXrecord
  3
AutoCAD 2000
 90
        0
280
     0
281
     0
  0
CLASS
  1
LONG_TRANSACTION
  2
AcDbLongTransaction
  3
AutoCAD 2000
 90
        0
280
     0
281
     0
  0
CLASS
  1
LWPOLYLINE
  2
AcDbPolyline
  3
AutoCAD 2000
 90
        0
280
     0
281
     1
  0
CLASS
  1
HATCH
  2
AcDbHatch
  3
AutoCAD 2000
 90
        0
280
     0
281
     1
  0
CLASS
  1
XRECORD
  2
AcDbXrecord
  3
AutoCAD 2000
 90
        0
280
     0
281
     0
  0
CLASS
  1
LONG_TRANSACTION
  2
AcDbLongTransaction
  3
AutoCAD 2000
 90
        0
280
     0
281
     0
  0
CLASS
  1
LWPOLYLINE
  2
AcDbPolyline
  3
AutoCAD 2000
 90
        0
280
     0
281
     1
  0
CLASS
  1
HATCH
  2
AcDbHatch
  3
AutoCAD 2000
 90
        0
280
     0
281
     1
  0
CLASS
  1
XRECORD
  2
AcDbXrecord
  3
AutoCAD 2000
 90
        0
280
     0
281
     0
  0
CLASS
  1
LONG_TRANSACTION
  2
AcDbLongTransaction
  3
AutoCAD 2000
 90
        0
280
     0
281
     0
  0
CLASS
  1
LWPOLYLINE
  2
AcDbPolyline
  3
AutoCAD 2000
 90
        0
280
     0
281
     1
  0
CLASS
  1
HATCH
  2
AcDbHatch
  3
AutoCAD 2000
 90
        0
280
     0
281
     1
  0
CLASS
  1
XRECORD
  2
AcDbXrecord
  3
AutoCAD 2000
 90
        0
280
     0
281
     0
  0
CLASS
  1
LONG_TRANSACTION
  2
AcDbLongTransaction
  3
AutoCAD 2000
 90
        0
280
     0
281
     0
  0
CLASS
  1
LWPOLYLINE
  2
AcDbPolyline
  3
AutoCAD 2000
 90
        0
280
     0
281
     1
  0
CLASS
  1
HATCH
  2
AcDbHatch
  3
AutoCAD 2000
 90
        0
280
     0
281
     1
  0
CLASS
  1
XRECORD
  2
AcDbXrecord
  3
AutoCAD 2000
 90
        0
280
     0
281
     0
  0
CLASS
  1
LONG_TRANSACTION
  2
AcDbLongTransaction
  3
AutoCAD 2000
 90
        0
280
     0
281
     0
  0
CLASS
  1
LWPOLYLINE
  2
AcDbPolyline
  3
AutoCAD 2000
 90
        0
280
     0
281
     1
  0
CLASS
  1
HATCH
  2
AcDbHatch
  3
AutoCAD 2000
 90
        0
280
     0
281
     1
  0
CLASS
  1
XRECORD
  2
AcDbXrecord
  3
AutoCAD 2000
 90
        0
280
     0
281
     0
  0
CLASS
  1
LONG_TRANSACTION
  2
AcDbLongTransaction
  3
AutoCAD 2000
 90
        0
280
     0
281
     0
  0
CLASS
  1
LWPOLYLINE
  2
AcDbPolyline
  3
AutoCAD 2000
 90
        0
280
     0
281
     1
  0
CLASS
  1
HATCH
  2
AcDbHatch
  3
AutoCAD 2000
 90
        0
280
     0
281
     1
  0
CLASS
  1
XRECORD
  2
AcDbXrecord
  3
AutoCAD 2000
 90
        0
280
     0
281
     0
  0
CLASS
  1
LONG_TRANSACTION
  2
AcDbLongTransaction
  3
AutoCAD 2000
 90
        0
280
     0
281
     0
  0
CLASS
  1
LWPOLYLINE
  2
AcDbPolyline
  3
AutoCAD 2000
 90
        0
280
     0
281
     1
  0
CLASS
  1
HATCH
  2
AcDbHatch
  3
AutoCAD 2000
 90
        0
280
     0
281
     1
  0
CLASS
  1
XRECORD
  2
AcDbXrecord
  3
AutoCAD 2000
 90
        0
280
     0
281
     0
  0
CLASS
  1
LONG_TRANSACTION
  2
AcDbLongTransaction
  3
AutoCAD 2000
 90
        0
280
     0
281
     0
  0
CLASS
  1
LWPOLYLINE
  2
AcDbPolyline
  3
AutoCAD 2000
 90
        0
280
     0
281
     1
  0
CLASS
  1
HATCH
  2
AcDbHatch
  3
AutoCAD 2000
 90
        0
280
     0
281
     1
  0
CLASS
  1
XRECORD
  2
AcDbXrecord
  3
AutoCAD 2000
 90
        0
280
     0
281
     0
  0
CLASS
  1
LONG_TRANSACTION
  2
AcDbLongTransaction
  3
AutoCAD 2000
 90
        0
280
     0
281
     0
  0
CLASS
  1
LWPOLYLINE
  2
AcDbPolyline
  3
AutoCAD 2000
 90
        0
280
     0
281
     1
  0
CLASS
  1
HATCH
  2
AcDbHatch
  3
AutoCAD 2000
 90
        0
280
     0
281
     1
  0
CLASS
  1
XRECORD
  2
AcDbXrecord
  3
AutoCAD 2000
 90
        0
280
     0
281
     0
  0
CLASS
  1
LONG_TRANSACTION
  2
AcDbLongTransaction
  3
AutoCAD 2000
 90
        0
280
     0
281
     0
  0
CLASS
  1
LWPOLYLINE
  2
AcDbPolyline
  3
AutoCAD 2000
 90
        0
280
     0
281
     1
  0
CLASS
  1
HATCH
  2
AcDbHatch
  3
AutoCAD 2000
 90
        0
280
     0
281
     1
  0
CLASS
  1
XRECORD
  2
AcDbXrecord
  3
AutoCAD 2000
 90
        0
280
     0
281
     0
  0
CLASS
  1
LONG_TRANSACTION
  2
AcDbLongTransaction
  3
AutoCAD 2000
 90
        0
280
     0
281
     0
  0
CLASS
  1
LWPOLYLINE
  2
AcDbPolyline
  3
AutoCAD 2000
 90
        0
280
     0
281
     1
  0
CLASS
  1
HATCH
  2
AcDbHatch
  3
AutoCAD 2000
 90
        0
280
     0
281
     1
  0
CLASS
  1
XRECORD
  2
AcDbXrecord
  3
AutoCAD 2000
 90
        0
280
     0
281
     0
  0
CLASS
  1
LONG_TRANSACTION
  2
AcDbLongTransaction
  3
AutoCAD 2000
 90
        0
280
     0
281
     0
  0
CLASS
  1
LWPOLYLINE
  2
AcDbPolyline
  3
AutoCAD 2000
 90
        0
280
     0
281
     1
  0
CLASS
  1
HATCH
  2
AcDbHatch
  3
AutoCAD 2000
 90
        0
280
     0
281
     1
  0
CLASS
  1
XRECORD
  2
AcDbXrecord
  3
AutoCAD 2000
 90
        0
280
     0
281
     0
  0
CLASS
  1
LONG_TRANSACTION
  2
AcDbLongTransaction
  3
AutoCAD 2000
 90
        0
280
     0
281
     0
  0
CLASS
  1
LWPOLYLINE
  2
AcDbPolyline
  3
AutoCAD 2000
 90
        0
280
     0
281
     1
  0
CLASS
  1
HATCH
  2
AcDbHatch
  3
AutoCAD 2000
 90
        0
280
     0
281
     1
  0
CLASS
  1
XRECORD
  2
AcDbXrecord
  3
AutoCAD 2000
 90
        0
280
     0
281
     0
  0
CLASS
  1
LONG_TRANSACTION
  2
AcDbLongTransaction
  3
AutoCAD 2000
 90
        0
280
     0
281
     0
  0
CLASS
  1
LWPOLYLINE
  2
AcDbPolyline
  3
AutoCAD 2000
 90
        0
280
     0
281
     1
  0
CLASS
  1
HATCH
  2
AcDbHatch
  3
AutoCAD 2000
 90
        0
280
     0
281
     1
  0
CLASS
  1
XRECORD
  2
AcDbXrecord
  3
AutoCAD 2000
 90
        0
280
     0
281
     0
  0
CLASS
  1
LONG_TRANSACTION
  2
AcDbLongTransaction
  3
AutoCAD 2000
 90
        0
280
     0
281
     0
  0
CLASS
  1
LWPOLYLINE
  2
AcDbPolyline
  3
AutoCAD 2000
 90
        0
280
     0
281
     1
  0
CLASS
  1
HATCH
  2
AcDbHatch
  3
AutoCAD 2000
 90
        0
280
     0
281
     1
  0
CLASS
  1
XRECORD
  2
AcDbXrecord
  3
AutoCAD 2000
 90
        0
280
     0
281
     0
  0
CLASS
  1
LONG_TRANSACTION
  2
AcDbLongTransaction
  3
AutoCAD 2000
 90
        0
280
     0
281
     0
  0
CLASS
  1
LWPOLYLINE
  2
AcDbPolyline
  3
AutoCAD 2000
 90
        0
280
     0
281
     1
  0
CLASS
  1
HATCH
  2
AcDbHatch
  3
AutoCAD 2000
 90
        0
280
     0
281
     1
  0
CLASS
  1
XRECORD
  2
AcDbXrecord
  3
AutoCAD 2000
 90
        0
280
     0
281
     0
  0
CLASS
  1
LONG_TRANSACTION
  2
AcDbLongTransaction
  3
AutoCAD 2000
 90
        0
280
     0
281
     0
  0
CLASS
  1
LWPOLYLINE
  2
AcDbPolyline
  3
AutoCAD 2000
 90
        0
280
     0
281
     1
  0
CLASS
  1
HATCH
  2
AcDbHatch
  3
AutoCAD 2000
 90
        0
280
     0
281
     1
  0
CLASS
  1
XRECORD
  2
AcDbXrecord
  3
AutoCAD 2000
 90
        0
280
     0
281
     0
  0
CLASS
  1
LONG_TRANSACTION
  2
AcDbLongTransaction
  3
AutoCAD 2000
 90
        0
280
     0
281
     0
  0
CLASS
  1
LWPOLYLINE
  2
AcDbPolyline
  3
AutoCAD 2000
 90
        0
280
     0
281
     1
  0
CLASS
  1
HATCH
  2
AcDbHatch
  3
AutoCAD 2000
 90
        0
280
     0
281
     1
  0
CLASS
  1
XRECORD
  2
AcDbXrecord
  3
AutoCAD 2000
 90
        0
280
     0
281
     0
  0
CLASS
  1
LONG_TRANSACTION
  2
AcDbLongTransaction
  3
AutoCAD 2000
 90
        0
280
     0
281
     0
  0
CLASS
  1
LWPOLYLINE
  2
AcDbPolyline
  3
AutoCAD 2000
 90
        0
280
     0
281
     1
  0
CLASS
  1
HATCH
  2
AcDbHatch
  3
AutoCAD 2000
 90
        0
280
     0
281
     1
  0
CLASS
  1
XRECORD
  2
AcDbXrecord
  3
AutoCAD 2000
 90
        0
280
     0
281
     0
  0
CLASS
  1
LONG_TRANSACTION
  2
AcDbLongTransaction
  3
AutoCAD 2000
 90
        0
280
     0
281
     0
  0
CLASS
  1
LWPOLYLINE
  2
AcDbPolyline
  3
AutoCAD 2000
 90
        0
280
     0
281
     1
  0
CLASS
  1
HATCH
  2
AcDbHatch
  3
AutoCAD 2000
 90
        0
280
     0
281
     1
  0
CLASS
  1
XRECORD
  2
AcDbXrecord
  3
AutoCAD 2000
 90
        0
280
     0
281
     0
  0
CLASS
  1
LONG_TRANSACTION
  2
AcDbLongTransaction
  3
AutoCAD 2000
 90
        0
280
     0
281
     0
  0
CLASS
  1
LWPOLYLINE
  2
AcDbPolyline
  3
AutoCAD 2000
 90
        0
280
     0
281
     1
  0
CLASS
  1
HATCH
  2
AcDbHatch
  3
AutoCAD 2000
 90
        0
280
     0
281
     1
  0
CLASS
  1
XRECORD
  2
AcDbXrecord
  3
AutoCAD 2000
 90
        0
280
     0
281
     0
  0
CLASS
  1
LONG_TRANSACTION
  2
AcDbLongTransaction
  3
AutoCAD 2000
 90
        0
280
     0
281
     0
  0
CLASS
  1
LWPOLYLINE
  2
AcDbPolyline
  3
AutoCAD 2000
 90
        0
280
     0
281
     1
  0
CLASS
  1
HATCH
  2
AcDbHatch
  3
AutoCAD 2000
 90
        0
280
     0
281
     1
  0
CLASS
  1
XRECORD
  2
AcDbXrecord
  3
AutoCAD 2000
 90
        0
280
     0
281
     0
  0
CLASS
  1
LONG_TRANSACTION
  2
AcDbLongTransaction
  3
AutoCAD 2000
 90
        0
280
     0
281
     0
  0
CLASS
  1
LWPOLYLINE
  2
AcDbPolyline
  3
AutoCAD 2000
 90
        0
280
     0
281
     1
  0
CLASS
  1
HATCH
  2
AcDbHatch
  3
AutoCAD 2000
 90
        0
280
     0
281
     1
  0
CLASS
  1
XRECORD
  2
AcDbXrecord
  3
AutoCAD 2000
 90
        0
280
     0
281
     0
  0
CLASS
  1
LONG_TRANSACTION
  2
AcDbLongTransaction
  3
AutoCAD 2000
 90
        0
280
     0
281
     0
  0
CLASS
  1
LWPOLYLINE
  2
AcDbPolyline
  3
AutoCAD 2000
 90
        0
280
     0
281
     1
  0
CLASS
  1
HATCH
  2
AcDbHatch
  3
AutoCAD 2000
 90
        0
280
     0
281
     1
  0
CLASS
  1
XRECORD
  2
AcDbXrecord
  3
AutoCAD 2000
 90
        0
280
     0
281
     0
  0
CLASS
  1
LONG_TRANSACTION
  2
AcDbLongTransaction
  3
AutoCAD 2000
 90
        0
280
     0
281
     0
  0
CLASS
  1
LWPOLYLINE
  2
AcDbPolyline
  3
AutoCAD 2000
 90
        0
280
     0
281
     1
  0
CLASS
  1
HATCH
  2
AcDbHatch
  3
AutoCAD 2000
 90
        0
280
     0
281
     1
  0
CLASS
  1
XRECORD
  2
AcDbXrecord
  3
AutoCAD 2000
 90
        0
280
     0
281
     0
  0
CLASS
  1
LONG_TRANSACTION
  2
AcDbLongTransaction
  3
AutoCAD 2000
 90
        0
280
     0
281
     0
  0
CLASS
  1
LWPOLYLINE
  2
AcDbPolyline
  3
AutoCAD 2000
 90
        0
280
     0
281
     1
  0
CLASS
  1
HATCH
  2
AcDbHatch
  3
AutoCAD 2000
 90
        0
280
     0
281
     1
  0
CLASS
  1
XRECORD
  2
AcDbXrecord
  3
AutoCAD 2000
 90
        0
280
     0
281
     0
  0
CLASS
  1
LONG_TRANSACTION
  2
AcDbLongTransaction
  3
AutoCAD 2000
 90
        0
280
     0
281
     0
  0
CLASS
  1
LWPOLYLINE
  2
AcDbPolyline
  3
AutoCAD 2000
 90
        0
280
     0
281
     1
  0
CLASS
  1
HATCH
  2
AcDbHatch
  3
AutoCAD 2000
 90
        0
280
     0
281
     1
  0
CLASS
  1
XRECORD
  2
AcDbXrecord
  3
AutoCAD 2000
 90
        0
280
     0
281
     0
  0
CLASS
  1
LONG_TRANSACTION
  2
AcDbLongTransaction
  3
AutoCAD 2000
 90
        0
280
     0
281
     0
  0
CLASS
  1
LWPOLYLINE
  2
AcDbPolyline
  3
AutoCAD 2000
 90
        0
280
     0
281
     1
  0
CLASS
  1
HATCH
  2
AcDbHatch
  3
AutoCAD 2000
 90
        0
280
     0
281
     1
  0
CLASS
  1
XRECORD
  2
AcDbXrecord
  3
AutoCAD 2000
 90
        0
280
     0
281
     0
  0
CLASS
  1
LONG_TRANSACTION
  2
AcDbLongTransaction
  3
AutoCAD 2000
 90
        0
280
     0
281
     0
  0
CLASS
  1
LWPOLYLINE
  2
AcDbPolyline
  3
AutoCAD 2000
 90
        0
280
     0
281
     1
  0
CLASS
  1
HATCH
  2
AcDbHatch
  3
AutoCAD 2000
 90
        0
280
     0
281
     1
  0
CLASS
  1
XRECORD
  2
AcDbXrecord
  3
AutoCAD 2000
 90
        0
280
     0
281
     0
  0
CLASS
  1
LONG_TRANSACTION
  2
AcDbLongTransaction
  3
AutoCAD 2000
 90
        0
280
     0
281
     0
  0
CLASS
  1
LWPOLYLINE
  2
AcDbPolyline
  3
AutoCAD 2000
 90
        0
280
     0
281
     1
  0
CLASS
  1
HATCH
  2
AcDbHatch
  3
AutoCAD 2000
 90
        0
280
     0
281
     1
  0
CLASS
  1
XRECORD
  2
AcDbXrecord
  3
AutoCAD 2000
 90
        0
280
     0
281
     0
  0
CLASS
  1
LONG_TRANSACTION
  2
AcDbLongTransaction
  3
AutoCAD 2000
 90
        0
280
     0
281
     0
  0
CLASS
  1
LWPOLYLINE
  2
AcDbPolyline
  3
AutoCAD 2000
 90
        0
280
     0
281
     1
  0
CLASS
  1
HATCH
  2
AcDbHatch
  3
AutoCAD 2000
 90
        0
280
     0
281
     1
  0
CLASS
  1
XRECORD
  2
AcDbXrecord
  3
AutoCAD 2000
 90
        0
280
     0
281
     0
  0
CLASS
  1
LONG_TRANSACTION
  2
AcDbLongTransaction
  3
AutoCAD 2000
 90
        0
280
     0
281
     0
  0
CLASS
  1
LWPOLYLINE
  2
AcDbPolyline
  3
AutoCAD 2000
 90
        0
280
     0
281
     1
  0
CLASS
  1
HATCH
  2
AcDbHatch
  3
AutoCAD 2000
 90
        0
280
     0
281
     1
  0
CLASS
  1
XRECORD
  2
AcDbXrecord
  3
AutoCAD 2000
 90
        0
280
     0
281
     0
  0
CLASS
  1
LONG_TRANSACTION
  2
AcDbLongTransaction
  3
AutoCAD 2000
 90
        0
280
     0
281
     0
  0
CLASS
  1
LWPOLYLINE
  2
AcDbPolyline
  3
AutoCAD 2000
 90
        0
280
     0
281
     1
  0
CLASS
  1
HATCH
  2
AcDbHatch
  3
AutoCAD 2000
 90
        0
280
     0
281
     1
  0
CLASS
  1
XRECORD
  2
AcDbXrecord
  3
AutoCAD 2000
 90
        0
280
     0
281
     0
  0
CLASS
  1
LONG_TRANSACTION
  2
AcDbLongTransaction
  3
AutoCAD 2000
 90
        0
280
     0
281
     0
  0
CLASS
  1
LWPOLYLINE
  2
AcDbPolyline
  3
AutoCAD 2000
 90
        0
280
     0
281
     1
  0
CLASS
  1
HATCH
  2
AcDbHatch
  3
AutoCAD 2000
 90
        0
280
     0
281
     1
  0
CLASS
  1
XRECORD
  2
AcDbXrecord
  3
AutoCAD 2000
 90
        0
280
     0
281
     0
  0
CLASS
  1
LONG_TRANSACTION
  2
AcDbLongTransaction
  3
AutoCAD 2000
 90
        0
280
     0
281
     0
  0
CLASS
  1
LWPOLYLINE
  2
AcDbPolyline
  3
AutoCAD 2000
 90
        0
280
     0
281
     1
  0
CLASS
  1
HATCH
  2
AcDbHatch
  3
AutoCAD 2000
 90
        0
280
     0
281
     1
  0
CLASS
  1
XRECORD
  2
AcDbXrecord
  3
AutoCAD 2000
 90
        0
280
     0
281
     0
  0
CLASS
  1
LONG_TRANSACTION
  2
AcDbLongTransaction
  3
AutoCAD 2000
 90
        0
280
     0
281
     0
  0
CLASS
  1
LWPOLYLINE
  2
AcDbPolyline
  3
AutoCAD 2000
 90
        0
280
     0
281
     1
  0
CLASS
  1
HATCH
  2
AcDbHatch
  3
AutoCAD 2000
 90
        0
280
     0
281
     1
  0
CLASS
  1
XRECORD
  2
AcDbXrecord
  3
AutoCAD 2000
 90
        0
280
     0
281
     0
  0
CLASS
  1
LONG_TRANSACTION
  2
AcDbLongTransaction
  3
AutoCAD 2000
 90
        0
280
     0
281
     0
  0
CLASS
  1
LWPOLYLINE
  2
AcDbPolyline
  3
AutoCAD 2000
 90
        0
280
     0
281
     1
  0
CLASS
  1
HATCH
  2
AcDbHatch
  3
AutoCAD 2000
 90
        0
280
     0
281
     1
  0
CLASS
  1
XRECORD
  2
AcDbXrecord
  3
AutoCAD 2000
 90
        0
280
     0
281
     0
  0
CLASS
  1
LONG_TRANSACTION
  2
AcDbLongTransaction
  3
AutoCAD 2000
 90
        0
280
     0
281
     0
  0
CLASS
  1
LWPOLYLINE
  2
AcDbPolyline
  3
AutoCAD 2000
 90
        0
280
     0
281
     1
  0
CLASS
  1
HATCH
  2
AcDbHatch
  3
AutoCAD 2000
 90
        0
280
     0
281
     1
  0
CLASS
  1
XRECORD
  2
AcDbXrecord
  3
AutoCAD 2000
 90
        0
280
     0
281
     0
  0
CLASS
  1
LONG_TRANSACTION
  2
AcDbLongTransaction
  3
AutoCAD 2000
 90
        0
280
     0
281
     0
  0
CLASS
  1
LWPOLYLINE
  2
AcDbPolyline
  3
AutoCAD 2000
 90
        0
280
     0
281
     1
  0
CLASS
  1
HATCH
  2
AcDbHatch
  3
AutoCAD 2000
 90
        0
280
     0
281
     1
  0
CLASS
  1
XRECORD
  2
AcDbXrecord
  3
AutoCAD 2000
 90
        0
280
     0
281
     0
  0
CLASS
  1
LONG_TRANSACTION
  2
AcDbLongTransaction
  3
AutoCAD 2000
 90
        0
280
     0
281
     0
  0
CLASS
  1
LWPOLYLINE
  2
AcDbPolyline
  3
AutoCAD 2000
 90
        0
280
     0
281
     1
  0
CLASS
  1
HATCH
  2
AcDbHatch
  3
AutoCAD 2000
 90
        0
280
     0
281
     1
  0
CLASS
  1
XRECORD
  2
AcDbXrecord
  3
AutoCAD 2000
 90
        0
280
     0
281
     0
  0
CLASS
  1
LONG_TRANSACTION
  2
AcDbLongTransaction
  3
AutoCAD 2000
 90
        0
280
     0
281
     0
  0
CLASS
  1
LWPOLYLINE
  2
AcDbPolyline
  3
AutoCAD 2000
 90
        0
280
     0
281
     1
  0
CLASS
  1
HATCH
  2
AcDbHatch
  3
AutoCAD 2000
 90
        0
280
     0
281
     1
  0
CLASS
  1
XRECORD
  2
AcDbXrecord
  3
AutoCAD 2000
 90
        0
280
     0
281
     0
  0
CLASS
  1
LONG_TRANSACTION
  2
AcDbLongTransaction
  3
AutoCAD 2000
 90
        0
280
     0
281
     0
  0
CLASS
  1
LWPOLYLINE
  2
AcDbPolyline
  3
AutoCAD 2000
 90
        0
280
     0
281
     1
  0
CLASS
  1
HATCH
  2
AcDbHatch
  3
AutoCAD 2000
 90
        0
280
     0
281
     1
  0
CLASS
  1
XRECORD
  2
AcDbXrecord
  3
AutoCAD 2000
 90
        0
280
     0
281
     0
  0
CLASS
  1
LONG_TRANSACTION
  2
AcDbLongTransaction
  3
AutoCAD 2000
 90
        0
280
     0
281
     0
  0
CLASS
  1
LWPOLYLINE
  2
AcDbPolyline
  3
AutoCAD 2000
 90
        0
280
     0
281
     1
  0
CLASS
  1
HATCH
  2
AcDbHatch
  3
AutoCAD 2000
 90
        0
280
     0
281
     1
  0
CLASS
  1
XRECORD
  2
AcDbXrecord
  3
AutoCAD 2000
 90
        0
280
     0
281
     0
  0
CLASS
  1
LONG_TRANSACTION
  2
AcDbLongTransaction
  3
AutoCAD 2000
 90
        0
280
     0
281
     0
  0
CLASS
  1
LWPOLYLINE
  2
AcDbPolyline
  3
AutoCAD 2000
 90
        0
280
     0
281
     1
  0
CLASS
  1
HATCH
  2
AcDbHatch
  3
AutoCAD 2000
 90
        0
280
     0
281
     1
  0
CLASS
  1
XRECORD
  2
AcDbXrecord
  3
AutoCAD 2000
 90
        0
280
     0
281
     0
  0
CLASS
  1
LONG_TRANSACTION
  2
AcDbLongTransaction
  3
AutoCAD 2000
 90
        0
280
     0
281
     0
  0
CLASS
  1
LWPOLYLINE
  2
AcDbPolyline
  3
AutoCAD 2000
 90
        0
280
     0
281
     1
  0
CLASS
  1
HATCH
  2
AcDbHatch
  3
AutoCAD 2000
 90
        0
280
     0
281
     1
  0
CLASS
  1
XRECORD
  2
AcDbXrecord
  3
AutoCAD 2000
 90
        0
280
     0
281
     0
  0
CLASS
  1
LONG_TRANSACTION
  2
AcDbLongTransaction
  3
AutoCAD 2000
 90
        0
280
     0
281
     0
  0
CLASS
  1
LWPOLYLINE
  2
AcDbPolyline
  3
AutoCAD 2000
 90
        0
280
     0
281
     1
  0
CLASS
  1
HATCH
  2
AcDbHatch
  3
AutoCAD 2000
 90
        0
280
     0
281
     1
  0
CLASS
  1
XRECORD
  2
AcDbXrecord
  3
AutoCAD 2000
 90
        0
280
     0
281
     0
  0
CLASS
  1
LONG_TRANSACTION
  2
AcDbLongTransaction
  3
AutoCAD 2000
 90
        0
280
     0
281
     0
  0
CLASS
  1
LWPOLYLINE
  2
AcDbPolyline
  3
AutoCAD 2000
 90
        0
280
     0
281
     1
  0
CLASS
  1
HATCH
  2
AcDbHatch
  3
AutoCAD 2000
 90
        0
280
     0
281
     1
  0
CLASS
  1
XRECORD
  2
AcDbXrecord
  3
AutoCAD 2000
 90
        0
280
     0
281
     0
  0
CLASS
  1
LONG_TRANSACTION
  2
AcDbLongTransaction
  3
AutoCAD 2000
 90
        0
280
     0
281
     0
  0
CLASS
  1
LWPOLYLINE
  2
AcDbPolyline
  3
AutoCAD 2000
 90
        0
280
     0
281
     1
  0
CLASS
  1
HATCH
  2
AcDbHatch
  3
AutoCAD 2000
 90
        0
280
     0
281
     1
  0
CLASS
  1
XRECORD
  2
AcDbXrecord
  3
AutoCAD 2000
 90
        0
280
     0
281
     0
  0
CLASS
  1
LONG_TRANSACTION
  2
AcDbLongTransaction
  3
AutoCAD 2000
 90
        0
280
     0
281
     0
  0
CLASS
  1
LWPOLYLINE
  2
AcDbPolyline
  3
AutoCAD 2000
 90
        0
280
     0
281
     1
  0
CLASS
  1
HATCH
  2
AcDbHatch
  3
AutoCAD 2000
 90
        0
280
     0
281
     1
  0
CLASS
  1
XRECORD
  2
AcDbXrecord
  3
AutoCAD 2000
 90
        0
280
     0
281
     0
  0
CLASS
  1
LONG_TRANSACTION
  2
AcDbLongTransaction
  3
AutoCAD 2000
 90
        0
280
     0
281
     0
  0
CLASS
  1
LWPOLYLINE
  2
AcDbPolyline
  3
AutoCAD 2000
 90
        0
280
     0
281
     1
  0
CLASS
  1
HATCH
  2
AcDbHatch
  3
AutoCAD 2000
 90
        0
280
     0
281
     1
  0
CLASS
  1
XRECORD
  2
AcDbXrecord
  3
AutoCAD 2000
 90
        0
280
     0
281
     0
  0
CLASS
  1
LONG_TRANSACTION
  2
AcDbLongTransaction
  3
AutoCAD 2000
 90
        0
280
     0
281
     0
  0
CLASS
  1
LWPOLYLINE
  2
AcDbPolyline
  3
AutoCAD 2000
 90
        0
280
     0
281
     1
  0
CLASS
  1
HATCH
  2
AcDbHatch
  3
AutoCAD 2000
 90
        0
280
     0
281
     1
  0
CLASS
  1
XRECORD
  2
AcDbXrecord
  3
AutoCAD 2000
 90
        0
280
     0
281
     0
  0
CLASS
  1
LONG_TRANSACTION
  2
AcDbLongTransaction
  3
AutoCAD 2000
 90
        0
280
     0
281
     0
  0
CLASS
  1
LWPOLYLINE
  2
AcDbPolyline
  3
AutoCAD 2000
 90
        0
280
     0
281
     1
  0
CLASS
  1
HATCH
  2
AcDbHatch
  3
AutoCAD 2000
 90
        0
280
     0
281
     1
  0
CLASS
  1
XRECORD
  2
AcDbXrecord
  3
AutoCAD 2000
 90
        0
280
     0
281
     0
  0
CLASS
  1
LONG_TRANSACTION
  2
AcDbLongTransaction
  3
AutoCAD 2000
 90
        0
280
     0
281
     0
  0
CLASS
  1
LWPOLYLINE
  2
AcDbPolyline
  3
AutoCAD 2000
 90
        0
280
     0
281
     1
  0
CLASS
  1
HATCH
  2
AcDbHatch
  3
AutoCAD 2000
 90
        0
280
     0
281
     1
  0
CLASS
  1
XRECORD
  2
AcDbXrecord
  3
AutoCAD 2000
 90
        0
280
     0
281
     0
  0
ENDSEC
  0
SECTION
  2
TABLES
  0
TABLE
  2
VPORT
  5
92
330
0
100
AcDbSymbolTable
 70
     2
  0
VPORT
  5
4D2
330
92
100
AcDbSymbolTableRecord
100
AcDbViewportTableRecord
  2
*ACTIVE
 70
     0
 10
0.0
 20
0.0
 11
1.0
 21
1.0
 12
59.08623539792609
 22
-4.857583933621185
 13
0.0
 23
0.0
 14
10.0
 24
10.0
 15
10.0
 25
10.0
 16
0.0
 26
0.0
 36
1.0
 17
0.0
 27
0.0
 37
0.0
 40
279.9791915414936
 41
1.162878787878787
 42
50.0
 43
0.0
 44
0.0
 50
0.0
 51
0.0
 71
     0
 72
 10000
 73
     1
 74
     3
 75
     0
 76
     0
 77
     0
 78
     1
  0
ENDTAB
  0
TABLE
  2
LTYPE
  5
8D
330
0
100
AcDbSymbolTable
 70
     2
  0
LTYPE
  5
8E
330
8D
100
AcDbSymbolTableRecord
100
AcDbLinetypeTableRecord
  2
BYBLOCK
 70
     0
  3

 72
    65
 73
     0
 40
0.0
  0
LTYPE
  5
8F
330
8D
100
AcDbSymbolTableRecord
100
AcDbLinetypeTableRecord
  2
BYLAYER
 70
     0
  3

 72
    65
 73
     0
 40
0.0
  0
LTYPE
  5
A
330
8D
100
AcDbSymbolTableRecord
100
AcDbLinetypeTableRecord
  2
CONTINUOUS
 70
     0
  3
Solid line
 72
    65
 73
     0
 40
0.0
  0
LTYPE
  5
B2
330
8D
100
AcDbSymbolTableRecord
100
AcDbLinetypeTableRecord
  2
CENTER
 70
     0
  3
Center ____ _ ____ _ ____ _ ____ _ ____ _ ____
 72
    65
 73
     4
 40
50.8
 49
31.75
 74
     0
 49
-6.349999999999997
 74
     0
 49
6.349999999999997
 74
     0
 49
-6.349999999999997
 74
     0
  0
ENDTAB
  0
TABLE
  2
LAYER
  5
14
102
{ACAD_XDICTIONARY
360
15
102
}
330
0
100
AcDbSymbolTable
 70
     6
  0
LAYER
  5
6
330
14
100
AcDbSymbolTableRecord
100
AcDbLayerTableRecord
  2
0
 70
     0
 62
     7
  6
CONTINUOUS
  0
LAYER
  5
F3
330
14
100
AcDbSymbolTableRecord
100
AcDbLayerTableRecord
  2
3
 70
     0
 62
     3
  6
CONTINUOUS
  0
LAYER
  5
A7
330
14
100
AcDbSymbolTableRecord
100
AcDbLayerTableRecord
  2
DEFPOINTS
 70
     0
 62
     7
  6
CONTINUOUS
  0
LAYER
  5
135
330
14
100
AcDbSymbolTableRecord
100
AcDbLayerTableRecord
  2
DIM
 70
     0
 62
     3
  6
CONTINUOUS
  0
LAYER
  5
B1
330
14
100
AcDbSymbolTableRecord
100
AcDbLayerTableRecord
  2
CEN
 70
     0
 62
     1
  6
CENTER
  0
LAYER
  5
12A
330
14
100
AcDbSymbolTableRecord
100
AcDbLayerTableRecord
  2
2
 70
     0
 62
     2
  6
CONTINUOUS
  0
ENDTAB
  0
TABLE
  2
STYLE
  5
8A
330
0
100
AcDbSymbolTable
 70
     1
  0
STYLE
  5
8B
330
8A
100
AcDbSymbolTableRecord
100
AcDbTextStyleTableRecord
  2
STANDARD
 70
     0
 40
0.0
 41
1.0
 50
0.0
 71
     0
 42
5.777225951253058
  3
romans.shx
  4
whgtxt.shx
  0
ENDTAB
  0
TABLE
  2
VIEW
  5
90
330
0
100
AcDbSymbolTable
 70
     0
  0
ENDTAB
  0
TABLE
  2
UCS
  5
91
330
0
100
AcDbSymbolTable
 70
     0
  0
ENDTAB
  0
TABLE
  2
APPID
  5
94
330
0
100
AcDbSymbolTable
 70
     1
  0
APPID
  5
95
330
94
100
AcDbSymbolTableRecord
100
AcDbRegAppTableRecord
  2
ACAD
 70
     0
  0
ENDTAB
  0
TABLE
  2
DIMSTYLE
  5
96
330
0
100
AcDbSymbolTable
 70
     2
  0
DIMSTYLE
105
9E
102
{ACAD_REACTORS
330
200
330
2C1
330
2F7
330
2E8
330
1B4
330
1A5
330
1F0
330
B3
330
25C
330
26D
330
210
330
197
330
186
330
F4
330
9D
330
16D
330
15E
330
C5
330
E3
330
D2
330
2AD
330
29E
330
27C
102
}
330
96
100
AcDbSymbolTableRecord
100
AcDbDimStyleTableRecord
  2
STANDARD
 70
     0
  3

  4

  5

  6

  7

 40
1.0
 41
2.5
 42
1.0
 43
10.0
 44
0.6
 45
0.0
 46
0.0
 47
0.0
 48
0.0
140
3.0
141
0.09
142
0.0
143
25.4
144
1.0
145
0.0
146
1.0
147
1.0
 71
     0
 72
     0
 73
     0
 74
     0
 75
     0
 76
     0
 77
     1
 78
     8
170
     0
171
     2
172
     1
173
     0
174
     1
175
     0
176
   123
177
   123
178
     3
270
     2
271
     2
272
     2
273
     2
274
     2
340
8B
275
     1
280
     0
281
     0
282
     0
283
     1
284
     0
285
     0
286
     0
287
     3
288
     1
  0
DIMSTYLE
105
9C
330
96
100
AcDbSymbolTableRecord
100
AcDbDimStyleTableRecord
  2
1_1_2
 70
     0
  3

  4

  5

  6

  7

 40
1.0
 41
3.0
 42
1.0
 43
10.0
 44
0.6
 45
0.0
 46
0.0
 47
0.0
 48
0.0
140
3.5
141
0.09
142
0.0
143
25.4
144
1.0
145
0.0
146
1.0
147
1.0
 71
     0
 72
     0
 73
     0
 74
     0
 75
     0
 76
     0
 77
     1
 78
     8
170
     0
171
     2
172
     1
173
     0
174
     1
175
     0
176
   123
177
   123
178
     3
270
     2
271
     2
272
     2
273
     2
274
     2
340
8B
275
     1
280
     0
281
     0
282
     0
283
     1
284
     0
285
     0
286
     0
287
     3
288
     1
  0
ENDTAB
  0
TABLE
  2
BLOCK_RECORD
  5
1
330
0
100
AcDbSymbolTable
 70
    46
  0
BLOCK_RECORD
  5
2
102
{ACAD_XDICTIONARY
360
3
102
}
330
1
100
AcDbSymbolTableRecord
100
AcDbBlockTableRecord
  2
*MODEL_SPACE
  0
BLOCK_RECORD
  5
E
102
{ACAD_XDICTIONARY
360
F
102
}
330
1
100
AcDbSymbolTableRecord
100
AcDbBlockTableRecord
  2
*PAPER_SPACE
  0
BLOCK_RECORD
  5
1F1
330
1
100
AcDbSymbolTableRecord
100
AcDbBlockTableRecord
  2
*D0
  0
BLOCK_RECORD
  5
B4
330
1
100
AcDbSymbolTableRecord
100
AcDbBlockTableRecord
  2
*D1
  0
BLOCK_RECORD
  5
9F
330
1
100
AcDbSymbolTableRecord
100
AcDbBlockTableRecord
  2
*D2
  0
BLOCK_RECORD
  5
16E
330
1
100
AcDbSymbolTableRecord
100
AcDbBlockTableRecord
  2
*D3
  0
BLOCK_RECORD
  5
C6
330
1
100
AcDbSymbolTableRecord
100
AcDbBlockTableRecord
  2
*D4
  0
BLOCK_RECORD
  5
203
330
1
100
AcDbSymbolTableRecord
100
AcDbBlockTableRecord
  2
*D5
  0
BLOCK_RECORD
  5
2C4
330
1
100
AcDbSymbolTableRecord
100
AcDbBlockTableRecord
  2
*D6
  0
BLOCK_RECORD
  5
2FA
330
1
100
AcDbSymbolTableRecord
100
AcDbBlockTableRecord
  2
*D7
  0
BLOCK_RECORD
  5
2EB
330
1
100
AcDbSymbolTableRecord
100
AcDbBlockTableRecord
  2
*D8
  0
BLOCK_RECORD
  5
1B7
330
1
100
AcDbSymbolTableRecord
100
AcDbBlockTableRecord
  2
*D9
  0
BLOCK_RECORD
  5
1A8
330
1
100
AcDbSymbolTableRecord
100
AcDbBlockTableRecord
  2
*D10
  0
BLOCK_RECORD
  5
25F
330
1
100
AcDbSymbolTableRecord
100
AcDbBlockTableRecord
  2
*D11
  0
BLOCK_RECORD
  5
270
330
1
100
AcDbSymbolTableRecord
100
AcDbBlockTableRecord
  2
*D12
  0
BLOCK_RECORD
  5
213
330
1
100
AcDbSymbolTableRecord
100
AcDbBlockTableRecord
  2
*D13
  0
BLOCK_RECORD
  5
19A
330
1
100
AcDbSymbolTableRecord
100
AcDbBlockTableRecord
  2
*D14
  0
BLOCK_RECORD
  5
189
330
1
100
AcDbSymbolTableRecord
100
AcDbBlockTableRecord
  2
*D15
  0
BLOCK_RECORD
  5
F7
330
1
100
AcDbSymbolTableRecord
100
AcDbBlockTableRecord
  2
*D16
  0
BLOCK_RECORD
  5
161
330
1
100
AcDbSymbolTableRecord
100
AcDbBlockTableRecord
  2
*D17
  0
BLOCK_RECORD
  5
E6
330
1
100
AcDbSymbolTableRecord
100
AcDbBlockTableRecord
  2
*D18
  0
BLOCK_RECORD
  5
D5
330
1
100
AcDbSymbolTableRecord
100
AcDbBlockTableRecord
  2
*D19
  0
BLOCK_RECORD
  5
2B0
330
1
100
AcDbSymbolTableRecord
100
AcDbBlockTableRecord
  2
*D20
  0
BLOCK_RECORD
  5
2A1
330
1
100
AcDbSymbolTableRecord
100
AcDbBlockTableRecord
  2
*D21
  0
BLOCK_RECORD
  5
27F
330
1
100
AcDbSymbolTableRecord
100
AcDbBlockTableRecord
  2
*D22
  0
BLOCK_RECORD
  5
30E
330
1
100
AcDbSymbolTableRecord
100
AcDbBlockTableRecord
  2
*D23
  0
BLOCK_RECORD
  5
31A
330
1
100
AcDbSymbolTableRecord
100
AcDbBlockTableRecord
  2
*D24
  0
BLOCK_RECORD
  5
326
330
1
100
AcDbSymbolTableRecord
100
AcDbBlockTableRecord
  2
*D25
  0
BLOCK_RECORD
  5
332
330
1
100
AcDbSymbolTableRecord
100
AcDbBlockTableRecord
  2
*D26
  0
BLOCK_RECORD
  5
33D
330
1
100
AcDbSymbolTableRecord
100
AcDbBlockTableRecord
  2
*D27
  0
BLOCK_RECORD
  5
34B
330
1
100
AcDbSymbolTableRecord
100
AcDbBlockTableRecord
  2
*D28
  0
BLOCK_RECORD
  5
359
330
1
100
AcDbSymbolTableRecord
100
AcDbBlockTableRecord
  2
*D29
  0
BLOCK_RECORD
  5
365
330
1
100
AcDbSymbolTableRecord
100
AcDbBlockTableRecord
  2
*D30
  0
BLOCK_RECORD
  5
371
330
1
100
AcDbSymbolTableRecord
100
AcDbBlockTableRecord
  2
*D31
  0
BLOCK_RECORD
  5
37D
330
1
100
AcDbSymbolTableRecord
100
AcDbBlockTableRecord
  2
*D32
  0
BLOCK_RECORD
  5
38B
330
1
100
AcDbSymbolTableRecord
100
AcDbBlockTableRecord
  2
*D33
  0
BLOCK_RECORD
  5
396
330
1
100
AcDbSymbolTableRecord
100
AcDbBlockTableRecord
  2
*D34
  0
BLOCK_RECORD
  5
3A4
330
1
100
AcDbSymbolTableRecord
100
AcDbBlockTableRecord
  2
*D35
  0
BLOCK_RECORD
  5
3B0
330
1
100
AcDbSymbolTableRecord
100
AcDbBlockTableRecord
  2
*D36
  0
BLOCK_RECORD
  5
3BC
330
1
100
AcDbSymbolTableRecord
100
AcDbBlockTableRecord
  2
*D37
  0
BLOCK_RECORD
  5
3C8
330
1
100
AcDbSymbolTableRecord
100
AcDbBlockTableRecord
  2
*D38
  0
BLOCK_RECORD
  5
3D6
330
1
100
AcDbSymbolTableRecord
100
AcDbBlockTableRecord
  2
*D39
  0
BLOCK_RECORD
  5
3E2
330
1
100
AcDbSymbolTableRecord
100
AcDbBlockTableRecord
  2
*D40
  0
BLOCK_RECORD
  5
3EE
330
1
100
AcDbSymbolTableRecord
100
AcDbBlockTableRecord
  2
*D41
  0
BLOCK_RECORD
  5
3FA
330
1
100
AcDbSymbolTableRecord
100
AcDbBlockTableRecord
  2
*D42
  0
BLOCK_RECORD
  5
406
330
1
100
AcDbSymbolTableRecord
100
AcDbBlockTableRecord
  2
*D43
  0
BLOCK_RECORD
  5
412
330
1
100
AcDbSymbolTableRecord
100
AcDbBlockTableRecord
  2
*D44
  0
BLOCK_RECORD
  5
41E
330
1
100
AcDbSymbolTableRecord
100
AcDbBlockTableRecord
  2
*D45
  0
ENDTAB
  0
ENDSEC
  0
SECTION
  2
BLOCKS
  0
BLOCK
  5
5
330
2
100
AcDbEntity
  8
0
100
AcDbBlockBegin
  2
*MODEL_SPACE
 70
     0
 10
0.0
 20
0.0
 30
0.0
  3
*MODEL_SPACE
  1

  0
ENDBLK
  5
B
330
2
100
AcDbEntity
  8
0
100
AcDbBlockEnd
  0
BLOCK
  5
11
330
E
100
AcDbEntity
 67
     1
  8
0
100
AcDbBlockBegin
  2
*PAPER_SPACE
 70
     0
 10
0.0
 20
0.0
 30
0.0
  3
*PAPER_SPACE
  1

  0
ENDBLK
  5
12
330
E
100
AcDbEntity
 67
     1
  8
0
100
AcDbBlockEnd
  0
BLOCK
  5
1FB
330
1F1
100
AcDbEntity
  8
0
100
AcDbBlockBegin
  2
*D0
 70
     1
 10
0.0
 20
0.0
 30
0.0
  3
*D0
  1

  0
LINE
  5
1F2
330
1F1
100
AcDbEntity
  8
0
 62
   123
100
AcDbLine
 10
-10457.18160226616
 20
-1816.988585195036
 30
0.0
 11
-10457.18160226616
 21
-1760.208585195038
 31
0.0
  0
LINE
  5
1F3
330
1F1
100
AcDbEntity
  8
0
 62
   123
100
AcDbLine
 10
-10444.68089282905
 20
-1789.308585195038
 30
0.0
 11
-10444.68089282905
 21
-1760.208585195038
 31
0.0
  0
LINE
  5
1F4
330
1F1
100
AcDbEntity
  8
0
 62
   123
100
AcDbLine
 10
-10454.68160226616
 20
-1760.808585195038
 30
0.0
 11
-10447.18089282905
 21
-1760.808585195038
 31
0.0
  0
SOLID
  5
1F5
330
1F1
100
AcDbEntity
  8
0
 62
   123
100
AcDbTrace
 10
-10454.68160226616
 20
-1760.391918528371
 30
0.0
 11
-10454.68160226616
 21
-1761.225251861705
 31
0.0
 12
-10457.18160226616
 22
-1760.808585195038
 32
0.0
 13
-10457.18160226616
 23
-1760.808585195038
 33
0.0
  0
SOLID
  5
1F6
330
1F1
100
AcDbEntity
  8
0
 62
   123
100
AcDbTrace
 10
-10447.18089282905
 20
-1760.391918528371
 30
0.0
 11
-10447.18089282905
 21
-1761.225251861705
 31
0.0
 12
-10444.68089282905
 22
-1760.808585195038
 32
0.0
 13
-10444.68089282905
 23
-1760.808585195038
 33
0.0
  0
MTEXT
  5
1F7
330
1F1
100
AcDbEntity
  8
0
 62
     3
100
AcDbMText
 10
-10450.93124754761
 20
-1758.308585195038
 30
0.0
 40
3.0
 41
0.0
 71
     5
 72
     1
  1
\A1;12.5
1001
ACAD
1000
MTEXTBEGIN
1070
    73
1070
     1
1070
    44
1040
1.0
1070
    74
1070
     0
1000
MTEXTEND
1000
MTEXTBEGIN
1070
    73
1070
     1
1070
    44
1040
1.0
1070
    74
1070
     0
1000
MTEXTEND
1000
MTEXTBEGIN
1070
    73
1070
     1
1070
    44
1040
1.0
1070
    74
1070
     0
1000
MTEXTEND
  0
POINT
  5
1F8
330
1F1
100
AcDbEntity
  8
DEFPOINTS
 62
     0
100
AcDbPoint
 10
-10457.18160226616
 20
-1817.988585195037
 30
0.0
  0
POINT
  5
1F9
330
1F1
100
AcDbEntity
  8
DEFPOINTS
 62
     0
100
AcDbPoint
 10
-10444.68089282905
 20
-1790.308585195038
 30
0.0
  0
POINT
  5
1FA
330
1F1
100
AcDbEntity
  8
DEFPOINTS
 62
     0
100
AcDbPoint
 10
-10444.68089282905
 20
-1760.808585195038
 30
0.0
  0
ENDBLK
  5
1FC
330
1F1
100
AcDbEntity
  8
0
100
AcDbBlockEnd
  0
BLOCK
  5
BE
330
B4
100
AcDbEntity
  8
0
100
AcDbBlockBegin
  2
*D1
 70
     1
 10
0.0
 20
0.0
 30
0.0
  3
*D1
  1

  0
LINE
  5
B5
330
B4
100
AcDbEntity
  8
0
 62
   123
100
AcDbLine
 10
-10444.68089282905
 20
-1759.808585195038
 30
0.0
 11
-10444.68089282905
 21
-1760.208585195038
 31
0.0
  0
LINE
  5
B6
330
B4
100
AcDbEntity
  8
0
 62
   123
100
AcDbLine
 10
-10331.68089282906
 20
-1790.838585195039
 30
0.0
 11
-10331.68089282906
 21
-1760.208585195038
 31
0.0
  0
LINE
  5
B7
330
B4
100
AcDbEntity
  8
0
 62
   123
100
AcDbLine
 10
-10442.18089282906
 20
-1760.808585195038
 30
0.0
 11
-10334.18089282905
 21
-1760.808585195038
 31
0.0
  0
SOLID
  5
B8
330
B4
100
AcDbEntity
  8
0
 62
   123
100
AcDbTrace
 10
-10442.18089282906
 20
-1760.391918528371
 30
0.0
 11
-10442.18089282906
 21
-1761.225251861705
 31
0.0
 12
-10444.68089282905
 22
-1760.808585195038
 32
0.0
 13
-10444.68089282905
 23
-1760.808585195038
 33
0.0
  0
SOLID
  5
B9
330
B4
100
AcDbEntity
  8
0
 62
   123
100
AcDbTrace
 10
-10334.18089282905
 20
-1760.391918528371
 30
0.0
 11
-10334.18089282905
 21
-1761.225251861705
 31
0.0
 12
-10331.68089282906
 22
-1760.808585195038
 32
0.0
 13
-10331.68089282906
 23
-1760.808585195038
 33
0.0
  0
MTEXT
  5
BA
330
B4
100
AcDbEntity
  8
0
 62
     3
100
AcDbMText
 10
-10383.18089282906
 20
-1758.308585195038
 30
0.0
 40
3.0
 41
0.0
 71
     5
 72
     1
  1
\A1;113
1001
ACAD
1000
MTEXTBEGIN
1070
    73
1070
     1
1070
    44
1040
1.0
1070
    74
1070
     0
1000
MTEXTEND
1000
MTEXTBEGIN
1070
    73
1070
     1
1070
    44
1040
1.0
1070
    74
1070
     0
1000
MTEXTEND
1000
MTEXTBEGIN
1070
    73
1070
     1
1070
    44
1040
1.0
1070
    74
1070
     0
1000
MTEXTEND
  0
POINT
  5
BB
330
B4
100
AcDbEntity
  8
DEFPOINTS
 62
     0
100
AcDbPoint
 10
-10444.68089282905
 20
-1760.808585195038
 30
0.0
  0
POINT
  5
BC
330
B4
100
AcDbEntity
  8
DEFPOINTS
 62
     0
100
AcDbPoint
 10
-10331.68089282906
 20
-1791.838585195039
 30
0.0
  0
POINT
  5
BD
330
B4
100
AcDbEntity
  8
DEFPOINTS
 62
     0
100
AcDbPoint
 10
-10331.68089282906
 20
-1760.808585195038
 30
0.0
  0
ENDBLK
  5
BF
330
B4
100
AcDbEntity
  8
0
100
AcDbBlockEnd
  0
BLOCK
  5
AA
330
9F
100
AcDbEntity
  8
0
100
AcDbBlockBegin
  2
*D2
 70
     1
 10
0.0
 20
0.0
 30
0.0
  3
*D2
  1

  0
LINE
  5
A0
330
9F
100
AcDbEntity
  8
0
 62
   123
100
AcDbLine
 10
-10437.3777087515
 20
-1919.482757459856
 30
0.0
 11
-10437.3777087515
 21
-1919.882757459857
 31
0.0
  0
LINE
  5
A1
330
9F
100
AcDbEntity
  8
0
 62
   123
100
AcDbLine
 10
-10324.3777087515
 20
-1950.512757459858
 30
0.0
 11
-10324.3777087515
 21
-1919.882757459857
 31
0.0
  0
LINE
  5
A2
330
9F
100
AcDbEntity
  8
0
 62
   123
100
AcDbLine
 10
-10434.8777087515
 20
-1920.482757459856
 30
0.0
 11
-10326.87770875152
 21
-1920.482757459856
 31
0.0
  0
SOLID
  5
A3
330
9F
100
AcDbEntity
  8
0
 62
   123
100
AcDbTrace
 10
-10434.8777087515
 20
-1920.066090793191
 30
0.0
 11
-10434.8777087515
 21
-1920.899424126524
 31
0.0
 12
-10437.3777087515
 22
-1920.482757459856
 32
0.0
 13
-10437.3777087515
 23
-1920.482757459856
 33
0.0
  0
SOLID
  5
A4
330
9F
100
AcDbEntity
  8
0
 62
   123
100
AcDbTrace
 10
-10326.87770875152
 20
-1920.066090793191
 30
0.0
 11
-10326.87770875152
 21
-1920.899424126524
 31
0.0
 12
-10324.3777087515
 22
-1920.482757459856
 32
0.0
 13
-10324.3777087515
 23
-1920.482757459856
 33
0.0
  0
MTEXT
  5
A5
330
9F
100
AcDbEntity
  8
0
 62
     3
100
AcDbMText
 10
-10375.8777087515
 20
-1917.982757459856
 30
0.0
 40
3.0
 41
0.0
 71
     5
 72
     1
  1
\A1;113
1001
ACAD
1000
MTEXTBEGIN
1070
    73
1070
     1
1070
    44
1040
1.0
1070
    74
1070
     0
1000
MTEXTEND
1000
MTEXTBEGIN
1070
    73
1070
     1
1070
    44
1040
1.0
1070
    74
1070
     0
1000
MTEXTEND
1000
MTEXTBEGIN
1070
    73
1070
     1
1070
    44
1040
1.0
1070
    74
1070
     0
1000
MTEXTEND
  0
POINT
  5
A6
330
9F
100
AcDbEntity
  8
DEFPOINTS
 62
     0
100
AcDbPoint
 10
-10437.3777087515
 20
-1920.482757459856
 30
0.0
  0
POINT
  5
A8
330
9F
100
AcDbEntity
  8
DEFPOINTS
 62
     0
100
AcDbPoint
 10
-10324.3777087515
 20
-1951.512757459855
 30
0.0
  0
POINT
  5
A9
330
9F
100
AcDbEntity
  8
DEFPOINTS
 62
     0
100
AcDbPoint
 10
-10324.3777087515
 20
-1920.482757459856
 30
0.0
  0
ENDBLK
  5
AB
330
9F
100
AcDbEntity
  8
0
100
AcDbBlockEnd
  0
BLOCK
  5
17A
330
16E
100
AcDbEntity
  8
0
100
AcDbBlockBegin
  2
*D3
 70
     1
 10
0.0
 20
0.0
 30
0.0
  3
*D3
  1

  0
LINE
  5
16F
330
16E
100
AcDbEntity
  8
0
 62
   123
100
AcDbLine
 10
-10461.8777087515
 20
-1976.982867845315
 30
0.0
 11
-10475.92533962408
 21
-1976.982867845315
 31
0.0
  0
LINE
  5
170
330
16E
100
AcDbEntity
  8
0
 62
   123
100
AcDbLine
 10
-10461.8777087515
 20
-1982.982647074402
 30
0.0
 11
-10475.92533962408
 21
-1982.982647074402
 31
0.0
  0
LINE
  5
171
330
16E
100
AcDbEntity
  8
0
 62
   123
100
AcDbLine
 10
-10475.32533962407
 20
-1974.482867845314
 30
0.0
 11
-10475.32533962407
 21
-1971.982867845315
 31
0.0
  0
LINE
  5
172
330
16E
100
AcDbEntity
  8
0
 62
   123
100
AcDbLine
 10
-10475.32533962407
 20
-1985.482647074402
 30
0.0
 11
-10475.32533962407
 21
-1987.982647074402
 31
0.0
  0
LINE
  5
173
330
16E
100
AcDbEntity
  8
0
 62
   123
100
AcDbLine
 10
-10475.32533962407
 20
-1976.982867845315
 30
0.0
 11
-10475.32533962407
 21
-1982.982647074402
 31
0.0
  0
SOLID
  5
174
330
16E
100
AcDbEntity
  8
0
 62
   123
100
AcDbTrace
 10
-10475.74200629074
 20
-1974.482867845314
 30
0.0
 11
-10474.90867295741
 21
-1974.482867845314
 31
0.0
 12
-10475.32533962407
 22
-1976.982867845315
 32
0.0
 13
-10475.32533962407
 23
-1976.982867845315
 33
0.0
  0
SOLID
  5
175
330
16E
100
AcDbEntity
  8
0
 62
   123
100
AcDbTrace
 10
-10475.74200629074
 20
-1985.482647074402
 30
0.0
 11
-10474.90867295741
 21
-1985.482647074402
 31
0.0
 12
-10475.32533962407
 22
-1982.982647074402
 32
0.0
 13
-10475.32533962407
 23
-1982.982647074402
 33
0.0
  0
MTEXT
  5
176
330
16E
100
AcDbEntity
  8
0
 62
     3
100
AcDbMText
 10
-10479.27548962408
 20
-1979.98275745986
 30
0.0
 40
3.0
 41
0.0
 71
     5
 72
     1
  1
\A1;\A1;%%c6{\H0.7x;\S+0^ -0.012;\f??|b0|i0|c0|p49;\H1.429x;(h7)}  
 11
0.0000000000000001
 21
1.0
 31
0.0
1001
ACAD
1000
MTEXTBEGIN
1070
    73
1070
     1
1070
    44
1040
1.0
1070
    74
1070
     0
1000
MTEXTEND
1000
MTEXTBEGIN
1070
    73
1070
     1
1070
    44
1040
1.0
1070
    74
1070
     0
1000
MTEXTEND
1000
MTEXTBEGIN
1070
    73
1070
     1
1070
    44
1040
1.0
1070
    74
1070
     0
1000
MTEXTEND
  0
POINT
  5
177
330
16E
100
AcDbEntity
  8
DEFPOINTS
 62
     0
100
AcDbPoint
 10
-10460.8777087515
 20
-1976.982867845315
 30
0.0
  0
POINT
  5
178
330
16E
100
AcDbEntity
  8
DEFPOINTS
 62
     0
100
AcDbPoint
 10
-10460.8777087515
 20
-1982.982647074402
 30
0.0
  0
POINT
  5
179
330
16E
100
AcDbEntity
  8
DEFPOINTS
 62
     0
100
AcDbPoint
 10
-10475.32533962407
 20
-1982.982647074402
 30
0.0
  0
ENDBLK
  5
17B
330
16E
100
AcDbEntity
  8
0
100
AcDbBlockEnd
  0
BLOCK
  5
D0
330
C6
100
AcDbEntity
  8
0
100
AcDbBlockBegin
  2
*D4
 70
     1
 10
0.0
 20
0.0
 30
0.0
  3
*D4
  1

  0
LINE
  5
C7
330
C6
100
AcDbEntity
  8
0
 62
   123
100
AcDbLine
 10
-10461.37770875152
 20
-1976.982644674686
 30
0.0
 11
-10461.37770875152
 21
-1919.882757459857
 31
0.0
  0
LINE
  5
C8
330
C6
100
AcDbEntity
  8
0
 62
   123
100
AcDbLine
 10
-10437.3777087515
 20
-1948.982757459856
 30
0.0
 11
-10437.3777087515
 21
-1919.882757459857
 31
0.0
  0
LINE
  5
C9
330
C6
100
AcDbEntity
  8
0
 62
   123
100
AcDbLine
 10
-10458.8777087515
 20
-1920.482757459856
 30
0.0
 11
-10439.8777087515
 21
-1920.482757459856
 31
0.0
  0
SOLID
  5
CA
330
C6
100
AcDbEntity
  8
0
 62
   123
100
AcDbTrace
 10
-10458.8777087515
 20
-1920.066090793191
 30
0.0
 11
-10458.8777087515
 21
-1920.899424126524
 31
0.0
 12
-10461.37770875152
 22
-1920.482757459856
 32
0.0
 13
-10461.37770875152
 23
-1920.482757459856
 33
0.0
  0
SOLID
  5
CB
330
C6
100
AcDbEntity
  8
0
 62
   123
100
AcDbTrace
 10
-10439.8777087515
 20
-1920.066090793191
 30
0.0
 11
-10439.8777087515
 21
-1920.899424126524
 31
0.0
 12
-10437.3777087515
 22
-1920.482757459856
 32
0.0
 13
-10437.3777087515
 23
-1920.482757459856
 33
0.0
  0
MTEXT
  5
CC
330
C6
100
AcDbEntity
  8
0
 62
     3
100
AcDbMText
 10
-10449.3777087515
 20
-1917.982757459856
 30
0.0
 40
3.0
 41
0.0
 71
     5
 72
     1
  1
\A1;24
1001
ACAD
1000
MTEXTBEGIN
1070
    73
1070
     1
1070
    44
1040
1.0
1070
    74
1070
     0
1000
MTEXTEND
1000
MTEXTBEGIN
1070
    73
1070
     1
1070
    44
1040
1.0
1070
    74
1070
     0
1000
MTEXTEND
1000
MTEXTBEGIN
1070
    73
1070
     1
1070
    44
1040
1.0
1070
    74
1070
     0
1000
MTEXTEND
  0
POINT
  5
CD
330
C6
100
AcDbEntity
  8
DEFPOINTS
 62
     0
100
AcDbPoint
 10
-10461.37770875152
 20
-1977.982644674687
 30
0.0
  0
POINT
  5
CE
330
C6
100
AcDbEntity
  8
DEFPOINTS
 62
     0
100
AcDbPoint
 10
-10437.3777087515
 20
-1949.982757459856
 30
0.0
  0
POINT
  5
CF
330
C6
100
AcDbEntity
  8
DEFPOINTS
 62
     0
100
AcDbPoint
 10
-10437.3777087515
 20
-1920.482757459856
 30
0.0
  0
ENDBLK
  5
D1
330
C6
100
AcDbEntity
  8
0
100
AcDbBlockEnd
  0
BLOCK
  5
20D
330
203
100
AcDbEntity
  8
0
100
AcDbBlockBegin
  2
*D5
 70
     1
 10
0.0
 20
0.0
 30
0.0
  3
*D5
  1

  0
LINE
  5
204
330
203
100
AcDbEntity
  8
0
 62
   123
100
AcDbLine
 10
-10447.68089282904
 20
-1793.308585195038
 30
0.0
 11
-10467.08836750642
 21
-1793.308585195038
 31
0.0
  0
LINE
  5
205
330
203
100
AcDbEntity
  8
0
 62
   123
100
AcDbLine
 10
-10447.68089282904
 20
-1847.308585195038
 30
0.0
 11
-10467.08836750642
 21
-1847.308585195038
 31
0.0
  0
LINE
  5
206
330
203
100
AcDbEntity
  8
0
 62
   123
100
AcDbLine
 10
-10466.48836750643
 20
-1795.808585195038
 30
0.0
 11
-10466.48836750643
 21
-1844.808585195038
 31
0.0
  0
SOLID
  5
207
330
203
100
AcDbEntity
  8
0
 62
   123
100
AcDbTrace
 10
-10466.90503417309
 20
-1795.808585195038
 30
0.0
 11
-10466.07170083974
 21
-1795.808585195038
 31
0.0
 12
-10466.48836750643
 22
-1793.308585195038
 32
0.0
 13
-10466.48836750643
 23
-1793.308585195038
 33
0.0
  0
SOLID
  5
208
330
203
100
AcDbEntity
  8
0
 62
   123
100
AcDbTrace
 10
-10466.90503417309
 20
-1844.808585195038
 30
0.0
 11
-10466.07170083974
 21
-1844.808585195038
 31
0.0
 12
-10466.48836750643
 22
-1847.308585195038
 32
0.0
 13
-10466.48836750643
 23
-1847.308585195038
 33
0.0
  0
MTEXT
  5
209
330
203
100
AcDbEntity
  8
0
 62
     3
100
AcDbMText
 10
-10470.43851750642
 20
-1819.728932887197
 30
0.0
 40
3.0
 41
0.0
 71
     5
 72
     1
  1
\A1;\A1;%%C54{\f??|b0|i0|c0|p49;\H0.7x;\S+0^ -0.03;\H1.429x;(h7)} 
 11
0.0000000000000001
 21
1.0
 31
0.0
1001
ACAD
1000
MTEXTBEGIN
1070
    73
1070
     1
1070
    44
1040
1.0
1070
    74
1070
     0
1000
MTEXTEND
1000
MTEXTBEGIN
1070
    73
1070
     1
1070
    44
1040
1.0
1070
    74
1070
     0
1000
MTEXTEND
1000
MTEXTBEGIN
1070
    73
1070
     1
1070
    44
1040
1.0
1070
    74
1070
     0
1000
MTEXTEND
  0
POINT
  5
20A
330
203
100
AcDbEntity
  8
DEFPOINTS
 62
     0
100
AcDbPoint
 10
-10446.68089282904
 20
-1793.308585195038
 30
0.0
  0
POINT
  5
20B
330
203
100
AcDbEntity
  8
DEFPOINTS
 62
     0
100
AcDbPoint
 10
-10446.68089282904
 20
-1847.308585195038
 30
0.0
  0
POINT
  5
20C
330
203
100
AcDbEntity
  8
DEFPOINTS
 62
     0
100
AcDbPoint
 10
-10466.48836750643
 20
-1847.308585195038
 30
0.0
  0
ENDBLK
  5
20E
330
203
100
AcDbEntity
  8
0
100
AcDbBlockEnd
  0
BLOCK
  5
2CE
330
2C4
100
AcDbEntity
  8
0
100
AcDbBlockBegin
  2
*D6
 70
     1
 10
0.0
 20
0.0
 30
0.0
  3
*D6
  1

  0
LINE
  5
2C5
330
2C4
100
AcDbEntity
  8
0
 62
   123
100
AcDbLine
 10
-10331.68089282906
 20
-1790.838585195039
 30
0.0
 11
-10331.68089282906
 21
-1760.208585195038
 31
0.0
  0
LINE
  5
2C6
330
2C4
100
AcDbEntity
  8
0
 62
   123
100
AcDbLine
 10
-10321.68089282905
 20
-1796.808585195038
 30
0.0
 11
-10321.68089282905
 21
-1760.208585195038
 31
0.0
  0
LINE
  5
2C7
330
2C4
100
AcDbEntity
  8
0
 62
   123
100
AcDbLine
 10
-10329.18089282905
 20
-1760.808585195038
 30
0.0
 11
-10324.18089282906
 21
-1760.808585195038
 31
0.0
  0
SOLID
  5
2C8
330
2C4
100
AcDbEntity
  8
0
 62
   123
100
AcDbTrace
 10
-10329.18089282905
 20
-1760.391918528371
 30
0.0
 11
-10329.18089282905
 21
-1761.225251861705
 31
0.0
 12
-10331.68089282906
 22
-1760.808585195038
 32
0.0
 13
-10331.68089282906
 23
-1760.808585195038
 33
0.0
  0
SOLID
  5
2C9
330
2C4
100
AcDbEntity
  8
0
 62
   123
100
AcDbTrace
 10
-10324.18089282906
 20
-1760.391918528371
 30
0.0
 11
-10324.18089282906
 21
-1761.225251861705
 31
0.0
 12
-10321.68089282905
 22
-1760.808585195038
 32
0.0
 13
-10321.68089282905
 23
-1760.808585195038
 33
0.0
  0
MTEXT
  5
2CA
330
2C4
100
AcDbEntity
  8
0
 62
     3
100
AcDbMText
 10
-10326.68089282904
 20
-1758.308585195038
 30
0.0
 40
3.0
 41
0.0
 71
     5
 72
     1
  1
\A1;10
1001
ACAD
1000
MTEXTBEGIN
1070
    73
1070
     1
1070
    44
1040
1.0
1070
    74
1070
     0
1000
MTEXTEND
1000
MTEXTBEGIN
1070
    73
1070
     1
1070
    44
1040
1.0
1070
    74
1070
     0
1000
MTEXTEND
1000
MTEXTBEGIN
1070
    73
1070
     1
1070
    44
1040
1.0
1070
    74
1070
     0
1000
MTEXTEND
  0
POINT
  5
2CB
330
2C4
100
AcDbEntity
  8
DEFPOINTS
 62
     0
100
AcDbPoint
 10
-10331.68089282906
 20
-1791.838585195039
 30
0.0
  0
POINT
  5
2CC
330
2C4
100
AcDbEntity
  8
DEFPOINTS
 62
     0
100
AcDbPoint
 10
-10321.68089282905
 20
-1797.808585195038
 30
0.0
  0
POINT
  5
2CD
330
2C4
100
AcDbEntity
  8
DEFPOINTS
 62
     0
100
AcDbPoint
 10
-10321.68089282905
 20
-1760.808585195038
 30
0.0
  0
ENDBLK
  5
2CF
330
2C4
100
AcDbEntity
  8
0
100
AcDbBlockEnd
  0
BLOCK
  5
304
330
2FA
100
AcDbEntity
  8
0
100
AcDbBlockBegin
  2
*D7
 70
     1
 10
0.0
 20
0.0
 30
0.0
  3
*D7
  1

  0
LINE
  5
2FB
330
2FA
100
AcDbEntity
  8
0
 62
   123
100
AcDbLine
 10
-10321.68089282905
 20
-1796.808585195038
 30
0.0
 11
-10306.99939930334
 21
-1796.808585195038
 31
0.0
  0
LINE
  5
2FC
330
2FA
100
AcDbEntity
  8
0
 62
   123
100
AcDbLine
 10
-10321.68089282905
 20
-1843.808585195038
 30
0.0
 11
-10306.99939930334
 21
-1843.808585195038
 31
0.0
  0
LINE
  5
2FD
330
2FA
100
AcDbEntity
  8
0
 62
   123
100
AcDbLine
 10
-10307.59939930335
 20
-1799.308585195038
 30
0.0
 11
-10307.59939930335
 21
-1841.308585195038
 31
0.0
  0
SOLID
  5
2FE
330
2FA
100
AcDbEntity
  8
0
 62
   123
100
AcDbTrace
 10
-10308.01606597002
 20
-1799.308585195038
 30
0.0
 11
-10307.18273263669
 21
-1799.308585195038
 31
0.0
 12
-10307.59939930335
 22
-1796.808585195038
 32
0.0
 13
-10307.59939930335
 23
-1796.808585195038
 33
0.0
  0
SOLID
  5
2FF
330
2FA
100
AcDbEntity
  8
0
 62
   123
100
AcDbTrace
 10
-10308.01606597002
 20
-1841.308585195038
 30
0.0
 11
-10307.18273263669
 21
-1841.308585195038
 31
0.0
 12
-10307.59939930335
 22
-1843.808585195038
 32
0.0
 13
-10307.59939930335
 23
-1843.808585195038
 33
0.0
  0
MTEXT
  5
300
330
2FA
100
AcDbEntity
  8
0
 62
     3
100
AcDbMText
 10
-10310.09939930334
 20
-1822.602335195038
 30
0.0
 40
3.0
 41
0.0
 71
     5
 72
     1
  1
\A1;%%C47
 11
0.0000000000000001
 21
1.0
 31
0.0
1001
ACAD
1000
MTEXTBEGIN
1070
    73
1070
     1
1070
    44
1040
1.0
1070
    74
1070
     0
1000
MTEXTEND
1000
MTEXTBEGIN
1070
    73
1070
     1
1070
    44
1040
1.0
1070
    74
1070
     0
1000
MTEXTEND
1000
MTEXTBEGIN
1070
    73
1070
     1
1070
    44
1040
1.0
1070
    74
1070
     0
1000
MTEXTEND
  0
POINT
  5
301
330
2FA
100
AcDbEntity
  8
DEFPOINTS
 62
     0
100
AcDbPoint
 10
-10322.68089282905
 20
-1796.808585195038
 30
0.0
  0
POINT
  5
302
330
2FA
100
AcDbEntity
  8
DEFPOINTS
 62
     0
100
AcDbPoint
 10
-10322.68089282905
 20
-1843.808585195038
 30
0.0
  0
POINT
  5
303
330
2FA
100
AcDbEntity
  8
DEFPOINTS
 62
     0
100
AcDbPoint
 10
-10307.59939930335
 20
-1843.808585195038
 30
0.0
  0
ENDBLK
  5
305
330
2FA
100
AcDbEntity
  8
0
100
AcDbBlockEnd
  0
BLOCK
  5
2F5
330
2EB
100
AcDbEntity
  8
0
100
AcDbBlockBegin
  2
*D8
 70
     1
 10
0.0
 20
0.0
 30
0.0
  3
*D8
  1

  0
LINE
  5
2EC
330
2EB
100
AcDbEntity
  8
0
 62
   123
100
AcDbLine
 10
-10332.18055342415
 20
-1790.306677522803
 30
0.0
 11
-10297.16292761374
 21
-1790.306677522803
 31
0.0
  0
LINE
  5
2ED
330
2EB
100
AcDbEntity
  8
0
 62
   123
100
AcDbLine
 10
-10332.18055342415
 20
-1850.310492867273
 30
0.0
 11
-10297.16292761374
 21
-1850.310492867273
 31
0.0
  0
LINE
  5
2EE
330
2EB
100
AcDbEntity
  8
0
 62
   123
100
AcDbLine
 10
-10297.76292761376
 20
-1792.806677522803
 30
0.0
 11
-10297.76292761376
 21
-1847.810492867274
 31
0.0
  0
SOLID
  5
2EF
330
2EB
100
AcDbEntity
  8
0
 62
   123
100
AcDbTrace
 10
-10298.17959428042
 20
-1792.806677522803
 30
0.0
 11
-10297.34626094709
 21
-1792.806677522803
 31
0.0
 12
-10297.76292761376
 22
-1790.306677522803
 32
0.0
 13
-10297.76292761376
 23
-1790.306677522803
 33
0.0
  0
SOLID
  5
2F0
330
2EB
100
AcDbEntity
  8
0
 62
   123
100
AcDbTrace
 10
-10298.17959428042
 20
-1847.810492867274
 30
0.0
 11
-10297.34626094709
 21
-1847.810492867274
 31
0.0
 12
-10297.76292761376
 22
-1850.310492867273
 32
0.0
 13
-10297.76292761376
 23
-1850.310492867273
 33
0.0
  0
MTEXT
  5
2F1
330
2EB
100
AcDbEntity
  8
0
 62
     3
100
AcDbMText
 10
-10300.26292761375
 20
-1820.364894277121
 30
0.0
 40
3.0
 41
0.0
 71
     5
 72
     1
  1
\A1;%%C60
 11
0.0000000000000001
 21
1.0
 31
0.0
1001
ACAD
1000
MTEXTBEGIN
1070
    73
1070
     1
1070
    44
1040
1.0
1070
    74
1070
     0
1000
MTEXTEND
1000
MTEXTBEGIN
1070
    73
1070
     1
1070
    44
1040
1.0
1070
    74
1070
     0
1000
MTEXTEND
1000
MTEXTBEGIN
1070
    73
1070
     1
1070
    44
1040
1.0
1070
    74
1070
     0
1000
MTEXTEND
  0
POINT
  5
2F2
330
2EB
100
AcDbEntity
  8
DEFPOINTS
 62
     0
100
AcDbPoint
 10
-10333.18055342415
 20
-1790.306677522803
 30
0.0
  0
POINT
  5
2F3
330
2EB
100
AcDbEntity
  8
DEFPOINTS
 62
     0
100
AcDbPoint
 10
-10333.18055342415
 20
-1850.310492867273
 30
0.0
  0
POINT
  5
2F4
330
2EB
100
AcDbEntity
  8
DEFPOINTS
 62
     0
100
AcDbPoint
 10
-10297.76292761376
 20
-1850.310492867273
 30
0.0
  0
ENDBLK
  5
2F6
330
2EB
100
AcDbEntity
  8
0
100
AcDbBlockEnd
  0
BLOCK
  5
1C3
330
1B7
100
AcDbEntity
  8
0
100
AcDbBlockBegin
  2
*D9
 70
     1
 10
0.0
 20
0.0
 30
0.0
  3
*D9
  1

  0
LINE
  5
1B8
330
1B7
100
AcDbEntity
  8
0
 62
   123
100
AcDbLine
 10
-10446.68089282904
 20
-1792.308585195038
 30
0.0
 11
-10446.68089282904
 21
-1775.740251861704
 31
0.0
  0
LINE
  5
1B9
330
1B7
100
AcDbEntity
  8
0
 62
   123
100
AcDbLine
 10
-10444.68089282905
 20
-1789.308585195038
 30
0.0
 11
-10444.68089282905
 21
-1775.740251861704
 31
0.0
  0
LINE
  5
1BA
330
1B7
100
AcDbEntity
  8
0
 62
   123
100
AcDbLine
 10
-10442.18089282906
 20
-1776.340251861704
 30
0.0
 11
-10439.68089282905
 21
-1776.340251861704
 31
0.0
  0
LINE
  5
1BB
330
1B7
100
AcDbEntity
  8
0
 62
   123
100
AcDbLine
 10
-10449.18089282905
 20
-1776.340251861704
 30
0.0
 11
-10455.68089282906
 21
-1776.340251861704
 31
0.0
  0
LINE
  5
1BC
330
1B7
100
AcDbEntity
  8
0
 62
   123
100
AcDbLine
 10
-10444.68089282905
 20
-1776.340251861704
 30
0.0
 11
-10446.68089282904
 21
-1776.340251861704
 31
0.0
  0
SOLID
  5
1BD
330
1B7
100
AcDbEntity
  8
0
 62
   123
100
AcDbTrace
 10
-10442.18089282906
 20
-1775.923585195037
 30
0.0
 11
-10442.18089282906
 21
-1776.75691852837
 31
0.0
 12
-10444.68089282905
 22
-1776.340251861704
 32
0.0
 13
-10444.68089282905
 23
-1776.340251861704
 33
0.0
  0
SOLID
  5
1BE
330
1B7
100
AcDbEntity
  8
0
 62
   123
100
AcDbTrace
 10
-10449.18089282905
 20
-1775.923585195037
 30
0.0
 11
-10449.18089282905
 21
-1776.75691852837
 31
0.0
 12
-10446.68089282904
 22
-1776.340251861704
 32
0.0
 13
-10446.68089282904
 23
-1776.340251861704
 33
0.0
  0
MTEXT
  5
1BF
330
1B7
100
AcDbEntity
  8
0
 62
     3
100
AcDbMText
 10
-10453.68089282906
 20
-1773.840251861702
 30
0.0
 40
3.0
 41
0.0
 71
     5
 72
     1
  1
\A1;2
1001
ACAD
1000
MTEXTBEGIN
1070
    73
1070
     1
1070
    44
1040
1.0
1070
    74
1070
     0
1000
MTEXTEND
1000
MTEXTBEGIN
1070
    73
1070
     1
1070
    44
1040
1.0
1070
    74
1070
     0
1000
MTEXTEND
1000
MTEXTBEGIN
1070
    73
1070
     1
1070
    44
1040
1.0
1070
    74
1070
     0
1000
MTEXTEND
  0
POINT
  5
1C0
330
1B7
100
AcDbEntity
  8
DEFPOINTS
 62
     0
100
AcDbPoint
 10
-10446.68089282904
 20
-1793.308585195038
 30
0.0
  0
POINT
  5
1C1
330
1B7
100
AcDbEntity
  8
DEFPOINTS
 62
     0
100
AcDbPoint
 10
-10444.68089282905
 20
-1790.308585195038
 30
0.0
  0
POINT
  5
1C2
330
1B7
100
AcDbEntity
  8
DEFPOINTS
 62
     0
100
AcDbPoint
 10
-10444.68089282905
 20
-1776.340251861704
 30
0.0
  0
ENDBLK
  5
1C4
330
1B7
100
AcDbEntity
  8
0
100
AcDbBlockEnd
  0
BLOCK
  5
1B2
330
1A8
100
AcDbEntity
  8
0
100
AcDbBlockBegin
  2
*D10
 70
     1
 10
0.0
 20
0.0
 30
0.0
  3
*D10
  1

  0
LINE
  5
1A9
330
1A8
100
AcDbEntity
  8
0
 62
   123
100
AcDbLine
 10
-10444.68089282905
 20
-1780.100251861705
 30
0.0
 11
-10444.68089282905
 21
-1775.740251861704
 31
0.0
  0
LINE
  5
1AA
330
1A8
100
AcDbEntity
  8
0
 62
   123
100
AcDbLine
 10
-10437.68089282905
 20
-1790.70984785351
 30
0.0
 11
-10437.68089282905
 21
-1775.740251861704
 31
0.0
  0
LINE
  5
1AB
330
1A8
100
AcDbEntity
  8
0
 62
   123
100
AcDbLine
 10
-10442.18089282906
 20
-1776.340251861704
 30
0.0
 11
-10440.18089282906
 21
-1776.340251861704
 31
0.0
  0
SOLID
  5
1AC
330
1A8
100
AcDbEntity
  8
0
 62
   123
100
AcDbTrace
 10
-10442.18089282906
 20
-1775.923585195037
 30
0.0
 11
-10442.18089282906
 21
-1776.75691852837
 31
0.0
 12
-10444.68089282905
 22
-1776.340251861704
 32
0.0
 13
-10444.68089282905
 23
-1776.340251861704
 33
0.0
  0
SOLID
  5
1AD
330
1A8
100
AcDbEntity
  8
0
 62
   123
100
AcDbTrace
 10
-10440.18089282906
 20
-1775.923585195037
 30
0.0
 11
-10440.18089282906
 21
-1776.75691852837
 31
0.0
 12
-10437.68089282905
 22
-1776.340251861704
 32
0.0
 13
-10437.68089282905
 23
-1776.340251861704
 33
0.0
  0
MTEXT
  5
1AE
330
1A8
100
AcDbEntity
  8
0
 62
     3
100
AcDbMText
 10
-10441.18089282906
 20
-1773.840251861702
 30
0.0
 40
3.0
 41
0.0
 71
     5
 72
     1
  1
\A1;7
1001
ACAD
1000
MTEXTBEGIN
1070
    73
1070
     1
1070
    44
1040
1.0
1070
    74
1070
     0
1000
MTEXTEND
1000
MTEXTBEGIN
1070
    73
1070
     1
1070
    44
1040
1.0
1070
    74
1070
     0
1000
MTEXTEND
1000
MTEXTBEGIN
1070
    73
1070
     1
1070
    44
1040
1.0
1070
    74
1070
     0
1000
MTEXTEND
  0
POINT
  5
1AF
330
1A8
100
AcDbEntity
  8
DEFPOINTS
 62
     0
100
AcDbPoint
 10
-10444.68089282905
 20
-1781.100251861706
 30
0.0
  0
POINT
  5
1B0
330
1A8
100
AcDbEntity
  8
DEFPOINTS
 62
     0
100
AcDbPoint
 10
-10437.68089282905
 20
-1791.70984785351
 30
0.0
  0
POINT
  5
1B1
330
1A8
100
AcDbEntity
  8
DEFPOINTS
 62
     0
100
AcDbPoint
 10
-10437.68089282905
 20
-1776.340251861704
 30
0.0
  0
ENDBLK
  5
1B3
330
1A8
100
AcDbEntity
  8
0
100
AcDbBlockEnd
  0
BLOCK
  5
26B
330
25F
100
AcDbEntity
  8
0
100
AcDbBlockBegin
  2
*D11
 70
     1
 10
0.0
 20
0.0
 30
0.0
  3
*D11
  1

  0
LINE
  5
260
330
25F
100
AcDbEntity
  8
0
 62
   123
100
AcDbLine
 10
-10536.67200646185
 20
-1856.308585195038
 30
0.0
 11
-10536.67200646185
 21
-1878.836744984544
 31
0.0
  0
LINE
  5
261
330
25F
100
AcDbEntity
  8
0
 62
   123
100
AcDbLine
 10
-10523.86291615829
 20
-1851.232464727547
 30
0.0
 11
-10514.27424938359
 21
-1874.381554100112
 31
0.0
  0
ARC
  5
262
330
25F
100
AcDbEntity
  8
0
 62
   123
100
AcDbCircle
 10
-10536.67200646185
 20
-1820.308585195028
 30
0.0
 40
57.92815978951589
100
AcDbArc
 50
272.4729003600387
 51
290.027099639961
  0
SOLID
  5
263
330
25F
100
AcDbEntity
  8
0
 62
   123
100
AcDbTrace
 10
-10534.16359754504
 20
-1878.599368504422
 30
0.0
 11
-10534.18157958815
 21
-1877.766229206002
 31
0.0
 12
-10536.67200646185
 22
-1878.236744984544
 32
0.0
 13
-10536.67200646185
 23
-1878.236744984544
 33
0.0
  0
SOLID
  5
264
330
25F
100
AcDbEntity
  8
0
 62
   123
100
AcDbTrace
 10
-10516.98477245194
 20
-1874.34557158717
 30
0.0
 11
-10516.68255708719
 21
-1875.122173362688
 31
0.0
 12
-10514.50385944302
 22
-1873.827226380606
 32
0.0
 13
-10514.50385944302
 23
-1873.827226380606
 33
0.0
  0
MTEXT
  5
265
330
25F
100
AcDbEntity
  8
0
 62
     3
100
AcDbMText
 10
-10525.91424901176
 20
-1874.391484070595
 30
0.0
 40
3.0
 41
0.0
 71
     5
 72
     1
  1
\A1;22°30'
 11
0.9807852804032302
 21
0.1950903220161293
 31
0.0
1001
ACAD
1000
MTEXTBEGIN
1070
    73
1070
     1
1070
    44
1040
1.0
1070
    74
1070
     0
1000
MTEXTEND
1000
MTEXTBEGIN
1070
    73
1070
     1
1070
    44
1040
1.0
1070
    74
1070
     0
1000
MTEXTEND
1000
MTEXTBEGIN
1070
    73
1070
     1
1070
    44
1040
1.0
1070
    74
1070
     0
1000
MTEXTEND
  0
POINT
  5
266
330
25F
100
AcDbEntity
  8
DEFPOINTS
 62
     0
100
AcDbPoint
 10
-10529.11086434223
 20
-1877.741161547185
 30
0.0
  0
POINT
  5
267
330
25F
100
AcDbEntity
  8
DEFPOINTS
 62
     0
100
AcDbPoint
 10
-10536.67200646185
 20
-1855.308585195038
 30
0.0
  0
POINT
  5
268
330
25F
100
AcDbEntity
  8
DEFPOINTS
 62
     0
100
AcDbPoint
 10
-10536.67200646185
 20
-1820.308585195037
 30
0.0
  0
POINT
  5
269
330
25F
100
AcDbEntity
  8
DEFPOINTS
 62
     0
100
AcDbPoint
 10
-10524.24559959064
 20
-1850.308585195033
 30
0.0
  0
POINT
  5
26A
330
25F
100
AcDbEntity
  8
DEFPOINTS
 62
     0
100
AcDbPoint
 10
-10536.67200646185
 20
-1785.308585195038
 30
0.0
  0
ENDBLK
  5
26C
330
25F
100
AcDbEntity
  8
0
100
AcDbBlockEnd
  0
BLOCK
  5
279
330
270
100
AcDbEntity
  8
0
100
AcDbBlockBegin
  2
*D12
 70
     1
 10
0.0
 20
0.0
 30
0.0
  3
*D12
  1

  0
LINE
  5
271
330
270
100
AcDbEntity
  8
0
 62
   123
100
AcDbLine
 10
-10568.1462276759
 20
-1840.695428966679
 30
0.0
 11
-10570.24450909016
 21
-1842.054551884789
 31
0.0
  0
LINE
  5
272
330
270
100
AcDbEntity
  8
0
 62
   123
100
AcDbLine
 10
-10505.19778524783
 20
-1799.921741423387
 30
0.0
 11
-10483.8260922594
 21
-1786.078623173439
 31
0.0
  0
LINE
  5
273
330
270
100
AcDbEntity
  8
0
 62
   123
100
AcDbLine
 10
-10566.04794626162
 20
-1839.33630604857
 30
0.0
 11
-10507.2960666621
 21
-1801.280864341496
 31
0.0
  0
SOLID
  5
274
330
270
100
AcDbEntity
  8
0
 62
   123
100
AcDbTrace
 10
-10568.37274816225
 20
-1840.345715397634
 30
0.0
 11
-10567.91970718954
 21
-1841.045142535724
 31
0.0
 12
-10566.04794626162
 22
-1839.33630604857
 32
0.0
 13
-10566.04794626162
 23
-1839.33630604857
 33
0.0
  0
SOLID
  5
275
330
270
100
AcDbEntity
  8
0
 62
   123
100
AcDbTrace
 10
-10505.42430573417
 20
-1799.572027854341
 30
0.0
 11
-10504.97126476148
 21
-1800.27145499243
 31
0.0
 12
-10507.2960666621
 22
-1801.280864341496
 32
0.0
 13
-10507.2960666621
 23
-1801.280864341496
 33
0.0
  0
MTEXT
  5
276
330
270
100
AcDbEntity
  8
0
 62
     3
100
AcDbMText
 10
-10493.75819352724
 20
-1789.533329681733
 30
0.0
 40
3.0
 41
0.0
 71
     5
 72
     1
  1
\A1;\U+220570%%p0.5
 11
0.8393125657077236
 21
0.5436491672440218
 31
0.0
1001
ACAD
1000
MTEXTBEGIN
1070
    73
1070
     1
1070
    44
1040
1.0
1070
    74
1070
     0
1000
MTEXTEND
1000
MTEXTBEGIN
1070
    73
1070
     1
1070
    44
1040
1.0
1070
    74
1070
     0
1000
MTEXTEND
1000
MTEXTBEGIN
1070
    73
1070
     1
1070
    44
1040
1.0
1070
    74
1070
     0
1000
MTEXTEND
  0
POINT
  5
277
330
270
100
AcDbEntity
  8
DEFPOINTS
 62
     0
100
AcDbPoint
 10
-10507.2960666621
 20
-1801.280864341496
 30
0.0
  0
POINT
  5
278
330
270
100
AcDbEntity
  8
DEFPOINTS
 62
     0
100
AcDbPoint
 10
-10566.04794626162
 20
-1839.33630604857
 30
0.0
  0
ENDBLK
  5
27A
330
270
100
AcDbEntity
  8
0
100
AcDbBlockEnd
  0
BLOCK
  5
21D
330
213
100
AcDbEntity
  8
0
100
AcDbBlockBegin
  2
*D13
 70
     1
 10
0.0
 20
0.0
 30
0.0
  3
*D13
  1

  0
LINE
  5
214
330
213
100
AcDbEntity
  8
0
 62
   123
100
AcDbLine
 10
-10566.67200646187
 20
-1794.308585195037
 30
0.0
 11
-10566.67200646187
 21
-1776.057487400732
 31
0.0
  0
LINE
  5
215
330
213
100
AcDbEntity
  8
0
 62
   123
100
AcDbLine
 10
-10506.67200646187
 20
-1794.308585195037
 30
0.0
 11
-10506.67200646187
 21
-1776.057487400732
 31
0.0
  0
LINE
  5
216
330
213
100
AcDbEntity
  8
0
 62
   123
100
AcDbLine
 10
-10564.17200646185
 20
-1776.657487400732
 30
0.0
 11
-10509.17200646187
 21
-1776.657487400732
 31
0.0
  0
SOLID
  5
217
330
213
100
AcDbEntity
  8
0
 62
   123
100
AcDbTrace
 10
-10564.17200646185
 20
-1776.240820734065
 30
0.0
 11
-10564.17200646185
 21
-1777.074154067398
 31
0.0
 12
-10566.67200646187
 22
-1776.657487400732
 32
0.0
 13
-10566.67200646187
 23
-1776.657487400732
 33
0.0
  0
SOLID
  5
218
330
213
100
AcDbEntity
  8
0
 62
   123
100
AcDbTrace
 10
-10509.17200646187
 20
-1776.240820734065
 30
0.0
 11
-10509.17200646187
 21
-1777.074154067398
 31
0.0
 12
-10506.67200646187
 22
-1776.657487400732
 32
0.0
 13
-10506.67200646187
 23
-1776.657487400732
 33
0.0
  0
MTEXT
  5
219
330
213
100
AcDbEntity
  8
0
 62
     3
100
AcDbMText
 10
-10537.00274522149
 20
-1774.157487400732
 30
0.0
 40
3.0
 41
0.0
 71
     5
 72
     1
  1
\A1;60
1001
ACAD
1000
MTEXTBEGIN
1070
    73
1070
     1
1070
    44
1040
1.0
1070
    74
1070
     0
1000
MTEXTEND
1000
MTEXTBEGIN
1070
    73
1070
     1
1070
    44
1040
1.0
1070
    74
1070
     0
1000
MTEXTEND
1000
MTEXTBEGIN
1070
    73
1070
     1
1070
    44
1040
1.0
1070
    74
1070
     0
1000
MTEXTEND
  0
POINT
  5
21A
330
213
100
AcDbEntity
  8
DEFPOINTS
 62
     0
100
AcDbPoint
 10
-10566.67200646187
 20
-1795.308585195035
 30
0.0
  0
POINT
  5
21B
330
213
100
AcDbEntity
  8
DEFPOINTS
 62
     0
100
AcDbPoint
 10
-10506.67200646187
 20
-1795.308585195035
 30
0.0
  0
POINT
  5
21C
330
213
100
AcDbEntity
  8
DEFPOINTS
 62
     0
100
AcDbPoint
 10
-10506.67200646187
 20
-1776.657487400732
 30
0.0
  0
ENDBLK
  5
21E
330
213
100
AcDbEntity
  8
0
100
AcDbBlockEnd
  0
BLOCK
  5
1A3
330
19A
100
AcDbEntity
  8
0
100
AcDbBlockBegin
  2
*D14
 70
     1
 10
0.0
 20
0.0
 30
0.0
  3
*D14
  1

  0
LINE
  5
19B
330
19A
100
AcDbEntity
  8
0
 62
   123
100
AcDbLine
 10
-10570.37868625735
 20
-2000.369601231497
 30
0.0
 11
-10572.47696767162
 21
-2001.728724149607
 31
0.0
  0
LINE
  5
19C
330
19A
100
AcDbEntity
  8
0
 62
   123
100
AcDbLine
 10
-10507.43024382929
 20
-1959.595913688207
 30
0.0
 11
-10486.05855084083
 21
-1945.752795438269
 31
0.0
  0
LINE
  5
19D
330
19A
100
AcDbEntity
  8
0
 62
   123
100
AcDbLine
 10
-10568.28040484308
 20
-1999.010478313387
 30
0.0
 11
-10509.52852524354
 21
-1960.955036606318
 31
0.0
  0
SOLID
  5
19E
330
19A
100
AcDbEntity
  8
0
 62
   123
100
AcDbTrace
 10
-10570.60520674369
 20
-2000.019887662451
 30
0.0
 11
-10570.152165771
 21
-2000.719314800539
 31
0.0
 12
-10568.28040484308
 22
-1999.010478313387
 32
0.0
 13
-10568.28040484308
 23
-1999.010478313387
 33
0.0
  0
SOLID
  5
19F
330
19A
100
AcDbEntity
  8
0
 62
   123
100
AcDbTrace
 10
-10507.65676431564
 20
-1959.246200119163
 30
0.0
 11
-10507.20372334294
 21
-1959.945627257252
 31
0.0
 12
-10509.52852524354
 22
-1960.955036606318
 32
0.0
 13
-10509.52852524354
 23
-1960.955036606318
 33
0.0
  0
MTEXT
  5
1A0
330
19A
100
AcDbEntity
  8
0
 62
     3
100
AcDbMText
 10
-10495.99065210869
 20
-1949.207501946564
 30
0.0
 40
3.0
 41
0.0
 71
     5
 72
     1
  1
\A1;\U+220570%%p0.5
 11
0.839312565707738
 21
0.5436491672439995
 31
0.0
1001
ACAD
1000
MTEXTBEGIN
1070
    73
1070
     1
1070
    44
1040
1.0
1070
    74
1070
     0
1000
MTEXTEND
1000
MTEXTBEGIN
1070
    73
1070
     1
1070
    44
1040
1.0
1070
    74
1070
     0
1000
MTEXTEND
1000
MTEXTBEGIN
1070
    73
1070
     1
1070
    44
1040
1.0
1070
    74
1070
     0
1000
MTEXTEND
  0
POINT
  5
1A1
330
19A
100
AcDbEntity
  8
DEFPOINTS
 62
     0
100
AcDbPoint
 10
-10509.52852524354
 20
-1960.955036606318
 30
0.0
  0
POINT
  5
1A2
330
19A
100
AcDbEntity
  8
DEFPOINTS
 62
     0
100
AcDbPoint
 10
-10568.28040484308
 20
-1999.010478313387
 30
0.0
  0
ENDBLK
  5
1A4
330
19A
100
AcDbEntity
  8
0
100
AcDbBlockEnd
  0
BLOCK
  5
195
330
189
100
AcDbEntity
  8
0
100
AcDbBlockBegin
  2
*D15
 70
     1
 10
0.0
 20
0.0
 30
0.0
  3
*D15
  1

  0
LINE
  5
18A
330
189
100
AcDbEntity
  8
0
 62
   123
100
AcDbLine
 10
-10538.90446504332
 20
-2015.982757459857
 30
0.0
 11
-10538.90446504332
 21
-2032.501616300199
 31
0.0
  0
LINE
  5
18B
330
189
100
AcDbEntity
  8
0
 62
   123
100
AcDbLine
 10
-10526.09537473976
 20
-2010.906636992368
 30
0.0
 11
-10518.8063678784
 21
-2028.503856213297
 31
0.0
  0
ARC
  5
18C
330
189
100
AcDbEntity
  8
0
 62
   123
100
AcDbCircle
 10
-10538.90446504332
 20
-1979.98275745985
 30
0.0
 40
51.91885884034904
100
AcDbArc
 50
272.7591764118534
 51
289.7408235881488
  0
SOLID
  5
18D
330
189
100
AcDbEntity
  8
0
 62
   123
100
AcDbTrace
 10
-10536.39515803823
 20
-2032.257972113002
 30
0.0
 11
-10536.41522139652
 21
-2031.424880337686
 31
0.0
 12
-10538.90446504332
 22
-2031.901616300199
 32
0.0
 13
-10538.90446504332
 23
-2031.901616300199
 33
0.0
  0
SOLID
  5
18E
330
189
100
AcDbEntity
  8
0
 62
   123
100
AcDbTrace
 10
-10521.518178149
 20
-2028.461674198364
 30
0.0
 11
-10521.21790385502
 21
-2029.239028553095
 31
0.0
 12
-10519.03597793782
 22
-2027.94952849379
 32
0.0
 13
-10519.03597793782
 23
-2027.94952849379
 33
0.0
  0
MTEXT
  5
18F
330
189
100
AcDbEntity
  8
0
 62
     3
100
AcDbMText
 10
-10529.31906405049
 20
-2028.17182241896
 30
0.0
 40
3.0
 41
0.0
 71
     5
 72
     1
  1
\A1;22°30'
 11
0.9807852804032302
 21
0.1950903220161293
 31
0.0
1001
ACAD
1000
MTEXTBEGIN
1070
    73
1070
     1
1070
    44
1040
1.0
1070
    74
1070
     0
1000
MTEXTEND
1000
MTEXTBEGIN
1070
    73
1070
     1
1070
    44
1040
1.0
1070
    74
1070
     0
1000
MTEXTEND
1000
MTEXTBEGIN
1070
    73
1070
     1
1070
    44
1040
1.0
1070
    74
1070
     0
1000
MTEXTEND
  0
POINT
  5
190
330
189
100
AcDbEntity
  8
DEFPOINTS
 62
     0
100
AcDbPoint
 10
-10532.12769409448
 20
-2031.457443265507
 30
0.0
  0
POINT
  5
191
330
189
100
AcDbEntity
  8
DEFPOINTS
 62
     0
100
AcDbPoint
 10
-10538.90446504332
 20
-2014.982757459855
 30
0.0
  0
POINT
  5
192
330
189
100
AcDbEntity
  8
DEFPOINTS
 62
     0
100
AcDbPoint
 10
-10538.90446504332
 20
-1979.982757459856
 30
0.0
  0
POINT
  5
193
330
189
100
AcDbEntity
  8
DEFPOINTS
 62
     0
100
AcDbPoint
 10
-10526.47805817213
 20
-2009.982757459856
 30
0.0
  0
POINT
  5
194
330
189
100
AcDbEntity
  8
DEFPOINTS
 62
     0
100
AcDbPoint
 10
-10538.90446504332
 20
-1944.982757459857
 30
0.0
  0
ENDBLK
  5
196
330
189
100
AcDbEntity
  8
0
100
AcDbBlockEnd
  0
BLOCK
  5
101
330
F7
100
AcDbEntity
  8
0
100
AcDbBlockBegin
  2
*D16
 70
     1
 10
0.0
 20
0.0
 30
0.0
  3
*D16
  1

  0
LINE
  5
F8
330
F7
100
AcDbEntity
  8
0
 62
   123
100
AcDbLine
 10
-10568.90446504332
 20
-1953.982757459856
 30
0.0
 11
-10568.90446504332
 21
-1935.731659665552
 31
0.0
  0
LINE
  5
F9
330
F7
100
AcDbEntity
  8
0
 62
   123
100
AcDbLine
 10
-10508.90446504332
 20
-1953.982757459856
 30
0.0
 11
-10508.90446504332
 21
-1935.731659665552
 31
0.0
  0
LINE
  5
FA
330
F7
100
AcDbEntity
  8
0
 62
   123
100
AcDbLine
 10
-10566.40446504332
 20
-1936.331659665551
 30
0.0
 11
-10511.40446504332
 21
-1936.331659665551
 31
0.0
  0
SOLID
  5
FB
330
F7
100
AcDbEntity
  8
0
 62
   123
100
AcDbTrace
 10
-10566.40446504332
 20
-1935.914992998885
 30
0.0
 11
-10566.40446504332
 21
-1936.748326332218
 31
0.0
 12
-10568.90446504332
 22
-1936.331659665551
 32
0.0
 13
-10568.90446504332
 23
-1936.331659665551
 33
0.0
  0
SOLID
  5
FC
330
F7
100
AcDbEntity
  8
0
 62
   123
100
AcDbTrace
 10
-10511.40446504332
 20
-1935.914992998885
 30
0.0
 11
-10511.40446504332
 21
-1936.748326332218
 31
0.0
 12
-10508.90446504332
 22
-1936.331659665551
 32
0.0
 13
-10508.90446504332
 23
-1936.331659665551
 33
0.0
  0
MTEXT
  5
FD
330
F7
100
AcDbEntity
  8
0
 62
     3
100
AcDbMText
 10
-10539.23520380298
 20
-1933.831659665551
 30
0.0
 40
3.0
 41
0.0
 71
     5
 72
     1
  1
\A1;60
1001
ACAD
1000
MTEXTBEGIN
1070
    73
1070
     1
1070
    44
1040
1.0
1070
    74
1070
     0
1000
MTEXTEND
1000
MTEXTBEGIN
1070
    73
1070
     1
1070
    44
1040
1.0
1070
    74
1070
     0
1000
MTEXTEND
1000
MTEXTBEGIN
1070
    73
1070
     1
1070
    44
1040
1.0
1070
    74
1070
     0
1000
MTEXTEND
  0
POINT
  5
FE
330
F7
100
AcDbEntity
  8
DEFPOINTS
 62
     0
100
AcDbPoint
 10
-10568.90446504332
 20
-1954.982757459855
 30
0.0
  0
POINT
  5
FF
330
F7
100
AcDbEntity
  8
DEFPOINTS
 62
     0
100
AcDbPoint
 10
-10508.90446504332
 20
-1954.982757459855
 30
0.0
  0
POINT
  5
100
330
F7
100
AcDbEntity
  8
DEFPOINTS
 62
     0
100
AcDbPoint
 10
-10508.90446504332
 20
-1936.331659665551
 30
0.0
  0
ENDBLK
  5
102
330
F7
100
AcDbEntity
  8
0
100
AcDbBlockEnd
  0
BLOCK
  5
16B
330
161
100
AcDbEntity
  8
0
100
AcDbBlockBegin
  2
*D17
 70
     1
 10
0.0
 20
0.0
 30
0.0
  3
*D17
  1

  0
LINE
  5
162
330
161
100
AcDbEntity
  8
0
 62
   123
100
AcDbLine
 10
-10440.37770875152
 20
-1952.982757459857
 30
0.0
 11
-10487.52678959262
 21
-1952.982757459857
 31
0.0
  0
LINE
  5
163
330
161
100
AcDbEntity
  8
0
 62
   123
100
AcDbLine
 10
-10440.37770875152
 20
-2006.982757459855
 30
0.0
 11
-10487.52678959262
 21
-2006.982757459855
 31
0.0
  0
LINE
  5
164
330
161
100
AcDbEntity
  8
0
 62
   123
100
AcDbLine
 10
-10486.92678959262
 20
-1955.482757459855
 30
0.0
 11
-10486.92678959262
 21
-2004.482757459856
 31
0.0
  0
SOLID
  5
165
330
161
100
AcDbEntity
  8
0
 62
   123
100
AcDbTrace
 10
-10487.34345625929
 20
-1955.482757459855
 30
0.0
 11
-10486.51012292596
 21
-1955.482757459855
 31
0.0
 12
-10486.92678959262
 22
-1952.982757459857
 32
0.0
 13
-10486.92678959262
 23
-1952.982757459857
 33
0.0
  0
SOLID
  5
166
330
161
100
AcDbEntity
  8
0
 62
   123
100
AcDbTrace
 10
-10487.34345625929
 20
-2004.482757459856
 30
0.0
 11
-10486.51012292596
 21
-2004.482757459856
 31
0.0
 12
-10486.92678959262
 22
-2006.982757459855
 32
0.0
 13
-10486.92678959262
 23
-2006.982757459855
 33
0.0
  0
MTEXT
  5
167
330
161
100
AcDbEntity
  8
0
 62
     3
100
AcDbMText
 10
-10490.87693959263
 20
-1983.80565874887
 30
0.0
 40
3.0
 41
0.0
 71
     5
 72
     1
  1
\A1;\A1;%%C54{\f??|b0|i0|c0|p49;\H0.7x;\S+0^ -0.03;\H1.429x;(h7)} 
 11
0.0000000000000001
 21
1.0
 31
0.0
1001
ACAD
1000
MTEXTBEGIN
1070
    73
1070
     1
1070
    44
1040
1.0
1070
    74
1070
     0
1000
MTEXTEND
1000
MTEXTBEGIN
1070
    73
1070
     1
1070
    44
1040
1.0
1070
    74
1070
     0
1000
MTEXTEND
1000
MTEXTBEGIN
1070
    73
1070
     1
1070
    44
1040
1.0
1070
    74
1070
     0
1000
MTEXTEND
  0
POINT
  5
168
330
161
100
AcDbEntity
  8
DEFPOINTS
 62
     0
100
AcDbPoint
 10
-10439.37770875152
 20
-1952.982757459857
 30
0.0
  0
POINT
  5
169
330
161
100
AcDbEntity
  8
DEFPOINTS
 62
     0
100
AcDbPoint
 10
-10439.37770875152
 20
-2006.982757459855
 30
0.0
  0
POINT
  5
16A
330
161
100
AcDbEntity
  8
DEFPOINTS
 62
     0
100
AcDbPoint
 10
-10486.92678959262
 20
-2006.982757459855
 30
0.0
  0
ENDBLK
  5
16C
330
161
100
AcDbEntity
  8
0
100
AcDbBlockEnd
  0
BLOCK
  5
F0
330
E6
100
AcDbEntity
  8
0
100
AcDbBlockBegin
  2
*D18
 70
     1
 10
0.0
 20
0.0
 30
0.0
  3
*D18
  1

  0
LINE
  5
E7
330
E6
100
AcDbEntity
  8
0
 62
   123
100
AcDbLine
 10
-10437.3777087515
 20
-1939.774424126525
 30
0.0
 11
-10437.3777087515
 21
-1935.414424126523
 31
0.0
  0
LINE
  5
E8
330
E6
100
AcDbEntity
  8
0
 62
   123
100
AcDbLine
 10
-10430.3777087515
 20
-1950.384020118329
 30
0.0
 11
-10430.3777087515
 21
-1935.414424126523
 31
0.0
  0
LINE
  5
E9
330
E6
100
AcDbEntity
  8
0
 62
   123
100
AcDbLine
 10
-10434.8777087515
 20
-1936.014424126523
 30
0.0
 11
-10432.87770875152
 21
-1936.014424126523
 31
0.0
  0
SOLID
  5
EA
330
E6
100
AcDbEntity
  8
0
 62
   123
100
AcDbTrace
 10
-10434.8777087515
 20
-1935.597757459856
 30
0.0
 11
-10434.8777087515
 21
-1936.431090793189
 31
0.0
 12
-10437.3777087515
 22
-1936.014424126523
 32
0.0
 13
-10437.3777087515
 23
-1936.014424126523
 33
0.0
  0
SOLID
  5
EB
330
E6
100
AcDbEntity
  8
0
 62
   123
100
AcDbTrace
 10
-10432.87770875152
 20
-1935.597757459856
 30
0.0
 11
-10432.87770875152
 21
-1936.431090793189
 31
0.0
 12
-10430.3777087515
 22
-1936.014424126523
 32
0.0
 13
-10430.3777087515
 23
-1936.014424126523
 33
0.0
  0
MTEXT
  5
EC
330
E6
100
AcDbEntity
  8
0
 62
     3
100
AcDbMText
 10
-10433.8777087515
 20
-1933.514424126523
 30
0.0
 40
3.0
 41
0.0
 71
     5
 72
     1
  1
\A1;7
1001
ACAD
1000
MTEXTBEGIN
1070
    73
1070
     1
1070
    44
1040
1.0
1070
    74
1070
     0
1000
MTEXTEND
1000
MTEXTBEGIN
1070
    73
1070
     1
1070
    44
1040
1.0
1070
    74
1070
     0
1000
MTEXTEND
1000
MTEXTBEGIN
1070
    73
1070
     1
1070
    44
1040
1.0
1070
    74
1070
     0
1000
MTEXTEND
  0
POINT
  5
ED
330
E6
100
AcDbEntity
  8
DEFPOINTS
 62
     0
100
AcDbPoint
 10
-10437.3777087515
 20
-1940.774424126525
 30
0.0
  0
POINT
  5
EE
330
E6
100
AcDbEntity
  8
DEFPOINTS
 62
     0
100
AcDbPoint
 10
-10430.3777087515
 20
-1951.384020118329
 30
0.0
  0
POINT
  5
EF
330
E6
100
AcDbEntity
  8
DEFPOINTS
 62
     0
100
AcDbPoint
 10
-10430.3777087515
 20
-1936.014424126523
 30
0.0
  0
ENDBLK
  5
F1
330
E6
100
AcDbEntity
  8
0
100
AcDbBlockEnd
  0
BLOCK
  5
E1
330
D5
100
AcDbEntity
  8
0
100
AcDbBlockBegin
  2
*D19
 70
     1
 10
0.0
 20
0.0
 30
0.0
  3
*D19
  1

  0
LINE
  5
D6
330
D5
100
AcDbEntity
  8
0
 62
   123
100
AcDbLine
 10
-10439.37770875152
 20
-1951.982757459856
 30
0.0
 11
-10439.37770875152
 21
-1935.414424126523
 31
0.0
  0
LINE
  5
D7
330
D5
100
AcDbEntity
  8
0
 62
   123
100
AcDbLine
 10
-10437.3777087515
 20
-1948.982757459856
 30
0.0
 11
-10437.3777087515
 21
-1935.414424126523
 31
0.0
  0
LINE
  5
D8
330
D5
100
AcDbEntity
  8
0
 62
   123
100
AcDbLine
 10
-10434.8777087515
 20
-1936.014424126523
 30
0.0
 11
-10432.3777087515
 21
-1936.014424126523
 31
0.0
  0
LINE
  5
D9
330
D5
100
AcDbEntity
  8
0
 62
   123
100
AcDbLine
 10
-10441.8777087515
 20
-1936.014424126523
 30
0.0
 11
-10456.67770875152
 21
-1936.014424126523
 31
0.0
  0
LINE
  5
DA
330
D5
100
AcDbEntity
  8
0
 62
   123
100
AcDbLine
 10
-10437.3777087515
 20
-1936.014424126523
 30
0.0
 11
-10439.37770875152
 21
-1936.014424126523
 31
0.0
  0
SOLID
  5
DB
330
D5
100
AcDbEntity
  8
0
 62
   123
100
AcDbTrace
 10
-10434.8777087515
 20
-1935.597757459856
 30
0.0
 11
-10434.8777087515
 21
-1936.431090793189
 31
0.0
 12
-10437.3777087515
 22
-1936.014424126523
 32
0.0
 13
-10437.3777087515
 23
-1936.014424126523
 33
0.0
  0
SOLID
  5
DC
330
D5
100
AcDbEntity
  8
0
 62
   123
100
AcDbTrace
 10
-10441.8777087515
 20
-1935.597757459856
 30
0.0
 11
-10441.8777087515
 21
-1936.431090793189
 31
0.0
 12
-10439.37770875152
 22
-1936.014424126523
 32
0.0
 13
-10439.37770875152
 23
-1936.014424126523
 33
0.0
  0
MTEXT
  5
DD
330
D5
100
AcDbEntity
  8
0
 62
     3
100
AcDbMText
 10
-10454.67770875152
 20
-1933.514424126523
 30
0.0
 40
3.0
 41
0.0
 71
     5
 72
     1
  1
\A1;2
1001
ACAD
1000
MTEXTBEGIN
1070
    73
1070
     1
1070
    44
1040
1.0
1070
    74
1070
     0
1000
MTEXTEND
1000
MTEXTBEGIN
1070
    73
1070
     1
1070
    44
1040
1.0
1070
    74
1070
     0
1000
MTEXTEND
1000
MTEXTBEGIN
1070
    73
1070
     1
1070
    44
1040
1.0
1070
    74
1070
     0
1000
MTEXTEND
  0
POINT
  5
DE
330
D5
100
AcDbEntity
  8
DEFPOINTS
 62
     0
100
AcDbPoint
 10
-10439.37770875152
 20
-1952.982757459857
 30
0.0
  0
POINT
  5
DF
330
D5
100
AcDbEntity
  8
DEFPOINTS
 62
     0
100
AcDbPoint
 10
-10437.3777087515
 20
-1949.982757459856
 30
0.0
  0
POINT
  5
E0
330
D5
100
AcDbEntity
  8
DEFPOINTS
 62
     0
100
AcDbPoint
 10
-10437.3777087515
 20
-1936.014424126523
 30
0.0
  0
ENDBLK
  5
E2
330
D5
100
AcDbEntity
  8
0
100
AcDbBlockEnd
  0
BLOCK
  5
2BA
330
2B0
100
AcDbEntity
  8
0
100
AcDbBlockBegin
  2
*D20
 70
     1
 10
0.0
 20
0.0
 30
0.0
  3
*D20
  1

  0
LINE
  5
2B1
330
2B0
100
AcDbEntity
  8
0
 62
   123
100
AcDbLine
 10
-10324.8773693466
 20
-1949.980849787623
 30
0.0
 11
-10289.8597435362
 21
-1949.980849787623
 31
0.0
  0
LINE
  5
2B2
330
2B0
100
AcDbEntity
  8
0
 62
   123
100
AcDbLine
 10
-10324.8773693466
 20
-2009.984665132094
 30
0.0
 11
-10289.8597435362
 21
-2009.984665132094
 31
0.0
  0
LINE
  5
2B3
330
2B0
100
AcDbEntity
  8
0
 62
   123
100
AcDbLine
 10
-10290.45974353621
 20
-1952.480849787622
 30
0.0
 11
-10290.45974353621
 21
-2007.484665132094
 31
0.0
  0
SOLID
  5
2B4
330
2B0
100
AcDbEntity
  8
0
 62
   123
100
AcDbTrace
 10
-10290.87641020288
 20
-1952.480849787622
 30
0.0
 11
-10290.04307686955
 21
-1952.480849787622
 31
0.0
 12
-10290.45974353621
 22
-1949.980849787623
 32
0.0
 13
-10290.45974353621
 23
-1949.980849787623
 33
0.0
  0
SOLID
  5
2B5
330
2B0
100
AcDbEntity
  8
0
 62
   123
100
AcDbTrace
 10
-10290.87641020288
 20
-2007.484665132094
 30
0.0
 11
-10290.04307686955
 21
-2007.484665132094
 31
0.0
 12
-10290.45974353621
 22
-2009.984665132094
 32
0.0
 13
-10290.45974353621
 23
-2009.984665132094
 33
0.0
  0
MTEXT
  5
2B6
330
2B0
100
AcDbEntity
  8
0
 62
     3
100
AcDbMText
 10
-10292.9597435362
 20
-1980.039066541941
 30
0.0
 40
3.0
 41
0.0
 71
     5
 72
     1
  1
\A1;%%C60
 11
0.0000000000000001
 21
1.0
 31
0.0
1001
ACAD
1000
MTEXTBEGIN
1070
    73
1070
     1
1070
    44
1040
1.0
1070
    74
1070
     0
1000
MTEXTEND
1000
MTEXTBEGIN
1070
    73
1070
     1
1070
    44
1040
1.0
1070
    74
1070
     0
1000
MTEXTEND
1000
MTEXTBEGIN
1070
    73
1070
     1
1070
    44
1040
1.0
1070
    74
1070
     0
1000
MTEXTEND
  0
POINT
  5
2B7
330
2B0
100
AcDbEntity
  8
DEFPOINTS
 62
     0
100
AcDbPoint
 10
-10325.8773693466
 20
-1949.980849787623
 30
0.0
  0
POINT
  5
2B8
330
2B0
100
AcDbEntity
  8
DEFPOINTS
 62
     0
100
AcDbPoint
 10
-10325.8773693466
 20
-2009.984665132094
 30
0.0
  0
POINT
  5
2B9
330
2B0
100
AcDbEntity
  8
DEFPOINTS
 62
     0
100
AcDbPoint
 10
-10290.45974353621
 20
-2009.984665132094
 30
0.0
  0
ENDBLK
  5
2BB
330
2B0
100
AcDbEntity
  8
0
100
AcDbBlockEnd
  0
BLOCK
  5
2AB
330
2A1
100
AcDbEntity
  8
0
100
AcDbBlockBegin
  2
*D21
 70
     1
 10
0.0
 20
0.0
 30
0.0
  3
*D21
  1

  0
LINE
  5
2A2
330
2A1
100
AcDbEntity
  8
0
 62
   123
100
AcDbLine
 10
-10314.3777087515
 20
-1956.482757459857
 30
0.0
 11
-10299.69621522579
 21
-1956.482757459857
 31
0.0
  0
LINE
  5
2A3
330
2A1
100
AcDbEntity
  8
0
 62
   123
100
AcDbLine
 10
-10314.3777087515
 20
-2003.482757459857
 30
0.0
 11
-10299.69621522579
 21
-2003.482757459857
 31
0.0
  0
LINE
  5
2A4
330
2A1
100
AcDbEntity
  8
0
 62
   123
100
AcDbLine
 10
-10300.29621522581
 20
-1958.982757459857
 30
0.0
 11
-10300.29621522581
 21
-2000.982757459857
 31
0.0
  0
SOLID
  5
2A5
330
2A1
100
AcDbEntity
  8
0
 62
   123
100
AcDbTrace
 10
-10300.71288189247
 20
-1958.982757459857
 30
0.0
 11
-10299.87954855915
 21
-1958.982757459857
 31
0.0
 12
-10300.29621522581
 22
-1956.482757459857
 32
0.0
 13
-10300.29621522581
 23
-1956.482757459857
 33
0.0
  0
SOLID
  5
2A6
330
2A1
100
AcDbEntity
  8
0
 62
   123
100
AcDbTrace
 10
-10300.71288189247
 20
-2000.982757459857
 30
0.0
 11
-10299.87954855915
 21
-2000.982757459857
 31
0.0
 12
-10300.29621522581
 22
-2003.482757459857
 32
0.0
 13
-10300.29621522581
 23
-2003.482757459857
 33
0.0
  0
MTEXT
  5
2A7
330
2A1
100
AcDbEntity
  8
0
 62
     3
100
AcDbMText
 10
-10302.79621522582
 20
-1982.276507459858
 30
0.0
 40
3.0
 41
0.0
 71
     5
 72
     1
  1
\A1;%%C47
 11
0.0000000000000001
 21
1.0
 31
0.0
1001
ACAD
1000
MTEXTBEGIN
1070
    73
1070
     1
1070
    44
1040
1.0
1070
    74
1070
     0
1000
MTEXTEND
1000
MTEXTBEGIN
1070
    73
1070
     1
1070
    44
1040
1.0
1070
    74
1070
     0
1000
MTEXTEND
1000
MTEXTBEGIN
1070
    73
1070
     1
1070
    44
1040
1.0
1070
    74
1070
     0
1000
MTEXTEND
  0
POINT
  5
2A8
330
2A1
100
AcDbEntity
  8
DEFPOINTS
 62
     0
100
AcDbPoint
 10
-10315.3777087515
 20
-1956.482757459857
 30
0.0
  0
POINT
  5
2A9
330
2A1
100
AcDbEntity
  8
DEFPOINTS
 62
     0
100
AcDbPoint
 10
-10315.3777087515
 20
-2003.482757459857
 30
0.0
  0
POINT
  5
2AA
330
2A1
100
AcDbEntity
  8
DEFPOINTS
 62
     0
100
AcDbPoint
 10
-10300.29621522581
 20
-2003.482757459857
 30
0.0
  0
ENDBLK
  5
2AC
330
2A1
100
AcDbEntity
  8
0
100
AcDbBlockEnd
  0
BLOCK
  5
289
330
27F
100
AcDbEntity
  8
0
100
AcDbBlockBegin
  2
*D22
 70
     1
 10
0.0
 20
0.0
 30
0.0
  3
*D22
  1

  0
LINE
  5
280
330
27F
100
AcDbEntity
  8
0
 62
   123
100
AcDbLine
 10
-10324.3777087515
 20
-1950.512757459858
 30
0.0
 11
-10324.3777087515
 21
-1919.882757459857
 31
0.0
  0
LINE
  5
281
330
27F
100
AcDbEntity
  8
0
 62
   123
100
AcDbLine
 10
-10314.3777087515
 20
-1956.482757459857
 30
0.0
 11
-10314.3777087515
 21
-1919.882757459857
 31
0.0
  0
LINE
  5
282
330
27F
100
AcDbEntity
  8
0
 62
   123
100
AcDbLine
 10
-10321.8777087515
 20
-1920.482757459856
 30
0.0
 11
-10316.8777087515
 21
-1920.482757459856
 31
0.0
  0
SOLID
  5
283
330
27F
100
AcDbEntity
  8
0
 62
   123
100
AcDbTrace
 10
-10321.8777087515
 20
-1920.066090793191
 30
0.0
 11
-10321.8777087515
 21
-1920.899424126524
 31
0.0
 12
-10324.3777087515
 22
-1920.482757459856
 32
0.0
 13
-10324.3777087515
 23
-1920.482757459856
 33
0.0
  0
SOLID
  5
284
330
27F
100
AcDbEntity
  8
0
 62
   123
100
AcDbTrace
 10
-10316.8777087515
 20
-1920.066090793191
 30
0.0
 11
-10316.8777087515
 21
-1920.899424126524
 31
0.0
 12
-10314.3777087515
 22
-1920.482757459856
 32
0.0
 13
-10314.3777087515
 23
-1920.482757459856
 33
0.0
  0
MTEXT
  5
285
330
27F
100
AcDbEntity
  8
0
 62
     3
100
AcDbMText
 10
-10319.37770875152
 20
-1917.982757459856
 30
0.0
 40
3.0
 41
0.0
 71
     5
 72
     1
  1
\A1;10
1001
ACAD
1000
MTEXTBEGIN
1070
    73
1070
     1
1070
    44
1040
1.0
1070
    74
1070
     0
1000
MTEXTEND
1000
MTEXTBEGIN
1070
    73
1070
     1
1070
    44
1040
1.0
1070
    74
1070
     0
1000
MTEXTEND
1000
MTEXTBEGIN
1070
    73
1070
     1
1070
    44
1040
1.0
1070
    74
1070
     0
1000
MTEXTEND
  0
POINT
  5
286
330
27F
100
AcDbEntity
  8
DEFPOINTS
 62
     0
100
AcDbPoint
 10
-10324.3777087515
 20
-1951.512757459855
 30
0.0
  0
POINT
  5
287
330
27F
100
AcDbEntity
  8
DEFPOINTS
 62
     0
100
AcDbPoint
 10
-10314.3777087515
 20
-1957.482757459857
 30
0.0
  0
POINT
  5
288
330
27F
100
AcDbEntity
  8
DEFPOINTS
 62
     0
100
AcDbPoint
 10
-10314.3777087515
 20
-1920.482757459856
 30
0.0
  0
ENDBLK
  5
28A
330
27F
100
AcDbEntity
  8
0
100
AcDbBlockEnd
  0
BLOCK
  5
318
330
30E
100
AcDbEntity
  8
0
100
AcDbBlockBegin
  2
*D23
 70
     1
 10
0.0
 20
0.0
 30
0.0
  3
*D23
  1

  0
LINE
  5
30F
330
30E
100
AcDbEntity
  8
0
 62
   123
100
AcDbLine
 10
46.26931966874326
 20
131.0730416728401
 30
0.0
 11
46.26931966874326
 21
130.6730416728401
 31
0.0
  0
LINE
  5
310
330
30E
100
AcDbEntity
  8
0
 62
   123
100
AcDbLine
 10
159.269319668743
 20
100.0430416728393
 30
0.0
 11
159.269319668743
 21
130.6730416728401
 31
0.0
  0
LINE
  5
311
330
30E
100
AcDbEntity
  8
0
 62
   123
100
AcDbLine
 10
48.76931966874328
 20
130.0730416728401
 30
0.0
 11
156.7693196687431
 21
130.0730416728401
 31
0.0
  0
SOLID
  5
312
330
30E
100
AcDbEntity
  8
0
 62
   123
100
AcDbTrace
 10
48.76931966874328
 20
130.4897083395067
 30
0.0
 11
48.76931966874328
 21
129.6563750061735
 31
0.0
 12
46.26931966874326
 22
130.0730416728401
 32
0.0
 13
46.26931966874326
 23
130.0730416728401
 33
0.0
  0
SOLID
  5
313
330
30E
100
AcDbEntity
  8
0
 62
   123
100
AcDbTrace
 10
156.7693196687431
 20
130.4897083395067
 30
0.0
 11
156.7693196687431
 21
129.6563750061735
 31
0.0
 12
159.269319668743
 22
130.0730416728401
 32
0.0
 13
159.269319668743
 23
130.0730416728401
 33
0.0
  0
MTEXT
  5
314
330
30E
100
AcDbEntity
  8
0
 62
     3
100
AcDbMText
 10
107.7693196687432
 20
132.5730416728399
 30
0.0
 40
3.0
 41
0.0
 71
     5
 72
     1
  1
\A1;113
1001
ACAD
1000
MTEXTBEGIN
1070
    73
1070
     1
1070
    44
1040
1.0
1070
    74
1070
     0
1000
MTEXTEND
1000
MTEXTBEGIN
1070
    73
1070
     1
1070
    44
1040
1.0
1070
    74
1070
     0
1000
MTEXTEND
1000
MTEXTBEGIN
1070
    73
1070
     1
1070
    44
1040
1.0
1070
    74
1070
     0
1000
MTEXTEND
  0
POINT
  5
315
330
30E
100
AcDbEntity
  8
DEFPOINTS
 62
     0
100
AcDbPoint
 10
46.26931966874326
 20
130.0730416728401
 30
0.0
  0
POINT
  5
316
330
30E
100
AcDbEntity
  8
DEFPOINTS
 62
     0
100
AcDbPoint
 10
159.269319668743
 20
99.04304167283932
 30
0.0
  0
POINT
  5
317
330
30E
100
AcDbEntity
  8
DEFPOINTS
 62
     0
100
AcDbPoint
 10
159.269319668743
 20
130.0730416728401
 30
0.0
  0
ENDBLK
  5
319
330
30E
100
AcDbEntity
  8
0
100
AcDbBlockEnd
  0
BLOCK
  5
324
330
31A
100
AcDbEntity
  8
0
100
AcDbBlockBegin
  2
*D24
 70
     1
 10
0.0
 20
0.0
 30
0.0
  3
*D24
  1

  0
LINE
  5
31B
330
31A
100
AcDbEntity
  8
0
 62
   123
100
AcDbLine
 10
53.57250374628346
 20
-28.60113059197852
 30
0.0
 11
53.57250374628346
 21
-29.00113059197851
 31
0.0
  0
LINE
  5
31C
330
31A
100
AcDbEntity
  8
0
 62
   123
100
AcDbLine
 10
166.5725037462833
 20
-59.63113059197961
 30
0.0
 11
166.5725037462833
 21
-29.00113059197851
 31
0.0
  0
LINE
  5
31D
330
31A
100
AcDbEntity
  8
0
 62
   123
100
AcDbLine
 10
56.07250374628346
 20
-29.60113059197851
 30
0.0
 11
164.0725037462833
 21
-29.60113059197851
 31
0.0
  0
SOLID
  5
31E
330
31A
100
AcDbEntity
  8
0
 62
   123
100
AcDbTrace
 10
56.07250374628346
 20
-29.18446392531185
 30
0.0
 11
56.07250374628346
 21
-30.01779725864518
 31
0.0
 12
53.57250374628346
 22
-29.60113059197851
 32
0.0
 13
53.57250374628346
 23
-29.60113059197851
 33
0.0
  0
SOLID
  5
31F
330
31A
100
AcDbEntity
  8
0
 62
   123
100
AcDbTrace
 10
164.0725037462833
 20
-29.18446392531185
 30
0.0
 11
164.0725037462833
 21
-30.01779725864518
 31
0.0
 12
166.5725037462833
 22
-29.60113059197851
 32
0.0
 13
166.5725037462833
 23
-29.60113059197851
 33
0.0
  0
MTEXT
  5
320
330
31A
100
AcDbEntity
  8
0
 62
     3
100
AcDbMText
 10
115.0725037462833
 20
-27.10113059197851
 30
0.0
 40
3.0
 41
0.0
 71
     5
 72
     1
  1
\A1;113
1001
ACAD
1000
MTEXTBEGIN
1070
    73
1070
     1
1070
    44
1040
1.0
1070
    74
1070
     0
1000
MTEXTEND
1000
MTEXTBEGIN
1070
    73
1070
     1
1070
    44
1040
1.0
1070
    74
1070
     0
1000
MTEXTEND
1000
MTEXTBEGIN
1070
    73
1070
     1
1070
    44
1040
1.0
1070
    74
1070
     0
1000
MTEXTEND
  0
POINT
  5
321
330
31A
100
AcDbEntity
  8
DEFPOINTS
 62
     0
100
AcDbPoint
 10
53.57250374628346
 20
-29.60113059197851
 30
0.0
  0
POINT
  5
322
330
31A
100
AcDbEntity
  8
DEFPOINTS
 62
     0
100
AcDbPoint
 10
166.5725037462833
 20
-60.63113059197963
 30
0.0
  0
POINT
  5
323
330
31A
100
AcDbEntity
  8
DEFPOINTS
 62
     0
100
AcDbPoint
 10
166.5725037462833
 20
-29.60113059197851
 30
0.0
  0
ENDBLK
  5
325
330
31A
100
AcDbEntity
  8
0
100
AcDbBlockEnd
  0
BLOCK
  5
330
330
326
100
AcDbEntity
  8
0
100
AcDbBlockBegin
  2
*D25
 70
     1
 10
0.0
 20
0.0
 30
0.0
  3
*D25
  1

  0
LINE
  5
327
330
326
100
AcDbEntity
  8
0
 62
   123
100
AcDbLine
 10
29.57250374628347
 20
-86.10101780680862
 30
0.0
 11
29.57250374628348
 21
-29.00113059197851
 31
0.0
  0
LINE
  5
328
330
326
100
AcDbEntity
  8
0
 62
   123
100
AcDbLine
 10
53.57250374628346
 20
-58.10113059197853
 30
0.0
 11
53.57250374628346
 21
-29.00113059197851
 31
0.0
  0
LINE
  5
329
330
326
100
AcDbEntity
  8
0
 62
   123
100
AcDbLine
 10
32.07250374628346
 20
-29.60113059197851
 30
0.0
 11
51.07250374628346
 21
-29.60113059197851
 31
0.0
  0
SOLID
  5
32A
330
326
100
AcDbEntity
  8
0
 62
   123
100
AcDbTrace
 10
32.07250374628346
 20
-29.18446392531185
 30
0.0
 11
32.07250374628346
 21
-30.01779725864518
 31
0.0
 12
29.57250374628348
 22
-29.60113059197851
 32
0.0
 13
29.57250374628348
 23
-29.60113059197851
 33
0.0
  0
SOLID
  5
32B
330
326
100
AcDbEntity
  8
0
 62
   123
100
AcDbTrace
 10
51.07250374628346
 20
-29.18446392531185
 30
0.0
 11
51.07250374628346
 21
-30.01779725864518
 31
0.0
 12
53.57250374628346
 22
-29.60113059197851
 32
0.0
 13
53.57250374628346
 23
-29.60113059197851
 33
0.0
  0
MTEXT
  5
32C
330
326
100
AcDbEntity
  8
0
 62
     3
100
AcDbMText
 10
41.57250374628346
 20
-27.10113059197851
 30
0.0
 40
3.0
 41
0.0
 71
     5
 72
     1
  1
\A1;24
1001
ACAD
1000
MTEXTBEGIN
1070
    73
1070
     1
1070
    44
1040
1.0
1070
    74
1070
     0
1000
MTEXTEND
1000
MTEXTBEGIN
1070
    73
1070
     1
1070
    44
1040
1.0
1070
    74
1070
     0
1000
MTEXTEND
1000
MTEXTBEGIN
1070
    73
1070
     1
1070
    44
1040
1.0
1070
    74
1070
     0
1000
MTEXTEND
  0
POINT
  5
32D
330
326
100
AcDbEntity
  8
DEFPOINTS
 62
     0
100
AcDbPoint
 10
29.57250374628347
 20
-87.10101780680863
 30
0.0
  0
POINT
  5
32E
330
326
100
AcDbEntity
  8
DEFPOINTS
 62
     0
100
AcDbPoint
 10
53.57250374628346
 20
-59.10113059197851
 30
0.0
  0
POINT
  5
32F
330
326
100
AcDbEntity
  8
DEFPOINTS
 62
     0
100
AcDbPoint
 10
53.57250374628346
 20
-29.60113059197851
 30
0.0
  0
ENDBLK
  5
331
330
326
100
AcDbEntity
  8
0
100
AcDbBlockEnd
  0
BLOCK
  5
33B
330
332
100
AcDbEntity
  8
0
100
AcDbBlockBegin
  2
*D26
 70
     1
 10
0.0
 20
0.0
 30
0.0
  3
*D26
  1

  0
LINE
  5
432
330
332
100
AcDbEntity
  8
0
 62
   123
100
AcDbLine
 10
-79.42847375954385
 20
-109.4879743636198
 30
0.0
 11
-81.52675517381313
 21
-110.84709728173
 31
0.0
  0
LINE
  5
433
330
332
100
AcDbEntity
  8
0
 62
   123
100
AcDbLine
 10
-16.48003133147872
 20
-68.71428682032642
 30
0.0
 11
4.891661656941565
 21
-54.87116857038961
 31
0.0
  0
LINE
  5
434
330
332
100
AcDbEntity
  8
0
 62
   123
100
AcDbLine
 10
-77.33019234527453
 20
-108.1288514455096
 30
0.0
 11
-18.578312745748
 21
-70.07340973843652
 31
0.0
  0
SOLID
  5
435
330
332
100
AcDbEntity
  8
0
 62
   123
100
AcDbTrace
 10
-79.65499424589552
 20
-109.138260794575
 30
0.0
 11
-79.20195327319217
 21
-109.8376879326646
 31
0.0
 12
-77.33019234527453
 22
-108.1288514455096
 32
0.0
 13
-77.33019234527453
 23
-108.1288514455096
 33
0.0
  0
SOLID
  5
436
330
332
100
AcDbEntity
  8
0
 62
   123
100
AcDbTrace
 10
-16.70655181783038
 20
-68.36457325128154
 30
0.0
 11
-16.25351084512702
 21
-69.06400038937132
 31
0.0
 12
-18.578312745748
 22
-70.07340973843652
 32
0.0
 13
-18.578312745748
 23
-70.07340973843652
 33
0.0
  0
MTEXT
  5
437
330
332
100
AcDbEntity
  8
0
 62
     3
100
AcDbMText
 10
-5.040439610897339
 20
-58.32587507868436
 30
0.0
 40
3.0
 41
0.0
 71
     5
 72
     1
  1
\A1;\U+220570%%p0.5
 11
0.839312565707717
 21
0.5436491672440315
 31
0.0
1001
ACAD
1000
MTEXTBEGIN
1070
    73
1070
     1
1070
    44
1040
1.0
1070
    74
1070
     0
1000
MTEXTEND
1000
MTEXTBEGIN
1070
    73
1070
     1
1070
    44
1040
1.0
1070
    74
1070
     0
1000
MTEXTEND
1000
MTEXTBEGIN
1070
    73
1070
     1
1070
    44
1040
1.0
1070
    74
1070
     0
1000
MTEXTEND
  0
POINT
  5
438
330
332
100
AcDbEntity
  8
DEFPOINTS
 62
     0
100
AcDbPoint
 10
-18.578312745748
 20
-70.07340973843652
 30
0.0
  0
POINT
  5
439
330
332
100
AcDbEntity
  8
DEFPOINTS
 62
     0
100
AcDbPoint
 10
-77.33019234527453
 20
-108.1288514455096
 30
0.0
  0
ENDBLK
  5
33C
330
332
100
AcDbEntity
  8
0
100
AcDbBlockEnd
  0
BLOCK
  5
349
330
33D
100
AcDbEntity
  8
0
100
AcDbBlockBegin
  2
*D27
 70
     1
 10
0.0
 20
0.0
 30
0.0
  3
*D27
  1

  0
LINE
  5
4F6
330
33D
100
AcDbEntity
  8
0
 62
   123
100
AcDbLine
 10
-47.9542525455181
 20
-125.1011305919796
 30
0.0
 11
-47.9542525455181
 21
-141.619989432321
 31
0.0
  0
LINE
  5
4F7
330
33D
100
AcDbEntity
  8
0
 62
   123
100
AcDbLine
 10
-35.14516224196212
 20
-120.0250101244888
 30
0.0
 11
-27.85615538060048
 21
-137.6222293454215
 31
0.0
  0
ARC
  5
4F8
330
33D
100
AcDbEntity
  8
0
 62
   123
100
AcDbCircle
 10
-47.95425254551809
 20
-89.1011305919776
 30
0.0
 40
51.91885884034349
100
AcDbArc
 50
272.7591764118523
 51
289.7408235881444
  0
SOLID
  5
4F9
330
33D
100
AcDbEntity
  8
0
 62
   123
100
AcDbTrace
 10
-45.44494554042827
 20
-141.3763452451236
 30
0.0
 11
-45.46500889871336
 21
-140.5432534698079
 31
0.0
 12
-47.9542525455181
 22
-141.019989432321
 32
0.0
 13
-47.9542525455181
 23
-141.019989432321
 33
0.0
  0
SOLID
  5
4FA
330
33D
100
AcDbEntity
  8
0
 62
   123
100
AcDbTrace
 10
-30.56796565120257
 20
-137.5800473304888
 30
0.0
 11
-30.2676913572227
 21
-138.3574016852199
 31
0.0
 12
-28.08576544001949
 22
-137.0679016259147
 32
0.0
 13
-28.08576544001949
 23
-137.0679016259147
 33
0.0
  0
MTEXT
  5
4FB
330
33D
100
AcDbEntity
  8
0
 62
     3
100
AcDbMText
 10
-38.36885155269183
 20
-137.2901955510823
 30
0.0
 40
3.0
 41
0.0
 71
     5
 72
     1
  1
\A1;22°30'
 11
0.9807852804032357
 21
0.1950903220161015
 31
0.0
  0
POINT
  5
4FC
330
33D
100
AcDbEntity
  8
DEFPOINTS
 62
     0
100
AcDbPoint
 10
-41.17748159667862
 20
-140.5758163976285
 30
0.0
  0
POINT
  5
4FD
330
33D
100
AcDbEntity
  8
DEFPOINTS
 62
     0
100
AcDbPoint
 10
-47.9542525455181
 20
-124.1011305919796
 30
0.0
  0
POINT
  5
4FE
330
33D
100
AcDbEntity
  8
DEFPOINTS
 62
     0
100
AcDbPoint
 10
-47.9542525455181
 20
-89.10113059197758
 30
0.0
  0
POINT
  5
4FF
330
33D
100
AcDbEntity
  8
DEFPOINTS
 62
     0
100
AcDbPoint
 10
-35.52784567432716
 20
-119.1011305919776
 30
0.0
  0
POINT
  5
500
330
33D
100
AcDbEntity
  8
DEFPOINTS
 62
     0
100
AcDbPoint
 10
-47.95425254551809
 20
-54.10113059197851
 30
0.0
  0
ENDBLK
  5
34A
330
33D
100
AcDbEntity
  8
0
100
AcDbBlockEnd
  0
BLOCK
  5
357
330
34B
100
AcDbEntity
  8
0
100
AcDbBlockBegin
  2
*D28
 70
     1
 10
0.0
 20
0.0
 30
0.0
  3
*D28
  1

  0
LINE
  5
34C
330
34B
100
AcDbEntity
  8
0
 62
   123
100
AcDbLine
 10
29.07250374629438
 20
-86.10124097743662
 30
0.0
 11
15.02487287372276
 21
-86.10124097743662
 31
0.0
  0
LINE
  5
34D
330
34B
100
AcDbEntity
  8
0
 62
   123
100
AcDbLine
 10
29.07250374629438
 20
-92.10102020652357
 30
0.0
 11
15.02487287372276
 21
-92.10102020652357
 31
0.0
  0
LINE
  5
34E
330
34B
100
AcDbEntity
  8
0
 62
   123
100
AcDbLine
 10
15.62487287372276
 20
-83.60124097743662
 30
0.0
 11
15.62487287372276
 21
-81.10124097743662
 31
0.0
  0
LINE
  5
34F
330
34B
100
AcDbEntity
  8
0
 62
   123
100
AcDbLine
 10
15.62487287372276
 20
-94.60102020652357
 30
0.0
 11
15.62487287372276
 21
-97.10102020652357
 31
0.0
  0
LINE
  5
350
330
34B
100
AcDbEntity
  8
0
 62
   123
100
AcDbLine
 10
15.62487287372276
 20
-86.10124097743662
 30
0.0
 11
15.62487287372276
 21
-92.10102020652357
 31
0.0
  0
SOLID
  5
351
330
34B
100
AcDbEntity
  8
0
 62
   123
100
AcDbTrace
 10
15.2082062070561
 20
-83.60124097743662
 30
0.0
 11
16.04153954038943
 21
-83.60124097743662
 31
0.0
 12
15.62487287372276
 22
-86.10124097743662
 32
0.0
 13
15.62487287372276
 23
-86.10124097743662
 33
0.0
  0
SOLID
  5
352
330
34B
100
AcDbEntity
  8
0
 62
   123
100
AcDbTrace
 10
15.20820620705609
 20
-94.60102020652357
 30
0.0
 11
16.04153954038943
 21
-94.60102020652357
 31
0.0
 12
15.62487287372276
 22
-92.10102020652357
 32
0.0
 13
15.62487287372276
 23
-92.10102020652357
 33
0.0
  0
MTEXT
  5
353
330
34B
100
AcDbEntity
  8
0
 62
     3
100
AcDbMText
 10
11.67472287372278
 20
-89.10113059198009
 30
0.0
 40
3.0
 41
0.0
 71
     5
 72
     1
  1
\A1;\A1;%%c6{\H0.7x;\S+0^ -0.012;\f??|b0|i0|c0|p49;\H1.429x;(h7)}  
 11
0.0000000000000001
 21
1.0
 31
0.0
1001
ACAD
1000
MTEXTBEGIN
1070
    73
1070
     1
1070
    44
1040
1.0
1070
    74
1070
     0
1000
MTEXTEND
1000
MTEXTBEGIN
1070
    73
1070
     1
1070
    44
1040
1.0
1070
    74
1070
     0
1000
MTEXTEND
1000
MTEXTBEGIN
1070
    73
1070
     1
1070
    44
1040
1.0
1070
    74
1070
     0
1000
MTEXTEND
  0
POINT
  5
354
330
34B
100
AcDbEntity
  8
DEFPOINTS
 62
     0
100
AcDbPoint
 10
30.07250374629439
 20
-86.10124097743662
 30
0.0
  0
POINT
  5
355
330
34B
100
AcDbEntity
  8
DEFPOINTS
 62
     0
100
AcDbPoint
 10
30.07250374629439
 20
-92.10102020652357
 30
0.0
  0
POINT
  5
356
330
34B
100
AcDbEntity
  8
DEFPOINTS
 62
     0
100
AcDbPoint
 10
15.62487287372276
 20
-92.10102020652357
 30
0.0
  0
ENDBLK
  5
358
330
34B
100
AcDbEntity
  8
0
100
AcDbBlockEnd
  0
BLOCK
  5
363
330
359
100
AcDbEntity
  8
0
100
AcDbBlockBegin
  2
*D29
 70
     1
 10
0.0
 20
0.0
 30
0.0
  3
*D29
  1

  0
LINE
  5
35A
330
359
100
AcDbEntity
  8
0
 62
   123
100
AcDbLine
 10
50.57250374628346
 20
-62.10113059197851
 30
0.0
 11
3.423422905182077
 21
-62.1011305919785
 31
0.0
  0
LINE
  5
35B
330
359
100
AcDbEntity
  8
0
 62
   123
100
AcDbLine
 10
50.57250374628346
 20
-116.1011305919783
 30
0.0
 11
3.423422905182067
 21
-116.1011305919783
 31
0.0
  0
LINE
  5
35C
330
359
100
AcDbEntity
  8
0
 62
   123
100
AcDbLine
 10
4.023422905182076
 20
-64.6011305919785
 30
0.0
 11
4.023422905182068
 21
-113.6011305919784
 31
0.0
  0
SOLID
  5
35D
330
359
100
AcDbEntity
  8
0
 62
   123
100
AcDbTrace
 10
3.606756238515412
 20
-64.6011305919785
 30
0.0
 11
4.440089571848745
 21
-64.6011305919785
 31
0.0
 12
4.023422905182076
 22
-62.1011305919785
 32
0.0
 13
4.023422905182076
 23
-62.1011305919785
 33
0.0
  0
SOLID
  5
35E
330
359
100
AcDbEntity
  8
0
 62
   123
100
AcDbTrace
 10
3.606756238515401
 20
-113.6011305919784
 30
0.0
 11
4.440089571848733
 21
-113.6011305919784
 31
0.0
 12
4.023422905182067
 22
-116.1011305919783
 32
0.0
 13
4.023422905182067
 23
-116.1011305919783
 33
0.0
  0
MTEXT
  5
35F
330
359
100
AcDbEntity
  8
0
 62
     3
100
AcDbMText
 10
0.0732729051820878
 20
-92.92403188099159
 30
0.0
 40
3.0
 41
0.0
 71
     5
 72
     1
  1
\A1;\A1;%%C54{\f??|b0|i0|c0|p49;\H0.7x;\S+0^ -0.03;\H1.429x;(h7)} 
 11
0.0000000000000001
 21
1.0
 31
0.0
1001
ACAD
1000
MTEXTBEGIN
1070
    73
1070
     1
1070
    44
1040
1.0
1070
    74
1070
     0
1000
MTEXTEND
1000
MTEXTBEGIN
1070
    73
1070
     1
1070
    44
1040
1.0
1070
    74
1070
     0
1000
MTEXTEND
1000
MTEXTBEGIN
1070
    73
1070
     1
1070
    44
1040
1.0
1070
    74
1070
     0
1000
MTEXTEND
  0
POINT
  5
360
330
359
100
AcDbEntity
  8
DEFPOINTS
 62
     0
100
AcDbPoint
 10
51.57250374628347
 20
-62.10113059197851
 30
0.0
  0
POINT
  5
361
330
359
100
AcDbEntity
  8
DEFPOINTS
 62
     0
100
AcDbPoint
 10
51.57250374628347
 20
-116.1011305919783
 30
0.0
  0
POINT
  5
362
330
359
100
AcDbEntity
  8
DEFPOINTS
 62
     0
100
AcDbPoint
 10
4.023422905182067
 20
-116.1011305919783
 30
0.0
  0
ENDBLK
  5
364
330
359
100
AcDbEntity
  8
0
100
AcDbBlockEnd
  0
BLOCK
  5
36F
330
365
100
AcDbEntity
  8
0
100
AcDbBlockBegin
  2
*D30
 70
     1
 10
0.0
 20
0.0
 30
0.0
  3
*D30
  1

  0
LINE
  5
366
330
365
100
AcDbEntity
  8
0
 62
   123
100
AcDbLine
 10
-77.95425254551807
 20
-63.1011305919776
 30
0.0
 11
-77.95425254551807
 21
-44.85003279767274
 31
0.0
  0
LINE
  5
367
330
365
100
AcDbEntity
  8
0
 62
   123
100
AcDbLine
 10
-17.9542525455181
 20
-63.1011305919776
 30
0.0
 11
-17.9542525455181
 21
-44.85003279767274
 31
0.0
  0
LINE
  5
368
330
365
100
AcDbEntity
  8
0
 62
   123
100
AcDbLine
 10
-75.45425254551807
 20
-45.45003279767274
 30
0.0
 11
-20.4542525455181
 21
-45.45003279767274
 31
0.0
  0
SOLID
  5
369
330
365
100
AcDbEntity
  8
0
 62
   123
100
AcDbTrace
 10
-75.45425254551807
 20
-45.03336613100606
 30
0.0
 11
-75.45425254551807
 21
-45.86669946433941
 31
0.0
 12
-77.95425254551807
 22
-45.45003279767274
 32
0.0
 13
-77.95425254551807
 23
-45.45003279767274
 33
0.0
  0
SOLID
  5
36A
330
365
100
AcDbEntity
  8
0
 62
   123
100
AcDbTrace
 10
-20.4542525455181
 20
-45.03336613100606
 30
0.0
 11
-20.4542525455181
 21
-45.86669946433941
 31
0.0
 12
-17.9542525455181
 22
-45.45003279767274
 32
0.0
 13
-17.9542525455181
 23
-45.45003279767274
 33
0.0
  0
MTEXT
  5
36B
330
365
100
AcDbEntity
  8
0
 62
     3
100
AcDbMText
 10
-48.28499130517776
 20
-42.95003279767274
 30
0.0
 40
3.0
 41
0.0
 71
     5
 72
     1
  1
\A1;60
1001
ACAD
1000
MTEXTBEGIN
1070
    73
1070
     1
1070
    44
1040
1.0
1070
    74
1070
     0
1000
MTEXTEND
1000
MTEXTBEGIN
1070
    73
1070
     1
1070
    44
1040
1.0
1070
    74
1070
     0
1000
MTEXTEND
1000
MTEXTBEGIN
1070
    73
1070
     1
1070
    44
1040
1.0
1070
    74
1070
     0
1000
MTEXTEND
  0
POINT
  5
36C
330
365
100
AcDbEntity
  8
DEFPOINTS
 62
     0
100
AcDbPoint
 10
-77.95425254551807
 20
-64.10113059197761
 30
0.0
  0
POINT
  5
36D
330
365
100
AcDbEntity
  8
DEFPOINTS
 62
     0
100
AcDbPoint
 10
-17.9542525455181
 20
-64.10113059197761
 30
0.0
  0
POINT
  5
36E
330
365
100
AcDbEntity
  8
DEFPOINTS
 62
     0
100
AcDbPoint
 10
-17.9542525455181
 20
-45.45003279767274
 30
0.0
  0
ENDBLK
  5
370
330
365
100
AcDbEntity
  8
0
100
AcDbBlockEnd
  0
BLOCK
  5
37B
330
371
100
AcDbEntity
  8
0
100
AcDbBlockBegin
  2
*D31
 70
     1
 10
0.0
 20
0.0
 30
0.0
  3
*D31
  1

  0
LINE
  5
372
330
371
100
AcDbEntity
  8
0
 62
   123
100
AcDbLine
 10
53.57250374628346
 20
-48.89279725864662
 30
0.0
 11
53.57250374628346
 21
-44.53279725864481
 31
0.0
  0
LINE
  5
373
330
371
100
AcDbEntity
  8
0
 62
   123
100
AcDbLine
 10
60.57250374628346
 20
-59.5023932504505
 30
0.0
 11
60.57250374628346
 21
-44.53279725864481
 31
0.0
  0
LINE
  5
374
330
371
100
AcDbEntity
  8
0
 62
   123
100
AcDbLine
 10
56.07250374628346
 20
-45.13279725864481
 30
0.0
 11
58.07250374628346
 21
-45.13279725864481
 31
0.0
  0
SOLID
  5
375
330
371
100
AcDbEntity
  8
0
 62
   123
100
AcDbTrace
 10
56.07250374628346
 20
-44.71613059197815
 30
0.0
 11
56.07250374628346
 21
-45.54946392531148
 31
0.0
 12
53.57250374628346
 22
-45.13279725864481
 32
0.0
 13
53.57250374628346
 23
-45.13279725864481
 33
0.0
  0
SOLID
  5
376
330
371
100
AcDbEntity
  8
0
 62
   123
100
AcDbTrace
 10
58.07250374628346
 20
-44.71613059197815
 30
0.0
 11
58.07250374628346
 21
-45.54946392531148
 31
0.0
 12
60.57250374628346
 22
-45.13279725864481
 32
0.0
 13
60.57250374628346
 23
-45.13279725864481
 33
0.0
  0
MTEXT
  5
377
330
371
100
AcDbEntity
  8
0
 62
     3
100
AcDbMText
 10
57.07250374628348
 20
-42.63279725864481
 30
0.0
 40
3.0
 41
0.0
 71
     5
 72
     1
  1
\A1;7
1001
ACAD
1000
MTEXTBEGIN
1070
    73
1070
     1
1070
    44
1040
1.0
1070
    74
1070
     0
1000
MTEXTEND
1000
MTEXTBEGIN
1070
    73
1070
     1
1070
    44
1040
1.0
1070
    74
1070
     0
1000
MTEXTEND
1000
MTEXTBEGIN
1070
    73
1070
     1
1070
    44
1040
1.0
1070
    74
1070
     0
1000
MTEXTEND
  0
POINT
  5
378
330
371
100
AcDbEntity
  8
DEFPOINTS
 62
     0
100
AcDbPoint
 10
53.57250374628346
 20
-49.89279725864662
 30
0.0
  0
POINT
  5
379
330
371
100
AcDbEntity
  8
DEFPOINTS
 62
     0
100
AcDbPoint
 10
60.57250374628346
 20
-60.50239325045049
 30
0.0
  0
POINT
  5
37A
330
371
100
AcDbEntity
  8
DEFPOINTS
 62
     0
100
AcDbPoint
 10
60.57250374628346
 20
-45.13279725864481
 30
0.0
  0
ENDBLK
  5
37C
330
371
100
AcDbEntity
  8
0
100
AcDbBlockEnd
  0
BLOCK
  5
389
330
37D
100
AcDbEntity
  8
0
100
AcDbBlockBegin
  2
*D32
 70
     1
 10
0.0
 20
0.0
 30
0.0
  3
*D32
  1

  0
LINE
  5
37E
330
37D
100
AcDbEntity
  8
0
 62
   123
100
AcDbLine
 10
51.57250374628347
 20
-61.10113059197852
 30
0.0
 11
51.57250374628347
 21
-44.53279725864481
 31
0.0
  0
LINE
  5
37F
330
37D
100
AcDbEntity
  8
0
 62
   123
100
AcDbLine
 10
53.57250374628346
 20
-58.10113059197853
 30
0.0
 11
53.57250374628346
 21
-44.53279725864481
 31
0.0
  0
LINE
  5
380
330
37D
100
AcDbEntity
  8
0
 62
   123
100
AcDbLine
 10
56.07250374628346
 20
-45.13279725864481
 30
0.0
 11
58.57250374628346
 21
-45.13279725864481
 31
0.0
  0
LINE
  5
381
330
37D
100
AcDbEntity
  8
0
 62
   123
100
AcDbLine
 10
49.07250374628347
 20
-45.13279725864481
 30
0.0
 11
34.27250374628237
 21
-45.13279725864481
 31
0.0
  0
LINE
  5
382
330
37D
100
AcDbEntity
  8
0
 62
   123
100
AcDbLine
 10
53.57250374628346
 20
-45.13279725864481
 30
0.0
 11
51.57250374628347
 21
-45.13279725864481
 31
0.0
  0
SOLID
  5
383
330
37D
100
AcDbEntity
  8
0
 62
   123
100
AcDbTrace
 10
56.07250374628346
 20
-44.71613059197815
 30
0.0
 11
56.07250374628346
 21
-45.54946392531148
 31
0.0
 12
53.57250374628346
 22
-45.13279725864481
 32
0.0
 13
53.57250374628346
 23
-45.13279725864481
 33
0.0
  0
SOLID
  5
384
330
37D
100
AcDbEntity
  8
0
 62
   123
100
AcDbTrace
 10
49.07250374628347
 20
-44.71613059197815
 30
0.0
 11
49.07250374628347
 21
-45.54946392531148
 31
0.0
 12
51.57250374628347
 22
-45.13279725864481
 32
0.0
 13
51.57250374628347
 23
-45.13279725864481
 33
0.0
  0
MTEXT
  5
385
330
37D
100
AcDbEntity
  8
0
 62
     3
100
AcDbMText
 10
36.27250374628238
 20
-42.63279725864481
 30
0.0
 40
3.0
 41
0.0
 71
     5
 72
     1
  1
\A1;2
1001
ACAD
1000
MTEXTBEGIN
1070
    73
1070
     1
1070
    44
1040
1.0
1070
    74
1070
     0
1000
MTEXTEND
1000
MTEXTBEGIN
1070
    73
1070
     1
1070
    44
1040
1.0
1070
    74
1070
     0
1000
MTEXTEND
1000
MTEXTBEGIN
1070
    73
1070
     1
1070
    44
1040
1.0
1070
    74
1070
     0
1000
MTEXTEND
  0
POINT
  5
386
330
37D
100
AcDbEntity
  8
DEFPOINTS
 62
     0
100
AcDbPoint
 10
51.57250374628347
 20
-62.10113059197851
 30
0.0
  0
POINT
  5
387
330
37D
100
AcDbEntity
  8
DEFPOINTS
 62
     0
100
AcDbPoint
 10
53.57250374628346
 20
-59.10113059197851
 30
0.0
  0
POINT
  5
388
330
37D
100
AcDbEntity
  8
DEFPOINTS
 62
     0
100
AcDbPoint
 10
53.57250374628346
 20
-45.13279725864481
 30
0.0
  0
ENDBLK
  5
38A
330
37D
100
AcDbEntity
  8
0
100
AcDbBlockEnd
  0
BLOCK
  5
394
330
38B
100
AcDbEntity
  8
0
100
AcDbBlockBegin
  2
*D33
 70
     1
 10
0.0
 20
0.0
 30
0.0
  3
*D33
  1

  0
LINE
  5
42A
330
38B
100
AcDbEntity
  8
0
 62
   123
100
AcDbLine
 10
-77.19601517808889
 20
50.18619790120261
 30
0.0
 11
-79.29429659235823
 21
48.8270749830926
 31
0.0
  0
LINE
  5
42B
330
38B
100
AcDbEntity
  8
0
 62
   123
100
AcDbLine
 10
-14.24757275002684
 20
90.95988544449159
 30
0.0
 11
7.124120238412422
 21
104.8030036944398
 31
0.0
  0
LINE
  5
42C
330
38B
100
AcDbEntity
  8
0
 62
   123
100
AcDbLine
 10
-75.09773376381956
 20
51.54532081931264
 30
0.0
 11
-16.34585416429619
 21
89.60076252638158
 31
0.0
  0
SOLID
  5
42D
330
38B
100
AcDbEntity
  8
0
 62
   123
100
AcDbTrace
 10
-77.42253566444055
 20
50.53591147024754
 30
0.0
 11
-76.96949469173723
 21
49.83648433215773
 31
0.0
 12
-75.09773376381956
 22
51.54532081931264
 32
0.0
 13
-75.09773376381956
 23
51.54532081931264
 33
0.0
  0
SOLID
  5
42E
330
38B
100
AcDbEntity
  8
0
 62
   123
100
AcDbTrace
 10
-14.47409323637852
 20
91.30959901353651
 30
0.0
 11
-14.02105226367518
 21
90.61017187544672
 31
0.0
 12
-16.34585416429619
 22
89.60076252638158
 32
0.0
 13
-16.34585416429619
 23
89.60076252638158
 33
0.0
  0
MTEXT
  5
42F
330
38B
100
AcDbEntity
  8
0
 62
     3
100
AcDbMText
 10
-2.807981029426592
 20
101.3482971861453
 30
0.0
 40
3.0
 41
0.0
 71
     5
 72
     1
  1
\A1;\U+220570%%p0.5
 11
0.8393125657077327
 21
0.5436491672440076
 31
0.0
1001
ACAD
1000
MTEXTBEGIN
1070
    73
1070
     1
1070
    44
1040
1.0
1070
    74
1070
     0
1000
MTEXTEND
1000
MTEXTBEGIN
1070
    73
1070
     1
1070
    44
1040
1.0
1070
    74
1070
     0
1000
MTEXTEND
1000
MTEXTBEGIN
1070
    73
1070
     1
1070
    44
1040
1.0
1070
    74
1070
     0
1000
MTEXTEND
  0
POINT
  5
430
330
38B
100
AcDbEntity
  8
DEFPOINTS
 62
     0
100
AcDbPoint
 10
-16.34585416429619
 20
89.60076252638158
 30
0.0
  0
POINT
  5
431
330
38B
100
AcDbEntity
  8
DEFPOINTS
 62
     0
100
AcDbPoint
 10
-75.09773376381956
 20
51.54532081931264
 30
0.0
  0
ENDBLK
  5
395
330
38B
100
AcDbEntity
  8
0
100
AcDbBlockEnd
  0
BLOCK
  5
3A2
330
396
100
AcDbEntity
  8
0
100
AcDbBlockBegin
  2
*D34
 70
     1
 10
0.0
 20
0.0
 30
0.0
  3
*D34
  1

  0
LINE
  5
501
330
396
100
AcDbEntity
  8
0
 62
   123
100
AcDbLine
 10
-45.72179396406681
 20
34.57304167284018
 30
0.0
 11
-45.72179396406682
 21
12.04488188333416
 31
0.0
  0
LINE
  5
502
330
396
100
AcDbEntity
  8
0
 62
   123
100
AcDbLine
 10
-32.91270366050182
 20
39.64916214032999
 30
0.0
 11
-23.3240368858015
 21
16.50007276776516
 31
0.0
  0
ARC
  5
503
330
396
100
AcDbEntity
  8
0
 62
   123
100
AcDbCircle
 10
-45.72179396406681
 20
70.57304167286769
 30
0.0
 40
57.92815978953353
100
AcDbArc
 50
272.4729003600387
 51
290.0270996399551
  0
SOLID
  5
504
330
396
100
AcDbEntity
  8
0
 62
   123
100
AcDbTrace
 10
-43.21338504725459
 20
12.28225836345719
 30
0.0
 11
-43.23136709036542
 21
13.11539766187613
 31
0.0
 12
-45.72179396406682
 22
12.64488188333416
 32
0.0
 13
-45.72179396406682
 23
12.64488188333416
 33
0.0
  0
SOLID
  5
505
330
396
100
AcDbEntity
  8
0
 62
   123
100
AcDbTrace
 10
-26.03455995416372
 20
16.53605528070845
 30
0.0
 11
-25.73234458938943
 21
15.75945350518975
 31
0.0
 12
-23.55364694522048
 22
17.05440048727195
 32
0.0
 13
-23.55364694522048
 23
17.05440048727195
 33
0.0
  0
MTEXT
  5
506
330
396
100
AcDbEntity
  8
0
 62
     3
100
AcDbMText
 10
-34.96403651397284
 20
16.49014279728389
 30
0.0
 40
3.0
 41
0.0
 71
     5
 72
     1
  1
\A1;22°30'
 11
0.9807852804032409
 21
0.1950903220160753
 31
0.0
  0
POINT
  5
507
330
396
100
AcDbEntity
  8
DEFPOINTS
 62
     0
100
AcDbPoint
 10
-38.16065184442636
 20
13.14046532069341
 30
0.0
  0
POINT
  5
508
330
396
100
AcDbEntity
  8
DEFPOINTS
 62
     0
100
AcDbPoint
 10
-45.72179396406681
 20
35.57304167284019
 30
0.0
  0
POINT
  5
509
330
396
100
AcDbEntity
  8
DEFPOINTS
 62
     0
100
AcDbPoint
 10
-45.7217939640559
 20
70.57304167284133
 30
0.0
  0
POINT
  5
50A
330
396
100
AcDbEntity
  8
DEFPOINTS
 62
     0
100
AcDbPoint
 10
-33.2953870928668
 20
40.57304167284132
 30
0.0
  0
POINT
  5
50B
330
396
100
AcDbEntity
  8
DEFPOINTS
 62
     0
100
AcDbPoint
 10
-45.72179396406681
 20
105.5730416728401
 30
0.0
  0
ENDBLK
  5
3A3
330
396
100
AcDbEntity
  8
0
100
AcDbBlockEnd
  0
BLOCK
  5
3AE
330
3A4
100
AcDbEntity
  8
0
100
AcDbBlockBegin
  2
*D35
 70
     1
 10
0.0
 20
0.0
 30
0.0
  3
*D35
  1

  0
LINE
  5
3A5
330
3A4
100
AcDbEntity
  8
0
 62
   123
100
AcDbLine
 10
-75.72179396406681
 20
96.57304167284131
 30
0.0
 11
-75.72179396406681
 21
114.824139467146
 31
0.0
  0
LINE
  5
3A6
330
3A4
100
AcDbEntity
  8
0
 62
   123
100
AcDbLine
 10
-15.72179396406681
 20
96.57304167284131
 30
0.0
 11
-15.72179396406681
 21
114.824139467146
 31
0.0
  0
LINE
  5
3A7
330
3A4
100
AcDbEntity
  8
0
 62
   123
100
AcDbLine
 10
-73.22179396406681
 20
114.224139467146
 30
0.0
 11
-18.22179396406681
 21
114.224139467146
 31
0.0
  0
SOLID
  5
3A8
330
3A4
100
AcDbEntity
  8
0
 62
   123
100
AcDbTrace
 10
-73.22179396406681
 20
114.6408061338128
 30
0.0
 11
-73.22179396406681
 21
113.8074728004795
 31
0.0
 12
-75.72179396406681
 22
114.224139467146
 32
0.0
 13
-75.72179396406681
 23
114.224139467146
 33
0.0
  0
SOLID
  5
3A9
330
3A4
100
AcDbEntity
  8
0
 62
   123
100
AcDbTrace
 10
-18.22179396406681
 20
114.6408061338128
 30
0.0
 11
-18.22179396406681
 21
113.8074728004795
 31
0.0
 12
-15.72179396406681
 22
114.224139467146
 32
0.0
 13
-15.72179396406681
 23
114.224139467146
 33
0.0
  0
MTEXT
  5
3AA
330
3A4
100
AcDbEntity
  8
0
 62
     3
100
AcDbMText
 10
-46.05253272371736
 20
116.724139467146
 30
0.0
 40
3.0
 41
0.0
 71
     5
 72
     1
  1
\A1;60
1001
ACAD
1000
MTEXTBEGIN
1070
    73
1070
     1
1070
    44
1040
1.0
1070
    74
1070
     0
1000
MTEXTEND
1000
MTEXTBEGIN
1070
    73
1070
     1
1070
    44
1040
1.0
1070
    74
1070
     0
1000
MTEXTEND
1000
MTEXTBEGIN
1070
    73
1070
     1
1070
    44
1040
1.0
1070
    74
1070
     0
1000
MTEXTEND
  0
POINT
  5
3AB
330
3A4
100
AcDbEntity
  8
DEFPOINTS
 62
     0
100
AcDbPoint
 10
-75.72179396406681
 20
95.57304167284131
 30
0.0
  0
POINT
  5
3AC
330
3A4
100
AcDbEntity
  8
DEFPOINTS
 62
     0
100
AcDbPoint
 10
-15.72179396406681
 20
95.57304167284131
 30
0.0
  0
POINT
  5
3AD
330
3A4
100
AcDbEntity
  8
DEFPOINTS
 62
     0
100
AcDbPoint
 10
-15.72179396406681
 20
114.224139467146
 30
0.0
  0
ENDBLK
  5
3AF
330
3A4
100
AcDbEntity
  8
0
100
AcDbBlockEnd
  0
BLOCK
  5
3BA
330
3B0
100
AcDbEntity
  8
0
100
AcDbBlockBegin
  2
*D36
 70
     1
 10
0.0
 20
0.0
 30
0.0
  3
*D36
  1

  0
LINE
  5
3B1
330
3B0
100
AcDbEntity
  8
0
 62
   123
100
AcDbLine
 10
43.26931966874325
 20
97.57304167284019
 30
0.0
 11
23.86184499137236
 21
97.57304167284019
 31
0.0
  0
LINE
  5
3B2
330
3B0
100
AcDbEntity
  8
0
 62
   123
100
AcDbLine
 10
43.26931966874325
 20
43.57304167284017
 30
0.0
 11
23.86184499137235
 21
43.57304167284017
 31
0.0
  0
LINE
  5
3B3
330
3B0
100
AcDbEntity
  8
0
 62
   123
100
AcDbLine
 10
24.46184499137236
 20
95.07304167284019
 30
0.0
 11
24.46184499137235
 21
46.07304167284017
 31
0.0
  0
SOLID
  5
3B4
330
3B0
100
AcDbEntity
  8
0
 62
   123
100
AcDbTrace
 10
24.04517832470569
 20
95.07304167284019
 30
0.0
 11
24.87851165803903
 21
95.07304167284019
 31
0.0
 12
24.46184499137236
 22
97.57304167284019
 32
0.0
 13
24.46184499137236
 23
97.57304167284019
 33
0.0
  0
SOLID
  5
3B5
330
3B0
100
AcDbEntity
  8
0
 62
   123
100
AcDbTrace
 10
24.04517832470568
 20
46.07304167284017
 30
0.0
 11
24.87851165803902
 21
46.07304167284017
 31
0.0
 12
24.46184499137235
 22
43.57304167284017
 32
0.0
 13
24.46184499137235
 23
43.57304167284017
 33
0.0
  0
MTEXT
  5
3B6
330
3B0
100
AcDbEntity
  8
0
 62
     3
100
AcDbMText
 10
20.51169499137234
 20
71.15269398068129
 30
0.0
 40
3.0
 41
0.0
 71
     5
 72
     1
  1
\A1;\A1;%%C54{\f??|b0|i0|c0|p49;\H0.7x;\S+0^ -0.03;\H1.429x;(h7)} 
 11
0.0000000000000001
 21
1.0
 31
0.0
1001
ACAD
1000
MTEXTBEGIN
1070
    73
1070
     1
1070
    44
1040
1.0
1070
    74
1070
     0
1000
MTEXTEND
1000
MTEXTBEGIN
1070
    73
1070
     1
1070
    44
1040
1.0
1070
    74
1070
     0
1000
MTEXTEND
1000
MTEXTBEGIN
1070
    73
1070
     1
1070
    44
1040
1.0
1070
    74
1070
     0
1000
MTEXTEND
  0
POINT
  5
3B7
330
3B0
100
AcDbEntity
  8
DEFPOINTS
 62
     0
100
AcDbPoint
 10
44.26931966874326
 20
97.57304167284019
 30
0.0
  0
POINT
  5
3B8
330
3B0
100
AcDbEntity
  8
DEFPOINTS
 62
     0
100
AcDbPoint
 10
44.26931966874326
 20
43.57304167284017
 30
0.0
  0
POINT
  5
3B9
330
3B0
100
AcDbEntity
  8
DEFPOINTS
 62
     0
100
AcDbPoint
 10
24.46184499137235
 20
43.57304167284017
 30
0.0
  0
ENDBLK
  5
3BB
330
3B0
100
AcDbEntity
  8
0
100
AcDbBlockEnd
  0
BLOCK
  5
3C6
330
3BC
100
AcDbEntity
  8
0
100
AcDbBlockBegin
  2
*D37
 70
     1
 10
0.0
 20
0.0
 30
0.0
  3
*D37
  1

  0
LINE
  5
3BD
330
3BC
100
AcDbEntity
  8
0
 62
   123
100
AcDbLine
 10
33.76861023164201
 20
73.89304167284148
 30
0.0
 11
33.76861023164201
 21
130.6730416728401
 31
0.0
  0
LINE
  5
3BE
330
3BC
100
AcDbEntity
  8
0
 62
   123
100
AcDbLine
 10
46.26931966874326
 20
101.5730416728402
 30
0.0
 11
46.26931966874326
 21
130.6730416728401
 31
0.0
  0
LINE
  5
3BF
330
3BC
100
AcDbEntity
  8
0
 62
   123
100
AcDbLine
 10
36.26861023164201
 20
130.0730416728401
 30
0.0
 11
43.76931966874326
 21
130.0730416728401
 31
0.0
  0
SOLID
  5
3C0
330
3BC
100
AcDbEntity
  8
0
 62
   123
100
AcDbTrace
 10
36.26861023164201
 20
130.4897083395067
 30
0.0
 11
36.26861023164201
 21
129.6563750061735
 31
0.0
 12
33.76861023164201
 22
130.0730416728401
 32
0.0
 13
33.76861023164201
 23
130.0730416728401
 33
0.0
  0
SOLID
  5
3C1
330
3BC
100
AcDbEntity
  8
0
 62
   123
100
AcDbTrace
 10
43.76931966874326
 20
130.4897083395067
 30
0.0
 11
43.76931966874326
 21
129.6563750061735
 31
0.0
 12
46.26931966874326
 22
130.0730416728401
 32
0.0
 13
46.26931966874326
 23
130.0730416728401
 33
0.0
  0
MTEXT
  5
3C2
330
3BC
100
AcDbEntity
  8
0
 62
     3
100
AcDbMText
 10
40.01896495019354
 20
132.5730416728399
 30
0.0
 40
3.0
 41
0.0
 71
     5
 72
     1
  1
\A1;12.5
1001
ACAD
1000
MTEXTBEGIN
1070
    73
1070
     1
1070
    44
1040
1.0
1070
    74
1070
     0
1000
MTEXTEND
1000
MTEXTBEGIN
1070
    73
1070
     1
1070
    44
1040
1.0
1070
    74
1070
     0
1000
MTEXTEND
1000
MTEXTBEGIN
1070
    73
1070
     1
1070
    44
1040
1.0
1070
    74
1070
     0
1000
MTEXTEND
  0
POINT
  5
3C3
330
3BC
100
AcDbEntity
  8
DEFPOINTS
 62
     0
100
AcDbPoint
 10
33.76861023164201
 20
72.89304167284147
 30
0.0
  0
POINT
  5
3C4
330
3BC
100
AcDbEntity
  8
DEFPOINTS
 62
     0
100
AcDbPoint
 10
46.26931966874326
 20
100.5730416728402
 30
0.0
  0
POINT
  5
3C5
330
3BC
100
AcDbEntity
  8
DEFPOINTS
 62
     0
100
AcDbPoint
 10
46.26931966874326
 20
130.0730416728401
 30
0.0
  0
ENDBLK
  5
3C7
330
3BC
100
AcDbEntity
  8
0
100
AcDbBlockEnd
  0
BLOCK
  5
3D4
330
3C8
100
AcDbEntity
  8
0
100
AcDbBlockBegin
  2
*D38
 70
     1
 10
0.0
 20
0.0
 30
0.0
  3
*D38
  1

  0
LINE
  5
3C9
330
3C8
100
AcDbEntity
  8
0
 62
   123
100
AcDbLine
 10
44.26931966874326
 20
98.5730416728402
 30
0.0
 11
44.26931966874326
 21
115.1413750061742
 31
0.0
  0
LINE
  5
3CA
330
3C8
100
AcDbEntity
  8
0
 62
   123
100
AcDbLine
 10
46.26931966874326
 20
101.5730416728402
 30
0.0
 11
46.26931966874326
 21
115.1413750061742
 31
0.0
  0
LINE
  5
3CB
330
3C8
100
AcDbEntity
  8
0
 62
   123
100
AcDbLine
 10
48.76931966874328
 20
114.5413750061742
 30
0.0
 11
51.26931966874328
 21
114.5413750061742
 31
0.0
  0
LINE
  5
3CC
330
3C8
100
AcDbEntity
  8
0
 62
   123
100
AcDbLine
 10
41.76931966874326
 20
114.5413750061742
 30
0.0
 11
35.26931966874325
 21
114.5413750061742
 31
0.0
  0
LINE
  5
3CD
330
3C8
100
AcDbEntity
  8
0
 62
   123
100
AcDbLine
 10
46.26931966874326
 20
114.5413750061742
 30
0.0
 11
44.26931966874326
 21
114.5413750061742
 31
0.0
  0
SOLID
  5
3CE
330
3C8
100
AcDbEntity
  8
0
 62
   123
100
AcDbTrace
 10
48.76931966874328
 20
114.958041672841
 30
0.0
 11
48.76931966874328
 21
114.1247083395075
 31
0.0
 12
46.26931966874326
 22
114.5413750061742
 32
0.0
 13
46.26931966874326
 23
114.5413750061742
 33
0.0
  0
SOLID
  5
3CF
330
3C8
100
AcDbEntity
  8
0
 62
   123
100
AcDbTrace
 10
41.76931966874326
 20
114.958041672841
 30
0.0
 11
41.76931966874326
 21
114.1247083395075
 31
0.0
 12
44.26931966874326
 22
114.5413750061742
 32
0.0
 13
44.26931966874326
 23
114.5413750061742
 33
0.0
  0
MTEXT
  5
3D0
330
3C8
100
AcDbEntity
  8
0
 62
     3
100
AcDbMText
 10
37.26931966874325
 20
117.0413750061742
 30
0.0
 40
3.0
 41
0.0
 71
     5
 72
     1
  1
\A1;2
1001
ACAD
1000
MTEXTBEGIN
1070
    73
1070
     1
1070
    44
1040
1.0
1070
    74
1070
     0
1000
MTEXTEND
1000
MTEXTBEGIN
1070
    73
1070
     1
1070
    44
1040
1.0
1070
    74
1070
     0
1000
MTEXTEND
1000
MTEXTBEGIN
1070
    73
1070
     1
1070
    44
1040
1.0
1070
    74
1070
     0
1000
MTEXTEND
  0
POINT
  5
3D1
330
3C8
100
AcDbEntity
  8
DEFPOINTS
 62
     0
100
AcDbPoint
 10
44.26931966874326
 20
97.57304167284019
 30
0.0
  0
POINT
  5
3D2
330
3C8
100
AcDbEntity
  8
DEFPOINTS
 62
     0
100
AcDbPoint
 10
46.26931966874326
 20
100.5730416728402
 30
0.0
  0
POINT
  5
3D3
330
3C8
100
AcDbEntity
  8
DEFPOINTS
 62
     0
100
AcDbPoint
 10
46.26931966874326
 20
114.5413750061742
 30
0.0
  0
ENDBLK
  5
3D5
330
3C8
100
AcDbEntity
  8
0
100
AcDbBlockEnd
  0
BLOCK
  5
3E0
330
3D6
100
AcDbEntity
  8
0
100
AcDbBlockBegin
  2
*D39
 70
     1
 10
0.0
 20
0.0
 30
0.0
  3
*D39
  1

  0
LINE
  5
3D7
330
3D6
100
AcDbEntity
  8
0
 62
   123
100
AcDbLine
 10
46.26931966874326
 20
110.7813750061725
 30
0.0
 11
46.26931966874326
 21
115.1413750061742
 31
0.0
  0
LINE
  5
3D8
330
3D6
100
AcDbEntity
  8
0
 62
   123
100
AcDbLine
 10
53.26931966874326
 20
100.1717790143682
 30
0.0
 11
53.26931966874326
 21
115.1413750061742
 31
0.0
  0
LINE
  5
3D9
330
3D6
100
AcDbEntity
  8
0
 62
   123
100
AcDbLine
 10
48.76931966874328
 20
114.5413750061742
 30
0.0
 11
50.76931966874326
 21
114.5413750061742
 31
0.0
  0
SOLID
  5
3DA
330
3D6
100
AcDbEntity
  8
0
 62
   123
100
AcDbTrace
 10
48.76931966874328
 20
114.958041672841
 30
0.0
 11
48.76931966874328
 21
114.1247083395075
 31
0.0
 12
46.26931966874326
 22
114.5413750061742
 32
0.0
 13
46.26931966874326
 23
114.5413750061742
 33
0.0
  0
SOLID
  5
3DB
330
3D6
100
AcDbEntity
  8
0
 62
   123
100
AcDbTrace
 10
50.76931966874326
 20
114.958041672841
 30
0.0
 11
50.76931966874326
 21
114.1247083395075
 31
0.0
 12
53.26931966874326
 22
114.5413750061742
 32
0.0
 13
53.26931966874326
 23
114.5413750061742
 33
0.0
  0
MTEXT
  5
3DC
330
3D6
100
AcDbEntity
  8
0
 62
     3
100
AcDbMText
 10
49.76931966874325
 20
117.0413750061742
 30
0.0
 40
3.0
 41
0.0
 71
     5
 72
     1
  1
\A1;7
1001
ACAD
1000
MTEXTBEGIN
1070
    73
1070
     1
1070
    44
1040
1.0
1070
    74
1070
     0
1000
MTEXTEND
1000
MTEXTBEGIN
1070
    73
1070
     1
1070
    44
1040
1.0
1070
    74
1070
     0
1000
MTEXTEND
1000
MTEXTBEGIN
1070
    73
1070
     1
1070
    44
1040
1.0
1070
    74
1070
     0
1000
MTEXTEND
  0
POINT
  5
3DD
330
3D6
100
AcDbEntity
  8
DEFPOINTS
 62
     0
100
AcDbPoint
 10
46.26931966874326
 20
109.7813750061725
 30
0.0
  0
POINT
  5
3DE
330
3D6
100
AcDbEntity
  8
DEFPOINTS
 62
     0
100
AcDbPoint
 10
53.26931966874326
 20
99.17177901436822
 30
0.0
  0
POINT
  5
3DF
330
3D6
100
AcDbEntity
  8
DEFPOINTS
 62
     0
100
AcDbPoint
 10
53.26931966874326
 20
114.5413750061742
 30
0.0
  0
ENDBLK
  5
3E1
330
3D6
100
AcDbEntity
  8
0
100
AcDbBlockEnd
  0
BLOCK
  5
3EC
330
3E2
100
AcDbEntity
  8
0
100
AcDbBlockBegin
  2
*D40
 70
     1
 10
0.0
 20
0.0
 30
0.0
  3
*D40
  1

  0
LINE
  5
3E3
330
3E2
100
AcDbEntity
  8
0
 62
   123
100
AcDbLine
 10
166.5725037462833
 20
-59.63113059197961
 30
0.0
 11
166.5725037462833
 21
-29.00113059197851
 31
0.0
  0
LINE
  5
3E4
330
3E2
100
AcDbEntity
  8
0
 62
   123
100
AcDbLine
 10
176.5725037462834
 20
-65.60113059197852
 30
0.0
 11
176.5725037462834
 21
-29.00113059197851
 31
0.0
  0
LINE
  5
3E5
330
3E2
100
AcDbEntity
  8
0
 62
   123
100
AcDbLine
 10
169.0725037462834
 20
-29.60113059197851
 30
0.0
 11
174.0725037462834
 21
-29.60113059197851
 31
0.0
  0
SOLID
  5
3E6
330
3E2
100
AcDbEntity
  8
0
 62
   123
100
AcDbTrace
 10
169.0725037462834
 20
-29.18446392531185
 30
0.0
 11
169.0725037462834
 21
-30.01779725864518
 31
0.0
 12
166.5725037462833
 22
-29.60113059197851
 32
0.0
 13
166.5725037462833
 23
-29.60113059197851
 33
0.0
  0
SOLID
  5
3E7
330
3E2
100
AcDbEntity
  8
0
 62
   123
100
AcDbTrace
 10
174.0725037462834
 20
-29.18446392531185
 30
0.0
 11
174.0725037462834
 21
-30.01779725864518
 31
0.0
 12
176.5725037462834
 22
-29.60113059197851
 32
0.0
 13
176.5725037462834
 23
-29.60113059197851
 33
0.0
  0
MTEXT
  5
3E8
330
3E2
100
AcDbEntity
  8
0
 62
     3
100
AcDbMText
 10
171.5725037462833
 20
-27.10113059197851
 30
0.0
 40
3.0
 41
0.0
 71
     5
 72
     1
  1
\A1;10
1001
ACAD
1000
MTEXTBEGIN
1070
    73
1070
     1
1070
    44
1040
1.0
1070
    74
1070
     0
1000
MTEXTEND
1000
MTEXTBEGIN
1070
    73
1070
     1
1070
    44
1040
1.0
1070
    74
1070
     0
1000
MTEXTEND
1000
MTEXTBEGIN
1070
    73
1070
     1
1070
    44
1040
1.0
1070
    74
1070
     0
1000
MTEXTEND
  0
POINT
  5
3E9
330
3E2
100
AcDbEntity
  8
DEFPOINTS
 62
     0
100
AcDbPoint
 10
166.5725037462833
 20
-60.63113059197963
 30
0.0
  0
POINT
  5
3EA
330
3E2
100
AcDbEntity
  8
DEFPOINTS
 62
     0
100
AcDbPoint
 10
176.5725037462834
 20
-66.60113059197851
 30
0.0
  0
POINT
  5
3EB
330
3E2
100
AcDbEntity
  8
DEFPOINTS
 62
     0
100
AcDbPoint
 10
176.5725037462834
 20
-29.60113059197851
 30
0.0
  0
ENDBLK
  5
3ED
330
3E2
100
AcDbEntity
  8
0
100
AcDbBlockEnd
  0
BLOCK
  5
3F8
330
3EE
100
AcDbEntity
  8
0
100
AcDbBlockBegin
  2
*D41
 70
     1
 10
0.0
 20
0.0
 30
0.0
  3
*D41
  1

  0
LINE
  5
3EF
330
3EE
100
AcDbEntity
  8
0
 62
   123
100
AcDbLine
 10
166.0728431512016
 20
-59.09922291974453
 30
0.0
 11
201.0904689615923
 21
-59.09922291974454
 31
0.0
  0
LINE
  5
3F0
330
3EE
100
AcDbEntity
  8
0
 62
   123
100
AcDbLine
 10
166.0728431512016
 20
-119.1030382642155
 30
0.0
 11
201.0904689615923
 21
-119.1030382642155
 31
0.0
  0
LINE
  5
3F1
330
3EE
100
AcDbEntity
  8
0
 62
   123
100
AcDbLine
 10
200.4904689615923
 20
-61.59922291974454
 30
0.0
 11
200.4904689615923
 21
-116.6030382642156
 31
0.0
  0
SOLID
  5
3F2
330
3EE
100
AcDbEntity
  8
0
 62
   123
100
AcDbTrace
 10
200.0738022949255
 20
-61.59922291974454
 30
0.0
 11
200.907135628259
 21
-61.59922291974454
 31
0.0
 12
200.4904689615923
 22
-59.09922291974454
 32
0.0
 13
200.4904689615923
 23
-59.09922291974454
 33
0.0
  0
SOLID
  5
3F3
330
3EE
100
AcDbEntity
  8
0
 62
   123
100
AcDbTrace
 10
200.0738022949255
 20
-116.6030382642156
 30
0.0
 11
200.9071356282588
 21
-116.6030382642156
 31
0.0
 12
200.4904689615923
 22
-119.1030382642155
 32
0.0
 13
200.4904689615923
 23
-119.1030382642155
 33
0.0
  0
MTEXT
  5
3F4
330
3EE
100
AcDbEntity
  8
0
 62
     3
100
AcDbMText
 10
197.9904689615923
 20
-89.15743967406251
 30
0.0
 40
3.0
 41
0.0
 71
     5
 72
     1
  1
\A1;%%C60
 11
0.0000000000000001
 21
1.0
 31
0.0
1001
ACAD
1000
MTEXTBEGIN
1070
    73
1070
     1
1070
    44
1040
1.0
1070
    74
1070
     0
1000
MTEXTEND
1000
MTEXTBEGIN
1070
    73
1070
     1
1070
    44
1040
1.0
1070
    74
1070
     0
1000
MTEXTEND
1000
MTEXTBEGIN
1070
    73
1070
     1
1070
    44
1040
1.0
1070
    74
1070
     0
1000
MTEXTEND
  0
POINT
  5
3F5
330
3EE
100
AcDbEntity
  8
DEFPOINTS
 62
     0
100
AcDbPoint
 10
165.0728431512016
 20
-59.09922291974453
 30
0.0
  0
POINT
  5
3F6
330
3EE
100
AcDbEntity
  8
DEFPOINTS
 62
     0
100
AcDbPoint
 10
165.0728431512016
 20
-119.1030382642155
 30
0.0
  0
POINT
  5
3F7
330
3EE
100
AcDbEntity
  8
DEFPOINTS
 62
     0
100
AcDbPoint
 10
200.4904689615923
 20
-119.1030382642155
 30
0.0
  0
ENDBLK
  5
3F9
330
3EE
100
AcDbEntity
  8
0
100
AcDbBlockEnd
  0
BLOCK
  5
404
330
3FA
100
AcDbEntity
  8
0
100
AcDbBlockBegin
  2
*D42
 70
     1
 10
0.0
 20
0.0
 30
0.0
  3
*D42
  1

  0
LINE
  5
3FB
330
3FA
100
AcDbEntity
  8
0
 62
   123
100
AcDbLine
 10
176.5725037462834
 20
-65.60113059197852
 30
0.0
 11
191.2539972719928
 21
-65.60113059197852
 31
0.0
  0
LINE
  5
3FC
330
3FA
100
AcDbEntity
  8
0
 62
   123
100
AcDbLine
 10
176.5725037462834
 20
-112.6011305919784
 30
0.0
 11
191.2539972719928
 21
-112.6011305919784
 31
0.0
  0
LINE
  5
3FD
330
3FA
100
AcDbEntity
  8
0
 62
   123
100
AcDbLine
 10
190.6539972719929
 20
-68.10113059197852
 30
0.0
 11
190.6539972719929
 21
-110.1011305919785
 31
0.0
  0
SOLID
  5
3FE
330
3FA
100
AcDbEntity
  8
0
 62
   123
100
AcDbTrace
 10
190.2373306053262
 20
-68.10113059197852
 30
0.0
 11
191.0706639386595
 21
-68.10113059197852
 31
0.0
 12
190.6539972719929
 22
-65.60113059197852
 32
0.0
 13
190.6539972719929
 23
-65.60113059197852
 33
0.0
  0
SOLID
  5
3FF
330
3FA
100
AcDbEntity
  8
0
 62
   123
100
AcDbTrace
 10
190.2373306053262
 20
-110.1011305919785
 30
0.0
 11
191.0706639386595
 21
-110.1011305919785
 31
0.0
 12
190.6539972719929
 22
-112.6011305919784
 32
0.0
 13
190.6539972719929
 23
-112.6011305919784
 33
0.0
  0
MTEXT
  5
400
330
3FA
100
AcDbEntity
  8
0
 62
     3
100
AcDbMText
 10
188.1539972719929
 20
-91.39488059197971
 30
0.0
 40
3.0
 41
0.0
 71
     5
 72
     1
  1
\A1;%%C47
 11
0.0000000000000001
 21
1.0
 31
0.0
1001
ACAD
1000
MTEXTBEGIN
1070
    73
1070
     1
1070
    44
1040
1.0
1070
    74
1070
     0
1000
MTEXTEND
1000
MTEXTBEGIN
1070
    73
1070
     1
1070
    44
1040
1.0
1070
    74
1070
     0
1000
MTEXTEND
1000
MTEXTBEGIN
1070
    73
1070
     1
1070
    44
1040
1.0
1070
    74
1070
     0
1000
MTEXTEND
  0
POINT
  5
401
330
3FA
100
AcDbEntity
  8
DEFPOINTS
 62
     0
100
AcDbPoint
 10
175.5725037462834
 20
-65.60113059197852
 30
0.0
  0
POINT
  5
402
330
3FA
100
AcDbEntity
  8
DEFPOINTS
 62
     0
100
AcDbPoint
 10
175.5725037462834
 20
-112.6011305919784
 30
0.0
  0
POINT
  5
403
330
3FA
100
AcDbEntity
  8
DEFPOINTS
 62
     0
100
AcDbPoint
 10
190.6539972719929
 20
-112.6011305919784
 30
0.0
  0
ENDBLK
  5
405
330
3FA
100
AcDbEntity
  8
0
100
AcDbBlockEnd
  0
BLOCK
  5
410
330
406
100
AcDbEntity
  8
0
100
AcDbBlockBegin
  2
*D43
 70
     1
 10
0.0
 20
0.0
 30
0.0
  3
*D43
  1

  0
LINE
  5
407
330
406
100
AcDbEntity
  8
0
 62
   123
100
AcDbLine
 10
169.2693196687431
 20
94.07304167284019
 30
0.0
 11
183.9508131944436
 21
94.07304167284019
 31
0.0
  0
LINE
  5
408
330
406
100
AcDbEntity
  8
0
 62
   123
100
AcDbLine
 10
169.2693196687431
 20
47.07304167284017
 30
0.0
 11
183.9508131944436
 21
47.07304167284017
 31
0.0
  0
LINE
  5
409
330
406
100
AcDbEntity
  8
0
 62
   123
100
AcDbLine
 10
183.3508131944435
 20
91.57304167284019
 30
0.0
 11
183.3508131944435
 21
49.57304167284018
 31
0.0
  0
SOLID
  5
40A
330
406
100
AcDbEntity
  8
0
 62
   123
100
AcDbTrace
 10
182.9341465277769
 20
91.57304167284019
 30
0.0
 11
183.7674798611103
 21
91.57304167284019
 31
0.0
 12
183.3508131944435
 22
94.07304167284019
 32
0.0
 13
183.3508131944435
 23
94.07304167284019
 33
0.0
  0
SOLID
  5
40B
330
406
100
AcDbEntity
  8
0
 62
   123
100
AcDbTrace
 10
182.9341465277769
 20
49.57304167284018
 30
0.0
 11
183.7674798611102
 21
49.57304167284018
 31
0.0
 12
183.3508131944435
 22
47.07304167284017
 32
0.0
 13
183.3508131944435
 23
47.07304167284017
 33
0.0
  0
MTEXT
  5
40C
330
406
100
AcDbEntity
  8
0
 62
     3
100
AcDbMText
 10
180.8508131944435
 20
68.27929167284015
 30
0.0
 40
3.0
 41
0.0
 71
     5
 72
     1
  1
\A1;%%C47
 11
0.0000000000000001
 21
1.0
 31
0.0
1001
ACAD
1000
MTEXTBEGIN
1070
    73
1070
     1
1070
    44
1040
1.0
1070
    74
1070
     0
1000
MTEXTEND
1000
MTEXTBEGIN
1070
    73
1070
     1
1070
    44
1040
1.0
1070
    74
1070
     0
1000
MTEXTEND
1000
MTEXTBEGIN
1070
    73
1070
     1
1070
    44
1040
1.0
1070
    74
1070
     0
1000
MTEXTEND
  0
POINT
  5
40D
330
406
100
AcDbEntity
  8
DEFPOINTS
 62
     0
100
AcDbPoint
 10
168.2693196687431
 20
94.07304167284019
 30
0.0
  0
POINT
  5
40E
330
406
100
AcDbEntity
  8
DEFPOINTS
 62
     0
100
AcDbPoint
 10
168.2693196687431
 20
47.07304167284017
 30
0.0
  0
POINT
  5
40F
330
406
100
AcDbEntity
  8
DEFPOINTS
 62
     0
100
AcDbPoint
 10
183.3508131944435
 20
47.07304167284017
 30
0.0
  0
ENDBLK
  5
411
330
406
100
AcDbEntity
  8
0
100
AcDbBlockEnd
  0
BLOCK
  5
41C
330
412
100
AcDbEntity
  8
0
100
AcDbBlockBegin
  2
*D44
 70
     1
 10
0.0
 20
0.0
 30
0.0
  3
*D44
  1

  0
LINE
  5
413
330
412
100
AcDbEntity
  8
0
 62
   123
100
AcDbLine
 10
158.7696590736523
 20
100.5749493450752
 30
0.0
 11
193.7872848840428
 21
100.5749493450752
 31
0.0
  0
LINE
  5
414
330
412
100
AcDbEntity
  8
0
 62
   123
100
AcDbLine
 10
158.7696590736523
 20
40.57113400060461
 30
0.0
 11
193.7872848840428
 21
40.57113400060461
 31
0.0
  0
LINE
  5
415
330
412
100
AcDbEntity
  8
0
 62
   123
100
AcDbLine
 10
193.187284884043
 20
98.07494934507532
 30
0.0
 11
193.187284884043
 21
43.07113400060461
 31
0.0
  0
SOLID
  5
416
330
412
100
AcDbEntity
  8
0
 62
   123
100
AcDbTrace
 10
192.7706182173764
 20
98.07494934507532
 30
0.0
 11
193.6039515507097
 21
98.07494934507532
 31
0.0
 12
193.187284884043
 22
100.5749493450752
 32
0.0
 13
193.187284884043
 23
100.5749493450752
 33
0.0
  0
SOLID
  5
417
330
412
100
AcDbEntity
  8
0
 62
   123
100
AcDbTrace
 10
192.7706182173763
 20
43.07113400060461
 30
0.0
 11
193.6039515507097
 21
43.07113400060461
 31
0.0
 12
193.187284884043
 22
40.57113400060461
 32
0.0
 13
193.187284884043
 23
40.57113400060461
 33
0.0
  0
MTEXT
  5
418
330
412
100
AcDbEntity
  8
0
 62
     3
100
AcDbMText
 10
190.687284884043
 20
70.51673259075733
 30
0.0
 40
3.0
 41
0.0
 71
     5
 72
     1
  1
\A1;%%C60
 11
0.0000000000000001
 21
1.0
 31
0.0
1001
ACAD
1000
MTEXTBEGIN
1070
    73
1070
     1
1070
    44
1040
1.0
1070
    74
1070
     0
1000
MTEXTEND
1000
MTEXTBEGIN
1070
    73
1070
     1
1070
    44
1040
1.0
1070
    74
1070
     0
1000
MTEXTEND
1000
MTEXTBEGIN
1070
    73
1070
     1
1070
    44
1040
1.0
1070
    74
1070
     0
1000
MTEXTEND
  0
POINT
  5
419
330
412
100
AcDbEntity
  8
DEFPOINTS
 62
     0
100
AcDbPoint
 10
157.7696590736523
 20
100.5749493450752
 30
0.0
  0
POINT
  5
41A
330
412
100
AcDbEntity
  8
DEFPOINTS
 62
     0
100
AcDbPoint
 10
157.7696590736523
 20
40.57113400060461
 30
0.0
  0
POINT
  5
41B
330
412
100
AcDbEntity
  8
DEFPOINTS
 62
     0
100
AcDbPoint
 10
193.187284884043
 20
40.57113400060461
 30
0.0
  0
ENDBLK
  5
41D
330
412
100
AcDbEntity
  8
0
100
AcDbBlockEnd
  0
BLOCK
  5
428
330
41E
100
AcDbEntity
  8
0
100
AcDbBlockBegin
  2
*D45
 70
     1
 10
0.0
 20
0.0
 30
0.0
  3
*D45
  1

  0
LINE
  5
41F
330
41E
100
AcDbEntity
  8
0
 62
   123
100
AcDbLine
 10
159.269319668743
 20
100.0430416728393
 30
0.0
 11
159.269319668743
 21
130.6730416728401
 31
0.0
  0
LINE
  5
420
330
41E
100
AcDbEntity
  8
0
 62
   123
100
AcDbLine
 10
169.2693196687431
 20
94.07304167284019
 30
0.0
 11
169.2693196687431
 21
130.6730416728401
 31
0.0
  0
LINE
  5
421
330
41E
100
AcDbEntity
  8
0
 62
   123
100
AcDbLine
 10
161.7693196687431
 20
130.0730416728401
 30
0.0
 11
166.769319668743
 21
130.0730416728401
 31
0.0
  0
SOLID
  5
422
330
41E
100
AcDbEntity
  8
0
 62
   123
100
AcDbTrace
 10
161.7693196687431
 20
130.4897083395067
 30
0.0
 11
161.7693196687431
 21
129.6563750061735
 31
0.0
 12
159.269319668743
 22
130.0730416728401
 32
0.0
 13
159.269319668743
 23
130.0730416728401
 33
0.0
  0
SOLID
  5
423
330
41E
100
AcDbEntity
  8
0
 62
   123
100
AcDbTrace
 10
166.769319668743
 20
130.4897083395067
 30
0.0
 11
166.769319668743
 21
129.6563750061735
 31
0.0
 12
169.2693196687431
 22
130.0730416728401
 32
0.0
 13
169.2693196687431
 23
130.0730416728401
 33
0.0
  0
MTEXT
  5
424
330
41E
100
AcDbEntity
  8
0
 62
     3
100
AcDbMText
 10
164.2693196687431
 20
132.5730416728399
 30
0.0
 40
3.0
 41
0.0
 71
     5
 72
     1
  1
\A1;10
1001
ACAD
1000
MTEXTBEGIN
1070
    73
1070
     1
1070
    44
1040
1.0
1070
    74
1070
     0
1000
MTEXTEND
1000
MTEXTBEGIN
1070
    73
1070
     1
1070
    44
1040
1.0
1070
    74
1070
     0
1000
MTEXTEND
1000
MTEXTBEGIN
1070
    73
1070
     1
1070
    44
1040
1.0
1070
    74
1070
     0
1000
MTEXTEND
  0
POINT
  5
425
330
41E
100
AcDbEntity
  8
DEFPOINTS
 62
     0
100
AcDbPoint
 10
159.269319668743
 20
99.04304167283932
 30
0.0
  0
POINT
  5
426
330
41E
100
AcDbEntity
  8
DEFPOINTS
 62
     0
100
AcDbPoint
 10
169.2693196687431
 20
93.07304167284019
 30
0.0
  0
POINT
  5
427
330
41E
100
AcDbEntity
  8
DEFPOINTS
 62
     0
100
AcDbPoint
 10
169.2693196687431
 20
130.0730416728401
 30
0.0
  0
ENDBLK
  5
429
330
41E
100
AcDbEntity
  8
0
100
AcDbBlockEnd
  0
ENDSEC
  0
SECTION
  2
ENTITIES
  0
DIMENSION
  5
9D
330
2
100
AcDbEntity
  8
0
 48
0.6
100
AcDbDimension
  2
*D24
 10
166.5725037462833
 20
-29.60113059197851
 30
0.0
 11
115.0725037462833
 21
-29.60113059197851
 31
0.0
 70
   160
  3
STANDARD
100
AcDbAlignedDimension
 13
53.57250374628346
 23
-29.60113059197851
 33
0.0
 14
166.5725037462833
 24
-60.63113059197963
 34
0.0
100
AcDbRotatedDimension
  0
LINE
  5
AC
330
2
100
AcDbEntity
  8
0
 48
0.6
100
AcDbLine
 10
121.5725037462834
 20
-59.60113059197851
 30
0.0
 11
59.67250374628203
 21
-59.60113059197851
 31
0.0
  0
LINE
  5
AD
330
2
100
AcDbEntity
  8
0
 48
0.6
100
AcDbLine
 10
121.5725037462834
 20
-118.6011305919784
 30
0.0
 11
59.67250374628203
 21
-118.6011305919784
 31
0.0
  0
LINE
  5
AE
330
2
100
AcDbEntity
  8
0
100
AcDbLine
 10
70.72905778982203
 20
-126.4436533676895
 30
0.0
 11
168.0725037462833
 21
-126.4436533676914
 31
0.0
  0
LINE
  5
AF
330
2
100
AcDbEntity
  8
0
100
AcDbLine
 10
66.17499705852242
 20
-121.4436533676894
 30
0.0
 11
166.0725037462833
 21
-121.4436533676894
 31
0.0
  0
LINE
  5
B0
330
2
100
AcDbEntity
  8
CEN
 48
0.6
100
AcDbLine
 10
180.9910052684515
 20
-89.10113059197852
 30
0.0
 11
25.46271244454328
 21
-89.10113059197852
 31
0.0
  0
DIMENSION
  5
B3
330
2
100
AcDbEntity
  8
0
 48
0.6
100
AcDbDimension
  2
*D23
 10
159.269319668743
 20
130.0730416728401
 30
0.0
 11
107.7693196687432
 21
130.0730416728401
 31
0.0
 70
   160
  3
STANDARD
100
AcDbAlignedDimension
 13
46.26931966874326
 23
130.0730416728401
 33
0.0
 14
159.269319668743
 24
99.04304167283932
 34
0.0
100
AcDbRotatedDimension
  0
LINE
  5
C0
330
2
100
AcDbEntity
  8
0
 48
0.6
100
AcDbLine
 10
114.2693196687432
 20
100.0730416728401
 30
0.0
 11
52.36931966874363
 21
100.0730416728401
 31
0.0
  0
LINE
  5
C1
330
2
100
AcDbEntity
  8
CEN
 48
0.6
100
AcDbLine
 10
173.6878211909024
 20
70.57304167284019
 30
0.0
 11
28.87966919472273
 21
70.57304167284019
 31
0.0
  0
LINE
  5
C2
330
2
100
AcDbEntity
  8
0
 48
0.6
100
AcDbLine
 10
114.2693196687432
 20
41.07304167284018
 30
0.0
 11
52.36931966874363
 21
41.07304167284018
 31
0.0
  0
LINE
  5
C3
330
2
100
AcDbEntity
  8
0
100
AcDbLine
 10
58.87181298097312
 20
38.23051889713042
 30
0.0
 11
158.7693196687431
 21
38.23051889713042
 31
0.0
  0
LINE
  5
C4
330
2
100
AcDbEntity
  8
0
100
AcDbLine
 10
63.42587371228183
 20
33.23051889712951
 30
0.0
 11
160.7693196687431
 21
33.23051889712813
 31
0.0
  0
DIMENSION
  5
C5
330
2
100
AcDbEntity
  8
0
 48
0.6
100
AcDbDimension
  2
*D25
 10
53.57250374628346
 20
-29.60113059197851
 30
0.0
 11
41.57250374628346
 21
-29.60113059197851
 31
0.0
 70
   160
  3
STANDARD
100
AcDbAlignedDimension
 13
29.57250374628347
 23
-87.10101780680863
 33
0.0
 14
53.57250374628346
 24
-59.10113059197851
 34
0.0
100
AcDbRotatedDimension
  0
DIMENSION
  5
D2
102
{ACAD_XDICTIONARY
360
D3
102
}
102
{ACAD_REACTORS
330
D4
102
}
330
2
100
AcDbEntity
  8
0
 48
0.6
100
AcDbDimension
  2
*D32
 10
53.57250374628346
 20
-45.13279725864481
 30
0.0
 11
36.27250374628238
 21
-45.13279725864481
 31
0.0
 70
   160
  3
STANDARD
100
AcDbAlignedDimension
 13
51.57250374628347
 23
-62.10113059197851
 33
0.0
 14
53.57250374628346
 24
-59.10113059197851
 34
0.0
100
AcDbRotatedDimension
  0
DIMENSION
  5
E3
102
{ACAD_XDICTIONARY
360
E4
102
}
102
{ACAD_REACTORS
330
E5
102
}
330
2
100
AcDbEntity
  8
0
 48
0.6
100
AcDbDimension
  2
*D31
 10
60.57250374628346
 20
-45.13279725864481
 30
0.0
 11
57.07250374628348
 21
-45.13279725864481
 31
0.0
 70
   160
  3
STANDARD
100
AcDbAlignedDimension
 13
53.57250374628346
 23
-49.89279725864662
 33
0.0
 14
60.57250374628346
 24
-60.50239325045049
 34
0.0
100
AcDbRotatedDimension
  0
LWPOLYLINE
  5
F2
330
2
100
AcDbEntity
  8
3
 48
0.6
100
AcDbPolyline
 90
        4
 70
     1
 43
0.0
 10
-54.90251595843799
 20
-44.70994643234962
 10
-51.60251595843693
 20
-44.70994643234962
 10
-51.60251595843693
 20
-41.2099464323496
 10
-54.90251595843799
 20
-41.2099464323496
  0
DIMENSION
  5
F4
102
{ACAD_XDICTIONARY
360
F5
102
}
102
{ACAD_REACTORS
330
F6
102
}
330
2
100
AcDbEntity
  8
0
 48
0.6
100
AcDbDimension
  2
*D30
 10
-17.9542525455181
 20
-45.45003279767274
 30
0.0
 11
-48.28499130517776
 21
-45.45003279767274
 31
0.0
 70
   160
  1
60
  3
STANDARD
100
AcDbAlignedDimension
 13
-77.95425254551807
 23
-64.10113059197761
 33
0.0
 14
-17.9542525455181
 24
-64.10113059197761
 34
0.0
100
AcDbRotatedDimension
  0
LINE
  5
103
330
2
100
AcDbEntity
  8
0
 48
0.6
100
AcDbLine
 10
53.57250374628346
 20
-59.10113059197851
 30
0.0
 11
59.67250374628203
 21
-59.10113059197851
 31
0.0
  0
LINE
  5
104
330
2
100
AcDbEntity
  8
0
 48
0.6
100
AcDbLine
 10
60.57250374628346
 20
-68.20239325044963
 30
0.0
 11
60.57250374628346
 21
-60.50239325045049
 31
0.0
  0
LINE
  5
105
330
2
100
AcDbEntity
  8
0
 48
0.6
100
AcDbLine
 10
59.67250374628203
 20
-68.20239325044963
 30
0.0
 11
60.57250374628346
 21
-68.20239325044963
 31
0.0
  0
LINE
  5
106
102
{ACAD_REACTORS
330
E5
102
}
330
2
100
AcDbEntity
  8
0
 48
0.6
100
AcDbLine
 10
59.67250374628203
 20
-60.50239325045049
 30
0.0
 11
60.57250374628346
 21
-60.50239325045049
 31
0.0
  0
LINE
  5
107
330
2
100
AcDbEntity
  8
0
 48
0.6
100
AcDbLine
 10
53.57250374628346
 20
-62.10113059197851
 30
0.0
 11
51.57250374628347
 21
-62.10113059197851
 31
0.0
  0
ARC
  5
108
330
2
100
AcDbEntity
  8
0
 48
0.6
100
AcDbCircle
 10
-22.9542525455181
 20
-64.10113059197761
 30
0.0
 40
5.0
100
AcDbArc
 50
0.0
 51
90.0
  0
ARC
  5
109
102
{ACAD_REACTORS
330
199
102
}
330
2
100
AcDbEntity
  8
CEN
 48
0.6
100
AcDbCircle
 10
-47.9542525455181
 20
-89.1011305919776
 30
0.0
 40
35.0
100
AcDbArc
 50
21.71935007261406
 51
51.18655059757116
  0
LINE
  5
10A
330
2
100
AcDbEntity
  8
CEN
 48
0.6
100
AcDbLine
 10
-26.21071902403855
 20
-67.35759707049169
 30
0.0
 11
-20.20031138394732
 21
-61.34718943040571
 31
0.0
  0
CIRCLE
  5
10B
330
2
100
AcDbEntity
  8
0
 48
0.6
100
AcDbCircle
 10
-23.20551520399749
 20
-64.3523932504495
 30
0.0
 40
2.25
  0
ARC
  5
10C
330
2
100
AcDbEntity
  8
0
 48
0.6
100
AcDbCircle
 10
-47.9542525455181
 20
-89.10113059197852
 30
0.0
 40
24.0
100
AcDbArc
 50
26.36567250321681
 51
63.63432749678904
  0
ARC
  5
10D
330
2
100
AcDbEntity
  8
0
 48
0.6
100
AcDbCircle
 10
-47.9542525455181
 20
-89.10113059197852
 30
0.0
 40
22.0
100
AcDbArc
 50
72.28019184719491
 51
107.7198081528049
  0
ARC
  5
10E
330
2
100
AcDbEntity
  8
0
 48
0.6
100
AcDbCircle
 10
-55.25895001306707
 20
-66.23977903727973
 30
0.0
 40
2.0
100
AcDbArc
 50
231.948674480613
 51
287.7198081528051
  0
ARC
  5
10F
330
2
100
AcDbEntity
  8
0
 48
0.6
100
AcDbCircle
 10
-57.72441852384871
 20
-69.38961475082852
 30
0.0
 40
2.0
100
AcDbArc
 50
51.94867448061305
 51
116.3656725032109
  0
ARC
  5
110
330
2
100
AcDbEntity
  8
0
 48
0.6
100
AcDbCircle
 10
-38.18408656718748
 20
-69.38961475082852
 30
0.0
 40
2.0
100
AcDbArc
 50
63.63432749678904
 51
128.0513255193867
  0
ARC
  5
111
330
2
100
AcDbEntity
  8
0
 48
0.6
100
AcDbCircle
 10
-40.64955507796731
 20
-66.23977903727973
 30
0.0
 40
2.0
100
AcDbArc
 50
252.2801918471949
 51
308.0513255193868
  0
ARC
  5
112
330
2
100
AcDbEntity
  8
CEN
 48
0.6
100
AcDbCircle
 10
-47.9542525455181
 20
-89.10113059197442
 30
0.0
 40
35.0
100
AcDbArc
 50
128.038373849838
 51
141.9616261501575
  0
LINE
  5
113
330
2
100
AcDbEntity
  8
CEN
 48
0.6
100
AcDbLine
 10
-69.69778606700675
 20
-67.35759707048782
 30
0.0
 11
-75.70819370709795
 21
-61.34718943040161
 31
0.0
  0
CIRCLE
  5
114
330
2
100
AcDbEntity
  8
0
 48
0.6
100
AcDbCircle
 10
-72.70298988704779
 20
-64.35239325044472
 30
0.0
 40
2.25
  0
ARC
  5
115
330
2
100
AcDbEntity
  8
0
 48
0.6
100
AcDbCircle
 10
-72.95425254551807
 20
-64.10113059197761
 30
0.0
 40
5.0
100
AcDbArc
 50
90.0
 51
180.0
  0
LINE
  5
116
330
2
100
AcDbEntity
  8
0
 48
0.6
100
AcDbLine
 10
-72.95425254551807
 20
-59.10113059197761
 30
0.0
 11
-22.9542525455181
 21
-59.10113059197761
 31
0.0
  0
ARC
  5
117
330
2
100
AcDbEntity
  8
0
 48
0.6
100
AcDbCircle
 10
-47.9542525455181
 20
-89.10113059197852
 30
0.0
 40
24.0
100
AcDbArc
 50
116.3656725032109
 51
153.634327496783
  0
MTEXT
  5
118
102
{ACAD_REACTORS
330
119
102
}
330
2
100
AcDbEntity
  8
0
 62
     3
100
AcDbMText
 10
-31.6283740510371
 20
-36.17117137910463
 30
0.0
 40
3.0
 41
0.0
 71
     9
 72
     1
  1
4-%%c4.5 hole
1001
ACAD
1000
MTEXTBEGIN
1070
    73
1070
     1
1070
    44
1040
1.0
1070
    74
1070
     0
1000
MTEXTEND
1000
MTEXTBEGIN
1070
    73
1070
     1
1070
    44
1040
1.0
1070
    74
1070
     0
1000
MTEXTEND
1000
MTEXTBEGIN
1070
    73
1070
     1
1070
    44
1040
1.0
1070
    74
1070
     0
1000
MTEXTEND
  0
LEADER
  5
119
330
2
100
AcDbEntity
  8
0
100
AcDbLeader
  3
STANDARD
 73
     0
 75
     1
 40
3.0
 41
26.65178571428571
 76
     3
 10
-23.12705689231916
 20
-62.60102489954785
 30
0.0
 10
-28.1283740510371
 20
-37.17117137910463
 30
0.0
 10
-30.6283740510371
 20
-37.17117137910463
 30
0.0
340
118
1001
ACAD
1000
DSTYLE
1002
{
1070
     5
1000

1070
   342
1005
0
1002
}
  0
ARC
  5
11A
330
2
100
AcDbEntity
  8
0
100
AcDbCircle
 10
70.72905778982203
 20
-126.9436533676896
 30
0.0
 40
0.5
100
AcDbArc
 50
90.0
 51
177.9685271120391
  0
ARC
  5
11B
330
2
100
AcDbEntity
  8
0
100
AcDbCircle
 10
66.16709269214334
 20
-122.7617879832495
 30
0.0
 40
1.318158315128889
100
AcDbArc
 50
89.6564224934487
 51
169.1029148372918
  0
LINE
  5
11C
330
2
100
AcDbEntity
  8
0
 48
0.6
100
AcDbLine
 10
70.57250374628345
 20
-118.6011305919784
 30
0.0
 11
70.57250374628345
 21
-119.1011305919784
 31
0.0
  0
ARC
  5
11D
330
2
100
AcDbEntity
  8
0
 48
0.6
100
AcDbCircle
 10
70.07250374628346
 20
-119.1011305919784
 30
0.0
 40
0.5
100
AcDbArc
 50
270.0
 51
0.0
  0
LINE
  5
11E
330
2
100
AcDbEntity
  8
0
 48
0.6
100
AcDbLine
 10
53.57250374628346
 20
-86.10113059195873
 30
0.0
 11
53.57250374629439
 21
-92.10113059200079
 31
0.0
  0
LINE
  5
11F
330
2
100
AcDbEntity
  8
0
 48
0.6
100
AcDbLine
 10
59.67250374628203
 20
-109.9998679335085
 30
0.0
 11
60.57250374628346
 21
-109.9998679335085
 31
0.0
  0
LINE
  5
120
330
2
100
AcDbEntity
  8
0
 48
0.6
100
AcDbLine
 10
53.57250374628346
 20
-119.1011305919784
 30
0.0
 11
59.67250374628203
 21
-119.1011305919784
 31
0.0
  0
LINE
  5
121
330
2
100
AcDbEntity
  8
0
 48
0.6
100
AcDbLine
 10
60.57250374628346
 20
-118.6011305919784
 30
0.0
 11
60.57250374628346
 21
-119.1011305919784
 31
0.0
  0
ARC
  5
122
330
2
100
AcDbEntity
  8
0
 48
0.6
100
AcDbCircle
 10
61.07250374628346
 20
-119.1011305919784
 30
0.0
 40
0.5
100
AcDbArc
 50
180.0
 51
270.0
  0
LINE
  5
123
330
2
100
AcDbEntity
  8
0
 48
0.6
100
AcDbLine
 10
59.67250374628203
 20
-117.6998679335084
 30
0.0
 11
60.57250374628346
 21
-117.6998679335084
 31
0.0
  0
LINE
  5
124
330
2
100
AcDbEntity
  8
0
 48
0.6
100
AcDbLine
 10
53.57250374628346
 20
-116.1011305919783
 30
0.0
 11
51.57250374628347
 21
-116.1011305919783
 31
0.0
  0
LINE
  5
125
330
2
100
AcDbEntity
  8
0
 48
0.6
100
AcDbLine
 10
60.57250374628346
 20
-109.9998679335085
 30
0.0
 11
60.57250374628346
 21
-117.6998679335084
 31
0.0
  0
LINE
  5
126
330
2
100
AcDbEntity
  8
0
 48
0.6
100
AcDbLine
 10
70.07250374628346
 20
-119.6011305919784
 30
0.0
 11
61.07250374628346
 21
-119.6011305919784
 31
0.0
  0
LINE
  5
127
330
2
100
AcDbEntity
  8
0
 48
0.6
100
AcDbLine
 10
29.57250374628347
 20
-86.60124097743667
 30
0.0
 11
30.07250374629439
 21
-86.10124097743662
 31
0.0
  0
LINE
  5
128
330
2
100
AcDbEntity
  8
0
 48
0.6
100
AcDbLine
 10
29.57250374628347
 20
-91.60102020652358
 30
0.0
 11
30.07250374629439
 21
-92.10102020652357
 31
0.0
  0
LINE
  5
129
330
2
100
AcDbEntity
  8
2
 48
0.6
100
AcDbLine
 10
30.07250374628346
 20
-86.10124097743662
 30
0.0
 11
30.07250374629439
 21
-92.10102020652357
 31
0.0
  0
LINE
  5
12B
330
2
100
AcDbEntity
  8
0
 48
0.6
100
AcDbLine
 10
29.57250374628347
 20
-86.60124097743667
 30
0.0
 11
29.57250374628347
 21
-91.60102020652358
 31
0.0
  0
LINE
  5
12C
330
2
100
AcDbEntity
  8
0
 48
0.6
100
AcDbLine
 10
30.07250374629439
 20
-86.10124097743662
 30
0.0
 11
51.57250374628347
 21
-86.10112099322259
 31
0.0
  0
LINE
  5
12D
330
2
100
AcDbEntity
  8
0
 48
0.6
100
AcDbLine
 10
30.07250374629439
 20
-92.10102020652357
 30
0.0
 11
51.57250374628347
 21
-92.10112099326259
 31
0.0
  0
ARC
  5
12E
330
2
100
AcDbEntity
  8
0
100
AcDbCircle
 10
62.33463507318266
 20
-131.0506546358365
 30
0.0
 40
8.907313409310658
100
AcDbArc
 50
24.23072274293794
 51
94.90087069775272
  0
ARC
  5
12F
330
2
100
AcDbEntity
  8
0
 48
0.6
100
AcDbCircle
 10
101.875225746282
 20
-119.6897765919784
 30
0.0
 40
39.15579199999999
100
AcDbArc
 50
179.8702870000233
 51
183.6102158837779
  0
ARC
  5
130
330
2
100
AcDbEntity
  8
0
 48
0.6
100
AcDbCircle
 10
102.1714316821817
 20
-119.7651650678295
 30
0.0
 40
37.855792
100
AcDbArc
 50
179.8658330000312
 51
183.9724199931055
  0
ARC
  5
131
330
2
100
AcDbEntity
  8
0
 48
0.6
100
AcDbCircle
 10
101.5827316930608
 20
-119.6034654829736
 30
0.0
 40
35.255792
100
AcDbArc
 50
179.9962054631615
 51
182.9919319862273
  0
ARC
  5
132
330
2
100
AcDbEntity
  8
0
 48
0.6
100
AcDbCircle
 10
101.875225746282
 20
-119.6897765919784
 30
0.0
 40
33.95579199999998
100
AcDbArc
 50
179.85042300002
 51
182.9607459492086
  0
LWPOLYLINE
  5
133
330
2
100
AcDbEntity
  8
0
100
AcDbPolyline
 90
      467
 70
     0
 43
0.0
 10
67.98158400881698
 20
-143.5787489192106
 10
67.98378229088779
 20
-143.5776738334288
 10
68.00402654113828
 20
-143.5678717327876
 10
68.02424600651761
 20
-143.5581798289155
 10
68.04444073013769
 20
-143.5485976795998
 10
68.06461075510856
 20
-143.5391248426298
 10
68.08475612453844
 20
-143.5297608757957
 10
68.1048768815592
 20
-143.5205053368858
 10
68.12497306924639
 20
-143.5113577836874
 10
68.14504473074816
 20
-143.5023177739896
 10
68.16509190915827
 20
-143.4933848655826
 10
68.18511464757945
 20
-143.4845586162543
 10
68.2051129891381
 20
-143.4758385837946
 10
68.22508697693888
 20
-143.4672243259907
 10
68.24503665409906
 20
-143.4587154006315
 10
68.26496206371778
 20
-143.4503113655068
 10
68.28486324890878
 20
-143.4420117784056
 10
68.30474025279841
 20
-143.4338161971147
 10
68.32459311847856
 20
-143.425724179425
 10
68.34442188907928
 20
-143.4177352831258
 10
68.3642266076979
 20
-143.4098490660027
 10
68.38400731744809
 20
-143.4020650858476
 10
68.4037640614381
 20
-143.3943829004477
 10
68.42349688278885
 20
-143.3868020675937
 10
68.44320582460864
 20
-143.3793221450707
 10
68.4628909300093
 20
-143.3719426906726
 10
68.4825522420881
 20
-143.3646632621845
 10
68.50218980397881
 20
-143.3574834173966
 10
68.5218036587678
 20
-143.3504027140976
 10
68.54139384959784
 20
-143.3434207100748
 10
68.56096041954811
 20
-143.3365369631178
 10
68.58050341174679
 20
-143.3297510310174
 10
68.60002286930764
 20
-143.3230624715608
 10
68.6195188353388
 20
-143.3164708425366
 10
68.63899135294673
 20
-143.3099757017347
 10
68.65844046524876
 20
-143.3035766069416
 10
68.67786621534763
 20
-143.2972731159466
 10
68.6972686463589
 20
-143.2910647865415
 10
68.71664780140895
 20
-143.2849511765127
 10
68.73600372357874
 20
-143.2789318436507
 10
68.7553364559983
 20
-143.2730063457408
 10
68.77464604178863
 20
-143.2671742405756
 10
68.79393252403793
 20
-143.2614350859426
 10
68.81319594586898
 20
-143.2557884396286
 10
68.83243635039732
 20
-143.2502338594266
 10
68.8516537807293
 20
-143.2447709031206
 10
68.87084827996773
 20
-143.2393991285035
 10
68.89001989123904
 20
-143.2341180933626
 10
68.90916865764778
 20
-143.2289273554855
 10
68.92829462230952
 20
-143.2238264726628
 10
68.94739782831789
 20
-143.2188150026816
 10
68.9664783188084
 20
-143.2138925033326
 10
68.98553613687841
 20
-143.2090585324028
 10
69.00457132564702
 20
-143.2043126476824
 10
69.02358392821884
 20
-143.1996544069616
 10
69.04257398770937
 20
-143.1950833680246
 10
69.06154154721774
 20
-143.1905990886648
 10
69.08048664987949
 20
-143.1862011266689
 10
69.09940933877919
 20
-143.1818890398236
 10
69.11830965704689
 20
-143.1776623859226
 10
69.137187647789
 20
-143.1735207227506
 10
69.15604335410829
 20
-143.1694636080998
 10
69.17487681912939
 20
-143.1654905997556
 10
69.19368808595867
 20
-143.1616012555086
 10
69.21247719769893
 20
-143.1577951331476
 10
69.2312441974675
 20
-143.1540717904615
 10
69.24998912838714
 20
-143.1504307852395
 10
69.2687120335479
 20
-143.1468716752686
 10
69.28741295607982
 20
-143.1433940183405
 10
69.30609193907843
 20
-143.1399973722406
 10
69.32474902566831
 20
-143.1366812947586
 10
69.34338425895953
 20
-143.1334453436859
 10
69.36199768204756
 20
-143.1302890768099
 10
69.38058933805883
 20
-143.1272120519175
 10
69.39915927010884
 20
-143.1242138267998
 10
69.41770752128761
 20
-143.1212939592448
 10
69.43623413472892
 20
-143.1184520070404
 10
69.45473915353727
 20
-143.1156875279768
 10
69.47322262081911
 20
-143.1130000798426
 10
69.49168457968813
 20
-143.1103892204268
 10
69.51012507324707
 20
-143.1078545075166
 10
69.52854414462968
 20
-143.1053954989045
 10
69.54694183691866
 20
-143.1030117523738
 10
69.56531819324777
 20
-143.1007028257176
 10
69.58367325671791
 20
-143.0984682767255
 10
69.60200707044646
 20
-143.0963076631815
 10
69.62031967753794
 20
-143.0942205428785
 10
69.63861112110794
 20
-143.0922064736035
 10
69.65688144426827
 20
-143.0902650131455
 10
69.67513069012897
 20
-143.0883957192935
 10
69.6933589017965
 20
-143.0865981498356
 10
69.71156612238814
 20
-143.0848718625626
 10
69.7297523950176
 20
-143.0832164152626
 10
69.74791776278768
 20
-143.0816313657236
 10
69.76606226881743
 20
-143.0801162717346
 10
69.78418595620974
 20
-143.0786706910847
 10
69.80228886808913
 20
-143.0772941815618
 10
69.82037104754749
 20
-143.0759863009576
 10
69.8384325377185
 20
-143.0747466070558
 10
69.8564733816886
 20
-143.0735746576505
 10
69.87449362259872
 20
-143.0724700105264
 10
69.89249330352982
 20
-143.0714322234748
 10
69.91047246761741
 20
-143.0704608542845
 10
69.9284311579588
 20
-143.0695554607436
 10
69.94636941766771
 20
-143.0687156006416
 10
69.96428728985961
 20
-143.0679408317645
 10
69.98218481763911
 20
-143.0672307119045
 10
70.00006204412899
 20
-143.0665847988505
 10
70.01791901242836
 20
-143.0660026503869
 10
70.03575576564731
 20
-143.0654838243086
 10
70.05357234690859
 20
-143.0650278783998
 10
70.07136879931863
 20
-143.0646343704505
 10
70.08914516598747
 20
-143.0643028582504
 10
70.1069014900288
 20
-143.0640328995897
 10
70.12463781454721
 20
-143.0638240522535
 10
70.14235418266729
 20
-143.0636758740319
 10
70.16005063748821
 20
-143.0635879227166
 10
70.17772722211816
 20
-143.0635597560925
 10
70.19538397967996
 20
-143.0635909319508
 10
70.21302095327996
 20
-143.0636810080788
 10
70.23063818603009
 20
-143.0638295422658
 10
70.24823572103855
 20
-143.0640360923018
 10
70.26581360141722
 20
-143.0643002159726
 10
70.28337187028887
 20
-143.0646214710705
 10
70.30091057074717
 20
-143.0649994153829
 10
70.31842974590948
 20
-143.0654336066988
 10
70.33592943888764
 20
-143.0659236028066
 10
70.35340969279899
 20
-143.0664689614959
 10
70.37087055074811
 20
-143.0670692405536
 10
70.38831205584687
 20
-143.0677239977686
 10
70.40573425121806
 20
-143.0684327909335
 10
70.42313717995899
 20
-143.0691951778336
 10
70.44052088517787
 20
-143.0700107162595
 10
70.45788540998842
 20
-143.0708789639996
 10
70.47523079751703
 20
-143.0717994788416
 10
70.49255709085923
 20
-143.0727718185736
 10
70.5098643331287
 20
-143.0737955409866
 10
70.52715256744818
 20
-143.0748702038696
 10
70.54442183691867
 20
-143.0759953650095
 10
70.56167218464839
 20
-143.0771705821954
 10
70.57890365374738
 20
-143.0783954132176
 10
70.59611628733843
 20
-143.0796694158646
 10
70.61331012853884
 20
-143.0809921479236
 10
70.63048522042959
 20
-143.0823631671857
 10
70.64764160614799
 20
-143.0837820314355
 10
70.66477932879866
 20
-143.0852482984685
 10
70.68189843148798
 20
-143.0867615260675
 10
70.69899895733875
 20
-143.0883212720249
 10
70.71608094944825
 20
-143.0899270941284
 10
70.73314445093751
 20
-143.0915785501655
 10
70.75018950490925
 20
-143.0932751979255
 10
70.7672161544881
 20
-143.0950165952006
 10
70.78422444276771
 20
-143.0968022997758
 10
70.80121441287817
 20
-143.0986318694408
 10
70.81818610790766
 20
-143.1005048619837
 10
70.83513957099717
 20
-143.1024208351946
 10
70.85207484523856
 20
-143.1043793468626
 10
70.86899197373828
 20
-143.106379954775
 10
70.88589099961905
 20
-143.1084222167198
 10
70.90277196598731
 20
-143.1105056904895
 10
70.91963491596764
 20
-143.1126299338706
 10
70.93647989264832
 20
-143.1147945046523
 10
70.95330693915752
 20
-143.1169989606226
 10
70.97011609859805
 20
-143.1192428595738
 10
70.98690741408905
 20
-143.1215257592898
 10
71.00368092872781
 20
-143.1238472175596
 10
71.02043668563895
 20
-143.1262067921768
 10
71.0371747279289
 20
-143.1286040409258
 10
71.05389509871679
 20
-143.1310385215978
 10
71.07059784109811
 20
-143.1335097919806
 10
71.08728299819745
 20
-143.1360174098636
 10
71.10395061311759
 20
-143.1385609330336
 10
71.12060072897953
 20
-143.1411399192827
 10
71.13723338887871
 20
-143.1437539263958
 10
71.15384863593796
 20
-143.1464025121664
 10
71.17044651328003
 20
-143.1490852343788
 10
71.18702706398767
 20
-143.1518016508256
 10
71.20359033119825
 20
-143.1545513192935
 10
71.22013635800908
 20
-143.1573337975707
 10
71.23666518752838
 20
-143.1601486434478
 10
71.25317686287893
 20
-143.1629954147108
 10
71.26967142715805
 20
-143.1658736691526
 10
71.28614892349766
 20
-143.1687829645585
 10
71.30260939499862
 20
-143.1717228587206
 10
71.31905288475831
 20
-143.1746929094249
 10
71.33547943590859
 20
-143.1776926744595
 10
71.35188909154862
 20
-143.1807217116166
 10
71.36828189479752
 20
-143.1837795786835
 10
71.38465788876715
 20
-143.1868658334487
 10
71.40101711655848
 20
-143.1899800337006
 10
71.41735962128881
 20
-143.1931217372287
 10
71.43368544605914
 20
-143.1962905018217
 10
71.44999463399767
 20
-143.1994858852664
 10
71.46628722821811
 20
-143.2027074453544
 10
71.48256327181774
 20
-143.2059547398756
 10
71.49882280790848
 20
-143.2092273266157
 10
71.51506587960944
 20
-143.2125247633639
 10
71.53129253001792
 20
-143.2158466079096
 10
71.54750280226767
 20
-143.2191924180428
 10
71.56369673945778
 20
-143.2225617515507
 10
71.5798743846874
 20
-143.2259541662225
 10
71.5960357810884
 20
-143.2293692198476
 10
71.6121809717672
 20
-143.2328064702145
 10
71.62830999981929
 20
-143.2362654751126
 10
71.64442290838017
 20
-143.2397457923294
 10
71.66051974053812
 20
-143.2432469796536
 10
71.67660053942859
 20
-143.2467685948765
 10
71.69266534813799
 20
-143.2503101957838
 10
71.70871420978731
 20
-143.2538713401656
 10
71.72474716749753
 20
-143.2574515858105
 10
71.74076426436773
 20
-143.2610504905087
 10
71.75676554351888
 20
-143.2646676120475
 10
71.77275104805744
 20
-143.2683025082156
 10
71.78872082108795
 20
-143.2719547368015
 10
71.80467490572961
 20
-143.2756238555986
 10
71.82061334508873
 20
-143.2793094223879
 10
71.8365361822882
 20
-143.2830109949638
 10
71.85244346041804
 20
-143.2867281311144
 10
71.86833522261736
 20
-143.2904603886264
 10
71.88421151196894
 20
-143.2942073252896
 10
71.90007237160831
 20
-143.2979684988935
 10
71.91591784462912
 20
-143.3017434672288
 10
71.93174797414688
 20
-143.3055317880776
 10
71.94756280327895
 20
-143.3093330192356
 10
71.96336237513901
 20
-143.3131467184885
 10
71.97914673282799
 20
-143.3169724436279
 10
71.99491591945776
 20
-143.3208097524388
 10
72.01066997814745
 20
-143.3246582027116
 10
72.02640895200898
 20
-143.3285173522345
 10
72.04213288413781
 20
-143.3323867587995
 10
72.05784181766761
 20
-143.3362659801905
 10
72.07353579568849
 20
-143.3401545741986
 10
72.08921486132862
 20
-143.3440520986135
 10
72.104879057689
 20
-143.3479581112248
 10
72.12052842788875
 20
-143.3518721698175
 10
72.13616301502884
 20
-143.3557938321835
 10
72.15178286223022
 20
-143.3597226561106
 10
72.16738801259748
 20
-143.3636581993876
 10
72.18297850924795
 20
-143.3676000198058
 10
72.19855439528807
 20
-143.3715476751487
 10
72.2141157138278
 20
-143.3755007232096
 10
72.22966250797913
 20
-143.3794587217747
 10
72.24519482086839
 20
-143.3834212286335
 10
72.26071269557838
 20
-143.3873878015766
 10
72.27621617524824
 20
-143.3913579983915
 10
72.29170530296801
 20
-143.3953313768679
 10
72.30718012185865
 20
-143.3993074947908
 10
72.32264067503752
 20
-143.4032859099538
 10
72.33808700560917
 20
-143.4072661801448
 10
72.3535191566782
 20
-143.4112478631485
 10
72.36893717136741
 20
-143.4152305167599
 10
72.38434109277957
 20
-143.4192136987625
 10
72.39973096402831
 20
-143.4231969669496
 10
72.41510682822919
 20
-143.4271798791056
 10
72.43046872848868
 20
-143.4311619930216
 10
72.44581670792945
 20
-143.4351428664876
 10
72.46115080963796
 20
-143.4391220572916
 10
72.47647107674787
 20
-143.4430991232206
 10
72.49177755236928
 20
-143.4470736220655
 10
72.50707027959766
 20
-143.4510451116136
 10
72.52234930155942
 20
-143.4550131496539
 10
72.53761466135916
 20
-143.4589772939766
 10
72.55286640210875
 20
-143.4629371023708
 10
72.56810456691823
 20
-143.4668921326216
 10
72.58332919889767
 20
-143.4708419425218
 10
72.59854034117894
 20
-143.4747860898575
 10
72.6137380368393
 20
-143.4787241324196
 10
72.62892232900893
 20
-143.4826556279975
 10
72.6440932607977
 20
-143.4865801343766
 10
72.65925087531764
 20
-143.4904972093485
 10
72.6743952156787
 20
-143.4944064107026
 10
72.68952632498734
 20
-143.4983072962249
 10
72.70464424636816
 20
-143.5021994237055
 10
72.71974902291844
 20
-143.5060823509346
 10
72.73484069774827
 20
-143.5099556356986
 10
72.74991931398767
 20
-143.5138188357877
 10
72.76498491473033
 20
-143.5176715089895
 10
72.78003754308816
 20
-143.5215132130946
 10
72.79507724218023
 20
-143.5253435058915
 10
72.81010405511847
 20
-143.5291619451697
 10
72.82511802499834
 20
-143.5329680887138
 10
72.84011919495902
 20
-143.5367614943196
 10
72.85510760807961
 20
-143.5405417197675
 10
72.87008330749745
 20
-143.5443083228539
 10
72.88504633631714
 20
-143.5480608613646
 10
72.89999673763782
 20
-143.5517988930865
 10
72.91493455458772
 20
-143.5555219758105
 10
72.92985983026778
 20
-143.5592296673268
 10
72.94477260778808
 20
-143.5629215254215
 10
72.95967293026773
 20
-143.5665971078845
 10
72.97456084080771
 20
-143.5702559725038
 10
72.98943638252898
 20
-143.5738976770687
 10
73.00429959853795
 20
-143.5775217793696
 10
73.0191505319483
 20
-143.5811278371938
 10
73.03398922586826
 20
-143.5847154083309
 10
73.04881572341878
 20
-143.5882840505665
 10
73.06363006768809
 20
-143.5918333216946
 10
73.07843230180809
 20
-143.5953627794996
 10
73.09322246888881
 20
-143.5988719817725
 10
73.10800061203853
 20
-143.6023604863026
 10
73.12276677436898
 20
-143.6058278508778
 10
73.13752099897944
 20
-143.6092736332865
 10
73.15226332899808
 20
-143.6126973913188
 10
73.16699380752766
 20
-143.6160986827625
 10
73.18171247768919
 20
-143.6194770654065
 10
73.19641938257814
 20
-143.6228320970386
 10
73.21111456531001
 20
-143.6261633354505
 10
73.22579806900944
 20
-143.6294703384265
 10
73.24046993676825
 20
-143.6327526637606
 10
73.25513021171833
 20
-143.6360098692385
 10
73.26977893694787
 20
-143.6392415126487
 10
73.28441615558881
 20
-143.6424471517826
 10
73.29904191074752
 20
-143.6456263444275
 10
73.31365624552859
 20
-143.6487786483716
 10
73.32825920303843
 20
-143.6519036214036
 10
73.34285082640893
 20
-143.6550008213135
 10
73.35743115872833
 20
-143.6580698058889
 10
73.37200024312847
 20
-143.6611101329189
 10
73.38655812269758
 20
-143.6641213601936
 10
73.40110484056753
 20
-143.6671030455005
 10
73.41564043984842
 20
-143.6700547466285
 10
73.43016496363748
 20
-143.6729760213675
 10
73.44467845504849
 20
-143.6758664275066
 10
73.45918095720958
 20
-143.6787255228306
 10
73.47367251321816
 20
-143.6815528651338
 10
73.48815316617877
 20
-143.6843480121996
 10
73.50262295921789
 20
-143.6871105218225
 10
73.51708193543823
 20
-143.6898399517875
 10
73.53153013795894
 20
-143.6925358598826
 10
73.54596760987918
 20
-143.6951978039006
 10
73.5603943943181
 20
-143.6978253416276
 10
73.57481053438934
 20
-143.7004180308528
 10
73.58921607319756
 20
-143.7029754293635
 10
73.60361105385822
 20
-143.7054970949529
 10
73.61799551947957
 20
-143.7079825854056
 10
73.63236951317889
 20
-143.7104314585105
 10
73.64673307805901
 20
-143.7128432720606
 10
73.66108625722995
 20
-143.7152175838409
 10
73.67542909381812
 20
-143.7175539516395
 10
73.68976163091907
 20
-143.7198519332476
 10
73.70408391164642
 20
-143.7221110864546
 10
73.71839597912843
 20
-143.7243309690466
 10
73.7326978764479
 20
-143.7265111388136
 10
73.74698964674758
 20
-143.7286511535466
 10
73.76127133310842
 20
-143.7307505710315
 10
73.77554297865867
 20
-143.7328089490569
 10
73.78980462650838
 20
-143.7348258454137
 10
73.8040563197694
 20
-143.7368008178895
 10
73.81829810154818
 20
-143.7387334242748
 10
73.83253001495837
 20
-143.7406232223557
 10
73.84675210310819
 20
-143.7424697699218
 10
73.86096440911867
 20
-143.7442726247635
 10
73.87516697609793
 20
-143.7460313446664
 10
73.88935984713794
 20
-143.7477454874226
 10
73.90354306537961
 20
-143.7494146108208
 10
73.91771667391846
 20
-143.7510382726496
 10
73.93188071586813
 20
-143.7526160306938
 10
73.94603523432966
 20
-143.7541474427477
 10
73.96018027243852
 20
-143.7556320665954
 10
73.97431587327925
 20
-143.7570694600316
 10
73.9884420799783
 20
-143.7584591808396
 10
74.00255893564757
 20
-143.7598007868096
 10
74.01666648339712
 20
-143.7610938357325
 10
74.0307647663278
 20
-143.7623378853956
 10
74.04485382756795
 20
-143.7635324935864
 10
74.05893371021851
 20
-143.7646772180945
 10
74.07300445738768
 20
-143.7657716167105
 10
74.08706611219827
 20
-143.7668152472237
 10
74.10111871774756
 20
-143.7678076674186
 10
74.11516231715835
 20
-143.7687484350869
 10
74.12919695353889
 20
-143.7696371080186
 10
74.1432226699883
 20
-143.7704732440008
 10
74.1572395096384
 20
-143.7712564008208
 10
74.17124751558843
 20
-143.7719861362696
 10
74.1852467309593
 20
-143.7726620081368
 10
74.19923719883922
 20
-143.7732835742086
 10
74.2132189623692
 20
-143.7738503922768
 10
74.22719206463739
 20
-143.7743620201276
 10
74.24115654876662
 20
-143.7748180155508
 10
74.25511245786696
 20
-143.7752179363346
 10
74.26905983504844
 20
-143.7755613402695
 10
74.28299872341927
 20
-143.7758477851426
 10
74.29692916609861
 20
-143.7760768287435
 10
74.31085120618741
 20
-143.7762480288605
 10
74.32476488679753
 20
-143.7763609432846
 10
74.33867025105904
 20
-143.7764151297995
 10
74.35256734205836
 20
-143.7764101462007
 10
74.36645620292916
 20
-143.7763455502725
 10
74.38033687675781
 20
-143.7762208998036
 10
74.39420940667813
 20
-143.7760357525846
 10
74.40807383578726
 20
-143.7757896664026
 10
74.42193020719719
 20
-143.7754821990499
 10
74.43577856403795
 20
-143.7751129083128
 10
74.44961894939776
 20
-143.7746813519799
 10
74.46345140639754
 20
-143.7741870878386
 10
74.47727597814742
 20
-143.7736296736806
 10
74.49109270775919
 20
-143.7730086672938
 10
74.50490163833752
 20
-143.7723236264668
 10
74.51870281300877
 20
-143.7715741089874
 10
74.53249627486844
 20
-143.7707596726475
 10
74.54628206703751
 20
-143.7698798752327
 10
74.56006023262784
 20
-143.7689342745308
 10
74.57383081474768
 20
-143.7679224283375
 10
74.58759385649798
 20
-143.7668438944337
 10
74.60134940100875
 20
-143.7656982306118
 10
74.61509749137917
 20
-143.7644849946595
 10
74.62883817072837
 20
-143.7632037443679
 10
74.64257148215915
 20
-143.7618540375228
 10
74.65629746878879
 20
-143.7604354319148
 10
74.67001617371829
 20
-143.7589474853326
 10
74.68372764007766
 20
-143.7573897555639
 10
74.69743191095881
 20
-143.7557618003996
 10
74.71112902948812
 20
-143.7540631776268
 10
74.72481903876837
 20
-143.7522934450336
 10
74.73850198191873
 20
-143.7504521604118
 10
74.75217790203828
 20
-143.7485388815485
 10
74.76584684224802
 20
-143.7465531662319
 10
74.77950884564712
 20
-143.7444945722496
 10
74.79316395536739
 20
-143.7423626573935
 10
74.80681221449706
 20
-143.7401569794516
 10
74.82045366617898
 20
-143.7378770962126
 10
74.8340883534886
 20
-143.7355225654636
 10
74.84771631954686
 20
-143.7330929449946
 10
74.86133760748749
 20
-143.7305877925948
 10
74.87495226038776
 20
-143.7280066660518
 10
74.88856032138868
 20
-143.7253491231578
 10
74.90216183358755
 20
-143.7226147216958
 10
74.91575684009807
 20
-143.7198030194596
 10
74.92934538402845
 20
-143.7169135742377
 10
74.94292750848877
 20
-143.7139459438157
 10
74.95650325659813
 20
-143.7108996859846
 10
74.97007267146841
 20
-143.7077743585338
 10
74.98363579619876
 20
-143.7045695192506
 10
74.99719267391744
 20
-143.7012847259235
 10
75.01074334771804
 20
-143.6979195363425
 10
75.024287860718
 20
-143.6944735082966
 10
75.03782625602909
 20
-143.6909461995756
 10
75.05135857676873
 20
-143.6873371679635
 10
75.06488486604872
 20
-143.6836459712544
 10
75.0784051669682
 20
-143.6798721672355
 10
75.09191952263904
 20
-143.6760153136958
 10
75.10542797618768
 20
-143.6720749684218
 10
75.1189305707187
 20
-143.6680506892045
 10
75.13242734933853
 20
-143.6639420338337
 10
75.14591835515898
 20
-143.6597485600948
 10
75.15940363128834
 20
-143.6554698257794
 10
75.17288322084755
 20
-143.6511053886755
 10
75.18635716694666
 20
-143.6466548065718
 10
75.19982551269753
 20
-143.6421176372579
 10
75.21328830119752
 20
-143.6374934385226
 10
75.22674557556751
 20
-143.6327817681525
 10
75.24019737892854
 20
-143.6279821839387
 10
75.25364375437972
 20
-143.6230942436685
 10
75.26708474502925
 20
-143.6181175051325
 10
75.28052039399813
 20
-143.6130515261185
 10
75.29395074438911
 20
-143.6078958644147
 10
75.30737583932864
 20
-143.6026500778108
 10
75.32079572190855
 20
-143.5973137240956
 10
75.334210435248
 20
-143.5918863610575
 10
75.34762002246793
 20
-143.5863675464845
 10
75.3610245266584
 20
-143.5807568381665
 10
75.37442399094766
 20
-143.5750537938935
 10
75.38781845844756
 20
-143.5692579714535
 10
75.40120797226814
 20
-143.5633689286336
 10
75.41459257550854
 20
-143.5573862232236
 10
75.42797231128793
 20
-143.5513094130136
 10
75.43772537127846
 20
-143.5468092249168
  0
TEXT
  5
134
330
2
100
AcDbEntity
  8
DIM
100
AcDbText
 10
-3.836276309017193
 20
-141.2829697815874
 30
0.0
 40
3.5
  1
 LEAD WIRE 300mm
100
AcDbText
  0
LINE
  5
136
330
2
100
AcDbEntity
  8
0
 62
   123
 48
0.6
100
AcDbLine
 10
54.04786146736114
 20
-143.2829697815875
 30
0.0
 11
-5.20629636000558
 21
-143.2829697815875
 31
0.0
  0
ARC
  5
137
330
2
100
AcDbEntity
  8
0
 48
0.6
100
AcDbCircle
 10
286.5053389343028
 20
-66.4930025091475
 30
0.0
 40
231.7214788627294
100
AcDbArc
 50
193.9043064994637
 51
199.4306418319062
  0
ARC
  5
138
330
2
100
AcDbEntity
  8
0
 48
0.6
100
AcDbCircle
 10
318.992805842232
 20
-59.60137370945241
 30
0.0
 40
257.6158251487993
100
AcDbArc
 50
195.2575172583966
 51
199.0173901936982
  0
LINE
  5
139
102
{ACAD_REACTORS
330
188
102
}
330
2
100
AcDbEntity
  8
0
  6
CENTER
 62
     1
 48
0.6
100
AcDbLine
 10
-47.9542525455181
 20
-89.1011305919776
 30
0.0
 11
-35.52784567432717
 21
-119.1011305919776
 31
0.0
  0
LINE
  5
13A
330
2
100
AcDbEntity
  8
0
 48
0.6
100
AcDbLine
 10
-32.80417066463815
 20
-119.1011305919776
 30
0.0
 11
-38.54522089115743
 21
-119.1011305919776
 31
0.0
  0
LINE
  5
13B
330
2
100
AcDbEntity
  8
0
100
AcDbLine
 10
-36.92093534418927
 20
-123.7348041890577
 30
0.0
 11
-30.42880399864769
 21
-120.8442042123267
 31
0.0
  0
ARC
  5
13C
330
2
100
AcDbEntity
  8
0
 48
0.6
100
AcDbCircle
 10
-2.011251133666517
 20
-104.7905779434374
 30
0.0
 40
39.15579199999999
100
AcDbArc
 50
201.4369589999631
 51
208.5517089163135
  0
ARC
  5
13D
330
2
100
AcDbEntity
  8
0
 48
0.6
100
AcDbCircle
 10
-69.34354168386743
 20
-132.6898292088174
 30
0.0
 40
39.15579199999999
100
AcDbArc
 50
16.65391050761257
 51
20.30648800596492
  0
ARC
  5
13E
330
2
100
AcDbEntity
  8
0
 48
0.6
100
AcDbCircle
 10
52.15881868432187
 20
-72.20122378758265
 30
0.0
 40
95.84808274048763
100
AcDbArc
 50
210.4975034246499
 51
218.0575295674634
  0
ARC
  5
13F
330
2
100
AcDbEntity
  8
0
 48
0.6
100
AcDbCircle
 10
-55.25895001306707
 20
-111.9624821466784
 30
0.0
 40
2.0
100
AcDbArc
 50
72.28019184719491
 51
128.0513255193867
  0
ARC
  5
140
330
2
100
AcDbEntity
  8
0
 48
0.6
100
AcDbCircle
 10
-57.72441852384871
 20
-108.8126464331287
 30
0.0
 40
2.0
100
AcDbArc
 50
243.634327496789
 51
308.0513255193868
  0
ARC
  5
141
330
2
100
AcDbEntity
  8
0
 48
0.6
100
AcDbCircle
 10
-38.18408656718748
 20
-108.8126464331287
 30
0.0
 40
2.0
100
AcDbArc
 50
231.948674480613
 51
296.3656725032108
  0
ARC
  5
142
330
2
100
AcDbEntity
  8
0
 48
0.6
100
AcDbCircle
 10
-40.64955507796731
 20
-111.9624821466784
 30
0.0
 40
2.0
100
AcDbArc
 50
51.94867448061305
 51
107.7198081528049
  0
ARC
  5
143
330
2
100
AcDbEntity
  8
0
 48
0.6
100
AcDbCircle
 10
-25.09290099081772
 20
-96.40582805952977
 30
0.0
 40
2.0
100
AcDbArc
 50
162.2801918472015
 51
218.0513255193776
  0
ARC
  5
144
330
2
100
AcDbEntity
  8
0
 48
0.6
100
AcDbCircle
 10
-28.24273670436742
 20
-98.87129657030868
 30
0.0
 40
2.0
100
AcDbArc
 50
333.6343274967831
 51
38.05132551937779
  0
ARC
  5
145
330
2
100
AcDbEntity
  8
0
 48
0.6
100
AcDbCircle
 10
-22.9542525455181
 20
-114.1011305919775
 30
0.0
 40
5.0
100
AcDbArc
 50
270.0
 51
0.0
  0
ARC
  5
146
330
2
100
AcDbEntity
  8
0
 48
0.6
100
AcDbCircle
 10
-47.9542525455181
 20
-89.10113059197852
 30
0.0
 40
22.0
100
AcDbArc
 50
342.2801918472013
 51
17.71980815279839
  0
ARC
  5
147
330
2
100
AcDbEntity
  8
0
 48
0.6
100
AcDbCircle
 10
-47.9542525455181
 20
-89.10113059197852
 30
0.0
 40
24.0
100
AcDbArc
 50
296.3656725032108
 51
333.6343274967831
  0
CIRCLE
  5
148
330
2
100
AcDbEntity
  8
0
 48
0.6
100
AcDbCircle
 10
-47.9542525455181
 20
-89.10113059197852
 30
0.0
 40
3.000000000000055
  0
CIRCLE
  5
149
330
2
100
AcDbEntity
  8
0
 48
0.6
100
AcDbCircle
 10
-47.9542525455181
 20
-89.10113059197852
 30
0.0
 40
2.000000000000053
  0
ARC
  5
14A
330
2
100
AcDbEntity
  8
0
 48
0.6
100
AcDbCircle
 10
-47.9542525455181
 20
-89.10113059197852
 30
0.0
 40
22.0
100
AcDbArc
 50
252.2801918471949
 51
287.7198081528051
  0
ARC
  5
14B
330
2
100
AcDbEntity
  8
CEN
 48
0.6
100
AcDbCircle
 10
-47.9542525455181
 20
-89.10113059197442
 30
0.0
 40
35.0
100
AcDbArc
 50
308.0383738498413
 51
321.9616261501601
  0
LINE
  5
14C
330
2
100
AcDbEntity
  8
CEN
 48
0.6
100
AcDbLine
 10
-26.21071902402764
 20
-110.8446641134607
 30
0.0
 11
-20.20031138394732
 21
-116.8550717535454
 31
0.0
  0
CIRCLE
  5
14D
330
2
100
AcDbEntity
  8
0
 48
0.6
100
AcDbCircle
 10
-23.2055152039884
 20
-113.8498679335045
 30
0.0
 40
2.25
  0
ARC
  5
14E
330
2
100
AcDbEntity
  8
0
 48
0.6
100
AcDbCircle
 10
-67.66576838666697
 20
-98.87129657030868
 30
0.0
 40
2.0
100
AcDbArc
 50
141.9486744806222
 51
206.3656725032168
  0
ARC
  5
14F
330
2
100
AcDbEntity
  8
0
 48
0.6
100
AcDbCircle
 10
-47.9542525455181
 20
-89.10113059197852
 30
0.0
 40
22.0
100
AcDbArc
 50
162.2801918472015
 51
197.7198081527984
  0
LINE
  5
150
330
2
100
AcDbEntity
  8
CEN
 48
0.6
100
AcDbLine
 10
-69.69778606700675
 20
-110.8446641134644
 30
0.0
 11
-75.70819370709795
 21
-116.8550717535508
 31
0.0
  0
CIRCLE
  5
151
330
2
100
AcDbEntity
  8
0
 48
0.6
100
AcDbCircle
 10
-72.70298988704779
 20
-113.8498679335077
 30
0.0
 40
2.25
  0
ARC
  5
152
330
2
100
AcDbEntity
  8
0
 48
0.6
100
AcDbCircle
 10
-70.81560410021666
 20
-96.40582805952977
 30
0.0
 40
2.0
100
AcDbArc
 50
321.9486744806221
 51
17.71980815279839
  0
ARC
  5
153
330
2
100
AcDbEntity
  8
0
 48
0.6
100
AcDbCircle
 10
-72.95425254551807
 20
-114.1011305919775
 30
0.0
 40
5.0
100
AcDbArc
 50
180.0
 51
270.0
  0
ARC
  5
154
330
2
100
AcDbEntity
  8
CEN
 48
0.6
100
AcDbCircle
 10
-47.9542525455181
 20
-89.1011305919776
 30
0.0
 40
35.0
100
AcDbArc
 50
199.5241366191914
 51
231.1865505975711
  0
LINE
  5
155
330
2
100
AcDbEntity
  8
0
 48
0.6
100
AcDbLine
 10
-72.95425254551807
 20
-119.1011305919776
 30
0.0
 11
-22.9542525455181
 21
-119.1011305919776
 31
0.0
  0
ARC
  5
156
330
2
100
AcDbEntity
  8
0
 48
0.6
100
AcDbCircle
 10
-47.9542525455181
 20
-89.10113059197852
 30
0.0
 40
24.0
100
AcDbArc
 50
206.3656725032168
 51
243.634327496789
  0
LINE
  5
157
330
2
100
AcDbEntity
  8
CEN
 48
0.6
100
AcDbLine
 10
-82.95425254551807
 20
-89.10113059197852
 30
0.0
 11
-12.9542525455181
 21
-89.10113059197852
 31
0.0
  0
ARC
  5
158
330
2
100
AcDbEntity
  8
0
 48
0.6
100
AcDbCircle
 10
64.21727390039269
 20
-64.97485611758452
 30
0.0
 40
116.9686661741607
100
AcDbArc
 50
210.1560153536115
 51
216.2412691602773
  0
LWPOLYLINE
  5
159
330
2
100
AcDbEntity
  8
0
100
AcDbPolyline
 90
      548
 70
     0
 43
0.0
 10
-30.12201415742675
 20
-134.1251821855504
 10
-30.11899874231858
 20
-134.1106087707657
 10
-30.11545029098852
 20
-134.0939490820973
 10
-30.11182287280643
 20
-134.0773960366307
 10
-30.10811674252726
 20
-134.0609492784984
 10
-30.10433215490775
 20
-134.0446084518216
 10
-30.10046936471734
 20
-134.0283732007327
 10
-30.09652862668918
 20
-134.0122431693575
 10
-30.09251019559632
 20
-133.9962180018206
 10
-30.08841432619738
 20
-133.9802973422505
 10
-30.08424127324723
 20
-133.9644808347774
 10
-30.0799912915063
 20
-133.9487681235256
 10
-30.07566463571857
 20
-133.9331588526206
 10
-30.07126156065714
 20
-133.9176526661935
 10
-30.06678232107697
 20
-133.9022492083684
 10
-30.0622271717275
 20
-133.8869481232736
 10
-30.05759636737639
 20
-133.8717490550365
 10
-30.05289016277675
 20
-133.8566516477855
 10
-30.04810881267804
 20
-133.8416555456435
 10
-30.04325257184791
 20
-133.8267603927402
 10
-30.03832169504858
 20
-133.8119658332064
 10
-30.03331643701858
 20
-133.7972715111616
 10
-30.02823705253831
 20
-133.7826770707386
 10
-30.02308379634814
 20
-133.7681821560644
 10
-30.01785692320662
 20
-133.7537864112624
 10
-30.0125566878778
 20
-133.7394894804645
 10
-30.00718334511657
 20
-133.7252910077944
 10
-30.00173714968696
 20
-133.7111906373807
 10
-29.99621835633842
 20
-133.6971880133486
 10
-29.99062721983864
 20
-133.6832827798266
 10
-29.98496399491703
 20
-133.6694745809444
 10
-29.97922893636678
 20
-133.6557630608256
 10
-29.97342229892637
 20
-133.6421478635976
 10
-29.96754433735805
 20
-133.6286286333894
 10
-29.96159530641671
 20
-133.6152050143277
 10
-29.95557546085729
 20
-133.6018766505394
 10
-29.94948505544744
 20
-133.5886431861497
 10
-29.94332434492752
 20
-133.5755042652874
 10
-29.93709358407794
 20
-133.5624595320815
 10
-29.93079302763726
 20
-133.5495086306577
 10
-29.92442293037674
 20
-133.5366512051415
 10
-29.91798354703678
 20
-133.5238868996607
 10
-29.91147513239775
 20
-133.5112153583447
 10
-29.90489794119821
 20
-133.4986362253177
 10
-29.89825222819672
 20
-133.4861491447094
 10
-29.89153824816821
 20
-133.4737537606444
 10
-29.8847562558476
 20
-133.4614497172505
 10
-29.877906506008
 20
-133.4492366586575
 10
-29.87098925339704
 20
-133.4371142289906
 10
-29.86400475277696
 20
-133.4250820723744
 10
-29.85695325890628
 20
-133.4131398329416
 10
-29.84983502654722
 20
-133.4012871548144
 10
-29.84265031044742
 20
-133.3895236821238
 10
-29.83539936536725
 20
-133.3778490589927
 10
-29.82808244605802
 20
-133.3662629295518
 10
-29.82069980729828
 20
-133.3547649379264
 10
-29.8132517038266
 20
-133.3433547282447
 10
-29.80573839039607
 20
-133.3320319446327
 10
-29.7981601217889
 20
-133.3207962312208
 10
-29.79051715273817
 20
-133.3096472321294
 10
-29.78280973801702
 20
-133.2985845914927
 10
-29.77503813237671
 20
-133.2876079534335
 10
-29.76720259056855
 20
-133.2767169620806
 10
-29.75930336735655
 20
-133.2659112615637
 10
-29.75134071749744
 20
-133.2551904960044
 10
-29.74331489575707
 20
-133.2445543095335
 10
-29.73522615687761
 20
-133.2340023462774
 10
-29.72707475562674
 20
-133.2235342503613
 10
-29.71886094675756
 20
-133.2131496659174
 10
-29.7105849850268
 20
-133.2028482370667
 10
-29.70224712519847
 20
-133.1926296079407
 10
-29.69384762202571
 20
-133.1824934226657
 10
-29.68538673026705
 20
-133.1724393253675
 10
-29.67686470467743
 20
-133.1624669601747
 10
-29.66828180001721
 20
-133.1525759712125
 10
-29.65963827103769
 20
-133.1427660026103
 10
-29.65093437250652
 20
-133.1330366984937
 10
-29.6421703591768
 20
-133.1233877029908
 10
-29.63334648579802
 20
-133.1138186602285
 10
-29.62446300714691
 20
-133.1043292143347
 10
-29.61552017795657
 20
-133.0949190094335
 10
-29.60651825300738
 20
-133.0855876896553
 10
-29.5974574870379
 20
-133.0763348991264
 10
-29.5883381348176
 20
-133.0671602819745
 10
-29.57916045110687
 20
-133.0580634823245
 10
-29.56992469064789
 20
-133.0490441443044
 10
-29.5606311082065
 20
-133.0401019120424
 10
-29.55127995854672
 20
-133.0312364296674
 10
-29.54187149641802
 20
-133.0224473413015
 10
-29.53240597658805
 20
-133.0137342910753
 10
-29.52288365379717
 20
-133.0050969231165
 10
-29.51330478280579
 20
-132.9965348815504
 10
-29.50366961838699
 20
-132.9880478105058
 10
-29.49397841528844
 20
-132.9796353541078
 10
-29.48423142826868
 20
-132.9712971564835
 10
-29.47442891207719
 20
-132.9630328617635
 10
-29.46457112148891
 20
-132.9548421140704
 10
-29.45465831124784
 20
-132.9467245575358
 10
-29.44469073611799
 20
-132.9386798362818
 10
-29.43466865084701
 20
-132.9307075944415
 10
-29.42459231020619
 20
-132.9228074761364
 10
-29.41446196893775
 20
-132.9149791254974
 10
-29.40427788181841
 20
-132.9072221866492
 10
-29.39404030358855
 20
-132.8995363037227
 10
-29.38374948900673
 20
-132.8919211208404
 10
-29.37340569283879
 20
-132.8843762821316
 10
-29.36300916983782
 20
-132.8769014317226
 10
-29.35256017476786
 20
-132.8694962137425
 10
-29.34205896237653
 20
-132.8621602723167
 10
-29.3315057874388
 20
-132.8548932515748
 10
-29.32090090468772
 20
-132.8476947956396
 10
-29.31024456888735
 20
-132.8405645486402
 10
-29.29953703480713
 20
-132.8335021547077
 10
-29.28877855719656
 20
-132.8265072579627
 10
-29.27796939081781
 20
-132.8195795025374
 10
-29.26710979041853
 20
-132.8127185325564
 10
-29.25620001076822
 20
-132.8059239921467
 10
-29.24524030661814
 20
-132.7991955254375
 10
-29.23423093271776
 20
-132.7925327765528
 10
-29.22317214384747
 20
-132.7859353896224
 10
-29.21206419473856
 20
-132.7794030087725
 10
-29.20090734016776
 20
-132.7729352781304
 10
-29.18970183487727
 20
-132.7665318418254
 10
-29.17844793363837
 20
-132.7601923439786
 10
-29.16714589119692
 20
-132.7539164287234
 10
-29.15579596232601
 20
-132.7477037401854
 10
-29.14439840176783
 20
-132.7415539224887
 10
-29.13295346428822
 20
-132.7354666197634
 10
-29.12146140463846
 20
-132.7294414761356
 10
-29.10992247757713
 20
-132.7234781357337
 10
-29.09833693786822
 20
-132.7175762426825
 10
-29.08670504025576
 20
-132.7117354411127
 10
-29.07502703951831
 20
-132.7059553751464
 10
-29.06330319039625
 20
-132.7002356889164
 10
-29.05153374765723
 20
-132.6945760265455
 10
-29.03971896604707
 20
-132.6889760321616
 10
-29.02785910033889
 20
-132.6834353498957
 10
-29.01595440527671
 20
-132.6779536238696
 10
-29.00400513561726
 20
-132.6725304982135
 10
-28.99201154612637
 20
-132.6671656170516
 10
-28.97997389156808
 20
-132.6618586245156
 10
-28.96789242667728
 20
-132.6566091647294
 10
-28.95576740623801
 20
-132.6514168818216
 10
-28.94359908498882
 20
-132.6462814199194
 10
-28.93138771768827
 20
-132.6412024231497
 10
-28.91913355909673
 20
-132.6361795356374
 10
-28.90683686397642
 20
-132.6312124015124
 10
-28.89449788708771
 20
-132.6263006648995
 10
-28.88211688317824
 20
-132.6214439699294
 10
-28.86969410700658
 20
-132.6166419607264
 10
-28.85722981333674
 20
-132.6118942814183
 10
-28.8447242569182
 20
-132.6072005761337
 10
-28.83217769251677
 20
-132.6025604889975
 10
-28.81959037488741
 20
-132.5979736641377
 10
-28.80696255877774
 20
-132.5934397456794
 10
-28.79429449896814
 20
-132.5889583777545
 10
-28.7815864501881
 20
-132.5845292044874
 10
-28.76883866721799
 20
-132.5801518700035
 10
-28.75605140479819
 20
-132.5758260184327
 10
-28.74322491769817
 20
-132.5715512939036
 10
-28.7303594606783
 20
-132.5673273405377
 10
-28.71745528847714
 20
-132.5631538024677
 10
-28.7045126558678
 20
-132.5590303238165
 10
-28.69153181760703
 20
-132.5549565487135
 10
-28.67851302844792
 20
-132.5509321212875
 10
-28.66545654314723
 20
-132.5469566856612
 10
-28.65236261646714
 20
-132.5430298859654
 10
-28.63923150316804
 20
-132.5391513663265
 10
-28.62606345799759
 20
-132.5353207708714
 10
-28.61285873571796
 20
-132.5315377437266
 10
-28.59961759108773
 20
-132.5278019290194
 10
-28.58634027885637
 20
-132.5241129708786
 10
-28.57302705379698
 20
-132.5204705134276
 10
-28.55967817064628
 20
-132.5168742007984
 10
-28.54629388418834
 20
-132.5133236771155
 10
-28.53287444915622
 20
-132.5098185865053
 10
-28.51942012031758
 20
-132.5063585730954
 10
-28.50593115243828
 20
-132.5029432810147
 10
-28.49240780025684
 20
-132.4995723543906
 10
-28.47885031854821
 20
-132.4962454373455
 10
-28.46525896205639
 20
-132.4929621740106
 10
-28.45163398555632
 20
-132.4897222085135
 10
-28.43797564378837
 20
-132.4865251849796
 10
-28.42428419150564
 20
-132.4833707475365
 10
-28.41055988348853
 20
-132.4802585403112
 10
-28.39680297447739
 20
-132.4771882074317
 10
-28.38301371923807
 20
-132.4741593930246
 10
-28.36919237252732
 20
-132.4711717412144
 10
-28.35533918908912
 20
-132.4682248961337
 10
-28.34145442369845
 20
-132.4653185019065
 10
-28.32753833110655
 20
-132.4624522026587
 10
-28.31359116606836
 20
-132.4596256425204
 10
-28.2996131833479
 20
-132.4568384656147
 10
-28.28560463768734
 20
-132.4540903160734
 10
-28.27156578386711
 20
-132.4513808380224
 10
-28.25749687661846
 20
-132.4487096755863
 10
-28.24339817072722
 20
-132.4460764728945
 10
-28.22926992092652
 20
-132.4434808740748
 10
-28.21511238198763
 20
-132.4409225232516
 10
-28.20092580866731
 20
-132.4384010645524
 10
-28.18671045571864
 20
-132.4359161421082
 10
-28.17246657789656
 20
-132.4334674000425
 10
-28.15819442996689
 20
-132.4310544824825
 10
-28.14389426668821
 20
-132.4286770335574
 10
-28.12956634280635
 20
-132.4263346973933
 10
-28.11521091307804
 20
-132.4240271181186
 10
-28.10082823227639
 20
-132.4217539398565
 10
-28.08641855515634
 20
-132.4195148067385
 10
-28.07198213645643
 20
-132.4173093628874
 10
-28.05751923095704
 20
-132.4151372524364
 10
-28.04303009339673
 20
-132.4129981195063
 10
-28.0285149785468
 20
-132.4108916082284
 10
-28.01397414116763
 20
-132.4088173627285
 10
-27.99940783599776
 20
-132.4067750271344
 10
-27.98481631780669
 20
-132.4047642455725
 10
-27.97019984135657
 20
-132.4027846621713
 10
-27.95555866139875
 20
-132.4008359210556
 10
-27.9408930326881
 20
-132.3989176663533
 10
-27.92620320998867
 20
-132.3970295421927
 10
-27.91148944805717
 20
-132.3951711926995
 10
-27.89675200164674
 20
-132.3933422620025
 10
-27.88199112551774
 20
-132.3915423942267
 10
-27.8672070744269
 20
-132.3897712335017
 10
-27.85240010312736
 20
-132.3880284239524
 10
-27.83757046637765
 20
-132.3863136097068
 10
-27.82271841894726
 20
-132.3846264348935
 10
-27.80784421558928
 20
-132.3829665436354
 10
-27.79294811104773
 20
-132.3813335800664
 10
-27.77803036008844
 20
-132.3797271883074
 10
-27.76309121747726
 20
-132.3781470124897
 10
-27.74813093795637
 20
-132.3765926967378
 10
-27.73314977629707
 20
-132.3750638851804
 10
-27.71814798724699
 20
-132.3735602219437
 10
-27.70312582556835
 20
-132.3720813511545
 10
-27.68808354601787
 20
-132.3706269169405
 10
-27.67302140335778
 20
-132.3691965634304
 10
-27.65793965233751
 20
-132.3677899347484
 10
-27.64283854771747
 20
-132.3664066750257
 10
-27.6277183442562
 20
-132.3650464283848
 10
-27.61257929670682
 20
-132.3637088389546
 10
-27.59742165983698
 20
-132.3623935508627
 10
-27.58224568838704
 20
-132.3611002082367
 10
-27.5670516371374
 20
-132.3598284552033
 10
-27.55183976082662
 20
-132.3585779358894
 10
-27.53661031421688
 20
-132.3573482944235
 10
-27.52136355207585
 20
-132.3561391749308
 10
-27.50609972914753
 20
-132.3549502215387
 10
-27.49081910019777
 20
-132.3537810783735
 10
-27.47552191997782
 20
-132.3526313895667
 10
-27.46020844325721
 20
-132.3515007992396
 10
-27.44487892477627
 20
-132.3503889515234
 10
-27.42953361929721
 20
-132.3492954905444
 10
-27.41417278158769
 20
-132.3482200604295
 10
-27.39879666639717
 20
-132.3471623053054
 10
-27.38340552848784
 20
-132.3461218692987
 10
-27.36799962260555
 20
-132.3450983965385
 10
-27.35257920352704
 20
-132.3440915311504
 10
-27.33714452599814
 20
-132.3431009172603
 10
-27.32169584477742
 20
-132.3421261989997
 10
-27.30623341461796
 20
-132.3411670204925
 10
-27.29075749027652
 20
-132.3402230258668
 10
-27.27526832652802
 20
-132.3392938592486
 10
-27.25976617810738
 20
-132.3383791647656
 10
-27.24425129978771
 20
-132.3374785865464
 10
-27.22872394631667
 20
-132.3365917687147
 10
-27.21318437245645
 20
-132.3357183554005
 10
-27.19763283296741
 20
-132.3348579907319
 10
-27.18206958260633
 20
-132.3340103188336
 10
-27.16649487612631
 20
-132.3331749838336
 10
-27.15090896828769
 20
-132.3323516298596
 10
-27.13531211384724
 20
-132.3315399010384
 10
-27.11970456755623
 20
-132.3307394414944
 10
-27.10408658418782
 20
-132.3299498953595
 10
-27.08845841847687
 20
-132.3291709067584
 10
-27.07282032520561
 20
-132.3284021198187
 10
-27.05717255911803
 20
-132.3276431786664
 10
-27.04151537497637
 20
-132.3268937274308
 10
-27.02584902752642
 20
-132.3261534102357
 10
-27.01017377154857
 20
-132.3254218712124
 10
-26.99448986176685
 20
-132.3246987544854
 10
-26.97879755297797
 20
-132.3239837041824
 10
-26.96309709990782
 20
-132.3232763644305
 10
-26.94738875732764
 20
-132.3225763793574
 10
-26.93167277998873
 20
-132.3218833930905
 10
-26.91594942265692
 20
-132.3211970497557
 10
-26.90021894008896
 20
-132.3205169934804
 10
-26.88448158703795
 20
-132.3198428683906
 10
-26.8687376182679
 20
-132.3191743186166
 10
-26.85298728851739
 20
-132.3185109882847
 10
-26.83723085256679
 20
-132.3178525215195
 10
-26.82146856516737
 20
-132.3171985624495
 10
-26.80570068106863
 20
-132.3165487552045
 10
-26.78992745502728
 20
-132.3159027439075
 10
-26.77414914181827
 20
-132.3152601726874
 10
-26.7583659961765
 20
-132.3146206856717
 10
-26.74257827287692
 20
-132.3139839269874
 10
-26.72678622666717
 20
-132.3133495407605
 10
-26.71099011230761
 20
-132.3127171711215
 10
-26.69519018455685
 20
-132.3120864621937
 10
-26.67938669817703
 20
-132.3114570581065
 10
-26.66357990791766
 20
-132.3108286029845
 10
-26.64777006853728
 20
-132.3102007409586
 10
-26.63195743479809
 20
-132.3095731161527
 10
-26.61614226144775
 20
-132.3089453726954
 10
-26.60032480325753
 20
-132.3083171547164
 10
-26.58450531496781
 20
-132.3076881063364
 10
-26.56868405135719
 20
-132.3070578716885
 10
-26.55286126716783
 20
-132.3064260948964
 10
-26.53703721715646
 20
-132.3057924200886
 10
-26.52121215609803
 20
-132.3051564913935
 10
-26.50538633872747
 20
-132.3045179529356
 10
-26.48956001981787
 20
-132.3038764488437
 10
-26.47373345411688
 20
-132.3032316232447
 10
-26.45790689638852
 20
-132.3025831202637
 10
-26.44208060138771
 20
-132.3019305840325
 10
-26.42625482387666
 20
-132.3012736586747
 10
-26.41042981859754
 20
-132.3006119883164
 10
-26.39460584032713
 20
-132.2999452170885
 10
-26.37878314381669
 20
-132.2992729891165
 10
-26.36296198382661
 20
-132.2985949485274
 10
-26.34714261509725
 20
-132.2979107394467
 10
-26.33132529240719
 20
-132.2972200060037
 10
-26.31551027049681
 20
-132.2965223923245
 10
-26.29969780413921
 20
-132.2958175425385
 10
-26.28388814808932
 20
-132.2951051007684
 10
-26.26808155708749
 20
-132.2943847111465
 10
-26.25227828590686
 20
-132.2936560177965
 10
-26.23647858930599
 20
-132.2929186648464
 10
-26.22068272203796
 20
-132.2921722964233
 10
-26.2048909388559
 20
-132.2914165566535
 10
-26.18910349452562
 20
-132.2906510896655
 10
-26.17332064380571
 20
-132.2898755395865
 10
-26.15754264143834
 20
-132.2890895505435
 10
-26.14176974219662
 20
-132.2882927666626
 10
-26.12600220083732
 20
-132.2874848320724
 10
-26.11024027210623
 20
-132.2866653908995
 10
-26.0944842107765
 20
-132.2858340872695
 10
-26.07873427158847
 20
-132.2849905653122
 10
-26.06299070930617
 20
-132.2841344691526
 10
-26.04725377869726
 20
-132.2832654429195
 10
-26.03152373451848
 20
-132.2823831307384
 10
-26.01580083150655
 20
-132.2814871767377
 10
-26.00008532443826
 20
-132.2805772250436
 10
-25.98437746806848
 20
-132.2796529197846
 10
-25.96867751714671
 20
-132.2787139050884
 10
-25.95298572643878
 20
-132.2777598250784
 10
-25.93730235069779
 20
-132.2767903238867
 10
-25.92162764467683
 20
-132.2758050456344
 10
-25.90596186314724
 20
-132.2748036344555
 10
-25.89030526085661
 20
-132.2737857344714
 10
-25.87465809255627
 20
-132.2727509898136
 10
-25.85902061301748
 20
-132.2716990446056
 10
-25.84339307699702
 20
-132.2706295429777
 10
-25.82777573923886
 20
-132.2695421290527
 10
-25.81216885451794
 20
-132.2684364469635
 10
-25.79657267756737
 20
-132.2673121408324
 10
-25.78098746317846
 20
-132.2661688547897
 10
-25.765413466077
 20
-132.2650062329624
 10
-25.74985094103794
 20
-132.2638239194757
 10
-25.73430014281802
 20
-132.2626215584554
 10
-25.71876132616671
 20
-132.2613987940335
 10
-25.70323474583711
 20
-132.2601552703354
 10
-25.68772065660596
 20
-132.2588906314855
 10
-25.67221931321728
 20
-132.2576045216135
 10
-25.65673097043873
 20
-132.2562965848455
 10
-25.64125588301795
 20
-132.2549664653086
 10
-25.62579430570622
 20
-132.2536138071314
 10
-25.61034649327666
 20
-132.2522382544383
 10
-25.59491270048784
 20
-132.2508394513594
 10
-25.57949318207647
 20
-132.2494170420204
 10
-25.56408819281751
 20
-132.2479706705495
 10
-25.54869798746767
 20
-132.2464999810714
 10
-25.53332282077644
 20
-132.2450046177173
 10
-25.51796294750602
 20
-132.2434842246107
 10
-25.50261862241677
 20
-132.2419384458787
 10
-25.48729010026726
 20
-132.2403669256497
 10
-25.47197763579787
 20
-132.2387693080534
 10
-25.45668148379808
 20
-132.2371452372125
 10
-25.44140189898826
 20
-132.2354943572565
 10
-25.42613913614696
 20
-132.2338163123106
 10
-25.4108934500382
 20
-132.2321107465068
 10
-25.39566509539691
 20
-132.2303773039652
 10
-25.3804543270071
 20
-132.2286156288174
 10
-25.36526139960733
 20
-132.2268253651915
 10
-25.35008656795616
 20
-132.2250061572108
 10
-25.33493008681762
 20
-132.2231576490075
 10
-25.31979221094661
 20
-132.2212794847024
 10
-25.30467319510717
 20
-132.2193713084276
 10
-25.28957329404875
 20
-132.2174327643105
 10
-25.27449276252628
 20
-132.2154634964747
 10
-25.25943185529831
 20
-132.2134631490494
 10
-25.24439082713797
 20
-132.2114313661595
 10
-25.22936993278744
 20
-132.2093677919358
 10
-25.21436942699802
 20
-132.2072720705046
 10
-25.19938956454643
 20
-132.2051438459907
 10
-25.18443060017671
 20
-132.2029827625235
 10
-25.1694927886474
 20
-132.2007884642284
 10
-25.15457638472617
 20
-132.1985605952347
 10
-25.13968164315702
 20
-132.1962987996674
 10
-25.12480881870578
 20
-132.1940027216564
 10
-25.10995816612739
 20
-132.1916720053248
 10
-25.09512994017677
 20
-132.1893062948024
 10
-25.08032439561793
 20
-132.1869052342167
 10
-25.06554178719671
 20
-132.1844684676934
 10
-25.05078236968802
 20
-132.1819956393617
 10
-25.03604639783771
 20
-132.1794863933476
 10
-25.02133412640614
 20
-132.1769403737757
 10
-25.00664581014826
 20
-132.1743572247767
 10
-24.99198170381712
 20
-132.1717365904754
 10
-24.97734206218773
 20
-132.1690781150016
 10
-24.9627271399986
 20
-132.1663814424825
 10
-24.94813719201737
 20
-132.1636462170417
 10
-24.93357247300628
 20
-132.1608720828076
 10
-24.91903323770566
 20
-132.1580586839097
 10
-24.90451974088682
 20
-132.1552056644714
 10
-24.89003223730651
 20
-132.1523126686236
 10
-24.87557098170691
 20
-132.1493793404904
 10
-24.86113622887751
 20
-132.1464053242023
 10
-24.84672823353867
 20
-132.1433902638825
 10
-24.83234725047805
 20
-132.1403338036627
 10
-24.81799353442692
 20
-132.1372355876657
 10
-24.80366734016751
 20
-132.1340952600196
 10
-24.78936892244746
 20
-132.1309124648535
 10
-24.77509853601805
 20
-132.1276868462945
 10
-24.76085643563783
 20
-132.1244180484677
 10
-24.74664287606902
 20
-132.1211057155005
 10
-24.73245811207744
 20
-132.1177494915214
 10
-24.71830239839801
 20
-132.1143490206563
 10
-24.70417598980748
 20
-132.1109039470325
 10
-24.69007914106803
 20
-132.1074139147795
 10
-24.67601210690736
 20
-132.1038785680215
 10
-24.66197514211853
 20
-132.1002975508885
 10
-24.6479685014383
 20
-132.0966705075035
 10
-24.63399243961794
 20
-132.0929970819963
 10
-24.62004721143784
 20
-132.0892769184945
 10
-24.60613307163839
 20
-132.0855096611236
 10
-24.59225027498723
 20
-132.0816949540123
 10
-24.57839907622656
 20
-132.0778324412866
 10
-24.56457973013856
 20
-132.0739217670744
 10
-24.55079249145637
 20
-132.0699625755034
 10
-24.53703761494761
 20
-132.0659545106987
 10
-24.52331535536723
 20
-132.0618972167897
 10
-24.50962596747738
 20
-132.0577903379005
 10
-24.49596970603852
 20
-132.0536335181623
 10
-24.48234682578732
 20
-132.0494264016984
 10
-24.46875758150599
 20
-132.0451686326407
 10
-24.45520222794764
 20
-132.0408598551104
 10
-24.44168101985815
 20
-132.0364997132394
 10
-24.42819421200693
 20
-132.0320878511527
 10
-24.41474205913801
 20
-132.0276239129764
 10
-24.40132481602631
 20
-132.0231075428405
 10
-24.38794273741768
 20
-132.0185383848714
 10
-24.37459607806704
 20
-132.0139160831953
 10
-24.36128509274748
 20
-132.0092402819383
 10
-24.34801003619757
 20
-132.0045106252306
 10
-24.33477116318863
 20
-131.9997267571966
 10
-24.32156872845735
 20
-131.9948883219655
 10
-24.30840298678777
 20
-131.9899949636605
 10
-24.29527419292753
 20
-131.9850463264144
 10
-24.28218260163885
 20
-131.9800420543517
 10
-24.26912846765663
 20
-131.9749817915976
 10
-24.25611204576853
 20
-131.9698651822825
 10
-24.24313359071857
 20
-131.9646918705315
 10
-24.23019335725802
 20
-131.9594615004725
 10
-24.21729160014729
 20
-131.9541737162317
 10
-24.20442857414673
 20
-131.9488281619385
 10
-24.19160453402763
 20
-131.9434244817174
 10
-24.17881973451767
 20
-131.9379623196998
 10
-24.16607443040629
 20
-131.9324413200055
 10
-24.15336887642661
 20
-131.9268611267675
 10
-24.14070332734809
 20
-131.9212213841144
 10
-24.12807803791837
 20
-131.9155217361667
 10
-24.11549326290696
 20
-131.9097618270566
 10
-24.10294925706875
 20
-131.9039413009095
 10
-24.09044627514777
 20
-131.8980598018524
 10
-24.07798457191711
 20
-131.8921169740147
 10
-24.06556440213717
 20
-131.8861124615205
 10
-24.05318602055739
 20
-131.8800459084984
 10
-24.04084968192728
 20
-131.8739169590745
 10
-24.02855564101809
 20
-131.8677252573785
 10
-24.0163041525775
 20
-131.8614704475334
 10
-24.00409547136769
 20
-131.8551521736724
 10
-23.99192985214721
 20
-131.8487700799175
 10
-23.97980754967647
 20
-131.8423238103955
 10
-23.96772881870673
 20
-131.8358130092375
 10
-23.95569391398749
 20
-131.8292373205686
 10
-23.94370309029727
 20
-131.8225963885154
 10
-23.93175660237648
 20
-131.8158898572066
 10
-23.91985470499821
 20
-131.8091173707666
 10
-23.90799765290648
 20
-131.8022785733255
 10
-23.8961857008562
 20
-131.7953731090085
 10
-23.88441910361871
 20
-131.7884006219445
 10
-23.87269811593796
 20
-131.7813607562594
 10
-23.86102299257617
 20
-131.7742531560807
 10
-23.84939398829737
 20
-131.7670774655334
 10
-23.83781135785647
 20
-131.7598333287483
 10
-23.82627535600659
 20
-131.7525203898517
 10
-23.81478623750627
 20
-131.7451382929694
 10
-23.80334425711771
 20
-131.7376866822296
 10
-23.79194966958674
 20
-131.7301652017565
 10
-23.78060272968832
 20
-131.7225734956827
 10
-23.76930369215732
 20
-131.7149112081305
 10
-23.7580528117778
 20
-131.7071779832305
 10
-23.7468503432883
 20
-131.6993734651065
 10
-23.73569654144739
 20
-131.6914972978895
 10
-23.72459166102635
 20
-131.6835491257015
 10
-23.71353595676737
 20
-131.6755285926745
 10
-23.7025296834272
 20
-131.6674353429343
 10
-23.69157309577713
 20
-131.6592690206084
 10
-23.68066644856843
 20
-131.6510292698214
 10
-23.66980999655607
 20
-131.6427157347016
 10
-23.65900399449673
 20
-131.6343280593787
 10
-23.6482486971563
 20
-131.6258658879754
 10
-23.63754435928786
 20
-131.6173288646235
 10
-23.62689123563904
 20
-131.6087166334465
 10
-23.61628958097753
 20
-131.6000288385746
 10
-23.60573965006732
 20
-131.5912651241317
 10
-23.595241697647
 20
-131.5824251342486
 10
-23.58479597848782
 20
-131.5735085130488
 10
-23.57440274734835
 20
-131.5645149046604
 10
-23.56406225897807
 20
-131.5554439532125
 10
-23.55377476813919
 20
-131.5462953028317
 10
-23.54354052958842
 20
-131.5370685976432
 10
-23.53335979807706
 20
-131.5277634817765
 10
-23.52323282837642
 20
-131.5183795993575
 10
-23.51315987523776
 20
-131.5089165945105
 10
-23.50314119340692
 20
-131.4993741113696
 10
-23.49317703766792
 20
-131.4897517940567
 10
-23.4832676627484
 20
-131.4800492866986
 10
-23.47341332341783
 20
-131.4702662334264
 10
-23.46361427444753
 20
-131.4604022783637
 10
-23.45387077056693
 20
-131.4504570656388
 10
-23.44418306656734
 20
-131.4404302393785
 10
-23.4345514171764
 20
-131.4303214437124
 10
-23.4249760771563
 20
-131.4201303227624
 10
-23.41545730128746
 20
-131.4098565206613
 10
-23.40599534430656
 20
-131.3994996815335
 10
-23.39659046097585
 20
-131.3890594495055
 10
-23.38724290604841
 20
-131.3785354687067
 10
-23.37795293428825
 20
-131.3679273832615
 10
-23.36872080045759
 20
-131.3572348372995
 10
-23.35954675929678
 20
-131.3464574749457
 10
-23.35043106558805
 20
-131.3355949403296
 10
-23.3413739740572
 20
-131.3246468775767
 10
-23.33237573948826
 20
-131.3136129308136
 10
-23.32343661663797
 20
-131.3024927441697
 10
-23.31455686024856
 20
-131.2912859617704
 10
-23.31121240973698
 20
-131.2870035631656
  0
LEADER
  5
15A
330
2
100
AcDbEntity
  8
0
100
AcDbLeader
  3
STANDARD
 74
     0
 40
13.0
 41
28.50892857142855
 76
     2
 10
63.16461185954358
 20
-127.9881501511945
 30
0.0
 10
54.04786146736114
 20
-143.2829697815875
 30
0.0
1001
ACAD
1000
DSTYLE
1002
{
1070
     5
1000

1070
   342
1005
0
1002
}
  0
LINE
  5
15B
102
{ACAD_REACTORS
330
D4
102
}
330
2
100
AcDbEntity
  8
0
 48
0.6
100
AcDbLine
 10
53.57250374628346
 20
-59.10113059197851
 30
0.0
 11
53.57250374628346
 21
-119.1011305919784
 31
0.0
  0
LINE
  5
15C
102
{ACAD_REACTORS
330
160
330
D4
102
}
330
2
100
AcDbEntity
  8
0
 48
0.6
100
AcDbLine
 10
51.57250374628347
 20
-62.10113059197851
 30
0.0
 11
51.57250374628347
 21
-116.1011305919783
 31
0.0
  0
LINE
  5
15D
330
2
100
AcDbEntity
  8
0
 48
0.6
100
AcDbLine
 10
59.67250374628203
 20
-59.10113059197851
 30
0.0
 11
59.67250374628203
 21
-119.1011305919784
 31
0.0
  0
DIMENSION
  5
15E
102
{ACAD_XDICTIONARY
360
15F
102
}
102
{ACAD_REACTORS
330
160
102
}
330
2
100
AcDbEntity
  8
0
 48
0.6
100
AcDbDimension
  2
*D29
 10
4.023422905182067
 20
-116.1011305919783
 30
0.0
 11
4.023422905182086
 21
-92.92403188099159
 31
0.0
 70
   160
  1
\A1;%%C<>{\f??|b0|i0|c0|p49;\H0.7x;\S+0^ -0.03;\H1.429x;(h7)} 
  3
STANDARD
100
AcDbAlignedDimension
 13
51.57250374628347
 23
-62.10113059197851
 33
0.0
 14
51.57250374628347
 24
-116.1011305919783
 34
0.0
 50
90.0
100
AcDbRotatedDimension
  0
DIMENSION
  5
16D
330
2
100
AcDbEntity
  8
0
 48
0.6
100
AcDbDimension
  2
*D28
 10
15.62487287372276
 20
-92.10102020652357
 30
0.0
 11
15.62487287372277
 21
-89.10113059198009
 31
0.0
 70
   160
  1
\A1;%%c<>{\H0.7x;\S+0^ -0.012;\f??|b0|i0|c0|p49;\H1.429x;(h7)}  
  3
STANDARD
100
AcDbAlignedDimension
 13
30.07250374629439
 23
-86.10124097743662
 33
0.0
 14
30.07250374629439
 24
-92.10102020652357
 34
0.0
 50
90.0
100
AcDbRotatedDimension
  0
LINE
  5
17C
102
{ACAD_REACTORS
330
188
102
}
330
2
100
AcDbEntity
  8
CEN
 48
0.6
100
AcDbLine
 10
-47.9542525455181
 20
-124.1011305919784
 30
0.0
 11
-47.9542525455181
 21
-54.10113059197851
 31
0.0
  0
CIRCLE
  5
17D
330
2
100
AcDbEntity
  8
0
 48
0.6
100
AcDbCircle
 10
-47.9542525455181
 20
-89.10113059197852
 30
0.0
 40
13.0
  0
ARC
  5
17E
330
2
100
AcDbEntity
  8
0
 48
0.6
100
AcDbCircle
 10
-25.09290099081772
 20
-81.79643312442747
 30
0.0
 40
2.0
100
AcDbArc
 50
141.9486744806222
 51
197.7198081527984
  0
ARC
  5
17F
330
2
100
AcDbEntity
  8
0
 48
0.6
100
AcDbCircle
 10
-28.24273670436742
 20
-79.3309646136497
 30
0.0
 40
2.0
100
AcDbArc
 50
321.9486744806221
 51
26.36567250321681
  0
LINE
  5
180
102
{ACAD_REACTORS
330
F6
102
}
330
2
100
AcDbEntity
  8
0
 48
0.6
100
AcDbLine
 10
-17.9542525455181
 20
-64.10113059197761
 30
0.0
 11
-17.9542525455181
 21
-114.1011305919775
 31
0.0
  0
ARC
  5
181
330
2
100
AcDbEntity
  8
0
 48
0.6
100
AcDbCircle
 10
-70.81560410021666
 20
-81.79643312442747
 30
0.0
 40
2.0
100
AcDbArc
 50
342.2801918472013
 51
38.05132551937779
  0
ARC
  5
182
330
2
100
AcDbEntity
  8
0
 48
0.6
100
AcDbCircle
 10
-67.66576838666697
 20
-79.3309646136497
 30
0.0
 40
2.0
100
AcDbArc
 50
153.634327496783
 51
218.0513255193776
  0
LINE
  5
183
102
{ACAD_REACTORS
330
F6
102
}
330
2
100
AcDbEntity
  8
0
 48
0.6
100
AcDbLine
 10
-77.95425254551807
 20
-64.10113059197761
 30
0.0
 11
-77.95425254551807
 21
-114.1011305919775
 31
0.0
  0
CIRCLE
  5
184
330
2
100
AcDbEntity
  8
0
 48
0.6
100
AcDbCircle
 10
-47.9542525455181
 20
-89.10113059197852
 30
0.0
 40
27.00000000000005
  0
CIRCLE
  5
185
330
2
100
AcDbEntity
  8
0
 48
0.6
100
AcDbCircle
 10
-47.9542525455181
 20
-89.10113059197852
 30
0.0
 40
28.5
  0
DIMENSION
  5
186
102
{ACAD_XDICTIONARY
360
187
102
}
102
{ACAD_REACTORS
330
188
102
}
330
2
100
AcDbEntity
  8
0
 48
0.6
100
AcDbDimension
  2
*D27
 10
-47.9542525455181
 20
-54.10113059197851
 30
0.0
 11
-38.36885155269183
 21
-137.2901955510823
 31
0.0
 70
    34
  1
<>
  3
STANDARD
100
AcDb2LineAngularDimension
 13
-47.9542525455181
 23
-89.1011305919776
 33
0.0
 14
-35.52784567432717
 24
-119.1011305919776
 34
0.0
 15
-47.9542525455181
 25
-124.1011305919796
 35
0.0
 16
-41.17748159667862
 26
-140.5758163976285
 36
0.0
1001
ACAD
1000
DSTYLE
1002
{
1070
   271
1070
     1
1070
   179
1070
     1
1070
   271
1070
     0
1070
   271
1070
     1
1070
   271
1070
     1
1070
   271
1070
     1
1070
   271
1070
     1
1070
   271
1070
     1
1002
}
  0
DIMENSION
  5
197
102
{ACAD_XDICTIONARY
360
198
102
}
102
{ACAD_REACTORS
330
199
102
}
330
2
100
AcDbEntity
  8
0
 48
0.6
100
AcDbDimension
  2
*D26
 10
-77.33019234527453
 20
-108.1288514455096
 30
0.0
 11
-3.681316692787261
 21
-60.42415649295366
 31
0.0
 70
   163
  1
<>%%p0.5
  3
STANDARD
100
AcDbDiametricDimension
 15
-18.578312745748
 25
-70.07340973843652
 35
0.0
 40
0.0
  0
DIMENSION
  5
1A5
102
{ACAD_XDICTIONARY
360
1A6
102
}
102
{ACAD_REACTORS
330
1A7
102
}
330
2
100
AcDbEntity
  8
0
 48
0.6
100
AcDbDimension
  2
*D39
 10
53.26931966874326
 20
114.5413750061742
 30
0.0
 11
49.76931966874325
 21
114.5413750061742
 31
0.0
 70
   160
  3
STANDARD
100
AcDbAlignedDimension
 13
46.26931966874326
 23
109.7813750061725
 33
0.0
 14
53.26931966874326
 24
99.17177901436822
 34
0.0
100
AcDbRotatedDimension
  0
DIMENSION
  5
1B4
102
{ACAD_XDICTIONARY
360
1B5
102
}
102
{ACAD_REACTORS
330
1B6
102
}
330
2
100
AcDbEntity
  8
0
 48
0.6
100
AcDbDimension
  2
*D38
 10
46.26931966874326
 20
114.5413750061742
 30
0.0
 11
37.26931966874325
 21
114.5413750061742
 31
0.0
 70
   160
  3
STANDARD
100
AcDbAlignedDimension
 13
44.26931966874326
 23
97.57304167284019
 33
0.0
 14
46.26931966874326
 24
100.5730416728402
 34
0.0
100
AcDbRotatedDimension
  0
LINE
  5
1C5
330
2
100
AcDbEntity
  8
0
 48
0.6
100
AcDbLine
 10
46.26931966874326
 20
97.57304167284019
 30
0.0
 11
44.26931966874326
 21
97.57304167284019
 31
0.0
  0
LINE
  5
1C6
102
{ACAD_REACTORS
330
1A7
102
}
330
2
100
AcDbEntity
  8
0
 48
0.6
100
AcDbLine
 10
52.36931966874363
 20
99.17177901436822
 30
0.0
 11
53.26931966874326
 21
99.17177901436822
 31
0.0
  0
LINE
  5
1C7
330
2
100
AcDbEntity
  8
0
 48
0.6
100
AcDbLine
 10
52.36931966874363
 20
91.47177901437045
 30
0.0
 11
53.26931966874326
 21
91.47177901437045
 31
0.0
  0
LINE
  5
1C8
330
2
100
AcDbEntity
  8
0
 48
0.6
100
AcDbLine
 10
53.26931966874326
 20
91.47177901437045
 30
0.0
 11
53.26931966874326
 21
99.17177901436822
 31
0.0
  0
LINE
  5
1C9
330
2
100
AcDbEntity
  8
0
 48
0.6
100
AcDbLine
 10
46.26931966874326
 20
100.5730416728402
 30
0.0
 11
52.36931966874363
 21
100.5730416728402
 31
0.0
  0
LINE
  5
1CA
330
2
100
AcDbEntity
  8
2
100
AcDbLine
 10
40.26931966874324
 20
72.49304167284027
 30
0.0
 11
40.26931966874324
 21
68.65304167284147
 31
0.0
  0
ARC
  5
1CB
330
2
100
AcDbEntity
  8
0
100
AcDbCircle
 10
38.80944740329322
 20
38.47055990314334
 30
0.0
 40
30.21776684021463
100
AcDbArc
 50
79.59038642143004
 51
87.23086447349437
  0
ARC
  5
1CC
330
2
100
AcDbEntity
  8
0
100
AcDbCircle
 10
38.80944740329322
 20
102.6755234425362
 30
0.0
 40
30.21776684021192
100
AcDbArc
 50
272.7691355265055
 51
280.40961357857
  0
LINE
  5
1CD
330
2
100
AcDbEntity
  8
2
100
AcDbLine
 10
34.26861023164201
 20
73.39304167284147
 30
0.0
 11
34.26861023164201
 21
67.75304167284025
 31
0.0
  0
LINE
  5
1CE
330
2
100
AcDbEntity
  8
0
100
AcDbLine
 10
33.76861023164201
 20
72.89304167284147
 30
0.0
 11
33.76861023164201
 21
68.25304167283936
 31
0.0
  0
LINE
  5
1CF
330
2
100
AcDbEntity
  8
0
100
AcDbLine
 10
33.76861023164201
 20
68.25304167283936
 30
0.0
 11
34.26861023164201
 21
67.75304167284025
 31
0.0
  0
LINE
  5
1D0
330
2
100
AcDbEntity
  8
0
100
AcDbLine
 10
34.26861023164201
 20
73.39304167284147
 30
0.0
 11
33.76861023164201
 21
72.89304167284147
 31
0.0
  0
LINE
  5
1D1
330
2
100
AcDbEntity
  8
2
100
AcDbLine
 10
40.26931966874324
 20
71.3383411344614
 30
0.0
 11
35.11824456768227
 21
68.65304167284147
 31
0.0
  0
LINE
  5
1D2
330
2
100
AcDbEntity
  8
2
100
AcDbLine
 10
40.26931966874324
 20
72.49304167284027
 30
0.0
 11
33.76931966874326
 21
69.05299631891921
 31
0.0
  0
LINE
  5
1D3
330
2
100
AcDbEntity
  8
2
100
AcDbLine
 10
38.26931966874326
 20
72.49304167284027
 30
0.0
 11
33.76931966874326
 21
70.21972498790638
 31
0.0
  0
LINE
  5
1D4
330
2
100
AcDbEntity
  8
0
100
AcDbLine
 10
33.76861023164201
 20
68.65304167284147
 30
0.0
 11
40.26931966874324
 21
68.65304167284147
 31
0.0
  0
LINE
  5
1D5
330
2
100
AcDbEntity
  8
CEN
 48
0.6
100
AcDbLine
 10
31.76931966874326
 20
68.26354167284012
 30
0.0
 11
47.26931966874325
 21
68.26354167284012
 31
0.0
  0
LINE
  5
1D6
330
2
100
AcDbEntity
  8
0
100
AcDbLine
 10
34.26861023164201
 20
67.75304167284025
 30
0.0
 11
44.26931966874326
 21
67.75304167284139
 31
0.0
  0
LINE
  5
1D7
330
2
100
AcDbEntity
  8
0
100
AcDbLine
 10
33.76861023164201
 20
72.49304167284027
 30
0.0
 11
40.26931966874324
 21
72.49304167284027
 31
0.0
  0
LINE
  5
1D8
330
2
100
AcDbEntity
  8
CEN
 48
0.6
100
AcDbLine
 10
31.76931966874326
 20
72.88254167284026
 30
0.0
 11
47.26931966874325
 21
72.88254167284026
 31
0.0
  0
LINE
  5
1D9
330
2
100
AcDbEntity
  8
0
100
AcDbLine
 10
34.26861023164201
 20
73.39304167284012
 30
0.0
 11
44.26931966874326
 21
73.39304167284147
 31
0.0
  0
TEXT
  5
1DA
330
2
100
AcDbEntity
  8
DIM
100
AcDbText
 10
-11.1394603865574
 20
18.39120248323228
 30
0.0
 40
3.5
  1
 LEAD WIRE 300mm
100
AcDbText
  0
LINE
  5
1DB
330
2
100
AcDbEntity
  8
0
 48
0.6
100
AcDbLine
 10
62.76931966874325
 20
40.07304167284018
 30
0.0
 11
53.76931966874328
 21
40.07304167284018
 31
0.0
  0
LINE
  5
1DC
330
2
100
AcDbEntity
  8
0
 48
0.6
100
AcDbLine
 10
53.26931966874326
 20
49.67430433131131
 30
0.0
 11
53.26931966874326
 21
41.97430433131034
 31
0.0
  0
LINE
  5
1DD
330
2
100
AcDbEntity
  8
0
 48
0.6
100
AcDbLine
 10
46.26931966874326
 20
43.57304167284017
 30
0.0
 11
44.26931966874326
 21
43.57304167284017
 31
0.0
  0
LINE
  5
1DE
330
2
100
AcDbEntity
  8
0
 48
0.6
100
AcDbLine
 10
52.36931966874363
 20
41.97430433131034
 30
0.0
 11
53.26931966874326
 21
41.97430433131034
 31
0.0
  0
ARC
  5
1DF
330
2
100
AcDbEntity
  8
0
 48
0.6
100
AcDbCircle
 10
53.76931966874328
 20
40.57304167284018
 30
0.0
 40
0.5
100
AcDbArc
 50
180.0
 51
270.0
  0
LINE
  5
1E0
330
2
100
AcDbEntity
  8
0
 48
0.6
100
AcDbLine
 10
53.26931966874326
 20
41.07304167284018
 30
0.0
 11
53.26931966874326
 21
40.57304167284018
 31
0.0
  0
LINE
  5
1E1
330
2
100
AcDbEntity
  8
0
 48
0.6
100
AcDbLine
 10
46.26931966874326
 20
40.57304167284018
 30
0.0
 11
52.36931966874363
 21
40.57304167284018
 31
0.0
  0
LINE
  5
1E2
330
2
100
AcDbEntity
  8
0
 48
0.6
100
AcDbLine
 10
52.36931966874363
 20
49.67430433131131
 30
0.0
 11
53.26931966874326
 21
49.67430433131131
 31
0.0
  0
ARC
  5
1E3
330
2
100
AcDbEntity
  8
0
 48
0.6
100
AcDbCircle
 10
62.76931966874325
 20
40.57304167284018
 30
0.0
 40
0.5
100
AcDbArc
 50
270.0
 51
0.0
  0
LINE
  5
1E4
330
2
100
AcDbEntity
  8
0
 48
0.6
100
AcDbLine
 10
63.26931966874326
 20
41.07304167284018
 30
0.0
 11
63.26931966874326
 21
40.57304167284018
 31
0.0
  0
ARC
  5
1E5
330
2
100
AcDbEntity
  8
0
100
AcDbCircle
 10
58.86390861460313
 20
36.91238428157044
 30
0.0
 40
1.318158315128889
100
AcDbArc
 50
89.6564224934487
 51
169.1029148372918
  0
ARC
  5
1E6
330
2
100
AcDbEntity
  8
0
100
AcDbCircle
 10
63.42587371228183
 20
32.73051889712951
 30
0.0
 40
0.5
100
AcDbArc
 50
90.0
 51
177.9685271120391
  0
ARC
  5
1E7
330
2
100
AcDbEntity
  8
0
 48
0.6
100
AcDbCircle
 10
275.4114049390496
 20
109.6276229530507
 30
0.0
 40
225.9114275938977
100
AcDbArc
 50
200.0221810753251
 51
204.0372506146368
  0
ARC
  5
1E8
330
2
100
AcDbEntity
  8
0
 48
0.6
100
AcDbCircle
 10
254.1692841897015
 20
100.0642113541283
 30
0.0
 40
209.4612831032436
100
AcDbArc
 50
197.3794987704413
 51
203.1921327145288
  0
LWPOLYLINE
  5
1E9
330
2
100
AcDbEntity
  8
0
100
AcDbPolyline
 90
      467
 70
     0
 43
0.0
 10
61.63468828186751
 20
17.57506965739594
 10
61.63688656393834
 20
17.57614474317914
 10
61.65713081418879
 20
17.58594684382
 10
61.67735027956814
 20
17.59563874769196
 10
61.69754500318822
 20
17.60522089700701
 10
61.71771502815907
 20
17.61469373397676
 10
61.73786039759807
 20
17.62405770081089
 10
61.75798115460974
 20
17.63331323972215
 10
61.77807734230782
 20
17.6424607929191
 10
61.7981490038078
 20
17.65150080261696
 10
61.81819618220878
 20
17.66043371102476
 10
61.83821892063726
 20
17.66925996035319
 10
61.85821726219774
 20
17.67797999281196
 10
61.87819124999669
 20
17.68659425061604
 10
61.89814092714778
 20
17.69510317597473
 10
61.91806633676833
 20
17.70350721110002
 10
61.93796752196658
 20
17.71180679820099
 10
61.95784452584893
 20
17.72000237949281
 10
61.97769739153818
 20
17.72809439718207
 10
61.997526162128
 20
17.73608329348189
 10
62.01733088074842
 20
17.74396951060498
 10
62.03711159049862
 20
17.75175349075901
 10
62.05686833449772
 20
17.75943567615876
 10
62.07660115584849
 20
17.76701650901418
 10
62.09631009766826
 20
17.77449643153612
 10
62.11599520305799
 20
17.78187588593482
 10
62.13565651514771
 20
17.78915531442294
 10
62.15529407702932
 20
17.79633515921091
 10
62.17490793182742
 20
17.80341586250892
 10
62.19449812264655
 20
17.81039786653218
 10
62.21406469260773
 20
17.81728161348882
 10
62.23360768480826
 20
17.82406754558996
 10
62.25312714236725
 20
17.83075610504714
 10
62.27262310839842
 20
17.83734773407081
 10
62.29209562600817
 20
17.84384287487294
 10
62.31154473829747
 20
17.85024196966582
 10
62.33097048840909
 20
17.85654546065984
 10
62.35037291941671
 20
17.86275379006519
 10
62.3697520744595
 20
17.86886740009412
 10
62.38910799663836
 20
17.87488673295592
 10
62.40844072905793
 20
17.88081223086578
 10
62.42775031483914
 20
17.88664433603184
 10
62.44703679708845
 20
17.89238349066385
 10
62.46630021892862
 20
17.89803013697792
 10
62.48554062344783
 20
17.9035847171799
 10
62.50475805377983
 20
17.90904767348592
 10
62.52395255302737
 20
17.91441944810412
 10
62.54312416429866
 20
17.91970048324514
 10
62.56227293069832
 20
17.92489122112101
 10
62.58139889535824
 20
17.92999210394508
 10
62.60050210137933
 20
17.93500357392507
 10
62.61958259186804
 20
17.93992607327413
 10
62.63864040993804
 20
17.94476004420379
 10
62.65767559869755
 20
17.94950592892495
 10
62.67668820126754
 20
17.954164169646
 10
62.69567826075808
 20
17.95873520858185
 10
62.7146458202792
 20
17.96321948794207
 10
62.73359092293004
 20
17.96761744993908
 10
62.7525136118388
 20
17.9719295367838
 10
62.77141393009742
 20
17.9761561906839
 10
62.79029192083772
 20
17.98029785385596
 10
62.80914762716793
 20
17.98435496850696
 10
62.82798109218902
 20
17.98832797685099
 10
62.84679235900922
 20
17.99221732109913
 10
62.86558147075857
 20
17.99602344345907
 10
62.88434847052895
 20
17.99974678614603
 10
62.90309340143767
 20
18.00338779136698
 10
62.92181630660934
 20
18.006946901339
 10
62.94051722913764
 20
18.01042455826608
 10
62.95919621213807
 20
18.01382120436596
 10
62.97785329872976
 20
18.01713728184791
 10
62.99648853200824
 20
18.02037323292096
 10
63.015101955109
 20
18.02352949979693
 10
63.03369361111844
 20
18.02660652468874
 10
63.05226354315937
 20
18.0296047498068
 10
63.07081179434725
 20
18.03252461736177
 10
63.08933840778853
 20
18.03536656956589
 10
63.1078434265878
 20
18.03813104863114
 10
63.12632689386783
 20
18.04081849676412
 10
63.14478885273683
 20
18.04342935618
 10
63.16322934630853
 20
18.04596406909013
 10
63.18164841767839
 20
18.04842307770307
 10
63.2000461099783
 20
18.05080682423317
 10
63.2184224663074
 20
18.05311575088897
 10
63.23677752977936
 20
18.05535029988209
 10
63.25511134350791
 20
18.05751091342517
 10
63.27342395059758
 20
18.05959803372775
 10
63.29171539416757
 20
18.06161210300387
 10
63.30998571732789
 20
18.06355356346193
 10
63.32823496318861
 20
18.06542285731392
 10
63.34646317485794
 20
18.06722042677097
 10
63.36467039544777
 20
18.06894671404393
 10
63.38285666807904
 20
18.07060216134503
 10
63.40102203584729
 20
18.07218721088291
 10
63.41916654186797
 20
18.07370230487185
 10
63.43729022926937
 20
18.07514788552202
 10
63.45539314113785
 20
18.07652439504498
 10
63.47347532060894
 20
18.07783227564891
 10
63.49153681076722
 20
18.07907196955079
 10
63.50957765474641
 20
18.08024391895605
 10
63.52759789564743
 20
18.08134856608101
 10
63.54559757658762
 20
18.08238635313182
 10
63.56357674066793
 20
18.08335772232316
 10
63.58153543101844
 20
18.08426311586412
 10
63.59947369072915
 20
18.08510297596603
 10
63.61739156291921
 20
18.08587774484203
 10
63.63528909069873
 20
18.08658786470322
 10
63.65316631718861
 20
18.08723377775707
 10
63.67102328548799
 20
18.08781592621994
 10
63.68886003870875
 20
18.08833475229812
 10
63.70667661996821
 20
18.0887906982068
 10
63.72447307237825
 20
18.089184206156
 10
63.7422494390471
 20
18.08951571835585
 10
63.76000576308843
 20
18.08978567701796
 10
63.77774208760865
 20
18.08999452435318
 10
63.79545845571784
 20
18.09014270257489
 10
63.81315491053874
 20
18.090230653891
 10
63.8308314951796
 20
18.090258820514
 10
63.84848825273775
 20
18.09022764465589
 10
63.8661252263396
 20
18.090137568528
 10
63.88374245908789
 20
18.08998903434189
 10
63.90133999408726
 20
18.08978248430593
 10
63.91891787447865
 20
18.08951836063397
 10
63.93647614333757
 20
18.08919710553595
 10
63.95401484379772
 20
18.08881916122389
 10
63.9715340189673
 20
18.08838496990801
 10
63.98903371194728
 20
18.08789497380098
 10
64.00651396585863
 20
18.08734961511094
 10
64.02397482380774
 20
18.08674933605288
 10
64.04141632890833
 20
18.08609457883789
 10
64.05883852426859
 20
18.08538578567299
 10
64.07624145300951
 20
18.08462339877291
 10
64.09362515822841
 20
18.08380786034717
 10
64.11098968304805
 20
18.08293961260687
 10
64.12833507056757
 20
18.08201909776493
 10
64.14566136391886
 20
18.08104675803314
 10
64.16296860618832
 20
18.08002303561987
 10
64.18025684050963
 20
18.07894837273693
 10
64.19752610996738
 20
18.07782321159811
 10
64.2147764576971
 20
18.07664799441113
 10
64.23200792680882
 20
18.07542316339003
 10
64.24922056039803
 20
18.07414916074298
 10
64.26641440158753
 20
18.07282642868335
 10
64.28358949348922
 20
18.07145540942201
 10
64.30074587919853
 20
18.07003654517096
 10
64.31788360185828
 20
18.06857027813792
 10
64.33500270454761
 20
18.06705705053991
 10
64.35210323038745
 20
18.06549730458321
 10
64.36918522250788
 20
18.06389148247784
 10
64.38624872398803
 20
18.0622400264408
 10
64.40329377796889
 20
18.0605433786809
 10
64.42032042753861
 20
18.05880198140607
 10
64.43732871582915
 20
18.05701627683196
 10
64.45431868592868
 20
18.05518670716696
 10
64.47129038096727
 20
18.05331371462374
 10
64.4882438440477
 20
18.05139774141275
 10
64.50517911828909
 20
18.04943922974507
 10
64.5220962467979
 20
18.04743862183294
 10
64.53899527267868
 20
18.0453963598868
 10
64.55587623904694
 20
18.04331288611796
 10
64.57273918901818
 20
18.04118864273594
 10
64.58958416570976
 20
18.03902407195391
 10
64.60641121221716
 20
18.03681961598407
 10
64.6232203716595
 20
18.03457571703323
 10
64.64001168713775
 20
18.03229281731796
 10
64.65678520178745
 20
18.02997135904705
 10
64.67354095869677
 20
18.02761178443005
 10
64.69027900098854
 20
18.02521453568192
 10
64.70699937176914
 20
18.02278005500987
 10
64.72370211415776
 20
18.02030878462596
 10
64.7403872712589
 20
18.01780116674398
 10
64.75705488617903
 20
18.01525764357301
 10
64.77370500202822
 20
18.01267865732392
 10
64.79033766193833
 20
18.01006465021099
 10
64.80695290899757
 20
18.00741606444102
 10
64.8235507863287
 20
18.00473334222919
 10
64.84013133704729
 20
18.00201692578116
 10
64.85669460425788
 20
17.99926725731392
 10
64.8732406310578
 20
17.99648477903701
 10
64.88976946058802
 20
17.99366993315993
 10
64.90628113593857
 20
17.99082316189583
 10
64.92277570021768
 20
17.98794490745489
 10
64.93925319655911
 20
17.98503561204778
 10
64.95571366804734
 20
17.98209571788582
 10
64.97215715781796
 20
17.97912566718217
 10
64.98858370896823
 20
17.97612590214793
 10
65.00499336460825
 20
17.9730968649901
 10
65.02138616785896
 20
17.97003899792298
 10
65.03776216181768
 20
17.96695274315903
 10
65.05412138960901
 20
17.96383854290682
 10
65.07046389433753
 20
17.96069683937912
 10
65.08678971911876
 20
17.95752807478582
 10
65.10309890705912
 20
17.95433269133991
 10
65.11939150127955
 20
17.95111113125198
 10
65.13566754486828
 20
17.94786383673203
 10
65.15192708096811
 20
17.94459124999093
 10
65.16817015265814
 20
17.94129381324296
 10
65.18439680307756
 20
17.93797196869785
 10
65.20060707532912
 20
17.93462615856401
 10
65.21680101250831
 20
17.93125682505592
 10
65.23297865774702
 20
17.92786441038401
 10
65.24914005414803
 20
17.92444935675893
 10
65.26528524481772
 20
17.92101210639201
 10
65.28141427287891
 20
17.91755310149392
 10
65.297527181438
 20
17.91407278427799
 10
65.31362401359775
 20
17.91057159695287
 10
65.32970481247911
 20
17.90704998172985
 10
65.34576962118852
 20
17.90350838082417
 10
65.36181848284695
 20
17.89994723644212
 10
65.37785144055897
 20
17.89636699079596
 10
65.39386853742917
 20
17.89276808609792
 10
65.40986981657852
 20
17.88915096455889
 10
65.42585532110797
 20
17.88551606839086
 10
65.4418250941476
 20
17.88186383980517
 10
65.45777917878921
 20
17.87819472100909
 10
65.47371761814838
 20
17.8745091542189
 10
65.48964045533693
 20
17.87080758164414
 10
65.50554773347949
 20
17.86709044549296
 10
65.52143949566789
 20
17.86335818798101
 10
65.53731578502857
 20
17.85961125131779
 10
65.55317664465883
 20
17.85585007771282
 10
65.56902211768693
 20
17.85207510937901
 10
65.58485224720834
 20
17.84828678852885
 10
65.60066707633859
 20
17.84448555737094
 10
65.61646664818771
 20
17.84067185811817
 10
65.6322510058785
 20
17.83684613297986
 10
65.64802019251738
 20
17.83300882416778
 10
65.66377425120889
 20
17.82916037389507
 10
65.67951322505769
 20
17.82530122437195
 10
65.69523715719743
 20
17.82143181780701
 10
65.71094609071813
 20
17.81755259641703
 10
65.72664006874811
 20
17.81366400240789
 10
65.74231913438826
 20
17.80976647799296
 10
65.75798333074863
 20
17.80586046538178
 10
65.77363270093929
 20
17.80194640678995
 10
65.78926728808847
 20
17.79802474442385
 10
65.80488713528803
 20
17.7940959204959
 10
65.82049228565892
 20
17.79016037721998
 10
65.83608278229667
 20
17.78621855680193
 10
65.85165866833857
 20
17.78227090145878
 10
65.86721998688743
 20
17.77831785339799
 10
65.88276678103875
 20
17.77435985483202
 10
65.89829909391892
 20
17.77039734797289
 10
65.913816968638
 20
17.76643077502989
 10
65.92932044829876
 20
17.7624605782148
 10
65.94480957602943
 20
17.75848719973896
 10
65.96028439491829
 20
17.75451108181594
 10
65.97574494809714
 20
17.75053266665304
 10
65.99119127865788
 20
17.74655239646289
 10
66.00662342973783
 20
17.742570713458
 10
66.02204144441794
 20
17.73858805984695
 10
66.03744536583917
 20
17.73460487784404
 10
66.05283523708796
 20
17.73062160965718
 10
66.06821110128885
 20
17.72663869750112
 10
66.0835730015483
 20
17.72265658358492
 10
66.09892098097815
 20
17.71867571012012
 10
66.11425508269758
 20
17.71469651931579
 10
66.12957534980751
 20
17.71071945338598
 10
66.144881825418
 20
17.70674495454203
 10
66.1601745526591
 20
17.70277346499278
 10
66.17545357461721
 20
17.69880542695386
 10
66.19071893441696
 20
17.69484128263002
 10
66.20597067516837
 20
17.6908814742369
 10
66.22120883997968
 20
17.68692644398514
 10
66.23643347195912
 20
17.68297663408611
 10
66.25164461422946
 20
17.67903248674906
 10
66.26684230988804
 20
17.67509444418714
 10
66.28202660206671
 20
17.67116294861011
 10
66.29719753385916
 20
17.66723844222996
 10
66.31235514837908
 20
17.66332136725804
 10
66.32749948873834
 20
17.65941216590408
 10
66.34263059804698
 20
17.65551128038191
 10
66.35774851942779
 20
17.65161915290195
 10
66.37285329596716
 20
17.64773622567304
 10
66.38794497080971
 20
17.64386294090807
 10
66.4030235870382
 20
17.63999974081888
 10
66.41808918777906
 20
17.636147067617
 10
66.43314181614778
 20
17.63230536351215
 10
66.44818151523804
 20
17.62847507071478
 10
66.46320832816718
 20
17.62465663143689
 10
66.47822229805797
 20
17.62085048789276
 10
66.49322346800953
 20
17.61705708228805
 10
66.50821188113923
 20
17.61327685683999
 10
66.5231875805589
 20
17.60951025375402
 10
66.53815060936768
 20
17.60575771524304
 10
66.55310101069744
 20
17.60201968351997
 10
66.56803882764734
 20
17.59829660079594
 10
66.58296410331832
 20
17.59458890928112
 10
66.59787688083861
 20
17.59089705118502
 10
66.61277720331826
 20
17.58722146872286
 10
66.62766511386735
 20
17.58356260410323
 10
66.64254065558862
 20
17.57992089953813
 10
66.65740387158847
 20
17.57629679723799
 10
66.67225480499701
 20
17.57269073941301
 10
66.68709349891878
 20
17.56910316827702
 10
66.70191999646751
 20
17.5655345260411
 10
66.71673434074773
 20
17.56198525491185
 10
66.73153657486776
 20
17.55845579710693
 10
66.74632674194845
 20
17.55494659483406
 10
66.76110488509812
 20
17.55145809030409
 10
66.77587104741769
 20
17.54799072572882
 10
66.79062527203905
 20
17.54454494332003
 10
66.8053676020595
 20
17.54112118528905
 10
66.82009808058729
 20
17.53771989384405
 10
66.8348167507379
 20
17.53434151120086
 10
66.84952365562867
 20
17.53098647956789
 10
66.86421883836782
 20
17.52765524115693
 10
66.87890234205815
 20
17.52434823817997
 10
66.89357420982968
 20
17.52106591284699
 10
66.90823448476702
 20
17.51780870736797
 10
66.92288321000751
 20
17.51457706395784
 10
66.93752042864662
 20
17.5113714248241
 10
66.95214618379805
 20
17.50819223217899
 10
66.96676051857912
 20
17.50503992823586
 10
66.98136347609625
 20
17.50191495520311
 10
66.99595509945948
 20
17.49881775529388
 10
67.01053543178796
 20
17.49574877071903
 10
67.025104516179
 20
17.49270844368788
 10
67.03966239575902
 20
17.48969721641401
 10
67.05420911362899
 20
17.48671553110601
 10
67.06874471289712
 20
17.48376382997911
 10
67.08326923668799
 20
17.48084255523893
 10
67.09778272810808
 20
17.47795214910115
 10
67.11228523026739
 20
17.47509305377592
 10
67.12677678626869
 20
17.47226571147279
 10
67.1412574392384
 20
17.46947056440694
 10
67.15572723227933
 20
17.46670805478492
 10
67.17018620849785
 20
17.46397862482012
 10
67.18463441100765
 20
17.46128271672499
 10
67.19907188293882
 20
17.45862077270702
 10
67.21349866737956
 20
17.45599323497913
 10
67.22791480744717
 20
17.45340054575398
 10
67.24232034624811
 20
17.45084314724294
 10
67.25671532691784
 20
17.44832148165389
 10
67.27109979253919
 20
17.44583599120096
 10
67.28547378622943
 20
17.44338711809609
 10
67.29983735110772
 20
17.44097530454609
 10
67.31419053028776
 20
17.43860099276593
 10
67.32853336686685
 20
17.43626462496693
 10
67.34286590397869
 20
17.43396664335999
 10
67.35718818470786
 20
17.43170749015211
 10
67.37150025217896
 20
17.42948760756075
 10
67.38580214950935
 20
17.4273074377927
 10
67.40009391979629
 20
17.42516742306109
 10
67.41437560616805
 20
17.42306800557594
 10
67.42864725171829
 20
17.42100962754989
 10
67.44290889956801
 20
17.41899273119291
 10
67.45716059282904
 20
17.41701775871683
 10
67.47140237460961
 20
17.41508515233316
 10
67.48563428801799
 20
17.41319535425213
 10
67.49985637616783
 20
17.41134880668505
 10
67.51406868217827
 20
17.40954595184392
 10
67.52827124914848
 20
17.40778723194011
 10
67.54246412019758
 20
17.406073089184
 10
67.55664733843925
 20
17.40440396578582
 10
67.57082094697807
 20
17.40278030395802
 10
67.58498498891867
 20
17.40120254591283
 10
67.59913950738928
 20
17.39967113385909
 10
67.61328454548722
 20
17.39818651001109
 10
67.62742014633886
 20
17.39674911657607
 10
67.64154635303794
 20
17.39535939576693
 10
67.65566320870902
 20
17.39401778979685
 10
67.66977075645853
 20
17.3927247408751
 10
67.68386903938743
 20
17.39148069121096
 10
67.6979581006276
 20
17.390286083021
 10
67.71203798327815
 20
17.389141358512
 10
67.72610873044732
 20
17.38804695989596
 10
67.7401703852579
 20
17.38700332938309
 10
67.75422299080901
 20
17.38601090918814
 10
67.76826659021799
 20
17.38507014151991
 10
67.78230122658761
 20
17.38418146858816
 10
67.79632694304793
 20
17.38334533260694
 10
67.81034378269805
 20
17.3825621757869
 10
67.82435178864625
 20
17.38183244033711
 10
67.83835100400803
 20
17.38115656847094
 10
67.85234147189703
 20
17.38053500239788
 10
67.86632323541789
 20
17.37996818433089
 10
67.88029633768792
 20
17.37945655647898
 10
67.89426082181717
 20
17.37900056105605
 10
67.90821673091752
 20
17.37860064027199
 10
67.92216410809714
 20
17.37825723633704
 10
67.93610299647891
 20
17.37797079146411
 10
67.95003343914732
 20
17.37774174786386
 10
67.96395547923792
 20
17.37757054774601
 10
67.97786915985899
 20
17.37745763332189
 10
67.99177452410777
 20
17.37740344680696
 10
68.00567161511799
 20
17.37740843040682
 10
68.01956047597787
 20
17.37747302633488
 10
68.03344114981746
 20
17.37759767680313
 10
68.04731367973772
 20
17.37778282402199
 10
68.06117810884689
 20
17.37802891020395
 10
68.07503448025864
 20
17.37833637755693
 10
68.08888283708848
 20
17.37870566829519
 10
68.10272322244646
 20
17.37913722462803
 10
68.11655567944808
 20
17.37963148876815
 10
68.13038025119793
 20
17.38018890292573
 10
68.14419698080972
 20
17.38080990931416
 10
68.15800591139714
 20
17.38149495013975
 10
68.1718070860684
 20
17.38224446761886
 10
68.18560054792988
 20
17.38305890396008
 10
68.19938634009713
 20
17.38393870137495
 10
68.21316450567839
 20
17.38488430207597
 10
68.22693508779821
 20
17.38589614827013
 10
68.2406981295594
 20
17.38697468217287
 10
68.25445367406835
 20
17.38812034599594
 10
68.2682017644388
 20
17.38933358194685
 10
68.28194244377893
 20
17.39061483223894
 10
68.29567575520787
 20
17.39196453908401
 10
68.3094017418375
 20
17.39338314469273
 10
68.32312044677792
 20
17.39487109127388
 10
68.33683191312818
 20
17.39642882104294
 10
68.35053618401843
 20
17.39805677620711
 10
68.36423330254774
 20
17.39975539897999
 10
68.377923311828
 20
17.40152513157293
 10
68.39160625496742
 20
17.40336641619477
 10
68.4052821750888
 20
17.4052796950591
 10
68.41895111529675
 20
17.40726541037497
 10
68.43261311870856
 20
17.40932400435711
 10
68.44626822841792
 20
17.41145591921394
 10
68.45991648755853
 20
17.41366159715493
 10
68.47355793922952
 20
17.41594148039506
 10
68.48719262653729
 20
17.41829601114295
 10
68.50082059260831
 20
17.42072563161195
 10
68.514441880538
 20
17.42323078401295
 10
68.5280565334474
 20
17.425811910555
 10
68.54166459444832
 20
17.42846945345012
 10
68.55526610664718
 20
17.43120385491101
 10
68.56886111314861
 20
17.43401555714694
 10
68.58244965708809
 20
17.4369050023688
 10
68.59603178154839
 20
17.43987263279176
 10
68.60960752965957
 20
17.44291889062196
 10
68.62317694452804
 20
17.44604421807389
 10
68.63674006925839
 20
17.44924905735615
 10
68.65029694696797
 20
17.45253385068302
 10
68.66384762076676
 20
17.45589904026496
 10
68.67739213377944
 20
17.45934506831007
 10
68.69093052908692
 20
17.46287237703108
 10
68.70446284982836
 20
17.46648140864384
 10
68.71798913909742
 20
17.47017260535312
 10
68.73150944002964
 20
17.47394640937089
 10
68.74502379569867
 20
17.47780326291217
 10
68.75853224924731
 20
17.48174360818574
 10
68.77203484377833
 20
17.48576788740183
 10
68.78553162238905
 20
17.48987654277379
 10
68.79902262821679
 20
17.49407001651182
 10
68.81250790434797
 20
17.49834875082683
 10
68.82598749390898
 20
17.50271318793101
 10
68.83946144000811
 20
17.50716377003618
 10
68.85292978574809
 20
17.51170093935001
 10
68.86639257425895
 20
17.51632513808385
 10
68.87984984862896
 20
17.52103680845402
 10
68.89330165198817
 20
17.52583639266799
 10
68.90674802742842
 20
17.530724332938
 10
68.92018901808886
 20
17.53570107147491
 10
68.93362466705958
 20
17.54076705048896
 10
68.94705501744692
 20
17.54592271219189
 10
68.96048011237917
 20
17.55116849879708
 10
68.97389999496818
 20
17.55650485251202
 10
68.98731470830944
 20
17.56193221554917
 10
69.00072429551847
 20
17.56745103012189
 10
69.01412879971804
 20
17.57306173843994
 10
69.0275282640091
 20
17.57876478271395
 10
69.040922731509
 20
17.5845606051539
 10
69.05431224531866
 20
17.59044964797271
 10
69.06769684856818
 20
17.59643235338307
 10
69.08107658434754
 20
17.6025091635929
 10
69.0908296443381
 20
17.60700935169096
  0
ARC
  5
1EA
330
2
100
AcDbEntity
  8
0
 48
0.6
100
AcDbCircle
 10
94.57204166874362
 20
39.98439567284025
 30
0.0
 40
33.95579199999998
100
AcDbArc
 50
179.85042300002
 51
182.9607459492086
  0
ARC
  5
1EB
330
2
100
AcDbEntity
  8
0
 48
0.6
100
AcDbCircle
 10
94.27954761551337
 20
40.07070678184527
 30
0.0
 40
35.255792
100
AcDbArc
 50
179.9962054631615
 51
182.9919319862273
  0
ARC
  5
1EC
330
2
100
AcDbEntity
  8
0
 48
0.6
100
AcDbCircle
 10
94.86824760463241
 20
39.90900719698947
 30
0.0
 40
37.855792
100
AcDbArc
 50
179.8658330000312
 51
183.9724199931055
  0
ARC
  5
1ED
330
2
100
AcDbEntity
  8
0
 48
0.6
100
AcDbCircle
 10
94.57204166874362
 20
39.98439567284025
 30
0.0
 40
39.15579199999999
100
AcDbArc
 50
179.8702870000233
 51
183.6102158837779
  0
ARC
  5
1EE
330
2
100
AcDbEntity
  8
0
100
AcDbCircle
 10
55.03145099563153
 20
28.62351762898332
 30
0.0
 40
8.907313409310658
100
AcDbArc
 50
24.23072274293794
 51
94.90087069775272
  0
LEADER
  5
1EF
330
2
100
AcDbEntity
  8
0
100
AcDbLeader
  3
STANDARD
 74
     0
 40
13.0
 41
28.50892857142855
 76
     2
 10
55.86142778199246
 20
31.68602211362554
 30
0.0
 10
46.74467738982275
 20
16.39120248323227
 30
0.0
1001
ACAD
1000
DSTYLE
1002
{
1070
     5
1000

1070
   342
1005
0
1002
}
  0
DIMENSION
  5
1F0
330
2
100
AcDbEntity
  8
0
 48
0.6
100
AcDbDimension
  2
*D37
 10
46.26931966874326
 20
130.0730416728401
 30
0.0
 11
40.01896495019354
 21
130.0730416728401
 31
0.0
 70
   160
  3
STANDARD
100
AcDbAlignedDimension
 13
33.76861023164201
 23
72.89304167284147
 33
0.0
 14
46.26931966874326
 24
100.5730416728402
 34
0.0
100
AcDbRotatedDimension
  0
LINE
  5
1FD
330
2
100
AcDbEntity
  8
0
 48
0.6
100
AcDbLine
 10
52.36931966874363
 20
100.5730416728402
 30
0.0
 11
52.36931966874363
 21
40.57304167284018
 31
0.0
  0
LINE
  5
1FE
102
{ACAD_REACTORS
330
202
330
1B6
102
}
330
2
100
AcDbEntity
  8
0
 48
0.6
100
AcDbLine
 10
44.26931966874326
 20
97.57304167284019
 30
0.0
 11
44.26931966874326
 21
43.57304167284017
 31
0.0
  0
LINE
  5
1FF
102
{ACAD_REACTORS
330
1B6
102
}
330
2
100
AcDbEntity
  8
0
 48
0.6
100
AcDbLine
 10
46.26931966874326
 20
100.5730416728402
 30
0.0
 11
46.26931966874326
 21
40.57304167284018
 31
0.0
  0
DIMENSION
  5
200
102
{ACAD_XDICTIONARY
360
201
102
}
102
{ACAD_REACTORS
330
202
102
}
330
2
100
AcDbEntity
  8
0
 48
0.6
100
AcDbDimension
  2
*D36
 10
24.46184499137235
 20
43.57304167284017
 30
0.0
 11
24.46184499137234
 21
71.15269398068129
 31
0.0
 70
   160
  1
\A1;%%C<>{\f??|b0|i0|c0|p49;\H0.7x;\S+0^ -0.03;\H1.429x;(h7)} 
  3
STANDARD
100
AcDbAlignedDimension
 13
44.26931966874326
 23
97.57304167284019
 33
0.0
 14
44.26931966874326
 24
43.57304167284017
 34
0.0
 50
90.0
100
AcDbRotatedDimension
  0
LWPOLYLINE
  5
20F
330
2
100
AcDbEntity
  8
3
 48
0.6
100
AcDbPolyline
 90
        4
 70
     1
 43
0.0
 10
-52.67005737698672
 20
114.9642258324704
 10
-49.37005737698745
 20
114.9642258324704
 10
-49.37005737698745
 20
118.4642258324704
 10
-52.67005737698672
 20
118.4642258324704
  0
DIMENSION
  5
210
102
{ACAD_XDICTIONARY
360
211
102
}
102
{ACAD_REACTORS
330
212
102
}
330
2
100
AcDbEntity
  8
0
 48
0.6
100
AcDbDimension
  2
*D35
 10
-15.72179396406681
 20
114.224139467146
 30
0.0
 11
-46.05253272371736
 21
114.224139467146
 31
0.0
 70
   160
  1
60
  3
STANDARD
100
AcDbAlignedDimension
 13
-75.72179396406681
 23
95.57304167284131
 33
0.0
 14
-15.72179396406681
 24
95.57304167284131
 34
0.0
100
AcDbRotatedDimension
  0
ARC
  5
21F
330
2
100
AcDbEntity
  8
0
 48
0.6
100
AcDbCircle
 10
-20.72179396406681
 20
95.57304167284131
 30
0.0
 40
5.0
100
AcDbArc
 50
0.0
 51
90.0
  0
ARC
  5
220
102
{ACAD_REACTORS
330
26F
102
}
330
2
100
AcDbEntity
  8
CEN
 48
0.6
100
AcDbCircle
 10
-45.72179396406681
 20
70.57304167284133
 30
0.0
 40
35.0
100
AcDbArc
 50
21.71935007261406
 51
51.18655059757116
  0
LINE
  5
221
330
2
100
AcDbEntity
  8
CEN
 48
0.6
100
AcDbLine
 10
-23.97826044257635
 20
92.31657519432724
 30
0.0
 11
-17.96785280248878
 21
98.32698283441343
 31
0.0
  0
CIRCLE
  5
222
330
2
100
AcDbEntity
  8
0
 48
0.6
100
AcDbCircle
 10
-20.97305662253711
 20
95.32177901437036
 30
0.0
 40
2.25
  0
ARC
  5
223
330
2
100
AcDbEntity
  8
0
 48
0.6
100
AcDbCircle
 10
-45.72179396406681
 20
70.57304167284019
 30
0.0
 40
24.0
100
AcDbArc
 50
26.36567250321681
 51
63.63432749678904
  0
ARC
  5
224
330
2
100
AcDbEntity
  8
0
 48
0.6
100
AcDbCircle
 10
-45.72179396406681
 20
70.57304167284019
 30
0.0
 40
22.0
100
AcDbArc
 50
72.28019184719491
 51
107.7198081528049
  0
ARC
  5
225
330
2
100
AcDbEntity
  8
0
 48
0.6
100
AcDbCircle
 10
-53.02649143161762
 20
93.43439322754035
 30
0.0
 40
2.0
100
AcDbArc
 50
231.948674480613
 51
287.7198081528051
  0
ARC
  5
226
330
2
100
AcDbEntity
  8
0
 48
0.6
100
AcDbCircle
 10
-55.49195994239744
 20
90.28455751399041
 30
0.0
 40
2.0
100
AcDbArc
 50
51.94867448061305
 51
116.3656725032109
  0
ARC
  5
227
330
2
100
AcDbEntity
  8
0
 48
0.6
100
AcDbCircle
 10
-35.95162798573801
 20
90.28455751399041
 30
0.0
 40
2.0
100
AcDbArc
 50
63.63432749678904
 51
128.0513255193867
  0
ARC
  5
228
330
2
100
AcDbEntity
  8
0
 48
0.6
100
AcDbCircle
 10
-38.41709649650693
 20
93.43439322754035
 30
0.0
 40
2.0
100
AcDbArc
 50
252.2801918471949
 51
308.0513255193868
  0
ARC
  5
229
330
2
100
AcDbEntity
  8
CEN
 48
0.6
100
AcDbCircle
 10
-45.72179396406681
 20
70.57304167284542
 30
0.0
 40
35.0
100
AcDbArc
 50
128.038373849838
 51
141.9616261501575
  0
LINE
  5
22A
330
2
100
AcDbEntity
  8
CEN
 48
0.6
100
AcDbLine
 10
-67.46532748554637
 20
92.31657519433133
 30
0.0
 11
-73.4757351256394
 21
98.32698283441731
 31
0.0
  0
CIRCLE
  5
22B
330
2
100
AcDbEntity
  8
0
 48
0.6
100
AcDbCircle
 10
-70.47053130559651
 20
95.32177901437444
 30
0.0
 40
2.25
  0
ARC
  5
22C
330
2
100
AcDbEntity
  8
0
 48
0.6
100
AcDbCircle
 10
-70.72179396406681
 20
95.57304167284131
 30
0.0
 40
5.0
100
AcDbArc
 50
90.0
 51
180.0
  0
LINE
  5
22D
330
2
100
AcDbEntity
  8
0
 48
0.6
100
AcDbLine
 10
-70.72179396406681
 20
100.5730416728412
 30
0.0
 11
-20.72179396406681
 21
100.5730416728412
 31
0.0
  0
ARC
  5
22E
330
2
100
AcDbEntity
  8
0
 48
0.6
100
AcDbCircle
 10
-45.72179396406681
 20
70.57304167284019
 30
0.0
 40
24.0
100
AcDbArc
 50
116.3656725032109
 51
153.634327496783
  0
MTEXT
  5
22F
102
{ACAD_REACTORS
330
230
102
}
330
2
100
AcDbEntity
  8
0
 62
     3
100
AcDbMText
 10
-29.39591546958763
 20
123.5030008857151
 30
0.0
 40
3.0
 41
0.0
 71
     9
 72
     1
  1
4-%%c4.5 hole
1001
ACAD
1000
MTEXTBEGIN
1070
    73
1070
     1
1070
    44
1040
1.0
1070
    74
1070
     0
1000
MTEXTEND
1000
MTEXTBEGIN
1070
    73
1070
     1
1070
    44
1040
1.0
1070
    74
1070
     0
1000
MTEXTEND
1000
MTEXTBEGIN
1070
    73
1070
     1
1070
    44
1040
1.0
1070
    74
1070
     0
1000
MTEXTEND
  0
LEADER
  5
230
330
2
100
AcDbEntity
  8
0
100
AcDbLeader
  3
STANDARD
 73
     0
 75
     1
 40
3.0
 41
26.65178571428571
 76
     3
 10
-20.89459831085695
 20
97.07314736527132
 30
0.0
 10
-25.89591546958763
 20
122.5030008857151
 30
0.0
 10
-28.39591546958763
 20
122.5030008857151
 30
0.0
340
22F
1001
ACAD
1000
DSTYLE
1002
{
1070
     5
1000

1070
   342
1005
0
1002
}
  0
LINE
  5
231
102
{ACAD_REACTORS
330
25E
102
}
330
2
100
AcDbEntity
  8
0
  6
CENTER
 62
     1
 48
0.6
100
AcDbLine
 10
-45.7217939640559
 20
70.57304167284133
 30
0.0
 11
-33.2953870928668
 21
40.57304167284132
 31
0.0
  0
LINE
  5
232
330
2
100
AcDbEntity
  8
0
 48
0.6
100
AcDbLine
 10
-30.57171208317777
 20
40.57304167284132
 30
0.0
 11
-36.31276230970797
 21
40.57304167284132
 31
0.0
  0
LINE
  5
233
330
2
100
AcDbEntity
  8
0
100
AcDbLine
 10
-34.68847676272707
 20
35.93936807576142
 30
0.0
 11
-28.19634541718732
 21
38.8299680524924
 31
0.0
  0
ARC
  5
234
330
2
100
AcDbEntity
  8
0
 48
0.6
100
AcDbCircle
 10
0.2212074477920396
 20
54.88359432138145
 30
0.0
 40
39.15579199999999
100
AcDbArc
 50
201.4369589999631
 51
208.5517089163135
  0
ARC
  5
235
330
2
100
AcDbEntity
  8
0
 48
0.6
100
AcDbCircle
 10
-67.11108310241796
 20
26.9843430560013
 30
0.0
 40
39.15579199999999
100
AcDbArc
 50
16.65391050761257
 51
20.30648800596492
  0
ARC
  5
236
330
2
100
AcDbEntity
  8
0
 48
0.6
100
AcDbCircle
 10
54.39127726578226
 20
87.47294847723741
 30
0.0
 40
95.84808274048763
100
AcDbArc
 50
210.4975034246499
 51
218.0575295674634
  0
ARC
  5
237
330
2
100
AcDbEntity
  8
0
 48
0.6
100
AcDbCircle
 10
-53.02649143161762
 20
47.7116901181414
 30
0.0
 40
2.0
100
AcDbArc
 50
72.28019184719491
 51
128.0513255193867
  0
ARC
  5
238
330
2
100
AcDbEntity
  8
0
 48
0.6
100
AcDbCircle
 10
-55.49195994239744
 20
50.86152583169043
 30
0.0
 40
2.0
100
AcDbArc
 50
243.634327496789
 51
308.0513255193868
  0
ARC
  5
239
330
2
100
AcDbEntity
  8
0
 48
0.6
100
AcDbCircle
 10
-35.95162798573801
 20
50.86152583169043
 30
0.0
 40
2.0
100
AcDbArc
 50
231.948674480613
 51
296.3656725032108
  0
ARC
  5
23A
330
2
100
AcDbEntity
  8
0
 48
0.6
100
AcDbCircle
 10
-38.41709649650693
 20
47.7116901181414
 30
0.0
 40
2.0
100
AcDbArc
 50
51.94867448061305
 51
107.7198081528049
  0
ARC
  5
23B
330
2
100
AcDbEntity
  8
0
 48
0.6
100
AcDbCircle
 10
-22.86044240936826
 20
63.26834420528918
 30
0.0
 40
2.0
100
AcDbArc
 50
162.2801918472015
 51
218.0513255193776
  0
ARC
  5
23C
330
2
100
AcDbEntity
  8
0
 48
0.6
100
AcDbCircle
 10
-26.01027812291794
 20
60.80287569451048
 30
0.0
 40
2.0
100
AcDbArc
 50
333.6343274967831
 51
38.05132551937779
  0
ARC
  5
23D
330
2
100
AcDbEntity
  8
0
 48
0.6
100
AcDbCircle
 10
-20.72179396406681
 20
45.57304167284132
 30
0.0
 40
5.0
100
AcDbArc
 50
270.0
 51
0.0
  0
ARC
  5
23E
330
2
100
AcDbEntity
  8
0
 48
0.6
100
AcDbCircle
 10
-45.72179396406681
 20
70.57304167284019
 30
0.0
 40
22.0
100
AcDbArc
 50
342.2801918472013
 51
17.71980815279839
  0
ARC
  5
23F
330
2
100
AcDbEntity
  8
0
 48
0.6
100
AcDbCircle
 10
-45.72179396406681
 20
70.57304167284019
 30
0.0
 40
24.0
100
AcDbArc
 50
296.3656725032108
 51
333.6343274967831
  0
CIRCLE
  5
240
330
2
100
AcDbEntity
  8
0
 48
0.6
100
AcDbCircle
 10
-45.72179396406681
 20
70.57304167284019
 30
0.0
 40
3.000000000000055
  0
CIRCLE
  5
241
330
2
100
AcDbEntity
  8
0
 48
0.6
100
AcDbCircle
 10
-45.72179396406681
 20
70.57304167284019
 30
0.0
 40
2.000000000000053
  0
ARC
  5
242
330
2
100
AcDbEntity
  8
0
 48
0.6
100
AcDbCircle
 10
-45.72179396406681
 20
70.57304167284019
 30
0.0
 40
22.0
100
AcDbArc
 50
252.2801918471949
 51
287.7198081528051
  0
ARC
  5
243
330
2
100
AcDbEntity
  8
CEN
 48
0.6
100
AcDbCircle
 10
-45.72179396406681
 20
70.57304167284542
 30
0.0
 40
35.0
100
AcDbArc
 50
308.0383738498413
 51
321.9616261501601
  0
LINE
  5
244
330
2
100
AcDbEntity
  8
CEN
 48
0.6
100
AcDbLine
 10
-23.97826044257635
 20
48.82950815135949
 30
0.0
 11
-17.96785280248878
 21
42.81910051127352
 31
0.0
  0
CIRCLE
  5
245
330
2
100
AcDbEntity
  8
0
 48
0.6
100
AcDbCircle
 10
-20.97305662253711
 20
45.82430433131526
 30
0.0
 40
2.25
  0
ARC
  5
246
330
2
100
AcDbEntity
  8
0
 48
0.6
100
AcDbCircle
 10
66.44973248185306
 20
94.6993161472344
 30
0.0
 40
116.9686661741607
100
AcDbArc
 50
210.1560153536115
 51
216.2412691602773
  0
LWPOLYLINE
  5
247
330
2
100
AcDbEntity
  8
0
100
AcDbPolyline
 90
      548
 70
     0
 43
0.0
 10
-27.88955557596819
 20
25.54899007926929
 10
-27.88654016085638
 20
25.56356349405337
 10
-27.88299170952631
 20
25.58022318272242
 10
-27.87936429134788
 20
25.59677622818844
 10
-27.87565816106871
 20
25.61322298632126
 10
-27.87187357345647
 20
25.62956381299727
 10
-27.86801078325698
 20
25.6457990640863
 10
-27.86407004523788
 20
25.66192909546225
 10
-27.86005161414687
 20
25.67795426299926
 10
-27.85595574474792
 20
25.69387492256828
 10
-27.85178269178867
 20
25.7096914300423
 10
-27.84753271004773
 20
25.72540414129456
 10
-27.84320605426728
 20
25.74101341219853
 10
-27.83880297920586
 20
25.75651959862625
 10
-27.83432373961841
 20
25.77192305645052
 10
-27.82976859027803
 20
25.78722414154526
 10
-27.82513778591783
 20
25.80242320978323
 10
-27.82043158131819
 20
25.81752061703423
 10
-27.81565023122674
 20
25.83251671917628
 10
-27.81079399039663
 20
25.84741187207851
 10
-27.8058631135882
 20
25.86220643161345
 10
-27.8008578555673
 20
25.87690075365753
 10
-27.79577847107612
 20
25.89149519408056
 10
-27.79062521488777
 20
25.90599010875417
 10
-27.78539834174626
 20
25.92038585355657
 10
-27.78009810642652
 20
25.93468278435443
 10
-27.7747247636671
 20
25.94888125702549
 10
-27.76927856822839
 20
25.96298162743915
 10
-27.76375977488715
 20
25.97698425147017
 10
-27.75816863837644
 20
25.99088948499229
 10
-27.75250541346759
 20
26.00469768387438
 10
-27.74677035490821
 20
26.01840920399445
 10
-27.74096371746781
 20
26.03202440122117
 10
-27.73508575589767
 20
26.04554363142937
 10
-27.72913672495632
 20
26.05896725049251
 10
-27.72311687939691
 20
26.07229561428039
 10
-27.71702647398888
 20
26.08552907866942
 10
-27.71086576347625
 20
26.09866799953147
 10
-27.70463500262667
 20
26.11171273273861
 10
-27.6983344461878
 20
26.12466363416229
 10
-27.69196434891819
 20
26.13752105967728
 10
-27.68552496558914
 20
26.15028536515842
 10
-27.67901655093737
 20
26.16295690647552
 10
-27.67243935973783
 20
26.1755360395025
 10
-27.66579364673816
 20
26.18802312011053
 10
-27.65907966670601
 20
26.20041850417532
 10
-27.65229767438905
 20
26.21272254756831
 10
-27.64544792454762
 20
26.22493560616226
 10
-27.63853067193848
 20
26.23705803582947
 10
-27.63154617131657
 20
26.24909019244432
 10
-27.62449467744771
 20
26.2610324318773
 10
-27.61737644508865
 20
26.27288511000552
 10
-27.61019172898885
 20
26.28464858269535
 10
-27.60294078390689
 20
26.29632320582641
 10
-27.59562386460673
 20
26.30790933526828
 10
-27.58824122583792
 20
26.31940732689326
 10
-27.58079312236805
 20
26.33081753657438
 10
-27.57327980894842
 20
26.34214032018644
 10
-27.5657015403267
 20
26.35337603359948
 10
-27.55805857128871
 20
26.36452503269037
 10
-27.55035115655664
 20
26.37558767332643
 10
-27.54257955091816
 20
26.38656431138542
 10
-27.53474400910635
 20
26.39745530273853
 10
-27.52684478589799
 20
26.40826100325647
 10
-27.51888213604797
 20
26.41898176881523
 10
-27.51085631429669
 20
26.42961795528526
 10
-27.50276757541723
 20
26.44016991854141
 10
-27.49461617416818
 20
26.45063801445735
 10
-27.48640236529718
 20
26.46102259890131
 10
-27.47812640356824
 20
26.47132402775241
 10
-27.4697885437472
 20
26.4815426568782
 10
-27.46138904056715
 20
26.49167884215444
 10
-27.45292814880667
 20
26.50173293945248
 10
-27.44440612321705
 20
26.51170530464537
 10
-27.43582321855682
 20
26.52159629360744
 10
-27.42717968958823
 20
26.53140626220943
 10
-27.41847579104796
 20
26.54113556632523
 10
-27.40971177771823
 20
26.55078456182832
 10
-27.40088790434674
 20
26.56035360459123
 10
-27.39200442568835
 20
26.56984305048556
 10
-27.38306159649801
 20
26.57925325538622
 10
-27.37405967154882
 20
26.58858457516316
 10
-27.36499890558843
 20
26.59783736569238
 10
-27.35587955336814
 20
26.6070119828455
 10
-27.34670186964649
 20
26.6161087824953
 10
-27.33746610918752
 20
26.62512812051545
 10
-27.32817252675704
 20
26.63407035277646
 10
-27.31882137709726
 20
26.64293583515223
 10
-27.30941291496673
 20
26.65172492351826
 10
-27.29994739512767
 20
26.66043797374323
 10
-27.29042507233861
 20
26.66907534170217
 10
-27.28084620135632
 20
26.67763738326923
 10
-27.27121103693935
 20
26.68612445431426
 10
-27.26151983382623
 20
26.69453691071225
 10
-27.25177284680649
 20
26.70287510833645
 10
-27.24197033062774
 20
26.71113940305622
 10
-27.23211254003762
 20
26.71933015074819
 10
-27.22219972978745
 20
26.72744770728445
 10
-27.2122321546576
 20
26.73549242853733
 10
-27.20221006938845
 20
26.74346467037844
 10
-27.19213372874765
 20
26.75136478868239
 10
-27.18200338747738
 20
26.75919313932126
 10
-27.17181930035621
 20
26.76695007817034
 10
-27.16158172212635
 20
26.77463596109737
 10
-27.15129090754817
 20
26.78225114397946
 10
-27.1409471113875
 20
26.78979598268734
 10
-27.13055058838835
 20
26.79727083309626
 10
-27.12010159331839
 20
26.80467605107628
 10
-27.10960038092707
 20
26.81201199250244
 10
-27.0990472059766
 20
26.81927901324546
 10
-27.08844232322735
 20
26.82647746917928
 10
-27.07778598743789
 20
26.83360771617822
 10
-27.06707845335767
 20
26.84067011011233
 10
-27.056319975738
 20
26.84766500685714
 10
-27.04551080935742
 20
26.85459276228153
 10
-27.03465120896726
 20
26.86145373226213
 10
-27.02374142930603
 20
26.86824827267241
 10
-27.01278172515594
 20
26.87497673938127
 10
-27.00177235126647
 20
26.88163948826741
 10
-26.9907135623871
 20
26.88823687519652
 10
-26.97960561328727
 20
26.8947692560464
 10
-26.96844875870556
 20
26.90123698668844
 10
-26.95724325341871
 20
26.90764042299429
 10
-26.94598935217618
 20
26.91397992084034
 10
-26.93468730974746
 20
26.92025583609529
 10
-26.92333738086745
 20
26.9264685246344
 10
-26.91193982030744
 20
26.93261834233021
 10
-26.90049488282784
 20
26.9387056450555
 10
-26.88900282317808
 20
26.94473078868441
 10
-26.87746389611857
 20
26.95069412908537
 10
-26.86587835640603
 20
26.95659602213732
 10
-26.8542464588063
 20
26.9624368237073
 10
-26.84256845806703
 20
26.96821688967247
 10
-26.83084460893769
 20
26.97393657590328
 10
-26.81907516619685
 20
26.97959623827455
 10
-26.80726038459761
 20
26.98519623265747
 10
-26.7954005188767
 20
26.99073691492435
 10
-26.78349582381815
 20
26.99621864095023
 10
-26.7715465541678
 20
27.00164176660632
 10
-26.75955296467691
 20
27.00700664776718
 10
-26.74751531010588
 20
27.01231364030332
 10
-26.73543384522782
 20
27.01756310008931
 10
-26.72330882477762
 20
27.02275538299727
 10
-26.71114050352662
 20
27.02789084489927
 10
-26.69892913622607
 20
27.03296984167057
 10
-26.68667497763817
 20
27.03799272918149
 10
-26.67437828251785
 20
27.04295986330748
 10
-26.66203930562732
 20
27.04787159991929
 10
-26.64965830171786
 20
27.05272829488944
 10
-26.63723552554619
 20
27.05753030409323
 10
-26.62477123187818
 20
27.06227798340137
 10
-26.61226567546691
 20
27.06697168868526
 10
-26.59971911105639
 20
27.07161177582246
 10
-26.58713179342703
 20
27.07619860068234
 10
-26.57450397732645
 20
27.08073251914015
 10
-26.56183591750596
 20
27.08521388706526
 10
-26.54912786873865
 20
27.08964306033134
 10
-26.53638008575763
 20
27.09402039481529
 10
-26.52359282334691
 20
27.09834624638642
 10
-26.51076633624688
 20
27.1026209709164
 10
-26.49790087921791
 20
27.10684492428117
 10
-26.48499670701858
 20
27.11101846235214
 10
-26.47205407441834
 20
27.11514194100345
 10
-26.45907323614846
 20
27.11921571610536
 10
-26.44605444699664
 20
27.12324014353134
 10
-26.43299796169776
 20
27.12721557915733
 10
-26.41990403501768
 20
27.13114237885338
 10
-26.40677292170585
 20
27.13502089849339
 10
-26.39360487653902
 20
27.13885149394832
 10
-26.38040015425758
 20
27.14263452109344
 10
-26.36715900962736
 20
27.14637033580038
 10
-26.35388169739781
 20
27.15005929394033
 10
-26.34056847233841
 20
27.15370175139128
 10
-26.32721958919683
 20
27.15729806402123
 10
-26.31383530272796
 20
27.16084858770341
 10
-26.30041586769765
 20
27.16435367831445
 10
-26.28696153886812
 20
27.16781369172327
 10
-26.27347257097607
 20
27.17122898380557
 10
-26.25994921880555
 20
27.17459991042938
 10
-26.24639173708782
 20
27.17792682747335
 10
-26.23280038060693
 20
27.18121009080846
 10
-26.21917540409595
 20
27.18445005630542
 10
-26.20551706232618
 20
27.1876470798395
 10
-26.19182561005618
 20
27.19080151728326
 10
-26.17810130202633
 20
27.19391372450832
 10
-26.16434439302793
 20
27.19698405738721
 10
-26.1505551377777
 20
27.20001287179524
 10
-26.13673379106876
 20
27.20300052360448
 10
-26.12288060763785
 20
27.20594736868655
 10
-26.10899584223806
 20
27.20885376291334
 10
-26.09507974964799
 20
27.21172006216146
 10
-26.08113258460798
 20
27.21454662229939
 10
-26.06715460188933
 20
27.21733379920442
 10
-26.05314605623789
 20
27.22008194874637
 10
-26.03910720240674
 20
27.22279142679735
 10
-26.02503829516717
 20
27.22546258923239
 10
-26.01093958926685
 20
27.22809579192448
 10
-25.99681133946797
 20
27.2306913907455
 10
-25.98265380053817
 20
27.23324974156821
 10
-25.96846722720693
 20
27.2357712002663
 10
-25.95425187425643
 20
27.23825612271139
 10
-25.94000799644707
 20
27.24070486477626
 10
-25.92573584851742
 20
27.24311778233641
 10
-25.91143568522783
 20
27.24549523126256
 10
-25.89710776134779
 20
27.24783756742545
 10
-25.88275233162676
 20
27.25014514670124
 10
-25.86836965082693
 20
27.25241832496248
 10
-25.85395997369776
 20
27.25465745808128
 10
-25.83952355499786
 20
27.2568629019313
 10
-25.82506064949666
 20
27.25903501238326
 10
-25.81057151194727
 20
27.26117414531335
 10
-25.79605639709733
 20
27.26328065659027
 10
-25.78151555970725
 20
27.26535490209039
 10
-25.76694925453739
 20
27.26739723768559
 10
-25.75235773634812
 20
27.26940801924637
 10
-25.73774125989803
 20
27.27138760264824
 10
-25.72310007994746
 20
27.27333634376327
 10
-25.70843445123864
 20
27.27525459846651
 10
-25.69374462853739
 20
27.27714272262756
 10
-25.6790308665968
 20
27.27900107212031
 10
-25.66429342018818
 20
27.2808300028173
 10
-25.64953254405736
 20
27.28262987059361
 10
-25.63474849296834
 20
27.28440103131834
 10
-25.61994152166699
 20
27.2861438408672
 10
-25.60511188492637
 20
27.28785865511235
 10
-25.5902598374887
 20
27.28954582992651
 10
-25.57538563412709
 20
27.29120572118335
 10
-25.56048952958736
 20
27.29283868475249
 10
-25.54557177863717
 20
27.29444507651145
 10
-25.5306326360187
 20
27.2960252523303
 10
-25.5156723564978
 20
27.29757956808134
 10
-25.5006911948385
 20
27.29910837963871
 10
-25.48568940578661
 20
27.30061204287631
 10
-25.47066724411706
 20
27.30209091366532
 10
-25.45562496456841
 20
27.3035453478783
 10
-25.44056282189739
 20
27.30497570138846
 10
-25.42548107087714
 20
27.30638233007039
 10
-25.41037996625709
 20
27.30776558979437
 10
-25.39525976279764
 20
27.3091258364343
 10
-25.38012071524827
 20
27.31046342586546
 10
-25.3649630783766
 20
27.3117787139563
 10
-25.34978710693939
 20
27.31307205658231
 10
-25.33459305567703
 20
27.31434380961536
 10
-25.31938117936805
 20
27.31559432892936
 10
-25.30415173276741
 20
27.31682397039548
 10
-25.28890497061729
 20
27.31803308988856
 10
-25.27364114769806
 20
27.31922204328157
 10
-25.25836051873739
 20
27.32039118644525
 10
-25.24306333852655
 20
27.32154087525326
 10
-25.22774986179682
 20
27.32267146557955
 10
-25.21242034331772
 20
27.32378331329528
 10
-25.19707503784774
 20
27.32487677427548
 10
-25.18171420013823
 20
27.32595220438929
 10
-25.16633808494771
 20
27.3270099595145
 10
-25.15094694702566
 20
27.32805039552157
 10
-25.13554104115792
 20
27.32907386828037
 10
-25.12012062206848
 20
27.33008073366818
 10
-25.10468594453778
 20
27.33107134755845
 10
-25.08923726331885
 20
27.33204606581944
 10
-25.07377483315758
 20
27.33300524432729
 10
-25.05829890881796
 20
27.33394923895342
 10
-25.04280974506764
 20
27.33487840557041
 10
-25.027307596647
 20
27.33579310005325
 10
-25.01179271832734
 20
27.33669367827337
 10
-24.99626536485811
 20
27.33758049610446
 10
-24.98072579100699
 20
27.33845390941837
 10
-24.96517425151795
 20
27.33931427408833
 10
-24.94961100114778
 20
27.3401619459853
 10
-24.93403629466774
 20
27.34099728098545
 10
-24.9184503868273
 20
27.34182063495927
 10
-24.90285353238869
 20
27.34263236378136
 10
-24.88724598609769
 20
27.34343282332543
 10
-24.87162800272745
 20
27.34422236946034
 10
-24.85599983702741
 20
27.34500135806023
 10
-24.84036174374705
 20
27.34577014500018
 10
-24.82471397766676
 20
27.34652908615362
 10
-24.8090567935178
 20
27.34727853738855
 10
-24.79339044607695
 20
27.34801885458341
 10
-24.7777151900882
 20
27.34875039360645
 10
-24.76203128031738
 20
27.34947351033452
 10
-24.74633897151761
 20
27.35018856063629
 10
-24.73063851844745
 20
27.35089590038842
 10
-24.71493017586726
 20
27.3515958854623
 10
-24.69921419853744
 20
27.35228887172932
 10
-24.68349084120564
 20
27.35297521506435
 10
-24.66776035863768
 20
27.35365527133945
 10
-24.65202300558849
 20
27.35432939642851
 10
-24.63627903680754
 20
27.35499794620226
 10
-24.62052870706793
 20
27.35566127653533
 10
-24.60477227110823
 20
27.35631974329953
 10
-24.58900998370699
 20
27.35697370236926
 10
-24.57324209960642
 20
27.35762350961545
 10
-24.557468873576
 20
27.35826952091156
 10
-24.54169056035607
 20
27.35891209213127
 10
-24.52590741471794
 20
27.35955157914736
 10
-24.51011969141655
 20
27.36018833783237
 10
-24.49432764520679
 20
27.36082272405838
 10
-24.47853153085632
 20
27.36145509369839
 10
-24.46273160310738
 20
27.36208580262541
 10
-24.44692811671846
 20
27.36271520671221
 10
-24.43112132645728
 20
27.36334366183426
 10
-24.4153114870769
 20
27.36397152386052
 10
-24.39949885333771
 20
27.36459914866623
 10
-24.38368367998737
 20
27.36522689212347
 10
-24.36786622179714
 20
27.36585511010344
 10
-24.35204673351835
 20
27.36648415848321
 10
-24.3362254698968
 20
27.36711439313125
 10
-24.32040268570744
 20
27.36774616992238
 10
-24.304578635707
 20
27.36837984473139
 10
-24.28875357463766
 20
27.36901577342519
 10
-24.27292775726892
 20
27.36965431188446
 10
-24.25710143835749
 20
27.37029581597539
 10
-24.24127487265649
 20
27.37094064157441
 10
-24.22544831492631
 20
27.37158914455539
 10
-24.20962201992733
 20
27.37224168078728
 10
-24.19379624241628
 20
27.37289860614533
 10
-24.17797123714807
 20
27.3735602765023
 10
-24.16214725887765
 20
27.3742270477303
 10
-24.14632456236904
 20
27.37489927570345
 10
-24.13050340236805
 20
27.37557731629226
 10
-24.11468403363869
 20
27.37626152537222
 10
-24.09886671094682
 20
27.37695225881521
 10
-24.08305168903825
 20
27.37764987249443
 10
-24.06723922268793
 20
27.37835472228015
 10
-24.05142956662712
 20
27.37906716405154
 10
-24.03562297562712
 20
27.37978755367339
 10
-24.01981970444648
 20
27.38051624702324
 10
-24.00402000784743
 20
27.38125359997343
 10
-23.98822414057756
 20
27.38199996839624
 10
-23.97243235739732
 20
27.38275570816517
 10
-23.95664491306706
 20
27.38352117515431
 10
-23.94086206234715
 20
27.38429672523237
 10
-23.92508405998705
 20
27.38508271427644
 10
-23.90931116074716
 20
27.38587949815633
 10
-23.89354361937694
 20
27.38668743274613
 10
-23.87778169064767
 20
27.3875068739203
 10
-23.86202562931794
 20
27.38833817755039
 10
-23.846275690139
 20
27.38918169950739
 10
-23.83053212785671
 20
27.39003779566655
 10
-23.8147951972478
 20
27.3909068219002
 10
-23.79906515305628
 20
27.39178913408045
 10
-23.78334225004798
 20
27.39268508808139
 10
-23.76762674298878
 20
27.39359503977539
 10
-23.75191888660628
 20
27.39451934503449
 10
-23.73621893568814
 20
27.39545835973149
 10
-23.72052714497657
 20
27.39641243974029
 10
-23.70484376923922
 20
27.39738194093343
 10
-23.68916906322737
 20
27.39836721918459
 10
-23.67350328168868
 20
27.39936863036337
 10
-23.65784667939624
 20
27.4003865303473
 10
-23.64219951110681
 20
27.40142127500644
 10
-23.62656203156802
 20
27.40247322021446
 10
-23.61093449553846
 20
27.4035427218423
 10
-23.59531715778757
 20
27.40463013576618
 10
-23.57971027305757
 20
27.40573581785634
 10
-23.56411409611792
 20
27.40686012398736
 10
-23.54852888171806
 20
27.40800341002932
 10
-23.53295488461843
 20
27.40916603185723
 10
-23.51739235957575
 20
27.41034834534321
 10
-23.50184156135582
 20
27.41155070636341
 10
-23.48630274470632
 20
27.41277347078538
 10
-23.47077616438946
 20
27.41401699448442
 10
-23.4552620751474
 20
27.41528163333327
 10
-23.43976073176782
 20
27.41656774320654
 10
-23.42427238898744
 20
27.41787567997334
 10
-23.40879730155573
 20
27.41920579951147
 10
-23.39333572425676
 20
27.42055845768845
 10
-23.37788791182719
 20
27.42193401038048
 10
-23.36245411902746
 20
27.42333281345941
 10
-23.34703460061791
 20
27.42475522279846
 10
-23.33162961136804
 20
27.42620159426929
 10
-23.31623940600729
 20
27.42767228374759
 10
-23.30086423932698
 20
27.4291676471023
 10
-23.28550436605655
 20
27.43068804020936
 10
-23.27016004095639
 20
27.4322338189413
 10
-23.25483151880689
 20
27.43380533916932
 10
-23.23951905434659
 20
27.43540295676529
 10
-23.22422290233771
 20
27.43702702760652
 10
-23.20894331752787
 20
27.43867790756349
 10
-23.19368055469749
 20
27.44035595250852
 10
-23.178434868576
 20
27.44206151831326
 10
-23.16320651394744
 20
27.44379496085434
 10
-23.14799574554672
 20
27.44555663600113
 10
-23.13280281814694
 20
27.44734689962729
 10
-23.1176279864976
 20
27.44916610760856
 10
-23.10247150536814
 20
27.45101461581224
 10
-23.08733362948804
 20
27.45289278011613
 10
-23.07221461364679
 20
27.45480095639118
 10
-23.05711471258837
 20
27.4567395005083
 10
-23.04203418106772
 20
27.45870876834442
 10
-23.02697327384703
 20
27.46070911577044
 10
-23.01193224567759
 20
27.46274089865937
 10
-22.99691135132707
 20
27.46480447288331
 10
-22.98191084554673
 20
27.46690019431412
 10
-22.96693098308787
 20
27.46902841882933
 10
-22.95197201871632
 20
27.47118950229537
 10
-22.93703420719793
 20
27.47338380059044
 10
-22.9221178032676
 20
27.47561166958439
 10
-22.90722306169663
 20
27.47787346515133
 10
-22.8923502372472
 20
27.48016954316335
 10
-22.87749958466882
 20
27.48250025949551
 10
-22.86267135871639
 20
27.48486597001647
 10
-22.84786581415755
 20
27.48726703060333
 10
-22.83308320574723
 20
27.48970379712545
 10
-22.81832378822764
 20
27.49217662545742
 10
-22.80358781637733
 20
27.49468587147248
 10
-22.78887554494757
 20
27.49723189104428
 10
-22.77418722868787
 20
27.49981504004245
 10
-22.75952312236767
 20
27.50243567434357
 10
-22.74488348072735
 20
27.50509414981752
 10
-22.73026855854732
 20
27.50779082233725
 10
-22.71567861056792
 20
27.51052604777737
 10
-22.70111389154771
 20
27.51330018201223
 10
-22.6865746562471
 20
27.51611358091031
 10
-22.67206115942826
 20
27.51896660034731
 10
-22.65757365584795
 20
27.52185959619623
 10
-22.64311240025562
 20
27.52479292432826
 10
-22.62867764741713
 20
27.52776694061731
 10
-22.61426965208737
 20
27.53078200093614
 10
-22.59988866901767
 20
27.53383846115616
 10
-22.58553495296837
 20
27.53693667715333
 10
-22.57120875870532
 20
27.54007700480042
 10
-22.55691034098707
 20
27.54325979996632
 10
-22.54263995455767
 20
27.54648541852452
 10
-22.52839785417745
 20
27.54975421635254
 10
-22.51418429461772
 20
27.55306654931814
 10
-22.49999953061706
 20
27.5564227732973
 10
-22.48584381694672
 20
27.55982324416232
 10
-22.47171740835619
 20
27.56326831778642
 10
-22.45762055960767
 20
27.56675835003921
 10
-22.44355352545608
 20
27.57029369679753
 10
-22.42951656065633
 20
27.57387471393121
 10
-22.4155099199761
 20
27.57750175731621
 10
-22.40153385816847
 20
27.5811751828221
 10
-22.38758862997746
 20
27.58489534632439
 10
-22.37367449018893
 20
27.58866260369541
 10
-22.35979169352686
 20
27.59247731080744
 10
-22.34594049477709
 20
27.59633982353239
 10
-22.33212114867638
 20
27.60025049774435
 10
-22.3183339099978
 20
27.60420968931635
 10
-22.30457903348724
 20
27.60821775412137
 10
-22.29085677390684
 20
27.61227504802945
 10
-22.27716738601884
 20
27.61638192691839
 10
-22.26351112457632
 20
27.62053874665639
 10
-22.24988824433784
 20
27.62474586312032
 10
-22.23629900005652
 20
27.62900363217818
 10
-22.2227436464891
 20
27.63331240970842
 10
-22.20922243840687
 20
27.63767255158041
 10
-22.19573563054655
 20
27.64208441366621
 10
-22.18228347768854
 20
27.64654835184228
 10
-22.16886623456776
 20
27.65106472197839
 10
-22.1554841559573
 20
27.65563387994757
 10
-22.14213749660666
 20
27.66025618162348
 10
-22.1288265112871
 20
27.6649319828814
 10
-22.11555145473721
 20
27.66966163958954
 10
-22.10231258172825
 20
27.67444550762229
 10
-22.08911014700788
 20
27.67928394285422
 10
-22.0759444053383
 20
27.68417730115833
 10
-22.06281561147807
 20
27.68912593840445
 10
-22.04972402017664
 20
27.69413021046739
 10
-22.03666988620534
 20
27.69919047322217
 10
-22.02365346430632
 20
27.70430708253615
 10
-22.01067500925637
 20
27.70948039428731
 10
-21.99773477579765
 20
27.71471076434636
 10
-21.98483301868873
 20
27.71999854858723
 10
-21.97196999269726
 20
27.72534410288039
 10
-21.95914595256727
 20
27.73074778310137
 10
-21.94636115306821
 20
27.73620994512043
 10
-21.93361584894773
 20
27.74173094481351
 10
-21.92091029496805
 20
27.74731113805137
 10
-21.9082447458877
 20
27.7529508807056
 10
-21.89561945645619
 20
27.75865052865219
 10
-21.88303468144841
 20
27.76441043776321
 10
-21.87049067560656
 20
27.77023096390917
 10
-21.8579876936983
 20
27.77611246296623
 10
-21.84552599046765
 20
27.78205529080537
 10
-21.83310582067679
 20
27.78805980329821
 10
-21.82072743909702
 20
27.79412635632047
 10
-21.8083911004669
 20
27.80025530574425
 10
-21.79609705955772
 20
27.80644700744051
 10
-21.78384557111894
 20
27.8127018172854
 10
-21.77163688991639
 20
27.81902009114651
 10
-21.75947127068866
 20
27.82540218490225
 10
-21.74734896821792
 20
27.83184845442338
 10
-21.73527023724817
 20
27.83835925558219
 10
-21.72323533253802
 20
27.84493494425032
 10
-21.7112445088387
 20
27.85157587630419
 10
-21.699298020927
 20
27.85828240761337
 10
-21.68739612353782
 20
27.86505489405339
 10
-21.67553907144792
 20
27.87189369149337
 10
-21.66372711939766
 20
27.87879915581152
 10
-21.65196052215651
 20
27.8857716428754
 10
-21.64023953447757
 20
27.89281150855959
 10
-21.6285644111267
 20
27.89991910873867
 10
-21.61693540684791
 20
27.90709479928523
 10
-21.60535277639791
 20
27.9143389360704
 10
-21.59381677454803
 20
27.92165187496721
 10
-21.58232765604771
 20
27.92903397185023
 10
-21.57088567565732
 20
27.93648558258928
 10
-21.55949108812819
 20
27.94400706306237
 10
-21.54814414822794
 20
27.95159876913726
 10
-21.53684511070605
 20
27.95926105668853
 10
-21.52559423031743
 20
27.96699428158921
 10
-21.51439176182794
 20
27.97479879971251
 10
-21.50323795998882
 20
27.98267496693052
 10
-21.49213307956779
 20
27.99062313911736
 10
-21.48107737530697
 20
27.99864367214444
 10
-21.47007110196864
 20
28.00673692188524
 10
-21.45911451432766
 20
28.01490324421138
 10
-21.44820786711898
 20
28.02314299499835
 10
-21.4373514150975
 20
28.03145653011734
 10
-21.42654541304727
 20
28.03984420544134
 10
-21.41579011569774
 20
28.04830637684448
 10
-21.40508577782747
 20
28.05684340019638
 10
-21.39443265417685
 20
28.06545563137229
 10
-21.38383099952624
 20
28.07414342624543
 10
-21.37328106860695
 20
28.08290714068744
 10
-21.36278311618843
 20
28.09174713057132
 10
-21.35233739703835
 20
28.10066375177143
 10
-21.34194416588798
 20
28.10965736015828
 10
-21.3316036775177
 20
28.11872831160643
 10
-21.32131618667699
 20
28.12787696198734
 10
-21.31108194812804
 20
28.13710366717532
 10
-21.3009012166276
 20
28.14640878304226
 10
-21.29077424691785
 20
28.15579266546228
 10
-21.28070129377737
 20
28.1652556703084
 10
-21.27068261195744
 20
28.17479815344926
 10
-21.26071845620571
 20
28.18442047076358
 10
-21.25080908128802
 20
28.19412297812027
 10
-21.24095474196838
 20
28.20390603139253
 10
-21.23115569298895
 20
28.21376998645632
 10
-21.22141218911747
 20
28.22371519918147
 10
-21.21172448510697
 20
28.23374202544028
 10
-21.20209283571785
 20
28.24385082110643
 10
-21.19251749570685
 20
28.25404194205612
 10
-21.18299871983797
 20
28.26431574415845
 10
-21.17353676284619
 20
28.27467258328556
 10
-21.16413187951728
 20
28.28511281531428
 10
-21.15478432459713
 20
28.29563679611236
 10
-21.14549435282787
 20
28.30624488155853
 10
-21.13626221899721
 20
28.31693742752031
 10
-21.12708817784731
 20
28.3277147898732
 10
-21.11797248412767
 20
28.33857732449041
 10
-21.10891539260592
 20
28.34952538724246
 10
-21.0999171580388
 20
28.3605593340053
 10
-21.0909780351776
 20
28.37167952064942
 10
-21.08209827878817
 20
28.38288630304828
 10
-21.0787538282766
 20
28.38716870165422
  0
ARC
  5
248
330
2
100
AcDbEntity
  8
0
 48
0.6
100
AcDbCircle
 10
-65.43330980520659
 20
60.80287569451048
 30
0.0
 40
2.0
100
AcDbArc
 50
141.9486744806222
 51
206.3656725032168
  0
ARC
  5
249
330
2
100
AcDbEntity
  8
0
 48
0.6
100
AcDbCircle
 10
-45.72179396406681
 20
70.57304167284019
 30
0.0
 40
22.0
100
AcDbArc
 50
162.2801918472015
 51
197.7198081527984
  0
LINE
  5
24A
330
2
100
AcDbEntity
  8
CEN
 48
0.6
100
AcDbLine
 10
-67.46532748554637
 20
48.82950815135427
 30
0.0
 11
-73.4757351256394
 21
42.81910051126827
 31
0.0
  0
CIRCLE
  5
24B
330
2
100
AcDbEntity
  8
0
 48
0.6
100
AcDbCircle
 10
-70.47053130559651
 20
45.82430433131253
 30
0.0
 40
2.25
  0
ARC
  5
24C
330
2
100
AcDbEntity
  8
0
 48
0.6
100
AcDbCircle
 10
-68.58314551875628
 20
63.26834420528918
 30
0.0
 40
2.0
100
AcDbArc
 50
321.9486744806221
 51
17.71980815279839
  0
ARC
  5
24D
330
2
100
AcDbEntity
  8
0
 48
0.6
100
AcDbCircle
 10
-70.72179396406681
 20
45.57304167284132
 30
0.0
 40
5.0
100
AcDbArc
 50
180.0
 51
270.0
  0
ARC
  5
24E
330
2
100
AcDbEntity
  8
CEN
 48
0.6
100
AcDbCircle
 10
-45.72179396406681
 20
70.57304167284133
 30
0.0
 40
35.0
100
AcDbArc
 50
199.5241366191914
 51
231.1865505975711
  0
LINE
  5
24F
330
2
100
AcDbEntity
  8
0
 48
0.6
100
AcDbLine
 10
-70.72179396406681
 20
40.57304167284132
 30
0.0
 11
-20.72179396406681
 21
40.57304167284132
 31
0.0
  0
ARC
  5
250
330
2
100
AcDbEntity
  8
0
 48
0.6
100
AcDbCircle
 10
-45.72179396406681
 20
70.57304167284019
 30
0.0
 40
24.0
100
AcDbArc
 50
206.3656725032168
 51
243.634327496789
  0
LINE
  5
251
330
2
100
AcDbEntity
  8
CEN
 48
0.6
100
AcDbLine
 10
-80.7217939640668
 20
70.57304167284019
 30
0.0
 11
-10.72179396406681
 21
70.57304167284019
 31
0.0
  0
LINE
  5
252
102
{ACAD_REACTORS
330
25E
102
}
330
2
100
AcDbEntity
  8
CEN
 48
0.6
100
AcDbLine
 10
-45.72179396406681
 20
35.57304167284018
 30
0.0
 11
-45.72179396406681
 21
105.5730416728401
 31
0.0
  0
CIRCLE
  5
253
330
2
100
AcDbEntity
  8
0
 48
0.6
100
AcDbCircle
 10
-45.72179396406681
 20
70.57304167284019
 30
0.0
 40
13.0
  0
ARC
  5
254
330
2
100
AcDbEntity
  8
0
 48
0.6
100
AcDbCircle
 10
-22.86044240936826
 20
77.87773914039144
 30
0.0
 40
2.0
100
AcDbArc
 50
141.9486744806222
 51
197.7198081527984
  0
ARC
  5
255
330
2
100
AcDbEntity
  8
0
 48
0.6
100
AcDbCircle
 10
-26.01027812291794
 20
80.34320765117035
 30
0.0
 40
2.0
100
AcDbArc
 50
321.9486744806221
 51
26.36567250321681
  0
LINE
  5
256
102
{ACAD_REACTORS
330
212
102
}
330
2
100
AcDbEntity
  8
0
 48
0.6
100
AcDbLine
 10
-15.72179396406681
 20
95.57304167284131
 30
0.0
 11
-15.72179396406681
 21
45.57304167284132
 31
0.0
  0
ARC
  5
257
330
2
100
AcDbEntity
  8
0
 48
0.6
100
AcDbCircle
 10
-68.58314551875628
 20
77.87773914039144
 30
0.0
 40
2.0
100
AcDbArc
 50
342.2801918472013
 51
38.05132551937779
  0
ARC
  5
258
330
2
100
AcDbEntity
  8
0
 48
0.6
100
AcDbCircle
 10
-65.43330980520659
 20
80.34320765117035
 30
0.0
 40
2.0
100
AcDbArc
 50
153.634327496783
 51
218.0513255193776
  0
LINE
  5
259
102
{ACAD_REACTORS
330
212
102
}
330
2
100
AcDbEntity
  8
0
 48
0.6
100
AcDbLine
 10
-75.72179396406681
 20
95.57304167284131
 30
0.0
 11
-75.72179396406681
 21
45.57304167284132
 31
0.0
  0
CIRCLE
  5
25A
330
2
100
AcDbEntity
  8
0
 48
0.6
100
AcDbCircle
 10
-45.72179396406681
 20
70.57304167284019
 30
0.0
 40
27.00000000000005
  0
CIRCLE
  5
25B
330
2
100
AcDbEntity
  8
0
 48
0.6
100
AcDbCircle
 10
-45.72179396406681
 20
70.57304167284019
 30
0.0
 40
28.5
  0
DIMENSION
  5
25C
102
{ACAD_XDICTIONARY
360
25D
102
}
102
{ACAD_REACTORS
330
25E
102
}
330
2
100
AcDbEntity
  8
0
 48
0.6
100
AcDbDimension
  2
*D34
 10
-45.72179396406681
 20
105.5730416728401
 30
0.0
 11
-34.96403651397284
 21
16.49014279728389
 31
0.0
 70
    34
  1
<>
  3
STANDARD
100
AcDb2LineAngularDimension
 13
-45.7217939640559
 23
70.57304167284133
 33
0.0
 14
-33.2953870928668
 24
40.57304167284132
 34
0.0
 15
-45.72179396406681
 25
35.57304167284018
 35
0.0
 16
-38.16065184442636
 26
13.14046532069341
 36
0.0
1001
ACAD
1000
DSTYLE
1002
{
1070
   271
1070
     1
1070
   179
1070
     1
1070
   271
1070
     0
1070
   271
1070
     1
1070
   271
1070
     1
1070
   271
1070
     1
1070
   271
1070
     1
1070
   271
1070
     1
1002
}
  0
DIMENSION
  5
26D
102
{ACAD_XDICTIONARY
360
26E
102
}
102
{ACAD_REACTORS
330
26F
102
}
330
2
100
AcDbEntity
  8
0
 48
0.6
100
AcDbDimension
  2
*D33
 10
-75.09773376381956
 20
51.54532081931264
 30
0.0
 11
-1.448858111316573
 21
99.25001577187609
 31
0.0
 70
   163
  1
<>%%p0.5
  3
STANDARD
100
AcDbDiametricDimension
 15
-16.34585416429619
 25
89.60076252638158
 35
0.0
 40
0.0
  0
LINE
  5
27B
330
2
100
AcDbEntity
  8
0
 62
   123
 48
0.6
100
AcDbLine
 10
46.74467738982275
 20
16.39120248323227
 30
0.0
 11
-12.50948043754759
 21
16.39120248323227
 31
0.0
  0
DIMENSION
  5
27C
102
{ACAD_XDICTIONARY
360
27D
102
}
102
{ACAD_REACTORS
330
27E
102
}
330
2
100
AcDbEntity
  8
0
100
AcDbDimension
  2
*D40
 10
176.5725037462834
 20
-29.60113059197851
 30
0.0
 11
171.5725037462833
 21
-29.60113059197851
 31
0.0
 70
   160
  3
STANDARD
100
AcDbAlignedDimension
 13
166.5725037462833
 23
-60.63113059197963
 33
0.0
 14
176.5725037462834
 24
-66.60113059197851
 34
0.0
100
AcDbRotatedDimension
  0
ARC
  5
28B
330
2
100
AcDbEntity
  8
0
100
AcDbCircle
 10
175.5725037462834
 20
-66.60113059197851
 30
0.0
 40
1.0
100
AcDbArc
 50
0.0
 51
90.0
  0
LINE
  5
28C
330
2
100
AcDbEntity
  8
0
100
AcDbLine
 10
166.5725037462833
 20
-65.60113059197852
 30
0.0
 11
175.5725037462834
 21
-65.60113059197852
 31
0.0
  0
LINE
  5
28D
330
2
100
AcDbEntity
  8
0
100
AcDbLine
 10
165.0728431512016
 20
-59.09922291974453
 30
0.0
 11
166.5725037462833
 21
-60.63113059197963
 31
0.0
  0
LINE
  5
28E
102
{ACAD_REACTORS
330
2AF
102
}
330
2
100
AcDbEntity
  8
0
100
AcDbLine
 10
121.5725037462834
 20
-58.35113059197851
 30
0.0
 11
165.0728431512016
 21
-59.09922291974453
 31
0.0
  0
LINE
  5
28F
330
2
100
AcDbEntity
  8
0
100
AcDbLine
 10
174.0725037462834
 20
-114.4011305919807
 30
0.0
 11
174.0725037462834
 21
-120.4436533676916
 31
0.0
  0
LINE
  5
290
330
2
100
AcDbEntity
  8
0
100
AcDbLine
 10
169.0725037462834
 20
-114.4011305919807
 30
0.0
 11
169.0725037462834
 21
-118.4436533676896
 31
0.0
  0
LINE
  5
291
102
{ACAD_REACTORS
330
2A0
102
}
330
2
100
AcDbEntity
  8
0
100
AcDbLine
 10
169.0725037462834
 20
-114.4011305919807
 30
0.0
 11
174.0725037462834
 21
-114.4011305919807
 31
0.0
  0
LINE
  5
292
330
2
100
AcDbEntity
  8
0
100
AcDbLine
 10
173.5725037462834
 20
-114.4011305919807
 30
0.0
 11
173.5725037462834
 21
-113.6011305919784
 31
0.0
  0
LINE
  5
293
330
2
100
AcDbEntity
  8
0
100
AcDbLine
 10
169.5725037462833
 20
-114.4011305919807
 30
0.0
 11
169.5725037462833
 21
-113.6011305919784
 31
0.0
  0
LINE
  5
294
330
2
100
AcDbEntity
  8
0
100
AcDbLine
 10
171.5725037462833
 20
-114.4011305919807
 30
0.0
 11
171.5725037462833
 21
-113.6011305919784
 31
0.0
  0
ARC
  5
295
330
2
100
AcDbEntity
  8
0
100
AcDbCircle
 10
174.0725037462834
 20
-112.6011305919784
 30
0.0
 40
1.0
100
AcDbArc
 50
270.0
 51
0.0
  0
ARC
  5
296
330
2
100
AcDbEntity
  8
0
100
AcDbCircle
 10
169.0725037462834
 20
-112.6011305919784
 30
0.0
 40
1.0
100
AcDbArc
 50
180.0
 51
270.0
  0
LINE
  5
297
102
{ACAD_REACTORS
330
2A0
102
}
330
2
100
AcDbEntity
  8
0
100
AcDbLine
 10
169.0725037462834
 20
-113.6011305919784
 30
0.0
 11
174.0725037462834
 21
-113.6011305919784
 31
0.0
  0
ARC
  5
298
330
2
100
AcDbEntity
  8
0
100
AcDbCircle
 10
175.5725037462834
 20
-111.6011305919784
 30
0.0
 40
1.0
100
AcDbArc
 50
270.0
 51
0.0
  0
LINE
  5
299
102
{ACAD_REACTORS
330
2A0
102
}
330
2
100
AcDbEntity
  8
0
100
AcDbLine
 10
166.5725037462833
 20
-112.6011305919784
 30
0.0
 11
175.5725037462834
 21
-112.6011305919784
 31
0.0
  0
LINE
  5
29A
330
2
100
AcDbEntity
  8
0
100
AcDbLine
 10
166.5725037462833
 20
-117.5711305919795
 30
0.0
 11
165.0728431512016
 21
-119.1030382642155
 31
0.0
  0
ARC
  5
29B
330
2
100
AcDbEntity
  8
0
100
AcDbCircle
 10
168.0725037462833
 20
-120.4436533676916
 30
0.0
 40
6.0
100
AcDbArc
 50
270.0
 51
0.0
  0
ARC
  5
29C
330
2
100
AcDbEntity
  8
0
100
AcDbCircle
 10
166.0725037462833
 20
-118.4436533676896
 30
0.0
 40
3.0
100
AcDbArc
 50
270.0
 51
0.0
  0
LINE
  5
29D
102
{ACAD_REACTORS
330
2AF
102
}
330
2
100
AcDbEntity
  8
0
100
AcDbLine
 10
121.5725037462834
 20
-119.8511305919784
 30
0.0
 11
165.0728431512016
 21
-119.1030382642155
 31
0.0
  0
DIMENSION
  5
29E
102
{ACAD_XDICTIONARY
360
29F
102
}
102
{ACAD_REACTORS
330
2A0
102
}
330
2
100
AcDbEntity
  8
0
100
AcDbDimension
  2
*D42
 10
190.6539972719929
 20
-112.6011305919784
 30
0.0
 11
190.6539972719929
 21
-91.39488059197971
 31
0.0
 70
   160
  1
%%C<>
  3
STANDARD
100
AcDbAlignedDimension
 13
175.5725037462834
 23
-65.60113059197852
 33
0.0
 14
175.5725037462834
 24
-112.6011305919784
 34
0.0
 50
90.0
100
AcDbRotatedDimension
  0
DIMENSION
  5
2AD
102
{ACAD_XDICTIONARY
360
2AE
102
}
102
{ACAD_REACTORS
330
2AF
102
}
330
2
100
AcDbEntity
  8
0
100
AcDbDimension
  2
*D41
 10
200.4904689615923
 20
-119.1030382642155
 30
0.0
 11
200.4904689615923
 21
-89.15743967406251
 31
0.0
 70
   160
  1
%%C<>
  3
STANDARD
100
AcDbAlignedDimension
 13
165.0728431512016
 23
-59.09922291974453
 33
0.0
 14
165.0728431512016
 24
-119.1030382642155
 34
0.0
 50
90.0
100
AcDbRotatedDimension
  0
LINE
  5
2BC
102
{ACAD_REACTORS
330
27E
102
}
330
2
100
AcDbEntity
  8
0
100
AcDbLine
 10
176.5725037462834
 20
-66.60113059197851
 30
0.0
 11
176.5725037462834
 21
-111.6011305919784
 31
0.0
  0
LINE
  5
2BD
330
2
100
AcDbEntity
  8
0
100
AcDbLine
 10
166.5725037462833
 20
-60.63113059197963
 30
0.0
 11
166.5725037462833
 21
-117.5711305919795
 31
0.0
  0
LINE
  5
2BE
330
2
100
AcDbEntity
  8
0
 48
0.6
100
AcDbLine
 10
121.5725037462834
 20
-118.6011305919784
 30
0.0
 11
121.5725037462834
 21
-59.60113059197851
 31
0.0
  0
LINE
  5
2BF
330
2
100
AcDbEntity
  8
0
 48
0.6
100
AcDbLine
 10
121.5725037462942
 20
-58.35113059197851
 30
0.0
 11
121.5725037462834
 21
-119.8511305919784
 31
0.0
  0
LINE
  5
2C0
330
2
100
AcDbEntity
  8
0
 48
0.6
100
AcDbLine
 10
121.5725037462834
 20
-118.6011305919784
 30
0.0
 11
121.5725037462834
 21
-59.60113059197851
 31
0.0
  0
DIMENSION
  5
2C1
102
{ACAD_XDICTIONARY
360
2C2
102
}
102
{ACAD_REACTORS
330
2C3
102
}
330
2
100
AcDbEntity
  8
0
100
AcDbDimension
  2
*D45
 10
169.2693196687431
 20
130.0730416728401
 30
0.0
 11
164.2693196687431
 21
130.0730416728401
 31
0.0
 70
   160
  3
STANDARD
100
AcDbAlignedDimension
 13
159.269319668743
 23
99.04304167283932
 33
0.0
 14
169.2693196687431
 24
93.07304167284019
 34
0.0
100
AcDbRotatedDimension
  0
LINE
  5
2D0
102
{ACAD_REACTORS
330
2EA
102
}
330
2
100
AcDbEntity
  8
0
100
AcDbLine
 10
114.2693196687432
 20
101.32304167284
 30
0.0
 11
157.7696590736523
 21
100.5749493450752
 31
0.0
  0
LINE
  5
2D1
330
2
100
AcDbEntity
  8
0
100
AcDbLine
 10
157.7696590736523
 20
100.5749493450752
 30
0.0
 11
159.269319668743
 21
99.04304167283932
 31
0.0
  0
LINE
  5
2D2
330
2
100
AcDbEntity
  8
0
100
AcDbLine
 10
159.269319668743
 20
94.07304167284019
 30
0.0
 11
168.2693196687431
 21
94.07304167284019
 31
0.0
  0
ARC
  5
2D3
330
2
100
AcDbEntity
  8
0
100
AcDbCircle
 10
168.2693196687431
 20
93.07304167284019
 30
0.0
 40
1.0
100
AcDbArc
 50
0.0
 51
90.0
  0
LINE
  5
2D4
102
{ACAD_REACTORS
330
2EA
102
}
330
2
100
AcDbEntity
  8
0
100
AcDbLine
 10
114.2693196687432
 20
39.82304167284018
 30
0.0
 11
157.7696590736523
 21
40.57113400060461
 31
0.0
  0
LINE
  5
2D5
330
2
100
AcDbEntity
  8
0
100
AcDbLine
 10
159.269319668743
 20
42.10304167283925
 30
0.0
 11
157.7696590736523
 21
40.57113400060461
 31
0.0
  0
LINE
  5
2D6
102
{ACAD_REACTORS
330
2F9
102
}
330
2
100
AcDbEntity
  8
0
100
AcDbLine
 10
159.269319668743
 20
47.07304167284017
 30
0.0
 11
168.2693196687431
 21
47.07304167284017
 31
0.0
  0
ARC
  5
2D7
330
2
100
AcDbEntity
  8
0
100
AcDbCircle
 10
168.2693196687431
 20
48.07304167284017
 30
0.0
 40
1.0
100
AcDbArc
 50
270.0
 51
0.0
  0
LINE
  5
2D8
102
{ACAD_REACTORS
330
2F9
102
}
330
2
100
AcDbEntity
  8
0
100
AcDbLine
 10
161.7693196687431
 20
46.07304167284017
 30
0.0
 11
166.769319668743
 21
46.07304167284017
 31
0.0
  0
ARC
  5
2D9
330
2
100
AcDbEntity
  8
0
100
AcDbCircle
 10
161.7693196687431
 20
47.07304167284017
 30
0.0
 40
1.0
100
AcDbArc
 50
180.0
 51
270.0
  0
ARC
  5
2DA
330
2
100
AcDbEntity
  8
0
100
AcDbCircle
 10
166.769319668743
 20
47.07304167284017
 30
0.0
 40
1.0
100
AcDbArc
 50
270.0
 51
0.0
  0
LINE
  5
2DB
330
2
100
AcDbEntity
  8
0
100
AcDbLine
 10
164.2693196687431
 20
45.27304167283932
 30
0.0
 11
164.2693196687431
 21
46.07304167284017
 31
0.0
  0
LINE
  5
2DC
330
2
100
AcDbEntity
  8
0
100
AcDbLine
 10
162.269319668743
 20
45.27304167283932
 30
0.0
 11
162.269319668743
 21
46.07304167284017
 31
0.0
  0
LINE
  5
2DD
330
2
100
AcDbEntity
  8
0
100
AcDbLine
 10
166.269319668743
 20
45.27304167283932
 30
0.0
 11
166.269319668743
 21
46.07304167284017
 31
0.0
  0
LINE
  5
2DE
102
{ACAD_REACTORS
330
2F9
102
}
330
2
100
AcDbEntity
  8
0
100
AcDbLine
 10
161.7693196687431
 20
45.27304167283932
 30
0.0
 11
166.769319668743
 21
45.27304167283932
 31
0.0
  0
LINE
  5
2DF
330
2
100
AcDbEntity
  8
0
100
AcDbLine
 10
161.7693196687431
 20
45.27304167283932
 30
0.0
 11
161.7693196687431
 21
41.23051889713042
 31
0.0
  0
LINE
  5
2E0
330
2
100
AcDbEntity
  8
0
100
AcDbLine
 10
166.769319668743
 20
45.27304167283932
 30
0.0
 11
166.769319668743
 21
39.23051889712813
 31
0.0
  0
ARC
  5
2E1
330
2
100
AcDbEntity
  8
0
100
AcDbCircle
 10
158.7693196687431
 20
41.23051889713042
 30
0.0
 40
3.0
100
AcDbArc
 50
270.0
 51
0.0
  0
ARC
  5
2E2
330
2
100
AcDbEntity
  8
0
100
AcDbCircle
 10
160.7693196687431
 20
39.23051889712813
 30
0.0
 40
6.0
100
AcDbArc
 50
270.0
 51
0.0
  0
LINE
  5
2E3
330
2
100
AcDbEntity
  8
0
 48
0.6
100
AcDbLine
 10
114.2693196687432
 20
41.07304167284018
 30
0.0
 11
114.2693196687432
 21
100.0730416728401
 31
0.0
  0
LINE
  5
2E4
330
2
100
AcDbEntity
  8
0
 48
0.6
100
AcDbLine
 10
114.2693196687432
 20
101.32304167284
 30
0.0
 11
114.2693196687432
 21
39.82304167284018
 31
0.0
  0
LINE
  5
2E5
330
2
100
AcDbEntity
  8
0
 48
0.6
100
AcDbLine
 10
114.2693196687432
 20
41.07304167284018
 30
0.0
 11
114.2693196687432
 21
100.0730416728401
 31
0.0
  0
LINE
  5
2E6
330
2
100
AcDbEntity
  8
0
100
AcDbLine
 10
159.269319668743
 20
99.04304167283932
 30
0.0
 11
159.269319668743
 21
42.10304167283925
 31
0.0
  0
LINE
  5
2E7
102
{ACAD_REACTORS
330
2C3
102
}
330
2
100
AcDbEntity
  8
0
100
AcDbLine
 10
169.2693196687431
 20
93.07304167284019
 30
0.0
 11
169.2693196687431
 21
48.07304167284017
 31
0.0
  0
DIMENSION
  5
2E8
102
{ACAD_XDICTIONARY
360
2E9
102
}
102
{ACAD_REACTORS
330
2EA
102
}
330
2
100
AcDbEntity
  8
0
100
AcDbDimension
  2
*D44
 10
193.187284884043
 20
40.57113400060461
 30
0.0
 11
193.187284884043
 21
70.51673259075733
 31
0.0
 70
   160
  1
%%C<>
  3
STANDARD
100
AcDbAlignedDimension
 13
157.7696590736523
 23
100.5749493450752
 33
0.0
 14
157.7696590736523
 24
40.57113400060461
 34
0.0
 50
90.0
100
AcDbRotatedDimension
  0
DIMENSION
  5
2F7
102
{ACAD_XDICTIONARY
360
2F8
102
}
102
{ACAD_REACTORS
330
2F9
102
}
330
2
100
AcDbEntity
  8
0
100
AcDbDimension
  2
*D43
 10
183.3508131944435
 20
47.07304167284017
 30
0.0
 11
183.3508131944435
 21
68.27929167284015
 31
0.0
 70
   160
  1
%%C<>
  3
STANDARD
100
AcDbAlignedDimension
 13
168.2693196687431
 23
94.07304167284019
 33
0.0
 14
168.2693196687431
 24
47.07304167284017
 34
0.0
 50
90.0
100
AcDbRotatedDimension
  0
ENDSEC
  0
SECTION
  2
OBJECTS
  0
DICTIONARY
  5
9
330
0
100
AcDbDictionary
  3
ACAD_GROUP
350
98
  3
ACAD_LAYOUT
350
D
  3
ACAD_MLINESTYLE
350
99
  3
ACAD_PLOTSETTINGS
350
9A
  3
ACAD_PLOTSTYLENAME
350
8
  3
ACDBHEADERROUNDTRIPXREC
350
4D3
  3
ACDBVARIABLEDICTIONARY
350
306
  0
DICTIONARY
  5
15
330
14
100
AcDbDictionary
280
     1
  3
ACAD_LAYERFILTERS
360
16
  3
ACAD_LAYERSTATES
360
89
  0
DICTIONARY
  5
3
330
2
100
AcDbDictionary
280
     1
  3
ACAD_LAYOUTSELFREF
360
4F4
  0
DICTIONARY
  5
F
330
E
100
AcDbDictionary
280
     1
  3
ACAD_LAYOUTSELFREF
360
4F5
  0
DICTIONARY
  5
D3
330
D2
100
AcDbDictionary
280
     1
  3
ACAD_DIMASSOC
360
D4
  0
DICTIONARY
  5
E4
330
E3
100
AcDbDictionary
280
     1
  3
ACAD_DIMASSOC
360
E5
  0
DICTIONARY
  5
F5
330
F4
100
AcDbDictionary
280
     1
  3
ACAD_DIMASSOC
360
F6
  0
DICTIONARY
  5
15F
330
15E
100
AcDbDictionary
280
     1
  3
ACAD_DIMASSOC
360
160
  0
DICTIONARY
  5
187
330
186
100
AcDbDictionary
280
     1
  3
ACAD_DIMASSOC
360
188
  0
DICTIONARY
  5
198
330
197
100
AcDbDictionary
280
     1
  3
ACAD_DIMASSOC
360
199
  0
DICTIONARY
  5
1A6
330
1A5
100
AcDbDictionary
280
     1
  3
ACAD_DIMASSOC
360
1A7
  0
DICTIONARY
  5
1B5
330
1B4
100
AcDbDictionary
280
     1
  3
ACAD_DIMASSOC
360
1B6
  0
DICTIONARY
  5
201
330
200
100
AcDbDictionary
280
     1
  3
ACAD_DIMASSOC
360
202
  0
DICTIONARY
  5
211
330
210
100
AcDbDictionary
280
     1
  3
ACAD_DIMASSOC
360
212
  0
DICTIONARY
  5
25D
330
25C
100
AcDbDictionary
280
     1
  3
ACAD_DIMASSOC
360
25E
  0
DICTIONARY
  5
26E
330
26D
100
AcDbDictionary
280
     1
  3
ACAD_DIMASSOC
360
26F
  0
DICTIONARY
  5
27D
330
27C
100
AcDbDictionary
280
     1
  3
ACAD_DIMASSOC
360
27E
  0
DICTIONARY
  5
29F
330
29E
100
AcDbDictionary
280
     1
  3
ACAD_DIMASSOC
360
2A0
  0
DICTIONARY
  5
2AE
330
2AD
100
AcDbDictionary
280
     1
  3
ACAD_DIMASSOC
360
2AF
  0
DICTIONARY
  5
2C2
330
2C1
100
AcDbDictionary
280
     1
  3
ACAD_DIMASSOC
360
2C3
  0
DICTIONARY
  5
2E9
330
2E8
100
AcDbDictionary
280
     1
  3
ACAD_DIMASSOC
360
2EA
  0
DICTIONARY
  5
2F8
330
2F7
100
AcDbDictionary
280
     1
  3
ACAD_DIMASSOC
360
2F9
  0
DICTIONARY
  5
98
102
{ACAD_REACTORS
330
9
102
}
330
9
100
AcDbDictionary
  0
DICTIONARY
  5
D
102
{ACAD_REACTORS
330
9
102
}
330
9
100
AcDbDictionary
  0
DICTIONARY
  5
99
102
{ACAD_REACTORS
330
9
102
}
330
9
100
AcDbDictionary
  3
STANDARD
350
9B
  0
DICTIONARY
  5
9A
102
{ACAD_REACTORS
330
9
102
}
330
9
100
AcDbDictionary
  0
ACDBDICTIONARYWDFLT
  5
8
102
{ACAD_REACTORS
330
9
102
}
330
9
100
AcDbDictionary
281
     1
  3
Normal
350
7
100
AcDbDictionaryWithDefault
340
7
  0
DICTIONARY
  5
4D3
102
{ACAD_REACTORS
330
9
102
}
330
9
100
AcDbDictionary
  3
CEPSNTYPE
350
4DD
  3
DIMSTYLEDATA
350
4E1
  3
FINGERPRINTGUID
350
4DE
  3
HYPERLINKBASE
350
4D6
  3
INSUNITS
350
4DC
  3
LAYOUTDICT
350
4D8
  3
LWETCUNION
350
4DB
  3
PLOTSETDICT
350
4D9
  3
PLOTSTYLNAMDICT
350
4DA
  3
PSVPSCALE
350
4E0
  3
PUCSBASE
350
4E4
  3
PUCSORGBACK
350
4EA
  3
PUCSORGBOTTOM
350
4E6
  3
PUCSORGFRONT
350
4E9
  3
PUCSORGLEFT
350
4E7
  3
PUCSORGRIGHT
350
4E8
  3
PUCSORGTOP
350
4E5
  3
PUCSORTHOREF
350
4E2
  3
PUCSORTHOVIEW
350
4E3
  3
STYLESHEET
350
4D7
  3
TSTACKALIGN
350
4D4
  3
TSTACKSIZE
350
4D5
  3
UCSBASE
350
4ED
  3
UCSORGBACK
350
4F3
  3
UCSORGBOTTOM
350
4EF
  3
UCSORGFRONT
350
4F2
  3
UCSORGLEFT
350
4F0
  3
UCSORGRIGHT
350
4F1
  3
UCSORGTOP
350
4EE
  3
UCSORTHOREF
350
4EB
  3
UCSORTHOVIEW
350
4EC
  3
VERSIONGUID
350
4DF
  0
DICTIONARY
  5
306
102
{ACAD_REACTORS
330
9
102
}
330
9
100
AcDbDictionary
  3
DIMASSOC
350
308
  3
HIDETEXT
350
307
  0
DICTIONARY
  5
16
102
{ACAD_REACTORS
330
15
102
}
330
15
100
AcDbDictionary
280
     1
  3
$LAYERS
360
17
  3
-_UND_0
360
18
  3
-PEGC
360
19
  3
101
360
1A
  3
102
360
1B
  3
1DUC
360
1C
  3
1EQ
360
1D
  3
1TUB
360
1E
  3
2
360
1F
  3
2000
360
20
  3
50
360
21
  3
58J
360
22
  3
65
360
23
  3
AA
360
24
  3
ACABADOS
360
25
  3
AGUA_Y_DREN
360
26
  3
AIRE
360
27
  3
ALLE_AUS
360
28
  3
ALLES_MIT_S
360
29
  3
AMARILLO
360
2A
  3
APAGADOS
360
2B
  3
ARR
360
2C
  3
BA
360
2D
  3
BACKS
360
2E
  3
BASE
360
2F
  3
BLOQ_INUTIL
360
30
  3
CADKON
360
31
  3
CARPINTERIA
360
32
  3
CERRADOS
360
33
  3
COL
360
34
  3
COLOR
360
35
  3
COLOR_250
360
36
  3
COLORES
360
37
  3
CONGELADOS
360
38
  3
CONJUNTO
360
39
  3
D1
360
3A
  3
DA_
360
3B
  3
DET-
360
3C
  3
DOR-H
360
3D
  3
EJES
360
3E
  3
ELECTRICO
360
3F
  3
F1
360
40
  3
FROZEN
360
41
  3
GRID
360
42
  3
GRIDTXT
360
43
  3
HATCH
360
44
  3
HCAD
360
45
  3
INSTALACIONES
360
46
  3
JIZNI
360
47
  3
KCK
360
48
  3
KKK
360
49
  3
LAY
360
4A
  3
LAYER-0
360
4E
  3
LAYER-1
360
4F
  3
LAYER_1_UND_0
360
4B
  3
LAYER_2_UND_0
360
4C
  3
LAYER_9_UND_0_SCHRAFFUR
360
4D
  3
LOCK
360
50
  3
LOCKED
360
51
  3
LOTES
360
52
  3
LUNAR
360
53
  3
LUNAR2
360
54
  3
M
360
55
  3
MIS_LAYERS
360
56
  3
MRKCK
360
57
  3
NECADKON
360
58
  3
NI_LH
360
59
  3
NI_RH
360
5A
  3
NUM
360
5B
  3
OFF
360
5C
  3
ON
360
5D
  3
PBASE
360
5E
  3
PEGC
360
5F
  3
PEGCT
360
60
  3
PFRAME
360
61
  3
PGRID
360
62
  3
PGRIDT
360
63
  3
PLAFONES
360
64
  3
PLANTAS
360
65
  3
PLOT
360
66
  3
PRENDIDAS
360
67
  3
PRENDIDOS
360
68
  3
PRINT
360
69
  3
PT
360
6A
  3
PTH
360
6B
  3
PVGRID
360
6C
  3
RED_DE_AGUA_POTABLE
360
6D
  3
RED_DE_ENERGIA_ELECTRICA
360
6E
  3
SEVERNI
360
6F
  3
SHIN
360
70
  3
SHOW_ALL_LAYER
360
71
  3
SIN
360
72
  3
STORAGE-CART
360
73
  3
T
360
74
  3
TEXTOS
360
75
  3
TEXTURAS
360
76
  3
TUBERIAS
360
77
  3
UNFRZ
360
78
  3
V\U+0160ECHNY_NEPOU\U+017D\U+00CDVAN\U+00C9
360
79
  3
VA
360
7A
  3
VENTILACI\U+00D3N
360
7B
  3
VYHODNI
360
7C
  3
YO
360
7D
  3
ZAPADNI
360
7E
  3
사용
360
7F
  3
신규
360
80
  3
실박스
360
81
  3
우리토목
360
82
  3
주차
360
83
  3
지상정밀
360
84
  3
쩜선
360
85
  3
플로터_작업층
360
86
  3
현재_작업층
360
87
  3
현재_잠금
360
88
  0
DICTIONARY
  5
89
102
{ACAD_REACTORS
330
15
102
}
330
15
100
AcDbDictionary
  0
XRECORD
  5
4F4
102
{ACAD_REACTORS
330
3
102
}
330
3
100
AcDbXrecord
340
2
  0
XRECORD
  5
4F5
102
{ACAD_REACTORS
330
F
102
}
330
F
100
AcDbXrecord
340
E
  0
DIMASSOC
  5
D4
102
{ACAD_REACTORS
330
D3
102
}
330
D3
100
AcDbDimAssoc
330
D2
 90
        3
 70
     0
 71
     0
  1
AcDbOsnapPointRef
 72
    13
331
15C
 73
     2
 91
        0
 40
0.0
 10
51.57250374628347
 20
-62.10113059197851
 30
0.0
 75
     0
  1
AcDbOsnapPointRef
 72
    13
331
15B
 73
     2
 91
        0
 40
0.0
 10
53.57250374628346
 20
-59.10113059197851
 30
0.0
 75
     0
  0
DIMASSOC
  5
E5
102
{ACAD_REACTORS
330
E4
102
}
330
E4
100
AcDbDimAssoc
330
E3
 90
        2
 70
     0
 71
     0
  1
AcDbOsnapPointRef
 72
     1
331
106
 73
     2
 91
        0
 40
1.0
 10
60.57250374628346
 20
-60.50239325045049
 30
0.0
 75
     0
  0
DIMASSOC
  5
F6
102
{ACAD_REACTORS
330
F5
102
}
330
F5
100
AcDbDimAssoc
330
F4
 90
        3
 70
     0
 71
     0
  1
AcDbOsnapPointRef
 72
    13
331
183
 73
     2
 91
        0
 40
0.0
 10
-77.95425254551807
 20
-64.10113059197761
 30
0.0
 75
     0
  1
AcDbOsnapPointRef
 72
    13
331
180
 73
     2
 91
        0
 40
0.0
 10
-17.9542525455181
 20
-64.10113059197761
 30
0.0
 75
     0
  0
DIMASSOC
  5
160
102
{ACAD_REACTORS
330
15F
102
}
330
15F
100
AcDbDimAssoc
330
15E
 90
        3
 70
     0
 71
     0
  1
AcDbOsnapPointRef
 72
    13
331
15C
 73
     2
 91
        0
 40
0.0
 10
51.57250374628347
 20
-62.10113059197851
 30
0.0
 75
     0
  1
AcDbOsnapPointRef
 72
     1
331
15C
 73
     2
 91
        0
 40
1.0
 10
51.57250374628347
 20
-116.1011305919783
 30
0.0
 75
     0
  0
DIMASSOC
  5
188
102
{ACAD_REACTORS
330
187
102
}
330
187
100
AcDbDimAssoc
330
186
 90
       15
 70
     0
 71
     0
  1
AcDbOsnapPointRef
 72
    13
331
139
 73
     2
 91
        0
 40
0.0
 10
-47.9542525455181
 20
-89.1011305919776
 30
0.0
 75
     0
  1
AcDbOsnapPointRef
 72
     1
331
139
 73
     2
 91
        0
 40
1.0
 10
-35.52784567432717
 20
-119.1011305919776
 30
0.0
 75
     0
  1
AcDbOsnapPointRef
 72
    13
331
17C
 73
     2
 91
        0
 40
0.0
 10
-47.9542525455181
 20
-124.1011305919784
 30
0.0
 75
     0
  1
AcDbOsnapPointRef
 72
     1
331
17C
 73
     2
 91
        0
 40
1.0
 10
-47.9542525455181
 20
-54.10113059197851
 30
0.0
 75
     0
  0
DIMASSOC
  5
199
102
{ACAD_REACTORS
330
198
102
}
330
198
100
AcDbDimAssoc
330
197
 90
        2
 70
     0
 71
     0
  1
AcDbOsnapPointRef
 72
     3
331
109
 73
     2
 91
        0
 40
0.0
 10
-47.9542525455181
 20
-89.1011305919776
 30
0.0
 75
     0
  0
DIMASSOC
  5
1A7
102
{ACAD_REACTORS
330
1A6
102
}
330
1A6
100
AcDbDimAssoc
330
1A5
 90
        2
 70
     0
 71
     0
  1
AcDbOsnapPointRef
 72
     1
331
1C6
 73
     2
 91
        0
 40
1.0
 10
53.26931966874326
 20
99.17177901436822
 30
0.0
 75
     0
  0
DIMASSOC
  5
1B6
102
{ACAD_REACTORS
330
1B5
102
}
330
1B5
100
AcDbDimAssoc
330
1B4
 90
        3
 70
     0
 71
     0
  1
AcDbOsnapPointRef
 72
    13
331
1FE
 73
     2
 91
        0
 40
0.0
 10
44.26931966874326
 20
97.57304167284019
 30
0.0
 75
     0
  1
AcDbOsnapPointRef
 72
    13
331
1FF
 73
     2
 91
        0
 40
0.0
 10
46.26931966874326
 20
100.5730416728402
 30
0.0
 75
     0
  0
DIMASSOC
  5
202
102
{ACAD_REACTORS
330
201
102
}
330
201
100
AcDbDimAssoc
330
200
 90
        3
 70
     0
 71
     0
  1
AcDbOsnapPointRef
 72
    13
331
1FE
 73
     2
 91
        0
 40
0.0
 10
44.26931966874326
 20
97.57304167284019
 30
0.0
 75
     0
  1
AcDbOsnapPointRef
 72
     1
331
1FE
 73
     2
 91
        0
 40
1.0
 10
44.26931966874326
 20
43.57304167284017
 30
0.0
 75
     0
  0
DIMASSOC
  5
212
102
{ACAD_REACTORS
330
211
102
}
330
211
100
AcDbDimAssoc
330
210
 90
        3
 70
     0
 71
     0
  1
AcDbOsnapPointRef
 72
    13
331
259
 73
     2
 91
        0
 40
0.0
 10
-75.72179396406681
 20
95.57304167284131
 30
0.0
 75
     0
  1
AcDbOsnapPointRef
 72
    13
331
256
 73
     2
 91
        0
 40
0.0
 10
-15.72179396406681
 20
95.57304167284131
 30
0.0
 75
     0
  0
DIMASSOC
  5
25E
102
{ACAD_REACTORS
330
25D
102
}
330
25D
100
AcDbDimAssoc
330
25C
 90
       15
 70
     0
 71
     0
  1
AcDbOsnapPointRef
 72
    13
331
231
 73
     2
 91
        0
 40
0.0
 10
-45.7217939640559
 20
70.57304167284133
 30
0.0
 75
     0
  1
AcDbOsnapPointRef
 72
     1
331
231
 73
     2
 91
        0
 40
1.0
 10
-33.2953870928668
 20
40.57304167284132
 30
0.0
 75
     0
  1
AcDbOsnapPointRef
 72
    13
331
252
 73
     2
 91
        0
 40
0.0
 10
-45.72179396406681
 20
35.57304167284018
 30
0.0
 75
     0
  1
AcDbOsnapPointRef
 72
     1
331
252
 73
     2
 91
        0
 40
1.0
 10
-45.72179396406681
 20
105.5730416728401
 30
0.0
 75
     0
  0
DIMASSOC
  5
26F
102
{ACAD_REACTORS
330
26E
102
}
330
26E
100
AcDbDimAssoc
330
26D
 90
        2
 70
     0
 71
     0
  1
AcDbOsnapPointRef
 72
     3
331
220
 73
     2
 91
        0
 40
0.0
 10
-45.72179396406681
 20
70.57304167284133
 30
0.0
 75
     0
  0
DIMASSOC
  5
27E
102
{ACAD_REACTORS
330
27D
102
}
330
27D
100
AcDbDimAssoc
330
27C
 90
        2
 70
     0
 71
     0
  1
AcDbOsnapPointRef
 72
    13
331
2BC
 73
     2
 91
        0
 40
0.0
 10
176.5725037462834
 20
-66.60113059197851
 30
0.0
 75
     0
  0
DIMASSOC
  5
2A0
102
{ACAD_REACTORS
330
29F
102
}
330
29F
100
AcDbDimAssoc
330
29E
 90
        2
 70
     0
 71
     0
  1
AcDbOsnapPointRef
 72
     1
331
299
 73
     2
 91
        0
 40
1.0
 10
175.5725037462834
 20
-112.6011305919784
 30
0.0
 75
     0
  0
DIMASSOC
  5
2AF
102
{ACAD_REACTORS
330
2AE
102
}
330
2AE
100
AcDbDimAssoc
330
2AD
 90
        3
 70
     0
 71
     0
  1
AcDbOsnapPointRef
 72
     1
331
28E
 73
     2
 91
        0
 40
1.0
 10
165.0728431512016
 20
-59.09922291974453
 30
0.0
 75
     0
  1
AcDbOsnapPointRef
 72
     1
331
29D
 73
     2
 91
        0
 40
1.0
 10
165.0728431512016
 20
-119.1030382642155
 30
0.0
 75
     0
  0
DIMASSOC
  5
2C3
102
{ACAD_REACTORS
330
2C2
102
}
330
2C2
100
AcDbDimAssoc
330
2C1
 90
        2
 70
     0
 71
     0
  1
AcDbOsnapPointRef
 72
    13
331
2E7
 73
     2
 91
        0
 40
0.0
 10
169.2693196687431
 20
93.07304167284019
 30
0.0
 75
     0
  0
DIMASSOC
  5
2EA
102
{ACAD_REACTORS
330
2E9
102
}
330
2E9
100
AcDbDimAssoc
330
2E8
 90
        3
 70
     0
 71
     0
  1
AcDbOsnapPointRef
 72
     1
331
2D0
 73
     2
 91
        0
 40
1.0
 10
157.7696590736523
 20
100.5749493450752
 30
0.0
 75
     0
  1
AcDbOsnapPointRef
 72
     1
331
2D4
 73
     2
 91
        0
 40
1.0
 10
157.7696590736523
 20
40.57113400060461
 30
0.0
 75
     0
  0
DIMASSOC
  5
2F9
102
{ACAD_REACTORS
330
2F8
102
}
330
2F8
100
AcDbDimAssoc
330
2F7
 90
        2
 70
     0
 71
     0
  1
AcDbOsnapPointRef
 72
     1
331
2D6
 73
     2
 91
        0
 40
1.0
 10
168.2693196687431
 20
47.07304167284017
 30
0.0
 75
     0
  0
MLINESTYLE
  5
9B
102
{ACAD_REACTORS
330
99
102
}
330
99
100
AcDbMlineStyle
  2
STANDARD
 70
     0
  3

 62
   256
 51
90.0
 52
90.0
 71
     2
 49
0.5
 62
   256
  6
BYLAYER
 49
-0.5
 62
   256
  6
BYLAYER
  0
ACDBPLACEHOLDER
  5
7
102
{ACAD_REACTORS
330
8
102
}
330
8
100
AcDbPlaceHolder
280
     0
  0
XRECORD
  5
4DD
102
{ACAD_REACTORS
330
4D3
102
}
330
4D3
100
AcDbXrecord
 90
        0
  0
XRECORD
  5
4E1
102
{ACAD_REACTORS
330
4D3
102
}
330
4D3
100
AcDbXrecord
1000
DSTYLE
1002
{
1070
    79
 70
     2
1070
   179
 70
     1
1002
}
  0
XRECORD
  5
4DE
102
{ACAD_REACTORS
330
4D3
102
}
330
4D3
100
AcDbXrecord
  1
{FDEAD578-A652-11D2-9A35-0060089B3A3F}
  0
XRECORD
  5
4D6
102
{ACAD_REACTORS
330
4D3
102
}
330
4D3
100
AcDbXrecord
  1

  0
XRECORD
  5
4DC
102
{ACAD_REACTORS
330
4D3
102
}
330
4D3
100
AcDbXrecord
 90
        4
  0
XRECORD
  5
4D8
102
{ACAD_REACTORS
330
4D3
102
}
330
4D3
100
AcDbXrecord
340
D
  0
XRECORD
  5
4DB
102
{ACAD_REACTORS
330
4D3
102
}
330
4D3
100
AcDbXrecord
 90
    10781
  0
XRECORD
  5
4D9
102
{ACAD_REACTORS
330
4D3
102
}
330
4D3
100
AcDbXrecord
340
9A
  0
XRECORD
  5
4DA
102
{ACAD_REACTORS
330
4D3
102
}
330
4D3
100
AcDbXrecord
340
8
  0
XRECORD
  5
4E0
102
{ACAD_REACTORS
330
4D3
102
}
330
4D3
100
AcDbXrecord
 40
0.0
  0
XRECORD
  5
4E4
102
{ACAD_REACTORS
330
4D3
102
}
330
4D3
100
AcDbXrecord
340
0
  0
XRECORD
  5
4EA
102
{ACAD_REACTORS
330
4D3
102
}
330
4D3
100
AcDbXrecord
 10
0.0
 20
0.0
 30
0.0
  0
XRECORD
  5
4E6
102
{ACAD_REACTORS
330
4D3
102
}
330
4D3
100
AcDbXrecord
 10
0.0
 20
0.0
 30
0.0
  0
XRECORD
  5
4E9
102
{ACAD_REACTORS
330
4D3
102
}
330
4D3
100
AcDbXrecord
 10
0.0
 20
0.0
 30
0.0
  0
XRECORD
  5
4E7
102
{ACAD_REACTORS
330
4D3
102
}
330
4D3
100
AcDbXrecord
 10
0.0
 20
0.0
 30
0.0
  0
XRECORD
  5
4E8
102
{ACAD_REACTORS
330
4D3
102
}
330
4D3
100
AcDbXrecord
 10
0.0
 20
0.0
 30
0.0
  0
XRECORD
  5
4E5
102
{ACAD_REACTORS
330
4D3
102
}
330
4D3
100
AcDbXrecord
 10
0.0
 20
0.0
 30
0.0
  0
XRECORD
  5
4E2
102
{ACAD_REACTORS
330
4D3
102
}
330
4D3
100
AcDbXrecord
340
0
  0
XRECORD
  5
4E3
102
{ACAD_REACTORS
330
4D3
102
}
330
4D3
100
AcDbXrecord
 70
     0
  0
XRECORD
  5
4D7
102
{ACAD_REACTORS
330
4D3
102
}
330
4D3
100
AcDbXrecord
  1

  0
XRECORD
  5
4D4
102
{ACAD_REACTORS
330
4D3
102
}
330
4D3
100
AcDbXrecord
 90
        1
  0
XRECORD
  5
4D5
102
{ACAD_REACTORS
330
4D3
102
}
330
4D3
100
AcDbXrecord
 90
       70
  0
XRECORD
  5
4ED
102
{ACAD_REACTORS
330
4D3
102
}
330
4D3
100
AcDbXrecord
340
0
  0
XRECORD
  5
4F3
102
{ACAD_REACTORS
330
4D3
102
}
330
4D3
100
AcDbXrecord
 10
0.0
 20
0.0
 30
0.0
  0
XRECORD
  5
4EF
102
{ACAD_REACTORS
330
4D3
102
}
330
4D3
100
AcDbXrecord
 10
0.0
 20
0.0
 30
0.0
  0
XRECORD
  5
4F2
102
{ACAD_REACTORS
330
4D3
102
}
330
4D3
100
AcDbXrecord
 10
0.0
 20
0.0
 30
0.0
  0
XRECORD
  5
4F0
102
{ACAD_REACTORS
330
4D3
102
}
330
4D3
100
AcDbXrecord
 10
0.0
 20
0.0
 30
0.0
  0
XRECORD
  5
4F1
102
{ACAD_REACTORS
330
4D3
102
}
330
4D3
100
AcDbXrecord
 10
0.0
 20
0.0
 30
0.0
  0
XRECORD
  5
4EE
102
{ACAD_REACTORS
330
4D3
102
}
330
4D3
100
AcDbXrecord
 10
0.0
 20
0.0
 30
0.0
  0
XRECORD
  5
4EB
102
{ACAD_REACTORS
330
4D3
102
}
330
4D3
100
AcDbXrecord
340
0
  0
XRECORD
  5
4EC
102
{ACAD_REACTORS
330
4D3
102
}
330
4D3
100
AcDbXrecord
 70
     0
  0
XRECORD
  5
4DF
102
{ACAD_REACTORS
330
4D3
102
}
330
4D3
100
AcDbXrecord
  1
{30AE4ECC-799A-48E4-9988-D2841ABEFFB4}
  0
DICTIONARYVAR
  5
308
102
{ACAD_REACTORS
330
306
102
}
330
306
100
DictionaryVariables
280
     0
  1
2
  0
DICTIONARYVAR
  5
307
102
{ACAD_REACTORS
330
306
102
}
330
306
100
DictionaryVariables
280
     0
  1
1
  0
XRECORD
  5
17
102
{ACAD_REACTORS
330
16
102
}
330
16
100
AcDbXrecord
  1
$layers
  1
*
  1
*
  1
*
 70
     0
  1
*
  1
*
  0
XRECORD
  5
18
102
{ACAD_REACTORS
330
16
102
}
330
16
100
AcDbXrecord
  1
- und 0
  1
-*,0
  1
*
  1
*
 70
     0
  1
*
  1
*
  0
XRECORD
  5
19
102
{ACAD_REACTORS
330
16
102
}
330
16
100
AcDbXrecord
  1
-pegc
  1
*-pegc
  1
*
  1
*
 70
     0
  1
*
  1
*
  0
XRECORD
  5
1A
102
{ACAD_REACTORS
330
16
102
}
330
16
100
AcDbXrecord
  1
101
  1
*101
  1
*
  1
*
 70
   256
  1
*
  1
*
  0
XRECORD
  5
1B
102
{ACAD_REACTORS
330
16
102
}
330
16
100
AcDbXrecord
  1
102
  1
102*
  1
*
  1
*
 70
     0
  1
*
  1
*
  0
XRECORD
  5
1C
102
{ACAD_REACTORS
330
16
102
}
330
16
100
AcDbXrecord
  1
1duc
  1
*1duc*
  1
*
  1
*
 70
     0
  1
*
  1
*
  0
XRECORD
  5
1D
102
{ACAD_REACTORS
330
16
102
}
330
16
100
AcDbXrecord
  1
1eq
  1
*1eq*
  1
*
  1
*
 70
     0
  1
*
  1
*
  0
XRECORD
  5
1E
102
{ACAD_REACTORS
330
16
102
}
330
16
100
AcDbXrecord
  1
1tub
  1
*1t*
  1
*
  1
*
 70
     0
  1
*
  1
*
  0
XRECORD
  5
1F
102
{ACAD_REACTORS
330
16
102
}
330
16
100
AcDbXrecord
  1
2
  1
*
  1
2
  1
*
 70
     0
  1
*
  1
*
  0
XRECORD
  5
20
102
{ACAD_REACTORS
330
16
102
}
330
16
100
AcDbXrecord
  1
2000
  1
2000*
  1
*
  1
*
 70
     0
  1
*
  1
*
  0
XRECORD
  5
21
102
{ACAD_REACTORS
330
16
102
}
330
16
100
AcDbXrecord
  1
50
  1
*-50
  1
*
  1
*
 70
     0
  1
*
  1
*
  0
XRECORD
  5
22
102
{ACAD_REACTORS
330
16
102
}
330
16
100
AcDbXrecord
  1
58J
  1
*58*
  1
*
  1
*
 70
     0
  1
*
  1
*
  0
XRECORD
  5
23
102
{ACAD_REACTORS
330
16
102
}
330
16
100
AcDbXrecord
  1
65
  1
*65
  1
*
  1
*
 70
     0
  1
*
  1
*
  0
XRECORD
  5
24
102
{ACAD_REACTORS
330
16
102
}
330
16
100
AcDbXrecord
  1
aa
  1
aa*
  1
*
  1
*
 70
     0
  1
*
  1
*
  0
XRECORD
  5
25
102
{ACAD_REACTORS
330
16
102
}
330
16
100
AcDbXrecord
  1
acabados
  1
a-*
  1
*
  1
*
 70
     5
  1
*
  1
*
  0
XRECORD
  5
26
102
{ACAD_REACTORS
330
16
102
}
330
16
100
AcDbXrecord
  1
AGUA Y DREN
  1
A-DS-*
  1
*
  1
*
 70
     0
  1
*
  1
*
  0
XRECORD
  5
27
102
{ACAD_REACTORS
330
16
102
}
330
16
100
AcDbXrecord
  1
Aire
  1
*
  1
*
  1
*
 70
     0
  1
*
  1
*
  0
XRECORD
  5
28
102
{ACAD_REACTORS
330
16
102
}
330
16
100
AcDbXrecord
  1
alle aus
  1
99999999999
  1
*
  1
*
 70
     0
  1
*
  1
*
  0
XRECORD
  5
29
102
{ACAD_REACTORS
330
16
102
}
330
16
100
AcDbXrecord
  1
Alles mit S
  1
s*
  1
*
  1
*
 70
     0
  1
*
  1
*
  0
XRECORD
  5
2A
102
{ACAD_REACTORS
330
16
102
}
330
16
100
AcDbXrecord
  1
amarillo
  1
*
  1
yellow
  1
*
 70
     0
  1
*
  1
*
  0
XRECORD
  5
2B
102
{ACAD_REACTORS
330
16
102
}
330
16
100
AcDbXrecord
  1
APAGADOS
  1
*
  1
*
  1
*
 70
     4
  1
*
  1
*
  0
XRECORD
  5
2C
102
{ACAD_REACTORS
330
16
102
}
330
16
100
AcDbXrecord
  1
ARR
  1
ARR*
  1
*
  1
*
 70
     0
  1
*
  1
*
  0
XRECORD
  5
2D
102
{ACAD_REACTORS
330
16
102
}
330
16
100
AcDbXrecord
  1
ba
  1
*
  1
*
  1
*
 70
     0
  1
*
  1
*
  0
XRECORD
  5
2E
102
{ACAD_REACTORS
330
16
102
}
330
16
100
AcDbXrecord
  1
BACKS
  1
*-H
  1
*
  1
*
 70
     0
  1
*
  1
*
  0
XRECORD
  5
2F
102
{ACAD_REACTORS
330
16
102
}
330
16
100
AcDbXrecord
  1
BASE
  1
*-PBASE
  1
*
  1
*
 70
     0
  1
*
  1
*
  0
XRECORD
  5
30
102
{ACAD_REACTORS
330
16
102
}
330
16
100
AcDbXrecord
  1
BLOQ_INUTIL
  1
*
  1
*
  1
*
 70
     0
  1
*
  1
*
  0
XRECORD
  5
31
102
{ACAD_REACTORS
330
16
102
}
330
16
100
AcDbXrecord
  1
CADKON
  1
?[KAHBSM]?????[23M],?[KAHBSM]?????[23M][1456A-DGHILN-SU-Z]
  1
*
  1
*
 70
     0
  1
*
  1
*
  0
XRECORD
  5
32
102
{ACAD_REACTORS
330
16
102
}
330
16
100
AcDbXrecord
  1
carpinteria
  1
carp*
  1
*
  1
*
 70
     0
  1
*
  1
*
  0
XRECORD
  5
33
102
{ACAD_REACTORS
330
16
102
}
330
16
100
AcDbXrecord
  1
cerrados
  1
*
  1
*
  1
*
 70
   256
  1
*
  1
*
  0
XRECORD
  5
34
102
{ACAD_REACTORS
330
16
102
}
330
16
100
AcDbXrecord
  1
COL
  1
*
  1
*
  1
*
 70
     1
  1
*
  1
*
  0
XRECORD
  5
35
102
{ACAD_REACTORS
330
16
102
}
330
16
100
AcDbXrecord
  1
COLOR
  1
*
  1
253
  1
*
 70
     0
  1
*
  1
*
  0
XRECORD
  5
36
102
{ACAD_REACTORS
330
16
102
}
330
16
100
AcDbXrecord
  1
color 250
  1
*
  1
250
  1
*
 70
     0
  1
*
  1
*
  0
XRECORD
  5
37
102
{ACAD_REACTORS
330
16
102
}
330
16
100
AcDbXrecord
  1
COLORES
  1
*
  1
6
  1
*
 70
     0
  1
*
  1
*
  0
XRECORD
  5
38
102
{ACAD_REACTORS
330
16
102
}
330
16
100
AcDbXrecord
  1
Congelados
  1
*
  1
*
  1
*
 70
     4
  1
*
  1
*
  0
XRECORD
  5
39
102
{ACAD_REACTORS
330
16
102
}
330
16
100
AcDbXrecord
  1
CONJUNTO
  1
CON-*
  1
*
  1
*
 70
     0
  1
*
  1
*
  0
XRECORD
  5
3A
102
{ACAD_REACTORS
330
16
102
}
330
16
100
AcDbXrecord
  1
d1
  1
achurados
  1
*
  1
*
 70
     0
  1
*
  1
*
  0
XRECORD
  5
3B
102
{ACAD_REACTORS
330
16
102
}
330
16
100
AcDbXrecord
  1
DA_
  1
DA*
  1
*
  1
*
 70
     0
  1
*
  1
*
  0
XRECORD
  5
3C
102
{ACAD_REACTORS
330
16
102
}
330
16
100
AcDbXrecord
  1
DET-
  1
*
  1
*
  1
*
 70
     0
  1
*
  1
*
  0
XRECORD
  5
3D
102
{ACAD_REACTORS
330
16
102
}
330
16
100
AcDbXrecord
  1
DOR-H
  1
*
  1
7
  1
*
 70
     0
  1
*
  1
*
  0
XRECORD
  5
3E
102
{ACAD_REACTORS
330
16
102
}
330
16
100
AcDbXrecord
  1
ejes
  1
eje*
  1
*
  1
*
 70
     0
  1
*
  1
*
  0
XRECORD
  5
3F
102
{ACAD_REACTORS
330
16
102
}
330
16
100
AcDbXrecord
  1
ELECTRICO
  1
ELEC-*
  1
*
  1
*
 70
     0
  1
*
  1
*
  0
XRECORD
  5
40
102
{ACAD_REACTORS
330
16
102
}
330
16
100
AcDbXrecord
  1
F1
  1
Halaxref*
  1
*
  1
*
 70
     0
  1
*
  1
*
  0
XRECORD
  5
41
102
{ACAD_REACTORS
330
16
102
}
330
16
100
AcDbXrecord
  1
frozen
  1
*
  1
*
  1
*
 70
     4
  1
*
  1
*
  0
XRECORD
  5
42
102
{ACAD_REACTORS
330
16
102
}
330
16
100
AcDbXrecord
  1
grid
  1
*-PGRID
  1
*
  1
*
 70
     1
  1
*
  1
*
  0
XRECORD
  5
43
102
{ACAD_REACTORS
330
16
102
}
330
16
100
AcDbXrecord
  1
GRIDTXT
  1
*-PGRIDT
  1
*
  1
*
 70
     0
  1
*
  1
*
  0
XRECORD
  5
44
102
{ACAD_REACTORS
330
16
102
}
330
16
100
AcDbXrecord
  1
HATCH
  1
HAT*
  1
*
  1
*
 70
     0
  1
*
  1
*
  0
XRECORD
  5
45
102
{ACAD_REACTORS
330
16
102
}
330
16
100
AcDbXrecord
  1
HCAD
  1
1HCAD-*
  1
*
  1
*
 70
    13
  1
*
  1
*
  0
XRECORD
  5
46
102
{ACAD_REACTORS
330
16
102
}
330
16
100
AcDbXrecord
  1
INSTALACIONES
  1
I-*
  1
*
  1
*
 70
     0
  1
*
  1
*
  0
XRECORD
  5
47
102
{ACAD_REACTORS
330
16
102
}
330
16
100
AcDbXrecord
  1
JIZNI
  1
*-J
  1
*
  1
*
 70
     0
  1
*
  1
*
  0
XRECORD
  5
48
102
{ACAD_REACTORS
330
16
102
}
330
16
100
AcDbXrecord
  1
kck
  1
*
  1
*
  1
*
 70
     0
  1
*
  1
*
  0
XRECORD
  5
49
102
{ACAD_REACTORS
330
16
102
}
330
16
100
AcDbXrecord
  1
kkk
  1
k
  1
*
  1
*
 70
     0
  1
*
  1
*
  0
XRECORD
  5
4A
102
{ACAD_REACTORS
330
16
102
}
330
16
100
AcDbXrecord
  1
lay
  1
??-*
  1
*
  1
*
 70
     0
  1
*
  1
*
  0
XRECORD
  5
4E
102
{ACAD_REACTORS
330
16
102
}
330
16
100
AcDbXrecord
  1
Layer-0
  1
0*
  1
*
  1
*
 70
     0
  1
*
  1
*
  0
XRECORD
  5
4F
102
{ACAD_REACTORS
330
16
102
}
330
16
100
AcDbXrecord
  1
Layer-1
  1
1*
  1
*
  1
*
 70
     0
  1
*
  1
*
  0
XRECORD
  5
4B
102
{ACAD_REACTORS
330
16
102
}
330
16
100
AcDbXrecord
  1
Layer 1 und 0
  1
1*,0
  1
*
  1
*
 70
     0
  1
*
  1
*
  0
XRECORD
  5
4C
102
{ACAD_REACTORS
330
16
102
}
330
16
100
AcDbXrecord
  1
Layer 2 und 0
  1
2*,0
  1
*
  1
*
 70
     0
  1
*
  1
*
  0
XRECORD
  5
4D
102
{ACAD_REACTORS
330
16
102
}
330
16
100
AcDbXrecord
  1
Layer 9 und 0 Schraffur
  1
9*,0
  1
*
  1
*
 70
     0
  1
*
  1
*
  0
XRECORD
  5
50
102
{ACAD_REACTORS
330
16
102
}
330
16
100
AcDbXrecord
  1
LOCK
  1
*
  1
*
  1
*
 70
   256
  1
*
  1
*
  0
XRECORD
  5
51
102
{ACAD_REACTORS
330
16
102
}
330
16
100
AcDbXrecord
  1
locked
  1
*
  1
*
  1
*
 70
   256
  1
*
  1
*
  0
XRECORD
  5
52
102
{ACAD_REACTORS
330
16
102
}
330
16
100
AcDbXrecord
  1
Lotes
  1
*
  1
*
  1
*
 70
     1
  1
*
  1
*
  0
XRECORD
  5
53
102
{ACAD_REACTORS
330
16
102
}
330
16
100
AcDbXrecord
  1
LUNAR
  1
*
  1
*
  1
*
 70
    48
  1
*
  1
*
  0
XRECORD
  5
54
102
{ACAD_REACTORS
330
16
102
}
330
16
100
AcDbXrecord
  1
LUNAR2
  1
*
  1
*
  1
*
 70
    12
  1
*
  1
*
  0
XRECORD
  5
55
102
{ACAD_REACTORS
330
16
102
}
330
16
100
AcDbXrecord
  1
M
  1
M*
  1
*
  1
*
 70
     0
  1
*
  1
*
  0
XRECORD
  5
56
102
{ACAD_REACTORS
330
16
102
}
330
16
100
AcDbXrecord
  1
mis_layers
  1
mis_*
  1
*
  1
*
 70
     0
  1
*
  1
*
  0
XRECORD
  5
57
102
{ACAD_REACTORS
330
16
102
}
330
16
100
AcDbXrecord
  1
MRKCK
  1
*
  1
*
  1
*
 70
     0
  1
*
  1
*
  0
XRECORD
  5
58
102
{ACAD_REACTORS
330
16
102
}
330
16
100
AcDbXrecord
  1
NECADKON
  1
~*?[KAHBSM]?????[23M]*
  1
*
  1
*
 70
     0
  1
*
  1
*
  0
XRECORD
  5
59
102
{ACAD_REACTORS
330
16
102
}
330
16
100
AcDbXrecord
  1
NI_LH
  1
NI_LH*
  1
*
  1
*
 70
     0
  1
*
  1
*
  0
XRECORD
  5
5A
102
{ACAD_REACTORS
330
16
102
}
330
16
100
AcDbXrecord
  1
NI_RH
  1
NI_RH*
  1
*
  1
*
 70
     0
  1
*
  1
*
  0
XRECORD
  5
5B
102
{ACAD_REACTORS
330
16
102
}
330
16
100
AcDbXrecord
  1
NUM
  1
NUM*
  1
*
  1
*
 70
     0
  1
*
  1
*
  0
XRECORD
  5
5C
102
{ACAD_REACTORS
330
16
102
}
330
16
100
AcDbXrecord
  1
off
  1
*
  1
*
  1
*
 70
     3
  1
*
  1
*
  0
XRECORD
  5
5D
102
{ACAD_REACTORS
330
16
102
}
330
16
100
AcDbXrecord
  1
on
  1
*
  1
*
  1
*
 70
     0
  1
*
  1
*
  0
XRECORD
  5
5E
102
{ACAD_REACTORS
330
16
102
}
330
16
100
AcDbXrecord
  1
PBASE
  1
*PBASE
  1
*
  1
*
 70
     0
  1
*
  1
*
  0
XRECORD
  5
5F
102
{ACAD_REACTORS
330
16
102
}
330
16
100
AcDbXrecord
  1
PEGC
  1
*PEGC
  1
*
  1
*
 70
     0
  1
*
  1
*
  0
XRECORD
  5
60
102
{ACAD_REACTORS
330
16
102
}
330
16
100
AcDbXrecord
  1
PEGCT
  1
*PEGCT
  1
*
  1
*
 70
     0
  1
*
  1
*
  0
XRECORD
  5
61
102
{ACAD_REACTORS
330
16
102
}
330
16
100
AcDbXrecord
  1
PFRAME
  1
PFRAME*
  1
*
  1
*
 70
     0
  1
*
  1
*
  0
XRECORD
  5
62
102
{ACAD_REACTORS
330
16
102
}
330
16
100
AcDbXrecord
  1
PGRID
  1
*PGRID
  1
*
  1
*
 70
     0
  1
*
  1
*
  0
XRECORD
  5
63
102
{ACAD_REACTORS
330
16
102
}
330
16
100
AcDbXrecord
  1
PGRIDT
  1
*PGRIDT
  1
*
  1
*
 70
     0
  1
*
  1
*
  0
XRECORD
  5
64
102
{ACAD_REACTORS
330
16
102
}
330
16
100
AcDbXrecord
  1
PLAFONES
  1
0-*
  1
*
  1
*
 70
     0
  1
*
  1
*
  0
XRECORD
  5
65
102
{ACAD_REACTORS
330
16
102
}
330
16
100
AcDbXrecord
  1
PLANTAS
  1
P-*
  1
*
  1
*
 70
     0
  1
*
  1
*
  0
XRECORD
  5
66
102
{ACAD_REACTORS
330
16
102
}
330
16
100
AcDbXrecord
  1
Plot
  1
*
  1
*
  1
*
 70
  1024
  1
*
  1
*
  0
XRECORD
  5
67
102
{ACAD_REACTORS
330
16
102
}
330
16
100
AcDbXrecord
  1
PRENDIDAS
  1
*
  1
*
  1
*
 70
    13
  1
*
  1
*
  0
XRECORD
  5
68
102
{ACAD_REACTORS
330
16
102
}
330
16
100
AcDbXrecord
  1
PRENDIDOS
  1
*
  1
*
  1
*
 70
    12
  1
*
  1
*
  0
XRECORD
  5
69
102
{ACAD_REACTORS
330
16
102
}
330
16
100
AcDbXrecord
  1
print
  1
*
  1
7
  1
*
 70
  1280
  1
*
  1
*
  0
XRECORD
  5
6A
102
{ACAD_REACTORS
330
16
102
}
330
16
100
AcDbXrecord
  1
PT
  1
PT-*
  1
*
  1
*
 70
     0
  1
*
  1
*
  0
XRECORD
  5
6B
102
{ACAD_REACTORS
330
16
102
}
330
16
100
AcDbXrecord
  1
PTH
  1
PTH*
  1
*
  1
*
 70
     0
  1
*
  1
*
  0
XRECORD
  5
6C
102
{ACAD_REACTORS
330
16
102
}
330
16
100
AcDbXrecord
  1
PVGRID
  1
*PVGRID
  1
*
  1
*
 70
     0
  1
*
  1
*
  0
XRECORD
  5
6D
102
{ACAD_REACTORS
330
16
102
}
330
16
100
AcDbXrecord
  1
Red de Agua Potable
  1
Red de Agua Potable
  1
*
  1
*
 70
     1
  1
*
  1
*
  0
XRECORD
  5
6E
102
{ACAD_REACTORS
330
16
102
}
330
16
100
AcDbXrecord
  1
Red de Energia Electrica
  1
Lotes
  1
*
  1
*
 70
     1
  1
*
  1
*
  0
XRECORD
  5
6F
102
{ACAD_REACTORS
330
16
102
}
330
16
100
AcDbXrecord
  1
SEVERNI
  1
*-S
  1
*
  1
*
 70
     0
  1
*
  1
*
  0
XRECORD
  5
70
102
{ACAD_REACTORS
330
16
102
}
330
16
100
AcDbXrecord
  1
shin
  1
일*
  1
*
  1
*
 70
     0
  1
*
  1
*
  0
XRECORD
  5
71
102
{ACAD_REACTORS
330
16
102
}
330
16
100
AcDbXrecord
  1
SHOW ALL LAYER
  1
*
  1
*
  1
*
 70
     0
  1
*
  1
*
  0
XRECORD
  5
72
102
{ACAD_REACTORS
330
16
102
}
330
16
100
AcDbXrecord
  1
sin
  1
sin
  1
*
  1
*
 70
     0
  1
*
  1
*
  0
XRECORD
  5
73
102
{ACAD_REACTORS
330
16
102
}
330
16
100
AcDbXrecord
  1
STORAGE-CART
  1
STORAGE-CART*
  1
*
  1
*
 70
     0
  1
*
  1
*
  0
XRECORD
  5
74
102
{ACAD_REACTORS
330
16
102
}
330
16
100
AcDbXrecord
  1
T
  1
T*
  1
*
  1
*
 70
     0
  1
*
  1
*
  0
XRECORD
  5
75
102
{ACAD_REACTORS
330
16
102
}
330
16
100
AcDbXrecord
  1
TEXTOS
  1
TXT*
  1
*
  1
*
 70
     0
  1
*
  1
*
  0
XRECORD
  5
76
102
{ACAD_REACTORS
330
16
102
}
330
16
100
AcDbXrecord
  1
TEXTURAS
  1
*TEXTURAS
  1
*
  1
*
 70
     0
  1
*
  1
*
  0
XRECORD
  5
77
102
{ACAD_REACTORS
330
16
102
}
330
16
100
AcDbXrecord
  1
TUBERIAS
  1
T*
  1
*
  1
*
 70
     0
  1
*
  1
*
  0
XRECORD
  5
78
102
{ACAD_REACTORS
330
16
102
}
330
16
100
AcDbXrecord
  1
UNFRZ
  1
*
  1
*
  1
*
 70
    12
  1
*
  1
*
  0
XRECORD
  5
79
102
{ACAD_REACTORS
330
16
102
}
330
16
100
AcDbXrecord
  1
v\U+0161echny nepou\U+017E\U+00EDvan\U+00E9
  1
*
  1
*
  1
*
 70
     0
  1
*
  1
*
  0
XRECORD
  5
7A
102
{ACAD_REACTORS
330
16
102
}
330
16
100
AcDbXrecord
  1
VA
  1
VA*
  1
*
  1
*
 70
     0
  1
*
  1
*
  0
XRECORD
  5
7B
102
{ACAD_REACTORS
330
16
102
}
330
16
100
AcDbXrecord
  1
Ventilaci\U+00F3n
  1
*
  1
*
  1
*
 70
     0
  1
*
  1
*
  0
XRECORD
  5
7C
102
{ACAD_REACTORS
330
16
102
}
330
16
100
AcDbXrecord
  1
VYHODNI
  1
*-V
  1
*
  1
*
 70
     0
  1
*
  1
*
  0
XRECORD
  5
7D
102
{ACAD_REACTORS
330
16
102
}
330
16
100
AcDbXrecord
  1
Yo
  1
Muros
  1
*
  1
*
 70
     0
  1
*
  1
*
  0
XRECORD
  5
7E
102
{ACAD_REACTORS
330
16
102
}
330
16
100
AcDbXrecord
  1
ZAPADNI
  1
*-Z
  1
*
  1
*
 70
     0
  1
*
  1
*
  0
XRECORD
  5
7F
102
{ACAD_REACTORS
330
16
102
}
330
16
100
AcDbXrecord
  1
사용
  1
*
  1
*
  1
*
 70
   256
  1
*
  1
*
  0
XRECORD
  5
80
102
{ACAD_REACTORS
330
16
102
}
330
16
100
AcDbXrecord
  1
신규
  1
신규
  1
*
  1
*
 70
     0
  1
*
  1
*
  0
XRECORD
  5
81
102
{ACAD_REACTORS
330
16
102
}
330
16
100
AcDbXrecord
  1
실박스
  1
BLO,SYM,SYM1,SYM2
  1
*
  1
*
 70
     0
  1
*
  1
*
  0
XRECORD
  5
82
102
{ACAD_REACTORS
330
16
102
}
330
16
100
AcDbXrecord
  1
우리토목
  1
w-*
  1
*
  1
*
 70
     0
  1
*
  1
*
  0
XRECORD
  5
83
102
{ACAD_REACTORS
330
16
102
}
330
16
100
AcDbXrecord
  1
주차
  1
car*
  1
*
  1
*
 70
     0
  1
*
  1
*
  0
XRECORD
  5
84
102
{ACAD_REACTORS
330
16
102
}
330
16
100
AcDbXrecord
  1
지상정밀
  1
*
  1
*
  1
*
 70
     0
  1
*
  1
*
  0
XRECORD
  5
85
102
{ACAD_REACTORS
330
16
102
}
330
16
100
AcDbXrecord
  1
쩜선
  1
*
  1
*
  1
*
 70
     0
  1
*
  1
*
  0
XRECORD
  5
86
102
{ACAD_REACTORS
330
16
102
}
330
16
100
AcDbXrecord
  1
플로터 작업층
  1
*
  1
*
  1
*
 70
  1025
  1
*
  1
*
  0
XRECORD
  5
87
102
{ACAD_REACTORS
330
16
102
}
330
16
100
AcDbXrecord
  1
현재 작업층
  1
*
  1
*
  1
*
 70
     1
  1
*
  1
*
  0
XRECORD
  5
88
102
{ACAD_REACTORS
330
16
102
}
330
16
100
AcDbXrecord
  1
현재 잠금
  1
*
  1
*
  1
*
 70
   257
  1
*
  1
*
  0
ENDSEC
  0
EOF
