  0
SECTION
  2
HEADER
  9
$ACADVER
  1
AC1014
  9
$ACADMAINTVER
 70
     9
  9
$DWGCODEPAGE
  3
ANSI_949
  9
$INSBASE
 10
0.0
 20
0.0
 30
0.0
  9
$EXTMIN
 10
-17.19157355876132
 20
14.64332428442412
 30
-0.0000000000000058
  9
$EXTMAX
 10
410.1405431769909
 20
377.3866026288468
 30
0.0000000000000104
  9
$LIMMIN
 10
0.0
 20
0.0
  9
$LIMMAX
 10
420.0
 20
297.0
  9
$ORTHOMODE
 70
     0
  9
$REGENMODE
 70
     1
  9
$FILLMODE
 70
     1
  9
$QTEXTMODE
 70
     0
  9
$MIRRTEXT
 70
     0
  9
$DRAGMODE
 70
     2
  9
$LTSCALE
 40
0.2
  9
$OSMODE
 70
  3071
  9
$ATTMODE
 70
     1
  9
$TEXTSIZE
 40
5.777225951253058
  9
$TRACEWID
 40
1.0
  9
$TEXTSTYLE
  7
STANDARD
  9
$CLAYER
  8
0
  9
$CELTYPE
  6
BYLAYER
  9
$CECOLOR
 62
   256
  9
$CELTSCALE
 40
1.0
  9
$DELOBJ
 70
     1
  9
$DISPSILH
 70
     0
  9
$DIMSCALE
 40
1.0
  9
$DIMASZ
 40
3.0
  9
$DIMEXO
 40
1.0
  9
$DIMDLI
 40
10.0
  9
$DIMRND
 40
0.0
  9
$DIMDLE
 40
0.0
  9
$DIMEXE
 40
0.6
  9
$DIMTP
 40
0.0
  9
$DIMTM
 40
0.0
  9
$DIMTXT
 40
3.5
  9
$DIMCEN
 40
0.09
  9
$DIMTSZ
 40
0.0
  9
$DIMTOL
 70
     0
  9
$DIMLIM
 70
     0
  9
$DIMTIH
 70
     0
  9
$DIMTOH
 70
     0
  9
$DIMSE1
 70
     0
  9
$DIMSE2
 70
     0
  9
$DIMTAD
 70
     1
  9
$DIMZIN
 70
     8
  9
$DIMBLK
  1

  9
$DIMASO
 70
     1
  9
$DIMSHO
 70
     1
  9
$DIMPOST
  1

  9
$DIMAPOST
  1

  9
$DIMALT
 70
     0
  9
$DIMALTD
 70
     2
  9
$DIMALTF
 40
25.4
  9
$DIMLFAC
 40
1.0
  9
$DIMTOFL
 70
     1
  9
$DIMTVP
 40
0.0
  9
$DIMTIX
 70
     1
  9
$DIMSOXD
 70
     0
  9
$DIMSAH
 70
     0
  9
$DIMBLK1
  1

  9
$DIMBLK2
  1

  9
$DIMSTYLE
  2
1_1_2
  9
$DIMCLRD
 70
   123
  9
$DIMCLRE
 70
   123
  9
$DIMCLRT
 70
     3
  9
$DIMTFAC
 40
1.0
  9
$DIMGAP
 40
1.0
  9
$DIMJUST
 70
     0
  9
$DIMSD1
 70
     0
  9
$DIMSD2
 70
     0
  9
$DIMTOLJ
 70
     1
  9
$DIMTZIN
 70
     0
  9
$DIMALTZ
 70
     0
  9
$DIMALTTZ
 70
     0
  9
$DIMFIT
 70
     3
  9
$DIMUPT
 70
     1
  9
$DIMUNIT
 70
     2
  9
$DIMDEC
 70
     2
  9
$DIMTDEC
 70
     2
  9
$DIMALTU
 70
     2
  9
$DIMALTTD
 70
     2
  9
$DIMTXSTY
  7
STANDARD
  9
$DIMAUNIT
 70
     1
  9
$LUNITS
 70
     2
  9
$LUPREC
 70
     4
  9
$SKETCHINC
 40
1.0
  9
$FILLETRAD
 40
0.5
  9
$AUNITS
 70
     0
  9
$AUPREC
 70
     0
  9
$MENU
  1
.
  9
$ELEVATION
 40
0.0
  9
$PELEVATION
 40
0.0
  9
$THICKNESS
 40
0.0
  9
$LIMCHECK
 70
     0
  9
$BLIPMODE
 70
     0
  9
$CHAMFERA
 40
1.0
  9
$CHAMFERB
 40
1.0
  9
$CHAMFERC
 40
20.0
  9
$CHAMFERD
 40
0.0
  9
$SKPOLY
 70
     0
  9
$TDCREATE
 40
2452839.586179271
  9
$TDUPDATE
 40
2453385.425303993
  9
$TDINDWG
 40
11.1188881134
  9
$TDUSRTIMER
 40
11.1188877546
  9
$USRTIMER
 70
     1
  9
$ANGBASE
 50
0.0
  9
$ANGDIR
 70
     0
  9
$PDMODE
 70
     0
  9
$PDSIZE
 40
0.0
  9
$PLINEWID
 40
0.0
  9
$COORDS
 70
     1
  9
$SPLFRAME
 70
     0
  9
$SPLINETYPE
 70
     6
  9
$SPLINESEGS
 70
   800
  9
$ATTDIA
 70
     0
  9
$ATTREQ
 70
     1
  9
$HANDLING
 70
 22529
  9
$HANDSEED
  5
526
  9
$SURFTAB1
 70
     6
  9
$SURFTAB2
 70
     6
  9
$SURFTYPE
 70
     6
  9
$SURFU
 70
     6
  9
$SURFV
 70
     6
  9
$UCSNAME
  2

  9
$UCSORG
 10
0.0
 20
0.0
 30
0.0
  9
$UCSXDIR
 10
1.0
 20
0.0
 30
0.0
  9
$UCSYDIR
 10
0.0
 20
1.0
 30
0.0
  9
$PUCSNAME
  2

  9
$PUCSORG
 10
0.0
 20
0.0
 30
0.0
  9
$PUCSXDIR
 10
1.0
 20
0.0
 30
0.0
  9
$PUCSYDIR
 10
0.0
 20
1.0
 30
0.0
  9
$USERI1
 70
     0
  9
$USERI2
 70
     0
  9
$USERI3
 70
     0
  9
$USERI4
 70
     0
  9
$USERI5
 70
     0
  9
$USERR1
 40
0.0
  9
$USERR2
 40
0.0
  9
$USERR3
 40
0.0
  9
$USERR4
 40
0.0
  9
$USERR5
 40
0.0
  9
$WORLDVIEW
 70
     1
  9
$SHADEDGE
 70
     3
  9
$SHADEDIF
 70
    70
  9
$TILEMODE
 70
     1
  9
$MAXACTVP
 70
    48
  9
$PINSBASE
 10
0.0
 20
0.0
 30
0.0
  9
$PLIMCHECK
 70
     0
  9
$PEXTMIN
 10
0.0
 20
0.0
 30
0.0
  9
$PEXTMAX
 10
0.0
 20
0.0
 30
0.0
  9
$PLIMMIN
 10
0.0
 20
0.0
  9
$PLIMMAX
 10
12.0
 20
9.0
  9
$UNITMODE
 70
     0
  9
$VISRETAIN
 70
     1
  9
$PLINEGEN
 70
     0
  9
$PSLTSCALE
 70
     1
  9
$TREEDEPTH
 70
  3020
  9
$PICKSTYLE
 70
     1
  9
$CMLSTYLE
  2
STANDARD
  9
$CMLJUST
 70
     0
  9
$CMLSCALE
 40
20.0
  9
$PROXYGRAPHICS
 70
     1
  9
$MEASUREMENT
 70
     1
  0
ENDSEC
  0
SECTION
  2
CLASSES
  0
CLASS
  1
ACDBDICTIONARYWDFLT
  2
AcDbDictionaryWithDefault
  3
AutoCAD 2000
 90
        0
280
     0
281
     0
  0
CLASS
  1
ACDBPLACEHOLDER
  2
AcDbPlaceHolder
  3
AutoCAD 2000
 90
        0
280
     0
281
     0
  0
CLASS
  1
LAYOUT
  2
AcDbLayout
  3
AutoCAD 2000
 90
        0
280
     0
281
     0
  0
CLASS
  1
DICTIONARYVAR
  2
AcDbDictionaryVar
  3
AutoCAD 2000
 90
        0
280
     0
281
     0
  0
CLASS
  1
DIMASSOC
  2
AcDbDimAssoc
  3
"AcDbDimAssoc|Product Desc:     AcDim ARX App For Dimension|Company:          Autodesk, Inc.|WEB Address:      www.autodesk.com"
 90
        0
280
     0
281
     0
  0
CLASS
  1
LONG_TRANSACTION
  2
AcDbLongTransaction
  3
AutoCAD 2000
 90
        0
280
     0
281
     0
  0
CLASS
  1
LWPOLYLINE
  2
AcDbPolyline
  3
AutoCAD 2000
 90
        0
280
     0
281
     1
  0
CLASS
  1
HATCH
  2
AcDbHatch
  3
AutoCAD 2000
 90
        0
280
     0
281
     1
  0
CLASS
  1
XRECORD
  2
AcDbXrecord
  3
AutoCAD 2000
 90
        0
280
     0
281
     0
  0
CLASS
  1
LONG_TRANSACTION
  2
AcDbLongTransaction
  3
AutoCAD 2000
 90
        0
280
     0
281
     0
  0
CLASS
  1
LWPOLYLINE
  2
AcDbPolyline
  3
AutoCAD 2000
 90
        0
280
     0
281
     1
  0
CLASS
  1
HATCH
  2
AcDbHatch
  3
AutoCAD 2000
 90
        0
280
     0
281
     1
  0
CLASS
  1
XRECORD
  2
AcDbXrecord
  3
AutoCAD 2000
 90
        0
280
     0
281
     0
  0
CLASS
  1
LONG_TRANSACTION
  2
AcDbLongTransaction
  3
AutoCAD 2000
 90
        0
280
     0
281
     0
  0
CLASS
  1
LWPOLYLINE
  2
AcDbPolyline
  3
AutoCAD 2000
 90
        0
280
     0
281
     1
  0
CLASS
  1
HATCH
  2
AcDbHatch
  3
AutoCAD 2000
 90
        0
280
     0
281
     1
  0
CLASS
  1
XRECORD
  2
AcDbXrecord
  3
AutoCAD 2000
 90
        0
280
     0
281
     0
  0
CLASS
  1
LONG_TRANSACTION
  2
AcDbLongTransaction
  3
AutoCAD 2000
 90
        0
280
     0
281
     0
  0
CLASS
  1
LWPOLYLINE
  2
AcDbPolyline
  3
AutoCAD 2000
 90
        0
280
     0
281
     1
  0
CLASS
  1
HATCH
  2
AcDbHatch
  3
AutoCAD 2000
 90
        0
280
     0
281
     1
  0
CLASS
  1
XRECORD
  2
AcDbXrecord
  3
AutoCAD 2000
 90
        0
280
     0
281
     0
  0
CLASS
  1
LONG_TRANSACTION
  2
AcDbLongTransaction
  3
AutoCAD 2000
 90
        0
280
     0
281
     0
  0
CLASS
  1
LWPOLYLINE
  2
AcDbPolyline
  3
AutoCAD 2000
 90
        0
280
     0
281
     1
  0
CLASS
  1
HATCH
  2
AcDbHatch
  3
AutoCAD 2000
 90
        0
280
     0
281
     1
  0
CLASS
  1
XRECORD
  2
AcDbXrecord
  3
AutoCAD 2000
 90
        0
280
     0
281
     0
  0
CLASS
  1
LONG_TRANSACTION
  2
AcDbLongTransaction
  3
AutoCAD 2000
 90
        0
280
     0
281
     0
  0
CLASS
  1
LWPOLYLINE
  2
AcDbPolyline
  3
AutoCAD 2000
 90
        0
280
     0
281
     1
  0
CLASS
  1
HATCH
  2
AcDbHatch
  3
AutoCAD 2000
 90
        0
280
     0
281
     1
  0
CLASS
  1
XRECORD
  2
AcDbXrecord
  3
AutoCAD 2000
 90
        0
280
     0
281
     0
  0
CLASS
  1
LONG_TRANSACTION
  2
AcDbLongTransaction
  3
AutoCAD 2000
 90
        0
280
     0
281
     0
  0
CLASS
  1
LWPOLYLINE
  2
AcDbPolyline
  3
AutoCAD 2000
 90
        0
280
     0
281
     1
  0
CLASS
  1
HATCH
  2
AcDbHatch
  3
AutoCAD 2000
 90
        0
280
     0
281
     1
  0
CLASS
  1
XRECORD
  2
AcDbXrecord
  3
AutoCAD 2000
 90
        0
280
     0
281
     0
  0
CLASS
  1
LONG_TRANSACTION
  2
AcDbLongTransaction
  3
AutoCAD 2000
 90
        0
280
     0
281
     0
  0
CLASS
  1
LWPOLYLINE
  2
AcDbPolyline
  3
AutoCAD 2000
 90
        0
280
     0
281
     1
  0
CLASS
  1
HATCH
  2
AcDbHatch
  3
AutoCAD 2000
 90
        0
280
     0
281
     1
  0
CLASS
  1
XRECORD
  2
AcDbXrecord
  3
AutoCAD 2000
 90
        0
280
     0
281
     0
  0
CLASS
  1
LONG_TRANSACTION
  2
AcDbLongTransaction
  3
AutoCAD 2000
 90
        0
280
     0
281
     0
  0
CLASS
  1
LWPOLYLINE
  2
AcDbPolyline
  3
AutoCAD 2000
 90
        0
280
     0
281
     1
  0
CLASS
  1
HATCH
  2
AcDbHatch
  3
AutoCAD 2000
 90
        0
280
     0
281
     1
  0
CLASS
  1
XRECORD
  2
AcDbXrecord
  3
AutoCAD 2000
 90
        0
280
     0
281
     0
  0
CLASS
  1
LONG_TRANSACTION
  2
AcDbLongTransaction
  3
AutoCAD 2000
 90
        0
280
     0
281
     0
  0
CLASS
  1
LWPOLYLINE
  2
AcDbPolyline
  3
AutoCAD 2000
 90
        0
280
     0
281
     1
  0
CLASS
  1
HATCH
  2
AcDbHatch
  3
AutoCAD 2000
 90
        0
280
     0
281
     1
  0
CLASS
  1
XRECORD
  2
AcDbXrecord
  3
AutoCAD 2000
 90
        0
280
     0
281
     0
  0
CLASS
  1
LONG_TRANSACTION
  2
AcDbLongTransaction
  3
AutoCAD 2000
 90
        0
280
     0
281
     0
  0
CLASS
  1
LWPOLYLINE
  2
AcDbPolyline
  3
AutoCAD 2000
 90
        0
280
     0
281
     1
  0
CLASS
  1
HATCH
  2
AcDbHatch
  3
AutoCAD 2000
 90
        0
280
     0
281
     1
  0
CLASS
  1
XRECORD
  2
AcDbXrecord
  3
AutoCAD 2000
 90
        0
280
     0
281
     0
  0
CLASS
  1
LONG_TRANSACTION
  2
AcDbLongTransaction
  3
AutoCAD 2000
 90
        0
280
     0
281
     0
  0
CLASS
  1
LWPOLYLINE
  2
AcDbPolyline
  3
AutoCAD 2000
 90
        0
280
     0
281
     1
  0
CLASS
  1
HATCH
  2
AcDbHatch
  3
AutoCAD 2000
 90
        0
280
     0
281
     1
  0
CLASS
  1
XRECORD
  2
AcDbXrecord
  3
AutoCAD 2000
 90
        0
280
     0
281
     0
  0
CLASS
  1
LONG_TRANSACTION
  2
AcDbLongTransaction
  3
AutoCAD 2000
 90
        0
280
     0
281
     0
  0
CLASS
  1
LWPOLYLINE
  2
AcDbPolyline
  3
AutoCAD 2000
 90
        0
280
     0
281
     1
  0
CLASS
  1
HATCH
  2
AcDbHatch
  3
AutoCAD 2000
 90
        0
280
     0
281
     1
  0
CLASS
  1
XRECORD
  2
AcDbXrecord
  3
AutoCAD 2000
 90
        0
280
     0
281
     0
  0
CLASS
  1
LONG_TRANSACTION
  2
AcDbLongTransaction
  3
AutoCAD 2000
 90
        0
280
     0
281
     0
  0
CLASS
  1
LWPOLYLINE
  2
AcDbPolyline
  3
AutoCAD 2000
 90
        0
280
     0
281
     1
  0
CLASS
  1
HATCH
  2
AcDbHatch
  3
AutoCAD 2000
 90
        0
280
     0
281
     1
  0
CLASS
  1
XRECORD
  2
AcDbXrecord
  3
AutoCAD 2000
 90
        0
280
     0
281
     0
  0
CLASS
  1
LONG_TRANSACTION
  2
AcDbLongTransaction
  3
AutoCAD 2000
 90
        0
280
     0
281
     0
  0
CLASS
  1
LWPOLYLINE
  2
AcDbPolyline
  3
AutoCAD 2000
 90
        0
280
     0
281
     1
  0
CLASS
  1
HATCH
  2
AcDbHatch
  3
AutoCAD 2000
 90
        0
280
     0
281
     1
  0
CLASS
  1
XRECORD
  2
AcDbXrecord
  3
AutoCAD 2000
 90
        0
280
     0
281
     0
  0
CLASS
  1
LONG_TRANSACTION
  2
AcDbLongTransaction
  3
AutoCAD 2000
 90
        0
280
     0
281
     0
  0
CLASS
  1
LWPOLYLINE
  2
AcDbPolyline
  3
AutoCAD 2000
 90
        0
280
     0
281
     1
  0
CLASS
  1
HATCH
  2
AcDbHatch
  3
AutoCAD 2000
 90
        0
280
     0
281
     1
  0
CLASS
  1
XRECORD
  2
AcDbXrecord
  3
AutoCAD 2000
 90
        0
280
     0
281
     0
  0
CLASS
  1
LONG_TRANSACTION
  2
AcDbLongTransaction
  3
AutoCAD 2000
 90
        0
280
     0
281
     0
  0
CLASS
  1
LWPOLYLINE
  2
AcDbPolyline
  3
AutoCAD 2000
 90
        0
280
     0
281
     1
  0
CLASS
  1
HATCH
  2
AcDbHatch
  3
AutoCAD 2000
 90
        0
280
     0
281
     1
  0
CLASS
  1
XRECORD
  2
AcDbXrecord
  3
AutoCAD 2000
 90
        0
280
     0
281
     0
  0
CLASS
  1
LONG_TRANSACTION
  2
AcDbLongTransaction
  3
AutoCAD 2000
 90
        0
280
     0
281
     0
  0
CLASS
  1
LWPOLYLINE
  2
AcDbPolyline
  3
AutoCAD 2000
 90
        0
280
     0
281
     1
  0
CLASS
  1
HATCH
  2
AcDbHatch
  3
AutoCAD 2000
 90
        0
280
     0
281
     1
  0
CLASS
  1
XRECORD
  2
AcDbXrecord
  3
AutoCAD 2000
 90
        0
280
     0
281
     0
  0
CLASS
  1
LONG_TRANSACTION
  2
AcDbLongTransaction
  3
AutoCAD 2000
 90
        0
280
     0
281
     0
  0
CLASS
  1
LWPOLYLINE
  2
AcDbPolyline
  3
AutoCAD 2000
 90
        0
280
     0
281
     1
  0
CLASS
  1
HATCH
  2
AcDbHatch
  3
AutoCAD 2000
 90
        0
280
     0
281
     1
  0
CLASS
  1
XRECORD
  2
AcDbXrecord
  3
AutoCAD 2000
 90
        0
280
     0
281
     0
  0
CLASS
  1
LONG_TRANSACTION
  2
AcDbLongTransaction
  3
AutoCAD 2000
 90
        0
280
     0
281
     0
  0
CLASS
  1
LWPOLYLINE
  2
AcDbPolyline
  3
AutoCAD 2000
 90
        0
280
     0
281
     1
  0
CLASS
  1
HATCH
  2
AcDbHatch
  3
AutoCAD 2000
 90
        0
280
     0
281
     1
  0
CLASS
  1
XRECORD
  2
AcDbXrecord
  3
AutoCAD 2000
 90
        0
280
     0
281
     0
  0
CLASS
  1
LONG_TRANSACTION
  2
AcDbLongTransaction
  3
AutoCAD 2000
 90
        0
280
     0
281
     0
  0
CLASS
  1
LWPOLYLINE
  2
AcDbPolyline
  3
AutoCAD 2000
 90
        0
280
     0
281
     1
  0
CLASS
  1
HATCH
  2
AcDbHatch
  3
AutoCAD 2000
 90
        0
280
     0
281
     1
  0
CLASS
  1
XRECORD
  2
AcDbXrecord
  3
AutoCAD 2000
 90
        0
280
     0
281
     0
  0
CLASS
  1
LONG_TRANSACTION
  2
AcDbLongTransaction
  3
AutoCAD 2000
 90
        0
280
     0
281
     0
  0
CLASS
  1
LWPOLYLINE
  2
AcDbPolyline
  3
AutoCAD 2000
 90
        0
280
     0
281
     1
  0
CLASS
  1
HATCH
  2
AcDbHatch
  3
AutoCAD 2000
 90
        0
280
     0
281
     1
  0
CLASS
  1
XRECORD
  2
AcDbXrecord
  3
AutoCAD 2000
 90
        0
280
     0
281
     0
  0
CLASS
  1
LONG_TRANSACTION
  2
AcDbLongTransaction
  3
AutoCAD 2000
 90
        0
280
     0
281
     0
  0
CLASS
  1
LWPOLYLINE
  2
AcDbPolyline
  3
AutoCAD 2000
 90
        0
280
     0
281
     1
  0
CLASS
  1
HATCH
  2
AcDbHatch
  3
AutoCAD 2000
 90
        0
280
     0
281
     1
  0
CLASS
  1
XRECORD
  2
AcDbXrecord
  3
AutoCAD 2000
 90
        0
280
     0
281
     0
  0
CLASS
  1
LONG_TRANSACTION
  2
AcDbLongTransaction
  3
AutoCAD 2000
 90
        0
280
     0
281
     0
  0
CLASS
  1
LWPOLYLINE
  2
AcDbPolyline
  3
AutoCAD 2000
 90
        0
280
     0
281
     1
  0
CLASS
  1
HATCH
  2
AcDbHatch
  3
AutoCAD 2000
 90
        0
280
     0
281
     1
  0
CLASS
  1
XRECORD
  2
AcDbXrecord
  3
AutoCAD 2000
 90
        0
280
     0
281
     0
  0
CLASS
  1
LONG_TRANSACTION
  2
AcDbLongTransaction
  3
AutoCAD 2000
 90
        0
280
     0
281
     0
  0
CLASS
  1
LWPOLYLINE
  2
AcDbPolyline
  3
AutoCAD 2000
 90
        0
280
     0
281
     1
  0
CLASS
  1
HATCH
  2
AcDbHatch
  3
AutoCAD 2000
 90
        0
280
     0
281
     1
  0
CLASS
  1
XRECORD
  2
AcDbXrecord
  3
AutoCAD 2000
 90
        0
280
     0
281
     0
  0
CLASS
  1
LONG_TRANSACTION
  2
AcDbLongTransaction
  3
AutoCAD 2000
 90
        0
280
     0
281
     0
  0
CLASS
  1
LWPOLYLINE
  2
AcDbPolyline
  3
AutoCAD 2000
 90
        0
280
     0
281
     1
  0
CLASS
  1
HATCH
  2
AcDbHatch
  3
AutoCAD 2000
 90
        0
280
     0
281
     1
  0
CLASS
  1
XRECORD
  2
AcDbXrecord
  3
AutoCAD 2000
 90
        0
280
     0
281
     0
  0
CLASS
  1
LONG_TRANSACTION
  2
AcDbLongTransaction
  3
AutoCAD 2000
 90
        0
280
     0
281
     0
  0
CLASS
  1
LWPOLYLINE
  2
AcDbPolyline
  3
AutoCAD 2000
 90
        0
280
     0
281
     1
  0
CLASS
  1
HATCH
  2
AcDbHatch
  3
AutoCAD 2000
 90
        0
280
     0
281
     1
  0
CLASS
  1
XRECORD
  2
AcDbXrecord
  3
AutoCAD 2000
 90
        0
280
     0
281
     0
  0
CLASS
  1
LONG_TRANSACTION
  2
AcDbLongTransaction
  3
AutoCAD 2000
 90
        0
280
     0
281
     0
  0
CLASS
  1
LWPOLYLINE
  2
AcDbPolyline
  3
AutoCAD 2000
 90
        0
280
     0
281
     1
  0
CLASS
  1
HATCH
  2
AcDbHatch
  3
AutoCAD 2000
 90
        0
280
     0
281
     1
  0
CLASS
  1
XRECORD
  2
AcDbXrecord
  3
AutoCAD 2000
 90
        0
280
     0
281
     0
  0
CLASS
  1
LONG_TRANSACTION
  2
AcDbLongTransaction
  3
AutoCAD 2000
 90
        0
280
     0
281
     0
  0
CLASS
  1
LWPOLYLINE
  2
AcDbPolyline
  3
AutoCAD 2000
 90
        0
280
     0
281
     1
  0
CLASS
  1
HATCH
  2
AcDbHatch
  3
AutoCAD 2000
 90
        0
280
     0
281
     1
  0
CLASS
  1
XRECORD
  2
AcDbXrecord
  3
AutoCAD 2000
 90
        0
280
     0
281
     0
  0
CLASS
  1
LONG_TRANSACTION
  2
AcDbLongTransaction
  3
AutoCAD 2000
 90
        0
280
     0
281
     0
  0
CLASS
  1
LWPOLYLINE
  2
AcDbPolyline
  3
AutoCAD 2000
 90
        0
280
     0
281
     1
  0
CLASS
  1
HATCH
  2
AcDbHatch
  3
AutoCAD 2000
 90
        0
280
     0
281
     1
  0
CLASS
  1
XRECORD
  2
AcDbXrecord
  3
AutoCAD 2000
 90
        0
280
     0
281
     0
  0
CLASS
  1
LONG_TRANSACTION
  2
AcDbLongTransaction
  3
AutoCAD 2000
 90
        0
280
     0
281
     0
  0
CLASS
  1
LWPOLYLINE
  2
AcDbPolyline
  3
AutoCAD 2000
 90
        0
280
     0
281
     1
  0
CLASS
  1
HATCH
  2
AcDbHatch
  3
AutoCAD 2000
 90
        0
280
     0
281
     1
  0
CLASS
  1
XRECORD
  2
AcDbXrecord
  3
AutoCAD 2000
 90
        0
280
     0
281
     0
  0
CLASS
  1
LONG_TRANSACTION
  2
AcDbLongTransaction
  3
AutoCAD 2000
 90
        0
280
     0
281
     0
  0
CLASS
  1
LWPOLYLINE
  2
AcDbPolyline
  3
AutoCAD 2000
 90
        0
280
     0
281
     1
  0
CLASS
  1
HATCH
  2
AcDbHatch
  3
AutoCAD 2000
 90
        0
280
     0
281
     1
  0
CLASS
  1
XRECORD
  2
AcDbXrecord
  3
AutoCAD 2000
 90
        0
280
     0
281
     0
  0
CLASS
  1
LONG_TRANSACTION
  2
AcDbLongTransaction
  3
AutoCAD 2000
 90
        0
280
     0
281
     0
  0
CLASS
  1
LWPOLYLINE
  2
AcDbPolyline
  3
AutoCAD 2000
 90
        0
280
     0
281
     1
  0
CLASS
  1
HATCH
  2
AcDbHatch
  3
AutoCAD 2000
 90
        0
280
     0
281
     1
  0
CLASS
  1
XRECORD
  2
AcDbXrecord
  3
AutoCAD 2000
 90
        0
280
     0
281
     0
  0
CLASS
  1
LONG_TRANSACTION
  2
AcDbLongTransaction
  3
AutoCAD 2000
 90
        0
280
     0
281
     0
  0
CLASS
  1
LWPOLYLINE
  2
AcDbPolyline
  3
AutoCAD 2000
 90
        0
280
     0
281
     1
  0
CLASS
  1
HATCH
  2
AcDbHatch
  3
AutoCAD 2000
 90
        0
280
     0
281
     1
  0
CLASS
  1
XRECORD
  2
AcDbXrecord
  3
AutoCAD 2000
 90
        0
280
     0
281
     0
  0
CLASS
  1
LONG_TRANSACTION
  2
AcDbLongTransaction
  3
AutoCAD 2000
 90
        0
280
     0
281
     0
  0
CLASS
  1
LWPOLYLINE
  2
AcDbPolyline
  3
AutoCAD 2000
 90
        0
280
     0
281
     1
  0
CLASS
  1
HATCH
  2
AcDbHatch
  3
AutoCAD 2000
 90
        0
280
     0
281
     1
  0
CLASS
  1
XRECORD
  2
AcDbXrecord
  3
AutoCAD 2000
 90
        0
280
     0
281
     0
  0
CLASS
  1
LONG_TRANSACTION
  2
AcDbLongTransaction
  3
AutoCAD 2000
 90
        0
280
     0
281
     0
  0
CLASS
  1
LWPOLYLINE
  2
AcDbPolyline
  3
AutoCAD 2000
 90
        0
280
     0
281
     1
  0
CLASS
  1
HATCH
  2
AcDbHatch
  3
AutoCAD 2000
 90
        0
280
     0
281
     1
  0
CLASS
  1
XRECORD
  2
AcDbXrecord
  3
AutoCAD 2000
 90
        0
280
     0
281
     0
  0
CLASS
  1
LONG_TRANSACTION
  2
AcDbLongTransaction
  3
AutoCAD 2000
 90
        0
280
     0
281
     0
  0
CLASS
  1
LWPOLYLINE
  2
AcDbPolyline
  3
AutoCAD 2000
 90
        0
280
     0
281
     1
  0
CLASS
  1
HATCH
  2
AcDbHatch
  3
AutoCAD 2000
 90
        0
280
     0
281
     1
  0
CLASS
  1
XRECORD
  2
AcDbXrecord
  3
AutoCAD 2000
 90
        0
280
     0
281
     0
  0
CLASS
  1
LONG_TRANSACTION
  2
AcDbLongTransaction
  3
AutoCAD 2000
 90
        0
280
     0
281
     0
  0
CLASS
  1
LWPOLYLINE
  2
AcDbPolyline
  3
AutoCAD 2000
 90
        0
280
     0
281
     1
  0
CLASS
  1
HATCH
  2
AcDbHatch
  3
AutoCAD 2000
 90
        0
280
     0
281
     1
  0
CLASS
  1
XRECORD
  2
AcDbXrecord
  3
AutoCAD 2000
 90
        0
280
     0
281
     0
  0
CLASS
  1
LONG_TRANSACTION
  2
AcDbLongTransaction
  3
AutoCAD 2000
 90
        0
280
     0
281
     0
  0
CLASS
  1
LWPOLYLINE
  2
AcDbPolyline
  3
AutoCAD 2000
 90
        0
280
     0
281
     1
  0
CLASS
  1
HATCH
  2
AcDbHatch
  3
AutoCAD 2000
 90
        0
280
     0
281
     1
  0
CLASS
  1
XRECORD
  2
AcDbXrecord
  3
AutoCAD 2000
 90
        0
280
     0
281
     0
  0
CLASS
  1
LONG_TRANSACTION
  2
AcDbLongTransaction
  3
AutoCAD 2000
 90
        0
280
     0
281
     0
  0
CLASS
  1
LWPOLYLINE
  2
AcDbPolyline
  3
AutoCAD 2000
 90
        0
280
     0
281
     1
  0
CLASS
  1
HATCH
  2
AcDbHatch
  3
AutoCAD 2000
 90
        0
280
     0
281
     1
  0
CLASS
  1
XRECORD
  2
AcDbXrecord
  3
AutoCAD 2000
 90
        0
280
     0
281
     0
  0
CLASS
  1
LONG_TRANSACTION
  2
AcDbLongTransaction
  3
AutoCAD 2000
 90
        0
280
     0
281
     0
  0
CLASS
  1
LWPOLYLINE
  2
AcDbPolyline
  3
AutoCAD 2000
 90
        0
280
     0
281
     1
  0
CLASS
  1
HATCH
  2
AcDbHatch
  3
AutoCAD 2000
 90
        0
280
     0
281
     1
  0
CLASS
  1
XRECORD
  2
AcDbXrecord
  3
AutoCAD 2000
 90
        0
280
     0
281
     0
  0
CLASS
  1
LONG_TRANSACTION
  2
AcDbLongTransaction
  3
AutoCAD 2000
 90
        0
280
     0
281
     0
  0
CLASS
  1
LWPOLYLINE
  2
AcDbPolyline
  3
AutoCAD 2000
 90
        0
280
     0
281
     1
  0
CLASS
  1
HATCH
  2
AcDbHatch
  3
AutoCAD 2000
 90
        0
280
     0
281
     1
  0
CLASS
  1
XRECORD
  2
AcDbXrecord
  3
AutoCAD 2000
 90
        0
280
     0
281
     0
  0
CLASS
  1
LONG_TRANSACTION
  2
AcDbLongTransaction
  3
AutoCAD 2000
 90
        0
280
     0
281
     0
  0
CLASS
  1
LWPOLYLINE
  2
AcDbPolyline
  3
AutoCAD 2000
 90
        0
280
     0
281
     1
  0
CLASS
  1
HATCH
  2
AcDbHatch
  3
AutoCAD 2000
 90
        0
280
     0
281
     1
  0
CLASS
  1
XRECORD
  2
AcDbXrecord
  3
AutoCAD 2000
 90
        0
280
     0
281
     0
  0
CLASS
  1
LONG_TRANSACTION
  2
AcDbLongTransaction
  3
AutoCAD 2000
 90
        0
280
     0
281
     0
  0
CLASS
  1
LWPOLYLINE
  2
AcDbPolyline
  3
AutoCAD 2000
 90
        0
280
     0
281
     1
  0
CLASS
  1
HATCH
  2
AcDbHatch
  3
AutoCAD 2000
 90
        0
280
     0
281
     1
  0
CLASS
  1
XRECORD
  2
AcDbXrecord
  3
AutoCAD 2000
 90
        0
280
     0
281
     0
  0
CLASS
  1
LONG_TRANSACTION
  2
AcDbLongTransaction
  3
AutoCAD 2000
 90
        0
280
     0
281
     0
  0
CLASS
  1
LWPOLYLINE
  2
AcDbPolyline
  3
AutoCAD 2000
 90
        0
280
     0
281
     1
  0
CLASS
  1
HATCH
  2
AcDbHatch
  3
AutoCAD 2000
 90
        0
280
     0
281
     1
  0
CLASS
  1
XRECORD
  2
AcDbXrecord
  3
AutoCAD 2000
 90
        0
280
     0
281
     0
  0
CLASS
  1
LONG_TRANSACTION
  2
AcDbLongTransaction
  3
AutoCAD 2000
 90
        0
280
     0
281
     0
  0
CLASS
  1
LWPOLYLINE
  2
AcDbPolyline
  3
AutoCAD 2000
 90
        0
280
     0
281
     1
  0
CLASS
  1
HATCH
  2
AcDbHatch
  3
AutoCAD 2000
 90
        0
280
     0
281
     1
  0
CLASS
  1
XRECORD
  2
AcDbXrecord
  3
AutoCAD 2000
 90
        0
280
     0
281
     0
  0
CLASS
  1
LONG_TRANSACTION
  2
AcDbLongTransaction
  3
AutoCAD 2000
 90
        0
280
     0
281
     0
  0
CLASS
  1
LWPOLYLINE
  2
AcDbPolyline
  3
AutoCAD 2000
 90
        0
280
     0
281
     1
  0
CLASS
  1
HATCH
  2
AcDbHatch
  3
AutoCAD 2000
 90
        0
280
     0
281
     1
  0
CLASS
  1
XRECORD
  2
AcDbXrecord
  3
AutoCAD 2000
 90
        0
280
     0
281
     0
  0
CLASS
  1
LONG_TRANSACTION
  2
AcDbLongTransaction
  3
AutoCAD 2000
 90
        0
280
     0
281
     0
  0
CLASS
  1
LWPOLYLINE
  2
AcDbPolyline
  3
AutoCAD 2000
 90
        0
280
     0
281
     1
  0
CLASS
  1
HATCH
  2
AcDbHatch
  3
AutoCAD 2000
 90
        0
280
     0
281
     1
  0
CLASS
  1
XRECORD
  2
AcDbXrecord
  3
AutoCAD 2000
 90
        0
280
     0
281
     0
  0
CLASS
  1
LONG_TRANSACTION
  2
AcDbLongTransaction
  3
AutoCAD 2000
 90
        0
280
     0
281
     0
  0
CLASS
  1
LWPOLYLINE
  2
AcDbPolyline
  3
AutoCAD 2000
 90
        0
280
     0
281
     1
  0
CLASS
  1
HATCH
  2
AcDbHatch
  3
AutoCAD 2000
 90
        0
280
     0
281
     1
  0
CLASS
  1
XRECORD
  2
AcDbXrecord
  3
AutoCAD 2000
 90
        0
280
     0
281
     0
  0
CLASS
  1
LONG_TRANSACTION
  2
AcDbLongTransaction
  3
AutoCAD 2000
 90
        0
280
     0
281
     0
  0
CLASS
  1
LWPOLYLINE
  2
AcDbPolyline
  3
AutoCAD 2000
 90
        0
280
     0
281
     1
  0
CLASS
  1
HATCH
  2
AcDbHatch
  3
AutoCAD 2000
 90
        0
280
     0
281
     1
  0
CLASS
  1
XRECORD
  2
AcDbXrecord
  3
AutoCAD 2000
 90
        0
280
     0
281
     0
  0
CLASS
  1
LONG_TRANSACTION
  2
AcDbLongTransaction
  3
AutoCAD 2000
 90
        0
280
     0
281
     0
  0
CLASS
  1
LWPOLYLINE
  2
AcDbPolyline
  3
AutoCAD 2000
 90
        0
280
     0
281
     1
  0
CLASS
  1
HATCH
  2
AcDbHatch
  3
AutoCAD 2000
 90
        0
280
     0
281
     1
  0
CLASS
  1
XRECORD
  2
AcDbXrecord
  3
AutoCAD 2000
 90
        0
280
     0
281
     0
  0
CLASS
  1
LONG_TRANSACTION
  2
AcDbLongTransaction
  3
AutoCAD 2000
 90
        0
280
     0
281
     0
  0
CLASS
  1
LWPOLYLINE
  2
AcDbPolyline
  3
AutoCAD 2000
 90
        0
280
     0
281
     1
  0
CLASS
  1
HATCH
  2
AcDbHatch
  3
AutoCAD 2000
 90
        0
280
     0
281
     1
  0
CLASS
  1
XRECORD
  2
AcDbXrecord
  3
AutoCAD 2000
 90
        0
280
     0
281
     0
  0
CLASS
  1
LONG_TRANSACTION
  2
AcDbLongTransaction
  3
AutoCAD 2000
 90
        0
280
     0
281
     0
  0
CLASS
  1
LWPOLYLINE
  2
AcDbPolyline
  3
AutoCAD 2000
 90
        0
280
     0
281
     1
  0
CLASS
  1
HATCH
  2
AcDbHatch
  3
AutoCAD 2000
 90
        0
280
     0
281
     1
  0
CLASS
  1
XRECORD
  2
AcDbXrecord
  3
AutoCAD 2000
 90
        0
280
     0
281
     0
  0
CLASS
  1
LONG_TRANSACTION
  2
AcDbLongTransaction
  3
AutoCAD 2000
 90
        0
280
     0
281
     0
  0
CLASS
  1
LWPOLYLINE
  2
AcDbPolyline
  3
AutoCAD 2000
 90
        0
280
     0
281
     1
  0
CLASS
  1
HATCH
  2
AcDbHatch
  3
AutoCAD 2000
 90
        0
280
     0
281
     1
  0
CLASS
  1
XRECORD
  2
AcDbXrecord
  3
AutoCAD 2000
 90
        0
280
     0
281
     0
  0
CLASS
  1
LONG_TRANSACTION
  2
AcDbLongTransaction
  3
AutoCAD 2000
 90
        0
280
     0
281
     0
  0
CLASS
  1
LWPOLYLINE
  2
AcDbPolyline
  3
AutoCAD 2000
 90
        0
280
     0
281
     1
  0
CLASS
  1
HATCH
  2
AcDbHatch
  3
AutoCAD 2000
 90
        0
280
     0
281
     1
  0
CLASS
  1
XRECORD
  2
AcDbXrecord
  3
AutoCAD 2000
 90
        0
280
     0
281
     0
  0
CLASS
  1
LONG_TRANSACTION
  2
AcDbLongTransaction
  3
AutoCAD 2000
 90
        0
280
     0
281
     0
  0
CLASS
  1
LWPOLYLINE
  2
AcDbPolyline
  3
AutoCAD 2000
 90
        0
280
     0
281
     1
  0
CLASS
  1
HATCH
  2
AcDbHatch
  3
AutoCAD 2000
 90
        0
280
     0
281
     1
  0
CLASS
  1
XRECORD
  2
AcDbXrecord
  3
AutoCAD 2000
 90
        0
280
     0
281
     0
  0
CLASS
  1
LONG_TRANSACTION
  2
AcDbLongTransaction
  3
AutoCAD 2000
 90
        0
280
     0
281
     0
  0
CLASS
  1
LWPOLYLINE
  2
AcDbPolyline
  3
AutoCAD 2000
 90
        0
280
     0
281
     1
  0
CLASS
  1
HATCH
  2
AcDbHatch
  3
AutoCAD 2000
 90
        0
280
     0
281
     1
  0
CLASS
  1
XRECORD
  2
AcDbXrecord
  3
AutoCAD 2000
 90
        0
280
     0
281
     0
  0
CLASS
  1
LONG_TRANSACTION
  2
AcDbLongTransaction
  3
AutoCAD 2000
 90
        0
280
     0
281
     0
  0
CLASS
  1
LWPOLYLINE
  2
AcDbPolyline
  3
AutoCAD 2000
 90
        0
280
     0
281
     1
  0
CLASS
  1
HATCH
  2
AcDbHatch
  3
AutoCAD 2000
 90
        0
280
     0
281
     1
  0
CLASS
  1
XRECORD
  2
AcDbXrecord
  3
AutoCAD 2000
 90
        0
280
     0
281
     0
  0
CLASS
  1
LONG_TRANSACTION
  2
AcDbLongTransaction
  3
AutoCAD 2000
 90
        0
280
     0
281
     0
  0
CLASS
  1
LWPOLYLINE
  2
AcDbPolyline
  3
AutoCAD 2000
 90
        0
280
     0
281
     1
  0
CLASS
  1
HATCH
  2
AcDbHatch
  3
AutoCAD 2000
 90
        0
280
     0
281
     1
  0
CLASS
  1
XRECORD
  2
AcDbXrecord
  3
AutoCAD 2000
 90
        0
280
     0
281
     0
  0
CLASS
  1
LONG_TRANSACTION
  2
AcDbLongTransaction
  3
AutoCAD 2000
 90
        0
280
     0
281
     0
  0
CLASS
  1
LWPOLYLINE
  2
AcDbPolyline
  3
AutoCAD 2000
 90
        0
280
     0
281
     1
  0
CLASS
  1
HATCH
  2
AcDbHatch
  3
AutoCAD 2000
 90
        0
280
     0
281
     1
  0
CLASS
  1
XRECORD
  2
AcDbXrecord
  3
AutoCAD 2000
 90
        0
280
     0
281
     0
  0
CLASS
  1
LONG_TRANSACTION
  2
AcDbLongTransaction
  3
AutoCAD 2000
 90
        0
280
     0
281
     0
  0
CLASS
  1
LWPOLYLINE
  2
AcDbPolyline
  3
AutoCAD 2000
 90
        0
280
     0
281
     1
  0
CLASS
  1
HATCH
  2
AcDbHatch
  3
AutoCAD 2000
 90
        0
280
     0
281
     1
  0
CLASS
  1
XRECORD
  2
AcDbXrecord
  3
AutoCAD 2000
 90
        0
280
     0
281
     0
  0
CLASS
  1
LONG_TRANSACTION
  2
AcDbLongTransaction
  3
AutoCAD 2000
 90
        0
280
     0
281
     0
  0
CLASS
  1
LWPOLYLINE
  2
AcDbPolyline
  3
AutoCAD 2000
 90
        0
280
     0
281
     1
  0
CLASS
  1
HATCH
  2
AcDbHatch
  3
AutoCAD 2000
 90
        0
280
     0
281
     1
  0
CLASS
  1
XRECORD
  2
AcDbXrecord
  3
AutoCAD 2000
 90
        0
280
     0
281
     0
  0
CLASS
  1
LONG_TRANSACTION
  2
AcDbLongTransaction
  3
AutoCAD 2000
 90
        0
280
     0
281
     0
  0
CLASS
  1
LWPOLYLINE
  2
AcDbPolyline
  3
AutoCAD 2000
 90
        0
280
     0
281
     1
  0
CLASS
  1
HATCH
  2
AcDbHatch
  3
AutoCAD 2000
 90
        0
280
     0
281
     1
  0
CLASS
  1
XRECORD
  2
AcDbXrecord
  3
AutoCAD 2000
 90
        0
280
     0
281
     0
  0
CLASS
  1
LONG_TRANSACTION
  2
AcDbLongTransaction
  3
AutoCAD 2000
 90
        0
280
     0
281
     0
  0
CLASS
  1
LWPOLYLINE
  2
AcDbPolyline
  3
AutoCAD 2000
 90
        0
280
     0
281
     1
  0
CLASS
  1
HATCH
  2
AcDbHatch
  3
AutoCAD 2000
 90
        0
280
     0
281
     1
  0
CLASS
  1
XRECORD
  2
AcDbXrecord
  3
AutoCAD 2000
 90
        0
280
     0
281
     0
  0
CLASS
  1
LONG_TRANSACTION
  2
AcDbLongTransaction
  3
AutoCAD 2000
 90
        0
280
     0
281
     0
  0
CLASS
  1
LWPOLYLINE
  2
AcDbPolyline
  3
AutoCAD 2000
 90
        0
280
     0
281
     1
  0
CLASS
  1
HATCH
  2
AcDbHatch
  3
AutoCAD 2000
 90
        0
280
     0
281
     1
  0
CLASS
  1
XRECORD
  2
AcDbXrecord
  3
AutoCAD 2000
 90
        0
280
     0
281
     0
  0
CLASS
  1
LONG_TRANSACTION
  2
AcDbLongTransaction
  3
AutoCAD 2000
 90
        0
280
     0
281
     0
  0
CLASS
  1
LWPOLYLINE
  2
AcDbPolyline
  3
AutoCAD 2000
 90
        0
280
     0
281
     1
  0
CLASS
  1
HATCH
  2
AcDbHatch
  3
AutoCAD 2000
 90
        0
280
     0
281
     1
  0
CLASS
  1
XRECORD
  2
AcDbXrecord
  3
AutoCAD 2000
 90
        0
280
     0
281
     0
  0
CLASS
  1
LONG_TRANSACTION
  2
AcDbLongTransaction
  3
AutoCAD 2000
 90
        0
280
     0
281
     0
  0
CLASS
  1
LWPOLYLINE
  2
AcDbPolyline
  3
AutoCAD 2000
 90
        0
280
     0
281
     1
  0
CLASS
  1
HATCH
  2
AcDbHatch
  3
AutoCAD 2000
 90
        0
280
     0
281
     1
  0
CLASS
  1
XRECORD
  2
AcDbXrecord
  3
AutoCAD 2000
 90
        0
280
     0
281
     0
  0
CLASS
  1
LONG_TRANSACTION
  2
AcDbLongTransaction
  3
AutoCAD 2000
 90
        0
280
     0
281
     0
  0
CLASS
  1
LWPOLYLINE
  2
AcDbPolyline
  3
AutoCAD 2000
 90
        0
280
     0
281
     1
  0
CLASS
  1
HATCH
  2
AcDbHatch
  3
AutoCAD 2000
 90
        0
280
     0
281
     1
  0
CLASS
  1
XRECORD
  2
AcDbXrecord
  3
AutoCAD 2000
 90
        0
280
     0
281
     0
  0
CLASS
  1
LONG_TRANSACTION
  2
AcDbLongTransaction
  3
AutoCAD 2000
 90
        0
280
     0
281
     0
  0
CLASS
  1
LWPOLYLINE
  2
AcDbPolyline
  3
AutoCAD 2000
 90
        0
280
     0
281
     1
  0
CLASS
  1
HATCH
  2
AcDbHatch
  3
AutoCAD 2000
 90
        0
280
     0
281
     1
  0
CLASS
  1
XRECORD
  2
AcDbXrecord
  3
AutoCAD 2000
 90
        0
280
     0
281
     0
  0
CLASS
  1
LONG_TRANSACTION
  2
AcDbLongTransaction
  3
AutoCAD 2000
 90
        0
280
     0
281
     0
  0
CLASS
  1
LWPOLYLINE
  2
AcDbPolyline
  3
AutoCAD 2000
 90
        0
280
     0
281
     1
  0
CLASS
  1
HATCH
  2
AcDbHatch
  3
AutoCAD 2000
 90
        0
280
     0
281
     1
  0
CLASS
  1
XRECORD
  2
AcDbXrecord
  3
AutoCAD 2000
 90
        0
280
     0
281
     0
  0
CLASS
  1
LONG_TRANSACTION
  2
AcDbLongTransaction
  3
AutoCAD 2000
 90
        0
280
     0
281
     0
  0
CLASS
  1
LWPOLYLINE
  2
AcDbPolyline
  3
AutoCAD 2000
 90
        0
280
     0
281
     1
  0
CLASS
  1
HATCH
  2
AcDbHatch
  3
AutoCAD 2000
 90
        0
280
     0
281
     1
  0
CLASS
  1
XRECORD
  2
AcDbXrecord
  3
AutoCAD 2000
 90
        0
280
     0
281
     0
  0
CLASS
  1
LONG_TRANSACTION
  2
AcDbLongTransaction
  3
AutoCAD 2000
 90
        0
280
     0
281
     0
  0
CLASS
  1
LWPOLYLINE
  2
AcDbPolyline
  3
AutoCAD 2000
 90
        0
280
     0
281
     1
  0
CLASS
  1
HATCH
  2
AcDbHatch
  3
AutoCAD 2000
 90
        0
280
     0
281
     1
  0
CLASS
  1
XRECORD
  2
AcDbXrecord
  3
AutoCAD 2000
 90
        0
280
     0
281
     0
  0
CLASS
  1
LONG_TRANSACTION
  2
AcDbLongTransaction
  3
AutoCAD 2000
 90
        0
280
     0
281
     0
  0
CLASS
  1
LWPOLYLINE
  2
AcDbPolyline
  3
AutoCAD 2000
 90
        0
280
     0
281
     1
  0
CLASS
  1
HATCH
  2
AcDbHatch
  3
AutoCAD 2000
 90
        0
280
     0
281
     1
  0
CLASS
  1
XRECORD
  2
AcDbXrecord
  3
AutoCAD 2000
 90
        0
280
     0
281
     0
  0
CLASS
  1
LONG_TRANSACTION
  2
AcDbLongTransaction
  3
AutoCAD 2000
 90
        0
280
     0
281
     0
  0
CLASS
  1
LWPOLYLINE
  2
AcDbPolyline
  3
AutoCAD 2000
 90
        0
280
     0
281
     1
  0
CLASS
  1
HATCH
  2
AcDbHatch
  3
AutoCAD 2000
 90
        0
280
     0
281
     1
  0
CLASS
  1
XRECORD
  2
AcDbXrecord
  3
AutoCAD 2000
 90
        0
280
     0
281
     0
  0
CLASS
  1
LONG_TRANSACTION
  2
AcDbLongTransaction
  3
AutoCAD 2000
 90
        0
280
     0
281
     0
  0
CLASS
  1
LWPOLYLINE
  2
AcDbPolyline
  3
AutoCAD 2000
 90
        0
280
     0
281
     1
  0
CLASS
  1
HATCH
  2
AcDbHatch
  3
AutoCAD 2000
 90
        0
280
     0
281
     1
  0
CLASS
  1
XRECORD
  2
AcDbXrecord
  3
AutoCAD 2000
 90
        0
280
     0
281
     0
  0
CLASS
  1
LONG_TRANSACTION
  2
AcDbLongTransaction
  3
AutoCAD 2000
 90
        0
280
     0
281
     0
  0
CLASS
  1
LWPOLYLINE
  2
AcDbPolyline
  3
AutoCAD 2000
 90
        0
280
     0
281
     1
  0
CLASS
  1
HATCH
  2
AcDbHatch
  3
AutoCAD 2000
 90
        0
280
     0
281
     1
  0
CLASS
  1
XRECORD
  2
AcDbXrecord
  3
AutoCAD 2000
 90
        0
280
     0
281
     0
  0
CLASS
  1
LONG_TRANSACTION
  2
AcDbLongTransaction
  3
AutoCAD 2000
 90
        0
280
     0
281
     0
  0
CLASS
  1
LWPOLYLINE
  2
AcDbPolyline
  3
AutoCAD 2000
 90
        0
280
     0
281
     1
  0
CLASS
  1
HATCH
  2
AcDbHatch
  3
AutoCAD 2000
 90
        0
280
     0
281
     1
  0
CLASS
  1
XRECORD
  2
AcDbXrecord
  3
AutoCAD 2000
 90
        0
280
     0
281
     0
  0
CLASS
  1
LONG_TRANSACTION
  2
AcDbLongTransaction
  3
AutoCAD 2000
 90
        0
280
     0
281
     0
  0
CLASS
  1
LWPOLYLINE
  2
AcDbPolyline
  3
AutoCAD 2000
 90
        0
280
     0
281
     1
  0
CLASS
  1
HATCH
  2
AcDbHatch
  3
AutoCAD 2000
 90
        0
280
     0
281
     1
  0
CLASS
  1
XRECORD
  2
AcDbXrecord
  3
AutoCAD 2000
 90
        0
280
     0
281
     0
  0
CLASS
  1
LONG_TRANSACTION
  2
AcDbLongTransaction
  3
AutoCAD 2000
 90
        0
280
     0
281
     0
  0
CLASS
  1
LWPOLYLINE
  2
AcDbPolyline
  3
AutoCAD 2000
 90
        0
280
     0
281
     1
  0
CLASS
  1
HATCH
  2
AcDbHatch
  3
AutoCAD 2000
 90
        0
280
     0
281
     1
  0
CLASS
  1
XRECORD
  2
AcDbXrecord
  3
AutoCAD 2000
 90
        0
280
     0
281
     0
  0
CLASS
  1
LONG_TRANSACTION
  2
AcDbLongTransaction
  3
AutoCAD 2000
 90
        0
280
     0
281
     0
  0
CLASS
  1
LWPOLYLINE
  2
AcDbPolyline
  3
AutoCAD 2000
 90
        0
280
     0
281
     1
  0
CLASS
  1
HATCH
  2
AcDbHatch
  3
AutoCAD 2000
 90
        0
280
     0
281
     1
  0
CLASS
  1
XRECORD
  2
AcDbXrecord
  3
AutoCAD 2000
 90
        0
280
     0
281
     0
  0
CLASS
  1
LONG_TRANSACTION
  2
AcDbLongTransaction
  3
AutoCAD 2000
 90
        0
280
     0
281
     0
  0
CLASS
  1
LWPOLYLINE
  2
AcDbPolyline
  3
AutoCAD 2000
 90
        0
280
     0
281
     1
  0
CLASS
  1
HATCH
  2
AcDbHatch
  3
AutoCAD 2000
 90
        0
280
     0
281
     1
  0
CLASS
  1
XRECORD
  2
AcDbXrecord
  3
AutoCAD 2000
 90
        0
280
     0
281
     0
  0
CLASS
  1
LONG_TRANSACTION
  2
AcDbLongTransaction
  3
AutoCAD 2000
 90
        0
280
     0
281
     0
  0
CLASS
  1
LWPOLYLINE
  2
AcDbPolyline
  3
AutoCAD 2000
 90
        0
280
     0
281
     1
  0
CLASS
  1
HATCH
  2
AcDbHatch
  3
AutoCAD 2000
 90
        0
280
     0
281
     1
  0
CLASS
  1
XRECORD
  2
AcDbXrecord
  3
AutoCAD 2000
 90
        0
280
     0
281
     0
  0
CLASS
  1
LONG_TRANSACTION
  2
AcDbLongTransaction
  3
AutoCAD 2000
 90
        0
280
     0
281
     0
  0
CLASS
  1
LWPOLYLINE
  2
AcDbPolyline
  3
AutoCAD 2000
 90
        0
280
     0
281
     1
  0
CLASS
  1
HATCH
  2
AcDbHatch
  3
AutoCAD 2000
 90
        0
280
     0
281
     1
  0
CLASS
  1
XRECORD
  2
AcDbXrecord
  3
AutoCAD 2000
 90
        0
280
     0
281
     0
  0
CLASS
  1
LONG_TRANSACTION
  2
AcDbLongTransaction
  3
AutoCAD 2000
 90
        0
280
     0
281
     0
  0
CLASS
  1
LWPOLYLINE
  2
AcDbPolyline
  3
AutoCAD 2000
 90
        0
280
     0
281
     1
  0
CLASS
  1
HATCH
  2
AcDbHatch
  3
AutoCAD 2000
 90
        0
280
     0
281
     1
  0
CLASS
  1
XRECORD
  2
AcDbXrecord
  3
AutoCAD 2000
 90
        0
280
     0
281
     0
  0
CLASS
  1
LONG_TRANSACTION
  2
AcDbLongTransaction
  3
AutoCAD 2000
 90
        0
280
     0
281
     0
  0
CLASS
  1
LWPOLYLINE
  2
AcDbPolyline
  3
AutoCAD 2000
 90
        0
280
     0
281
     1
  0
CLASS
  1
HATCH
  2
AcDbHatch
  3
AutoCAD 2000
 90
        0
280
     0
281
     1
  0
CLASS
  1
XRECORD
  2
AcDbXrecord
  3
AutoCAD 2000
 90
        0
280
     0
281
     0
  0
CLASS
  1
LONG_TRANSACTION
  2
AcDbLongTransaction
  3
AutoCAD 2000
 90
        0
280
     0
281
     0
  0
CLASS
  1
LWPOLYLINE
  2
AcDbPolyline
  3
AutoCAD 2000
 90
        0
280
     0
281
     1
  0
CLASS
  1
HATCH
  2
AcDbHatch
  3
AutoCAD 2000
 90
        0
280
     0
281
     1
  0
CLASS
  1
XRECORD
  2
AcDbXrecord
  3
AutoCAD 2000
 90
        0
280
     0
281
     0
  0
CLASS
  1
LONG_TRANSACTION
  2
AcDbLongTransaction
  3
AutoCAD 2000
 90
        0
280
     0
281
     0
  0
CLASS
  1
LWPOLYLINE
  2
AcDbPolyline
  3
AutoCAD 2000
 90
        0
280
     0
281
     1
  0
CLASS
  1
HATCH
  2
AcDbHatch
  3
AutoCAD 2000
 90
        0
280
     0
281
     1
  0
CLASS
  1
XRECORD
  2
AcDbXrecord
  3
AutoCAD 2000
 90
        0
280
     0
281
     0
  0
CLASS
  1
LONG_TRANSACTION
  2
AcDbLongTransaction
  3
AutoCAD 2000
 90
        0
280
     0
281
     0
  0
CLASS
  1
LWPOLYLINE
  2
AcDbPolyline
  3
AutoCAD 2000
 90
        0
280
     0
281
     1
  0
CLASS
  1
HATCH
  2
AcDbHatch
  3
AutoCAD 2000
 90
        0
280
     0
281
     1
  0
CLASS
  1
XRECORD
  2
AcDbXrecord
  3
AutoCAD 2000
 90
        0
280
     0
281
     0
  0
CLASS
  1
LONG_TRANSACTION
  2
AcDbLongTransaction
  3
AutoCAD 2000
 90
        0
280
     0
281
     0
  0
CLASS
  1
LWPOLYLINE
  2
AcDbPolyline
  3
AutoCAD 2000
 90
        0
280
     0
281
     1
  0
CLASS
  1
HATCH
  2
AcDbHatch
  3
AutoCAD 2000
 90
        0
280
     0
281
     1
  0
CLASS
  1
XRECORD
  2
AcDbXrecord
  3
AutoCAD 2000
 90
        0
280
     0
281
     0
  0
CLASS
  1
LONG_TRANSACTION
  2
AcDbLongTransaction
  3
AutoCAD 2000
 90
        0
280
     0
281
     0
  0
CLASS
  1
LWPOLYLINE
  2
AcDbPolyline
  3
AutoCAD 2000
 90
        0
280
     0
281
     1
  0
CLASS
  1
HATCH
  2
AcDbHatch
  3
AutoCAD 2000
 90
        0
280
     0
281
     1
  0
CLASS
  1
XRECORD
  2
AcDbXrecord
  3
AutoCAD 2000
 90
        0
280
     0
281
     0
  0
CLASS
  1
LONG_TRANSACTION
  2
AcDbLongTransaction
  3
AutoCAD 2000
 90
        0
280
     0
281
     0
  0
CLASS
  1
LWPOLYLINE
  2
AcDbPolyline
  3
AutoCAD 2000
 90
        0
280
     0
281
     1
  0
CLASS
  1
HATCH
  2
AcDbHatch
  3
AutoCAD 2000
 90
        0
280
     0
281
     1
  0
CLASS
  1
XRECORD
  2
AcDbXrecord
  3
AutoCAD 2000
 90
        0
280
     0
281
     0
  0
CLASS
  1
LONG_TRANSACTION
  2
AcDbLongTransaction
  3
AutoCAD 2000
 90
        0
280
     0
281
     0
  0
CLASS
  1
LWPOLYLINE
  2
AcDbPolyline
  3
AutoCAD 2000
 90
        0
280
     0
281
     1
  0
CLASS
  1
HATCH
  2
AcDbHatch
  3
AutoCAD 2000
 90
        0
280
     0
281
     1
  0
CLASS
  1
XRECORD
  2
AcDbXrecord
  3
AutoCAD 2000
 90
        0
280
     0
281
     0
  0
CLASS
  1
LONG_TRANSACTION
  2
AcDbLongTransaction
  3
AutoCAD 2000
 90
        0
280
     0
281
     0
  0
CLASS
  1
LWPOLYLINE
  2
AcDbPolyline
  3
AutoCAD 2000
 90
        0
280
     0
281
     1
  0
CLASS
  1
HATCH
  2
AcDbHatch
  3
AutoCAD 2000
 90
        0
280
     0
281
     1
  0
CLASS
  1
XRECORD
  2
AcDbXrecord
  3
AutoCAD 2000
 90
        0
280
     0
281
     0
  0
CLASS
  1
LONG_TRANSACTION
  2
AcDbLongTransaction
  3
AutoCAD 2000
 90
        0
280
     0
281
     0
  0
CLASS
  1
LWPOLYLINE
  2
AcDbPolyline
  3
AutoCAD 2000
 90
        0
280
     0
281
     1
  0
CLASS
  1
HATCH
  2
AcDbHatch
  3
AutoCAD 2000
 90
        0
280
     0
281
     1
  0
CLASS
  1
XRECORD
  2
AcDbXrecord
  3
AutoCAD 2000
 90
        0
280
     0
281
     0
  0
CLASS
  1
LONG_TRANSACTION
  2
AcDbLongTransaction
  3
AutoCAD 2000
 90
        0
280
     0
281
     0
  0
CLASS
  1
LWPOLYLINE
  2
AcDbPolyline
  3
AutoCAD 2000
 90
        0
280
     0
281
     1
  0
CLASS
  1
HATCH
  2
AcDbHatch
  3
AutoCAD 2000
 90
        0
280
     0
281
     1
  0
CLASS
  1
XRECORD
  2
AcDbXrecord
  3
AutoCAD 2000
 90
        0
280
     0
281
     0
  0
CLASS
  1
LONG_TRANSACTION
  2
AcDbLongTransaction
  3
AutoCAD 2000
 90
        0
280
     0
281
     0
  0
CLASS
  1
LWPOLYLINE
  2
AcDbPolyline
  3
AutoCAD 2000
 90
        0
280
     0
281
     1
  0
CLASS
  1
HATCH
  2
AcDbHatch
  3
AutoCAD 2000
 90
        0
280
     0
281
     1
  0
CLASS
  1
XRECORD
  2
AcDbXrecord
  3
AutoCAD 2000
 90
        0
280
     0
281
     0
  0
CLASS
  1
LONG_TRANSACTION
  2
AcDbLongTransaction
  3
AutoCAD 2000
 90
        0
280
     0
281
     0
  0
CLASS
  1
LWPOLYLINE
  2
AcDbPolyline
  3
AutoCAD 2000
 90
        0
280
     0
281
     1
  0
CLASS
  1
HATCH
  2
AcDbHatch
  3
AutoCAD 2000
 90
        0
280
     0
281
     1
  0
CLASS
  1
XRECORD
  2
AcDbXrecord
  3
AutoCAD 2000
 90
        0
280
     0
281
     0
  0
CLASS
  1
LONG_TRANSACTION
  2
AcDbLongTransaction
  3
AutoCAD 2000
 90
        0
280
     0
281
     0
  0
CLASS
  1
LWPOLYLINE
  2
AcDbPolyline
  3
AutoCAD 2000
 90
        0
280
     0
281
     1
  0
CLASS
  1
HATCH
  2
AcDbHatch
  3
AutoCAD 2000
 90
        0
280
     0
281
     1
  0
CLASS
  1
XRECORD
  2
AcDbXrecord
  3
AutoCAD 2000
 90
        0
280
     0
281
     0
  0
CLASS
  1
LONG_TRANSACTION
  2
AcDbLongTransaction
  3
AutoCAD 2000
 90
        0
280
     0
281
     0
  0
CLASS
  1
LWPOLYLINE
  2
AcDbPolyline
  3
AutoCAD 2000
 90
        0
280
     0
281
     1
  0
CLASS
  1
HATCH
  2
AcDbHatch
  3
AutoCAD 2000
 90
        0
280
     0
281
     1
  0
CLASS
  1
XRECORD
  2
AcDbXrecord
  3
AutoCAD 2000
 90
        0
280
     0
281
     0
  0
CLASS
  1
LONG_TRANSACTION
  2
AcDbLongTransaction
  3
AutoCAD 2000
 90
        0
280
     0
281
     0
  0
CLASS
  1
LWPOLYLINE
  2
AcDbPolyline
  3
AutoCAD 2000
 90
        0
280
     0
281
     1
  0
CLASS
  1
HATCH
  2
AcDbHatch
  3
AutoCAD 2000
 90
        0
280
     0
281
     1
  0
CLASS
  1
XRECORD
  2
AcDbXrecord
  3
AutoCAD 2000
 90
        0
280
     0
281
     0
  0
CLASS
  1
LONG_TRANSACTION
  2
AcDbLongTransaction
  3
AutoCAD 2000
 90
        0
280
     0
281
     0
  0
CLASS
  1
LWPOLYLINE
  2
AcDbPolyline
  3
AutoCAD 2000
 90
        0
280
     0
281
     1
  0
CLASS
  1
HATCH
  2
AcDbHatch
  3
AutoCAD 2000
 90
        0
280
     0
281
     1
  0
CLASS
  1
XRECORD
  2
AcDbXrecord
  3
AutoCAD 2000
 90
        0
280
     0
281
     0
  0
CLASS
  1
LONG_TRANSACTION
  2
AcDbLongTransaction
  3
AutoCAD 2000
 90
        0
280
     0
281
     0
  0
CLASS
  1
LWPOLYLINE
  2
AcDbPolyline
  3
AutoCAD 2000
 90
        0
280
     0
281
     1
  0
CLASS
  1
HATCH
  2
AcDbHatch
  3
AutoCAD 2000
 90
        0
280
     0
281
     1
  0
CLASS
  1
XRECORD
  2
AcDbXrecord
  3
AutoCAD 2000
 90
        0
280
     0
281
     0
  0
CLASS
  1
LONG_TRANSACTION
  2
AcDbLongTransaction
  3
AutoCAD 2000
 90
        0
280
     0
281
     0
  0
CLASS
  1
LWPOLYLINE
  2
AcDbPolyline
  3
AutoCAD 2000
 90
        0
280
     0
281
     1
  0
CLASS
  1
HATCH
  2
AcDbHatch
  3
AutoCAD 2000
 90
        0
280
     0
281
     1
  0
CLASS
  1
XRECORD
  2
AcDbXrecord
  3
AutoCAD 2000
 90
        0
280
     0
281
     0
  0
ENDSEC
  0
SECTION
  2
TABLES
  0
TABLE
  2
VPORT
  5
92
330
0
100
AcDbSymbolTable
 70
     2
  0
VPORT
  5
4EC
330
92
100
AcDbSymbolTableRecord
100
AcDbViewportTableRecord
  2
*ACTIVE
 70
     0
 10
0.0
 20
0.0
 11
1.0
 21
1.0
 12
196.4744848091148
 22
196.0149634566354
 13
0.0
 23
0.0
 14
10.0
 24
10.0
 15
10.0
 25
10.0
 16
0.0
 26
0.0
 36
1.0
 17
0.0
 27
0.0
 37
0.0
 40
369.8687543211224
 41
1.593434343434343
 42
50.0
 43
0.0
 44
0.0
 50
0.0
 51
0.0
 71
     0
 72
 10000
 73
     1
 74
     3
 75
     0
 76
     0
 77
     0
 78
     1
  0
ENDTAB
  0
TABLE
  2
LTYPE
  5
8D
330
0
100
AcDbSymbolTable
 70
     3
  0
LTYPE
  5
8E
330
8D
100
AcDbSymbolTableRecord
100
AcDbLinetypeTableRecord
  2
BYBLOCK
 70
     0
  3

 72
    65
 73
     0
 40
0.0
  0
LTYPE
  5
8F
330
8D
100
AcDbSymbolTableRecord
100
AcDbLinetypeTableRecord
  2
BYLAYER
 70
     0
  3

 72
    65
 73
     0
 40
0.0
  0
LTYPE
  5
A
330
8D
100
AcDbSymbolTableRecord
100
AcDbLinetypeTableRecord
  2
CONTINUOUS
 70
     0
  3
Solid line
 72
    65
 73
     0
 40
0.0
  0
LTYPE
  5
1C6
330
8D
100
AcDbSymbolTableRecord
100
AcDbLinetypeTableRecord
  2
CENTER
 70
     0
  3
Center ____ _ ____ _ ____ _ ____ _ ____ _ ____
 72
    65
 73
     4
 40
50.8
 49
31.75
 74
     0
 49
-6.349999999999997
 74
     0
 49
6.349999999999997
 74
     0
 49
-6.349999999999997
 74
     0
  0
LTYPE
  5
B1
330
8D
100
AcDbSymbolTableRecord
100
AcDbLinetypeTableRecord
  2
CENTERX2
 70
     0
  3
Center (2x) ________  __  ________  __  _____
 72
    65
 73
     4
 40
101.6
 49
63.5
 74
     0
 49
-12.7
 74
     0
 49
12.7
 74
     0
 49
-12.7
 74
     0
  0
ENDTAB
  0
TABLE
  2
LAYER
  5
14
102
{ACAD_XDICTIONARY
360
15
102
}
330
0
100
AcDbSymbolTable
 70
     6
  0
LAYER
  5
6
330
14
100
AcDbSymbolTableRecord
100
AcDbLayerTableRecord
  2
0
 70
     0
 62
     7
  6
CONTINUOUS
  0
LAYER
  5
A6
330
14
100
AcDbSymbolTableRecord
100
AcDbLayerTableRecord
  2
DEFPOINTS
 70
     0
 62
     7
  6
CONTINUOUS
  0
LAYER
  5
D8
330
14
100
AcDbSymbolTableRecord
100
AcDbLayerTableRecord
  2
DIM
 70
     0
 62
     3
  6
CONTINUOUS
  0
LAYER
  5
B0
330
14
100
AcDbSymbolTableRecord
100
AcDbLayerTableRecord
  2
CL
 70
     0
 62
     1
  6
CENTERX2
  0
LAYER
  5
1C5
330
14
100
AcDbSymbolTableRecord
100
AcDbLayerTableRecord
  2
CEN
 70
     0
 62
     1
  6
CENTER
  0
LAYER
  5
208
330
14
100
AcDbSymbolTableRecord
100
AcDbLayerTableRecord
  2
2
 70
     0
 62
     2
  6
CONTINUOUS
  0
ENDTAB
  0
TABLE
  2
STYLE
  5
8A
330
0
100
AcDbSymbolTable
 70
     1
  0
STYLE
  5
8B
330
8A
100
AcDbSymbolTableRecord
100
AcDbTextStyleTableRecord
  2
STANDARD
 70
     0
 40
0.0
 41
1.0
 50
0.0
 71
     0
 42
5.777225951253058
  3
romans.shx
  4
whgtxt.shx
  0
ENDTAB
  0
TABLE
  2
VIEW
  5
90
330
0
100
AcDbSymbolTable
 70
     0
  0
ENDTAB
  0
TABLE
  2
UCS
  5
91
330
0
100
AcDbSymbolTable
 70
     0
  0
ENDTAB
  0
TABLE
  2
APPID
  5
94
330
0
100
AcDbSymbolTable
 70
     1
  0
APPID
  5
95
330
94
100
AcDbSymbolTableRecord
100
AcDbRegAppTableRecord
  2
ACAD
 70
     0
  0
ENDTAB
  0
TABLE
  2
DIMSTYLE
  5
96
330
0
100
AcDbSymbolTable
 70
     1
  0
DIMSTYLE
105
9C
102
{ACAD_REACTORS
330
9D
330
29E
330
262
330
1F0
330
2AF
330
229
330
21A
330
24F
330
2E7
330
1A3
330
194
330
183
330
10E
330
C4
330
172
330
FF
330
F0
330
151
330
143
330
1DE
330
B3
102
}
330
96
100
AcDbSymbolTableRecord
100
AcDbDimStyleTableRecord
  2
1_1_2
 70
     0
  3

  4

  5

  6

  7

 40
1.0
 41
3.0
 42
1.0
 43
10.0
 44
0.6
 45
0.0
 46
0.0
 47
0.0
 48
0.0
140
3.5
141
0.09
142
0.0
143
25.4
144
1.0
145
0.0
146
1.0
147
1.0
 71
     0
 72
     0
 73
     0
 74
     0
 75
     0
 76
     0
 77
     1
 78
     8
170
     0
171
     2
172
     1
173
     0
174
     1
175
     0
176
   123
177
   123
178
     3
270
     2
271
     2
272
     2
273
     2
274
     2
340
8B
275
     1
280
     0
281
     0
282
     0
283
     1
284
     0
285
     0
286
     0
287
     3
288
     1
  0
ENDTAB
  0
TABLE
  2
BLOCK_RECORD
  5
1
330
0
100
AcDbSymbolTable
 70
    42
  0
BLOCK_RECORD
  5
2
102
{ACAD_XDICTIONARY
360
3
102
}
330
1
100
AcDbSymbolTableRecord
100
AcDbBlockTableRecord
  2
*MODEL_SPACE
  0
BLOCK_RECORD
  5
E
102
{ACAD_XDICTIONARY
360
F
102
}
330
1
100
AcDbSymbolTableRecord
100
AcDbBlockTableRecord
  2
*PAPER_SPACE
  0
BLOCK_RECORD
  5
9E
330
1
100
AcDbSymbolTableRecord
100
AcDbBlockTableRecord
  2
*D0
  0
BLOCK_RECORD
  5
263
330
1
100
AcDbSymbolTableRecord
100
AcDbBlockTableRecord
  2
*D1
  0
BLOCK_RECORD
  5
1F1
330
1
100
AcDbSymbolTableRecord
100
AcDbBlockTableRecord
  2
*D2
  0
BLOCK_RECORD
  5
21B
330
1
100
AcDbSymbolTableRecord
100
AcDbBlockTableRecord
  2
*D3
  0
BLOCK_RECORD
  5
250
330
1
100
AcDbSymbolTableRecord
100
AcDbBlockTableRecord
  2
*D4
  0
BLOCK_RECORD
  5
2E8
330
1
100
AcDbSymbolTableRecord
100
AcDbBlockTableRecord
  2
*D5
  0
BLOCK_RECORD
  5
195
330
1
100
AcDbSymbolTableRecord
100
AcDbBlockTableRecord
  2
*D6
  0
BLOCK_RECORD
  5
C5
330
1
100
AcDbSymbolTableRecord
100
AcDbBlockTableRecord
  2
*D7
  0
BLOCK_RECORD
  5
152
330
1
100
AcDbSymbolTableRecord
100
AcDbBlockTableRecord
  2
*D8
  0
BLOCK_RECORD
  5
1DF
330
1
100
AcDbSymbolTableRecord
100
AcDbBlockTableRecord
  2
*D9
  0
BLOCK_RECORD
  5
B4
330
1
100
AcDbSymbolTableRecord
100
AcDbBlockTableRecord
  2
*D10
  0
BLOCK_RECORD
  5
2A1
330
1
100
AcDbSymbolTableRecord
100
AcDbBlockTableRecord
  2
*D11
  0
BLOCK_RECORD
  5
2B2
330
1
100
AcDbSymbolTableRecord
100
AcDbBlockTableRecord
  2
*D12
  0
BLOCK_RECORD
  5
22C
330
1
100
AcDbSymbolTableRecord
100
AcDbBlockTableRecord
  2
*D13
  0
BLOCK_RECORD
  5
1A6
330
1
100
AcDbSymbolTableRecord
100
AcDbBlockTableRecord
  2
*D14
  0
BLOCK_RECORD
  5
186
330
1
100
AcDbSymbolTableRecord
100
AcDbBlockTableRecord
  2
*D15
  0
BLOCK_RECORD
  5
111
330
1
100
AcDbSymbolTableRecord
100
AcDbBlockTableRecord
  2
*D16
  0
BLOCK_RECORD
  5
175
330
1
100
AcDbSymbolTableRecord
100
AcDbBlockTableRecord
  2
*D17
  0
BLOCK_RECORD
  5
102
330
1
100
AcDbSymbolTableRecord
100
AcDbBlockTableRecord
  2
*D18
  0
BLOCK_RECORD
  5
F3
330
1
100
AcDbSymbolTableRecord
100
AcDbBlockTableRecord
  2
*D19
  0
BLOCK_RECORD
  5
146
330
1
100
AcDbSymbolTableRecord
100
AcDbBlockTableRecord
  2
*D20
  0
BLOCK_RECORD
  5
2FD
330
1
100
AcDbSymbolTableRecord
100
AcDbBlockTableRecord
  2
*D21
  0
BLOCK_RECORD
  5
30B
330
1
100
AcDbSymbolTableRecord
100
AcDbBlockTableRecord
  2
*D22
  0
BLOCK_RECORD
  5
317
330
1
100
AcDbSymbolTableRecord
100
AcDbBlockTableRecord
  2
*D23
  0
BLOCK_RECORD
  5
325
330
1
100
AcDbSymbolTableRecord
100
AcDbBlockTableRecord
  2
*D24
  0
BLOCK_RECORD
  5
331
330
1
100
AcDbSymbolTableRecord
100
AcDbBlockTableRecord
  2
*D25
  0
BLOCK_RECORD
  5
33F
330
1
100
AcDbSymbolTableRecord
100
AcDbBlockTableRecord
  2
*D26
  0
BLOCK_RECORD
  5
34D
330
1
100
AcDbSymbolTableRecord
100
AcDbBlockTableRecord
  2
*D27
  0
BLOCK_RECORD
  5
359
330
1
100
AcDbSymbolTableRecord
100
AcDbBlockTableRecord
  2
*D28
  0
BLOCK_RECORD
  5
365
330
1
100
AcDbSymbolTableRecord
100
AcDbBlockTableRecord
  2
*D29
  0
BLOCK_RECORD
  5
370
330
1
100
AcDbSymbolTableRecord
100
AcDbBlockTableRecord
  2
*D30
  0
BLOCK_RECORD
  5
37C
330
1
100
AcDbSymbolTableRecord
100
AcDbBlockTableRecord
  2
*D31
  0
BLOCK_RECORD
  5
388
330
1
100
AcDbSymbolTableRecord
100
AcDbBlockTableRecord
  2
*D32
  0
BLOCK_RECORD
  5
394
330
1
100
AcDbSymbolTableRecord
100
AcDbBlockTableRecord
  2
*D33
  0
BLOCK_RECORD
  5
3A0
330
1
100
AcDbSymbolTableRecord
100
AcDbBlockTableRecord
  2
*D34
  0
BLOCK_RECORD
  5
3AC
330
1
100
AcDbSymbolTableRecord
100
AcDbBlockTableRecord
  2
*D35
  0
BLOCK_RECORD
  5
3B8
330
1
100
AcDbSymbolTableRecord
100
AcDbBlockTableRecord
  2
*D36
  0
BLOCK_RECORD
  5
3C3
330
1
100
AcDbSymbolTableRecord
100
AcDbBlockTableRecord
  2
*D37
  0
BLOCK_RECORD
  5
3CF
330
1
100
AcDbSymbolTableRecord
100
AcDbBlockTableRecord
  2
*D38
  0
BLOCK_RECORD
  5
3DB
330
1
100
AcDbSymbolTableRecord
100
AcDbBlockTableRecord
  2
*D39
  0
BLOCK_RECORD
  5
3E9
330
1
100
AcDbSymbolTableRecord
100
AcDbBlockTableRecord
  2
*D40
  0
BLOCK_RECORD
  5
3F7
330
1
100
AcDbSymbolTableRecord
100
AcDbBlockTableRecord
  2
*D41
  0
ENDTAB
  0
ENDSEC
  0
SECTION
  2
BLOCKS
  0
BLOCK
  5
5
330
2
100
AcDbEntity
  8
0
100
AcDbBlockBegin
  2
*MODEL_SPACE
 70
     0
 10
0.0
 20
0.0
 30
0.0
  3
*MODEL_SPACE
  1

  0
ENDBLK
  5
B
330
2
100
AcDbEntity
  8
0
100
AcDbBlockEnd
  0
BLOCK
  5
11
330
E
100
AcDbEntity
 67
     1
  8
0
100
AcDbBlockBegin
  2
*PAPER_SPACE
 70
     0
 10
0.0
 20
0.0
 30
0.0
  3
*PAPER_SPACE
  1

  0
ENDBLK
  5
12
330
E
100
AcDbEntity
 67
     1
  8
0
100
AcDbBlockEnd
  0
BLOCK
  5
AB
330
9E
100
AcDbEntity
  8
0
100
AcDbBlockBegin
  2
*D0
 70
     1
 10
0.0
 20
0.0
 30
0.0
  3
*D0
  1

  0
LINE
  5
9F
330
9E
100
AcDbEntity
  8
0
 62
   123
100
AcDbLine
 10
-10636.72529908805
 20
-4893.867722885095
 30
0.0
 11
-10636.72423141807
 21
-4912.285968461407
 31
0.0
  0
LINE
  5
A0
330
9E
100
AcDbEntity
  8
0
 62
   123
100
AcDbLine
 10
-10617.70295436639
 20
-4885.161412519213
 30
0.0
 11
-10608.76897045478
 21
-4906.722765359333
 31
0.0
  0
ARC
  5
A1
330
9E
100
AcDbEntity
  8
0
 62
   123
100
AcDbCircle
 10
-10636.72846545655
 20
-4839.245082062763
 30
0.0
 40
72.4408865213638
100
AcDbArc
 50
272.3762854377742
 51
290.1337927847923
  0
SOLID
  5
A2
330
9E
100
AcDbEntity
  8
0
 62
   123
100
AcDbTrace
 10
-10633.71453076795
 20
-4912.123567177689
 30
0.0
 11
-10633.73529526197
 21
-4911.123782783037
 31
0.0
 12
-10636.72426619892
 22
-4911.685968462416
 32
0.0
 13
-10636.72426619892
 23
-4911.685968462416
 33
0.0
  0
SOLID
  5
A3
330
9E
100
AcDbEntity
  8
0
 62
   123
100
AcDbTrace
 10
-10611.97512421834
 20
-4906.793426103106
 30
0.0
 11
-10611.61154331978
 21
-4907.724988731292
 31
0.0
 12
-10608.99864588453
 22
-4906.168464721621
 32
0.0
 13
-10608.99864588453
 23
-4906.168464721621
 33
0.0
  0
MTEXT
  5
A4
330
9E
100
AcDbEntity
  8
0
 62
     3
100
AcDbMText
 10
-10623.19149539848
 20
-4907.268759013344
 30
0.0
 40
3.5
 41
0.0
 71
     5
 72
     1
  1
\A1;22°30'
 11
0.9807681185950707
 21
0.1951765804277893
 31
0.0
1001
ACAD
1000
MTEXTBEGIN
1070
    73
1070
     1
1070
    44
1040
1.0
1070
    74
1070
     0
1000
MTEXTEND
1000
MTEXTBEGIN
1070
    73
1070
     1
1070
    44
1040
1.0
1070
    74
1070
     0
1000
MTEXTEND
1000
MTEXTBEGIN
1070
    73
1070
     1
1070
    44
1040
1.0
1070
    74
1070
     0
1000
MTEXTEND
1000
MTEXTBEGIN
1070
    73
1070
     1
1070
    44
1040
1.0
1070
    74
1070
     0
1000
MTEXTEND
  0
POINT
  5
A5
330
9E
100
AcDbEntity
  8
DEFPOINTS
 62
     0
100
AcDbPoint
 10
-10627.26743355992
 20
-4911.065489437351
 30
0.0
  0
POINT
  5
A7
330
9E
100
AcDbEntity
  8
DEFPOINTS
 62
     0
100
AcDbPoint
 10
-10636.7253570561
 20
-4892.867722886776
 30
0.0
  0
POINT
  5
A8
330
9E
100
AcDbEntity
  8
DEFPOINTS
 62
     0
100
AcDbPoint
 10
-10636.73157472699
 20
-4839.237578123024
 30
0.0
  0
POINT
  5
A9
330
9E
100
AcDbEntity
  8
DEFPOINTS
 62
     0
100
AcDbPoint
 10
-10618.08574674932
 20
-4884.237578123023
 30
0.0
  0
POINT
  5
AA
330
9E
100
AcDbEntity
  8
DEFPOINTS
 62
     0
100
AcDbPoint
 10
-10636.73157472699
 20
-4785.607433359271
 30
0.0
  0
ENDBLK
  5
AC
330
9E
100
AcDbEntity
  8
0
100
AcDbBlockEnd
  0
BLOCK
  5
26D
330
263
100
AcDbEntity
  8
0
100
AcDbBlockBegin
  2
*D1
 70
     1
 10
0.0
 20
0.0
 30
0.0
  3
*D1
  1

  0
LINE
  5
264
330
263
100
AcDbEntity
  8
0
 62
   123
100
AcDbLine
 10
-10681.7253570561
 20
-4798.280371881822
 30
0.0
 11
-10681.7253570561
 21
-4773.41581634512
 31
0.0
  0
LINE
  5
265
330
263
100
AcDbEntity
  8
0
 62
   123
100
AcDbLine
 10
-10591.7253570561
 20
-4798.280371881822
 30
0.0
 11
-10591.7253570561
 21
-4773.41581634512
 31
0.0
  0
LINE
  5
266
330
263
100
AcDbEntity
  8
0
 62
   123
100
AcDbLine
 10
-10678.7253570561
 20
-4774.01581634512
 30
0.0
 11
-10594.7253570561
 21
-4774.01581634512
 31
0.0
  0
SOLID
  5
267
330
263
100
AcDbEntity
  8
0
 62
   123
100
AcDbTrace
 10
-10678.7253570561
 20
-4773.515816345121
 30
0.0
 11
-10678.7253570561
 21
-4774.515816345121
 31
0.0
 12
-10681.7253570561
 22
-4774.01581634512
 32
0.0
 13
-10681.7253570561
 23
-4774.01581634512
 33
0.0
  0
SOLID
  5
268
330
263
100
AcDbEntity
  8
0
 62
   123
100
AcDbTrace
 10
-10594.7253570561
 20
-4773.515816345121
 30
0.0
 11
-10594.7253570561
 21
-4774.515816345121
 31
0.0
 12
-10591.7253570561
 22
-4774.01581634512
 32
0.0
 13
-10591.7253570561
 23
-4774.01581634512
 33
0.0
  0
MTEXT
  5
269
330
263
100
AcDbEntity
  8
0
 62
     3
100
AcDbMText
 10
-10636.33470541612
 20
-4771.26581634512
 30
0.0
 40
3.5
 41
0.0
 71
     5
 72
     1
  1
\A1;90
1001
ACAD
1000
MTEXTBEGIN
1070
    73
1070
     1
1070
    44
1040
1.0
1070
    74
1070
     0
1000
MTEXTEND
1000
MTEXTBEGIN
1070
    73
1070
     1
1070
    44
1040
1.0
1070
    74
1070
     0
1000
MTEXTEND
1000
MTEXTBEGIN
1070
    73
1070
     1
1070
    44
1040
1.0
1070
    74
1070
     0
1000
MTEXTEND
1000
MTEXTBEGIN
1070
    73
1070
     1
1070
    44
1040
1.0
1070
    74
1070
     0
1000
MTEXTEND
  0
POINT
  5
26A
330
263
100
AcDbEntity
  8
DEFPOINTS
 62
     0
100
AcDbPoint
 10
-10681.7253570561
 20
-4799.280371881821
 30
0.0
  0
POINT
  5
26B
330
263
100
AcDbEntity
  8
DEFPOINTS
 62
     0
100
AcDbPoint
 10
-10591.7253570561
 20
-4799.280371881821
 30
0.0
  0
POINT
  5
26C
330
263
100
AcDbEntity
  8
DEFPOINTS
 62
     0
100
AcDbPoint
 10
-10591.7253570561
 20
-4774.01581634512
 30
0.0
  0
ENDBLK
  5
26E
330
263
100
AcDbEntity
  8
0
100
AcDbBlockEnd
  0
BLOCK
  5
1FB
330
1F1
100
AcDbEntity
  8
0
100
AcDbBlockBegin
  2
*D2
 70
     1
 10
0.0
 20
0.0
 30
0.0
  3
*D2
  1

  0
LINE
  5
1F2
330
1F1
100
AcDbEntity
  8
0
 62
   123
100
AcDbLine
 10
-10513.65646509444
 20
-4792.737578123023
 30
0.0
 11
-10513.65646509444
 21
-4755.769509392979
 31
0.0
  0
LINE
  5
1F3
330
1F1
100
AcDbEntity
  8
0
 62
   123
100
AcDbLine
 10
-10312.65574260376
 20
-4796.737578123024
 30
0.0
 11
-10312.65574260376
 21
-4755.769509392979
 31
0.0
  0
LINE
  5
1F4
330
1F1
100
AcDbEntity
  8
0
 62
   123
100
AcDbLine
 10
-10510.65646509445
 20
-4756.36950939298
 30
0.0
 11
-10315.65574260375
 21
-4756.36950939298
 31
0.0
  0
SOLID
  5
1F5
330
1F1
100
AcDbEntity
  8
0
 62
   123
100
AcDbTrace
 10
-10510.65646509445
 20
-4755.869509392979
 30
0.0
 11
-10510.65646509445
 21
-4756.86950939298
 31
0.0
 12
-10513.65646509444
 22
-4756.36950939298
 32
0.0
 13
-10513.65646509444
 23
-4756.36950939298
 33
0.0
  0
SOLID
  5
1F6
330
1F1
100
AcDbEntity
  8
0
 62
   123
100
AcDbTrace
 10
-10315.65574260375
 20
-4755.869509392979
 30
0.0
 11
-10315.65574260375
 21
-4756.86950939298
 31
0.0
 12
-10312.65574260376
 22
-4756.36950939298
 32
0.0
 13
-10312.65574260376
 23
-4756.36950939298
 33
0.0
  0
MTEXT
  5
1F7
330
1F1
100
AcDbEntity
  8
0
 62
     3
100
AcDbMText
 10
-10400.65646509441
 20
-4753.619509392978
 30
0.0
 40
3.5
 41
0.0
 71
     5
 72
     1
  1
\A1;201
1001
ACAD
1000
MTEXTBEGIN
1070
    73
1070
     1
1070
    44
1040
1.0
1070
    74
1070
     0
1000
MTEXTEND
1000
MTEXTBEGIN
1070
    73
1070
     1
1070
    44
1040
1.0
1070
    74
1070
     0
1000
MTEXTEND
1000
MTEXTBEGIN
1070
    73
1070
     1
1070
    44
1040
1.0
1070
    74
1070
     0
1000
MTEXTEND
1000
MTEXTBEGIN
1070
    73
1070
     1
1070
    44
1040
1.0
1070
    74
1070
     0
1000
MTEXTEND
  0
POINT
  5
1F8
330
1F1
100
AcDbEntity
  8
DEFPOINTS
 62
     0
100
AcDbPoint
 10
-10513.65646509444
 20
-4793.737578123024
 30
0.0
  0
POINT
  5
1F9
330
1F1
100
AcDbEntity
  8
DEFPOINTS
 62
     0
100
AcDbPoint
 10
-10312.65574260376
 20
-4797.737578123024
 30
0.0
  0
POINT
  5
1FA
330
1F1
100
AcDbEntity
  8
DEFPOINTS
 62
     0
100
AcDbPoint
 10
-10312.65574260376
 20
-4756.36950939298
 30
0.0
  0
ENDBLK
  5
1FC
330
1F1
100
AcDbEntity
  8
0
100
AcDbBlockEnd
  0
BLOCK
  5
227
330
21B
100
AcDbEntity
  8
0
100
AcDbBlockBegin
  2
*D3
 70
     1
 10
0.0
 20
0.0
 30
0.0
  3
*D3
  1

  0
LINE
  5
21C
330
21B
100
AcDbEntity
  8
0
 62
   123
100
AcDbLine
 10
-10515.65646509444
 20
-4796.737578123024
 30
0.0
 11
-10515.65646509444
 21
-4781.004924558773
 31
0.0
  0
LINE
  5
21D
330
21B
100
AcDbEntity
  8
0
 62
   123
100
AcDbLine
 10
-10513.65646509444
 20
-4793.237578123024
 30
0.0
 11
-10513.65646509444
 21
-4781.004924558773
 31
0.0
  0
LINE
  5
21E
330
21B
100
AcDbEntity
  8
0
 62
   123
100
AcDbLine
 10
-10510.65646509445
 20
-4781.604924558775
 30
0.0
 11
-10507.65646509445
 21
-4781.604924558775
 31
0.0
  0
LINE
  5
21F
330
21B
100
AcDbEntity
  8
0
 62
   123
100
AcDbLine
 10
-10518.65646509444
 20
-4781.604924558775
 30
0.0
 11
-10526.82313176112
 21
-4781.604924558775
 31
0.0
  0
LINE
  5
220
330
21B
100
AcDbEntity
  8
0
 62
   123
100
AcDbLine
 10
-10513.65646509444
 20
-4781.604924558775
 30
0.0
 11
-10515.65646509444
 21
-4781.604924558775
 31
0.0
  0
SOLID
  5
221
330
21B
100
AcDbEntity
  8
0
 62
   123
100
AcDbTrace
 10
-10510.65646509445
 20
-4781.104924558774
 30
0.0
 11
-10510.65646509445
 21
-4782.104924558773
 31
0.0
 12
-10513.65646509444
 22
-4781.604924558775
 32
0.0
 13
-10513.65646509444
 23
-4781.604924558775
 33
0.0
  0
SOLID
  5
222
330
21B
100
AcDbEntity
  8
0
 62
   123
100
AcDbTrace
 10
-10518.65646509444
 20
-4781.104924558774
 30
0.0
 11
-10518.65646509444
 21
-4782.104924558773
 31
0.0
 12
-10515.65646509444
 22
-4781.604924558775
 32
0.0
 13
-10515.65646509444
 23
-4781.604924558775
 33
0.0
  0
MTEXT
  5
223
330
21B
100
AcDbEntity
  8
0
 62
     3
100
AcDbMText
 10
-10524.65646509445
 20
-4778.854924558774
 30
0.0
 40
3.5
 41
0.0
 71
     5
 72
     1
  1
\A1;2
1001
ACAD
1000
MTEXTBEGIN
1070
    73
1070
     1
1070
    44
1040
1.0
1070
    74
1070
     0
1000
MTEXTEND
1000
MTEXTBEGIN
1070
    73
1070
     1
1070
    44
1040
1.0
1070
    74
1070
     0
1000
MTEXTEND
1000
MTEXTBEGIN
1070
    73
1070
     1
1070
    44
1040
1.0
1070
    74
1070
     0
1000
MTEXTEND
1000
MTEXTBEGIN
1070
    73
1070
     1
1070
    44
1040
1.0
1070
    74
1070
     0
1000
MTEXTEND
  0
POINT
  5
224
330
21B
100
AcDbEntity
  8
DEFPOINTS
 62
     0
100
AcDbPoint
 10
-10515.65646509444
 20
-4797.737578123024
 30
0.0
  0
POINT
  5
225
330
21B
100
AcDbEntity
  8
DEFPOINTS
 62
     0
100
AcDbPoint
 10
-10513.65646509444
 20
-4794.237578123023
 30
0.0
  0
POINT
  5
226
330
21B
100
AcDbEntity
  8
DEFPOINTS
 62
     0
100
AcDbPoint
 10
-10513.65646509444
 20
-4781.604924558775
 30
0.0
  0
ENDBLK
  5
228
330
21B
100
AcDbEntity
  8
0
100
AcDbBlockEnd
  0
BLOCK
  5
25A
330
250
100
AcDbEntity
  8
0
100
AcDbBlockBegin
  2
*D4
 70
     1
 10
0.0
 20
0.0
 30
0.0
  3
*D4
  1

  0
LINE
  5
251
330
250
100
AcDbEntity
  8
0
 62
   123
100
AcDbLine
 10
-10534.65646509444
 20
-4833.587578123024
 30
0.0
 11
-10534.65646509444
 21
-4755.769509392979
 31
0.0
  0
LINE
  5
252
330
250
100
AcDbEntity
  8
0
 62
   123
100
AcDbLine
 10
-10513.65646509444
 20
-4793.02924478969
 30
0.0
 11
-10513.65646509444
 21
-4755.769509392979
 31
0.0
  0
LINE
  5
253
330
250
100
AcDbEntity
  8
0
 62
   123
100
AcDbLine
 10
-10531.65646509444
 20
-4756.36950939298
 30
0.0
 11
-10516.65646509444
 21
-4756.36950939298
 31
0.0
  0
SOLID
  5
254
330
250
100
AcDbEntity
  8
0
 62
   123
100
AcDbTrace
 10
-10531.65646509444
 20
-4755.869509392979
 30
0.0
 11
-10531.65646509444
 21
-4756.86950939298
 31
0.0
 12
-10534.65646509444
 22
-4756.36950939298
 32
0.0
 13
-10534.65646509444
 23
-4756.36950939298
 33
0.0
  0
SOLID
  5
255
330
250
100
AcDbEntity
  8
0
 62
   123
100
AcDbTrace
 10
-10516.65646509444
 20
-4755.869509392979
 30
0.0
 11
-10516.65646509444
 21
-4756.86950939298
 31
0.0
 12
-10513.65646509444
 22
-4756.36950939298
 32
0.0
 13
-10513.65646509444
 23
-4756.36950939298
 33
0.0
  0
MTEXT
  5
256
330
250
100
AcDbEntity
  8
0
 62
     3
100
AcDbMText
 10
-10524.15646509444
 20
-4753.619509392978
 30
0.0
 40
3.5
 41
0.0
 71
     5
 72
     1
  1
\A1;21
1001
ACAD
1000
MTEXTBEGIN
1070
    73
1070
     1
1070
    44
1040
1.0
1070
    74
1070
     0
1000
MTEXTEND
1000
MTEXTBEGIN
1070
    73
1070
     1
1070
    44
1040
1.0
1070
    74
1070
     0
1000
MTEXTEND
1000
MTEXTBEGIN
1070
    73
1070
     1
1070
    44
1040
1.0
1070
    74
1070
     0
1000
MTEXTEND
1000
MTEXTBEGIN
1070
    73
1070
     1
1070
    44
1040
1.0
1070
    74
1070
     0
1000
MTEXTEND
  0
POINT
  5
257
330
250
100
AcDbEntity
  8
DEFPOINTS
 62
     0
100
AcDbPoint
 10
-10534.65646509444
 20
-4834.587578123024
 30
0.0
  0
POINT
  5
258
330
250
100
AcDbEntity
  8
DEFPOINTS
 62
     0
100
AcDbPoint
 10
-10513.65646509444
 20
-4794.029244789689
 30
0.0
  0
POINT
  5
259
330
250
100
AcDbEntity
  8
DEFPOINTS
 62
     0
100
AcDbPoint
 10
-10513.65646509444
 20
-4756.36950939298
 30
0.0
  0
ENDBLK
  5
25B
330
250
100
AcDbEntity
  8
0
100
AcDbBlockEnd
  0
BLOCK
  5
2F2
330
2E8
100
AcDbEntity
  8
0
100
AcDbBlockBegin
  2
*D5
 70
     1
 10
0.0
 20
0.0
 30
0.0
  3
*D5
  1

  0
LINE
  5
2E9
330
2E8
100
AcDbEntity
  8
0
 62
   123
100
AcDbLine
 10
-10315.15574260376
 20
-4794.237578123023
 30
0.0
 11
-10290.46113921425
 21
-4794.237578123023
 31
0.0
  0
LINE
  5
2EA
330
2E8
100
AcDbEntity
  8
0
 62
   123
100
AcDbLine
 10
-10315.15574260376
 20
-4884.237578123023
 30
0.0
 11
-10290.46113921425
 21
-4884.237578123023
 31
0.0
  0
LINE
  5
2EB
330
2E8
100
AcDbEntity
  8
0
 62
   123
100
AcDbLine
 10
-10291.06113921425
 20
-4797.237578123024
 30
0.0
 11
-10291.06113921425
 21
-4881.237578123023
 31
0.0
  0
SOLID
  5
2EC
330
2E8
100
AcDbEntity
  8
0
 62
   123
100
AcDbTrace
 10
-10291.56113921425
 20
-4797.237578123024
 30
0.0
 11
-10290.56113921425
 21
-4797.237578123024
 31
0.0
 12
-10291.06113921425
 22
-4794.237578123023
 32
0.0
 13
-10291.06113921425
 23
-4794.237578123023
 33
0.0
  0
SOLID
  5
2ED
330
2E8
100
AcDbEntity
  8
0
 62
   123
100
AcDbTrace
 10
-10291.56113921425
 20
-4881.237578123023
 30
0.0
 11
-10290.56113921425
 21
-4881.237578123023
 31
0.0
 12
-10291.06113921425
 22
-4884.237578123023
 32
0.0
 13
-10291.06113921425
 23
-4884.237578123023
 33
0.0
  0
MTEXT
  5
2EE
330
2E8
100
AcDbEntity
  8
0
 62
     3
100
AcDbMText
 10
-10293.81113921425
 20
-4836.487688881788
 30
0.0
 40
3.5
 41
0.0
 71
     5
 72
     1
  1
\A1;90
 11
0.0000000000000001
 21
1.0
 31
0.0
1001
ACAD
1000
MTEXTBEGIN
1070
    73
1070
     1
1070
    44
1040
1.0
1070
    74
1070
     0
1000
MTEXTEND
1000
MTEXTBEGIN
1070
    73
1070
     1
1070
    44
1040
1.0
1070
    74
1070
     0
1000
MTEXTEND
1000
MTEXTBEGIN
1070
    73
1070
     1
1070
    44
1040
1.0
1070
    74
1070
     0
1000
MTEXTEND
1000
MTEXTBEGIN
1070
    73
1070
     1
1070
    44
1040
1.0
1070
    74
1070
     0
1000
MTEXTEND
  0
POINT
  5
2EF
330
2E8
100
AcDbEntity
  8
DEFPOINTS
 62
     0
100
AcDbPoint
 10
-10316.15574260376
 20
-4794.237578123023
 30
0.0
  0
POINT
  5
2F0
330
2E8
100
AcDbEntity
  8
DEFPOINTS
 62
     0
100
AcDbPoint
 10
-10316.15574260376
 20
-4884.237578123023
 30
0.0
  0
POINT
  5
2F1
330
2E8
100
AcDbEntity
  8
DEFPOINTS
 62
     0
100
AcDbPoint
 10
-10291.06113921425
 20
-4884.237578123023
 30
0.0
  0
ENDBLK
  5
2F3
330
2E8
100
AcDbEntity
  8
0
100
AcDbBlockEnd
  0
BLOCK
  5
1A1
330
195
100
AcDbEntity
  8
0
100
AcDbBlockBegin
  2
*D6
 70
     1
 10
0.0
 20
0.0
 30
0.0
  3
*D6
  1

  0
LINE
  5
196
330
195
100
AcDbEntity
  8
0
 62
   123
100
AcDbLine
 10
-10510.11560817075
 20
-4998.850924413558
 30
0.0
 11
-10510.11560817075
 21
-4983.118270849307
 31
0.0
  0
LINE
  5
197
330
195
100
AcDbEntity
  8
0
 62
   123
100
AcDbLine
 10
-10508.11560817075
 20
-4995.350924413557
 30
0.0
 11
-10508.11560817075
 21
-4983.118270849307
 31
0.0
  0
LINE
  5
198
330
195
100
AcDbEntity
  8
0
 62
   123
100
AcDbLine
 10
-10505.11560817075
 20
-4983.718270849307
 30
0.0
 11
-10502.11560817075
 21
-4983.718270849307
 31
0.0
  0
LINE
  5
199
330
195
100
AcDbEntity
  8
0
 62
   123
100
AcDbLine
 10
-10513.11560817075
 20
-4983.718270849307
 30
0.0
 11
-10521.28227483742
 21
-4983.718270849307
 31
0.0
  0
LINE
  5
19A
330
195
100
AcDbEntity
  8
0
 62
   123
100
AcDbLine
 10
-10508.11560817075
 20
-4983.718270849307
 30
0.0
 11
-10510.11560817075
 21
-4983.718270849307
 31
0.0
  0
SOLID
  5
19B
330
195
100
AcDbEntity
  8
0
 62
   123
100
AcDbTrace
 10
-10505.11560817075
 20
-4983.218270849307
 30
0.0
 11
-10505.11560817075
 21
-4984.218270849307
 31
0.0
 12
-10508.11560817075
 22
-4983.718270849307
 32
0.0
 13
-10508.11560817075
 23
-4983.718270849307
 33
0.0
  0
SOLID
  5
19C
330
195
100
AcDbEntity
  8
0
 62
   123
100
AcDbTrace
 10
-10513.11560817075
 20
-4983.218270849307
 30
0.0
 11
-10513.11560817075
 21
-4984.218270849307
 31
0.0
 12
-10510.11560817075
 22
-4983.718270849307
 32
0.0
 13
-10510.11560817075
 23
-4983.718270849307
 33
0.0
  0
MTEXT
  5
19D
330
195
100
AcDbEntity
  8
0
 62
     3
100
AcDbMText
 10
-10519.11560817075
 20
-4980.968270849309
 30
0.0
 40
3.5
 41
0.0
 71
     5
 72
     1
  1
\A1;2
1001
ACAD
1000
MTEXTBEGIN
1070
    73
1070
     1
1070
    44
1040
1.0
1070
    74
1070
     0
1000
MTEXTEND
1000
MTEXTBEGIN
1070
    73
1070
     1
1070
    44
1040
1.0
1070
    74
1070
     0
1000
MTEXTEND
1000
MTEXTBEGIN
1070
    73
1070
     1
1070
    44
1040
1.0
1070
    74
1070
     0
1000
MTEXTEND
1000
MTEXTBEGIN
1070
    73
1070
     1
1070
    44
1040
1.0
1070
    74
1070
     0
1000
MTEXTEND
  0
POINT
  5
19E
330
195
100
AcDbEntity
  8
DEFPOINTS
 62
     0
100
AcDbPoint
 10
-10510.11560817075
 20
-4999.850924413557
 30
0.0
  0
POINT
  5
19F
330
195
100
AcDbEntity
  8
DEFPOINTS
 62
     0
100
AcDbPoint
 10
-10508.11560817075
 20
-4996.350924413555
 30
0.0
  0
POINT
  5
1A0
330
195
100
AcDbEntity
  8
DEFPOINTS
 62
     0
100
AcDbPoint
 10
-10508.11560817075
 20
-4983.718270849307
 30
0.0
  0
ENDBLK
  5
1A2
330
195
100
AcDbEntity
  8
0
100
AcDbBlockEnd
  0
BLOCK
  5
D1
330
C5
100
AcDbEntity
  8
0
100
AcDbBlockBegin
  2
*D7
 70
     1
 10
0.0
 20
0.0
 30
0.0
  3
*D7
  1

  0
LINE
  5
C6
330
C5
100
AcDbEntity
  8
0
 62
   123
100
AcDbLine
 10
-10662.96017256409
 20
-5095.981069175629
 30
0.0
 11
-10662.95910489412
 21
-5114.399314751939
 31
0.0
  0
LINE
  5
C7
330
C5
100
AcDbEntity
  8
0
 62
   123
100
AcDbLine
 10
-10643.93782784244
 20
-5087.274758809747
 30
0.0
 11
-10635.00384393082
 21
-5108.836111649868
 31
0.0
  0
ARC
  5
C8
330
C5
100
AcDbEntity
  8
0
 62
   123
100
AcDbCircle
 10
-10662.9633389326
 20
-5041.358428353294
 30
0.0
 40
72.4408865213665
100
AcDbArc
 50
272.3762854377737
 51
290.1337927847921
  0
SOLID
  5
C9
330
C5
100
AcDbEntity
  8
0
 62
   123
100
AcDbTrace
 10
-10659.949404244
 20
-5114.236913468221
 30
0.0
 11
-10659.97016873799
 21
-5113.237129073571
 31
0.0
 12
-10662.95913967496
 22
-5113.79931475295
 32
0.0
 13
-10662.95913967496
 23
-5113.79931475295
 33
0.0
  0
SOLID
  5
CA
330
C5
100
AcDbEntity
  8
0
 62
   123
100
AcDbTrace
 10
-10638.20999769437
 20
-5108.906772393642
 30
0.0
 11
-10637.84641679585
 21
-5109.838335021825
 31
0.0
 12
-10635.23351936057
 22
-5108.281811012155
 32
0.0
 13
-10635.23351936057
 23
-5108.281811012155
 33
0.0
  0
MTEXT
  5
CB
330
C5
100
AcDbEntity
  8
0
 62
     3
100
AcDbMText
 10
-10649.42636887449
 20
-5109.382105303878
 30
0.0
 40
3.5
 41
0.0
 71
     5
 72
     1
  1
\A1;22°30'
 11
0.9807681185950707
 21
0.1951765804277893
 31
0.0
1001
ACAD
1000
MTEXTBEGIN
1070
    73
1070
     1
1070
    44
1040
1.0
1070
    74
1070
     0
1000
MTEXTEND
1000
MTEXTBEGIN
1070
    73
1070
     1
1070
    44
1040
1.0
1070
    74
1070
     0
1000
MTEXTEND
1000
MTEXTBEGIN
1070
    73
1070
     1
1070
    44
1040
1.0
1070
    74
1070
     0
1000
MTEXTEND
1000
MTEXTBEGIN
1070
    73
1070
     1
1070
    44
1040
1.0
1070
    74
1070
     0
1000
MTEXTEND
  0
POINT
  5
CC
330
C5
100
AcDbEntity
  8
DEFPOINTS
 62
     0
100
AcDbPoint
 10
-10653.50230703596
 20
-5113.178835727886
 30
0.0
  0
POINT
  5
CD
330
C5
100
AcDbEntity
  8
DEFPOINTS
 62
     0
100
AcDbPoint
 10
-10662.96023053215
 20
-5094.981069177309
 30
0.0
  0
POINT
  5
CE
330
C5
100
AcDbEntity
  8
DEFPOINTS
 62
     0
100
AcDbPoint
 10
-10662.96644820303
 20
-5041.350924413556
 30
0.0
  0
POINT
  5
CF
330
C5
100
AcDbEntity
  8
DEFPOINTS
 62
     0
100
AcDbPoint
 10
-10644.32062022534
 20
-5086.350924413558
 30
0.0
  0
POINT
  5
D0
330
C5
100
AcDbEntity
  8
DEFPOINTS
 62
     0
100
AcDbPoint
 10
-10662.96644820303
 20
-4987.720779649804
 30
0.0
  0
ENDBLK
  5
D2
330
C5
100
AcDbEntity
  8
0
100
AcDbBlockEnd
  0
BLOCK
  5
15C
330
152
100
AcDbEntity
  8
0
100
AcDbBlockBegin
  2
*D8
 70
     1
 10
0.0
 20
0.0
 30
0.0
  3
*D8
  1

  0
LINE
  5
153
330
152
100
AcDbEntity
  8
0
 62
   123
100
AcDbLine
 10
-10707.96023053214
 20
-5000.393718172354
 30
0.0
 11
-10707.96023053214
 21
-4975.529162635653
 31
0.0
  0
LINE
  5
154
330
152
100
AcDbEntity
  8
0
 62
   123
100
AcDbLine
 10
-10617.96023053215
 20
-5000.393718172354
 30
0.0
 11
-10617.96023053215
 21
-4975.529162635653
 31
0.0
  0
LINE
  5
155
330
152
100
AcDbEntity
  8
0
 62
   123
100
AcDbLine
 10
-10704.96023053215
 20
-4976.129162635653
 30
0.0
 11
-10620.96023053215
 21
-4976.129162635653
 31
0.0
  0
SOLID
  5
156
330
152
100
AcDbEntity
  8
0
 62
   123
100
AcDbTrace
 10
-10704.96023053215
 20
-4975.629162635653
 30
0.0
 11
-10704.96023053215
 21
-4976.629162635653
 31
0.0
 12
-10707.96023053214
 22
-4976.129162635653
 32
0.0
 13
-10707.96023053214
 23
-4976.129162635653
 33
0.0
  0
SOLID
  5
157
330
152
100
AcDbEntity
  8
0
 62
   123
100
AcDbTrace
 10
-10620.96023053215
 20
-4975.629162635653
 30
0.0
 11
-10620.96023053215
 21
-4976.629162635653
 31
0.0
 12
-10617.96023053215
 22
-4976.129162635653
 32
0.0
 13
-10617.96023053215
 23
-4976.129162635653
 33
0.0
  0
MTEXT
  5
158
330
152
100
AcDbEntity
  8
0
 62
     3
100
AcDbMText
 10
-10662.56957889216
 20
-4973.379162635653
 30
0.0
 40
3.5
 41
0.0
 71
     5
 72
     1
  1
\A1;90
1001
ACAD
1000
MTEXTBEGIN
1070
    73
1070
     1
1070
    44
1040
1.0
1070
    74
1070
     0
1000
MTEXTEND
1000
MTEXTBEGIN
1070
    73
1070
     1
1070
    44
1040
1.0
1070
    74
1070
     0
1000
MTEXTEND
1000
MTEXTBEGIN
1070
    73
1070
     1
1070
    44
1040
1.0
1070
    74
1070
     0
1000
MTEXTEND
1000
MTEXTBEGIN
1070
    73
1070
     1
1070
    44
1040
1.0
1070
    74
1070
     0
1000
MTEXTEND
  0
POINT
  5
159
330
152
100
AcDbEntity
  8
DEFPOINTS
 62
     0
100
AcDbPoint
 10
-10707.96023053214
 20
-5001.393718172354
 30
0.0
  0
POINT
  5
15A
330
152
100
AcDbEntity
  8
DEFPOINTS
 62
     0
100
AcDbPoint
 10
-10617.96023053215
 20
-5001.393718172354
 30
0.0
  0
POINT
  5
15B
330
152
100
AcDbEntity
  8
DEFPOINTS
 62
     0
100
AcDbPoint
 10
-10617.96023053215
 20
-4976.129162635653
 30
0.0
  0
ENDBLK
  5
15D
330
152
100
AcDbEntity
  8
0
100
AcDbBlockEnd
  0
BLOCK
  5
1E9
330
1DF
100
AcDbEntity
  8
0
100
AcDbBlockBegin
  2
*D9
 70
     1
 10
0.0
 20
0.0
 30
0.0
  3
*D9
  1

  0
LINE
  5
1E0
330
1DF
100
AcDbEntity
  8
0
 62
   123
100
AcDbLine
 10
-10309.61488568006
 20
-4996.350924413555
 30
0.0
 11
-10284.92028229054
 21
-4996.350924413555
 31
0.0
  0
LINE
  5
1E1
330
1DF
100
AcDbEntity
  8
0
 62
   123
100
AcDbLine
 10
-10309.61488568006
 20
-5086.350924413558
 30
0.0
 11
-10284.92028229054
 21
-5086.350924413558
 31
0.0
  0
LINE
  5
1E2
330
1DF
100
AcDbEntity
  8
0
 62
   123
100
AcDbLine
 10
-10285.52028229054
 20
-4999.350924413556
 30
0.0
 11
-10285.52028229054
 21
-5083.350924413558
 31
0.0
  0
SOLID
  5
1E3
330
1DF
100
AcDbEntity
  8
0
 62
   123
100
AcDbTrace
 10
-10286.02028229054
 20
-4999.350924413556
 30
0.0
 11
-10285.02028229054
 21
-4999.350924413556
 31
0.0
 12
-10285.52028229054
 22
-4996.350924413555
 32
0.0
 13
-10285.52028229054
 23
-4996.350924413555
 33
0.0
  0
SOLID
  5
1E4
330
1DF
100
AcDbEntity
  8
0
 62
   123
100
AcDbTrace
 10
-10286.02028229054
 20
-5083.350924413558
 30
0.0
 11
-10285.02028229054
 21
-5083.350924413558
 31
0.0
 12
-10285.52028229054
 22
-5086.350924413558
 32
0.0
 13
-10285.52028229054
 23
-5086.350924413558
 33
0.0
  0
MTEXT
  5
1E5
330
1DF
100
AcDbEntity
  8
0
 62
     3
100
AcDbMText
 10
-10288.27028229054
 20
-5041.344134441319
 30
0.0
 40
3.5
 41
0.0
 71
     5
 72
     1
  1
\A1;90
 11
0.0000000000000001
 21
1.0
 31
0.0
1001
ACAD
1000
MTEXTBEGIN
1070
    73
1070
     1
1070
    44
1040
1.0
1070
    74
1070
     0
1000
MTEXTEND
1000
MTEXTBEGIN
1070
    73
1070
     1
1070
    44
1040
1.0
1070
    74
1070
     0
1000
MTEXTEND
1000
MTEXTBEGIN
1070
    73
1070
     1
1070
    44
1040
1.0
1070
    74
1070
     0
1000
MTEXTEND
1000
MTEXTBEGIN
1070
    73
1070
     1
1070
    44
1040
1.0
1070
    74
1070
     0
1000
MTEXTEND
  0
POINT
  5
1E6
330
1DF
100
AcDbEntity
  8
DEFPOINTS
 62
     0
100
AcDbPoint
 10
-10310.61488568006
 20
-4996.350924413555
 30
0.0
  0
POINT
  5
1E7
330
1DF
100
AcDbEntity
  8
DEFPOINTS
 62
     0
100
AcDbPoint
 10
-10310.61488568006
 20
-5086.350924413558
 30
0.0
  0
POINT
  5
1E8
330
1DF
100
AcDbEntity
  8
DEFPOINTS
 62
     0
100
AcDbPoint
 10
-10285.52028229054
 20
-5086.350924413558
 30
0.0
  0
ENDBLK
  5
1EA
330
1DF
100
AcDbEntity
  8
0
100
AcDbBlockEnd
  0
BLOCK
  5
BE
330
B4
100
AcDbEntity
  8
0
100
AcDbBlockBegin
  2
*D10
 70
     1
 10
0.0
 20
0.0
 30
0.0
  3
*D10
  1

  0
LINE
  5
B5
330
B4
100
AcDbEntity
  8
0
 62
   123
100
AcDbLine
 10
-10508.11560817075
 20
-4994.850924413555
 30
0.0
 11
-10508.11560817075
 21
-4961.273760705815
 31
0.0
  0
LINE
  5
B6
330
B4
100
AcDbEntity
  8
0
 62
   123
100
AcDbLine
 10
-10307.11488568005
 20
-4998.850924413558
 30
0.0
 11
-10307.11488568005
 21
-4961.273760705815
 31
0.0
  0
LINE
  5
B7
330
B4
100
AcDbEntity
  8
0
 62
   123
100
AcDbLine
 10
-10505.11560817075
 20
-4961.873760705813
 30
0.0
 11
-10310.11488568005
 21
-4961.873760705813
 31
0.0
  0
SOLID
  5
B8
330
B4
100
AcDbEntity
  8
0
 62
   123
100
AcDbTrace
 10
-10505.11560817075
 20
-4961.373760705814
 30
0.0
 11
-10505.11560817075
 21
-4962.373760705814
 31
0.0
 12
-10508.11560817075
 22
-4961.873760705813
 32
0.0
 13
-10508.11560817075
 23
-4961.873760705813
 33
0.0
  0
SOLID
  5
B9
330
B4
100
AcDbEntity
  8
0
 62
   123
100
AcDbTrace
 10
-10310.11488568005
 20
-4961.373760705814
 30
0.0
 11
-10310.11488568005
 21
-4962.373760705814
 31
0.0
 12
-10307.11488568005
 22
-4961.873760705813
 32
0.0
 13
-10307.11488568005
 23
-4961.873760705813
 33
0.0
  0
MTEXT
  5
BA
330
B4
100
AcDbEntity
  8
0
 62
     3
100
AcDbMText
 10
-10415.11560817075
 20
-4959.123760705814
 30
0.0
 40
3.5
 41
0.0
 71
     5
 72
     1
  1
\A1;201
1001
ACAD
1000
MTEXTBEGIN
1070
    73
1070
     1
1070
    44
1040
1.0
1070
    74
1070
     0
1000
MTEXTEND
1000
MTEXTBEGIN
1070
    73
1070
     1
1070
    44
1040
1.0
1070
    74
1070
     0
1000
MTEXTEND
1000
MTEXTBEGIN
1070
    73
1070
     1
1070
    44
1040
1.0
1070
    74
1070
     0
1000
MTEXTEND
1000
MTEXTBEGIN
1070
    73
1070
     1
1070
    44
1040
1.0
1070
    74
1070
     0
1000
MTEXTEND
  0
POINT
  5
BB
330
B4
100
AcDbEntity
  8
DEFPOINTS
 62
     0
100
AcDbPoint
 10
-10508.11560817075
 20
-4995.850924413558
 30
0.0
  0
POINT
  5
BC
330
B4
100
AcDbEntity
  8
DEFPOINTS
 62
     0
100
AcDbPoint
 10
-10307.11488568005
 20
-4999.850924413557
 30
0.0
  0
POINT
  5
BD
330
B4
100
AcDbEntity
  8
DEFPOINTS
 62
     0
100
AcDbPoint
 10
-10307.11488568005
 20
-4961.873760705813
 30
0.0
  0
ENDBLK
  5
BF
330
B4
100
AcDbEntity
  8
0
100
AcDbBlockEnd
  0
BLOCK
  5
2AA
330
2A1
100
AcDbEntity
  8
0
100
AcDbBlockBegin
  2
*D11
 70
     1
 10
0.0
 20
0.0
 30
0.0
  3
*D11
  1

  0
LINE
  5
2A2
330
2A1
100
AcDbEntity
  8
0
 62
   123
100
AcDbLine
 10
-10680.4816208402
 20
-4872.560083725919
 30
0.0
 11
-10682.86832613755
 21
-4874.377674940621
 31
0.0
  0
LINE
  5
2A3
330
2A1
100
AcDbEntity
  8
0
 62
   123
100
AcDbLine
 10
-10592.96909327197
 20
-4805.915072520136
 30
0.0
 11
-10568.40892120439
 21
-4787.211316747758
 31
0.0
  0
LINE
  5
2A4
330
2A1
100
AcDbEntity
  8
0
 62
   123
100
AcDbLine
 10
-10678.09491554292
 20
-4870.742492511215
 30
0.0
 11
-10595.3557985693
 21
-4807.73266373484
 31
0.0
  0
SOLID
  5
2A5
330
2A1
100
AcDbEntity
  8
0
 62
   123
100
AcDbTrace
 10
-10680.78455270935
 20
-4872.1622995097
 30
0.0
 11
-10680.1786889711
 21
-4872.957867942137
 31
0.0
 12
-10678.09491554292
 22
-4870.742492511215
 32
0.0
 13
-10678.09491554292
 23
-4870.742492511215
 33
0.0
  0
SOLID
  5
2A6
330
2A1
100
AcDbEntity
  8
0
 62
   123
100
AcDbTrace
 10
-10593.2720251411
 20
-4805.517288303917
 30
0.0
 11
-10592.66616140287
 21
-4806.312856736354
 31
0.0
 12
-10595.3557985693
 22
-4807.73266373484
 32
0.0
 13
-10595.3557985693
 23
-4807.73266373484
 33
0.0
  0
MTEXT
  5
2A7
330
2A1
100
AcDbEntity
  8
0
 62
     3
100
AcDbMText
 10
-10580.7489229531
 20
-4793.152175379863
 30
0.0
 40
3.5
 41
0.0
 71
     5
 72
     1
  1
\A1;\U+2205104%%P0.5
 11
0.7955684324385454
 21
0.6058637382343292
 31
0.0
1001
ACAD
1000
MTEXTBEGIN
1070
    73
1070
     1
1070
    44
1040
1.0
1070
    74
1070
     0
1000
MTEXTEND
1000
MTEXTBEGIN
1070
    73
1070
     1
1070
    44
1040
1.0
1070
    74
1070
     0
1000
MTEXTEND
1000
MTEXTBEGIN
1070
    73
1070
     1
1070
    44
1040
1.0
1070
    74
1070
     0
1000
MTEXTEND
1000
MTEXTBEGIN
1070
    73
1070
     1
1070
    44
1040
1.0
1070
    74
1070
     0
1000
MTEXTEND
  0
POINT
  5
2A8
330
2A1
100
AcDbEntity
  8
DEFPOINTS
 62
     0
100
AcDbPoint
 10
-10595.3557985693
 20
-4807.73266373484
 30
0.0
  0
POINT
  5
2A9
330
2A1
100
AcDbEntity
  8
DEFPOINTS
 62
     0
100
AcDbPoint
 10
-10678.09491554292
 20
-4870.742492511215
 30
0.0
  0
ENDBLK
  5
2AB
330
2A1
100
AcDbEntity
  8
0
100
AcDbBlockEnd
  0
BLOCK
  5
2BC
330
2B2
100
AcDbEntity
  8
0
100
AcDbBlockBegin
  2
*D12
 70
     1
 10
0.0
 20
0.0
 30
0.0
  3
*D12
  1

  0
LINE
  5
2B3
330
2B2
100
AcDbEntity
  8
0
 62
   123
100
AcDbLine
 10
-10516.65646509444
 20
-4797.737578123024
 30
0.0
 11
-10552.5237786585
 21
-4797.737578123024
 31
0.0
  0
LINE
  5
2B4
330
2B2
100
AcDbEntity
  8
0
 62
   123
100
AcDbLine
 10
-10516.65646509444
 20
-4880.737578123024
 30
0.0
 11
-10552.5237786585
 21
-4880.737578123024
 31
0.0
  0
LINE
  5
2B5
330
2B2
100
AcDbEntity
  8
0
 62
   123
100
AcDbLine
 10
-10551.9237786585
 20
-4800.737578123023
 30
0.0
 11
-10551.9237786585
 21
-4877.737578123024
 31
0.0
  0
SOLID
  5
2B6
330
2B2
100
AcDbEntity
  8
0
 62
   123
100
AcDbTrace
 10
-10552.42377865849
 20
-4800.737578123023
 30
0.0
 11
-10551.42377865849
 21
-4800.737578123023
 31
0.0
 12
-10551.9237786585
 22
-4797.737578123024
 32
0.0
 13
-10551.9237786585
 23
-4797.737578123024
 33
0.0
  0
SOLID
  5
2B7
330
2B2
100
AcDbEntity
  8
0
 62
   123
100
AcDbTrace
 10
-10552.42377865849
 20
-4877.737578123024
 30
0.0
 11
-10551.42377865849
 21
-4877.737578123024
 31
0.0
 12
-10551.9237786585
 22
-4880.737578123024
 32
0.0
 13
-10551.9237786585
 23
-4880.737578123024
 33
0.0
  0
MTEXT
  5
2B8
330
2B2
100
AcDbEntity
  8
0
 62
     3
100
AcDbMText
 10
-10556.36562032514
 20
-4839.237578123024
 30
0.0
 40
3.5
 41
0.0
 71
     5
 72
     1
  1
\A1;\A1;{\f??|b0|i0|c0|p49;%%C}83{\f??|b0|i0|c0|p49;\H0.7x;\S+0^ -0.035;\H1.429x;(h}7{\f??|b0|i0|c0|p49;)}
 11
0.0000000000000001
 21
1.0
 31
0.0
1001
ACAD
1000
MTEXTBEGIN
1070
    73
1070
     1
1070
    44
1040
1.0
1070
    74
1070
     0
1000
MTEXTEND
1000
MTEXTBEGIN
1070
    73
1070
     1
1070
    44
1040
1.0
1070
    74
1070
     0
1000
MTEXTEND
1000
MTEXTBEGIN
1070
    73
1070
     1
1070
    44
1040
1.0
1070
    74
1070
     0
1000
MTEXTEND
1000
MTEXTBEGIN
1070
    73
1070
     1
1070
    44
1040
1.0
1070
    74
1070
     0
1000
MTEXTEND
  0
POINT
  5
2B9
330
2B2
100
AcDbEntity
  8
DEFPOINTS
 62
     0
100
AcDbPoint
 10
-10515.65646509444
 20
-4797.737578123024
 30
0.0
  0
POINT
  5
2BA
330
2B2
100
AcDbEntity
  8
DEFPOINTS
 62
     0
100
AcDbPoint
 10
-10515.65646509444
 20
-4880.737578123024
 30
0.0
  0
POINT
  5
2BB
330
2B2
100
AcDbEntity
  8
DEFPOINTS
 62
     0
100
AcDbPoint
 10
-10551.9237786585
 20
-4880.737578123024
 30
0.0
  0
ENDBLK
  5
2BD
330
2B2
100
AcDbEntity
  8
0
100
AcDbBlockEnd
  0
BLOCK
  5
238
330
22C
100
AcDbEntity
  8
0
100
AcDbBlockBegin
  2
*D13
 70
     1
 10
0.0
 20
0.0
 30
0.0
  3
*D13
  1

  0
LINE
  5
22D
330
22C
100
AcDbEntity
  8
0
 62
   123
100
AcDbLine
 10
-10513.65646509444
 20
-4793.02924478969
 30
0.0
 11
-10513.65646509444
 21
-4769.180604327857
 31
0.0
  0
LINE
  5
22E
330
22C
100
AcDbEntity
  8
0
 62
   123
100
AcDbLine
 10
-10506.15646509444
 20
-4794.638840781494
 30
0.0
 11
-10506.15646509444
 21
-4769.180604327857
 31
0.0
  0
LINE
  5
22F
330
22C
100
AcDbEntity
  8
0
 62
   123
100
AcDbLine
 10
-10516.65646509444
 20
-4769.780604327858
 30
0.0
 11
-10519.65646509444
 21
-4769.780604327858
 31
0.0
  0
LINE
  5
230
330
22C
100
AcDbEntity
  8
0
 62
   123
100
AcDbLine
 10
-10503.15646509444
 20
-4769.780604327858
 30
0.0
 11
-10500.15646509445
 21
-4769.780604327858
 31
0.0
  0
LINE
  5
231
330
22C
100
AcDbEntity
  8
0
 62
   123
100
AcDbLine
 10
-10513.65646509444
 20
-4769.780604327858
 30
0.0
 11
-10506.15646509444
 21
-4769.780604327858
 31
0.0
  0
SOLID
  5
232
330
22C
100
AcDbEntity
  8
0
 62
   123
100
AcDbTrace
 10
-10516.65646509444
 20
-4769.280604327858
 30
0.0
 11
-10516.65646509444
 21
-4770.280604327857
 31
0.0
 12
-10513.65646509444
 22
-4769.780604327858
 32
0.0
 13
-10513.65646509444
 23
-4769.780604327858
 33
0.0
  0
SOLID
  5
233
330
22C
100
AcDbEntity
  8
0
 62
   123
100
AcDbTrace
 10
-10503.15646509444
 20
-4769.280604327858
 30
0.0
 11
-10503.15646509444
 21
-4770.280604327857
 31
0.0
 12
-10506.15646509444
 22
-4769.780604327858
 32
0.0
 13
-10506.15646509444
 23
-4769.780604327858
 33
0.0
  0
MTEXT
  5
234
330
22C
100
AcDbEntity
  8
0
 62
     3
100
AcDbMText
 10
-10509.90646509444
 20
-4767.030604327858
 30
0.0
 40
3.5
 41
0.0
 71
     5
 72
     1
  1
\A1;7.5
1001
ACAD
1000
MTEXTBEGIN
1070
    73
1070
     1
1070
    44
1040
1.0
1070
    74
1070
     0
1000
MTEXTEND
1000
MTEXTBEGIN
1070
    73
1070
     1
1070
    44
1040
1.0
1070
    74
1070
     0
1000
MTEXTEND
1000
MTEXTBEGIN
1070
    73
1070
     1
1070
    44
1040
1.0
1070
    74
1070
     0
1000
MTEXTEND
1000
MTEXTBEGIN
1070
    73
1070
     1
1070
    44
1040
1.0
1070
    74
1070
     0
1000
MTEXTEND
  0
POINT
  5
235
330
22C
100
AcDbEntity
  8
DEFPOINTS
 62
     0
100
AcDbPoint
 10
-10513.65646509444
 20
-4794.029244789689
 30
0.0
  0
POINT
  5
236
330
22C
100
AcDbEntity
  8
DEFPOINTS
 62
     0
100
AcDbPoint
 10
-10506.15646509444
 20
-4795.638840781494
 30
0.0
  0
POINT
  5
237
330
22C
100
AcDbEntity
  8
DEFPOINTS
 62
     0
100
AcDbPoint
 10
-10506.15646509444
 20
-4769.780604327858
 30
0.0
  0
ENDBLK
  5
239
330
22C
100
AcDbEntity
  8
0
100
AcDbBlockEnd
  0
BLOCK
  5
1B0
330
1A6
100
AcDbEntity
  8
0
100
AcDbBlockBegin
  2
*D14
 70
     1
 10
0.0
 20
0.0
 30
0.0
  3
*D14
  1

  0
LINE
  5
1A7
330
1A6
100
AcDbEntity
  8
0
 62
   123
100
AcDbLine
 10
-10545.11560817075
 20
-5035.350924413556
 30
0.0
 11
-10545.11560817075
 21
-4961.273760705815
 31
0.0
  0
LINE
  5
1A8
330
1A6
100
AcDbEntity
  8
0
 62
   123
100
AcDbLine
 10
-10508.11560817075
 20
-4995.142591080223
 30
0.0
 11
-10508.11560817075
 21
-4961.273760705815
 31
0.0
  0
LINE
  5
1A9
330
1A6
100
AcDbEntity
  8
0
 62
   123
100
AcDbLine
 10
-10542.11560817075
 20
-4961.873760705813
 30
0.0
 11
-10511.11560817075
 21
-4961.873760705813
 31
0.0
  0
SOLID
  5
1AA
330
1A6
100
AcDbEntity
  8
0
 62
   123
100
AcDbTrace
 10
-10542.11560817075
 20
-4961.373760705814
 30
0.0
 11
-10542.11560817075
 21
-4962.373760705814
 31
0.0
 12
-10545.11560817075
 22
-4961.873760705813
 32
0.0
 13
-10545.11560817075
 23
-4961.873760705813
 33
0.0
  0
SOLID
  5
1AB
330
1A6
100
AcDbEntity
  8
0
 62
   123
100
AcDbTrace
 10
-10511.11560817075
 20
-4961.373760705814
 30
0.0
 11
-10511.11560817075
 21
-4962.373760705814
 31
0.0
 12
-10508.11560817075
 22
-4961.873760705813
 32
0.0
 13
-10508.11560817075
 23
-4961.873760705813
 33
0.0
  0
MTEXT
  5
1AC
330
1A6
100
AcDbEntity
  8
0
 62
     3
100
AcDbMText
 10
-10526.61560817075
 20
-4959.123760705814
 30
0.0
 40
3.5
 41
0.0
 71
     5
 72
     1
  1
\A1;37
1001
ACAD
1000
MTEXTBEGIN
1070
    73
1070
     1
1070
    44
1040
1.0
1070
    74
1070
     0
1000
MTEXTEND
1000
MTEXTBEGIN
1070
    73
1070
     1
1070
    44
1040
1.0
1070
    74
1070
     0
1000
MTEXTEND
1000
MTEXTBEGIN
1070
    73
1070
     1
1070
    44
1040
1.0
1070
    74
1070
     0
1000
MTEXTEND
1000
MTEXTBEGIN
1070
    73
1070
     1
1070
    44
1040
1.0
1070
    74
1070
     0
1000
MTEXTEND
  0
POINT
  5
1AD
330
1A6
100
AcDbEntity
  8
DEFPOINTS
 62
     0
100
AcDbPoint
 10
-10545.11560817075
 20
-5036.350924413557
 30
0.0
  0
POINT
  5
1AE
330
1A6
100
AcDbEntity
  8
DEFPOINTS
 62
     0
100
AcDbPoint
 10
-10508.11560817075
 20
-4996.142591080221
 30
0.0
  0
POINT
  5
1AF
330
1A6
100
AcDbEntity
  8
DEFPOINTS
 62
     0
100
AcDbPoint
 10
-10508.11560817075
 20
-4961.873760705813
 30
0.0
  0
ENDBLK
  5
1B1
330
1A6
100
AcDbEntity
  8
0
100
AcDbBlockEnd
  0
BLOCK
  5
192
330
186
100
AcDbEntity
  8
0
100
AcDbBlockBegin
  2
*D15
 70
     1
 10
0.0
 20
0.0
 30
0.0
  3
*D15
  1

  0
LINE
  5
187
330
186
100
AcDbEntity
  8
0
 62
   123
100
AcDbLine
 10
-10508.11560817075
 20
-4995.142591080223
 30
0.0
 11
-10508.11560817075
 21
-4973.812909704079
 31
0.0
  0
LINE
  5
188
330
186
100
AcDbEntity
  8
0
 62
   123
100
AcDbLine
 10
-10500.61560817075
 20
-4996.752187072027
 30
0.0
 11
-10500.61560817075
 21
-4973.812909704079
 31
0.0
  0
LINE
  5
189
330
186
100
AcDbEntity
  8
0
 62
   123
100
AcDbLine
 10
-10511.11560817075
 20
-4974.412909704081
 30
0.0
 11
-10514.11560817075
 21
-4974.412909704081
 31
0.0
  0
LINE
  5
18A
330
186
100
AcDbEntity
  8
0
 62
   123
100
AcDbLine
 10
-10497.61560817075
 20
-4974.412909704081
 30
0.0
 11
-10485.28227483739
 21
-4974.412909704081
 31
0.0
  0
LINE
  5
18B
330
186
100
AcDbEntity
  8
0
 62
   123
100
AcDbLine
 10
-10508.11560817075
 20
-4974.412909704081
 30
0.0
 11
-10500.61560817075
 21
-4974.412909704081
 31
0.0
  0
SOLID
  5
18C
330
186
100
AcDbEntity
  8
0
 62
   123
100
AcDbTrace
 10
-10511.11560817075
 20
-4973.912909704079
 30
0.0
 11
-10511.11560817075
 21
-4974.912909704078
 31
0.0
 12
-10508.11560817075
 22
-4974.412909704081
 32
0.0
 13
-10508.11560817075
 23
-4974.412909704081
 33
0.0
  0
SOLID
  5
18D
330
186
100
AcDbEntity
  8
0
 62
   123
100
AcDbTrace
 10
-10497.61560817075
 20
-4973.912909704079
 30
0.0
 11
-10497.61560817075
 21
-4974.912909704078
 31
0.0
 12
-10500.61560817075
 22
-4974.412909704081
 32
0.0
 13
-10500.61560817075
 23
-4974.412909704081
 33
0.0
  0
MTEXT
  5
18E
330
186
100
AcDbEntity
  8
0
 62
     3
100
AcDbMText
 10
-10489.94894150407
 20
-4971.662909704081
 30
0.0
 40
3.5
 41
0.0
 71
     5
 72
     1
  1
\A1;7.5
1001
ACAD
1000
MTEXTBEGIN
1070
    73
1070
     1
1070
    44
1040
1.0
1070
    74
1070
     0
1000
MTEXTEND
1000
MTEXTBEGIN
1070
    73
1070
     1
1070
    44
1040
1.0
1070
    74
1070
     0
1000
MTEXTEND
1000
MTEXTBEGIN
1070
    73
1070
     1
1070
    44
1040
1.0
1070
    74
1070
     0
1000
MTEXTEND
1000
MTEXTBEGIN
1070
    73
1070
     1
1070
    44
1040
1.0
1070
    74
1070
     0
1000
MTEXTEND
  0
POINT
  5
18F
330
186
100
AcDbEntity
  8
DEFPOINTS
 62
     0
100
AcDbPoint
 10
-10508.11560817075
 20
-4996.142591080221
 30
0.0
  0
POINT
  5
190
330
186
100
AcDbEntity
  8
DEFPOINTS
 62
     0
100
AcDbPoint
 10
-10500.61560817075
 20
-4997.752187072027
 30
0.0
  0
POINT
  5
191
330
186
100
AcDbEntity
  8
DEFPOINTS
 62
     0
100
AcDbPoint
 10
-10500.61560817075
 20
-4974.412909704081
 30
0.0
  0
ENDBLK
  5
193
330
186
100
AcDbEntity
  8
0
100
AcDbBlockEnd
  0
BLOCK
  5
11B
330
111
100
AcDbEntity
  8
0
100
AcDbBlockBegin
  2
*D16
 70
     1
 10
0.0
 20
0.0
 30
0.0
  3
*D16
  1

  0
LINE
  5
112
330
111
100
AcDbEntity
  8
0
 62
   123
100
AcDbLine
 10
-10511.11560817075
 20
-4999.850924413557
 30
0.0
 11
-10581.53169000683
 21
-4999.850924413557
 31
0.0
  0
LINE
  5
113
330
111
100
AcDbEntity
  8
0
 62
   123
100
AcDbLine
 10
-10511.11560817075
 20
-5082.850924413556
 30
0.0
 11
-10581.53169000683
 21
-5082.850924413556
 31
0.0
  0
LINE
  5
114
330
111
100
AcDbEntity
  8
0
 62
   123
100
AcDbLine
 10
-10580.93169000682
 20
-5002.850924413557
 30
0.0
 11
-10580.93169000682
 21
-5079.850924413555
 31
0.0
  0
SOLID
  5
115
330
111
100
AcDbEntity
  8
0
 62
   123
100
AcDbTrace
 10
-10581.43169000683
 20
-5002.850924413557
 30
0.0
 11
-10580.43169000683
 21
-5002.850924413557
 31
0.0
 12
-10580.93169000682
 22
-4999.850924413557
 32
0.0
 13
-10580.93169000682
 23
-4999.850924413557
 33
0.0
  0
SOLID
  5
116
330
111
100
AcDbEntity
  8
0
 62
   123
100
AcDbTrace
 10
-10581.43169000683
 20
-5079.850924413555
 30
0.0
 11
-10580.43169000683
 21
-5079.850924413555
 31
0.0
 12
-10580.93169000682
 22
-5082.850924413556
 32
0.0
 13
-10580.93169000682
 23
-5082.850924413556
 33
0.0
  0
MTEXT
  5
117
330
111
100
AcDbEntity
  8
0
 62
     3
100
AcDbMText
 10
-10585.37353167349
 20
-5039.985967780805
 30
0.0
 40
3.5
 41
0.0
 71
     5
 72
     1
  1
\A1;\A1;{\f??|b0|i0|c0|p49;%%C}83{\f??|b0|i0|c0|p49;\H0.7x;\S+0^ -0.035;\H1.429x;(h}7{\f??|b0|i0|c0|p49;)}
 11
0.0000000000000001
 21
1.0
 31
0.0
1001
ACAD
1000
MTEXTBEGIN
1070
    73
1070
     1
1070
    44
1040
1.0
1070
    74
1070
     0
1000
MTEXTEND
1000
MTEXTBEGIN
1070
    73
1070
     1
1070
    44
1040
1.0
1070
    74
1070
     0
1000
MTEXTEND
1000
MTEXTBEGIN
1070
    73
1070
     1
1070
    44
1040
1.0
1070
    74
1070
     0
1000
MTEXTEND
1000
MTEXTBEGIN
1070
    73
1070
     1
1070
    44
1040
1.0
1070
    74
1070
     0
1000
MTEXTEND
  0
POINT
  5
118
330
111
100
AcDbEntity
  8
DEFPOINTS
 62
     0
100
AcDbPoint
 10
-10510.11560817075
 20
-4999.850924413557
 30
0.0
  0
POINT
  5
119
330
111
100
AcDbEntity
  8
DEFPOINTS
 62
     0
100
AcDbPoint
 10
-10510.11560817075
 20
-5082.850924413556
 30
0.0
  0
POINT
  5
11A
330
111
100
AcDbEntity
  8
DEFPOINTS
 62
     0
100
AcDbPoint
 10
-10580.93169000682
 20
-5082.850924413556
 30
0.0
  0
ENDBLK
  5
11C
330
111
100
AcDbEntity
  8
0
100
AcDbBlockEnd
  0
BLOCK
  5
17F
330
175
100
AcDbEntity
  8
0
100
AcDbBlockBegin
  2
*D17
 70
     1
 10
0.0
 20
0.0
 30
0.0
  3
*D17
  1

  0
LINE
  5
176
330
175
100
AcDbEntity
  8
0
 62
   123
100
AcDbLine
 10
-10545.11560817075
 20
-5035.350924413556
 30
0.0
 11
-10545.11560817075
 21
-5010.153667926215
 31
0.0
  0
LINE
  5
177
330
175
100
AcDbEntity
  8
0
 62
   123
100
AcDbLine
 10
-10515.11560817075
 20
-5034.350924413558
 30
0.0
 11
-10515.11560817075
 21
-5010.153667926215
 31
0.0
  0
LINE
  5
178
330
175
100
AcDbEntity
  8
0
 62
   123
100
AcDbLine
 10
-10542.11560817075
 20
-5010.753667926216
 30
0.0
 11
-10518.11560817075
 21
-5010.753667926216
 31
0.0
  0
SOLID
  5
179
330
175
100
AcDbEntity
  8
0
 62
   123
100
AcDbTrace
 10
-10542.11560817075
 20
-5010.253667926216
 30
0.0
 11
-10542.11560817075
 21
-5011.253667926215
 31
0.0
 12
-10545.11560817075
 22
-5010.753667926216
 32
0.0
 13
-10545.11560817075
 23
-5010.753667926216
 33
0.0
  0
SOLID
  5
17A
330
175
100
AcDbEntity
  8
0
 62
   123
100
AcDbTrace
 10
-10518.11560817075
 20
-5010.253667926216
 30
0.0
 11
-10518.11560817075
 21
-5011.253667926215
 31
0.0
 12
-10515.11560817075
 22
-5010.753667926216
 32
0.0
 13
-10515.11560817075
 23
-5010.753667926216
 33
0.0
  0
MTEXT
  5
17B
330
175
100
AcDbEntity
  8
0
 62
     3
100
AcDbMText
 10
-10528.85692380625
 20
-5008.003667926216
 30
0.0
 40
3.5
 41
0.0
 71
     5
 72
     1
  1
\A1;30
1001
ACAD
1000
MTEXTBEGIN
1070
    73
1070
     1
1070
    44
1040
1.0
1070
    74
1070
     0
1000
MTEXTEND
1000
MTEXTBEGIN
1070
    73
1070
     1
1070
    44
1040
1.0
1070
    74
1070
     0
1000
MTEXTEND
1000
MTEXTBEGIN
1070
    73
1070
     1
1070
    44
1040
1.0
1070
    74
1070
     0
1000
MTEXTEND
1000
MTEXTBEGIN
1070
    73
1070
     1
1070
    44
1040
1.0
1070
    74
1070
     0
1000
MTEXTEND
  0
POINT
  5
17C
330
175
100
AcDbEntity
  8
DEFPOINTS
 62
     0
100
AcDbPoint
 10
-10545.11560817075
 20
-5036.350924413557
 30
0.0
  0
POINT
  5
17D
330
175
100
AcDbEntity
  8
DEFPOINTS
 62
     0
100
AcDbPoint
 10
-10515.11560817075
 20
-5035.350924413556
 30
0.0
  0
POINT
  5
17E
330
175
100
AcDbEntity
  8
DEFPOINTS
 62
     0
100
AcDbPoint
 10
-10515.11560817075
 20
-5010.753667926216
 30
0.0
  0
ENDBLK
  5
180
330
175
100
AcDbEntity
  8
0
100
AcDbBlockEnd
  0
BLOCK
  5
10C
330
102
100
AcDbEntity
  8
0
100
AcDbBlockBegin
  2
*D18
 70
     1
 10
0.0
 20
0.0
 30
0.0
  3
*D18
  1

  0
LINE
  5
103
330
102
100
AcDbEntity
  8
0
 62
   123
100
AcDbLine
 10
-10546.11560817075
 20
-5047.350924413557
 30
0.0
 11
-10558.18408905146
 21
-5047.350924413557
 31
0.0
  0
LINE
  5
104
330
102
100
AcDbEntity
  8
0
 62
   123
100
AcDbLine
 10
-10546.11560817075
 20
-5036.350924413557
 30
0.0
 11
-10558.18408905146
 21
-5036.350924413557
 31
0.0
  0
LINE
  5
105
330
102
100
AcDbEntity
  8
0
 62
   123
100
AcDbLine
 10
-10557.58408905145
 20
-5044.350924413556
 30
0.0
 11
-10557.58408905145
 21
-5039.350924413557
 31
0.0
  0
SOLID
  5
106
330
102
100
AcDbEntity
  8
0
 62
   123
100
AcDbTrace
 10
-10558.08408905146
 20
-5044.350924413556
 30
0.0
 11
-10557.08408905146
 21
-5044.350924413556
 31
0.0
 12
-10557.58408905145
 22
-5047.350924413557
 32
0.0
 13
-10557.58408905145
 23
-5047.350924413557
 33
0.0
  0
SOLID
  5
107
330
102
100
AcDbEntity
  8
0
 62
   123
100
AcDbTrace
 10
-10558.08408905146
 20
-5039.350924413557
 30
0.0
 11
-10557.08408905146
 21
-5039.350924413557
 31
0.0
 12
-10557.58408905145
 22
-5036.350924413557
 32
0.0
 13
-10557.58408905145
 23
-5036.350924413557
 33
0.0
  0
MTEXT
  5
108
330
102
100
AcDbEntity
  8
0
 62
     3
100
AcDbMText
 10
-10560.33408905145
 20
-5041.850924413558
 30
0.0
 40
3.5
 41
0.0
 71
     5
 72
     1
  1
\A1;11
 11
0.0000000000000001
 21
1.0
 31
0.0
1001
ACAD
1000
MTEXTBEGIN
1070
    73
1070
     1
1070
    44
1040
1.0
1070
    74
1070
     0
1000
MTEXTEND
1000
MTEXTBEGIN
1070
    73
1070
     1
1070
    44
1040
1.0
1070
    74
1070
     0
1000
MTEXTEND
1000
MTEXTBEGIN
1070
    73
1070
     1
1070
    44
1040
1.0
1070
    74
1070
     0
1000
MTEXTEND
1000
MTEXTBEGIN
1070
    73
1070
     1
1070
    44
1040
1.0
1070
    74
1070
     0
1000
MTEXTEND
  0
POINT
  5
109
330
102
100
AcDbEntity
  8
DEFPOINTS
 62
     0
100
AcDbPoint
 10
-10545.11560817075
 20
-5047.350924413557
 30
0.0
  0
POINT
  5
10A
330
102
100
AcDbEntity
  8
DEFPOINTS
 62
     0
100
AcDbPoint
 10
-10545.11560817075
 20
-5036.350924413557
 30
0.0
  0
POINT
  5
10B
330
102
100
AcDbEntity
  8
DEFPOINTS
 62
     0
100
AcDbPoint
 10
-10557.58408905145
 20
-5036.350924413557
 30
0.0
  0
ENDBLK
  5
10D
330
102
100
AcDbEntity
  8
0
100
AcDbBlockEnd
  0
BLOCK
  5
FD
330
F3
100
AcDbEntity
  8
0
100
AcDbBlockBegin
  2
*D19
 70
     1
 10
0.0
 20
0.0
 30
0.0
  3
*D19
  1

  0
LINE
  5
F4
330
F3
100
AcDbEntity
  8
0
 62
   123
100
AcDbLine
 10
-10546.11560817075
 20
-5047.350924413557
 30
0.0
 11
-10569.05256993216
 21
-5047.350924413557
 31
0.0
  0
LINE
  5
F5
330
F3
100
AcDbEntity
  8
0
 62
   123
100
AcDbLine
 10
-10516.11560817075
 20
-5035.350924413556
 30
0.0
 11
-10569.05256993216
 21
-5035.350924413556
 31
0.0
  0
LINE
  5
F6
330
F3
100
AcDbEntity
  8
0
 62
   123
100
AcDbLine
 10
-10568.45256993217
 20
-5044.350924413556
 30
0.0
 11
-10568.45256993217
 21
-5038.350924413556
 31
0.0
  0
SOLID
  5
F7
330
F3
100
AcDbEntity
  8
0
 62
   123
100
AcDbTrace
 10
-10568.95256993217
 20
-5044.350924413556
 30
0.0
 11
-10567.95256993217
 21
-5044.350924413556
 31
0.0
 12
-10568.45256993217
 22
-5047.350924413557
 32
0.0
 13
-10568.45256993217
 23
-5047.350924413557
 33
0.0
  0
SOLID
  5
F8
330
F3
100
AcDbEntity
  8
0
 62
   123
100
AcDbTrace
 10
-10568.95256993217
 20
-5038.350924413556
 30
0.0
 11
-10567.95256993217
 21
-5038.350924413556
 31
0.0
 12
-10568.45256993217
 22
-5035.350924413556
 32
0.0
 13
-10568.45256993217
 23
-5035.350924413556
 33
0.0
  0
MTEXT
  5
F9
330
F3
100
AcDbEntity
  8
0
 62
     3
100
AcDbMText
 10
-10572.89441159882
 20
-5041.350924413557
 30
0.0
 40
3.5
 41
0.0
 71
     5
 72
     1
  1
\A1;\A1;{\f??|b0|i0|c0|p49;%%C}12{\f??|b0|i0|c0|p49;\H0.7x;\S+0^ -0.018;\H1.429x;(h}7{\f??|b0|i0|c0|p49;)}
 11
0.0000000000000001
 21
1.0
 31
0.0
1001
ACAD
1000
MTEXTBEGIN
1070
    73
1070
     1
1070
    44
1040
1.0
1070
    74
1070
     0
1000
MTEXTEND
1000
MTEXTBEGIN
1070
    73
1070
     1
1070
    44
1040
1.0
1070
    74
1070
     0
1000
MTEXTEND
1000
MTEXTBEGIN
1070
    73
1070
     1
1070
    44
1040
1.0
1070
    74
1070
     0
1000
MTEXTEND
1000
MTEXTBEGIN
1070
    73
1070
     1
1070
    44
1040
1.0
1070
    74
1070
     0
1000
MTEXTEND
  0
POINT
  5
FA
330
F3
100
AcDbEntity
  8
DEFPOINTS
 62
     0
100
AcDbPoint
 10
-10545.11560817075
 20
-5047.350924413557
 30
0.0
  0
POINT
  5
FB
330
F3
100
AcDbEntity
  8
DEFPOINTS
 62
     0
100
AcDbPoint
 10
-10515.11560817075
 20
-5035.350924413556
 30
0.0
  0
POINT
  5
FC
330
F3
100
AcDbEntity
  8
DEFPOINTS
 62
     0
100
AcDbPoint
 10
-10568.45256993217
 20
-5035.350924413556
 30
0.0
  0
ENDBLK
  5
FE
330
F3
100
AcDbEntity
  8
0
100
AcDbBlockEnd
  0
BLOCK
  5
14F
330
146
100
AcDbEntity
  8
0
100
AcDbBlockBegin
  2
*D20
 70
     1
 10
0.0
 20
0.0
 30
0.0
  3
*D20
  1

  0
LINE
  5
147
330
146
100
AcDbEntity
  8
0
 62
   123
100
AcDbLine
 10
-10706.71649431626
 20
-5074.673430016453
 30
0.0
 11
-10709.10319961354
 21
-5076.491021231156
 31
0.0
  0
LINE
  5
148
330
146
100
AcDbEntity
  8
0
 62
   123
100
AcDbLine
 10
-10619.20396674802
 20
-5008.028418810662
 30
0.0
 11
-10594.64379468044
 21
-4989.324663038274
 31
0.0
  0
LINE
  5
149
330
146
100
AcDbEntity
  8
0
 62
   123
100
AcDbLine
 10
-10704.32978901894
 20
-5072.855838801749
 30
0.0
 11
-10621.59067204534
 21
-5009.846010025366
 31
0.0
  0
SOLID
  5
14A
330
146
100
AcDbEntity
  8
0
 62
   123
100
AcDbTrace
 10
-10707.01942618538
 20
-5074.275645800233
 30
0.0
 11
-10706.41356244714
 21
-5075.071214232671
 31
0.0
 12
-10704.32978901894
 22
-5072.855838801749
 32
0.0
 13
-10704.32978901894
 23
-5072.855838801749
 33
0.0
  0
SOLID
  5
14B
330
146
100
AcDbEntity
  8
0
 62
   123
100
AcDbTrace
 10
-10619.50689861715
 20
-5007.630634594444
 30
0.0
 11
-10618.90103487891
 21
-5008.426203026882
 31
0.0
 12
-10621.59067204534
 22
-5009.846010025366
 32
0.0
 13
-10621.59067204534
 23
-5009.846010025366
 33
0.0
  0
MTEXT
  5
14C
330
146
100
AcDbEntity
  8
0
 62
     3
100
AcDbMText
 10
-10606.98379642913
 20
-4995.265521670383
 30
0.0
 40
3.5
 41
0.0
 71
     5
 72
     1
  1
\A1;\U+2205104%%P0.5
 11
0.7955684324384562
 21
0.6058637382344465
 31
0.0
1001
ACAD
1000
MTEXTBEGIN
1070
    73
1070
     1
1070
    44
1040
1.0
1070
    74
1070
     0
1000
MTEXTEND
1000
MTEXTBEGIN
1070
    73
1070
     1
1070
    44
1040
1.0
1070
    74
1070
     0
1000
MTEXTEND
1000
MTEXTBEGIN
1070
    73
1070
     1
1070
    44
1040
1.0
1070
    74
1070
     0
1000
MTEXTEND
1000
MTEXTBEGIN
1070
    73
1070
     1
1070
    44
1040
1.0
1070
    74
1070
     0
1000
MTEXTEND
  0
POINT
  5
14D
330
146
100
AcDbEntity
  8
DEFPOINTS
 62
     0
100
AcDbPoint
 10
-10621.59067204534
 20
-5009.846010025366
 30
0.0
  0
POINT
  5
14E
330
146
100
AcDbEntity
  8
DEFPOINTS
 62
     0
100
AcDbPoint
 10
-10704.32978901894
 20
-5072.855838801749
 30
0.0
  0
ENDBLK
  5
150
330
146
100
AcDbEntity
  8
0
100
AcDbBlockEnd
  0
BLOCK
  5
309
330
2FD
100
AcDbEntity
  8
0
100
AcDbBlockBegin
  2
*D21
 70
     1
 10
0.0
 20
0.0
 30
0.0
  3
*D21
  1

  0
LINE
  5
510
330
2FD
100
AcDbEntity
  8
0
 62
   123
100
AcDbLine
 10
58.31720698778719
 20
235.3641251733835
 30
0.0
 11
58.31827465775041
 21
216.9458795970736
 31
0.0
  0
LINE
  5
511
330
2FD
100
AcDbEntity
  8
0
 62
   123
100
AcDbLine
 10
77.33955170943393
 20
244.0704355392678
 30
0.0
 11
86.27353562105488
 21
222.5090826991498
 31
0.0
  0
ARC
  5
512
330
2FD
100
AcDbEntity
  8
0
 62
   123
100
AcDbCircle
 10
58.31404061927084
 20
289.9867659957164
 30
0.0
 40
72.4408865213624
100
AcDbArc
 50
272.3762854377747
 51
290.1337927847965
  0
SOLID
  5
513
330
2FD
100
AcDbEntity
  8
0
 62
   123
100
AcDbTrace
 10
61.32797530787702
 20
217.108280880792
 30
0.0
 11
61.30721081385962
 21
218.1080652754433
 31
0.0
 12
58.31823987691453
 22
217.5458795960655
 32
0.0
 13
58.31823987691453
 23
217.5458795960655
 33
0.0
  0
SOLID
  5
514
330
2FD
100
AcDbEntity
  8
0
 62
   123
100
AcDbTrace
 10
83.06738185749429
 20
222.4384219553743
 30
0.0
 11
83.43096275602105
 21
221.5068593271916
 31
0.0
 12
86.04386019130549
 22
223.0633833368631
 32
0.0
 13
86.04386019130549
 23
223.0633833368631
 33
0.0
  0
MTEXT
  5
515
330
2FD
100
AcDbEntity
  8
0
 62
     3
100
AcDbMText
 10
71.85101067735207
 20
221.9630890451363
 30
0.0
 40
3.5
 41
0.0
 71
     5
 72
     1
  1
\A1;22°30'
 11
0.9807681185950615
 21
0.1951765804278354
 31
0.0
  0
POINT
  5
516
330
2FD
100
AcDbEntity
  8
DEFPOINTS
 62
     0
100
AcDbPoint
 10
67.77507251590987
 20
218.1663586211291
 30
0.0
  0
POINT
  5
517
330
2FD
100
AcDbEntity
  8
DEFPOINTS
 62
     0
100
AcDbPoint
 10
58.31714901972736
 20
236.3641251717034
 30
0.0
  0
POINT
  5
518
330
2FD
100
AcDbEntity
  8
DEFPOINTS
 62
     0
100
AcDbPoint
 10
58.31093134883666
 20
289.994269935456
 30
0.0
  0
POINT
  5
519
330
2FD
100
AcDbEntity
  8
DEFPOINTS
 62
     0
100
AcDbPoint
 10
76.9567593265183
 20
244.9942699354567
 30
0.0
  0
POINT
  5
51A
330
2FD
100
AcDbEntity
  8
DEFPOINTS
 62
     0
100
AcDbPoint
 10
58.31093134883666
 20
343.6244146992084
 30
0.0
  0
ENDBLK
  5
30A
330
2FD
100
AcDbEntity
  8
0
100
AcDbBlockEnd
  0
BLOCK
  5
315
330
30B
100
AcDbEntity
  8
0
100
AcDbBlockBegin
  2
*D22
 70
     1
 10
0.0
 20
0.0
 30
0.0
  3
*D22
  1

  0
LINE
  5
30C
330
30B
100
AcDbEntity
  8
0
 62
   123
100
AcDbLine
 10
186.9268979050773
 20
134.3809236449224
 30
0.0
 11
186.9268979050773
 21
167.9580873526671
 31
0.0
  0
LINE
  5
30D
330
30B
100
AcDbEntity
  8
0
 62
   123
100
AcDbLine
 10
387.9276203957688
 20
130.380923644922
 30
0.0
 11
387.9276203957688
 21
167.9580873526671
 31
0.0
  0
LINE
  5
30E
330
30B
100
AcDbEntity
  8
0
 62
   123
100
AcDbLine
 10
189.9268979050775
 20
167.3580873526671
 30
0.0
 11
384.9276203957688
 21
167.3580873526671
 31
0.0
  0
SOLID
  5
30F
330
30B
100
AcDbEntity
  8
0
 62
   123
100
AcDbTrace
 10
189.9268979050775
 20
167.858087352667
 30
0.0
 11
189.9268979050775
 21
166.858087352667
 31
0.0
 12
186.9268979050773
 22
167.3580873526671
 32
0.0
 13
186.9268979050773
 23
167.3580873526671
 33
0.0
  0
SOLID
  5
310
330
30B
100
AcDbEntity
  8
0
 62
   123
100
AcDbTrace
 10
384.9276203957688
 20
167.858087352667
 30
0.0
 11
384.9276203957688
 21
166.858087352667
 31
0.0
 12
387.9276203957688
 22
167.3580873526671
 32
0.0
 13
387.9276203957688
 23
167.3580873526671
 33
0.0
  0
MTEXT
  5
311
330
30B
100
AcDbEntity
  8
0
 62
     3
100
AcDbMText
 10
279.9268979050775
 20
170.108087352667
 30
0.0
 40
3.5
 41
0.0
 71
     5
 72
     1
  1
\A1;201
1001
ACAD
1000
MTEXTBEGIN
1070
    73
1070
     1
1070
    44
1040
1.0
1070
    74
1070
     0
1000
MTEXTEND
1000
MTEXTBEGIN
1070
    73
1070
     1
1070
    44
1040
1.0
1070
    74
1070
     0
1000
MTEXTEND
1000
MTEXTBEGIN
1070
    73
1070
     1
1070
    44
1040
1.0
1070
    74
1070
     0
1000
MTEXTEND
1000
MTEXTBEGIN
1070
    73
1070
     1
1070
    44
1040
1.0
1070
    74
1070
     0
1000
MTEXTEND
  0
POINT
  5
312
330
30B
100
AcDbEntity
  8
DEFPOINTS
 62
     0
100
AcDbPoint
 10
186.9268979050773
 20
133.3809236449224
 30
0.0
  0
POINT
  5
313
330
30B
100
AcDbEntity
  8
DEFPOINTS
 62
     0
100
AcDbPoint
 10
387.9276203957688
 20
129.3809236449222
 30
0.0
  0
POINT
  5
314
330
30B
100
AcDbEntity
  8
DEFPOINTS
 62
     0
100
AcDbPoint
 10
387.9276203957688
 20
167.3580873526671
 30
0.0
  0
ENDBLK
  5
316
330
30B
100
AcDbEntity
  8
0
100
AcDbBlockEnd
  0
BLOCK
  5
323
330
317
100
AcDbEntity
  8
0
100
AcDbBlockBegin
  2
*D23
 70
     1
 10
0.0
 20
0.0
 30
0.0
  3
*D23
  1

  0
LINE
  5
51B
330
317
100
AcDbEntity
  8
0
 62
   123
100
AcDbLine
 10
32.08233351173812
 20
33.25077888285096
 30
0.0
 11
32.08340118169951
 21
14.83253330653876
 31
0.0
  0
LINE
  5
51C
330
317
100
AcDbEntity
  8
0
 62
   123
100
AcDbLine
 10
51.10467823338479
 20
41.95708924873337
 30
0.0
 11
60.03866214500225
 21
20.39573640860988
 31
0.0
  0
ARC
  5
51D
330
317
100
AcDbEntity
  8
0
 62
   123
100
AcDbCircle
 10
32.07916714322733
 20
87.87341970519788
 30
0.0
 40
72.4408865213786
100
AcDbArc
 50
272.3762854377684
 51
290.133792784784
  0
SOLID
  5
51E
330
317
100
AcDbEntity
  8
0
 62
   123
100
AcDbTrace
 10
35.09310183182614
 20
14.99493459025694
 30
0.0
 11
35.07233733780883
 21
15.99471898490822
 31
0.0
 12
32.08336640086367
 22
15.43253330553068
 32
0.0
 13
32.08336640086367
 23
15.43253330553068
 33
0.0
  0
SOLID
  5
51F
330
317
100
AcDbEntity
  8
0
 62
   123
100
AcDbTrace
 10
56.83250838144164
 20
20.32507566483507
 30
0.0
 11
57.19608927996818
 21
19.39351303665237
 31
0.0
 12
59.80898671525299
 22
20.95003704632329
 32
0.0
 13
59.80898671525299
 23
20.95003704632329
 33
0.0
  0
MTEXT
  5
520
330
317
100
AcDbEntity
  8
0
 62
     3
100
AcDbMText
 10
45.61613720130053
 20
19.84974275459958
 30
0.0
 40
3.5
 41
0.0
 71
     5
 72
     1
  1
\A1;22°30'
 11
0.9807681185950936
 21
0.1951765804276743
 31
0.0
  0
POINT
  5
521
330
317
100
AcDbEntity
  8
DEFPOINTS
 62
     0
100
AcDbPoint
 10
41.54019903985821
 20
16.05301233059309
 30
0.0
  0
POINT
  5
522
330
317
100
AcDbEntity
  8
DEFPOINTS
 62
     0
100
AcDbPoint
 10
32.0822755436784
 20
34.25077888117082
 30
0.0
  0
POINT
  5
523
330
317
100
AcDbEntity
  8
DEFPOINTS
 62
     0
100
AcDbPoint
 10
32.07605787279863
 20
87.88092364492422
 30
0.0
  0
POINT
  5
524
330
317
100
AcDbEntity
  8
DEFPOINTS
 62
     0
100
AcDbPoint
 10
50.72188585046934
 20
42.88092364492238
 30
0.0
  0
POINT
  5
525
330
317
100
AcDbEntity
  8
DEFPOINTS
 62
     0
100
AcDbPoint
 10
32.07605787279863
 20
141.5110684086757
 30
0.0
  0
ENDBLK
  5
324
330
317
100
AcDbEntity
  8
0
100
AcDbBlockEnd
  0
BLOCK
  5
32F
330
325
100
AcDbEntity
  8
0
100
AcDbBlockBegin
  2
*D24
 70
     1
 10
0.0
 20
0.0
 30
0.0
  3
*D24
  1

  0
LINE
  5
326
330
325
100
AcDbEntity
  8
0
 62
   123
100
AcDbLine
 10
149.9268979050774
 20
93.88092364492241
 30
0.0
 11
149.9268979050774
 21
167.9580873526671
 31
0.0
  0
LINE
  5
327
330
325
100
AcDbEntity
  8
0
 62
   123
100
AcDbLine
 10
186.9268979050773
 20
134.0892569782581
 30
0.0
 11
186.9268979050773
 21
167.9580873526671
 31
0.0
  0
LINE
  5
328
330
325
100
AcDbEntity
  8
0
 62
   123
100
AcDbLine
 10
152.9268979050774
 20
167.3580873526671
 30
0.0
 11
183.9268979050775
 21
167.3580873526671
 31
0.0
  0
SOLID
  5
329
330
325
100
AcDbEntity
  8
0
 62
   123
100
AcDbTrace
 10
152.9268979050774
 20
167.858087352667
 30
0.0
 11
152.9268979050774
 21
166.858087352667
 31
0.0
 12
149.9268979050774
 22
167.3580873526671
 32
0.0
 13
149.9268979050774
 23
167.3580873526671
 33
0.0
  0
SOLID
  5
32A
330
325
100
AcDbEntity
  8
0
 62
   123
100
AcDbTrace
 10
183.9268979050775
 20
167.858087352667
 30
0.0
 11
183.9268979050775
 21
166.858087352667
 31
0.0
 12
186.9268979050773
 22
167.3580873526671
 32
0.0
 13
186.9268979050773
 23
167.3580873526671
 33
0.0
  0
MTEXT
  5
32B
330
325
100
AcDbEntity
  8
0
 62
     3
100
AcDbMText
 10
168.4268979050774
 20
170.108087352667
 30
0.0
 40
3.5
 41
0.0
 71
     5
 72
     1
  1
\A1;37
1001
ACAD
1000
MTEXTBEGIN
1070
    73
1070
     1
1070
    44
1040
1.0
1070
    74
1070
     0
1000
MTEXTEND
1000
MTEXTBEGIN
1070
    73
1070
     1
1070
    44
1040
1.0
1070
    74
1070
     0
1000
MTEXTEND
1000
MTEXTBEGIN
1070
    73
1070
     1
1070
    44
1040
1.0
1070
    74
1070
     0
1000
MTEXTEND
1000
MTEXTBEGIN
1070
    73
1070
     1
1070
    44
1040
1.0
1070
    74
1070
     0
1000
MTEXTEND
  0
POINT
  5
32C
330
325
100
AcDbEntity
  8
DEFPOINTS
 62
     0
100
AcDbPoint
 10
149.9268979050774
 20
92.88092364492241
 30
0.0
  0
POINT
  5
32D
330
325
100
AcDbEntity
  8
DEFPOINTS
 62
     0
100
AcDbPoint
 10
186.9268979050773
 20
133.0892569782581
 30
0.0
  0
POINT
  5
32E
330
325
100
AcDbEntity
  8
DEFPOINTS
 62
     0
100
AcDbPoint
 10
186.9268979050773
 20
167.3580873526671
 30
0.0
  0
ENDBLK
  5
330
330
325
100
AcDbEntity
  8
0
100
AcDbBlockEnd
  0
BLOCK
  5
33D
330
331
100
AcDbEntity
  8
0
100
AcDbBlockBegin
  2
*D25
 70
     1
 10
0.0
 20
0.0
 30
0.0
  3
*D25
  1

  0
LINE
  5
332
330
331
100
AcDbEntity
  8
0
 62
   123
100
AcDbLine
 10
184.9268979050775
 20
130.380923644922
 30
0.0
 11
184.9268979050775
 21
146.1135772091724
 31
0.0
  0
LINE
  5
333
330
331
100
AcDbEntity
  8
0
 62
   123
100
AcDbLine
 10
186.9268979050773
 20
133.8809236449239
 30
0.0
 11
186.9268979050773
 21
146.1135772091724
 31
0.0
  0
LINE
  5
334
330
331
100
AcDbEntity
  8
0
 62
   123
100
AcDbLine
 10
189.9268979050775
 20
145.5135772091725
 30
0.0
 11
192.9268979050775
 21
145.5135772091725
 31
0.0
  0
LINE
  5
335
330
331
100
AcDbEntity
  8
0
 62
   123
100
AcDbLine
 10
181.9268979050775
 20
145.5135772091725
 30
0.0
 11
173.7602312384106
 21
145.5135772091725
 31
0.0
  0
LINE
  5
336
330
331
100
AcDbEntity
  8
0
 62
   123
100
AcDbLine
 10
186.9268979050773
 20
145.5135772091725
 30
0.0
 11
184.9268979050775
 21
145.5135772091725
 31
0.0
  0
SOLID
  5
337
330
331
100
AcDbEntity
  8
0
 62
   123
100
AcDbTrace
 10
189.9268979050775
 20
146.0135772091724
 30
0.0
 11
189.9268979050775
 21
145.0135772091724
 31
0.0
 12
186.9268979050773
 22
145.5135772091725
 32
0.0
 13
186.9268979050773
 23
145.5135772091725
 33
0.0
  0
SOLID
  5
338
330
331
100
AcDbEntity
  8
0
 62
   123
100
AcDbTrace
 10
181.9268979050775
 20
146.0135772091724
 30
0.0
 11
181.9268979050775
 21
145.0135772091724
 31
0.0
 12
184.9268979050775
 22
145.5135772091725
 32
0.0
 13
184.9268979050775
 23
145.5135772091725
 33
0.0
  0
MTEXT
  5
339
330
331
100
AcDbEntity
  8
0
 62
     3
100
AcDbMText
 10
175.9268979050775
 20
148.2635772091724
 30
0.0
 40
3.5
 41
0.0
 71
     5
 72
     1
  1
\A1;2
1001
ACAD
1000
MTEXTBEGIN
1070
    73
1070
     1
1070
    44
1040
1.0
1070
    74
1070
     0
1000
MTEXTEND
1000
MTEXTBEGIN
1070
    73
1070
     1
1070
    44
1040
1.0
1070
    74
1070
     0
1000
MTEXTEND
1000
MTEXTBEGIN
1070
    73
1070
     1
1070
    44
1040
1.0
1070
    74
1070
     0
1000
MTEXTEND
1000
MTEXTBEGIN
1070
    73
1070
     1
1070
    44
1040
1.0
1070
    74
1070
     0
1000
MTEXTEND
  0
POINT
  5
33A
330
331
100
AcDbEntity
  8
DEFPOINTS
 62
     0
100
AcDbPoint
 10
184.9268979050775
 20
129.3809236449222
 30
0.0
  0
POINT
  5
33B
330
331
100
AcDbEntity
  8
DEFPOINTS
 62
     0
100
AcDbPoint
 10
186.9268979050773
 20
132.880923644924
 30
0.0
  0
POINT
  5
33C
330
331
100
AcDbEntity
  8
DEFPOINTS
 62
     0
100
AcDbPoint
 10
186.9268979050773
 20
145.5135772091725
 30
0.0
  0
ENDBLK
  5
33E
330
331
100
AcDbEntity
  8
0
100
AcDbBlockEnd
  0
BLOCK
  5
34B
330
33F
100
AcDbEntity
  8
0
100
AcDbBlockBegin
  2
*D26
 70
     1
 10
0.0
 20
0.0
 30
0.0
  3
*D26
  1

  0
LINE
  5
340
330
33F
100
AcDbEntity
  8
0
 62
   123
100
AcDbLine
 10
186.9268979050773
 20
134.0892569782581
 30
0.0
 11
186.9268979050773
 21
155.4189383543995
 31
0.0
  0
LINE
  5
341
330
33F
100
AcDbEntity
  8
0
 62
   123
100
AcDbLine
 10
194.4268979050775
 20
132.4796609864532
 30
0.0
 11
194.4268979050775
 21
155.4189383543995
 31
0.0
  0
LINE
  5
342
330
33F
100
AcDbEntity
  8
0
 62
   123
100
AcDbLine
 10
183.9268979050775
 20
154.8189383543995
 30
0.0
 11
180.9268979050775
 21
154.8189383543995
 31
0.0
  0
LINE
  5
343
330
33F
100
AcDbEntity
  8
0
 62
   123
100
AcDbLine
 10
197.4268979050775
 20
154.8189383543995
 30
0.0
 11
209.7602312384156
 21
154.8189383543995
 31
0.0
  0
LINE
  5
344
330
33F
100
AcDbEntity
  8
0
 62
   123
100
AcDbLine
 10
186.9268979050773
 20
154.8189383543995
 30
0.0
 11
194.4268979050775
 21
154.8189383543995
 31
0.0
  0
SOLID
  5
345
330
33F
100
AcDbEntity
  8
0
 62
   123
100
AcDbTrace
 10
183.9268979050775
 20
155.3189383543995
 30
0.0
 11
183.9268979050775
 21
154.3189383543995
 31
0.0
 12
186.9268979050773
 22
154.8189383543995
 32
0.0
 13
186.9268979050773
 23
154.8189383543995
 33
0.0
  0
SOLID
  5
346
330
33F
100
AcDbEntity
  8
0
 62
   123
100
AcDbTrace
 10
197.4268979050775
 20
155.3189383543995
 30
0.0
 11
197.4268979050775
 21
154.3189383543995
 31
0.0
 12
194.4268979050775
 22
154.8189383543995
 32
0.0
 13
194.4268979050775
 23
154.8189383543995
 33
0.0
  0
MTEXT
  5
347
330
33F
100
AcDbEntity
  8
0
 62
     3
100
AcDbMText
 10
205.093564571749
 20
157.5689383543995
 30
0.0
 40
3.5
 41
0.0
 71
     5
 72
     1
  1
\A1;7.5
1001
ACAD
1000
MTEXTBEGIN
1070
    73
1070
     1
1070
    44
1040
1.0
1070
    74
1070
     0
1000
MTEXTEND
1000
MTEXTBEGIN
1070
    73
1070
     1
1070
    44
1040
1.0
1070
    74
1070
     0
1000
MTEXTEND
1000
MTEXTBEGIN
1070
    73
1070
     1
1070
    44
1040
1.0
1070
    74
1070
     0
1000
MTEXTEND
1000
MTEXTBEGIN
1070
    73
1070
     1
1070
    44
1040
1.0
1070
    74
1070
     0
1000
MTEXTEND
  0
POINT
  5
348
330
33F
100
AcDbEntity
  8
DEFPOINTS
 62
     0
100
AcDbPoint
 10
186.9268979050773
 20
133.0892569782581
 30
0.0
  0
POINT
  5
349
330
33F
100
AcDbEntity
  8
DEFPOINTS
 62
     0
100
AcDbPoint
 10
194.4268979050775
 20
131.4796609864532
 30
0.0
  0
POINT
  5
34A
330
33F
100
AcDbEntity
  8
DEFPOINTS
 62
     0
100
AcDbPoint
 10
194.4268979050775
 20
154.8189383543995
 30
0.0
  0
ENDBLK
  5
34C
330
33F
100
AcDbEntity
  8
0
100
AcDbBlockEnd
  0
BLOCK
  5
357
330
34D
100
AcDbEntity
  8
0
100
AcDbBlockBegin
  2
*D27
 70
     1
 10
0.0
 20
0.0
 30
0.0
  3
*D27
  1

  0
LINE
  5
34E
330
34D
100
AcDbEntity
  8
0
 62
   123
100
AcDbLine
 10
149.9268979050774
 20
93.88092364492241
 30
0.0
 11
149.9268979050774
 21
119.078180132264
 31
0.0
  0
LINE
  5
34F
330
34D
100
AcDbEntity
  8
0
 62
   123
100
AcDbLine
 10
179.9268979050775
 20
94.8809236449242
 30
0.0
 11
179.9268979050775
 21
119.078180132264
 31
0.0
  0
LINE
  5
350
330
34D
100
AcDbEntity
  8
0
 62
   123
100
AcDbLine
 10
152.9268979050774
 20
118.4781801322642
 30
0.0
 11
176.9268979050775
 21
118.4781801322642
 31
0.0
  0
SOLID
  5
351
330
34D
100
AcDbEntity
  8
0
 62
   123
100
AcDbTrace
 10
152.9268979050774
 20
118.9781801322641
 30
0.0
 11
152.9268979050774
 21
117.9781801322641
 31
0.0
 12
149.9268979050774
 22
118.4781801322642
 32
0.0
 13
149.9268979050774
 23
118.4781801322642
 33
0.0
  0
SOLID
  5
352
330
34D
100
AcDbEntity
  8
0
 62
   123
100
AcDbTrace
 10
176.9268979050775
 20
118.9781801322641
 30
0.0
 11
176.9268979050775
 21
117.9781801322641
 31
0.0
 12
179.9268979050775
 22
118.4781801322642
 32
0.0
 13
179.9268979050775
 23
118.4781801322642
 33
0.0
  0
MTEXT
  5
353
330
34D
100
AcDbEntity
  8
0
 62
     3
100
AcDbMText
 10
166.1855822695779
 20
121.2281801322641
 30
0.0
 40
3.5
 41
0.0
 71
     5
 72
     1
  1
\A1;30
1001
ACAD
1000
MTEXTBEGIN
1070
    73
1070
     1
1070
    44
1040
1.0
1070
    74
1070
     0
1000
MTEXTEND
1000
MTEXTBEGIN
1070
    73
1070
     1
1070
    44
1040
1.0
1070
    74
1070
     0
1000
MTEXTEND
1000
MTEXTBEGIN
1070
    73
1070
     1
1070
    44
1040
1.0
1070
    74
1070
     0
1000
MTEXTEND
1000
MTEXTBEGIN
1070
    73
1070
     1
1070
    44
1040
1.0
1070
    74
1070
     0
1000
MTEXTEND
  0
POINT
  5
354
330
34D
100
AcDbEntity
  8
DEFPOINTS
 62
     0
100
AcDbPoint
 10
149.9268979050774
 20
92.88092364492241
 30
0.0
  0
POINT
  5
355
330
34D
100
AcDbEntity
  8
DEFPOINTS
 62
     0
100
AcDbPoint
 10
179.9268979050775
 20
93.88092364492422
 30
0.0
  0
POINT
  5
356
330
34D
100
AcDbEntity
  8
DEFPOINTS
 62
     0
100
AcDbPoint
 10
179.9268979050775
 20
118.4781801322642
 30
0.0
  0
ENDBLK
  5
358
330
34D
100
AcDbEntity
  8
0
100
AcDbBlockEnd
  0
BLOCK
  5
363
330
359
100
AcDbEntity
  8
0
100
AcDbBlockBegin
  2
*D28
 70
     1
 10
0.0
 20
0.0
 30
0.0
  3
*D28
  1

  0
LINE
  5
35A
330
359
100
AcDbEntity
  8
0
 62
   123
100
AcDbLine
 10
-12.9177244563125
 20
128.8381298861259
 30
0.0
 11
-12.91772445631249
 21
153.7026854228265
 31
0.0
  0
LINE
  5
35B
330
359
100
AcDbEntity
  8
0
 62
   123
100
AcDbLine
 10
77.08227554367841
 20
128.8381298861259
 30
0.0
 11
77.08227554367841
 21
153.7026854228265
 31
0.0
  0
LINE
  5
35C
330
359
100
AcDbEntity
  8
0
 62
   123
100
AcDbLine
 10
-9.917724456312496
 20
153.1026854228265
 30
0.0
 11
74.0822755436784
 21
153.1026854228265
 31
0.0
  0
SOLID
  5
35D
330
359
100
AcDbEntity
  8
0
 62
   123
100
AcDbTrace
 10
-9.917724456312496
 20
153.6026854228266
 30
0.0
 11
-9.917724456312496
 21
152.6026854228265
 31
0.0
 12
-12.91772445631249
 22
153.1026854228265
 32
0.0
 13
-12.91772445631249
 23
153.1026854228265
 33
0.0
  0
SOLID
  5
35E
330
359
100
AcDbEntity
  8
0
 62
   123
100
AcDbTrace
 10
74.0822755436784
 20
153.6026854228266
 30
0.0
 11
74.0822755436784
 21
152.6026854228265
 31
0.0
 12
77.08227554367841
 22
153.1026854228265
 32
0.0
 13
77.08227554367841
 23
153.1026854228265
 33
0.0
  0
MTEXT
  5
35F
330
359
100
AcDbEntity
  8
0
 62
     3
100
AcDbMText
 10
32.4729271836677
 20
155.8526854228265
 30
0.0
 40
3.5
 41
0.0
 71
     5
 72
     1
  1
\A1;90
1001
ACAD
1000
MTEXTBEGIN
1070
    73
1070
     1
1070
    44
1040
1.0
1070
    74
1070
     0
1000
MTEXTEND
1000
MTEXTBEGIN
1070
    73
1070
     1
1070
    44
1040
1.0
1070
    74
1070
     0
1000
MTEXTEND
1000
MTEXTBEGIN
1070
    73
1070
     1
1070
    44
1040
1.0
1070
    74
1070
     0
1000
MTEXTEND
1000
MTEXTBEGIN
1070
    73
1070
     1
1070
    44
1040
1.0
1070
    74
1070
     0
1000
MTEXTEND
  0
POINT
  5
360
330
359
100
AcDbEntity
  8
DEFPOINTS
 62
     0
100
AcDbPoint
 10
-12.9177244563125
 20
127.8381298861259
 30
0.0
  0
POINT
  5
361
330
359
100
AcDbEntity
  8
DEFPOINTS
 62
     0
100
AcDbPoint
 10
77.08227554367841
 20
127.8381298861259
 30
0.0
  0
POINT
  5
362
330
359
100
AcDbEntity
  8
DEFPOINTS
 62
     0
100
AcDbPoint
 10
77.08227554367841
 20
153.1026854228265
 30
0.0
  0
ENDBLK
  5
364
330
359
100
AcDbEntity
  8
0
100
AcDbBlockEnd
  0
BLOCK
  5
36E
330
365
100
AcDbEntity
  8
0
100
AcDbBlockBegin
  2
*D29
 70
     1
 10
0.0
 20
0.0
 30
0.0
  3
*D29
  1

  0
LINE
  5
40B
330
365
100
AcDbEntity
  8
0
 62
   123
100
AcDbLine
 10
-11.67398824043746
 20
54.5584180420284
 30
0.0
 11
-14.06069353775281
 21
52.74082682732505
 31
0.0
  0
LINE
  5
40C
330
365
100
AcDbEntity
  8
0
 62
   123
100
AcDbLine
 10
75.83853932779286
 20
121.2034292478189
 30
0.0
 11
100.3987113953767
 21
139.9071850202039
 31
0.0
  0
LINE
  5
40D
330
365
100
AcDbEntity
  8
0
 62
   123
100
AcDbLine
 10
-9.287282943122113
 20
56.37600925673178
 30
0.0
 11
73.45183403047752
 21
119.3858380331155
 31
0.0
  0
SOLID
  5
40E
330
365
100
AcDbEntity
  8
0
 62
   123
100
AcDbTrace
 10
-11.97692010955468
 20
54.95620225824764
 30
0.0
 11
-11.37105637132023
 21
54.16063382580919
 31
0.0
 12
-9.287282943122113
 22
56.37600925673178
 32
0.0
 13
-9.287282943122113
 23
56.37600925673178
 33
0.0
  0
SOLID
  5
40F
330
365
100
AcDbEntity
  8
0
 62
   123
100
AcDbTrace
 10
75.53560745867565
 20
121.6012134640382
 30
0.0
 11
76.14147119691009
 21
120.8056450315997
 31
0.0
 12
73.45183403047752
 22
119.3858380331155
 32
0.0
 13
73.45183403047752
 23
119.3858380331155
 33
0.0
  0
MTEXT
  5
410
330
365
100
AcDbEntity
  8
0
 62
     3
100
AcDbMText
 10
88.05870964668292
 20
133.9663263880973
 30
0.0
 40
3.5
 41
0.0
 71
     5
 72
     1
  1
\A1;\U+2205104%%P0.5
 11
0.7955684324384503
 21
0.6058637382344542
 31
0.0
1001
ACAD
1000
MTEXTBEGIN
1070
    73
1070
     1
1070
    44
1040
1.0
1070
    74
1070
     0
1000
MTEXTEND
1000
MTEXTBEGIN
1070
    73
1070
     1
1070
    44
1040
1.0
1070
    74
1070
     0
1000
MTEXTEND
1000
MTEXTBEGIN
1070
    73
1070
     1
1070
    44
1040
1.0
1070
    74
1070
     0
1000
MTEXTEND
1000
MTEXTBEGIN
1070
    73
1070
     1
1070
    44
1040
1.0
1070
    74
1070
     0
1000
MTEXTEND
  0
POINT
  5
411
330
365
100
AcDbEntity
  8
DEFPOINTS
 62
     0
100
AcDbPoint
 10
73.45183403047752
 20
119.3858380331155
 30
0.0
  0
POINT
  5
412
330
365
100
AcDbEntity
  8
DEFPOINTS
 62
     0
100
AcDbPoint
 10
-9.287282943122113
 20
56.37600925673178
 30
0.0
  0
ENDBLK
  5
36F
330
365
100
AcDbEntity
  8
0
100
AcDbBlockEnd
  0
BLOCK
  5
37A
330
370
100
AcDbEntity
  8
0
100
AcDbBlockBegin
  2
*D30
 70
     1
 10
0.0
 20
0.0
 30
0.0
  3
*D30
  1

  0
LINE
  5
371
330
370
100
AcDbEntity
  8
0
 62
   123
100
AcDbLine
 10
183.9268979050775
 20
129.3809236449222
 30
0.0
 11
113.5108160689982
 21
129.3809236449222
 31
0.0
  0
LINE
  5
372
330
370
100
AcDbEntity
  8
0
 62
   123
100
AcDbLine
 10
183.9268979050775
 20
46.38092364492422
 30
0.0
 11
113.5108160689982
 21
46.38092364492425
 31
0.0
  0
LINE
  5
373
330
370
100
AcDbEntity
  8
0
 62
   123
100
AcDbLine
 10
114.110816068998
 20
126.3809236449224
 30
0.0
 11
114.110816068998
 21
49.38092364492423
 31
0.0
  0
SOLID
  5
374
330
370
100
AcDbEntity
  8
0
 62
   123
100
AcDbTrace
 10
113.6108160689982
 20
126.3809236449224
 30
0.0
 11
114.6108160689982
 21
126.3809236449224
 31
0.0
 12
114.110816068998
 22
129.3809236449222
 32
0.0
 13
114.110816068998
 23
129.3809236449222
 33
0.0
  0
SOLID
  5
375
330
370
100
AcDbEntity
  8
0
 62
   123
100
AcDbTrace
 10
113.6108160689982
 20
49.38092364492423
 30
0.0
 11
114.6108160689982
 21
49.38092364492423
 31
0.0
 12
114.110816068998
 22
46.38092364492425
 32
0.0
 13
114.110816068998
 23
46.38092364492425
 33
0.0
  0
MTEXT
  5
376
330
370
100
AcDbEntity
  8
0
 62
     3
100
AcDbMText
 10
109.6689744023314
 20
89.24588027767461
 30
0.0
 40
3.5
 41
0.0
 71
     5
 72
     1
  1
\A1;\A1;{\f??|b0|i0|c0|p49;%%C}83{\f??|b0|i0|c0|p49;\H0.7x;\S+0^ -0.035;\H1.429x;(h}7{\f??|b0|i0|c0|p49;)}
 11
0.0000000000000001
 21
1.0
 31
0.0
1001
ACAD
1000
MTEXTBEGIN
1070
    73
1070
     1
1070
    44
1040
1.0
1070
    74
1070
     0
1000
MTEXTEND
1000
MTEXTBEGIN
1070
    73
1070
     1
1070
    44
1040
1.0
1070
    74
1070
     0
1000
MTEXTEND
1000
MTEXTBEGIN
1070
    73
1070
     1
1070
    44
1040
1.0
1070
    74
1070
     0
1000
MTEXTEND
1000
MTEXTBEGIN
1070
    73
1070
     1
1070
    44
1040
1.0
1070
    74
1070
     0
1000
MTEXTEND
  0
POINT
  5
377
330
370
100
AcDbEntity
  8
DEFPOINTS
 62
     0
100
AcDbPoint
 10
184.9268979050775
 20
129.3809236449222
 30
0.0
  0
POINT
  5
378
330
370
100
AcDbEntity
  8
DEFPOINTS
 62
     0
100
AcDbPoint
 10
184.9268979050775
 20
46.38092364492422
 30
0.0
  0
POINT
  5
379
330
370
100
AcDbEntity
  8
DEFPOINTS
 62
     0
100
AcDbPoint
 10
114.110816068998
 20
46.38092364492425
 30
0.0
  0
ENDBLK
  5
37B
330
370
100
AcDbEntity
  8
0
100
AcDbBlockEnd
  0
BLOCK
  5
386
330
37C
100
AcDbEntity
  8
0
100
AcDbBlockBegin
  2
*D31
 70
     1
 10
0.0
 20
0.0
 30
0.0
  3
*D31
  1

  0
LINE
  5
37D
330
37C
100
AcDbEntity
  8
0
 62
   123
100
AcDbLine
 10
148.9268979050773
 20
81.8809236449224
 30
0.0
 11
136.8584170243688
 21
81.8809236449224
 31
0.0
  0
LINE
  5
37E
330
37C
100
AcDbEntity
  8
0
 62
   123
100
AcDbLine
 10
148.9268979050773
 20
92.88092364492241
 30
0.0
 11
136.8584170243688
 21
92.88092364492241
 31
0.0
  0
LINE
  5
37F
330
37C
100
AcDbEntity
  8
0
 62
   123
100
AcDbLine
 10
137.4584170243688
 20
84.8809236449224
 30
0.0
 11
137.4584170243688
 21
89.8809236449224
 31
0.0
  0
SOLID
  5
380
330
37C
100
AcDbEntity
  8
0
 62
   123
100
AcDbTrace
 10
136.9584170243687
 20
84.8809236449224
 30
0.0
 11
137.9584170243687
 21
84.8809236449224
 31
0.0
 12
137.4584170243688
 22
81.8809236449224
 32
0.0
 13
137.4584170243688
 23
81.8809236449224
 33
0.0
  0
SOLID
  5
381
330
37C
100
AcDbEntity
  8
0
 62
   123
100
AcDbTrace
 10
136.9584170243687
 20
89.8809236449224
 30
0.0
 11
137.9584170243687
 21
89.8809236449224
 31
0.0
 12
137.4584170243688
 22
92.88092364492241
 32
0.0
 13
137.4584170243688
 23
92.88092364492241
 33
0.0
  0
MTEXT
  5
382
330
37C
100
AcDbEntity
  8
0
 62
     3
100
AcDbMText
 10
134.7084170243687
 20
87.3809236449224
 30
0.0
 40
3.5
 41
0.0
 71
     5
 72
     1
  1
\A1;11
 11
0.0000000000000001
 21
1.0
 31
0.0
1001
ACAD
1000
MTEXTBEGIN
1070
    73
1070
     1
1070
    44
1040
1.0
1070
    74
1070
     0
1000
MTEXTEND
1000
MTEXTBEGIN
1070
    73
1070
     1
1070
    44
1040
1.0
1070
    74
1070
     0
1000
MTEXTEND
1000
MTEXTBEGIN
1070
    73
1070
     1
1070
    44
1040
1.0
1070
    74
1070
     0
1000
MTEXTEND
1000
MTEXTBEGIN
1070
    73
1070
     1
1070
    44
1040
1.0
1070
    74
1070
     0
1000
MTEXTEND
  0
POINT
  5
383
330
37C
100
AcDbEntity
  8
DEFPOINTS
 62
     0
100
AcDbPoint
 10
149.9268979050774
 20
81.8809236449224
 30
0.0
  0
POINT
  5
384
330
37C
100
AcDbEntity
  8
DEFPOINTS
 62
     0
100
AcDbPoint
 10
149.9268979050774
 20
92.88092364492241
 30
0.0
  0
POINT
  5
385
330
37C
100
AcDbEntity
  8
DEFPOINTS
 62
     0
100
AcDbPoint
 10
137.4584170243688
 20
92.88092364492241
 30
0.0
  0
ENDBLK
  5
387
330
37C
100
AcDbEntity
  8
0
100
AcDbBlockEnd
  0
BLOCK
  5
392
330
388
100
AcDbEntity
  8
0
100
AcDbBlockBegin
  2
*D32
 70
     1
 10
0.0
 20
0.0
 30
0.0
  3
*D32
  1

  0
LINE
  5
389
330
388
100
AcDbEntity
  8
0
 62
   123
100
AcDbLine
 10
148.9268979050773
 20
81.8809236449224
 30
0.0
 11
125.9899361436676
 21
81.8809236449224
 31
0.0
  0
LINE
  5
38A
330
388
100
AcDbEntity
  8
0
 62
   123
100
AcDbLine
 10
178.9268979050775
 20
93.88092364492422
 30
0.0
 11
125.9899361436676
 21
93.88092364492424
 31
0.0
  0
LINE
  5
38B
330
388
100
AcDbEntity
  8
0
 62
   123
100
AcDbLine
 10
126.5899361436676
 20
84.8809236449224
 30
0.0
 11
126.5899361436676
 21
90.88092364492423
 31
0.0
  0
SOLID
  5
38C
330
388
100
AcDbEntity
  8
0
 62
   123
100
AcDbTrace
 10
126.0899361436677
 20
84.8809236449224
 30
0.0
 11
127.0899361436677
 21
84.8809236449224
 31
0.0
 12
126.5899361436676
 22
81.8809236449224
 32
0.0
 13
126.5899361436676
 23
81.8809236449224
 33
0.0
  0
SOLID
  5
38D
330
388
100
AcDbEntity
  8
0
 62
   123
100
AcDbTrace
 10
126.0899361436677
 20
90.88092364492423
 30
0.0
 11
127.0899361436677
 21
90.88092364492423
 31
0.0
 12
126.5899361436676
 22
93.88092364492424
 32
0.0
 13
126.5899361436676
 23
93.88092364492424
 33
0.0
  0
MTEXT
  5
38E
330
388
100
AcDbEntity
  8
0
 62
     3
100
AcDbMText
 10
122.1480944770009
 20
87.88092364492333
 30
0.0
 40
3.5
 41
0.0
 71
     5
 72
     1
  1
\A1;\A1;{\f??|b0|i0|c0|p49;%%C}12{\f??|b0|i0|c0|p49;\H0.7x;\S+0^ -0.018;\H1.429x;(h}7{\f??|b0|i0|c0|p49;)}
 11
0.0000000000000001
 21
1.0
 31
0.0
1001
ACAD
1000
MTEXTBEGIN
1070
    73
1070
     1
1070
    44
1040
1.0
1070
    74
1070
     0
1000
MTEXTEND
1000
MTEXTBEGIN
1070
    73
1070
     1
1070
    44
1040
1.0
1070
    74
1070
     0
1000
MTEXTEND
1000
MTEXTBEGIN
1070
    73
1070
     1
1070
    44
1040
1.0
1070
    74
1070
     0
1000
MTEXTEND
1000
MTEXTBEGIN
1070
    73
1070
     1
1070
    44
1040
1.0
1070
    74
1070
     0
1000
MTEXTEND
  0
POINT
  5
38F
330
388
100
AcDbEntity
  8
DEFPOINTS
 62
     0
100
AcDbPoint
 10
149.9268979050774
 20
81.8809236449224
 30
0.0
  0
POINT
  5
390
330
388
100
AcDbEntity
  8
DEFPOINTS
 62
     0
100
AcDbPoint
 10
179.9268979050775
 20
93.88092364492422
 30
0.0
  0
POINT
  5
391
330
388
100
AcDbEntity
  8
DEFPOINTS
 62
     0
100
AcDbPoint
 10
126.5899361436676
 20
93.88092364492424
 30
0.0
  0
ENDBLK
  5
393
330
388
100
AcDbEntity
  8
0
100
AcDbBlockEnd
  0
BLOCK
  5
39E
330
394
100
AcDbEntity
  8
0
100
AcDbBlockBegin
  2
*D33
 70
     1
 10
0.0
 20
0.0
 30
0.0
  3
*D33
  1

  0
LINE
  5
395
330
394
100
AcDbEntity
  8
0
 62
   123
100
AcDbLine
 10
385.4276203957688
 20
132.880923644924
 30
0.0
 11
410.1222237852867
 21
132.880923644924
 31
0.0
  0
LINE
  5
396
330
394
100
AcDbEntity
  8
0
 62
   123
100
AcDbLine
 10
385.4276203957688
 20
42.88092364492238
 30
0.0
 11
410.1222237852867
 21
42.88092364492238
 31
0.0
  0
LINE
  5
397
330
394
100
AcDbEntity
  8
0
 62
   123
100
AcDbLine
 10
409.5222237852866
 20
129.8809236449242
 30
0.0
 11
409.5222237852866
 21
45.88092364492239
 31
0.0
  0
SOLID
  5
398
330
394
100
AcDbEntity
  8
0
 62
   123
100
AcDbTrace
 10
409.0222237852866
 20
129.8809236449242
 30
0.0
 11
410.0222237852866
 21
129.8809236449242
 31
0.0
 12
409.5222237852866
 22
132.880923644924
 32
0.0
 13
409.5222237852866
 23
132.880923644924
 33
0.0
  0
SOLID
  5
399
330
394
100
AcDbEntity
  8
0
 62
   123
100
AcDbTrace
 10
409.0222237852866
 20
45.88092364492239
 30
0.0
 11
410.0222237852866
 21
45.88092364492239
 31
0.0
 12
409.5222237852866
 22
42.88092364492238
 32
0.0
 13
409.5222237852866
 23
42.88092364492238
 33
0.0
  0
MTEXT
  5
39A
330
394
100
AcDbEntity
  8
0
 62
     3
100
AcDbMText
 10
406.7722237852867
 20
87.88771361716134
 30
0.0
 40
3.5
 41
0.0
 71
     5
 72
     1
  1
\A1;90
 11
0.0000000000000001
 21
1.0
 31
0.0
1001
ACAD
1000
MTEXTBEGIN
1070
    73
1070
     1
1070
    44
1040
1.0
1070
    74
1070
     0
1000
MTEXTEND
1000
MTEXTBEGIN
1070
    73
1070
     1
1070
    44
1040
1.0
1070
    74
1070
     0
1000
MTEXTEND
1000
MTEXTBEGIN
1070
    73
1070
     1
1070
    44
1040
1.0
1070
    74
1070
     0
1000
MTEXTEND
1000
MTEXTBEGIN
1070
    73
1070
     1
1070
    44
1040
1.0
1070
    74
1070
     0
1000
MTEXTEND
  0
POINT
  5
39B
330
394
100
AcDbEntity
  8
DEFPOINTS
 62
     0
100
AcDbPoint
 10
384.4276203957688
 20
132.880923644924
 30
0.0
  0
POINT
  5
39C
330
394
100
AcDbEntity
  8
DEFPOINTS
 62
     0
100
AcDbPoint
 10
384.4276203957688
 20
42.88092364492238
 30
0.0
  0
POINT
  5
39D
330
394
100
AcDbEntity
  8
DEFPOINTS
 62
     0
100
AcDbPoint
 10
409.5222237852866
 20
42.88092364492238
 30
0.0
  0
ENDBLK
  5
39F
330
394
100
AcDbEntity
  8
0
100
AcDbBlockEnd
  0
BLOCK
  5
3AA
330
3A0
100
AcDbEntity
  8
0
100
AcDbBlockBegin
  2
*D34
 70
     1
 10
0.0
 20
0.0
 30
0.0
  3
*D34
  1

  0
LINE
  5
3A1
330
3A0
100
AcDbEntity
  8
0
 62
   123
100
AcDbLine
 10
181.3860409813696
 20
336.494269935456
 30
0.0
 11
181.3860409813696
 21
373.4623386654998
 31
0.0
  0
LINE
  5
3A2
330
3A0
100
AcDbEntity
  8
0
 62
   123
100
AcDbLine
 10
382.3867634720682
 20
332.494269935456
 30
0.0
 11
382.3867634720682
 21
373.4623386654998
 31
0.0
  0
LINE
  5
3A3
330
3A0
100
AcDbEntity
  8
0
 62
   123
100
AcDbLine
 10
184.3860409813696
 20
372.8623386654998
 30
0.0
 11
379.3867634720681
 21
372.8623386654998
 31
0.0
  0
SOLID
  5
3A4
330
3A0
100
AcDbEntity
  8
0
 62
   123
100
AcDbTrace
 10
184.3860409813696
 20
373.3623386654997
 30
0.0
 11
184.3860409813696
 21
372.3623386654998
 31
0.0
 12
181.3860409813696
 22
372.8623386654998
 32
0.0
 13
181.3860409813696
 23
372.8623386654998
 33
0.0
  0
SOLID
  5
3A5
330
3A0
100
AcDbEntity
  8
0
 62
   123
100
AcDbTrace
 10
379.3867634720681
 20
373.3623386654997
 30
0.0
 11
379.3867634720681
 21
372.3623386654998
 31
0.0
 12
382.3867634720682
 22
372.8623386654998
 32
0.0
 13
382.3867634720682
 23
372.8623386654998
 33
0.0
  0
MTEXT
  5
3A6
330
3A0
100
AcDbEntity
  8
0
 62
     3
100
AcDbMText
 10
294.3860409813786
 20
375.6123386654998
 30
0.0
 40
3.5
 41
0.0
 71
     5
 72
     1
  1
\A1;201
1001
ACAD
1000
MTEXTBEGIN
1070
    73
1070
     1
1070
    44
1040
1.0
1070
    74
1070
     0
1000
MTEXTEND
1000
MTEXTBEGIN
1070
    73
1070
     1
1070
    44
1040
1.0
1070
    74
1070
     0
1000
MTEXTEND
1000
MTEXTBEGIN
1070
    73
1070
     1
1070
    44
1040
1.0
1070
    74
1070
     0
1000
MTEXTEND
1000
MTEXTBEGIN
1070
    73
1070
     1
1070
    44
1040
1.0
1070
    74
1070
     0
1000
MTEXTEND
  0
POINT
  5
3A7
330
3A0
100
AcDbEntity
  8
DEFPOINTS
 62
     0
100
AcDbPoint
 10
181.3860409813696
 20
335.494269935456
 30
0.0
  0
POINT
  5
3A8
330
3A0
100
AcDbEntity
  8
DEFPOINTS
 62
     0
100
AcDbPoint
 10
382.3867634720682
 20
331.494269935456
 30
0.0
  0
POINT
  5
3A9
330
3A0
100
AcDbEntity
  8
DEFPOINTS
 62
     0
100
AcDbPoint
 10
382.3867634720682
 20
372.8623386654998
 30
0.0
  0
ENDBLK
  5
3AB
330
3A0
100
AcDbEntity
  8
0
100
AcDbBlockEnd
  0
BLOCK
  5
3B6
330
3AC
100
AcDbEntity
  8
0
100
AcDbBlockBegin
  2
*D35
 70
     1
 10
0.0
 20
0.0
 30
0.0
  3
*D35
  1

  0
LINE
  5
3AD
330
3AC
100
AcDbEntity
  8
0
 62
   123
100
AcDbLine
 10
178.3860409813696
 20
331.494269935456
 30
0.0
 11
142.518727417328
 21
331.494269935456
 31
0.0
  0
LINE
  5
3AE
330
3AC
100
AcDbEntity
  8
0
 62
   123
100
AcDbLine
 10
178.3860409813696
 20
248.494269935456
 30
0.0
 11
142.518727417328
 21
248.494269935456
 31
0.0
  0
LINE
  5
3AF
330
3AC
100
AcDbEntity
  8
0
 62
   123
100
AcDbLine
 10
143.1187274173279
 20
328.494269935456
 30
0.0
 11
143.1187274173279
 21
251.494269935456
 31
0.0
  0
SOLID
  5
3B0
330
3AC
100
AcDbEntity
  8
0
 62
   123
100
AcDbTrace
 10
142.6187274173281
 20
328.494269935456
 30
0.0
 11
143.6187274173281
 21
328.494269935456
 31
0.0
 12
143.1187274173279
 22
331.494269935456
 32
0.0
 13
143.1187274173279
 23
331.494269935456
 33
0.0
  0
SOLID
  5
3B1
330
3AC
100
AcDbEntity
  8
0
 62
   123
100
AcDbTrace
 10
142.6187274173279
 20
251.494269935456
 30
0.0
 11
143.6187274173279
 21
251.494269935456
 31
0.0
 12
143.1187274173279
 22
248.494269935456
 32
0.0
 13
143.1187274173279
 23
248.494269935456
 33
0.0
  0
MTEXT
  5
3B2
330
3AC
100
AcDbEntity
  8
0
 62
     3
100
AcDbMText
 10
138.676885750661
 20
289.994269935456
 30
0.0
 40
3.5
 41
0.0
 71
     5
 72
     1
  1
\A1;\A1;{\f??|b0|i0|c0|p49;%%C}83{\f??|b0|i0|c0|p49;\H0.7x;\S+0^ -0.035;\H1.429x;(h}7{\f??|b0|i0|c0|p49;)}
 11
0.0000000000000001
 21
1.0
 31
0.0
1001
ACAD
1000
MTEXTBEGIN
1070
    73
1070
     1
1070
    44
1040
1.0
1070
    74
1070
     0
1000
MTEXTEND
1000
MTEXTBEGIN
1070
    73
1070
     1
1070
    44
1040
1.0
1070
    74
1070
     0
1000
MTEXTEND
1000
MTEXTBEGIN
1070
    73
1070
     1
1070
    44
1040
1.0
1070
    74
1070
     0
1000
MTEXTEND
1000
MTEXTBEGIN
1070
    73
1070
     1
1070
    44
1040
1.0
1070
    74
1070
     0
1000
MTEXTEND
  0
POINT
  5
3B3
330
3AC
100
AcDbEntity
  8
DEFPOINTS
 62
     0
100
AcDbPoint
 10
179.3860409813696
 20
331.494269935456
 30
0.0
  0
POINT
  5
3B4
330
3AC
100
AcDbEntity
  8
DEFPOINTS
 62
     0
100
AcDbPoint
 10
179.3860409813696
 20
248.494269935456
 30
0.0
  0
POINT
  5
3B5
330
3AC
100
AcDbEntity
  8
DEFPOINTS
 62
     0
100
AcDbPoint
 10
143.1187274173279
 20
248.494269935456
 30
0.0
  0
ENDBLK
  5
3B7
330
3AC
100
AcDbEntity
  8
0
100
AcDbBlockEnd
  0
BLOCK
  5
3C1
330
3B8
100
AcDbEntity
  8
0
100
AcDbBlockBegin
  2
*D36
 70
     1
 10
0.0
 20
0.0
 30
0.0
  3
*D36
  1

  0
LINE
  5
403
330
3B8
100
AcDbEntity
  8
0
 62
   123
100
AcDbLine
 10
14.56088523559651
 20
256.6717643325608
 30
0.0
 11
12.17417993828084
 21
254.8541731178578
 31
0.0
  0
LINE
  5
404
330
3B8
100
AcDbEntity
  8
0
 62
   123
100
AcDbLine
 10
102.0734128038474
 20
323.3167755383432
 30
0.0
 11
126.6335848714325
 21
342.0205313107222
 31
0.0
  0
LINE
  5
405
330
3B8
100
AcDbEntity
  8
0
 62
   123
100
AcDbLine
 10
16.94759053291218
 20
258.4893555472634
 30
0.0
 11
99.68670750653195
 21
321.4991843236401
 31
0.0
  0
SOLID
  5
406
330
3B8
100
AcDbEntity
  8
0
 62
   123
100
AcDbTrace
 10
14.25795336647935
 20
257.0695485487801
 30
0.0
 11
14.86381710471365
 21
256.2739801163416
 31
0.0
 12
16.94759053291218
 22
258.4893555472634
 32
0.0
 13
16.94759053291218
 23
258.4893555472634
 33
0.0
  0
SOLID
  5
407
330
3B8
100
AcDbEntity
  8
0
 62
   123
100
AcDbTrace
 10
101.7704809347304
 20
323.7145597545625
 30
0.0
 11
102.3763446729647
 21
322.9189913221238
 31
0.0
 12
99.68670750653195
 22
321.4991843236401
 32
0.0
 13
99.68670750653195
 23
321.4991843236401
 33
0.0
  0
MTEXT
  5
408
330
3B8
100
AcDbEntity
  8
0
 62
     3
100
AcDbMText
 10
114.2935831227376
 20
336.0796726786178
 30
0.0
 40
3.5
 41
0.0
 71
     5
 72
     1
  1
\A1;\U+2205104%%P0.5
 11
0.7955684324385551
 21
0.6058637382343166
 31
0.0
1001
ACAD
1000
MTEXTBEGIN
1070
    73
1070
     1
1070
    44
1040
1.0
1070
    74
1070
     0
1000
MTEXTEND
1000
MTEXTBEGIN
1070
    73
1070
     1
1070
    44
1040
1.0
1070
    74
1070
     0
1000
MTEXTEND
1000
MTEXTBEGIN
1070
    73
1070
     1
1070
    44
1040
1.0
1070
    74
1070
     0
1000
MTEXTEND
1000
MTEXTBEGIN
1070
    73
1070
     1
1070
    44
1040
1.0
1070
    74
1070
     0
1000
MTEXTEND
  0
POINT
  5
409
330
3B8
100
AcDbEntity
  8
DEFPOINTS
 62
     0
100
AcDbPoint
 10
99.68670750653195
 20
321.4991843236401
 30
0.0
  0
POINT
  5
40A
330
3B8
100
AcDbEntity
  8
DEFPOINTS
 62
     0
100
AcDbPoint
 10
16.94759053291218
 20
258.4893555472634
 30
0.0
  0
ENDBLK
  5
3C2
330
3B8
100
AcDbEntity
  8
0
100
AcDbBlockEnd
  0
BLOCK
  5
3CD
330
3C3
100
AcDbEntity
  8
0
100
AcDbBlockBegin
  2
*D37
 70
     1
 10
0.0
 20
0.0
 30
0.0
  3
*D37
  1

  0
LINE
  5
3C4
330
3C3
100
AcDbEntity
  8
0
 62
   123
100
AcDbLine
 10
13.31714901972735
 20
330.9514761766586
 30
0.0
 11
13.31714901972737
 21
355.8160317133594
 31
0.0
  0
LINE
  5
3C5
330
3C3
100
AcDbEntity
  8
0
 62
   123
100
AcDbLine
 10
103.3171490197182
 20
330.9514761766586
 30
0.0
 11
103.3171490197182
 21
355.8160317133594
 31
0.0
  0
LINE
  5
3C6
330
3C3
100
AcDbEntity
  8
0
 62
   123
100
AcDbLine
 10
16.31714901972736
 20
355.2160317133593
 30
0.0
 11
100.3171490197182
 21
355.2160317133593
 31
0.0
  0
SOLID
  5
3C7
330
3C3
100
AcDbEntity
  8
0
 62
   123
100
AcDbTrace
 10
16.31714901972736
 20
355.7160317133593
 30
0.0
 11
16.31714901972736
 21
354.7160317133593
 31
0.0
 12
13.31714901972737
 22
355.2160317133593
 32
0.0
 13
13.31714901972737
 23
355.2160317133593
 33
0.0
  0
SOLID
  5
3C8
330
3C3
100
AcDbEntity
  8
0
 62
   123
100
AcDbTrace
 10
100.3171490197182
 20
355.7160317133593
 30
0.0
 11
100.3171490197182
 21
354.7160317133593
 31
0.0
 12
103.3171490197182
 22
355.2160317133593
 32
0.0
 13
103.3171490197182
 23
355.2160317133593
 33
0.0
  0
MTEXT
  5
3C9
330
3C3
100
AcDbEntity
  8
0
 62
     3
100
AcDbMText
 10
58.70780065970757
 20
357.9660317133593
 30
0.0
 40
3.5
 41
0.0
 71
     5
 72
     1
  1
\A1;90
1001
ACAD
1000
MTEXTBEGIN
1070
    73
1070
     1
1070
    44
1040
1.0
1070
    74
1070
     0
1000
MTEXTEND
1000
MTEXTBEGIN
1070
    73
1070
     1
1070
    44
1040
1.0
1070
    74
1070
     0
1000
MTEXTEND
1000
MTEXTBEGIN
1070
    73
1070
     1
1070
    44
1040
1.0
1070
    74
1070
     0
1000
MTEXTEND
1000
MTEXTBEGIN
1070
    73
1070
     1
1070
    44
1040
1.0
1070
    74
1070
     0
1000
MTEXTEND
  0
POINT
  5
3CA
330
3C3
100
AcDbEntity
  8
DEFPOINTS
 62
     0
100
AcDbPoint
 10
13.31714901972735
 20
329.9514761766586
 30
0.0
  0
POINT
  5
3CB
330
3C3
100
AcDbEntity
  8
DEFPOINTS
 62
     0
100
AcDbPoint
 10
103.3171490197182
 20
329.9514761766586
 30
0.0
  0
POINT
  5
3CC
330
3C3
100
AcDbEntity
  8
DEFPOINTS
 62
     0
100
AcDbPoint
 10
103.3171490197182
 20
355.2160317133593
 30
0.0
  0
ENDBLK
  5
3CE
330
3C3
100
AcDbEntity
  8
0
100
AcDbBlockEnd
  0
BLOCK
  5
3D9
330
3CF
100
AcDbEntity
  8
0
100
AcDbBlockBegin
  2
*D38
 70
     1
 10
0.0
 20
0.0
 30
0.0
  3
*D38
  1

  0
LINE
  5
3D0
330
3CF
100
AcDbEntity
  8
0
 62
   123
100
AcDbLine
 10
160.3860409813696
 20
295.6442699354557
 30
0.0
 11
160.3860409813696
 21
373.4623386654998
 31
0.0
  0
LINE
  5
3D1
330
3CF
100
AcDbEntity
  8
0
 62
   123
100
AcDbLine
 10
181.3860409813696
 20
336.2026032687909
 30
0.0
 11
181.3860409813696
 21
373.4623386654998
 31
0.0
  0
LINE
  5
3D2
330
3CF
100
AcDbEntity
  8
0
 62
   123
100
AcDbLine
 10
163.3860409813696
 20
372.8623386654998
 30
0.0
 11
178.3860409813696
 21
372.8623386654998
 31
0.0
  0
SOLID
  5
3D3
330
3CF
100
AcDbEntity
  8
0
 62
   123
100
AcDbTrace
 10
163.3860409813696
 20
373.3623386654997
 30
0.0
 11
163.3860409813696
 21
372.3623386654998
 31
0.0
 12
160.3860409813696
 22
372.8623386654998
 32
0.0
 13
160.3860409813696
 23
372.8623386654998
 33
0.0
  0
SOLID
  5
3D4
330
3CF
100
AcDbEntity
  8
0
 62
   123
100
AcDbTrace
 10
178.3860409813696
 20
373.3623386654997
 30
0.0
 11
178.3860409813696
 21
372.3623386654998
 31
0.0
 12
181.3860409813696
 22
372.8623386654998
 32
0.0
 13
181.3860409813696
 23
372.8623386654998
 33
0.0
  0
MTEXT
  5
3D5
330
3CF
100
AcDbEntity
  8
0
 62
     3
100
AcDbMText
 10
170.8860409813696
 20
375.6123386654998
 30
0.0
 40
3.5
 41
0.0
 71
     5
 72
     1
  1
\A1;21
1001
ACAD
1000
MTEXTBEGIN
1070
    73
1070
     1
1070
    44
1040
1.0
1070
    74
1070
     0
1000
MTEXTEND
1000
MTEXTBEGIN
1070
    73
1070
     1
1070
    44
1040
1.0
1070
    74
1070
     0
1000
MTEXTEND
1000
MTEXTBEGIN
1070
    73
1070
     1
1070
    44
1040
1.0
1070
    74
1070
     0
1000
MTEXTEND
1000
MTEXTBEGIN
1070
    73
1070
     1
1070
    44
1040
1.0
1070
    74
1070
     0
1000
MTEXTEND
  0
POINT
  5
3D6
330
3CF
100
AcDbEntity
  8
DEFPOINTS
 62
     0
100
AcDbPoint
 10
160.3860409813696
 20
294.6442699354556
 30
0.0
  0
POINT
  5
3D7
330
3CF
100
AcDbEntity
  8
DEFPOINTS
 62
     0
100
AcDbPoint
 10
181.3860409813696
 20
335.2026032687908
 30
0.0
  0
POINT
  5
3D8
330
3CF
100
AcDbEntity
  8
DEFPOINTS
 62
     0
100
AcDbPoint
 10
181.3860409813696
 20
372.8623386654998
 30
0.0
  0
ENDBLK
  5
3DA
330
3CF
100
AcDbEntity
  8
0
100
AcDbBlockEnd
  0
BLOCK
  5
3E7
330
3DB
100
AcDbEntity
  8
0
100
AcDbBlockBegin
  2
*D39
 70
     1
 10
0.0
 20
0.0
 30
0.0
  3
*D39
  1

  0
LINE
  5
3DC
330
3DB
100
AcDbEntity
  8
0
 62
   123
100
AcDbLine
 10
181.3860409813696
 20
336.2026032687909
 30
0.0
 11
181.3860409813696
 21
360.0512437306221
 31
0.0
  0
LINE
  5
3DD
330
3DB
100
AcDbEntity
  8
0
 62
   123
100
AcDbLine
 10
188.8860409813696
 20
334.5930072769858
 30
0.0
 11
188.8860409813696
 21
360.0512437306221
 31
0.0
  0
LINE
  5
3DE
330
3DB
100
AcDbEntity
  8
0
 62
   123
100
AcDbLine
 10
178.3860409813696
 20
359.451243730622
 30
0.0
 11
175.3860409813696
 21
359.451243730622
 31
0.0
  0
LINE
  5
3DF
330
3DB
100
AcDbEntity
  8
0
 62
   123
100
AcDbLine
 10
191.8860409813696
 20
359.451243730622
 30
0.0
 11
194.8860409813696
 21
359.451243730622
 31
0.0
  0
LINE
  5
3E0
330
3DB
100
AcDbEntity
  8
0
 62
   123
100
AcDbLine
 10
181.3860409813696
 20
359.451243730622
 30
0.0
 11
188.8860409813696
 21
359.451243730622
 31
0.0
  0
SOLID
  5
3E1
330
3DB
100
AcDbEntity
  8
0
 62
   123
100
AcDbTrace
 10
178.3860409813696
 20
359.951243730622
 30
0.0
 11
178.3860409813696
 21
358.9512437306221
 31
0.0
 12
181.3860409813696
 22
359.451243730622
 32
0.0
 13
181.3860409813696
 23
359.451243730622
 33
0.0
  0
SOLID
  5
3E2
330
3DB
100
AcDbEntity
  8
0
 62
   123
100
AcDbTrace
 10
191.8860409813696
 20
359.951243730622
 30
0.0
 11
191.8860409813696
 21
358.9512437306221
 31
0.0
 12
188.8860409813696
 22
359.451243730622
 32
0.0
 13
188.8860409813696
 23
359.451243730622
 33
0.0
  0
MTEXT
  5
3E3
330
3DB
100
AcDbEntity
  8
0
 62
     3
100
AcDbMText
 10
185.1360409813695
 20
362.201243730622
 30
0.0
 40
3.5
 41
0.0
 71
     5
 72
     1
  1
\A1;7.5
1001
ACAD
1000
MTEXTBEGIN
1070
    73
1070
     1
1070
    44
1040
1.0
1070
    74
1070
     0
1000
MTEXTEND
1000
MTEXTBEGIN
1070
    73
1070
     1
1070
    44
1040
1.0
1070
    74
1070
     0
1000
MTEXTEND
1000
MTEXTBEGIN
1070
    73
1070
     1
1070
    44
1040
1.0
1070
    74
1070
     0
1000
MTEXTEND
1000
MTEXTBEGIN
1070
    73
1070
     1
1070
    44
1040
1.0
1070
    74
1070
     0
1000
MTEXTEND
  0
POINT
  5
3E4
330
3DB
100
AcDbEntity
  8
DEFPOINTS
 62
     0
100
AcDbPoint
 10
181.3860409813696
 20
335.2026032687908
 30
0.0
  0
POINT
  5
3E5
330
3DB
100
AcDbEntity
  8
DEFPOINTS
 62
     0
100
AcDbPoint
 10
188.8860409813696
 20
333.5930072769861
 30
0.0
  0
POINT
  5
3E6
330
3DB
100
AcDbEntity
  8
DEFPOINTS
 62
     0
100
AcDbPoint
 10
188.8860409813696
 20
359.451243730622
 30
0.0
  0
ENDBLK
  5
3E8
330
3DB
100
AcDbEntity
  8
0
100
AcDbBlockEnd
  0
BLOCK
  5
3F5
330
3E9
100
AcDbEntity
  8
0
100
AcDbBlockBegin
  2
*D40
 70
     1
 10
0.0
 20
0.0
 30
0.0
  3
*D40
  1

  0
LINE
  5
3EA
330
3E9
100
AcDbEntity
  8
0
 62
   123
100
AcDbLine
 10
179.3860409813696
 20
332.494269935456
 30
0.0
 11
179.3860409813696
 21
348.2269234997052
 31
0.0
  0
LINE
  5
3EB
330
3E9
100
AcDbEntity
  8
0
 62
   123
100
AcDbLine
 10
181.3860409813696
 20
335.9942699354569
 30
0.0
 11
181.3860409813696
 21
348.2269234997052
 31
0.0
  0
LINE
  5
3EC
330
3E9
100
AcDbEntity
  8
0
 62
   123
100
AcDbLine
 10
184.3860409813696
 20
347.6269234997053
 30
0.0
 11
187.3860409813696
 21
347.6269234997053
 31
0.0
  0
LINE
  5
3ED
330
3E9
100
AcDbEntity
  8
0
 62
   123
100
AcDbLine
 10
176.3860409813696
 20
347.6269234997053
 30
0.0
 11
168.219374314712
 21
347.6269234997053
 31
0.0
  0
LINE
  5
3EE
330
3E9
100
AcDbEntity
  8
0
 62
   123
100
AcDbLine
 10
181.3860409813696
 20
347.6269234997053
 30
0.0
 11
179.3860409813696
 21
347.6269234997053
 31
0.0
  0
SOLID
  5
3EF
330
3E9
100
AcDbEntity
  8
0
 62
   123
100
AcDbTrace
 10
184.3860409813696
 20
348.1269234997053
 30
0.0
 11
184.3860409813696
 21
347.1269234997051
 31
0.0
 12
181.3860409813696
 22
347.6269234997053
 32
0.0
 13
181.3860409813696
 23
347.6269234997053
 33
0.0
  0
SOLID
  5
3F0
330
3E9
100
AcDbEntity
  8
0
 62
   123
100
AcDbTrace
 10
176.3860409813696
 20
348.1269234997053
 30
0.0
 11
176.3860409813696
 21
347.1269234997051
 31
0.0
 12
179.3860409813696
 22
347.6269234997053
 32
0.0
 13
179.3860409813696
 23
347.6269234997053
 33
0.0
  0
MTEXT
  5
3F1
330
3E9
100
AcDbEntity
  8
0
 62
     3
100
AcDbMText
 10
170.3860409813787
 20
350.3769234997053
 30
0.0
 40
3.5
 41
0.0
 71
     5
 72
     1
  1
\A1;2
1001
ACAD
1000
MTEXTBEGIN
1070
    73
1070
     1
1070
    44
1040
1.0
1070
    74
1070
     0
1000
MTEXTEND
1000
MTEXTBEGIN
1070
    73
1070
     1
1070
    44
1040
1.0
1070
    74
1070
     0
1000
MTEXTEND
1000
MTEXTBEGIN
1070
    73
1070
     1
1070
    44
1040
1.0
1070
    74
1070
     0
1000
MTEXTEND
1000
MTEXTBEGIN
1070
    73
1070
     1
1070
    44
1040
1.0
1070
    74
1070
     0
1000
MTEXTEND
  0
POINT
  5
3F2
330
3E9
100
AcDbEntity
  8
DEFPOINTS
 62
     0
100
AcDbPoint
 10
179.3860409813696
 20
331.494269935456
 30
0.0
  0
POINT
  5
3F3
330
3E9
100
AcDbEntity
  8
DEFPOINTS
 62
     0
100
AcDbPoint
 10
181.3860409813696
 20
334.9942699354568
 30
0.0
  0
POINT
  5
3F4
330
3E9
100
AcDbEntity
  8
DEFPOINTS
 62
     0
100
AcDbPoint
 10
181.3860409813696
 20
347.6269234997053
 30
0.0
  0
ENDBLK
  5
3F6
330
3E9
100
AcDbEntity
  8
0
100
AcDbBlockEnd
  0
BLOCK
  5
401
330
3F7
100
AcDbEntity
  8
0
100
AcDbBlockBegin
  2
*D41
 70
     1
 10
0.0
 20
0.0
 30
0.0
  3
*D41
  1

  0
LINE
  5
3F8
330
3F7
100
AcDbEntity
  8
0
 62
   123
100
AcDbLine
 10
379.8867634720682
 20
334.9942699354568
 30
0.0
 11
404.5813668615771
 21
334.9942699354568
 31
0.0
  0
LINE
  5
3F9
330
3F7
100
AcDbEntity
  8
0
 62
   123
100
AcDbLine
 10
379.8867634720682
 20
244.9942699354568
 30
0.0
 11
404.5813668615771
 21
244.9942699354568
 31
0.0
  0
LINE
  5
3FA
330
3F7
100
AcDbEntity
  8
0
 62
   123
100
AcDbLine
 10
403.9813668615771
 20
331.9942699354569
 30
0.0
 11
403.9813668615771
 21
247.9942699354569
 31
0.0
  0
SOLID
  5
3FB
330
3F7
100
AcDbEntity
  8
0
 62
   123
100
AcDbTrace
 10
403.4813668615771
 20
331.9942699354569
 30
0.0
 11
404.4813668615772
 21
331.9942699354569
 31
0.0
 12
403.9813668615771
 22
334.9942699354568
 32
0.0
 13
403.9813668615771
 23
334.9942699354568
 33
0.0
  0
SOLID
  5
3FC
330
3F7
100
AcDbEntity
  8
0
 62
   123
100
AcDbTrace
 10
403.4813668615771
 20
247.9942699354569
 30
0.0
 11
404.4813668615772
 21
247.9942699354569
 31
0.0
 12
403.9813668615771
 22
244.9942699354568
 32
0.0
 13
403.9813668615771
 23
244.9942699354568
 33
0.0
  0
MTEXT
  5
3FD
330
3F7
100
AcDbEntity
  8
0
 62
     3
100
AcDbMText
 10
401.2313668615766
 20
292.744159176691
 30
0.0
 40
3.5
 41
0.0
 71
     5
 72
     1
  1
\A1;90
 11
0.0000000000000001
 21
1.0
 31
0.0
1001
ACAD
1000
MTEXTBEGIN
1070
    73
1070
     1
1070
    44
1040
1.0
1070
    74
1070
     0
1000
MTEXTEND
1000
MTEXTBEGIN
1070
    73
1070
     1
1070
    44
1040
1.0
1070
    74
1070
     0
1000
MTEXTEND
1000
MTEXTBEGIN
1070
    73
1070
     1
1070
    44
1040
1.0
1070
    74
1070
     0
1000
MTEXTEND
1000
MTEXTBEGIN
1070
    73
1070
     1
1070
    44
1040
1.0
1070
    74
1070
     0
1000
MTEXTEND
  0
POINT
  5
3FE
330
3F7
100
AcDbEntity
  8
DEFPOINTS
 62
     0
100
AcDbPoint
 10
378.8867634720681
 20
334.9942699354568
 30
0.0
  0
POINT
  5
3FF
330
3F7
100
AcDbEntity
  8
DEFPOINTS
 62
     0
100
AcDbPoint
 10
378.8867634720681
 20
244.9942699354568
 30
0.0
  0
POINT
  5
400
330
3F7
100
AcDbEntity
  8
DEFPOINTS
 62
     0
100
AcDbPoint
 10
403.9813668615771
 20
244.9942699354568
 30
0.0
  0
ENDBLK
  5
402
330
3F7
100
AcDbEntity
  8
0
100
AcDbBlockEnd
  0
ENDSEC
  0
SECTION
  2
ENTITIES
  0
DIMENSION
  5
9D
330
2
100
AcDbEntity
  8
0
100
AcDbDimension
  2
*D21
 10
58.31093134883666
 20
343.6244146992085
 30
0.0
 11
71.85101067735207
 21
221.9630890451363
 31
0.0
 70
    34
  1
<>
  3
1_1_2
100
AcDb2LineAngularDimension
 13
58.31093134883666
 23
289.994269935456
 33
0.0
 14
76.9567593265183
 24
244.9942699354568
 34
0.0
 15
58.31714901972737
 25
236.3641251717034
 35
0.0
 16
67.77507251590987
 26
218.1663586211291
 36
0.0
1001
ACAD
1000
DSTYLE
1002
{
1070
   271
1070
     1
1070
   271
1070
     1
1070
   179
1070
     1
1070
   271
1070
     0
1070
   271
1070
     1
1070
   271
1070
     1
1070
   271
1070
     1
1070
   271
1070
     1
1070
   271
1070
     1
1002
}
  0
LINE
  5
AD
330
2
100
AcDbEntity
  8
0
100
AcDbLine
 10
203.8970118467585
 20
36.28059944040797
 30
0.0
 11
302.4884339159871
 21
36.28059944040797
 31
0.0
  0
LINE
  5
AE
330
2
100
AcDbEntity
  8
0
100
AcDbLine
 10
200.5913029417079
 20
41.28059944040342
 30
0.0
 11
298.9886288217183
 21
41.28059944040614
 31
0.0
  0
LINE
  5
AF
330
2
100
AcDbEntity
  8
CL
 48
0.6
100
AcDbLine
 10
398.3824928999473
 20
87.88092364492422
 30
0.0
 11
142.0769013557491
 21
87.88092364492422
 31
0.0
  0
LINE
  5
B2
330
2
100
AcDbEntity
  8
0
100
AcDbLine
 10
326.0176203957689
 20
132.880923644924
 30
0.0
 11
193.5268979050779
 21
132.880923644924
 31
0.0
  0
DIMENSION
  5
B3
330
2
100
AcDbEntity
  8
0
100
AcDbDimension
  2
*D22
 10
387.9276203957688
 20
167.3580873526671
 30
0.0
 11
279.9268979050775
 21
167.3580873526671
 31
0.0
 70
   160
  3
1_1_2
100
AcDbAlignedDimension
 13
186.9268979050773
 23
133.3809236449224
 33
0.0
 14
387.9276203957688
 24
129.3809236449222
 34
0.0
100
AcDbRotatedDimension
  0
LINE
  5
C0
330
2
100
AcDbEntity
  8
0
100
AcDbLine
 10
301.6420996935285
 20
42.88092364492238
 30
0.0
 11
193.5268979050779
 21
42.88092364492238
 31
0.0
  0
ARC
  5
C1
330
2
100
AcDbEntity
  8
0
 48
0.6
100
AcDbCircle
 10
84.23848039112817
 20
57.19147629346299
 30
0.0
 40
39.15579199999999
100
AcDbArc
 50
201.4369589999631
 51
208.5517089163135
  0
ARC
  5
C2
330
2
100
AcDbEntity
  8
0
 48
0.6
100
AcDbCircle
 10
16.90618984092725
 20
29.29222502808352
 30
0.0
 40
39.15579199999999
100
AcDbArc
 50
16.65391050761257
 51
20.30648800596492
  0
LINE
  5
C3
330
2
100
AcDbEntity
  8
CL
 48
0.6
100
AcDbLine
 10
32.0822755436784
 20
34.25077888117082
 30
0.0
 11
32.0822755436784
 21
141.5110684086757
 31
0.0
  0
DIMENSION
  5
C4
330
2
100
AcDbEntity
  8
0
100
AcDbDimension
  2
*D23
 10
32.07605787279863
 20
141.5110684086757
 30
0.0
 11
45.61613720130053
 21
19.84974275459958
 31
0.0
 70
    34
  1
<>
  3
1_1_2
100
AcDb2LineAngularDimension
 13
32.07605787279863
 23
87.88092364492422
 33
0.0
 14
50.72188585046934
 24
42.88092364492238
 34
0.0
 15
32.0822755436784
 25
34.25077888117082
 35
0.0
 16
41.54019903985821
 26
16.05301233059309
 36
0.0
1001
ACAD
1000
DSTYLE
1002
{
1070
   271
1070
     1
1070
   271
1070
     1
1070
   179
1070
     1
1070
   271
1070
     0
1070
   271
1070
     1
1070
   271
1070
     1
1070
   271
1070
     1
1070
   271
1070
     1
1070
   271
1070
     1
1002
}
  0
ARC
  5
D3
330
2
100
AcDbEntity
  8
0
 48
0.6
100
AcDbCircle
 10
236.0258258409685
 20
41.71688916907351
 30
0.0
 40
37.855792
100
AcDbArc
 50
179.8658330000312
 51
183.9724199931055
  0
ARC
  5
D4
330
2
100
AcDbEntity
  8
0
 48
0.6
100
AcDbCircle
 10
235.7296199050778
 20
41.79227764492316
 30
0.0
 40
39.15579199999999
100
AcDbArc
 50
179.8702870000233
 51
183.6102158837779
  0
ARC
  5
D5
330
2
100
AcDbEntity
  8
0
 48
0.6
100
AcDbCircle
 10
235.7296199050778
 20
41.79227764492316
 30
0.0
 40
33.95579199999998
100
AcDbArc
 50
179.85042300002
 51
180.8634200380006
  0
ARC
  5
D6
330
2
100
AcDbEntity
  8
0
 48
0.6
100
AcDbCircle
 10
235.4371258518586
 20
41.87858875392885
 30
0.0
 40
35.255792
100
AcDbArc
 50
179.9962054631615
 51
181.0943561937651
  0
TEXT
  5
D7
330
2
100
AcDbEntity
  8
DIM
100
AcDbText
 10
129.033852072629
 20
21.27857380602836
 30
0.0
 40
3.5
  1
 LEAD WIRE 300mm
100
AcDbText
  0
LINE
  5
D9
330
2
100
AcDbEntity
  8
0
 62
   123
 48
0.6
100
AcDbLine
 10
186.9179898490074
 20
19.27857380602835
 30
0.0
 11
127.663832021637
 21
19.27857380602835
 31
0.0
  0
LWPOLYLINE
  5
DA
330
2
100
AcDbEntity
  8
0
100
AcDbPolyline
 90
      548
 70
     0
 43
0.0
 10
56.12771736736796
 20
27.85687205135036
 10
56.13073278247793
 20
27.8714454661358
 10
56.13428123380799
 20
27.88810515480327
 10
56.13790865198826
 20
27.90465820026929
 10
56.14161478226924
 20
27.92110495840188
 10
56.14539936988695
 20
27.93744578507903
 10
56.14926216007916
 20
27.95368103616782
 10
56.15320289810916
 20
27.96981106754356
 10
56.15722132919835
 20
27.98583623508057
 10
56.16131719859732
 20
28.00175689464868
 10
56.16549025154745
 20
28.01757340212407
 10
56.16974023329929
 20
28.03328611337656
 10
56.17406688907795
 20
28.04889538428051
 10
56.17846996413753
 20
28.06440157070756
 10
56.18294920371773
 20
28.07980502853205
 10
56.18750435306901
 20
28.09510611362748
 10
56.19213515741829
 20
28.11030518186453
 10
56.19684136201795
 20
28.12540258911485
 10
56.20162271211847
 20
28.14039869125736
 10
56.2064789529486
 20
28.15529384416095
 10
56.21140982974974
 20
28.17008840369453
 10
56.21641508777793
 20
28.18478272573884
 10
56.22149447225821
 20
28.19937716616186
 10
56.22664772844837
 20
28.21387208083613
 10
56.23187460158806
 20
28.22826782563788
 10
56.2371748369187
 20
28.24256475643506
 10
56.24254817967814
 20
28.25676322910656
 10
56.24799437510773
 20
28.27086359951954
 10
56.25351316845808
 20
28.28486622355194
 10
56.25910430496879
 20
28.29877145707269
 10
56.26476752987764
 20
28.31257965595614
 10
56.27050258842793
 20
28.32629117607485
 10
56.27630922586831
 20
28.33990637330407
 10
56.28218718743664
 20
28.35342560351091
 10
56.28813621837799
 20
28.36684922257426
 10
56.29415606393741
 20
28.38017758636123
 10
56.30024646934908
 20
28.39341105075073
 10
56.30640717986898
 20
28.40654997161255
 10
56.31263794071855
 20
28.41959470481924
 10
56.31893849715743
 20
28.43254560624426
 10
56.32530859441795
 20
28.44540303175927
 10
56.3317479777579
 20
28.45816733724041
 10
56.33825639239693
 20
28.4708388785566
 10
56.3448335835983
 20
28.48341801158312
 10
56.35147929659797
 20
28.49590509219251
 10
56.35819327662829
 20
28.50830047625731
 10
56.36497526894891
 20
28.52060451965007
 10
56.37182501878669
 20
28.53281757824333
 10
56.37874227139764
 20
28.54494000791146
 10
56.38572677201771
 20
28.55697216452607
 10
56.39277826588839
 20
28.56891440395884
 10
56.39989649825657
 20
28.5807670820868
 10
56.4070812143491
 20
28.5925305547771
 10
56.41433215942743
 20
28.6042051779068
 10
56.42164907873667
 20
28.61579130734935
 10
56.42903171749821
 20
28.62728929897457
 10
56.436479820979
 20
28.63869950865591
 10
56.44399313439861
 20
28.65002229226774
 10
56.45157140300762
 20
28.66125800568079
 10
56.45921437205652
 20
28.67240700477214
 10
56.46692178677767
 20
28.68346964540796
 10
56.47469339242888
 20
28.69444628346718
 10
56.48252893422796
 20
28.70533727481869
 10
56.49042815743634
 20
28.71614297533779
 10
56.49839080729726
 20
28.72686374089608
 10
56.50641662903763
 20
28.73749992736701
 10
56.5145053679189
 20
28.74805189062317
 10
56.52265676916977
 20
28.75851998653796
 10
56.53087057803714
 20
28.76890457098307
 10
56.53914653976789
 20
28.77920599983371
 10
56.54748439959803
 20
28.78942462895975
 10
56.55588390276896
 20
28.79956081423642
 10
56.56434479452764
 20
28.80961491153266
 10
56.5728668201191
 20
28.81958727672736
 10
56.58144972477749
 20
28.82947826568852
 10
56.59009325375699
 20
28.83928823429139
 10
56.59879715228817
 20
28.84901753840676
 10
56.60756116561788
 20
28.85866653390985
 10
56.61638503899848
 20
28.8682355766723
 10
56.6252685176587
 20
28.87772502256666
 10
56.63421134683813
 20
28.88713522746638
 10
56.64321327178732
 20
28.89646654724492
 10
56.65227403775862
 20
28.9057193377739
 10
56.6613933899789
 20
28.91489395492681
 10
56.67057107369874
 20
28.92399075457614
 10
56.6798068341486
 20
28.93301009259721
 10
56.68910041658637
 20
28.94195232485799
 10
56.69845156624797
 20
28.95081780723467
 10
56.7078600283785
 20
28.9596068956007
 10
56.71732554821756
 20
28.96831994582498
 10
56.72684787099933
 20
28.9769573137828
 10
56.7364267419871
 20
28.98551935535031
 10
56.74606190640769
 20
28.99400642639648
 10
56.75575310950808
 20
29.00241888279379
 10
56.76550009652782
 20
29.01075708041753
 10
56.77530261271932
 20
29.01902137513662
 10
56.7851604033076
 20
29.02721212282994
 10
56.79507321354686
 20
29.03532967936644
 10
56.80504078867852
 20
29.0433744006177
 10
56.81506287394768
 20
29.05134664246088
 10
56.82513921459939
 20
29.05924676076392
 10
56.83526955585693
 20
29.06707511140302
 10
56.8454536429872
 20
29.07483205025162
 10
56.85569122121886
 20
29.08251793317868
 10
56.86598203578796
 20
29.09013311606031
 10
56.87632583195773
 20
29.09767795476909
 10
56.88672235495687
 20
29.10515280517756
 10
56.89717135002865
 20
29.11255802315736
 10
56.90767256241816
 20
29.11989396458284
 10
56.91822573735771
 20
29.12716098532655
 10
56.92883062010697
 20
29.13435944126104
 10
56.93948695590734
 20
29.14148968825974
 10
56.95019448998754
 20
29.14855208219433
 10
56.96095296759813
 20
29.1555469789373
 10
56.97176213397688
 20
29.16247473436305
 10
56.98262173437797
 20
29.16933570434412
 10
56.99353151402829
 20
29.17613024475394
 10
57.00449121817836
 20
29.18285871146418
 10
57.01550059207875
 20
29.18952146034916
 10
57.02655938094904
 20
29.19611884727782
 10
57.03766733005796
 20
29.20265122812816
 10
57.04882418462876
 20
29.20911895876997
 10
57.06002968991924
 20
29.21552239507763
 10
57.07128359115813
 20
29.22186189292096
 10
57.08258563359777
 20
29.22813780817705
 10
57.09393556246869
 20
29.23435049671478
 10
57.10533312302686
 20
29.2405003144122
 10
57.11677806050829
 20
29.24658761713726
 10
57.12827012015804
 20
29.25261276076616
 10
57.13980904721757
 20
29.25857610116691
 10
57.15139458692829
 20
29.26447799421748
 10
57.1630264845371
 20
29.27031879578862
 10
57.17470448527818
 20
29.27609886175287
 10
57.18642833439844
 20
29.28181854798457
 10
57.19819777713746
 20
29.28747821035631
 10
57.2100125587476
 20
29.29307820473876
 10
57.22187242445762
 20
29.29861888700634
 10
57.23377711951798
 20
29.30410061303155
 10
57.24572638917742
 20
29.30952373868786
 10
57.25771997866832
 20
29.3148886198487
 10
57.26975763322844
 20
29.32019561238485
 10
57.28183909811741
 20
29.32544507217062
 10
57.29396411855669
 20
29.33063735507948
 10
57.30613243981861
 20
29.33577281698126
 10
57.31834380710643
 20
29.34085181375212
 10
57.33059796569797
 20
29.3458747012628
 10
57.34289466081827
 20
29.35084183538764
 10
57.35523363770699
 20
29.35575357200105
 10
57.36761464161826
 20
29.36061026697098
 10
57.3800374177881
 20
29.36541227617453
 10
57.39250171146887
 20
29.37015995548335
 10
57.40500726787832
 20
29.37485366076725
 10
57.41755383227792
 20
29.3794937479033
 10
57.43014114990728
 20
29.38408057276319
 10
57.44276896601878
 20
29.38861449122123
 10
57.45543702582835
 20
29.39309585914543
 10
57.46814507460658
 20
29.39752503241289
 10
57.48089285757849
 20
29.40190236689705
 10
57.4936801199983
 20
29.40622821846773
 10
57.50650660709833
 20
29.41050294299747
 10
57.51937206411821
 20
29.41472689636248
 10
57.53227623631937
 20
29.41890043443436
 10
57.5452188689287
 20
29.42302391308476
 10
57.55819970718767
 20
29.42709768818803
 10
57.57121849634859
 20
29.43112211561401
 10
57.58427498164746
 20
29.43509755123887
 10
57.59736890832755
 20
29.43902435093514
 10
57.61050002162664
 20
29.44290287057447
 10
57.62366806679892
 20
29.4467334660303
 10
57.63687278907672
 20
29.4505164931752
 10
57.65011393371787
 20
29.45425230788169
 10
57.66339124593833
 20
29.45794126602232
 10
57.67670447099954
 20
29.46158372347326
 10
57.69005335414838
 20
29.46518003610345
 10
57.70343764060815
 20
29.46873055978448
 10
57.71685707563666
 20
29.4722356503953
 10
57.73031140447709
 20
29.47569566380479
 10
57.74380037235824
 20
29.47911095588551
 10
57.75732372453784
 20
29.48248188251091
 10
57.77088120624831
 20
29.48580879955443
 10
57.78447256273647
 20
29.48909206289044
 10
57.79809753923654
 20
29.49233202838695
 10
57.81175588101906
 20
29.49552905192104
 10
57.82544733328723
 20
29.49868348936343
 10
57.83917164130796
 20
29.50179569659031
 10
57.85292855031912
 20
29.50486602946876
 10
57.86671780555843
 20
29.50789484387678
 10
57.88053915227829
 20
29.51088249568602
 10
57.89439233570738
 20
29.51382934076809
 10
57.90827710109805
 20
29.51673573499465
 10
57.92219319368633
 20
29.51960203424278
 10
57.93614035872815
 20
29.52242859438046
 10
57.95011834145771
 20
29.52521577128573
 10
57.96412688710734
 20
29.52796392082655
 10
57.97816574093849
 20
29.53067339887912
 10
57.99223464817806
 20
29.53334456131505
 10
58.00633335406928
 20
29.53597776400602
 10
58.02046160386817
 20
29.53857336282544
 10
58.03461914280706
 20
29.54113171364861
 10
58.04880571612738
 20
29.54365317234806
 10
58.06302106907788
 20
29.54613809479269
 10
58.07726494689813
 20
29.54858683685869
 10
58.09153709482778
 20
29.55099975441772
 10
58.10583725810829
 20
29.55337720334318
 10
58.12016518199925
 20
29.55571953950675
 10
58.13452061171847
 20
29.55802711878277
 10
58.1489032925183
 20
29.56030029704379
 10
58.16331296964928
 20
29.56253943016236
 10
58.17774938833827
 20
29.56474487401282
 10
58.19221229384857
 20
29.56691698446411
 10
58.20670143139796
 20
29.56905611739512
 10
58.2212165462479
 20
29.57116262867201
 10
58.23575738362888
 20
29.57323687417192
 10
58.25032368879874
 20
29.57527920976554
 10
58.26491520698801
 20
29.57728999132814
 10
58.2795316834381
 20
29.57926957472955
 10
58.29417286339958
 20
29.58121831584503
 10
58.30883849210659
 20
29.58313657054714
 10
58.32352831480784
 20
29.58502469470932
 10
58.3382420767375
 20
29.58688304420229
 10
58.35297952314796
 20
29.5887119748977
 10
58.36774039927695
 20
29.59051184267355
 10
58.38252445037689
 20
29.59228300339963
 10
58.39733142166915
 20
29.59402581294853
 10
58.41216105841885
 20
29.59574062719275
 10
58.42701310584923
 20
29.59742780200759
 10
58.44188730920723
 20
29.59908769326466
 10
58.45678341374878
 20
29.60072065683289
 10
58.47170116470806
 20
29.60232704859298
 10
58.48664030731924
 20
29.60390722441116
 10
58.50160058683832
 20
29.60546154016265
 10
58.51658174849944
 20
29.6069903517191
 10
58.5315835375477
 20
29.60849401495852
 10
58.54660569922817
 20
29.60997288574617
 10
58.56164797877863
 20
29.61142731995915
 10
58.57671012143692
 20
29.61285767346998
 10
58.59179187245718
 20
29.61426430215214
 10
58.60689297707722
 20
29.61564756187454
 10
58.62201318053667
 20
29.61700780851606
 10
58.63715222808786
 20
29.61834539794562
 10
58.65230986496865
 20
29.61966068603669
 10
58.66748583640765
 20
29.62095402866362
 10
58.68267988765729
 20
29.62222578169712
 10
58.69789176396807
 20
29.62347630101067
 10
58.71312121057781
 20
29.62470594247678
 10
58.72836797271884
 20
29.62591506196985
 10
58.74363179564896
 20
29.62710401536151
 10
58.75891242459875
 20
29.62827315852701
 10
58.77420960481868
 20
29.62942284733526
 10
58.7895230815484
 20
29.63055343765971
 10
58.80485260001843
 20
29.63166528537657
 10
58.8201979054993
 20
29.63275874635565
 10
58.83555874320699
 20
29.63383417647219
 10
58.85093485839934
 20
29.63489193159512
 10
58.86632599630684
 20
29.63593236760242
 10
58.88173190218731
 20
29.63695584036304
 10
58.89715232126945
 20
29.6379627057504
 10
58.91258699879836
 20
29.63895331964067
 10
58.92803568002818
 20
29.63992803790096
 10
58.94349811018765
 20
29.64088721640928
 10
58.95897403451818
 20
29.6418312110336
 10
58.97446319826848
 20
29.64276037765193
 10
58.98996534668732
 20
29.64367507213501
 10
59.00548022500696
 20
29.64457565035536
 10
59.02100757847802
 20
29.64546246818553
 10
59.03654715233642
 20
29.64633588149991
 10
59.05209869182726
 20
29.64719624617009
 10
59.06766194218835
 20
29.64804391806682
 10
59.0832366486684
 20
29.6488792530663
 10
59.09882255650881
 20
29.64970260704102
 10
59.11441941094928
 20
29.65051433586177
 10
59.13002695723843
 20
29.6513147954065
 10
59.14564494060869
 20
29.6521043415405
 10
59.16127310631781
 20
29.65288333014177
 10
59.17691119958726
 20
29.65365211708194
 10
59.19255896567847
 20
29.65441105823538
 10
59.20821614982742
 20
29.65516050947007
 10
59.22388249726829
 20
29.65590082666494
 10
59.23955775324794
 20
29.65663236568797
 10
59.25524166302785
 20
29.65735548241628
 10
59.27093397182762
 20
29.65807053271783
 10
59.28663442488685
 20
29.65877787246881
 10
59.30234276746887
 20
29.65947785754361
 10
59.31805874480779
 20
29.66017084380927
 10
59.33378210213778
 20
29.66085718714476
 10
59.34951258470753
 20
29.66153724342074
 10
59.36524993775856
 20
29.66221136850981
 10
59.38099390652678
 20
29.66287991828266
 10
59.39674423627912
 20
29.6635432486164
 10
59.41250067222791
 20
29.66420171538084
 10
59.42826295962731
 20
29.66485567445123
 10
59.44403084372789
 20
29.66550548169561
 10
59.45980406976921
 20
29.66615149299196
 10
59.47558238298736
 20
29.66679406421281
 10
59.49136552861818
 20
29.66743355122888
 10
59.50715325191777
 20
29.66807030991367
 10
59.52294529812752
 20
29.66870469613967
 10
59.53874141248707
 20
29.66933706577946
 10
59.55454134023785
 20
29.6699677747083
 10
59.57034482661947
 20
29.67059717879328
 10
59.58615161687703
 20
29.67122563391603
 10
59.60196145625741
 20
29.67185349594183
 10
59.61777409000752
 20
29.67248112074776
 10
59.63358926334876
 20
29.67310886420546
 10
59.64940672154806
 20
29.67373708218474
 10
59.66522620982869
 20
29.6743661305636
 10
59.6810474734375
 20
29.67499636521278
 10
59.69687025762869
 20
29.67562814200482
 10
59.71269430763641
 20
29.67626181681223
 10
59.72851936869847
 20
29.67689774550672
 10
59.74434518606904
 20
29.6775362839653
 10
59.76017150497863
 20
29.67817778805692
 10
59.77599807067782
 20
29.67882261365593
 10
59.791824628408
 20
29.67947111663578
 10
59.80765092340697
 20
29.68012365286904
 10
59.82347670092895
 20
29.6807805782264
 10
59.83930170619714
 20
29.68144224858406
 10
59.85512568446758
 20
29.68210901981182
 10
59.87094838097799
 20
29.68278124778407
 10
59.88676954097901
 20
29.68345928837334
 10
59.90258890969926
 20
29.6841434974549
 10
59.91840623238751
 20
29.68483423089674
 10
59.93422125429789
 20
29.68553184457596
 10
59.9500337206573
 20
29.68623669436329
 10
59.96584337671993
 20
29.68694913613308
 10
59.98164996770722
 20
29.68766952575423
 10
59.99745323888782
 20
29.68839821910387
 10
60.01325293548688
 20
29.68913557205451
 10
60.02904880275855
 20
29.6898819404787
 10
60.04484058593695
 20
29.69063768024716
 10
60.06062803026907
 20
29.69140314723608
 10
60.07641088099807
 20
29.69217869731437
 10
60.09218888335817
 20
29.69296468635821
 10
60.10796178259806
 20
29.69376147023739
 10
60.12372932395738
 20
29.69456940482814
 10
60.13949125268664
 20
29.69538884600114
 10
60.15524731402729
 20
29.69622014963169
 10
60.17099725320804
 20
29.69706367158869
 10
60.1867408154867
 20
29.69791976774832
 10
60.20247774609742
 20
29.69878879398129
 10
60.21820779027803
 20
29.69967110616197
 10
60.23393069328815
 20
29.70056706016384
 10
60.24964620035826
 20
29.70147701185668
 10
60.26535405672802
 20
29.7024013171158
 10
60.28105400764797
 20
29.70334033181278
 10
60.29674579835774
 20
29.70429441182203
 10
60.31242917409873
 20
29.70526391301428
 10
60.32810388011785
 20
29.70624919126658
 10
60.34376966164746
 20
29.70725060244513
 10
60.35942626393627
 20
29.70826850242882
 10
60.37507343223842
 20
29.70930324708751
 10
60.39071091177721
 20
29.71035519229554
 10
60.40633844779768
 20
29.71142469392361
 10
60.42195578555765
 20
29.71251210784794
 10
60.43756267027674
 20
29.71361778993649
 10
60.45315884722731
 20
29.71474209606822
 10
60.46874406161986
 20
29.71588538211108
 10
60.48431805871951
 20
29.71704800393854
 10
60.49988058375856
 20
29.71823031742497
 10
60.51543138198758
 20
29.71943267844471
 10
60.53097019863708
 20
29.7206554428676
 10
60.5464967789576
 20
29.72189896656619
 10
60.56201086818692
 20
29.72316360541481
 10
60.5775122115774
 20
29.72444971528783
 10
60.59300055435778
 20
29.7257576520551
 10
60.60847564177858
 20
29.72708777159278
 10
60.62393721908666
 20
29.72844042976976
 10
60.63938503151803
 20
29.72981598246315
 10
60.65481882430868
 20
29.73121478554185
 10
60.67023834271822
 20
29.73263719488022
 10
60.68564333197719
 20
29.73408356635081
 10
60.70103353732886
 20
29.7355542558289
 10
60.71640870401825
 20
29.73704961918338
 10
60.73176857728867
 20
29.73857001229134
 10
60.74711290237792
 20
29.74011579102262
 10
60.76244142452742
 20
29.74168731125064
 10
60.77775388899863
 20
29.74328492884797
 10
60.79305004100752
 20
29.74490899968805
 10
60.80832962580643
 20
29.74655987964522
 10
60.82359238864774
 20
29.74823792459028
 10
60.83883807476922
 20
29.74994349039389
 10
60.85406642939779
 20
29.75167693293587
 10
60.8692771977876
 20
29.75343860808242
 10
60.88447012519828
 20
29.75522887170882
 10
60.89964495683671
 20
29.75704807969032
 10
60.91480143797706
 20
29.7588965878931
 10
60.92993931384807
 20
29.76077475219699
 10
60.94505832968753
 20
29.76268292847361
 10
60.96015823075685
 20
29.76462147259008
 10
60.97523876226841
 20
29.76659074042617
 10
60.99029966949821
 20
29.76859108785173
 10
61.00534069765854
 20
29.77062287074113
 10
61.02036159201816
 20
29.77268644496507
 10
61.0353620977985
 20
29.7747821663961
 10
61.05034196024826
 20
29.77691039091132
 10
61.06530092461799
 20
29.77907147437598
 10
61.0802387361473
 20
29.78126577267175
 10
61.09515514007762
 20
29.7834936416657
 10
61.11004988163768
 20
29.78575543723309
 10
61.12492270608709
 20
29.78805151524466
 10
61.13977335866912
 20
29.79038223157657
 10
61.15460158461792
 20
29.79274794209777
 10
61.16940712917676
 20
29.79514900268441
 10
61.18418973759799
 20
29.79758576920721
 10
61.19894915510847
 20
29.80005859753873
 10
61.21368512695699
 20
29.80256784355333
 10
61.22839739838854
 20
29.80511386312628
 10
61.24308571464826
 20
29.80769701212375
 10
61.25774982097754
 20
29.81031764642466
 10
61.27238946260695
 20
29.81297612189882
 10
61.28700438479789
 20
29.81567279441879
 10
61.30159433277731
 20
29.81840801985891
 10
61.31615905179931
 20
29.82118215409355
 10
61.33069828708721
 20
29.82399555299162
 10
61.34521178390787
 20
29.82684857242929
 10
61.35969928748636
 20
29.82974156827821
 10
61.37416054308777
 20
29.83267489641002
 10
61.3885952959281
 20
29.83564891269816
 10
61.40300329125785
 20
29.8386639730179
 10
61.41738427431846
 20
29.84172043323906
 10
61.43173799036958
 20
29.84481864923509
 10
61.44606418462718
 20
29.84795897688126
 10
61.46036260235813
 20
29.85114177204832
 10
61.47463298877847
 20
29.85436739060606
 10
61.48887508915866
 20
29.8576361884343
 10
61.50308864872751
 20
29.86094852140013
 10
61.51727341271907
 20
29.86430474537883
 10
61.5314291263985
 20
29.86770521624293
 10
61.5455555349872
 20
29.87115028986773
 10
61.55965238373756
 20
29.87464032212028
 10
61.57371941788731
 20
29.87817566887951
 10
61.58775638267798
 20
29.88175668601161
 10
61.60176302335639
 20
29.88538372939638
 10
61.61573908517858
 20
29.88905715490273
 10
61.62968431335684
 20
29.89277731840592
 10
61.6435984531563
 20
29.89654457577671
 10
61.65748124980746
 20
29.90035928288944
 10
61.67133244856813
 20
29.90422179561392
 10
61.68515179466885
 20
29.90813246982543
 10
61.69893903334923
 20
29.91209166139651
 10
61.71269390985798
 20
29.91609972620244
 10
61.72641616942748
 20
29.92015702011121
 10
61.74010555731911
 20
29.92426389899992
 10
61.7537618187689
 20
29.92842071873655
 10
61.76738469900739
 20
29.93262783520185
 10
61.78097394328688
 20
29.93688560426106
 10
61.79452929684885
 20
29.94119438179131
 10
61.80805050493654
 20
29.94555452366148
 10
61.82153731278777
 20
29.94996638574775
 10
61.83498946565669
 20
29.95443032392268
 10
61.84840670876837
 20
29.9589466940597
 10
61.86178878737883
 20
29.96351585202774
 10
61.87513544672764
 20
29.96813815370478
 10
61.8884464320581
 20
29.97281395496155
 10
61.90172148859709
 20
29.97754361167062
 10
61.91496036161879
 20
29.9823274797036
 10
61.92816279633735
 20
29.98716591493666
 10
61.94132853800875
 20
29.99205927323965
 10
61.95445733186716
 20
29.99700791048597
 10
61.96754892315764
 20
30.00201218254915
 10
61.98060305713807
 20
30.00707244530349
 10
61.99361947902797
 20
30.01218905461792
 10
62.00659793407794
 20
30.01736236636769
 10
62.01953816753666
 20
30.02259273642903
 10
62.03243992464923
 20
30.02788052066989
 10
62.04530295064796
 20
30.03322607496193
 10
62.05812699076886
 20
30.03862975518313
 10
62.07091179027703
 20
30.0440919172006
 10
62.08365709439931
 20
30.04961291689506
 10
62.09636264837718
 20
30.05519311013268
 10
62.10902819745752
 20
30.06083285278691
 10
62.12165348687813
 20
30.06653250073394
 10
62.13423826188773
 20
30.07229240984452
 10
62.14678226772774
 20
30.07811293599115
 10
62.15928524964875
 20
30.08399443504913
 10
62.17174695287758
 20
30.08993726288645
 10
62.18416712265753
 20
30.09594177538019
 10
62.1965455042482
 20
30.10200832840201
 10
62.20888184286923
 20
30.10813727782533
 10
62.22117588377841
 20
30.1143289795209
 10
62.23342737221901
 20
30.12058378936671
 10
62.24563605342883
 20
30.12690206322804
 10
62.25780167264748
 20
30.13328415698379
 10
62.26992397511821
 20
30.13973042650468
 10
62.28200270609704
 20
30.14624122766235
 10
62.29403761080721
 20
30.15281691633207
 10
62.30602843449926
 20
30.15945784838641
 10
62.31797492241821
 20
30.16616437969513
 10
62.3298768197983
 20
30.17293686613538
 10
62.34173387189912
 20
30.17977566357604
 10
62.35354582393665
 20
30.18668112789237
 10
62.36531242117782
 20
30.19365361495784
 10
62.37703340885854
 20
30.20069348064135
 10
62.3887085322185
 20
30.20780108081998
 10
62.40033753649732
 20
30.21497677136721
 10
62.41192016693822
 20
30.22222090815194
 10
62.42345616878629
 20
30.22953384704851
 10
62.43494528728843
 20
30.23691594393131
 10
62.44638726768791
 20
30.24436755467104
 10
62.45778185520794
 20
30.2518890351439
 10
62.46912879510817
 20
30.25948074121879
 10
62.48042783263736
 20
30.26714302877008
 10
62.4916787130187
 20
30.27487625366939
 10
62.5028811815191
 20
30.28268077179381
 10
62.51403498334911
 20
30.29055693901227
 10
62.52513986377926
 20
30.29850511120002
 10
62.53619556803823
 20
30.30652564422597
 10
62.54720184136932
 20
30.31461889396541
 10
62.55815842901938
 20
30.32278521629176
 10
62.56906507622808
 20
30.33102496707943
 10
62.57992152823681
 20
30.33933850219909
 10
62.59072753029795
 20
30.34772617752333
 10
62.60148282763656
 20
30.35618834892466
 10
62.61218716550865
 20
30.36472537227837
 10
62.62284028915747
 20
30.37333760345336
 10
62.63344194381898
 20
30.38202539832673
 10
62.64399187472736
 20
30.3907891127692
 10
62.65448982714953
 20
30.3996291026533
 10
62.66493554630688
 20
30.40854572385251
 10
62.67532877744816
 20
30.41753933224026
 10
62.68566926581844
 20
30.4266102836882
 10
62.69595675665732
 20
30.43575893406887
 10
62.70619099520809
 20
30.44498563925662
 10
62.71637172671944
 20
30.45429075512402
 10
62.72649869641828
 20
30.46367463754358
 10
62.73657164955693
 20
30.47313764238969
 10
62.74659033138778
 20
30.48268012553035
 10
62.75655448712861
 20
30.49230244284354
 10
62.76646386204811
 20
30.50200495020181
 10
62.77631820137867
 20
30.51178800347406
 10
62.78611725034898
 20
30.52165195853648
 10
62.79586075422776
 20
30.53159717126345
 10
62.80554845822734
 20
30.54162399752204
 10
62.81518010761828
 20
30.55173279318842
 10
62.82475544763657
 20
30.56192391413786
 10
62.83427422350722
 20
30.5721977162384
 10
62.84373618048812
 20
30.58255455536709
 10
62.85314106381886
 20
30.59299478739467
 10
62.8624886187481
 20
30.60351876819368
 10
62.87177859050824
 20
30.6141268536403
 10
62.8810107243371
 20
30.62481939960162
 10
62.89018476549791
 20
30.63559676195473
 10
62.89930045921938
 20
30.64645929657217
 10
62.9083575507375
 20
30.65740735932377
 10
62.91735578530825
 20
30.6684413060866
 10
62.9262949081567
 20
30.67956149273141
 10
62.93517466455702
 20
30.69076827512981
 10
62.93851911506862
 20
30.69505067373484
  0
LINE
  5
DB
330
2
100
AcDbEntity
  8
0
100
AcDbLine
 10
49.32879618060906
 20
38.2472500478425
 30
0.0
 11
55.82092752614697
 21
41.13785002457372
 31
0.0
  0
ARC
  5
DC
330
2
100
AcDbEntity
  8
0
 48
0.6
100
AcDbCircle
 10
150.4670054251873
 20
97.00719811931595
 30
0.0
 40
116.9686661741607
100
AcDbArc
 50
210.1560153536115
 51
216.2412691602773
  0
ARC
  5
DD
330
2
100
AcDbEntity
  8
0
 48
0.6
100
AcDbCircle
 10
138.4085502091275
 20
89.78083044931919
 30
0.0
 40
95.84808274048763
100
AcDbArc
 50
210.4975034246499
 51
218.0575295674634
  0
ARC
  5
DE
330
2
100
AcDbEntity
  8
0
 48
0.6
100
AcDbCircle
 10
417.5577941818879
 20
107.0337631992514
 30
0.0
 40
232.2254273434368
100
AcDbArc
 50
196.9565249430637
 51
202.4768595541507
  0
ARC
  5
DF
330
2
100
AcDbEntity
  8
0
100
AcDbCircle
 10
196.1890292319676
 20
30.431399601066
 30
0.0
 40
8.907313409310658
100
AcDbArc
 50
24.23072274293526
 51
94.90087069773977
  0
ARC
  5
E0
330
2
100
AcDbEntity
  8
0
100
AcDbCircle
 10
200.7185624721369
 20
39.48102354147977
 30
0.0
 40
1.804069955425965
100
AcDbArc
 50
94.04501748590988
 51
178.3692744375835
  0
LINE
  5
E1
330
2
100
AcDbEntity
  8
0
100
AcDbLine
 10
198.9152231686784
 20
39.53236320109681
 30
0.0
 11
198.9152231686784
 21
38.91126391549732
 31
0.0
  0
LINE
  5
E2
330
2
100
AcDbEntity
  8
0
100
AcDbLine
 10
203.3973260938874
 20
35.79832367156268
 30
0.0
 11
203.3973260938874
 21
35.66405557315738
 31
0.0
  0
ARC
  5
E3
330
2
100
AcDbEntity
  8
0
 48
0.6
100
AcDbCircle
 10
448.7403060846211
 20
119.6284218086337
 30
0.0
 40
258.9646899351869
100
AcDbArc
 50
199.2882314313844
 51
203.0382987145169
  0
ARC
  5
E4
330
2
100
AcDbEntity
  8
0
100
AcDbCircle
 10
203.8970118467585
 20
35.78059944040797
 30
0.0
 40
0.5
100
AcDbArc
 50
90.0
 51
177.9685271120391
  0
LWPOLYLINE
  5
E5
330
2
100
AcDbEntity
  8
0
100
AcDbPolyline
 90
      467
 70
     0
 43
0.0
 10
202.9736003585129
 20
18.25159795184698
 10
202.975798640591
 20
18.25267303762973
 10
202.9960428908414
 20
18.26247513827127
 10
203.0162623562118
 20
18.27216704214277
 10
203.03645707983
 20
18.28174919145965
 10
203.0566271048118
 20
18.29122202842823
 10
203.0767724742416
 20
18.30058599526217
 10
203.0968932312624
 20
18.30984153417317
 10
203.1169894189495
 20
18.31898908737037
 10
203.1370610804513
 20
18.32802909706823
 10
203.1571082588615
 20
18.33696200547489
 10
203.1771309972809
 20
18.34578825480401
 10
203.1971293388413
 20
18.35450828726276
 10
203.2171033266422
 20
18.36312254506754
 10
203.2370530038003
 20
18.37163147042645
 10
203.256978413421
 20
18.38003550555128
 10
203.276879598612
 20
18.38833509265294
 10
203.2967566025015
 20
18.39653067394407
 10
203.31660946818
 20
18.40462269163379
 10
203.3364382387806
 20
18.41261158793292
 10
203.3562429573919
 20
18.42049780505601
 10
203.3760236671513
 20
18.42828178521029
 10
203.3957804111413
 20
18.43596397061024
 10
203.4155132324921
 20
18.44354480346498
 10
203.4352221743119
 20
18.45102472598717
 10
203.4549072797015
 20
18.45840418038675
 10
203.4745685917913
 20
18.46568360887284
 10
203.4942061536711
 20
18.47286345366172
 10
203.513820008471
 20
18.47994415696064
 10
203.53341019929
 20
18.48692616098322
 10
203.5529767692514
 20
18.49380990794032
 10
203.57251976145
 20
18.500595840041
 10
203.5920392190109
 20
18.50728439949796
 10
203.611535185042
 20
18.51387602852208
 10
203.6310077026499
 20
18.52037116932421
 10
203.650456814952
 20
18.52677026411709
 10
203.6698825650509
 20
18.53307375511247
 10
203.6892849960622
 20
18.53928208451578
 10
203.7086641511121
 20
18.54539569454516
 10
203.7280200732801
 20
18.55141502740787
 10
203.7473528057016
 20
18.55734052531748
 10
203.766662391481
 20
18.56317263048402
 10
203.7859488737411
 20
18.56891178511557
 10
203.8052122955722
 20
18.57455843142941
 10
203.8244527000914
 20
18.58011301163092
 10
203.8436701304215
 20
18.58557596793742
 10
203.862864629671
 20
18.59094774255516
 10
203.8820362409405
 20
18.59622877769596
 10
203.9011850073509
 20
18.60141951557341
 10
203.9203109720109
 20
18.60652039839568
 10
203.9394141780212
 20
18.61153186837544
 10
203.9584946685114
 20
18.6164543677254
 10
203.9775524865816
 20
18.62128833865552
 10
203.9965876753503
 20
18.62603422337576
 10
204.0156002779219
 20
18.63069246409793
 10
204.0345903374126
 20
18.63526350303289
 10
204.0535578969211
 20
18.63974778239333
 10
204.0725029995809
 20
18.64414574439011
 10
204.0914256884806
 20
18.64845783123507
 10
204.11032600675
 20
18.65268448513631
 10
204.1292039974921
 20
18.65682614830655
 10
204.1480597038116
 20
18.66088326295847
 10
204.1668931688306
 20
18.66485627130294
 10
204.1857044356618
 20
18.66874561554994
 10
204.2044935474004
 20
18.67255173791034
 10
204.2232605471725
 20
18.67627508059684
 10
204.2420054780904
 20
18.67991608581757
 10
204.260728383251
 20
18.68347519579071
 10
204.2794293057796
 20
18.68695285271804
 10
204.2981082887799
 20
18.69034949881859
 10
204.3167653753716
 20
18.69366557629962
 10
204.3354006086519
 20
18.69690152737291
 10
204.3540140317506
 20
18.70005779424844
 10
204.3726056877621
 20
18.70313481913978
 10
204.3911756198121
 20
18.70613304425877
 10
204.4097238710018
 20
18.70905291181441
 10
204.4282504844303
 20
18.71189486401761
 10
204.4467555032404
 20
18.71465934308196
 10
204.4652389705205
 20
18.71734679121561
 10
204.4837009293804
 20
18.71995765063218
 10
204.5021414229503
 20
18.72249236354162
 10
204.5205604943291
 20
18.72495137215389
 10
204.5389581866217
 20
18.72733511868444
 10
204.557334542951
 20
18.72964404533957
 10
204.5756896064212
 20
18.73187859433198
 10
204.5940234201496
 20
18.7340392078753
 10
204.6123360272412
 20
18.73612632818035
 10
204.630627470811
 20
18.73814039745537
 10
204.6488977939715
 20
18.74008185791296
 10
204.6671470398304
 20
18.74195115176496
 10
204.6853752514996
 20
18.74374872122223
 10
204.7035824720913
 20
18.74547500849655
 10
204.7217687447209
 20
18.74713045579607
 10
204.7399341124909
 20
18.74871550533533
 10
204.7580786185207
 20
18.75023059932335
 10
204.7762023059111
 20
18.75167617997282
 10
204.7943052177923
 20
18.75305268949739
 10
204.8123873972506
 20
18.7543605700997
 10
204.8304488874201
 20
18.7556002640025
 10
204.8484897313918
 20
18.75677221340846
 10
204.866509972302
 20
18.75787686053206
 10
204.8845096532294
 20
18.75891464758422
 10
204.9024888173206
 20
18.75988601677398
 10
204.920447507662
 20
18.76079141031494
 10
204.9383857673709
 20
18.76163127041706
 10
204.956303639561
 20
18.76240603929305
 10
204.9742011673405
 20
18.76311615915381
 10
204.9920783938304
 20
18.76376207220926
 10
205.0099353621298
 20
18.7643442206721
 10
205.0277721153506
 20
18.76486304674959
 10
205.045588696621
 20
18.76531899265717
 10
205.0633851490219
 20
18.76571250060749
 10
205.0811615156908
 20
18.7660440128069
 10
205.0989178397303
 20
18.76631397146989
 10
205.1166541642504
 20
18.76652281880467
 10
205.1343705323706
 20
18.76667099702661
 10
205.1520669871915
 20
18.76675894834205
 10
205.1697435718214
 20
18.76678711496641
 10
205.1874003293796
 20
18.76675593910784
 10
205.2050373029814
 20
18.76666586297995
 10
205.2226545357295
 20
18.7665173287936
 10
205.2402520707417
 20
18.76631077875698
 10
205.2578299511206
 20
18.76604665508455
 10
205.2753882199922
 20
18.76572539998721
 10
205.2929269204414
 20
18.76534745567401
 10
205.3104460956109
 20
18.76491326435951
 10
205.3279457885909
 20
18.76442326825179
 10
205.3454260425004
 20
18.76387790956356
 10
205.3628869004513
 20
18.76327763050572
 10
205.38032840555
 20
18.76262287328916
 10
205.3977506009213
 20
18.7619140801238
 10
205.4151535296511
 20
18.76115169322417
 10
205.4325372348809
 20
18.76033615479935
 10
205.4499017596917
 20
18.75946790705835
 10
205.4672471472203
 20
18.75854739221755
 10
205.4845734405625
 20
18.75757505248419
 10
205.5018806828301
 20
18.75655133007183
 10
205.5191689171514
 20
18.75547666718955
 10
205.5364381866219
 20
18.75435150604915
 10
205.5536885343498
 20
18.75317628886239
 10
205.5709200034506
 20
18.75195145784108
 10
205.5881326370417
 20
18.75067745519425
 10
205.6053264782294
 20
18.74935472313551
 10
205.6225015701309
 20
18.74798370387214
 10
205.6396579558511
 20
18.74656483962132
 10
205.6567956785019
 20
18.74509857258943
 10
205.6739147811911
 20
18.74358534499095
 10
205.6910153070421
 20
18.74202559903404
 10
205.7080972991497
 20
18.74041977692957
 10
205.7251608006408
 20
18.73876832089115
 10
205.7422058546126
 20
18.73707167313239
 10
205.7592325041805
 20
18.73533027585779
 10
205.776240792471
 20
18.73354457128277
 10
205.7932307625705
 20
18.73171500161912
 10
205.8102024576109
 20
18.7298420090741
 10
205.8271559207004
 20
18.72792603586401
 10
205.8440911949418
 20
18.72596752419611
 10
205.8610083234415
 20
18.72396691628398
 10
205.8779073493204
 20
18.72192465433851
 10
205.8947883156906
 20
18.71984118056878
 10
205.9116512656709
 20
18.71771693718653
 10
205.9284962423514
 20
18.71555236640541
 10
205.9453232888607
 20
18.71334791043626
 10
205.9621324483013
 20
18.71110401148449
 10
205.9789237637921
 20
18.70882111176921
 10
205.9956972784311
 20
18.70649965349764
 10
206.0124530353422
 20
18.70414007888155
 10
206.0291910776303
 20
18.70174283013271
 10
206.0459114484218
 20
18.69930834946115
 10
206.0626141908013
 20
18.69683707907678
 10
206.0792993479007
 20
18.69432946119502
 10
206.0959669628208
 20
18.69178593802405
 10
206.1126170786809
 20
18.68920695177473
 10
206.12924973858
 20
18.68659294466158
 10
206.1458649856503
 20
18.68394435889182
 10
206.1624628629814
 20
18.68126163668001
 10
206.1790434136909
 20
18.67854522023151
 10
206.1956066809014
 20
18.67579555176632
 10
206.2121527077104
 20
18.67301307348805
 10
206.2286815372298
 20
18.67019822761119
 10
206.2451932125803
 20
18.66735145634664
 10
206.2616877768721
 20
18.66447320190616
 10
206.2781652732009
 20
18.66156390649882
 10
206.2946257447019
 20
18.65862401233732
 10
206.3110692344614
 20
18.65565396163254
 10
206.3274957856119
 20
18.65265419659897
 10
206.3439054412519
 20
18.64962515944114
 10
206.3602982445007
 20
18.64656729237445
 10
206.3766742384613
 20
18.64348103760982
 10
206.3930334662615
 20
18.64036683735719
 10
206.4093759709812
 20
18.63722513383105
 10
206.4257017957623
 20
18.63405636923687
 10
206.4420109837008
 20
18.63086098579095
 10
206.4583035779214
 20
18.62763942570325
 10
206.474579621521
 20
18.62439213118284
 10
206.4908391576117
 20
18.62111954444242
 10
206.5070822293109
 20
18.61782210769557
 10
206.5233088797211
 20
18.61450026314957
 10
206.5395191519709
 20
18.61115445301619
 10
206.5557130891499
 20
18.60778511950718
 10
206.5718907343906
 20
18.60439270483528
 10
206.5880521307917
 20
18.60097765121042
 10
206.6041973214613
 20
18.59754040084443
 10
206.6203263495206
 20
18.59408139594539
 10
206.6364392580798
 20
18.59060107872879
 10
206.6525360902414
 20
18.58709989140459
 10
206.6686168891318
 20
18.5835782761818
 10
206.6846816978413
 20
18.58003667527498
 10
206.7007305594905
 20
18.57647553089316
 10
206.7167635172006
 20
18.57289528524723
 10
206.7327806140708
 20
18.56929638054987
 10
206.748781893222
 20
18.56567925901014
 10
206.7647673977607
 20
18.56204436284257
 10
206.7807371707912
 20
18.55839213425619
 10
206.7966912554309
 20
18.55472301546013
 10
206.8126296947919
 20
18.55103744866972
 10
206.8285525319804
 20
18.54733587609496
 10
206.8444598101211
 20
18.54361873994401
 10
206.8603515723205
 20
18.53988648243228
 10
206.8762278616704
 20
18.53613954576882
 10
206.8920887213116
 20
18.53237837216452
 10
206.9079341943306
 20
18.52860340383119
 10
206.9237643238518
 20
18.52481508298057
 10
206.9395791529804
 20
18.52101385182357
 10
206.9553787248421
 20
18.51720015256921
 10
206.9711630825312
 20
18.51337442743112
 10
206.986932269161
 20
18.50953711861928
 10
207.0026863278505
 20
18.50568866834634
 10
207.0184253017123
 20
18.50182951882231
 10
207.034149233841
 20
18.49796011225897
 10
207.0498581673708
 20
18.49408089086806
 10
207.0655521453917
 20
18.4901922968605
 10
207.0812312110299
 20
18.48629477244537
 10
207.0968954073923
 20
18.48238875983257
 10
207.1125447775921
 20
18.47847470124123
 10
207.1281793647302
 20
18.47455303887489
 10
207.1437992119299
 20
18.47062421494717
 10
207.1594043623005
 20
18.46668867166989
 10
207.1749948589494
 20
18.46274685125298
 10
207.1905707449912
 20
18.45879919590914
 10
207.206132063531
 20
18.45484614784925
 10
207.2216788576805
 20
18.45088814928329
 10
207.2372111705607
 20
18.44692564242484
 10
207.2527290452816
 20
18.44295906948116
 10
207.2682325249515
 20
18.43898887266766
 10
207.2837216526713
 20
18.43501549419158
 10
207.299196471571
 20
18.43103937626745
 10
207.3146570247408
 20
18.42706096110428
 10
207.3301033553105
 20
18.42308069091393
 10
207.3455355063814
 20
18.41909900790813
 10
207.3609535210706
 20
18.41511635429957
 10
207.3763574424809
 20
18.41113317229463
 10
207.3917473137297
 20
18.40714990410867
 10
207.4071231779305
 20
18.40316699195351
 10
207.42248507819
 20
18.39918487803548
 10
207.4378330576309
 20
18.39520400457093
 10
207.4531671593411
 20
18.39122481376705
 10
207.468487426451
 20
18.38724774783657
 10
207.4837939020726
 20
18.38327324899307
 10
207.4990866293008
 20
18.3793017594438
 10
207.5143656512627
 20
18.37533372140513
 10
207.5296310110624
 20
18.37136957708151
 10
207.5448827518119
 20
18.36740976868838
 10
207.5601209166215
 20
18.36345473843664
 10
207.5753455486009
 20
18.35950492853714
 10
207.5905566908713
 20
18.35556078120077
 10
207.6057543865426
 20
18.35162273863841
 10
207.6209386787122
 20
18.34769124306001
 10
207.6361096105009
 20
18.343766736681
 10
207.6512672250209
 20
18.33984966170863
 10
207.66641156538
 20
18.33594046035557
 10
207.6815426746905
 20
18.33203957483362
 10
207.6966605960713
 20
18.32814744735185
 10
207.7117653726217
 20
18.32426452012385
 10
207.7268570474515
 20
18.32039123536048
 10
207.7419356636909
 20
18.31652803527084
 10
207.75700126443
 20
18.31267536206755
 10
207.7720538927914
 20
18.30883365796339
 10
207.7870935918799
 20
18.30500336516741
 10
207.8021204048198
 20
18.30118492588951
 10
207.8171343747015
 20
18.29737878234425
 10
207.8321355446623
 20
18.29358537673885
 10
207.8471239577809
 20
18.28980515129058
 10
207.8620996572007
 20
18.28603854820483
 10
207.8770626860204
 20
18.28228600969429
 10
207.8920130873409
 20
18.27854797797261
 10
207.906950904291
 20
18.2748248952488
 10
207.9218761799709
 20
18.27111720373192
 10
207.9367889574913
 20
18.26742534563562
 10
207.9516892799619
 20
18.26374976317436
 10
207.9665771905109
 20
18.2600908985545
 10
207.9814527322304
 20
18.25644919398963
 10
207.9963159482411
 20
18.2528250916888
 10
208.0111668816496
 20
18.24921903386562
 10
208.0260055755715
 20
18.24563146272828
 10
208.0408320731109
 20
18.24206282049214
 10
208.0556464173913
 20
18.23851354936357
 10
208.0704486515114
 20
18.23498409155887
 10
208.0852388185919
 20
18.23147488928531
 10
208.1000169617416
 20
18.22798638475557
 10
208.1147831240613
 20
18.22451902018145
 10
208.1295373486809
 20
18.22107323777107
 10
208.1442796787013
 20
18.21764947973894
 10
208.1590101572309
 20
18.21424818829598
 10
208.1737288273906
 20
18.21086980565212
 10
208.1884357322706
 20
18.20751477401914
 10
208.2031309150114
 20
18.20418353560797
 10
208.2178144187125
 20
18.20087653263214
 10
208.2324862864714
 20
18.19759420729804
 10
208.2471465614215
 20
18.19433700182014
 10
208.261795286651
 20
18.19110535840934
 10
208.2764325052921
 20
18.1878997192747
 10
208.2910582604508
 20
18.18472052663071
 10
208.30567259523
 20
18.18156822268827
 10
208.3202755527417
 20
18.17844324965552
 10
208.3348671761121
 20
18.17534604974605
 10
208.3494475084298
 20
18.17227706516985
 10
208.3640165928315
 20
18.16923673814051
 10
208.3785744724008
 20
18.16622551086526
 10
208.3931211902708
 20
18.16324382555682
 10
208.4076567895517
 20
18.1602921244297
 10
208.4221813133406
 20
18.15737084969019
 10
208.4366948047517
 20
18.15448044355196
 10
208.4511973069111
 20
18.15162134822855
 10
208.4656888629214
 20
18.14879400592542
 10
208.48016951588
 20
18.14599885885889
 10
208.494639308921
 20
18.14323634923619
 10
208.5090982851414
 20
18.14050691927093
 10
208.5235464876604
 20
18.1378110111758
 10
208.5379839595804
 20
18.13514906715807
 10
208.5524107440213
 20
18.13252152943039
 10
208.5668268840926
 20
18.12992884020546
 10
208.5812324229006
 20
18.12737144169421
 10
208.5956274035615
 20
18.12484977610564
 10
208.6100118691809
 20
18.12236428565153
 10
208.6243858628713
 20
18.11991541254736
 10
208.6387494277494
 20
18.11750359899759
 10
208.6531026069295
 20
18.11512928721764
 10
208.6674454435214
 20
18.11279291941935
 10
208.6817779806223
 20
18.11049493781172
 10
208.6961002613515
 20
18.10823578460293
 10
208.7104123288299
 20
18.10601590201201
 10
208.7247142261511
 20
18.10383573224441
 10
208.7390059964416
 20
18.10169571751192
 10
208.7532876828117
 20
18.09959630002719
 10
208.7675593283619
 20
18.09753792200022
 10
208.7818209762115
 20
18.09552102564556
 10
208.7960726694709
 20
18.09354605316855
 10
208.8103144512515
 20
18.09161344678285
 10
208.8245463646614
 20
18.08972364870293
 10
208.8387684528114
 20
18.08787710113698
 10
208.8529807588201
 20
18.08607424629496
 10
208.8671833257903
 20
18.08431552639228
 10
208.8813761968502
 20
18.08260138363527
 10
208.8955594150812
 20
18.08093226023753
 10
208.9097330236199
 20
18.07930859840906
 10
208.9238970655623
 20
18.07773084036432
 10
208.938051584042
 20
18.0761994283115
 10
208.9521966221417
 20
18.07471480446236
 10
208.9663322229807
 20
18.07327741102687
 10
208.9804584296795
 20
18.07188769021775
 10
208.9945752853508
 20
18.07054608424947
 10
209.0086828331004
 20
18.06925303532569
 10
209.0227811160311
 20
18.06800898566269
 10
209.0368701772713
 20
18.06681437747227
 10
209.05095005992
 20
18.06566965296348
 10
209.0650208070909
 20
18.06457525434723
 10
209.0790824619015
 20
18.06353162383437
 10
209.0931350674508
 20
18.06253920364031
 10
209.1071786668616
 20
18.06159843597141
 10
209.1212133032294
 20
18.06070976303851
 10
209.1352390196915
 20
18.05987362705798
 10
209.1492558593416
 20
18.05909047023794
 10
209.1632638652916
 20
18.05836073478928
 10
209.1772630806497
 20
18.05768486292198
 10
209.1912535485406
 20
18.0570632968496
 10
209.2052353120614
 20
18.05649647878214
 10
209.2192084143407
 20
18.05598485093049
 10
209.2331728984626
 20
18.05552885550731
 10
209.247128807563
 20
18.05512893472439
 10
209.2610761847517
 20
18.05478553078716
 10
209.2750150731208
 20
18.05449908591469
 10
209.2889455158
 20
18.05427004231512
 10
209.3028675558798
 20
18.05409884219751
 10
209.3167812365008
 20
18.05398592777271
 10
209.3306866007623
 20
18.05393174125799
 10
209.3445836917616
 20
18.05393672485877
 10
209.3584725526306
 20
18.05400132078592
 10
209.3723532264611
 20
18.05412597125485
 10
209.3862257563813
 20
18.0543111184728
 10
209.4000901854923
 20
18.05455720465523
 10
209.4139465569113
 20
18.05486467200842
 10
209.4277949137413
 20
18.055233962746
 10
209.441635299101
 20
18.05566551907882
 10
209.4554677561008
 20
18.05615978321871
 10
209.4692923278507
 20
18.05671719737835
 10
209.4831090574625
 20
18.05733820376496
 10
209.4969179880408
 20
18.05802324459126
 10
209.510719162712
 20
18.05877276207082
 10
209.5245126245715
 20
18.0595871984109
 10
209.5382984167426
 20
18.06046699582601
 10
209.5520765823311
 20
18.06141259652701
 10
209.5658471644509
 20
18.06242444272116
 10
209.579610206201
 20
18.06350297662573
 10
209.593365750712
 20
18.06464864044698
 10
209.6071138410805
 20
18.06586187639857
 10
209.6208545204316
 20
18.06714312669044
 10
209.6345878318623
 20
18.06849283353529
 10
209.6483138184811
 20
18.06991143914307
 10
209.6620325234216
 20
18.07139938572471
 10
209.6757439897809
 20
18.07295711549466
 10
209.6894482606621
 20
18.07458507065837
 10
209.7031453791914
 20
18.07628369343127
 10
209.7168353884697
 20
18.07805342602512
 10
209.730518331622
 20
18.07989471064626
 10
209.7441942517414
 20
18.08180798951013
 10
209.7578631919513
 20
18.08379370482578
 10
209.7715251953504
 20
18.08585229880953
 10
209.7851803050708
 20
18.08798421366498
 10
209.7988285642003
 20
18.09018989160573
 10
209.8124700158713
 20
18.09246977484725
 10
209.8261047031809
 20
18.09482430559489
 10
209.8397326692501
 20
18.0972539260623
 10
209.8533539571798
 20
18.09975907846398
 10
209.866968610091
 20
18.10234020500627
 10
209.8805766710921
 20
18.10499774790092
 10
209.8941781832908
 20
18.10773214936251
 10
209.9077731898013
 20
18.11054385159912
 10
209.9213617337297
 20
18.11343329681982
 10
209.9349438582011
 20
18.1164009272428
 10
209.9485196063014
 20
18.11944718507255
 10
209.9620890211698
 20
18.12257251252538
 10
209.9756521459001
 20
18.12577735180763
 10
209.9892090236116
 20
18.12906214513385
 10
210.0027596974213
 20
18.13242733471576
 10
210.0163042104211
 20
18.13587336276157
 10
210.0298426057305
 20
18.13940067148303
 10
210.0433749264701
 20
18.14300970309466
 10
210.0569012157502
 20
18.14670089980371
 10
210.0704215166714
 20
18.15047470382194
 10
210.0839358723423
 20
18.15433155736298
 10
210.0974443258909
 20
18.15827190263587
 10
210.1109469204219
 20
18.16229618185423
 10
210.1244436990418
 20
18.16640483722529
 10
210.1379347048621
 20
18.17059831096447
 10
210.1514199809916
 20
18.17487704527901
 10
210.1648995705617
 20
18.17924148238251
 10
210.1783735166498
 20
18.18369206448767
 10
210.1918418623915
 20
18.18822923380082
 10
210.2053046509008
 20
18.19285343253557
 10
210.2187619252708
 20
18.19756510290551
 10
210.2322137286301
 20
18.20236468711879
 10
210.2456601040811
 20
18.20725262738903
 10
210.2591010947306
 20
18.21222936592619
 10
210.2725367437014
 20
18.21729534494021
 10
210.2859670940924
 20
18.22245100664475
 10
210.2993921890299
 20
18.22769679324789
 10
210.3128120716118
 20
18.23303314696421
 10
210.3262267849513
 20
18.23846051000089
 10
210.3396363721619
 20
18.24397932457246
 10
210.3530408763615
 20
18.24959003289166
 10
210.3664403406509
 20
18.25529307716476
 10
210.3798348081508
 20
18.26108889960539
 10
210.3932243219714
 20
18.26697794242534
 10
210.4066089252119
 20
18.27296064783548
 10
210.4199886609911
 20
18.27903745804486
 10
210.4297417209799
 20
18.28353764614201
  0
LEADER
  5
E6
330
2
100
AcDbEntity
  8
0
100
AcDbLeader
  3
1_1_2
 74
     0
 40
13.0
 41
28.50892857142855
 76
     2
 10
197.0190060183285
 20
33.49390408571707
 30
0.0
 10
186.9179898490074
 20
19.27857380602835
 30
0.0
1001
ACAD
1000
DSTYLE
1002
{
1070
     5
1000

1070
   342
1005
0
1002
}
  0
LINE
  5
E7
330
2
100
AcDbEntity
  8
0
100
AcDbLine
 10
194.4268979050775
 20
42.88092364492238
 30
0.0
 11
194.4268979050775
 21
42.38092364492239
 31
0.0
  0
LINE
  5
E8
330
2
100
AcDbEntity
  8
0
100
AcDbLine
 10
204.4268979050775
 20
42.88092364492238
 30
0.0
 11
204.4268979050775
 21
42.38092364492239
 31
0.0
  0
LINE
  5
E9
330
2
100
AcDbEntity
  8
0
100
AcDbLine
 10
186.9268979050773
 20
133.3809236449224
 30
0.0
 11
186.9268979050773
 21
42.38092364492239
 31
0.0
  0
LINE
  5
EA
330
2
100
AcDbEntity
  8
0
100
AcDbLine
 10
193.5268979050779
 20
133.3809236449224
 30
0.0
 11
193.5268979050779
 21
42.38092364492239
 31
0.0
  0
LWPOLYLINE
  5
EB
330
2
100
AcDbEntity
  8
0
100
AcDbPolyline
 90
        8
 70
     1
 43
0.0
 10
-7.917724456321592
 20
42.88092364492238
 10
72.08227554367841
 20
42.88092364492238
 42
0.4142135623730951
 10
77.08227554367841
 20
47.88092364492422
 10
77.08227554367841
 20
127.8809236449224
 42
0.4142135623730951
 10
72.08227554367841
 20
132.880923644924
 10
-7.917724456321592
 20
132.880923644924
 42
0.4142135623730951
 10
-12.9177244563125
 20
127.8809236449224
 10
-12.9177244563125
 20
47.88092364492238
 42
0.4142135623730951
  0
LINE
  5
EC
330
2
100
AcDbEntity
  8
0
100
AcDbLine
 10
203.9268979050774
 20
41.8809236449224
 30
0.0
 11
194.9268979050775
 21
41.8809236449224
 31
0.0
  0
LINE
  5
ED
330
2
100
AcDbEntity
  8
0
100
AcDbLine
 10
186.9268979050773
 20
42.38092364492239
 30
0.0
 11
193.5268979050779
 21
42.38092364492239
 31
0.0
  0
ARC
  5
EE
330
2
100
AcDbEntity
  8
0
100
AcDbCircle
 10
194.9268979050775
 20
42.38092364492239
 30
0.0
 40
0.5
100
AcDbArc
 50
180.0
 51
270.0
  0
ARC
  5
EF
330
2
100
AcDbEntity
  8
0
100
AcDbCircle
 10
203.9268979050774
 20
42.38092364492239
 30
0.0
 40
0.5
100
AcDbArc
 50
270.0
 51
0.0
  0
DIMENSION
  5
F0
102
{ACAD_XDICTIONARY
360
F1
102
}
102
{ACAD_REACTORS
330
F2
102
}
330
2
100
AcDbEntity
  8
0
100
AcDbDimension
  2
*D32
 10
126.5899361436676
 20
93.88092364492424
 30
0.0
 11
126.5899361436676
 21
87.88092364492333
 31
0.0
 70
   160
  1
\A1;{\f??|b0|i0|c0|p49;%%C}12{\f??|b0|i0|c0|p49;\H0.7x;\S+0^ -0.018;\H1.429x;(h}7{\f??|b0|i0|c0|p49;)}
  3
1_1_2
100
AcDbAlignedDimension
 13
149.9268979050774
 23
81.8809236449224
 33
0.0
 14
179.9268979050775
 24
93.88092364492422
 34
0.0
 50
90.0
100
AcDbRotatedDimension
  0
DIMENSION
  5
FF
102
{ACAD_XDICTIONARY
360
100
102
}
102
{ACAD_REACTORS
330
101
102
}
330
2
100
AcDbEntity
  8
0
100
AcDbDimension
  2
*D31
 10
137.4584170243688
 20
92.88092364492241
 30
0.0
 11
137.4584170243688
 21
87.3809236449224
 31
0.0
 70
   160
  1
<>
  3
1_1_2
100
AcDbAlignedDimension
 13
149.9268979050774
 23
81.8809236449224
 33
0.0
 14
149.9268979050774
 24
92.88092364492241
 34
0.0
 50
90.0
100
AcDbRotatedDimension
  0
DIMENSION
  5
10E
102
{ACAD_XDICTIONARY
360
10F
102
}
102
{ACAD_REACTORS
330
110
102
}
330
2
100
AcDbEntity
  8
0
100
AcDbDimension
  2
*D30
 10
114.110816068998
 20
46.38092364492425
 30
0.0
 11
114.110816068998
 21
89.24588027767461
 31
0.0
 70
   160
  1
\A1;{\f??|b0|i0|c0|p49;%%C}<>{\f??|b0|i0|c0|p49;\H0.7x;\S+0^ -0.035;\H1.429x;(h}7{\f??|b0|i0|c0|p49;)}
  3
1_1_2
100
AcDbAlignedDimension
 13
184.9268979050775
 23
129.3809236449222
 33
0.0
 14
184.9268979050775
 24
46.38092364492422
 34
0.0
 50
90.0
100
AcDbRotatedDimension
  0
ARC
  5
11D
330
2
100
AcDbEntity
  8
0
 48
0.6
100
AcDbCircle
 10
32.00681122949936
 20
87.88092364492422
 30
0.0
 40
36.81561599999999
100
AcDbArc
 50
296.3656725032108
 51
333.6343274967831
  0
ARC
  5
11E
330
2
100
AcDbEntity
  8
0
 48
0.6
100
AcDbCircle
 10
32.00681122949936
 20
87.88092364492422
 30
0.0
 40
36.81561599999999
100
AcDbArc
 50
206.3656725032168
 51
243.634327496789
  0
CIRCLE
  5
11F
330
2
100
AcDbEntity
  8
0
100
AcDbCircle
 10
-4.687277078022816
 20
51.11137102322209
 30
0.0
 40
3.25
  0
LINE
  5
120
330
2
100
AcDbEntity
  8
CL
 48
0.6
100
AcDbLine
 10
-0.9749664767932699
 20
54.82368162445073
 30
0.0
 11
-8.399587679250544
 21
47.39906042199345
 31
0.0
  0
ARC
  5
121
330
2
100
AcDbEntity
  8
0
 48
0.6
100
AcDbCircle
 10
20.80152218943839
 20
52.81197614163829
 30
0.0
 40
3.067967999999998
100
AcDbArc
 50
72.28019184719491
 51
128.0513255193867
  0
ARC
  5
122
330
2
100
AcDbEntity
  8
0
 48
0.6
100
AcDbCircle
 10
17.01953294139821
 20
57.64377372885246
 30
0.0
 40
3.067967999999998
100
AcDbArc
 50
243.634327496789
 51
308.0513255193868
  0
ARC
  5
123
330
2
100
AcDbEntity
  8
0
 48
0.6
100
AcDbCircle
 10
43.21210026956761
 20
52.81197614163829
 30
0.0
 40
3.067967999999998
100
AcDbArc
 50
51.94867448061305
 51
107.7198081528049
  0
ARC
  5
124
330
2
100
AcDbEntity
  8
0
 48
0.6
100
AcDbCircle
 10
46.9940895175987
 20
57.64377372885246
 30
0.0
 40
3.067967999999998
100
AcDbArc
 50
231.948674480613
 51
296.3656725032108
  0
ARC
  5
125
330
2
100
AcDbEntity
  8
0
 48
0.6
100
AcDbCircle
 10
32.00681122949936
 20
87.88092364492422
 30
0.0
 40
33.74764799999999
100
AcDbArc
 50
252.2801918471949
 51
287.7198081528051
  0
CIRCLE
  5
126
330
2
100
AcDbEntity
  8
0
100
AcDbCircle
 10
68.85182816538691
 20
51.11137102322209
 30
0.0
 40
3.25
  0
LINE
  5
127
330
2
100
AcDbEntity
  8
CL
 48
0.6
100
AcDbLine
 10
65.13951756415735
 20
54.82368162445073
 30
0.0
 11
72.56413876660736
 21
47.39906042199345
 31
0.0
  0
ARC
  5
128
330
2
100
AcDbEntity
  8
CL
 48
0.6
100
AcDbCircle
 10
32.0822755436784
 20
87.88092364492422
 30
0.0
 40
52.0
100
AcDbArc
 50
309.2128702778031
 51
320.7871297221961
  0
LINE
  5
129
330
2
100
AcDbEntity
  8
CL
 48
0.6
100
AcDbLine
 10
-17.17100067072169
 20
87.88092364492422
 30
0.0
 11
81.3355517580876
 21
87.88092364492422
 31
0.0
  0
CIRCLE
  5
12A
330
2
100
AcDbEntity
  8
0
100
AcDbCircle
 10
-4.687277078011902
 20
124.6504762666235
 30
0.0
 40
3.25
  0
LINE
  5
12B
330
2
100
AcDbEntity
  8
CL
 48
0.6
100
AcDbLine
 10
-0.9749664767932699
 20
120.9381656653939
 30
0.0
 11
-8.399587679250544
 21
128.362786867853
 31
0.0
  0
ARC
  5
12C
330
2
100
AcDbEntity
  8
CL
 48
0.6
100
AcDbCircle
 10
32.0822755436784
 20
87.88092364492422
 30
0.0
 40
52.0
100
AcDbArc
 50
129.2128702778031
 51
140.7871297221961
  0
ARC
  5
12D
330
2
100
AcDbEntity
  8
0
 48
0.6
100
AcDbCircle
 10
32.00681122949936
 20
87.88092364492422
 30
0.0
 40
36.81561599999999
100
AcDbArc
 50
26.36567250321681
 51
63.63432749678904
  0
ARC
  5
12E
330
2
100
AcDbEntity
  8
0
 48
0.6
100
AcDbCircle
 10
32.00681122949936
 20
87.88092364492422
 30
0.0
 40
36.81561599999999
100
AcDbArc
 50
116.3656725032109
 51
153.634327496783
  0
ARC
  5
12F
330
2
100
AcDbEntity
  8
0
 48
0.6
100
AcDbCircle
 10
1.769661313428514
 20
102.8682019330253
 30
0.0
 40
3.067967999999998
100
AcDbArc
 50
153.634327496783
 51
218.0513255193776
  0
ARC
  5
130
330
2
100
AcDbEntity
  8
0
 48
0.6
100
AcDbCircle
 10
-3.062136273782015
 20
99.0862126849861
 30
0.0
 40
3.067967999999998
100
AcDbArc
 50
342.2801918472013
 51
38.05132551937779
  0
ARC
  5
131
330
2
100
AcDbEntity
  8
0
 48
0.6
100
AcDbCircle
 10
20.80152218943839
 20
122.9498711482073
 30
0.0
 40
3.067967999999998
100
AcDbArc
 50
231.948674480613
 51
287.7198081528051
  0
ARC
  5
132
330
2
100
AcDbEntity
  8
0
 48
0.6
100
AcDbCircle
 10
17.01953294139821
 20
118.1180735609923
 30
0.0
 40
3.067967999999998
100
AcDbArc
 50
51.94867448061305
 51
116.3656725032109
  0
ARC
  5
133
330
2
100
AcDbEntity
  8
0
 48
0.6
100
AcDbCircle
 10
43.21210026956761
 20
122.9498711482073
 30
0.0
 40
3.067967999999998
100
AcDbArc
 50
252.2801918471949
 51
308.0513255193868
  0
ARC
  5
134
330
2
100
AcDbEntity
  8
0
 48
0.6
100
AcDbCircle
 10
46.9940895175987
 20
118.1180735609923
 30
0.0
 40
3.067967999999998
100
AcDbArc
 50
63.63432749678904
 51
128.0513255193867
  0
ARC
  5
135
330
2
100
AcDbEntity
  8
0
 48
0.6
100
AcDbCircle
 10
32.00681122949936
 20
87.88092364492422
 30
0.0
 40
33.74764799999999
100
AcDbArc
 50
72.28019184719491
 51
107.7198081528049
  0
ARC
  5
136
330
2
100
AcDbEntity
  8
0
 48
0.6
100
AcDbCircle
 10
62.24396114556839
 20
102.8682019330253
 30
0.0
 40
3.067967999999998
100
AcDbArc
 50
321.9486744806221
 51
26.36567250321681
  0
ARC
  5
137
330
2
100
AcDbEntity
  8
0
 48
0.6
100
AcDbCircle
 10
67.07575873278802
 20
99.0862126849861
 30
0.0
 40
3.067967999999998
100
AcDbArc
 50
141.9486744806222
 51
197.7198081527984
  0
ARC
  5
138
102
{ACAD_REACTORS
330
145
102
}
330
2
100
AcDbEntity
  8
CL
 48
0.6
100
AcDbCircle
 10
32.0822755436784
 20
87.88092364492422
 30
0.0
 40
51.9999999999996
100
AcDbArc
 50
35.9002433753803
 51
54.09975662461928
  0
LINE
  5
139
330
2
100
AcDbEntity
  8
CL
 48
0.6
100
AcDbLine
 10
65.13951756415735
 20
120.9381656653939
 30
0.0
 11
72.56413876660736
 21
128.362786867853
 31
0.0
  0
CIRCLE
  5
13A
330
2
100
AcDbEntity
  8
0
100
AcDbCircle
 10
68.85182816538691
 20
124.6504762666226
 30
0.0
 40
3.25
  0
ARC
  5
13B
330
2
100
AcDbEntity
  8
0
 48
0.6
100
AcDbCircle
 10
1.769661313428514
 20
72.89364535681944
 30
0.0
 40
3.067967999999998
100
AcDbArc
 50
141.9486744806222
 51
206.3656725032168
  0
ARC
  5
13C
330
2
100
AcDbEntity
  8
0
 48
0.6
100
AcDbCircle
 10
62.24396114556839
 20
72.89364535681944
 30
0.0
 40
3.067967999999998
100
AcDbArc
 50
333.6343274967831
 51
38.05132551937779
  0
ARC
  5
13D
330
2
100
AcDbEntity
  8
0
 48
0.6
100
AcDbCircle
 10
-3.062136273782015
 20
76.67563460485872
 30
0.0
 40
3.067967999999998
100
AcDbArc
 50
321.9486744806221
 51
17.71980815279839
  0
ARC
  5
13E
330
2
100
AcDbEntity
  8
0
 48
0.6
100
AcDbCircle
 10
67.07575873278802
 20
76.67563460485872
 30
0.0
 40
3.067967999999998
100
AcDbArc
 50
162.2801918472015
 51
218.0513255193776
  0
ARC
  5
13F
330
2
100
AcDbEntity
  8
0
 48
0.6
100
AcDbCircle
 10
32.00681122949936
 20
87.88092364492422
 30
0.0
 40
33.74764799999999
100
AcDbArc
 50
162.2801918472015
 51
197.7198081527984
  0
CIRCLE
  5
140
330
2
100
AcDbEntity
  8
0
 48
0.6
100
AcDbCircle
 10
32.0822755436784
 20
87.88092364492422
 30
0.0
 40
6.0
  0
ARC
  5
141
330
2
100
AcDbEntity
  8
0
 48
0.6
100
AcDbCircle
 10
32.00681122949936
 20
87.88092364492422
 30
0.0
 40
33.74764799999999
100
AcDbArc
 50
342.2801918472013
 51
17.71980815279839
  0
CIRCLE
  5
142
330
2
100
AcDbEntity
  8
0
 48
0.6
100
AcDbCircle
 10
32.0822755436784
 20
87.88092364492422
 30
0.0
 40
20.0
  0
DIMENSION
  5
143
102
{ACAD_XDICTIONARY
360
144
102
}
102
{ACAD_REACTORS
330
145
102
}
330
2
100
AcDbEntity
  8
0
100
AcDbDimension
  2
*D29
 10
-9.287282943122113
 20
56.37600925673178
 30
0.0
 11
89.72483492682767
 21
131.7785131988915
 31
0.0
 70
   163
  1
<>%%P0.5
  3
1_1_2
100
AcDbDiametricDimension
 15
73.45183403047752
 25
119.3858380331155
 35
0.0
 40
0.0
  0
DIMENSION
  5
151
330
2
100
AcDbEntity
  8
0
100
AcDbDimension
  2
*D28
 10
77.08227554367841
 20
153.1026854228265
 30
0.0
 11
32.4729271836677
 21
153.1026854228265
 31
0.0
 70
   160
  3
1_1_2
100
AcDbAlignedDimension
 13
-12.9177244563125
 23
127.8381298861259
 33
0.0
 14
77.08227554367841
 24
127.8381298861259
 34
0.0
100
AcDbRotatedDimension
  0
LWPOLYLINE
  5
15E
330
2
100
AcDbEntity
  8
0
 62
     3
100
AcDbPolyline
 90
        4
 70
     1
 43
0.0
 10
26.35765886486842
 20
154.0973028226653
 10
28.99795585088758
 20
154.0973028226653
 10
28.99795585088758
 20
157.1661196403674
 10
26.35765886486842
 20
157.1661196403674
  0
MTEXT
  5
15F
102
{ACAD_REACTORS
330
1B2
102
}
330
2
100
AcDbEntity
  8
0
 62
     3
100
AcDbMText
 10
59.17618156660864
 20
145.3529259705083
 30
0.0
 40
3.5
 41
0.0
 71
     9
 72
     1
  1
4-%%C6.5 hole
1001
ACAD
1000
MTEXTBEGIN
1070
    73
1070
     1
1070
    44
1040
1.0
1070
    74
1070
     0
1000
MTEXTEND
1000
MTEXTBEGIN
1070
    73
1070
     1
1070
    44
1040
1.0
1070
    74
1070
     0
1000
MTEXTEND
1000
MTEXTBEGIN
1070
    73
1070
     1
1070
    44
1040
1.0
1070
    74
1070
     0
1000
MTEXTEND
1000
MTEXTBEGIN
1070
    73
1070
     1
1070
    44
1040
1.0
1070
    74
1070
     0
1000
MTEXTEND
  0
LINE
  5
160
330
2
100
AcDbEntity
  8
0
 48
0.6
100
AcDbLine
 10
53.44556086015836
 20
42.88092364492238
 30
0.0
 11
47.70451063363725
 21
42.88092364492238
 31
0.0
  0
CIRCLE
  5
161
330
2
100
AcDbEntity
  8
0
 48
0.6
100
AcDbCircle
 10
32.0822755436784
 20
87.88092364492422
 30
0.0
 40
43.5
  0
CIRCLE
  5
162
330
2
100
AcDbEntity
  8
0
 48
0.6
100
AcDbCircle
 10
32.0822755436784
 20
87.88092364492422
 30
0.0
 40
42.00000000000005
  0
LINE
  5
163
330
2
100
AcDbEntity
  8
CL
 48
0.6
100
AcDbLine
 10
50.72188585046934
 20
42.88092364492238
 30
0.0
 11
32.0822755436784
 21
87.88092364492422
 31
0.0
  0
ARC
  5
164
330
2
100
AcDbEntity
  8
CL
 48
0.6
100
AcDbCircle
 10
32.0822755436784
 20
87.88092364492422
 30
0.0
 40
51.9999999999996
100
AcDbArc
 50
215.90024337538
 51
234.0997566246191
  0
LINE
  5
165
330
2
100
AcDbEntity
  8
0
100
AcDbLine
 10
193.5268979050779
 20
51.98218630339397
 30
0.0
 11
194.4268979050775
 21
51.98218630339397
 31
0.0
  0
LINE
  5
166
330
2
100
AcDbEntity
  8
0
100
AcDbLine
 10
186.9268979050773
 20
133.3809236449224
 30
0.0
 11
193.5268979050779
 21
133.3809236449224
 31
0.0
  0
LINE
  5
167
330
2
100
AcDbEntity
  8
0
100
AcDbLine
 10
186.9268979050773
 20
129.3809236449222
 30
0.0
 11
184.9268979050775
 21
129.3809236449222
 31
0.0
  0
LINE
  5
168
330
2
100
AcDbEntity
  8
0
100
AcDbLine
 10
194.4268979050775
 20
123.7796609864526
 30
0.0
 11
194.4268979050775
 21
131.4796609864532
 31
0.0
  0
LINE
  5
169
330
2
100
AcDbEntity
  8
0
100
AcDbLine
 10
193.5268979050779
 20
123.7796609864526
 30
0.0
 11
194.4268979050775
 21
123.7796609864526
 31
0.0
  0
LINE
  5
16A
102
{ACAD_REACTORS
330
185
102
}
330
2
100
AcDbEntity
  8
0
100
AcDbLine
 10
193.5268979050779
 20
131.4796609864532
 30
0.0
 11
194.4268979050775
 21
131.4796609864532
 31
0.0
  0
LINE
  5
16B
330
2
100
AcDbEntity
  8
0
100
AcDbLine
 10
186.9268979050773
 20
46.38092364492422
 30
0.0
 11
184.9268979050775
 21
46.38092364492422
 31
0.0
  0
LINE
  5
16C
330
2
100
AcDbEntity
  8
0
100
AcDbLine
 10
193.5268979050779
 20
44.28218630339232
 30
0.0
 11
194.4268979050775
 21
44.28218630339232
 31
0.0
  0
LINE
  5
16D
102
{ACAD_REACTORS
330
110
102
}
330
2
100
AcDbEntity
  8
0
100
AcDbLine
 10
184.9268979050775
 20
129.3809236449222
 30
0.0
 11
184.9268979050775
 21
46.38092364492422
 31
0.0
  0
LINE
  5
16E
330
2
100
AcDbEntity
  8
0
100
AcDbLine
 10
194.4268979050775
 20
51.98218630339397
 30
0.0
 11
194.4268979050775
 21
44.28218630339232
 31
0.0
  0
LINE
  5
16F
102
{ACAD_REACTORS
330
174
330
101
330
1A5
102
}
330
2
100
AcDbEntity
  8
CL
  6
BYBLOCK
 62
     0
100
AcDbLine
 10
179.9268979050775
 20
92.88092364492241
 30
0.0
 11
149.9268979050774
 21
92.88092364492241
 31
0.0
  0
LINE
  5
170
330
2
100
AcDbEntity
  8
0
100
AcDbLine
 10
149.9268979050774
 20
92.88092364492241
 30
0.0
 11
149.9268979050774
 21
81.8809236449224
 31
0.0
  0
LINE
  5
171
330
2
100
AcDbEntity
  8
0
100
AcDbLine
 10
179.9268979050775
 20
93.88092364492422
 30
0.0
 11
179.9268979050775
 21
92.88092364492241
 31
0.0
  0
DIMENSION
  5
172
102
{ACAD_XDICTIONARY
360
173
102
}
102
{ACAD_REACTORS
330
174
102
}
330
2
100
AcDbEntity
  8
0
100
AcDbDimension
  2
*D27
 10
179.9268979050775
 20
118.4781801322642
 30
0.0
 11
166.1855822695779
 21
118.4781801322642
 31
0.0
 70
   160
  3
1_1_2
100
AcDbAlignedDimension
 13
149.9268979050774
 23
92.88092364492241
 33
0.0
 14
179.9268979050775
 24
93.88092364492422
 34
0.0
100
AcDbRotatedDimension
  0
LINE
  5
181
102
{ACAD_REACTORS
330
101
330
F2
102
}
330
2
100
AcDbEntity
  8
CL
  6
BYBLOCK
 62
     0
100
AcDbLine
 10
184.9268979050775
 20
81.8809236449224
 30
0.0
 11
149.9268979050774
 21
81.8809236449224
 31
0.0
  0
LINE
  5
182
102
{ACAD_REACTORS
330
174
330
F2
102
}
330
2
100
AcDbEntity
  8
CL
  6
BYBLOCK
 62
     0
100
AcDbLine
 10
184.9268979050775
 20
93.88092364492422
 30
0.0
 11
179.9268979050775
 21
93.88092364492422
 31
0.0
  0
DIMENSION
  5
183
102
{ACAD_XDICTIONARY
360
184
102
}
102
{ACAD_REACTORS
330
185
102
}
330
2
100
AcDbEntity
  8
0
100
AcDbDimension
  2
*D26
 10
194.4268979050775
 20
154.8189383543995
 30
0.0
 11
205.093564571749
 21
154.8189383543995
 31
0.0
 70
   160
  3
1_1_2
100
AcDbAlignedDimension
 13
186.9268979050773
 23
133.0892569782581
 33
0.0
 14
194.4268979050775
 24
131.4796609864532
 34
0.0
100
AcDbRotatedDimension
  0
DIMENSION
  5
194
330
2
100
AcDbEntity
  8
0
100
AcDbDimension
  2
*D25
 10
186.9268979050773
 20
145.5135772091725
 30
0.0
 11
175.9268979050775
 21
145.5135772091725
 31
0.0
 70
   160
  3
1_1_2
100
AcDbAlignedDimension
 13
184.9268979050775
 23
129.3809236449222
 33
0.0
 14
186.9268979050773
 24
132.880923644924
 34
0.0
100
AcDbRotatedDimension
  0
DIMENSION
  5
1A3
102
{ACAD_XDICTIONARY
360
1A4
102
}
102
{ACAD_REACTORS
330
1A5
102
}
330
2
100
AcDbEntity
  8
0
100
AcDbDimension
  2
*D24
 10
186.9268979050773
 20
167.3580873526671
 30
0.0
 11
168.4268979050774
 21
167.3580873526671
 31
0.0
 70
   160
  3
1_1_2
100
AcDbAlignedDimension
 13
149.9268979050774
 23
92.88092364492241
 33
0.0
 14
186.9268979050773
 24
133.0892569782581
 34
0.0
100
AcDbRotatedDimension
  0
LEADER
  5
1B2
330
2
100
AcDbEntity
  8
0
100
AcDbLeader
  3
1_1_2
 73
     0
 75
     1
 40
3.5
 41
31.09375
 76
     3
 10
68.87646874010716
 20
127.8000980977275
 30
0.0
 10
63.17618156660865
 20
144.3529259705083
 30
0.0
 10
60.17618156660865
 20
144.3529259705083
 30
0.0
340
15F
1001
ACAD
1000
DSTYLE
1002
{
1070
     5
1000

1070
   342
1005
0
1002
}
  0
LINE
  5
1B3
330
2
100
AcDbEntity
  8
CL
 48
0.6
100
AcDbLine
 10
326.9276203957688
 20
45.45056157111504
 30
0.0
 11
326.9276203957688
 21
38.49203125362054
 31
0.0
  0
ARC
  5
1B4
330
2
100
AcDbEntity
  8
0
100
AcDbCircle
 10
327.0552379700784
 20
42.76973243207701
 30
0.0
 40
2.280330085890314
100
AcDbArc
 50
177.2050912589325
 51
235.9250110952057
  0
ARC
  5
1B5
330
2
100
AcDbEntity
  8
0
100
AcDbCircle
 10
326.8000028214574
 20
42.76973243207701
 30
0.0
 40
2.280330085889914
100
AcDbArc
 50
304.0749889047944
 51
2.7949087410675
  0
ARC
  5
1B6
330
2
100
AcDbEntity
  8
0
100
AcDbCircle
 10
309.4884339159871
 20
39.88092364492422
 30
0.0
 40
3.0
100
AcDbArc
 50
90.0
 51
180.0
  0
ARC
  5
1B7
330
2
100
AcDbEntity
  8
0
100
AcDbCircle
 10
298.9886288217183
 20
44.28059944040614
 30
0.0
 40
3.0
100
AcDbArc
 50
270.0000000000065
 51
0.0
  0
LINE
  5
1B8
330
2
100
AcDbEntity
  8
0
100
AcDbLine
 10
328.0776203957775
 20
40.88092364492239
 30
0.0
 11
325.7776203957673
 21
40.88092364492239
 31
0.0
  0
ARC
  5
1B9
330
2
100
AcDbEntity
  8
0
100
AcDbCircle
 10
302.4714110694493
 20
40.32169622738911
 30
0.0
 40
4.041132640617096
100
AcDbArc
 50
270.2413531633601
 51
353.7382029889952
  0
ARC
  5
1BA
330
2
100
AcDbEntity
  8
0
100
AcDbCircle
 10
384.4276203957688
 20
46.38092364492422
 30
0.0
 40
3.5
100
AcDbArc
 50
270.0
 51
0.0
  0
LINE
  5
1BB
330
2
100
AcDbEntity
  8
CL
 48
0.6
100
AcDbLine
 10
326.9276203957688
 20
136.3646891509624
 30
0.0
 11
326.9276203957688
 21
129.7838324382264
 31
0.0
  0
LINE
  5
1BC
330
2
100
AcDbEntity
  8
CL
 48
0.6
100
AcDbLine
 10
391.929113151069
 20
51.8809236449224
 30
0.0
 11
385.9276203957778
 21
51.8809236449224
 31
0.0
  0
LINE
  5
1BD
330
2
100
AcDbEntity
  8
CL
 48
0.6
100
AcDbLine
 10
391.929113151069
 20
123.8809236449224
 30
0.0
 11
385.9276203957778
 21
123.8809236449224
 31
0.0
  0
ARC
  5
1BE
330
2
100
AcDbEntity
  8
0
100
AcDbCircle
 10
388.0389490426587
 20
51.75076050037205
 30
0.0
 40
2.282879329572159
100
AcDbArc
 50
34.10884998166265
 51
92.79523867896429
  0
ARC
  5
1BF
330
2
100
AcDbEntity
  8
0
100
AcDbCircle
 10
388.0389490426587
 20
52.01108678947274
 30
0.0
 40
2.282879329571918
100
AcDbArc
 50
267.2047613210354
 51
325.8911500183373
  0
LINE
  5
1C0
330
2
100
AcDbEntity
  8
0
100
AcDbLine
 10
389.929113151069
 20
53.03092364492295
 30
0.0
 11
389.929113151069
 21
50.73092364492186
 31
0.0
  0
LINE
  5
1C1
330
2
100
AcDbEntity
  8
0
100
AcDbLine
 10
389.929113151069
 20
122.7309236449217
 30
0.0
 11
389.929113151069
 21
125.0309236449229
 31
0.0
  0
ARC
  5
1C2
330
2
100
AcDbEntity
  8
0
100
AcDbCircle
 10
388.0389490426587
 20
123.750760500372
 30
0.0
 40
2.282879329571918
100
AcDbArc
 50
34.10884998166265
 51
92.79523867896429
  0
ARC
  5
1C3
330
2
100
AcDbEntity
  8
0
100
AcDbCircle
 10
388.0389490426587
 20
124.0110867894745
 30
0.0
 40
2.282879329572159
100
AcDbArc
 50
267.2047613210354
 51
325.8911500183373
  0
LINE
  5
1C4
330
2
100
AcDbEntity
  8
CEN
100
AcDbLine
 10
326.9276203957778
 20
84.42812631423112
 30
0.0
 11
326.9276203957778
 21
91.33372097561458
 31
0.0
  0
CIRCLE
  5
1C7
330
2
100
AcDbEntity
  8
0
100
AcDbCircle
 10
326.9276203957778
 20
87.88092364492422
 30
0.0
 40
2.0
  0
LINE
  5
1C8
330
2
100
AcDbEntity
  8
CEN
 62
    62
100
AcDbLine
 10
326.2276203957771
 20
86.00742424540294
 30
0.0
 11
326.2276203957771
 21
87.1809236449244
 31
0.0
  0
LINE
  5
1C9
330
2
100
AcDbEntity
  8
CEN
 62
    62
100
AcDbLine
 10
327.6276203957785
 20
86.00742424540294
 30
0.0
 11
327.6276203957785
 21
87.1809236449244
 31
0.0
  0
LINE
  5
1CA
330
2
100
AcDbEntity
  8
CL
 62
    62
 48
0.6
100
AcDbLine
 10
328.8011197952873
 20
88.58092364492312
 30
0.0
 11
327.6276203957785
 21
88.58092364492312
 31
0.0
  0
LINE
  5
1CB
330
2
100
AcDbEntity
  8
CL
 62
    62
 48
0.6
100
AcDbLine
 10
328.8011197952873
 20
87.1809236449244
 30
0.0
 11
327.6276203957785
 21
87.1809236449244
 31
0.0
  0
LINE
  5
1CC
330
2
100
AcDbEntity
  8
CEN
 62
    62
100
AcDbLine
 10
326.2276203957771
 20
88.58092364492405
 30
0.0
 11
326.2276203957771
 21
89.75442304444277
 31
0.0
  0
LINE
  5
1CD
330
2
100
AcDbEntity
  8
CL
 62
    62
 48
0.6
100
AcDbLine
 10
326.2276203957771
 20
88.58092364492405
 30
0.0
 11
325.0541209962575
 21
88.58092364492312
 31
0.0
  0
LINE
  5
1CE
330
2
100
AcDbEntity
  8
CL
 62
    62
 48
0.6
100
AcDbLine
 10
326.2276203957771
 20
87.1809236449244
 30
0.0
 11
325.0541209962575
 21
87.18092364492258
 31
0.0
  0
LINE
  5
1CF
330
2
100
AcDbEntity
  8
CEN
 62
    62
100
AcDbLine
 10
327.6276203957785
 20
88.58092364492405
 30
0.0
 11
327.6276203957785
 21
89.75442304444277
 31
0.0
  0
ARC
  5
1D0
330
2
100
AcDbEntity
  8
0
100
AcDbCircle
 10
326.8000028214574
 20
132.9921148577686
 30
0.0
 40
2.280330085890314
100
AcDbArc
 50
357.2050912589323
 51
55.92501109520566
  0
ARC
  5
1D1
330
2
100
AcDbEntity
  8
0
100
AcDbCircle
 10
327.0552379700784
 20
132.9921148577686
 30
0.0
 40
2.280330085889914
100
AcDbArc
 50
124.0749889047942
 51
182.7949087410671
  0
LINE
  5
1D2
330
2
100
AcDbEntity
  8
0
100
AcDbLine
 10
328.0776203957775
 20
134.8809236449224
 30
0.0
 11
325.7776203957673
 21
134.8809236449224
 31
0.0
  0
LINE
  5
1D3
330
2
100
AcDbEntity
  8
0
100
AcDbLine
 10
304.9886288217183
 20
47.88092364492422
 30
0.0
 11
313.9276203957688
 21
47.88092364492422
 31
0.0
  0
LINE
  5
1D4
330
2
100
AcDbEntity
  8
0
100
AcDbLine
 10
384.4276203957688
 20
132.880923644924
 30
0.0
 11
323.017620395769
 21
132.880923644924
 31
0.0
  0
LINE
  5
1D5
330
2
100
AcDbEntity
  8
0
100
AcDbLine
 10
314.017620395778
 20
132.880923644924
 30
0.0
 11
327.267620395778
 21
132.880923644924
 31
0.0
  0
ARC
  5
1D6
330
2
100
AcDbEntity
  8
0
100
AcDbCircle
 10
384.4276203957688
 20
129.3809236449222
 30
0.0
 40
3.5
100
AcDbArc
 50
0.0
 51
90.0
  0
LWPOLYLINE
  5
1D7
330
2
100
AcDbEntity
  8
0
 62
     3
100
AcDbPolyline
 90
        4
 70
     1
 43
0.0
 10
405.4772121409986
 20
81.08492177086374
 10
408.4649399146565
 20
81.08492177086374
 10
408.4649399146565
 20
83.73004552525889
 10
405.4772121409986
 20
83.73004552525889
  0
LINE
  5
1D8
330
2
100
AcDbEntity
  8
0
100
AcDbLine
 10
384.4276203957688
 20
42.88092364492238
 30
0.0
 11
309.4884339159871
 21
42.88092364492238
 31
0.0
  0
LINE
  5
1D9
330
2
100
AcDbEntity
  8
0
100
AcDbLine
 10
301.9886288217183
 20
44.88092364492422
 30
0.0
 11
301.9886288217183
 21
44.28059944040614
 31
0.0
  0
LINE
  5
1DA
330
2
100
AcDbEntity
  8
0
100
AcDbLine
 10
326.0176203957689
 20
42.88092364492238
 30
0.0
 11
314.7583680038278
 21
42.88092364492238
 31
0.0
  0
LINE
  5
1DB
330
2
100
AcDbEntity
  8
0
100
AcDbLine
 10
387.9276203957778
 20
129.3809236449222
 30
0.0
 11
387.9276203957778
 21
46.38092364492422
 31
0.0
  0
LINE
  5
1DC
330
2
100
AcDbEntity
  8
0
100
AcDbLine
 10
313.9276203957688
 20
42.88092364492238
 30
0.0
 11
313.9276203957688
 21
132.880923644924
 31
0.0
  0
ARC
  5
1DD
330
2
100
AcDbEntity
  8
0
100
AcDbCircle
 10
304.9886288217183
 20
44.88092364492422
 30
0.0
 40
3.0
100
AcDbArc
 50
90.00000000000651
 51
180.0
  0
DIMENSION
  5
1DE
330
2
100
AcDbEntity
  8
0
100
AcDbDimension
  2
*D33
 10
409.5222237852866
 20
42.88092364492238
 30
0.0
 11
409.5222237852866
 21
87.88771361716134
 31
0.0
 70
   160
  3
1_1_2
100
AcDbAlignedDimension
 13
384.4276203957688
 23
132.880923644924
 33
0.0
 14
384.4276203957688
 24
42.88092364492238
 34
0.0
 50
90.0
100
AcDbRotatedDimension
  0
LINE
  5
1EB
330
2
100
AcDbEntity
  8
CEN
100
AcDbLine
 10
146.7296141631374
 20
289.994269935456
 30
0.0
 11
390.4108151439195
 21
289.994269935456
 31
0.0
  0
LINE
  5
1EC
330
2
100
AcDbEntity
  8
0
100
AcDbLine
 10
195.0504460180072
 20
243.393945730936
 30
0.0
 11
293.4477718980088
 21
243.3939457309388
 31
0.0
  0
LINE
  5
1ED
330
2
100
AcDbEntity
  8
0
100
AcDbLine
 10
198.356154923058
 20
238.3939457309407
 30
0.0
 11
296.947576992277
 21
238.3939457309407
 31
0.0
  0
LINE
  5
1EE
330
2
100
AcDbEntity
  8
0
100
AcDbLine
 10
320.4767634720683
 20
334.9942699354568
 30
0.0
 11
187.986040981379
 21
334.9942699354568
 31
0.0
  0
LINE
  5
1EF
330
2
100
AcDbEntity
  8
0
100
AcDbLine
 10
296.1012427698186
 20
244.9942699354568
 30
0.0
 11
187.986040981379
 21
244.9942699354568
 31
0.0
  0
DIMENSION
  5
1F0
330
2
100
AcDbEntity
  8
0
100
AcDbDimension
  2
*D34
 10
382.3867634720682
 20
372.8623386654998
 30
0.0
 11
294.3860409813786
 21
372.8623386654998
 31
0.0
 70
   160
  3
1_1_2
100
AcDbAlignedDimension
 13
181.3860409813696
 23
335.494269935456
 33
0.0
 14
382.3867634720682
 24
331.494269935456
 34
0.0
100
AcDbRotatedDimension
  0
ARC
  5
1FD
330
2
100
AcDbEntity
  8
0
100
AcDbCircle
 10
190.6481723082688
 20
232.5447458915978
 30
0.0
 40
8.907313409310658
100
AcDbArc
 50
24.23072274293526
 51
94.90087069773977
  0
ARC
  5
1FE
330
2
100
AcDbEntity
  8
0
 48
0.6
100
AcDbCircle
 10
255.6194652452485
 20
256.2880892107878
 30
0.0
 40
67.39291900811399
100
AcDbArc
 50
192.7457730550624
 51
202.9955861326853
  0
LWPOLYLINE
  5
1FF
330
2
100
AcDbEntity
  8
0
100
AcDbPolyline
 90
      467
 70
     0
 43
0.0
 10
193.5819278290689
 20
229.9603569922674
 10
193.5841261111363
 20
229.9614320780491
 10
193.6043703613868
 20
229.9712341786908
 10
193.6245898267698
 20
229.9809260825623
 10
193.6447845503879
 20
229.9905082318773
 10
193.664954575357
 20
229.9999810688475
 10
193.6850999447978
 20
230.0093450356817
 10
193.7052207018076
 20
230.0186005745918
 10
193.7253168895074
 20
230.0277481277898
 10
193.7453885509984
 20
230.0367881374877
 10
193.7654357294068
 20
230.0457210458953
 10
193.7854584678279
 20
230.0545472952235
 10
193.8054568093864
 20
230.0632673276829
 10
193.8254307971874
 20
230.0718815854869
 10
193.8453804743476
 20
230.080390510845
 10
193.865305883968
 20
230.0887945459708
 10
193.8852070691573
 20
230.0970941330723
 10
193.9050840730485
 20
230.1052897143636
 10
193.9249369387289
 20
230.1133817320533
 10
193.9447657093278
 20
230.1213706283533
 10
193.9645704279481
 20
230.1292568454754
 10
193.9843511376984
 20
230.1370408256298
 10
194.0041078816866
 20
230.1447230110288
 10
194.0238407030374
 20
230.1523038438854
 10
194.0435496448571
 20
230.1597837664056
 10
194.0632347502578
 20
230.1671632208044
 10
194.0828960623365
 20
230.174442649293
 10
194.1025336242273
 20
230.181622494081
 10
194.1221474790181
 20
230.188703197381
 10
194.1417376698481
 20
230.1956852014026
 10
194.1613042397984
 20
230.2025689483595
 10
194.180847232008
 20
230.2093548804613
 10
194.200366689558
 20
230.2160434399164
 10
194.2198626555873
 20
230.2226350689405
 10
194.2393351731988
 20
230.2291302097428
 10
194.2587842854989
 20
230.2355293045355
 10
194.2782100355979
 20
230.2418327955308
 10
194.2976124666183
 20
230.2480411249359
 10
194.3169916216574
 20
230.2541547349636
 10
194.336347543829
 20
230.2601740678265
 10
194.3556802762485
 20
230.2660995657379
 10
194.3749898620371
 20
230.2719316709026
 10
194.3942763442881
 20
230.277670825535
 10
194.4135397661193
 20
230.2833174718489
 10
194.4327801706475
 20
230.2888720520513
 10
194.4519976009685
 20
230.2943350083568
 10
194.471192100218
 20
230.2997067829755
 10
194.4903637114876
 20
230.3049878181145
 10
194.5095124778981
 20
230.310178555992
 10
194.5286384425578
 20
230.315279438816
 10
194.5477416485773
 20
230.3202909087957
 10
194.5668221390586
 20
230.3252134081449
 10
194.5858799571375
 20
230.3300473790759
 10
194.6049151458992
 20
230.3347932637953
 10
194.6239277484692
 20
230.3394515045165
 10
194.6429178079579
 20
230.3440225434533
 10
194.6618853674681
 20
230.3485068228136
 10
194.6808304701279
 20
230.3529047848094
 10
194.6997531590276
 20
230.3572168716546
 10
194.7186534772971
 20
230.3614435255558
 10
194.7375314680375
 20
230.365585188727
 10
194.7563871743586
 20
230.3696423033779
 10
194.7752206393778
 20
230.3736153117224
 10
194.7940319062072
 20
230.3775046559694
 10
194.8128210179475
 20
230.3813107783298
 10
194.8315880177196
 20
230.385034121017
 10
194.8503329486375
 20
230.3886751262378
 10
194.8690558537981
 20
230.3922342362092
 10
194.8877567763283
 20
230.3957118931366
 10
194.906435759327
 20
230.3991085392381
 10
194.9250928459187
 20
230.40242461672
 10
194.943728079208
 20
230.4056605677924
 10
194.9623415022978
 20
230.408816834667
 10
194.9809331583183
 20
230.4118938595593
 10
194.9995030903574
 20
230.4148920846782
 10
195.0180513415489
 20
230.417811952233
 10
195.0365779549774
 20
230.4206539044371
 10
195.0550829737874
 20
230.4234183835013
 10
195.0735664410673
 20
230.426105831636
 10
195.0920283999366
 20
230.4287166910508
 10
195.1104688934989
 20
230.4312514039611
 10
195.1288879648782
 20
230.4337104125734
 10
195.1472856571689
 20
230.4360941591038
 10
195.165662013498
 20
230.43840308576
 10
195.1840170769683
 20
230.4406376347531
 10
195.2023508906986
 20
230.4427982482966
 10
195.2206634977864
 20
230.4448853685989
 10
195.2389549413583
 20
230.4468994378749
 10
195.2572252645183
 20
230.4488408983325
 10
195.2754745103773
 20
230.4507101921843
 10
195.2937027220484
 20
230.4525077616417
 10
195.3119099426475
 20
230.454234048916
 10
195.3300962152695
 20
230.4558894962165
 10
195.3482615830379
 20
230.4574745457539
 10
195.3664060890695
 20
230.4589896397428
 10
195.3845297764583
 20
230.4604352203923
 10
195.4026326883376
 20
230.461811729916
 10
195.4207148677978
 20
230.4631196105201
 10
195.4387763579688
 20
230.4643593044229
 10
195.4568172019478
 20
230.465531253827
 10
195.4748374428491
 20
230.4666359009515
 10
195.4928371237874
 20
230.4676736880028
 10
195.5108162878696
 20
230.4686450571924
 10
195.5287749782073
 20
230.4695504507335
 10
195.5467132379198
 20
230.4703903108375
 10
195.5646311101081
 20
230.4711650797126
 10
195.5825286378983
 20
230.4718751995733
 10
195.6004058643775
 20
230.4725211126278
 10
195.6182628326786
 20
230.4731032610907
 10
195.6360995858995
 20
230.4736220871689
 10
195.653916167168
 20
230.4740780330775
 10
195.6717126195781
 20
230.474471541027
 10
195.6894889862487
 20
230.4748030532262
 10
195.7072453102773
 20
230.4750730118885
 10
195.7249816348067
 20
230.4752818592242
 10
195.7426980029195
 20
230.4754300374461
 10
195.7603944577367
 20
230.4755179887613
 10
195.7780710423685
 20
230.475546155385
 10
195.7957277999285
 20
230.4755149795263
 10
195.8133647735285
 20
230.4754249033984
 10
195.8309820062786
 20
230.4752763692113
 10
195.848579541287
 20
230.4750698191774
 10
195.8661574216693
 20
230.474805695505
 10
195.8837156905374
 20
230.4744844404058
 10
195.9012543909993
 20
230.4741064960944
 10
195.9187735661579
 20
230.473672304779
 10
195.936273259138
 20
230.4731823086713
 10
195.9537535130474
 20
230.4726369499831
 10
195.9712143710074
 20
230.4720366709234
 10
195.988655876108
 20
230.4713819137087
 10
196.0060780714684
 20
230.4706731205441
 10
196.0234810001984
 20
230.4699107336436
 10
196.040864705428
 20
230.4690951952179
 10
196.0582292302478
 20
230.4682269474779
 10
196.0755746177692
 20
230.4673064326361
 10
196.0929009111078
 20
230.4663340929035
 10
196.1102081533881
 20
230.4653103704913
 10
196.1274963876985
 20
230.4642357076081
 10
196.1447656571689
 20
230.4631105464685
 10
196.1620160048966
 20
230.4619353292819
 10
196.1792474739976
 20
230.4607104982597
 10
196.1964601075978
 20
230.4594364956136
 10
196.2136539487783
 20
230.458113763554
 10
196.2308290406781
 20
230.4567427442916
 10
196.2479854263983
 20
230.4553238800417
 10
196.265123149049
 20
230.4538576130089
 10
196.2822422517364
 20
230.4523443854114
 10
196.2993427775872
 20
230.4507846394544
 10
196.3164247696986
 20
230.449178817349
 10
196.3334882711859
 20
230.4475273613113
 10
196.3505333251578
 20
230.4458307135519
 10
196.3675599747381
 20
230.4440893162782
 10
196.3845682630199
 20
230.4423036117023
 10
196.4015582331176
 20
230.4404740420376
 10
196.4185299281689
 20
230.4386010494944
 10
196.4354833912475
 20
230.4366850762834
 10
196.4524186654871
 20
230.4347265646156
 10
196.4693357939868
 20
230.4327259567034
 10
196.4862348198785
 20
230.430683694758
 10
196.5031157862485
 20
230.428600220989
 10
196.519978736218
 20
230.4264759776069
 10
196.5368237128986
 20
230.4243114068239
 10
196.5536507594079
 20
230.4221069508548
 10
196.5704599188484
 20
230.419863051904
 10
196.5872512343375
 20
230.4175801521886
 10
196.6040247489782
 20
230.4152586939181
 10
196.6207805058984
 20
230.4128991193
 10
196.6375185481883
 20
230.4105018705531
 10
196.6542389189689
 20
230.4080673898796
 10
196.6709416613484
 20
230.4055961194972
 10
196.6876268184496
 20
230.4030885016143
 10
196.7042944333679
 20
230.4005449784426
 10
196.7209445492279
 20
230.397965992196
 10
196.7375772091379
 20
230.395351985082
 10
196.7541924561973
 20
230.3927033993121
 10
196.7707903335285
 20
230.3900206770986
 10
196.7873708842489
 20
230.3873042606519
 10
196.8039341514486
 20
230.3845545921848
 10
196.8204801782576
 20
230.3817721139075
 10
196.8370090077769
 20
230.3789572680295
 10
196.8535206831275
 20
230.376110496767
 10
196.8700152474193
 20
230.3732322423245
 10
196.886492743748
 20
230.3703229469181
 10
196.9029532152489
 20
230.3673830527567
 10
196.9193967050068
 20
230.3644130020529
 10
196.9358232561571
 20
230.3614132370185
 10
196.952232911808
 20
230.3583841998614
 10
196.9686257150478
 20
230.3553263327939
 10
196.9850017090193
 20
230.3522400780301
 10
197.0013609368088
 20
230.3491258777774
 10
197.0177034415373
 20
230.3459841742506
 10
197.0340292663183
 20
230.3428154096564
 10
197.0503384542586
 20
230.3396200262094
 10
197.0666310484683
 20
230.3363984661227
 10
197.0829070920681
 20
230.333151171603
 10
197.099166628157
 20
230.3298785848619
 10
197.1154096998579
 20
230.3265811481149
 10
197.1316363502774
 20
230.3232593035691
 10
197.147846622518
 20
230.3199134934347
 10
197.1640405597081
 20
230.3165441599257
 10
197.1802182049377
 20
230.3131517452546
 10
197.1963796013369
 20
230.3097366916298
 10
197.2125247920175
 20
230.306299441263
 10
197.2286538200787
 20
230.3028404363649
 10
197.2447667286287
 20
230.2993601191491
 10
197.2608635607881
 20
230.295858931825
 10
197.2769443596789
 20
230.2923373166004
 10
197.2930091683883
 20
230.2887957156936
 10
197.3090580300484
 20
230.2852345713116
 10
197.3250909877479
 20
230.2816543256667
 10
197.3411080846181
 20
230.2780554209693
 10
197.3571093637691
 20
230.2744382994295
 10
197.3730948683076
 20
230.2708034032621
 10
197.3890646413365
 20
230.2671511746748
 10
197.4050187259781
 20
230.2634820558794
 10
197.4209571653371
 20
230.25979648909
 10
197.4368800025365
 20
230.2560949165154
 10
197.4527872806774
 20
230.2523777803624
 10
197.4686790428695
 20
230.2486455228518
 10
197.4845553322174
 20
230.2448985861883
 10
197.5004161918584
 20
230.241137412584
 10
197.5162616648773
 20
230.2373624442498
 10
197.5320917943991
 20
230.2335741233999
 10
197.5479066235384
 20
230.2297728922431
 10
197.5637061953875
 20
230.2259591929878
 10
197.5794905530783
 20
230.2221334678506
 10
197.5952597397079
 20
230.2182961590387
 10
197.6110137983995
 20
230.2144477087658
 10
197.6267527722575
 20
230.2105885592427
 10
197.642476704388
 20
230.2067191526794
 10
197.6581856379198
 20
230.2028399312884
 10
197.673879615937
 20
230.198951337279
 10
197.6895586815769
 20
230.195053812864
 10
197.7052228779373
 20
230.191147800253
 10
197.7208722481373
 20
230.1872337416607
 10
197.7365068352773
 20
230.1833120792943
 10
197.7521266824787
 20
230.1793832553673
 10
197.7677318328478
 20
230.1754477120911
 10
197.7833223294983
 20
230.1715058916725
 10
197.7988982155365
 20
230.1675582363295
 10
197.8144595340781
 20
230.1636051882685
 10
197.8300063282367
 20
230.1596471897028
 10
197.8455386411187
 20
230.155684682845
 10
197.8610565158287
 20
230.1517181099006
 10
197.8765599954983
 20
230.1477479130853
 10
197.892049123218
 20
230.1437745346091
 10
197.9075239421181
 20
230.1397984166869
 10
197.9229844952875
 20
230.1358200015247
 10
197.9384308258577
 20
230.1318397313343
 10
197.9538629769285
 20
230.1278580483292
 10
197.9692809916196
 20
230.123875394718
 10
197.9846849130281
 20
230.1198922127159
 10
198.0000747842768
 20
230.1159089445282
 10
198.0154506484885
 20
230.111926032372
 10
198.030812548748
 20
230.1079439184559
 10
198.0461605281779
 20
230.1039630449895
 10
198.0614946298865
 20
230.0999838541865
 10
198.0768148969979
 20
230.096006788257
 10
198.0921213726196
 20
230.0920322894115
 10
198.1074140998479
 20
230.0880607998641
 10
198.1226931218079
 20
230.0840927618235
 10
198.1379584816077
 20
230.080128617501
 10
198.1532102223573
 20
230.0761688091078
 10
198.1684483871685
 20
230.072213778856
 10
198.1836730191589
 20
230.0682639689556
 10
198.1988841614293
 20
230.064319821621
 10
198.2140818570878
 20
230.060381779057
 10
198.2292661492573
 20
230.0564502834795
 10
198.244437081048
 20
230.0525257771004
 10
198.2595946955696
 20
230.0486087021289
 10
198.2747390359272
 20
230.0446995007749
 10
198.2898701452377
 20
230.0407986152531
 10
198.3049880666185
 20
230.0369064877723
 10
198.3200928431688
 20
230.0330235605442
 10
198.3351845180077
 20
230.029150275779
 10
198.350263134238
 20
230.0252870756902
 10
198.3653287349788
 20
230.0214344024871
 10
198.3803813633385
 20
230.0175926983829
 10
198.3954210624288
 20
230.0137624055869
 10
198.4104478753688
 20
230.009943966308
 10
198.4254618452487
 20
230.0061378227638
 10
198.4404630152074
 20
230.0023444171583
 10
198.4554514283369
 20
229.9985641917101
 10
198.4704271277476
 20
229.9947975886242
 10
198.4853901565693
 20
229.9910450501138
 10
198.5003405578881
 20
229.987307018391
 10
198.515278374836
 20
229.9835839356664
 10
198.5302036505198
 20
229.9798762441505
 10
198.5451164280364
 20
229.9761843860569
 10
198.560016750509
 20
229.9725088035939
 10
198.574904661058
 20
229.9688499389739
 10
198.5897802027773
 20
229.9652082344091
 10
198.6046434187865
 20
229.9615841321091
 10
198.6194943521986
 20
229.957978074285
 10
198.6343330461185
 20
229.9543905031484
 10
198.6491595436581
 20
229.9508218609125
 10
198.6639738879365
 20
229.947272589783
 10
198.6787761220563
 20
229.9437431319791
 10
198.693566289137
 20
229.9402339297048
 10
198.708344432287
 20
229.9367454251751
 10
198.7231105946175
 20
229.9332780605999
 10
198.7378648192367
 20
229.9298322781914
 10
198.7526071492483
 20
229.9264085201591
 10
198.7673376277778
 20
229.9230072287163
 10
198.7820562979375
 20
229.9196288460723
 10
198.7967632028267
 20
229.9162738144377
 10
198.8114583855695
 20
229.9129425760284
 10
198.8261418892578
 20
229.9096355730505
 10
198.8408137570275
 20
229.9063532477166
 10
198.8554740319687
 20
229.9030960422387
 10
198.8701227572073
 20
229.8998643988288
 10
198.8847599758373
 20
229.8966587596951
 10
198.8993857309996
 20
229.8934795670501
 10
198.9140000657768
 20
229.8903272631068
 10
198.928603023287
 20
229.887202290074
 10
198.9431946466574
 20
229.8841050901653
 10
198.9577749789768
 20
229.8810361055899
 10
198.9723440633788
 20
229.8779957785591
 10
198.9869019429479
 20
229.8749845512848
 10
199.0014486608179
 20
229.8720028659769
 10
199.0159842600986
 20
229.8690511648492
 10
199.0305087838878
 20
229.8661298901094
 10
199.0450222753079
 20
229.8632394839713
 10
199.059524777458
 20
229.8603803886471
 10
199.0740163334685
 20
229.8575530463439
 10
199.0884969864291
 20
229.8547578992775
 10
199.1029667794682
 20
229.8519953896548
 10
199.1174257556867
 20
229.8492659596904
 10
199.1318739582075
 20
229.8465700515953
 10
199.1463114301276
 20
229.8439081075775
 10
199.1607382145684
 20
229.8412805698498
 10
199.1751543546379
 20
229.8386878806259
 10
199.1895598934479
 20
229.8361304821136
 10
199.2039548741085
 20
229.8336088165259
 10
199.218339339728
 20
229.8311233260718
 10
199.2327133334273
 20
229.8286744529668
 10
199.2470768983075
 20
229.8262626394171
 10
199.2614300774784
 20
229.8238883276372
 10
199.2757729140684
 20
229.8215519598376
 10
199.2901054511693
 20
229.819253978231
 10
199.3044277318985
 20
229.8169948250233
 10
199.3187397993769
 20
229.8147749424312
 10
199.3330416966981
 20
229.812594772663
 10
199.3473334669976
 20
229.8104547579314
 10
199.3616151533569
 20
229.8083553404458
 10
199.3758867989072
 20
229.8062969624206
 10
199.3901484467587
 20
229.8042800660649
 10
199.4044001400178
 20
229.802305093588
 10
199.4186419217985
 20
229.8003724872031
 10
199.4328738352087
 20
229.7984826891223
 10
199.4470959233675
 20
229.7966361415565
 10
199.4613082293669
 20
229.7948332867143
 10
199.4755107963483
 20
229.7930745668109
 10
199.4897036673974
 20
229.7913604240548
 10
199.503886885628
 20
229.789691300657
 10
199.5180604941688
 20
229.7880676388275
 10
199.5322245361185
 20
229.7864898807838
 10
199.5463790545873
 20
229.7849584687301
 10
199.5605240926869
 20
229.7834738448818
 10
199.5746596935274
 20
229.7820364514453
 10
199.5887859002268
 20
229.7806467306382
 10
199.6029027558979
 20
229.7793051246689
 10
199.6170103036474
 20
229.7780120757459
 10
199.6311085865873
 20
229.776768026082
 10
199.645197647818
 20
229.7755734178918
 10
199.6592775304689
 20
229.7744286933828
 10
199.6733482776362
 20
229.7733342947667
 10
199.6874099324486
 20
229.7722906642527
 10
199.7014625379978
 20
229.7712982440589
 10
199.7155061374069
 20
229.7703574763909
 10
199.7295407737874
 20
229.7694688034588
 10
199.7435664902368
 20
229.7686326674774
 10
199.7575833298869
 20
229.7678495106574
 10
199.7715913358369
 20
229.7671197752078
 10
199.7855905512078
 20
229.7664439033423
 10
199.7995810190876
 20
229.7658223372691
 10
199.8135627826195
 20
229.7652555192015
 10
199.8275358848858
 20
229.7647438913498
 10
199.8415003690188
 20
229.7642878959268
 10
199.8554562781171
 20
229.7638879751429
 10
199.8694036552988
 20
229.7635445712085
 10
199.8833425436678
 20
229.7632581263358
 10
199.897272986347
 20
229.7630290827346
 10
199.9111950264378
 20
229.762857882617
 10
199.9251087070479
 20
229.7627449681931
 10
199.9390140713076
 20
229.7626907816784
 10
199.9529111623068
 20
229.7626957652764
 10
199.9668000231774
 20
229.7627603612053
 10
199.9806806970063
 20
229.7628850116743
 10
199.9945532269284
 20
229.7630701588932
 10
200.0084176560376
 20
229.7633162450746
 10
200.0222740274584
 20
229.7636237124279
 10
200.0361223842883
 20
229.7639930031646
 10
200.0499627696481
 20
229.7644245594983
 10
200.0637952266479
 20
229.7649188236391
 10
200.0776197983995
 20
229.7654762377968
 10
200.0914365280077
 20
229.7660972441835
 10
200.105245458586
 20
229.7667822850105
 10
200.1190466332571
 20
229.7675318024903
 10
200.1328400951188
 20
229.7683462388313
 10
200.1466258872878
 20
229.7692260362464
 10
200.1604040528782
 20
229.7701716369465
 10
200.174174634998
 20
229.7711834831396
 10
200.1879376767483
 20
229.7722620170434
 10
200.2016932212573
 20
229.7734076808656
 10
200.2154413116277
 20
229.7746209168181
 10
200.2291819909787
 20
229.7759021671099
 10
200.2429153024074
 20
229.7772518739539
 10
200.2566412890373
 20
229.7786704795635
 10
200.2703599939684
 20
229.780158426145
 10
200.284071460328
 20
229.781716155914
 10
200.2977757312073
 20
229.7833441110778
 10
200.3114728497385
 20
229.7850427338508
 10
200.3251628590186
 20
229.7868124664435
 10
200.338845802169
 20
229.7886537510656
 10
200.3525217222886
 20
229.7905670299285
 10
200.3661906624984
 20
229.7925527452453
 10
200.3798526658993
 20
229.7946113392279
 10
200.3935077756174
 20
229.7967432540845
 10
200.4071560347564
 20
229.7989489320261
 10
200.4207974864184
 20
229.8012288152658
 10
200.4344321737371
 20
229.8035833460144
 10
200.4480601397971
 20
229.8060129664825
 10
200.4616814277377
 20
229.8085181188826
 10
200.475296080649
 20
229.8110992454258
 10
200.4889041416372
 20
229.8137567883203
 10
200.502505653836
 20
229.816491189782
 10
200.5161006603484
 20
229.8193028920175
 10
200.5296892042769
 20
229.8221923372401
 10
200.543271328748
 20
229.8251599676623
 10
200.5568470768575
 20
229.828206225493
 10
200.5704164917188
 20
229.8313315529449
 10
200.5839796164472
 20
229.8345363922271
 10
200.5975364941694
 20
229.8378211855542
 10
200.6110871679684
 20
229.8411863751361
 10
200.6246316809683
 20
229.844632403182
 10
200.6381700762867
 20
229.8481597119025
 10
200.6517023970173
 20
229.851768743515
 10
200.6652286862971
 20
229.855459940224
 10
200.6787489872185
 20
229.8592337442414
 10
200.6922633428984
 20
229.8630905977824
 10
200.705771796436
 20
229.867030943057
 10
200.719274390969
 20
229.8710552222726
 10
200.7327711695868
 20
229.8751638776447
 10
200.7462621754074
 20
229.879357351383
 10
200.7597474515478
 20
229.8836360856975
 10
200.7732270411068
 20
229.888000522802
 10
200.7867009871988
 20
229.8924511049053
 10
200.8001693329479
 20
229.8969882742194
 10
200.8136321214478
 20
229.9016124729551
 10
200.8270893958179
 20
229.906324143325
 10
200.8405411991771
 20
229.9111237275389
 10
200.8539875746282
 20
229.9160116678094
 10
200.8674285652776
 20
229.9209884063448
 10
200.8808642142485
 20
229.9260543853588
 10
200.8942945646376
 20
229.9312100470624
 10
200.9077196595771
 20
229.9364558336665
 10
200.9211395421571
 20
229.9417921873828
 10
200.9345542554983
 20
229.9472195504213
 10
200.9479638427182
 20
229.952738364992
 10
200.9613683469068
 20
229.9583490733112
 10
200.974767811207
 20
229.9640521175843
 10
200.9881622786978
 20
229.9698479400258
 10
201.0015517925185
 20
229.9757369828439
 10
201.014936395757
 20
229.981719688254
 10
201.0283161315363
 20
229.9877964984643
 10
201.0380691915269
 20
229.9922966865604
  0
ARC
  5
200
330
2
100
AcDbEntity
  8
0
 48
0.6
100
AcDbCircle
 10
236.8283976136571
 20
246.5816585481224
 30
0.0
 40
39.44812461369085
100
AcDbArc
 50
195.2577616664799
 51
204.8684405630214
  0
ARC
  5
201
330
2
100
AcDbEntity
  8
0
 48
0.6
100
AcDbCircle
 10
174.4292278922074
 20
321.5605008244764
 30
0.0
 40
26.81626566475105
100
AcDbArc
 50
269.907726570802
 51
280.6520097393284
  0
LINE
  5
202
330
2
100
AcDbEntity
  8
0
 48
0.6
100
AcDbLine
 10
160.3860409813696
 20
294.6442699354556
 30
0.0
 11
161.3860409813696
 21
295.6442699354557
 31
0.0
  0
LINE
  5
203
330
2
100
AcDbEntity
  8
0
 48
0.6
100
AcDbLine
 10
161.3860409813696
 20
295.6442699354557
 30
0.0
 11
179.3860409813696
 21
295.6442699354557
 31
0.0
  0
LINE
  5
204
330
2
100
AcDbEntity
  8
0
 48
0.6
100
AcDbLine
 10
161.3860409813696
 20
294.744269935456
 30
0.0
 11
174.3860409813696
 21
294.744269935456
 31
0.0
  0
LINE
  5
205
330
2
100
AcDbEntity
  8
0
 48
0.6
100
AcDbLine
 10
168.3860409813696
 20
295.6442699354557
 30
0.0
 11
179.3860409813696
 21
295.6442699354557
 31
0.0
  0
LINE
  5
206
330
2
100
AcDbEntity
  8
CEN
 48
0.6
100
AcDbLine
 10
158.8252090597288
 20
295.1337699354553
 30
0.0
 11
182.3860409813696
 21
295.1337699354553
 31
0.0
  0
LINE
  5
207
330
2
100
AcDbEntity
  8
2
 48
0.6
100
AcDbLine
 10
174.3860409813696
 20
293.5929000391388
 30
0.0
 11
161.3860409813696
 21
287.025540727107
 31
0.0
  0
ARC
  5
209
330
2
100
AcDbEntity
  8
0
 48
0.6
100
AcDbCircle
 10
174.4292278921984
 20
258.4280390464073
 30
0.0
 40
26.81626566478071
100
AcDbArc
 50
79.34799026067249
 51
90.09227342919791
  0
LINE
  5
20A
330
2
100
AcDbEntity
  8
0
 48
0.6
100
AcDbLine
 10
160.3860409813696
 20
285.3442699354573
 30
0.0
 11
161.3860409813696
 21
284.3442699354553
 31
0.0
  0
LINE
  5
20B
330
2
100
AcDbEntity
  8
0
 48
0.6
100
AcDbLine
 10
161.3860409813696
 20
284.3442699354553
 30
0.0
 11
179.3860409813696
 21
284.3442699354553
 31
0.0
  0
LINE
  5
20C
330
2
100
AcDbEntity
  8
0
 48
0.6
100
AcDbLine
 10
161.3860409813696
 20
285.244269935456
 30
0.0
 11
174.3860409813696
 21
285.244269935456
 31
0.0
  0
LINE
  5
20D
330
2
100
AcDbEntity
  8
0
 48
0.6
100
AcDbLine
 10
168.3860409813696
 20
284.3442699354553
 30
0.0
 11
179.3860409813696
 21
284.3442699354553
 31
0.0
  0
LINE
  5
20E
330
2
100
AcDbEntity
  8
CEN
 48
0.6
100
AcDbLine
 10
158.6317638340187
 20
284.8547699354548
 30
0.0
 11
182.3860409813696
 21
284.8547699354548
 31
0.0
  0
LINE
  5
20F
330
2
100
AcDbEntity
  8
2
 48
0.6
100
AcDbLine
 10
174.3860409813696
 20
291.4491698198061
 30
0.0
 11
162.4834931442689
 21
285.244269935456
 31
0.0
  0
LINE
  5
210
330
2
100
AcDbEntity
  8
2
 48
0.6
100
AcDbLine
 10
174.3860409813696
 20
294.744269935456
 30
0.0
 11
174.3860409813696
 21
285.244269935456
 31
0.0
  0
LINE
  5
211
330
2
100
AcDbEntity
  8
2
 48
0.6
100
AcDbLine
 10
161.3860409813696
 20
295.6442699354557
 30
0.0
 11
161.3860409813696
 21
284.3442699354553
 31
0.0
  0
LINE
  5
212
330
2
100
AcDbEntity
  8
0
 48
0.6
100
AcDbLine
 10
160.3860409813696
 20
294.6442699354556
 30
0.0
 11
160.3860409813696
 21
285.3442699354573
 31
0.0
  0
LINE
  5
213
330
2
100
AcDbEntity
  8
2
 48
0.6
100
AcDbLine
 10
174.3860409813696
 20
292.6143593124669
 30
0.0
 11
161.3860409813696
 21
285.7342686046239
 31
0.0
  0
ARC
  5
214
330
2
100
AcDbEntity
  8
0
 48
0.6
100
AcDbCircle
 10
229.8962689281485
 20
243.9919350444615
 30
0.0
 40
35.255792
100
AcDbArc
 50
179.9962054631615
 51
181.0943561937651
  0
ARC
  5
215
330
2
100
AcDbEntity
  8
0
100
AcDbCircle
 10
198.3860409813696
 20
244.494269935456
 30
0.0
 40
0.5
100
AcDbArc
 50
270.0
 51
0.0
  0
LINE
  5
216
330
2
100
AcDbEntity
  8
0
100
AcDbLine
 10
198.8860409813696
 20
244.9942699354568
 30
0.0
 11
198.8860409813696
 21
244.494269935456
 31
0.0
  0
ARC
  5
217
330
2
100
AcDbEntity
  8
0
 48
0.6
100
AcDbCircle
 10
230.188762981379
 20
243.9056239354558
 30
0.0
 40
33.95579199999998
100
AcDbArc
 50
179.85042300002
 51
180.8634200380006
  0
ARC
  5
218
330
2
100
AcDbEntity
  8
0
100
AcDbCircle
 10
198.356154923058
 20
237.8939457309406
 30
0.0
 40
0.5
100
AcDbArc
 50
90.0
 51
177.9685271120391
  0
LINE
  5
219
330
2
100
AcDbEntity
  8
0
100
AcDbLine
 10
197.8564691701794
 20
237.9116699620954
 30
0.0
 11
197.8564691701794
 21
237.7774018636908
 31
0.0
  0
DIMENSION
  5
21A
330
2
100
AcDbEntity
  8
0
100
AcDbDimension
  2
*D40
 10
181.3860409813696
 20
347.6269234997053
 30
0.0
 11
170.3860409813787
 21
347.6269234997053
 31
0.0
 70
   160
  3
1_1_2
100
AcDbAlignedDimension
 13
179.3860409813696
 23
331.494269935456
 33
0.0
 14
181.3860409813696
 24
334.9942699354568
 34
0.0
100
AcDbRotatedDimension
  0
DIMENSION
  5
229
102
{ACAD_XDICTIONARY
360
22A
102
}
102
{ACAD_REACTORS
330
22B
102
}
330
2
100
AcDbEntity
  8
0
100
AcDbDimension
  2
*D39
 10
188.8860409813696
 20
359.451243730622
 30
0.0
 11
185.1360409813695
 21
359.451243730622
 31
0.0
 70
   160
  3
1_1_2
100
AcDbAlignedDimension
 13
181.3860409813696
 23
335.2026032687908
 33
0.0
 14
188.8860409813696
 24
333.5930072769861
 34
0.0
100
AcDbRotatedDimension
  0
LINE
  5
23A
102
{ACAD_REACTORS
330
22B
102
}
330
2
100
AcDbEntity
  8
0
100
AcDbLine
 10
187.986040981379
 20
333.5930072769861
 30
0.0
 11
188.8860409813696
 21
333.5930072769861
 31
0.0
  0
LINE
  5
23B
330
2
100
AcDbEntity
  8
0
100
AcDbLine
 10
187.986040981379
 20
325.8930072769853
 30
0.0
 11
188.8860409813696
 21
325.8930072769853
 31
0.0
  0
LINE
  5
23C
330
2
100
AcDbEntity
  8
0
100
AcDbLine
 10
188.8860409813696
 20
325.8930072769853
 30
0.0
 11
188.8860409813696
 21
333.5930072769861
 31
0.0
  0
LINE
  5
23D
330
2
100
AcDbEntity
  8
0
100
AcDbLine
 10
181.3860409813696
 20
331.494269935456
 30
0.0
 11
179.3860409813696
 21
331.494269935456
 31
0.0
  0
LINE
  5
23E
330
2
100
AcDbEntity
  8
0
100
AcDbLine
 10
181.3860409813696
 20
335.494269935456
 30
0.0
 11
187.986040981379
 21
335.494269935456
 31
0.0
  0
ARC
  5
23F
330
2
100
AcDbEntity
  8
0
100
AcDbCircle
 10
189.3860409813695
 20
244.494269935456
 30
0.0
 40
0.5
100
AcDbArc
 50
180.0
 51
270.0
  0
LINE
  5
240
330
2
100
AcDbEntity
  8
0
100
AcDbLine
 10
188.8860409813696
 20
244.9942699354568
 30
0.0
 11
188.8860409813696
 21
244.494269935456
 31
0.0
  0
ARC
  5
241
330
2
100
AcDbEntity
  8
0
 48
0.6
100
AcDbCircle
 10
230.188762981379
 20
243.9056239354558
 30
0.0
 40
39.15579199999999
100
AcDbArc
 50
179.8702870000233
 51
183.6102158837779
  0
ARC
  5
242
330
2
100
AcDbEntity
  8
0
 48
0.6
100
AcDbCircle
 10
230.4849689172679
 20
243.8302354596044
 30
0.0
 40
37.855792
100
AcDbArc
 50
179.8658330000312
 51
183.9724199931055
  0
LINE
  5
243
330
2
100
AcDbEntity
  8
0
100
AcDbLine
 10
187.986040981379
 20
254.0955325939263
 30
0.0
 11
188.8860409813696
 21
254.0955325939263
 31
0.0
  0
LINE
  5
244
330
2
100
AcDbEntity
  8
0
100
AcDbLine
 10
187.986040981379
 20
246.395532593925
 30
0.0
 11
188.8860409813696
 21
246.395532593925
 31
0.0
  0
LINE
  5
245
330
2
100
AcDbEntity
  8
0
100
AcDbLine
 10
188.8860409813696
 20
254.0955325939263
 30
0.0
 11
188.8860409813696
 21
246.395532593925
 31
0.0
  0
LINE
  5
246
330
2
100
AcDbEntity
  8
0
100
AcDbLine
 10
193.3743662449684
 20
241.6457094916286
 30
0.0
 11
193.3743662449684
 21
241.0246102060299
 31
0.0
  0
LINE
  5
247
330
2
100
AcDbEntity
  8
0
100
AcDbLine
 10
181.3860409813696
 20
248.494269935456
 30
0.0
 11
179.3860409813696
 21
248.494269935456
 31
0.0
  0
LINE
  5
248
330
2
100
AcDbEntity
  8
0
100
AcDbLine
 10
181.3860409813696
 20
244.494269935456
 30
0.0
 11
187.986040981379
 21
244.494269935456
 31
0.0
  0
LINE
  5
249
330
2
100
AcDbEntity
  8
0
100
AcDbLine
 10
187.986040981379
 20
335.494269935456
 30
0.0
 11
187.986040981379
 21
244.494269935456
 31
0.0
  0
LINE
  5
24A
102
{ACAD_REACTORS
330
2B1
102
}
330
2
100
AcDbEntity
  8
0
100
AcDbLine
 10
179.3860409813696
 20
331.494269935456
 30
0.0
 11
179.3860409813696
 21
248.494269935456
 31
0.0
  0
LINE
  5
24B
330
2
100
AcDbEntity
  8
0
100
AcDbLine
 10
181.3860409813785
 20
335.494269935456
 30
0.0
 11
181.3860409813696
 21
244.494269935456
 31
0.0
  0
LINE
  5
24C
330
2
100
AcDbEntity
  8
0
100
AcDbLine
 10
198.3860409813696
 20
243.994269935455
 30
0.0
 11
189.3860409813695
 21
243.994269935455
 31
0.0
  0
ARC
  5
24D
330
2
100
AcDbEntity
  8
0
100
AcDbCircle
 10
195.1777055484271
 20
241.5943698320123
 30
0.0
 40
1.804069955425965
100
AcDbArc
 50
94.04501748590988
 51
178.3692744375835
  0
LEADER
  5
24E
330
2
100
AcDbEntity
  8
0
100
AcDbLeader
  3
1_1_2
 74
     0
 40
13.0
 41
28.50892857142855
 76
     2
 10
191.4781490946279
 20
235.6072503762506
 30
0.0
 10
181.3771329252977
 20
221.3919200965611
 30
0.0
1001
ACAD
1000
DSTYLE
1002
{
1070
     5
1000

1070
   342
1005
0
1002
}
  0
DIMENSION
  5
24F
330
2
100
AcDbEntity
  8
0
100
AcDbDimension
  2
*D38
 10
181.3860409813696
 20
372.8623386654998
 30
0.0
 11
170.8860409813696
 21
372.8623386654998
 31
0.0
 70
   160
  3
1_1_2
100
AcDbAlignedDimension
 13
160.3860409813696
 23
294.6442699354556
 33
0.0
 14
181.3860409813696
 24
335.2026032687908
 34
0.0
100
AcDbRotatedDimension
  0
ARC
  5
25C
330
2
100
AcDbEntity
  8
0
 48
0.6
100
AcDbCircle
 10
176.7018789012289
 20
299.1205444098476
 30
0.0
 40
116.9686661741607
100
AcDbArc
 50
210.1560153536115
 51
216.2412691602773
  0
ARC
  5
25D
330
2
100
AcDbEntity
  8
0
 48
0.6
100
AcDbCircle
 10
164.6434236851691
 20
291.8941767398519
 30
0.0
 40
95.84808274048763
100
AcDbArc
 50
210.4975034246499
 51
218.0575295674634
  0
LINE
  5
25E
330
2
100
AcDbEntity
  8
CL
 48
0.6
100
AcDbLine
 10
58.31714901972737
 20
236.3641251717034
 30
0.0
 11
58.31714901972737
 21
343.6244146992085
 31
0.0
  0
LWPOLYLINE
  5
25F
330
2
100
AcDbEntity
  8
0
100
AcDbPolyline
 90
      548
 70
     0
 43
0.0
 10
82.36259084340781
 20
229.9702183418828
 10
82.3656062585178
 20
229.9847917566676
 10
82.36915470984786
 20
230.0014514453359
 10
82.37278212802811
 20
230.0180044908029
 10
82.3764882583073
 20
230.0344512489355
 10
82.38027284592861
 20
230.0507920756117
 10
82.38413563612812
 20
230.0670273267005
 10
82.38807637414902
 20
230.083157358077
 10
82.39209480523641
 20
230.0991825256129
 10
82.39619067463719
 20
230.1151031851822
 10
82.4003637275873
 20
230.1309196926558
 10
82.40461370933735
 20
230.1466324039092
 10
82.40894036511964
 20
230.1622416748114
 10
82.41334344017923
 20
230.1777478612403
 10
82.41782267975759
 20
230.1931513190646
 10
82.42237782910889
 20
230.2084524041601
 10
82.42700863345817
 20
230.2236514723972
 10
82.43171483805781
 20
230.2387488796485
 10
82.43649618815652
 20
230.253744981791
 10
82.44135242898664
 20
230.2686401346926
 10
82.44628330578779
 20
230.283434694228
 10
82.45128856381963
 20
230.2981290162715
 10
82.45636794829806
 20
230.3127234566936
 10
82.46152120448824
 20
230.3272183713688
 10
82.46674807762792
 20
230.3416141161704
 10
82.47204831295858
 20
230.3559110469687
 10
82.47742165571798
 20
230.3701095196402
 10
82.48286785114759
 20
230.3842098900531
 10
82.48838664449795
 20
230.3982125140845
 10
82.49397778100684
 20
230.4121177476071
 10
82.49964100591752
 20
230.4259259464888
 10
82.50537606446778
 20
230.4396374666092
 10
82.51118270190636
 20
230.4532526638358
 10
82.51706066347834
 20
230.4667718940425
 10
82.52300969442693
 20
230.4801955131059
 10
82.52902953997908
 20
230.4935238768939
 10
82.53511994539804
 20
230.5067573412824
 10
82.54128065590704
 20
230.5198962621449
 10
82.54751141675845
 20
230.5329409953519
 10
82.55381197319911
 20
230.545891896777
 10
82.56018207045782
 20
230.5587493222919
 10
82.56662145379776
 20
230.5715136277722
 10
82.57312986843862
 20
230.5841851690893
 10
82.57970705963819
 20
230.5967643021158
 10
82.58635277263783
 20
230.6092513827234
 10
82.59306675267906
 20
230.621646766788
 10
82.59984874498696
 20
230.6339508101828
 10
82.60669849483745
 20
230.646163868776
 10
82.61361574744842
 20
230.6582862984423
 10
82.6206002480576
 20
230.6703184550588
 10
82.62765174192827
 20
230.6822606944915
 10
82.63476997429824
 20
230.6941133726195
 10
82.64195469039803
 20
230.7058768453098
 10
82.6492056354782
 20
230.7175514684403
 10
82.65652255477835
 20
230.729137597882
 10
82.6639051935381
 20
230.7406355895071
 10
82.67135329701886
 20
230.7520457991893
 10
82.67886661043666
 20
230.7633685828013
 10
82.68644487904749
 20
230.7746042962135
 10
82.69408784809821
 20
230.7857532953039
 10
82.70179526282666
 20
230.7968159359405
 10
82.70956686846876
 20
230.8077925739999
 10
82.71740241026964
 20
230.8186835653523
 10
82.725301633478
 20
230.8294892658705
 10
82.73326428333712
 20
230.8402100314288
 10
82.74129010508659
 20
230.8508462178997
 10
82.74937884395876
 20
230.8613981811558
 10
82.75753024521874
 20
230.8718662770715
 10
82.76574405407698
 20
230.8822508615148
 10
82.77402001580776
 20
230.8925522903673
 10
82.7823578756379
 20
230.9027709194915
 10
82.79075737880701
 20
230.9129071047681
 10
82.79921827056933
 20
230.9229612020653
 10
82.80774029615711
 20
230.9329335672591
 10
82.81632320082826
 20
230.9428245562212
 10
82.82496672979688
 20
230.9526345248223
 10
82.83367062832802
 20
230.9623638289404
 10
82.84243464165774
 20
230.9720128244435
 10
82.85125851503655
 20
230.981581867205
 10
82.86014199369857
 20
230.9910713130993
 10
82.86908482287799
 20
231.000481518
 10
82.87808674782718
 20
231.0098128377774
 10
82.88714751379847
 20
231.0190656283074
 10
82.89626686601875
 20
231.0282402454595
 10
82.9054445497386
 20
231.0373370451078
 10
82.91468031018665
 20
231.046356383129
 10
82.92397389262806
 20
231.0552986153907
 10
82.93332504228784
 20
231.0641640977673
 10
82.94273350441837
 20
231.0729531861316
 10
82.95219902425742
 20
231.0816662363576
 10
82.96172134703736
 20
231.0903036043164
 10
82.97130021802695
 20
231.098865645883
 10
82.98093538244756
 20
231.107352716929
 10
82.99062658554793
 20
231.1157651733264
 10
83.00037357256952
 20
231.1241033709502
 10
83.01017608875737
 20
231.1323676656702
 10
83.02003387934929
 20
231.1405584133626
 10
83.02994668958854
 20
231.148675969898
 10
83.03991426472748
 20
231.1567206911522
 10
83.04993634998755
 20
231.1646929329925
 10
83.06001269063745
 20
231.1725930512964
 10
83.07014303189863
 20
231.1804214019355
 10
83.08032711902706
 20
231.1881783407851
 10
83.09056469725694
 20
231.1958642237105
 10
83.10085551182783
 20
231.203479406593
 10
83.1111993079976
 20
231.2110242453018
 10
83.12159583099854
 20
231.2184990957093
 10
83.13204482606852
 20
231.225904313691
 10
83.14254603845801
 20
231.2332402551164
 10
83.15309921340668
 20
231.2405072758592
 10
83.16370409615775
 20
231.2477057317936
 10
83.174360431949
 20
231.2548359787915
 10
83.18506796602742
 20
231.2618983727261
 10
83.19582644363618
 20
231.2688932694709
 10
83.20663561001856
 20
231.2758210248957
 10
83.21749521041965
 20
231.2826819948768
 10
83.22840499006815
 20
231.2894765352875
 10
83.23936469421823
 20
231.2962050019959
 10
83.25037406811864
 20
231.302867750881
 10
83.2614328569871
 20
231.3094651378114
 10
83.27254080609781
 20
231.3159975186608
 10
83.28369766067771
 20
231.3224652493016
 10
83.29490316595729
 20
231.3288686856084
 10
83.306157067198
 20
231.3352081834544
 10
83.31745910963764
 20
231.3414840987088
 10
83.32880903851764
 20
231.3476967872484
 10
83.34020659906855
 20
231.3538466049449
 10
83.35165153655728
 20
231.35993390767
 10
83.36314359619791
 20
231.3659590512979
 10
83.37468252325743
 20
231.3719223917005
 10
83.38626806296998
 20
231.3778242847511
 10
83.39789996057698
 20
231.3836650863211
 10
83.40957796131807
 20
231.3894451522865
 10
83.42130181043648
 20
231.3951648385172
 10
83.43307125317734
 20
231.4008245008881
 10
83.44488603478749
 20
231.4064244952715
 10
83.45674590049929
 20
231.4119651775389
 10
83.46865059556876
 20
231.4174469035652
 10
83.48059986521912
 20
231.4228700292205
 10
83.49259345470818
 20
231.4282349103814
 10
83.50463110926829
 20
231.4335419029175
 10
83.51671257415729
 20
231.4387913627033
 10
83.52883759460747
 20
231.4439836456104
 10
83.54100591585666
 20
231.449119107514
 10
83.5532172831572
 20
231.4541981042839
 10
83.56547144173783
 20
231.4592209917964
 10
83.57776813685815
 20
231.4641881259202
 10
83.59010711374867
 20
231.4690998625327
 10
83.60248811766906
 20
231.4739565575036
 10
83.61491089382798
 20
231.478758566708
 10
83.62737518750689
 20
231.483506246015
 10
83.63988074391818
 20
231.4881999512998
 10
83.65242730831779
 20
231.4928400384359
 10
83.66501462594897
 20
231.4974268632949
 10
83.67764244205678
 20
231.5019607817539
 10
83.69031050187729
 20
231.5064421496789
 10
83.70301855064827
 20
231.5108713229455
 10
83.71576633361838
 20
231.5152486574297
 10
83.72855359603818
 20
231.5195745089993
 10
83.74138008313819
 20
231.5238492335302
 10
83.754245540169
 20
231.5280731868951
 10
83.76714971235742
 20
231.5322467249671
 10
83.78009234496856
 20
231.5363702036175
 10
83.79307318322753
 20
231.5404439787198
 10
83.80609197238664
 20
231.5444684061458
 10
83.81914845768733
 20
231.5484438417724
 10
83.83224238436742
 20
231.5523706414678
 10
83.84537349766835
 20
231.5562491611071
 10
83.85854154284789
 20
231.560079756562
 10
83.87174626511841
 20
231.563862783707
 10
83.88498740975775
 20
231.5675985984153
 10
83.89826472198729
 20
231.5712875565549
 10
83.91157794704851
 20
231.574930014005
 10
83.92492683018645
 20
231.578526326636
 10
83.93831111664804
 20
231.5820768503189
 10
83.95173055167834
 20
231.5855819409289
 10
83.9651848805188
 20
231.5890419543384
 10
83.9786738484072
 20
231.59245724642
 10
83.99219720057772
 20
231.5958281730444
 10
84.00575468228817
 20
231.5991550900871
 10
84.01934603877817
 20
231.602438353423
 10
84.03297101528734
 20
231.6056783189196
 10
84.0466293570571
 20
231.6088753424537
 10
84.06032080932709
 20
231.612029779897
 10
84.07404511734783
 20
231.615141987122
 10
84.08780202635716
 20
231.6182123200005
 10
84.10159128159831
 20
231.6212411344086
 10
84.11541262831816
 20
231.6242287862194
 10
84.12926581174906
 20
231.6271756313008
 10
84.14315057713793
 20
231.6300820255273
 10
84.157066669728
 20
231.6329483247755
 10
84.17101383476802
 20
231.635774884914
 10
84.18499181749757
 20
231.6385620618174
 10
84.19900036314905
 20
231.641310211361
 10
84.21303921697836
 20
231.6440196894109
 10
84.22710812421973
 20
231.6466908518468
 10
84.24120683010732
 20
231.6493240545387
 10
84.25533507990804
 20
231.651919653358
 10
84.26949261884876
 20
231.6544780041822
 10
84.28367919216908
 20
231.6569994628806
 10
84.29789454511956
 20
231.6594843853253
 10
84.312138422938
 20
231.6619331273912
 10
84.32641057086767
 20
231.6643460449513
 10
84.34071073415728
 20
231.6667234938758
 10
84.35503865803729
 20
231.6690658300403
 10
84.36939408775833
 20
231.6713734093164
 10
84.38377676855816
 20
231.6736465875754
 10
84.39818644568731
 20
231.6758857206949
 10
84.41262286437812
 20
231.6780911645464
 10
84.42708576988662
 20
231.6802632749968
 10
84.44157490743602
 20
231.6824024079269
 10
84.45609002228776
 20
231.6845089192038
 10
84.47063085967782
 20
231.6865831647044
 10
84.48519716483678
 20
231.688625500299
 10
84.49978868302787
 20
231.6906362818607
 10
84.51440515947799
 20
231.6926158652631
 10
84.52904633943763
 20
231.6945646063776
 10
84.54371196814827
 20
231.6964828610798
 10
84.55840179084953
 20
231.6983709852419
 10
84.57311555277739
 20
231.7002293347339
 10
84.58785299919872
 20
231.7020582654313
 10
84.60261387532773
 20
231.7038581332079
 10
84.61739792641855
 20
231.7056292939331
 10
84.63220489771812
 20
231.707372103482
 10
84.64703453445691
 20
231.7090869177263
 10
84.66188658188729
 20
231.7107740925403
 10
84.67676078525801
 20
231.7124339837981
 10
84.69165688979774
 20
231.7140669473656
 10
84.70657464074795
 20
231.7156733391255
 10
84.72151378335729
 20
231.7172535149429
 10
84.73647406287819
 20
231.7188078306953
 10
84.75145522453749
 20
231.7203366422527
 10
84.76645701358755
 20
231.7218403054912
 10
84.78147917526802
 20
231.7233191762779
 10
84.7965214548185
 20
231.7247736104927
 10
84.81158359748771
 20
231.7262039640026
 10
84.82666534849888
 20
231.7276105926848
 10
84.8417664531189
 20
231.7289938524081
 10
84.85688665658747
 20
231.7303540990486
 10
84.87202570412774
 20
231.7316916884801
 10
84.88718334100667
 20
231.7330069765703
 10
84.90235931244752
 20
231.7343003191963
 10
84.91755336369715
 20
231.7355720722298
 10
84.93276524000794
 20
231.7368225915422
 10
84.9479946866195
 20
231.7380522330084
 10
84.96324144875689
 20
231.7392613525025
 10
84.97850527168703
 20
231.7404503058948
 10
84.99378590063679
 20
231.7416194490596
 10
85.00908308085675
 20
231.742769137867
 10
85.02439655758644
 20
231.7438997281933
 10
85.0397260760692
 20
231.74501157591
 10
85.05507138153735
 20
231.7461050368901
 10
85.07043221924869
 20
231.747180467004
 10
85.08580833443739
 20
231.7482382221269
 10
85.10119947234853
 20
231.7492786581349
 10
85.11660537822718
 20
231.7503021308948
 10
85.1320257973075
 20
231.7513089962831
 10
85.1474604748364
 20
231.7522996101732
 10
85.16290915606806
 20
231.7532743284326
 10
85.17837158622752
 20
231.7542335069409
 10
85.19384751055804
 20
231.7551775015671
 10
85.20933667431926
 20
231.7561066681855
 10
85.22483882272718
 20
231.7570213626668
 10
85.24035370105776
 20
231.7579219408871
 10
85.25588105451788
 20
231.7588087587191
 10
85.27142062837809
 20
231.7596821720325
 10
85.28697216786895
 20
231.7605425367018
 10
85.30253541822821
 20
231.7613902086003
 10
85.31811012470825
 20
231.7622255435999
 10
85.33369603254868
 20
231.7630488975728
 10
85.34929288699823
 20
231.7638606263954
 10
85.36490043327829
 20
231.764661085939
 10
85.38051841664856
 20
231.765450632074
 10
85.39614658235768
 20
231.7662296206744
 10
85.41178467562714
 20
231.7669984076136
 10
85.42743244171834
 20
231.767757348768
 10
85.44308962586908
 20
231.7685068000026
 10
85.45875597330814
 20
231.7692471171985
 10
85.4744312292987
 20
231.7699786562194
 10
85.49011513906952
 20
231.770701772948
 10
85.5058074478693
 20
231.7714168232503
 10
85.52150790093765
 20
231.7721241630024
 10
85.53721624350691
 20
231.7728241480772
 10
85.55293222084946
 20
231.773517134342
 10
85.56865557817763
 20
231.7742034776784
 10
85.58438606074924
 20
231.7748835339543
 10
85.60012341379843
 20
231.7755576590425
 10
85.61586738257938
 20
231.7762262088161
 10
85.63161771231898
 20
231.7768895391491
 10
85.64737414826778
 20
231.7775480059144
 10
85.66313643567809
 20
231.7782019649839
 10
85.67890431976776
 20
231.7788517722283
 10
85.69467754580728
 20
231.7794977835244
 10
85.71045585902721
 20
231.7801403547454
 10
85.72623900465805
 20
231.7807798417613
 10
85.74202672795761
 20
231.7814166004473
 10
85.7578187741692
 20
231.7820509866724
 10
85.77361488852877
 20
231.782683356312
 10
85.7894148162777
 20
231.7833140652401
 10
85.80521830266844
 20
231.7839434693268
 10
85.82102509292781
 20
231.7845719244487
 10
85.8368349323082
 20
231.7851997864745
 10
85.85264756604736
 20
231.7858274112804
 10
85.86846273938681
 20
231.7864551547363
 10
85.88428019758612
 20
231.7870833727183
 10
85.90009968586855
 20
231.7877124210971
 10
85.91592094948826
 20
231.7883426557464
 10
85.93174373367764
 20
231.7889744325365
 10
85.94756778367809
 20
231.789608107344
 10
85.96339284474924
 20
231.7902440360402
 10
85.97921866210709
 20
231.790882574498
 10
85.9950449810276
 20
231.7915240785894
 10
86.01087154671949
 20
231.7921689041877
 10
86.02669810444785
 20
231.7928174071685
 10
86.04252439944866
 20
231.7934699434008
 10
86.05835017696881
 20
231.794126868759
 10
86.07417518223702
 20
231.7947885391165
 10
86.08999916050743
 20
231.7954553103435
 10
86.10582185701787
 20
231.7961275383157
 10
86.12164301701886
 20
231.7968055789059
 10
86.1374623857373
 20
231.7974897879864
 10
86.15327970843827
 20
231.7981805214293
 10
86.16909473033775
 20
231.7988781351075
 10
86.18490719669898
 20
231.7995829848951
 10
86.20071685275799
 20
231.8002954266649
 10
86.21652344374707
 20
231.8010158162868
 10
86.2323267149277
 20
231.8017445096375
 10
86.24812641152676
 20
231.802481862587
 10
86.26392227879845
 20
231.8032282310114
 10
86.27971406197866
 20
231.8039839707799
 10
86.29550150630711
 20
231.8047494377679
 10
86.31128435703795
 20
231.8055249878478
 10
86.32706235939805
 20
231.8063109768899
 10
86.34283525863613
 20
231.8071077607709
 10
86.35860280000816
 20
231.8079156953607
 10
86.37436472872833
 20
231.8087351365338
 10
86.39012079006899
 20
231.8095664401653
 10
86.40587072924791
 20
231.810409962122
 10
86.42161429152656
 20
231.8112660582809
 10
86.4373512221373
 20
231.812135084514
 10
86.45308126631787
 20
231.8130173966944
 10
86.468804169328
 20
231.8139133506964
 10
86.48451967639813
 20
231.8148233023894
 10
86.50022753276969
 20
231.8157476076475
 10
86.51592748368603
 20
231.8166866223446
 10
86.53161927439942
 20
231.8176407023547
 10
86.54730265014768
 20
231.818610203547
 10
86.56297735615771
 20
231.8195954817974
 10
86.57864313768731
 20
231.8205968929778
 10
86.59429973998703
 20
231.8216147929613
 10
86.60994690827829
 20
231.8226495376209
 10
86.62558438781889
 20
231.8237014828281
 10
86.64121192383754
 20
231.8247709844563
 10
86.65682926159751
 20
231.8258583983805
 10
86.67243614632935
 20
231.826964080471
 10
86.68803232326899
 20
231.8280883866008
 10
86.70361753766881
 20
231.8292316726437
 10
86.71919153475753
 20
231.8303942944718
 10
86.73475405979843
 20
231.8315766079575
 10
86.75030485802746
 20
231.8327789689765
 10
86.76584367467876
 20
231.8340017334003
 10
86.78137025499744
 20
231.835245257098
 10
86.79688434422676
 20
231.8365098959465
 10
86.8123856876191
 20
231.8377960058195
 10
86.82787403039766
 20
231.8391039425878
 10
86.84334911782753
 20
231.8404340621246
 10
86.85881069512834
 20
231.8417867203033
 10
86.87425850755792
 20
231.8431622729949
 10
86.88969230035764
 20
231.8445610760736
 10
86.90511181875809
 20
231.8459834854129
 10
86.92051680801887
 20
231.8474298568835
 10
86.93590701336871
 20
231.8489005463614
 10
86.95128218005811
 20
231.8503959097169
 10
86.96664205332856
 20
231.8519163028231
 10
86.9819863784178
 20
231.8534620815562
 10
86.99731490057819
 20
231.8550336017833
 10
87.01262736503668
 20
231.8566312193798
 10
87.02792351704918
 20
231.8582552902205
 10
87.04320310184812
 20
231.859906170177
 10
87.05846586468759
 20
231.8615842151229
 10
87.07371155080727
 20
231.8632897809284
 10
87.08893990543765
 20
231.8650232234686
 10
87.1041506738293
 20
231.8667848986151
 10
87.11934360123633
 20
231.8685751622405
 10
87.1345184328784
 20
231.870394370222
 10
87.14967491401877
 20
231.8722428784258
 10
87.16481278988613
 20
231.8741210427304
 10
87.17993180572737
 20
231.8760292190045
 10
87.19503170679855
 20
231.8779677631228
 10
87.21011223831737
 20
231.8799370309589
 10
87.22517314553806
 20
231.8819373783844
 10
87.2402141736984
 20
231.8839691612735
 10
87.25523506805803
 20
231.8860327354978
 10
87.27023557383656
 20
231.8881284569288
 10
87.28521543628628
 20
231.890256681443
 10
87.30017440066879
 20
231.8924177649094
 10
87.31511221218715
 20
231.8946120632044
 10
87.33002861611931
 20
231.8968399321984
 10
87.34492335767937
 20
231.8991017277649
 10
87.35979618213788
 20
231.901397805778
 10
87.37464683471808
 20
231.9037285221093
 10
87.3894750606578
 20
231.9060942326296
 10
87.40428060521843
 20
231.9084952932171
 10
87.41906321363606
 20
231.9109320597398
 10
87.43382263114837
 20
231.9134048880714
 10
87.44855860299869
 20
231.9159141340858
 10
87.46327087442841
 20
231.918460153658
 10
87.47795919068813
 20
231.9210433026573
 10
87.49262329701741
 20
231.9236639369573
 10
87.50726293864863
 20
231.9263224124314
 10
87.52187786083778
 20
231.9290190849523
 10
87.53646780881899
 20
231.9317543103925
 10
87.55103252783738
 20
231.9345284446262
 10
87.56557176312709
 20
231.9373418435251
 10
87.58008525994773
 20
231.9401948629619
 10
87.59457276353714
 20
231.9430878588089
 10
87.60903401912765
 20
231.9460211869424
 10
87.62346877196796
 20
231.9489952032308
 10
87.63787676729771
 20
231.9520102635506
 10
87.65225775036924
 20
231.9550667237708
 10
87.66661146640762
 20
231.9581649397678
 10
87.68093766066884
 20
231.961305267414
 10
87.69523607839801
 20
231.96448806258
 10
87.70950646482743
 20
231.9677136811395
 10
87.72374856519855
 20
231.9709824789661
 10
87.73796212476922
 20
231.9742948119337
 10
87.75214688876804
 20
231.9776510359106
 10
87.76630260243655
 20
231.9810515067775
 10
87.78042901102891
 20
231.9844965804004
 10
87.79452585977741
 20
231.9879866126539
 10
87.80859289392902
 20
231.9915219594104
 10
87.82262985871785
 20
231.9951029765451
 10
87.83663649940718
 20
231.9987300199299
 10
87.8506125612184
 20
232.0024034454363
 10
87.86455778939853
 20
232.0061236089386
 10
87.87847192919798
 20
232.0098908663094
 10
87.89235472585643
 20
232.0137055734221
 10
87.906205924608
 20
232.0175680861455
 10
87.92002527070691
 20
232.0214787603581
 10
87.93381250938727
 20
232.025437951929
 10
87.94756738589967
 20
232.029446016735
 10
87.96128964546914
 20
232.0335033106446
 10
87.97497903335715
 20
232.0376101895325
 10
87.98863529480696
 20
232.0417670092701
 10
88.00225817504722
 20
232.0459741257355
 10
88.01584741932854
 20
232.0502318947928
 10
88.02940277288689
 20
232.0545406723231
 10
88.04292398097825
 20
232.0589008141951
 10
88.05641078882763
 20
232.0633126762803
 10
88.06986294169837
 20
232.0677766144563
 10
88.08328018480827
 20
232.0722929845933
 10
88.09666226341869
 20
232.0768621425604
 10
88.11000892276934
 20
232.0814844442383
 10
88.123319908098
 20
232.0861602454943
 10
88.13659496463699
 20
232.0908899022033
 10
88.14983383765865
 20
232.095673770237
 10
88.16303627237903
 20
232.1005122054693
 10
88.17620201404862
 20
232.1054055637714
 10
88.18933080790884
 20
232.1103542010184
 10
88.20242239920842
 20
232.1153584730818
 10
88.21547653317793
 20
232.1204187358369
 10
88.22849295506784
 20
232.1255353451515
 10
88.24147141012872
 20
232.1307086569013
 10
88.25441164357831
 20
232.1359390269608
 10
88.26731340068727
 20
232.1412268112017
 10
88.28017642668783
 20
232.1465723654945
 10
88.29300046681964
 20
232.1519760457167
 10
88.30578526631871
 20
232.1574382077341
 10
88.31853057043733
 20
232.1629592074275
 10
88.33123612441886
 20
232.1685394006653
 10
88.34390167349921
 20
232.1741791433195
 10
88.35652696291978
 20
232.1798787912666
 10
88.36911173793669
 20
232.1856387003781
 10
88.38165574377853
 20
232.1914592265238
 10
88.39415872568679
 20
232.1973407255809
 10
88.40662042891926
 20
232.2032835534189
 10
88.41904059869738
 20
232.2092880659128
 10
88.43141898028807
 20
232.2153546189345
 10
88.44375531891818
 20
232.2214835683589
 10
88.45604935982736
 20
232.2276752700536
 10
88.46830084825706
 20
232.2339300799003
 10
88.48050952946868
 20
232.2402483537604
 10
88.49267514868733
 20
232.2466304475164
 10
88.50479745116897
 20
232.2530767170373
 10
88.5168761821369
 20
232.2595875181959
 10
88.52891108684891
 20
232.2661632068648
 10
88.54090191053728
 20
232.2728041389179
 10
88.55284839845808
 20
232.2795106702268
 10
88.56475029583817
 20
232.286283156668
 10
88.57660734793716
 20
232.2931219541078
 10
88.58841929998744
 20
232.3000274184249
 10
88.60018589722859
 20
232.3069999054895
 10
88.61190688489841
 20
232.3140397711747
 10
88.62358200825656
 20
232.3211473713524
 10
88.63521101253722
 20
232.3283230618998
 10
88.64679364297808
 20
232.3355671986845
 10
88.65832964482796
 20
232.3428801375821
 10
88.66981876332831
 20
232.350262234464
 10
88.68126074372776
 20
232.3577138452028
 10
88.6926553312478
 20
232.3652353256755
 10
88.70400227115714
 20
232.3728270317523
 10
88.71530130867904
 20
232.3804893193027
 10
88.72655218906947
 20
232.388222544203
 10
88.73775465755716
 20
232.3960270623274
 10
88.74890845938717
 20
232.403903229544
 10
88.76001333981912
 20
232.4118514017317
 10
88.7710690440781
 20
232.4198719347594
 10
88.78207531740736
 20
232.427965184499
 10
88.79303190505742
 20
232.4361315068263
 10
88.80393855226794
 20
232.444371257613
 10
88.81479500427849
 20
232.4526847927318
 10
88.82560100633781
 20
232.461072468055
 10
88.83635630367825
 20
232.4695346394573
 10
88.84706064154853
 20
232.4780716628111
 10
88.85771376519732
 20
232.4866838939878
 10
88.86831541985703
 20
232.4953716888594
 10
88.87886535077814
 20
232.5041354033027
 10
88.88936330318756
 20
232.512975393185
 10
88.89980902234857
 20
232.5218920143861
 10
88.91020225348801
 20
232.5308856227726
 10
88.92054274185829
 20
232.5399565742209
 10
88.930830232699
 20
232.5491052246015
 10
88.94106447124796
 20
232.55833192979
 10
88.95124520275748
 20
232.5676370456567
 10
88.96137217245813
 20
232.5770209280763
 10
88.97144512559862
 20
232.5864839329224
 10
88.98146380742764
 20
232.5960264160639
 10
88.99142796317757
 20
232.6056487333771
 10
89.00133733808798
 20
232.6153512407354
 10
89.01119167741853
 20
232.6251342940067
 10
89.02099072639794
 20
232.6349982490691
 10
89.03073423026944
 20
232.6449434617961
 10
89.04042193427812
 20
232.6549702880547
 10
89.05005358366906
 20
232.6650790837208
 10
89.05962892367822
 20
232.6752702046706
 10
89.06914769954893
 20
232.685544006772
 10
89.07860965652798
 20
232.6959008458998
 10
89.08801453986781
 20
232.7063410779282
 10
89.09736209478795
 20
232.7168650587255
 10
89.10665206654812
 20
232.727473144173
 10
89.11588420038787
 20
232.7381656901343
 10
89.12505824153774
 20
232.7489430524883
 10
89.13417393525742
 20
232.7598055871039
 10
89.14323102677736
 20
232.7707536498555
 10
89.15222926134811
 20
232.7817875966192
 10
89.16116838420746
 20
232.7929077832623
 10
89.17004814059874
 20
232.8041145656634
 10
89.17339259110667
 20
232.8083969642694
  0
LINE
  5
260
330
2
100
AcDbEntity
  8
CL
 48
0.6
100
AcDbLine
 10
9.063872805327264
 20
289.994269935456
 30
0.0
 11
107.5704252341274
 21
289.994269935456
 31
0.0
  0
ARC
  5
261
330
2
100
AcDbEntity
  8
0
 48
0.6
100
AcDbCircle
 10
58.2416847055374
 20
289.994269935456
 30
0.0
 40
36.81561599999999
100
AcDbArc
 50
116.3656725032109
 51
153.634327496783
  0
DIMENSION
  5
262
330
2
100
AcDbEntity
  8
0
100
AcDbDimension
  2
*D37
 10
103.3171490197182
 20
355.2160317133593
 30
0.0
 11
58.70780065970757
 21
355.2160317133593
 31
0.0
 70
   160
  3
1_1_2
100
AcDbAlignedDimension
 13
13.31714901972735
 23
329.9514761766586
 33
0.0
 14
103.3171490197182
 24
329.9514761766586
 34
0.0
100
AcDbRotatedDimension
  0
ARC
  5
26F
330
2
100
AcDbEntity
  8
0
 48
0.6
100
AcDbCircle
 10
58.2416847055374
 20
289.994269935456
 30
0.0
 40
36.81561599999999
100
AcDbArc
 50
206.3656725032168
 51
243.634327496789
  0
CIRCLE
  5
270
330
2
100
AcDbEntity
  8
0
 48
0.6
100
AcDbCircle
 10
58.31714901972737
 20
289.994269935456
 30
0.0
 40
43.5
  0
CIRCLE
  5
271
330
2
100
AcDbEntity
  8
0
 48
0.6
100
AcDbCircle
 10
58.31714901972737
 20
289.994269935456
 30
0.0
 40
42.00000000000005
  0
LWPOLYLINE
  5
272
330
2
100
AcDbEntity
  8
0
100
AcDbPolyline
 90
        8
 70
     1
 43
0.0
 10
18.31714901972736
 20
244.994269935455
 10
98.31714901972738
 20
244.9942699354568
 42
0.4142135623730951
 10
103.3171490197273
 20
249.9942699354559
 10
103.3171490197273
 20
329.9942699354569
 42
0.4142135623730951
 10
98.31714901972738
 20
334.9942699354568
 10
18.31714901972736
 20
334.9942699354568
 42
0.4142135623730951
 10
13.31714901972735
 20
329.9942699354569
 10
13.31714901972735
 20
249.9942699354559
 42
0.4142135623730951
  0
CIRCLE
  5
273
330
2
100
AcDbEntity
  8
0
100
AcDbCircle
 10
21.54759639802795
 20
326.7638225571563
 30
0.0
 40
3.25
  0
LINE
  5
274
330
2
100
AcDbEntity
  8
CL
 48
0.6
100
AcDbLine
 10
25.2599069992484
 20
323.0515119559266
 30
0.0
 11
17.83528579679841
 21
330.4761331583859
 31
0.0
  0
ARC
  5
275
330
2
100
AcDbEntity
  8
CL
 48
0.6
100
AcDbCircle
 10
58.31714901972737
 20
289.994269935456
 30
0.0
 40
52.0
100
AcDbArc
 50
129.2128702778031
 51
140.7871297221961
  0
ARC
  5
276
330
2
100
AcDbEntity
  8
0
 48
0.6
100
AcDbCircle
 10
28.00453478946838
 20
304.981548223558
 30
0.0
 40
3.067967999999998
100
AcDbArc
 50
153.634327496783
 51
218.0513255193776
  0
ARC
  5
277
330
2
100
AcDbEntity
  8
0
 48
0.6
100
AcDbCircle
 10
23.17273720225784
 20
301.1995589755187
 30
0.0
 40
3.067967999999998
100
AcDbArc
 50
342.2801918472013
 51
38.05132551937779
  0
ARC
  5
278
330
2
100
AcDbEntity
  8
CL
 48
0.6
100
AcDbCircle
 10
58.31714901972737
 20
289.994269935456
 30
0.0
 40
51.9999999999996
100
AcDbArc
 50
215.90024337538
 51
234.0997566246191
  0
CIRCLE
  5
279
330
2
100
AcDbEntity
  8
0
100
AcDbCircle
 10
21.54759639802795
 20
253.2247173137548
 30
0.0
 40
3.25
  0
LINE
  5
27A
330
2
100
AcDbEntity
  8
CL
 48
0.6
100
AcDbLine
 10
25.2599069992484
 20
256.9370279149834
 30
0.0
 11
17.83528579679841
 21
249.5124067125241
 31
0.0
  0
ARC
  5
27B
330
2
100
AcDbEntity
  8
0
 48
0.6
100
AcDbCircle
 10
28.00453478946838
 20
275.006991647353
 30
0.0
 40
3.067967999999998
100
AcDbArc
 50
141.9486744806222
 51
206.3656725032168
  0
ARC
  5
27C
330
2
100
AcDbEntity
  8
0
 48
0.6
100
AcDbCircle
 10
23.17273720225784
 20
278.7889808953905
 30
0.0
 40
3.067967999999998
100
AcDbArc
 50
321.9486744806221
 51
17.71980815279839
  0
ARC
  5
27D
330
2
100
AcDbEntity
  8
0
 48
0.6
100
AcDbCircle
 10
58.2416847055374
 20
289.994269935456
 30
0.0
 40
33.74764799999999
100
AcDbArc
 50
162.2801918472015
 51
197.7198081527984
  0
ARC
  5
27E
330
2
100
AcDbEntity
  8
0
 48
0.6
100
AcDbCircle
 10
58.2416847055374
 20
289.994269935456
 30
0.0
 40
36.81561599999999
100
AcDbArc
 50
26.36567250321681
 51
63.63432749678904
  0
ARC
  5
27F
330
2
100
AcDbEntity
  8
0
 48
0.6
100
AcDbCircle
 10
47.03639566547827
 20
325.0632174387383
 30
0.0
 40
3.067967999999998
100
AcDbArc
 50
231.948674480613
 51
287.7198081528051
  0
ARC
  5
280
330
2
100
AcDbEntity
  8
0
 48
0.6
100
AcDbCircle
 10
43.25440641743624
 20
320.2314198515249
 30
0.0
 40
3.067967999999998
100
AcDbArc
 50
51.94867448061305
 51
116.3656725032109
  0
ARC
  5
281
330
2
100
AcDbEntity
  8
0
 48
0.6
100
AcDbCircle
 10
69.44697374560746
 20
325.0632174387383
 30
0.0
 40
3.067967999999998
100
AcDbArc
 50
252.2801918471949
 51
308.0513255193868
  0
ARC
  5
282
330
2
100
AcDbEntity
  8
0
 48
0.6
100
AcDbCircle
 10
73.22896299363673
 20
320.2314198515249
 30
0.0
 40
3.067967999999998
100
AcDbArc
 50
63.63432749678904
 51
128.0513255193867
  0
ARC
  5
283
330
2
100
AcDbEntity
  8
0
 48
0.6
100
AcDbCircle
 10
58.2416847055374
 20
289.994269935456
 30
0.0
 40
33.74764799999999
100
AcDbArc
 50
72.28019184719491
 51
107.7198081528049
  0
ARC
  5
284
330
2
100
AcDbEntity
  8
0
 48
0.6
100
AcDbCircle
 10
88.47883462160826
 20
304.981548223558
 30
0.0
 40
3.067967999999998
100
AcDbArc
 50
321.9486744806221
 51
26.36567250321681
  0
ARC
  5
285
330
2
100
AcDbEntity
  8
0
 48
0.6
100
AcDbCircle
 10
93.31063220882787
 20
301.1995589755187
 30
0.0
 40
3.067967999999998
100
AcDbArc
 50
141.9486744806222
 51
197.7198081527984
  0
LWPOLYLINE
  5
286
330
2
100
AcDbEntity
  8
0
 62
     3
100
AcDbPolyline
 90
        4
 70
     1
 43
0.0
 10
52.59253234090646
 20
356.210649113199
 10
55.23282932693837
 20
356.210649113199
 10
55.23282932693837
 20
359.279465930901
 10
52.59253234090646
 20
359.279465930901
  0
ARC
  5
287
102
{ACAD_REACTORS
330
2A0
102
}
330
2
100
AcDbEntity
  8
CL
 48
0.6
100
AcDbCircle
 10
58.31714901972737
 20
289.994269935456
 30
0.0
 40
51.9999999999996
100
AcDbArc
 50
35.9002433753803
 51
54.09975662461928
  0
LINE
  5
288
330
2
100
AcDbEntity
  8
CL
 48
0.6
100
AcDbLine
 10
91.37439104019724
 20
323.0515119559266
 30
0.0
 11
98.79901224265815
 21
330.4761331583847
 31
0.0
  0
CIRCLE
  5
289
330
2
100
AcDbEntity
  8
0
100
AcDbCircle
 10
95.08670164142859
 20
326.7638225571563
 30
0.0
 40
3.25
  0
LINE
  5
28A
330
2
100
AcDbEntity
  8
0
 48
0.6
100
AcDbLine
 10
79.68043433619823
 20
244.9942699354568
 30
0.0
 11
73.93938410967894
 21
244.9942699354568
 31
0.0
  0
LINE
  5
28B
330
2
100
AcDbEntity
  8
0
100
AcDbLine
 10
75.56366965664892
 20
240.360596338376
 30
0.0
 11
82.05580100219959
 21
243.2511963151072
 31
0.0
  0
ARC
  5
28C
330
2
100
AcDbEntity
  8
0
 48
0.6
100
AcDbCircle
 10
110.473353867168
 20
259.3048225839948
 30
0.0
 40
39.15579199999999
100
AcDbArc
 50
201.4369589999631
 51
208.5517089163135
  0
ARC
  5
28D
330
2
100
AcDbEntity
  8
0
 48
0.6
100
AcDbCircle
 10
43.14106331696891
 20
231.4055713186144
 30
0.0
 40
39.15579199999999
100
AcDbArc
 50
16.65391050761257
 51
20.30648800596492
  0
ARC
  5
28E
330
2
100
AcDbEntity
  8
0
 48
0.6
100
AcDbCircle
 10
58.2416847055374
 20
289.994269935456
 30
0.0
 40
36.81561599999999
100
AcDbArc
 50
296.3656725032108
 51
333.6343274967831
  0
ARC
  5
28F
330
2
100
AcDbEntity
  8
0
 48
0.6
100
AcDbCircle
 10
47.03639566547827
 20
254.9253224321708
 30
0.0
 40
3.067967999999998
100
AcDbArc
 50
72.28019184719491
 51
128.0513255193867
  0
ARC
  5
290
330
2
100
AcDbEntity
  8
0
 48
0.6
100
AcDbCircle
 10
43.25440641743624
 20
259.757120019386
 30
0.0
 40
3.067967999999998
100
AcDbArc
 50
243.634327496789
 51
308.0513255193868
  0
ARC
  5
291
330
2
100
AcDbEntity
  8
0
 48
0.6
100
AcDbCircle
 10
69.44697374560746
 20
254.9253224321708
 30
0.0
 40
3.067967999999998
100
AcDbArc
 50
51.94867448061305
 51
107.7198081528049
  0
ARC
  5
292
330
2
100
AcDbEntity
  8
0
 48
0.6
100
AcDbCircle
 10
73.22896299363673
 20
259.757120019386
 30
0.0
 40
3.067967999999998
100
AcDbArc
 50
231.948674480613
 51
296.3656725032108
  0
ARC
  5
293
330
2
100
AcDbEntity
  8
0
 48
0.6
100
AcDbCircle
 10
58.2416847055374
 20
289.994269935456
 30
0.0
 40
33.74764799999999
100
AcDbArc
 50
252.2801918471949
 51
287.7198081528051
  0
ARC
  5
294
330
2
100
AcDbEntity
  8
0
 48
0.6
100
AcDbCircle
 10
88.47883462160826
 20
275.006991647353
 30
0.0
 40
3.067967999999998
100
AcDbArc
 50
333.6343274967831
 51
38.05132551937779
  0
ARC
  5
295
330
2
100
AcDbEntity
  8
0
 48
0.6
100
AcDbCircle
 10
93.31063220882787
 20
278.7889808953905
 30
0.0
 40
3.067967999999998
100
AcDbArc
 50
162.2801918472015
 51
218.0513255193776
  0
CIRCLE
  5
296
330
2
100
AcDbEntity
  8
0
100
AcDbCircle
 10
95.08670164142859
 20
253.2247173137548
 30
0.0
 40
3.25
  0
LINE
  5
297
330
2
100
AcDbEntity
  8
CL
 48
0.6
100
AcDbLine
 10
91.37439104019724
 20
256.9370279149834
 30
0.0
 11
98.79901224265815
 21
249.5124067125241
 31
0.0
  0
ARC
  5
298
330
2
100
AcDbEntity
  8
CL
 48
0.6
100
AcDbCircle
 10
58.31714901972737
 20
289.994269935456
 30
0.0
 40
52.0
100
AcDbArc
 50
309.2128702778031
 51
320.7871297221961
  0
LINE
  5
299
330
2
100
AcDbEntity
  8
CL
 48
0.6
100
AcDbLine
 10
76.9567593265183
 20
244.9942699354568
 30
0.0
 11
58.31714901972737
 21
289.994269935456
 31
0.0
  0
CIRCLE
  5
29A
330
2
100
AcDbEntity
  8
0
 48
0.6
100
AcDbCircle
 10
58.31714901972737
 20
289.994269935456
 30
0.0
 40
6.0
  0
ARC
  5
29B
330
2
100
AcDbEntity
  8
0
 48
0.6
100
AcDbCircle
 10
58.2416847055374
 20
289.994269935456
 30
0.0
 40
33.74764799999999
100
AcDbArc
 50
342.2801918472013
 51
17.71980815279839
  0
CIRCLE
  5
29C
330
2
100
AcDbEntity
  8
0
 48
0.6
100
AcDbCircle
 10
58.31714901972737
 20
289.994269935456
 30
0.0
 40
20.0
  0
MTEXT
  5
29D
102
{ACAD_REACTORS
330
2AC
102
}
330
2
100
AcDbEntity
  8
0
 62
     3
100
AcDbMText
 10
85.41105504264852
 20
347.466272261041
 30
0.0
 40
3.5
 41
0.0
 71
     9
 72
     1
  1
4-%%C6.5 hole
1001
ACAD
1000
MTEXTBEGIN
1070
    73
1070
     1
1070
    44
1040
1.0
1070
    74
1070
     0
1000
MTEXTEND
1000
MTEXTBEGIN
1070
    73
1070
     1
1070
    44
1040
1.0
1070
    74
1070
     0
1000
MTEXTEND
1000
MTEXTBEGIN
1070
    73
1070
     1
1070
    44
1040
1.0
1070
    74
1070
     0
1000
MTEXTEND
1000
MTEXTBEGIN
1070
    73
1070
     1
1070
    44
1040
1.0
1070
    74
1070
     0
1000
MTEXTEND
  0
DIMENSION
  5
29E
102
{ACAD_XDICTIONARY
360
29F
102
}
102
{ACAD_REACTORS
330
2A0
102
}
330
2
100
AcDbEntity
  8
0
100
AcDbDimension
  2
*D36
 10
16.94759053291218
 20
258.4893555472634
 30
0.0
 11
115.9597084028821
 21
333.8918594894118
 31
0.0
 70
   163
  1
<>%%P0.5
  3
1_1_2
100
AcDbDiametricDimension
 15
99.68670750653195
 25
321.4991843236401
 35
0.0
 40
0.0
  0
LEADER
  5
2AC
330
2
100
AcDbEntity
  8
0
100
AcDbLeader
  3
1_1_2
 73
     0
 75
     1
 40
3.5
 41
31.09375
 76
     3
 10
95.11134221614701
 20
329.9134443882612
 30
0.0
 10
89.41105504264848
 20
346.466272261041
 30
0.0
 10
86.41105504264848
 20
346.466272261041
 30
0.0
340
29D
1001
ACAD
1000
DSTYLE
1002
{
1070
     5
1000

1070
   342
1005
0
1002
}
  0
LINE
  5
2AD
330
2
100
AcDbEntity
  8
0
 62
   123
 48
0.6
100
AcDbLine
 10
181.3771329252977
 20
221.3919200965611
 30
0.0
 11
122.1229750979273
 21
221.3919200965611
 31
0.0
  0
TEXT
  5
2AE
330
2
100
AcDbEntity
  8
DIM
100
AcDbText
 10
123.4929951489192
 20
223.3919200965611
 30
0.0
 40
3.5
  1
 LEAD WIRE 300mm
100
AcDbText
  0
DIMENSION
  5
2AF
102
{ACAD_XDICTIONARY
360
2B0
102
}
102
{ACAD_REACTORS
330
2B1
102
}
330
2
100
AcDbEntity
  8
0
100
AcDbDimension
  2
*D35
 10
143.1187274173279
 20
248.494269935456
 30
0.0
 11
143.1187274173279
 21
289.994269935456
 31
0.0
 70
   160
  1
\A1;{\f??|b0|i0|c0|p49;%%C}<>{\f??|b0|i0|c0|p49;\H0.7x;\S+0^ -0.035;\H1.429x;(h}7{\f??|b0|i0|c0|p49;)}
  3
1_1_2
100
AcDbAlignedDimension
 13
179.3860409813696
 23
331.494269935456
 33
0.0
 14
179.3860409813696
 24
248.494269935456
 34
0.0
 50
90.0
100
AcDbRotatedDimension
  0
LINE
  5
2BE
330
2
100
AcDbEntity
  8
0
100
AcDbLine
 10
378.8867634720681
 20
334.9942699354568
 30
0.0
 11
317.4767634720683
 21
334.9942699354568
 31
0.0
  0
LINE
  5
2BF
330
2
100
AcDbEntity
  8
0
100
AcDbLine
 10
378.8867634720681
 20
244.9942699354568
 30
0.0
 11
303.9475769922773
 21
244.9942699354568
 31
0.0
  0
ARC
  5
2C0
330
2
100
AcDbEntity
  8
0
100
AcDbCircle
 10
296.9305541457377
 20
242.4350425179209
 30
0.0
 40
4.041132640617096
100
AcDbArc
 50
270.2413531633601
 51
353.7382029889952
  0
LINE
  5
2C1
330
2
100
AcDbEntity
  8
CL
 48
0.6
100
AcDbLine
 10
321.3867634720681
 20
247.5639078616477
 30
0.0
 11
321.3867634720681
 21
240.605377544153
 31
0.0
  0
LINE
  5
2C2
330
2
100
AcDbEntity
  8
CL
 48
0.6
100
AcDbLine
 10
321.3867634720681
 20
338.4780354414941
 30
0.0
 11
321.3867634720681
 21
331.8971787287591
 31
0.0
  0
LINE
  5
2C3
330
2
100
AcDbEntity
  8
CEN
100
AcDbLine
 10
321.3867634720681
 20
286.5414726047628
 30
0.0
 11
321.3867634720681
 21
293.4470672661481
 31
0.0
  0
CIRCLE
  5
2C4
330
2
100
AcDbEntity
  8
0
100
AcDbCircle
 10
321.3867634720681
 20
289.994269935456
 30
0.0
 40
2.0
  0
LINE
  5
2C5
330
2
100
AcDbEntity
  8
CEN
 62
    62
100
AcDbLine
 10
320.6867634720673
 20
288.1207705359356
 30
0.0
 11
320.6867634720673
 21
289.2942699354552
 31
0.0
  0
LINE
  5
2C6
330
2
100
AcDbEntity
  8
CEN
 62
    62
100
AcDbLine
 10
322.0867634720688
 20
288.1207705359356
 30
0.0
 11
322.0867634720688
 21
289.2942699354552
 31
0.0
  0
LINE
  5
2C7
330
2
100
AcDbEntity
  8
CL
 62
    62
 48
0.6
100
AcDbLine
 10
323.2602628715866
 20
290.6942699354558
 30
0.0
 11
322.0867634720688
 21
290.6942699354558
 31
0.0
  0
LINE
  5
2C8
330
2
100
AcDbEntity
  8
CL
 62
    62
 48
0.6
100
AcDbLine
 10
323.2602628715866
 20
289.2942699354552
 30
0.0
 11
322.0867634720688
 21
289.2942699354552
 31
0.0
  0
LINE
  5
2C9
330
2
100
AcDbEntity
  8
CEN
 62
    62
100
AcDbLine
 10
320.6867634720673
 20
290.6942699354567
 30
0.0
 11
320.6867634720673
 21
291.8677693349745
 31
0.0
  0
LINE
  5
2CA
330
2
100
AcDbEntity
  8
CL
 62
    62
 48
0.6
100
AcDbLine
 10
320.6867634720673
 20
290.6942699354567
 30
0.0
 11
319.5132640725475
 21
290.6942699354558
 31
0.0
  0
LINE
  5
2CB
330
2
100
AcDbEntity
  8
CL
 62
    62
 48
0.6
100
AcDbLine
 10
320.6867634720673
 20
289.2942699354552
 30
0.0
 11
319.5132640725475
 21
289.2942699354552
 31
0.0
  0
LINE
  5
2CC
330
2
100
AcDbEntity
  8
CEN
 62
    62
100
AcDbLine
 10
322.0867634720688
 20
290.6942699354567
 30
0.0
 11
322.0867634720688
 21
291.8677693349745
 31
0.0
  0
LINE
  5
2CD
330
2
100
AcDbEntity
  8
0
100
AcDbLine
 10
308.4767634720683
 20
334.9942699354568
 30
0.0
 11
321.7267634720683
 21
334.9942699354568
 31
0.0
  0
LINE
  5
2CE
330
2
100
AcDbEntity
  8
0
100
AcDbLine
 10
322.5367634720676
 20
336.994269935456
 30
0.0
 11
320.2367634720685
 21
336.994269935456
 31
0.0
  0
ARC
  5
2CF
330
2
100
AcDbEntity
  8
0
100
AcDbCircle
 10
321.5143810463686
 20
335.1054611483013
 30
0.0
 40
2.280330085889914
100
AcDbArc
 50
124.0749889047942
 51
182.7949087410671
  0
ARC
  5
2D0
330
2
100
AcDbEntity
  8
0
100
AcDbCircle
 10
321.2591458977583
 20
335.1054611483013
 30
0.0
 40
2.280330085890314
100
AcDbArc
 50
357.2050912589323
 51
55.92501109520566
  0
LINE
  5
2D1
330
2
100
AcDbEntity
  8
0
100
AcDbLine
 10
320.4767634720683
 20
244.9942699354568
 30
0.0
 11
309.2175110801181
 21
244.9942699354568
 31
0.0
  0
LINE
  5
2D2
330
2
100
AcDbEntity
  8
0
 48
0.6
100
AcDbLine
 10
329.2455310961976
 20
244.9942699354568
 30
0.0
 11
320.2455310962068
 21
244.9942699354568
 31
0.0
  0
LINE
  5
2D3
330
2
100
AcDbEntity
  8
0
100
AcDbLine
 10
322.5367634720676
 20
242.994269935456
 30
0.0
 11
320.2367634720685
 21
242.994269935456
 31
0.0
  0
ARC
  5
2D4
330
2
100
AcDbEntity
  8
0
100
AcDbCircle
 10
321.2591458977583
 20
244.8830787226094
 30
0.0
 40
2.280330085889914
100
AcDbArc
 50
304.0749889047944
 51
2.7949087410675
  0
ARC
  5
2D5
330
2
100
AcDbEntity
  8
0
100
AcDbCircle
 10
321.5143810463686
 20
244.8830787226094
 30
0.0
 40
2.280330085890314
100
AcDbArc
 50
177.2050912589325
 51
235.9250110952057
  0
LINE
  5
2D6
330
2
100
AcDbEntity
  8
0
100
AcDbLine
 10
296.4477718980196
 20
246.994269935456
 30
0.0
 11
296.4477718980196
 21
246.3939457309388
 31
0.0
  0
ARC
  5
2D7
330
2
100
AcDbEntity
  8
0
100
AcDbCircle
 10
299.4477718980196
 20
246.994269935456
 30
0.0
 40
3.0
100
AcDbArc
 50
90.00000000000651
 51
180.0
  0
ARC
  5
2D8
330
2
100
AcDbEntity
  8
0
100
AcDbCircle
 10
293.4477718980088
 20
246.3939457309388
 30
0.0
 40
3.0
100
AcDbArc
 50
270.0000000000065
 51
0.0
  0
ARC
  5
2D9
330
2
100
AcDbEntity
  8
0
100
AcDbCircle
 10
303.9475769922773
 20
241.9942699354569
 30
0.0
 40
3.0
100
AcDbArc
 50
90.0
 51
180.0
  0
LINE
  5
2DA
330
2
100
AcDbEntity
  8
0
100
AcDbLine
 10
299.4477718980196
 20
249.9942699354559
 30
0.0
 11
308.3867634720681
 21
249.9942699354559
 31
0.0
  0
LINE
  5
2DB
330
2
100
AcDbEntity
  8
0
100
AcDbLine
 10
308.3867634720681
 20
244.9942699354568
 30
0.0
 11
308.3867634720681
 21
334.9942699354568
 31
0.0
  0
LINE
  5
2DC
330
2
100
AcDbEntity
  8
CL
 48
0.6
100
AcDbLine
 10
386.3882562273575
 20
325.994269935456
 30
0.0
 11
380.3867634720682
 21
325.994269935456
 31
0.0
  0
LINE
  5
2DD
330
2
100
AcDbEntity
  8
CL
 48
0.6
100
AcDbLine
 10
386.3882562273575
 20
253.9942699354559
 30
0.0
 11
380.3867634720682
 21
253.9942699354559
 31
0.0
  0
LINE
  5
2DE
330
2
100
AcDbEntity
  8
0
100
AcDbLine
 10
384.3882562273684
 20
255.1442699354555
 30
0.0
 11
384.3882562273684
 21
252.8442699354536
 31
0.0
  0
ARC
  5
2DF
330
2
100
AcDbEntity
  8
0
100
AcDbCircle
 10
382.498092118949
 20
254.1244330800054
 30
0.0
 40
2.282879329571918
100
AcDbArc
 50
267.2047613210354
 51
325.8911500183373
  0
ARC
  5
2E0
330
2
100
AcDbEntity
  8
0
100
AcDbCircle
 10
382.498092118949
 20
253.8641067909045
 30
0.0
 40
2.282879329572159
100
AcDbArc
 50
34.10884998166265
 51
92.79523867896429
  0
LINE
  5
2E1
330
2
100
AcDbEntity
  8
0
100
AcDbLine
 10
384.3882562273684
 20
324.8442699354536
 30
0.0
 11
384.3882562273684
 21
327.1442699354547
 31
0.0
  0
ARC
  5
2E2
330
2
100
AcDbEntity
  8
0
100
AcDbCircle
 10
382.498092118949
 20
325.8641067909047
 30
0.0
 40
2.282879329571918
100
AcDbArc
 50
34.10884998166265
 51
92.79523867896429
  0
ARC
  5
2E3
330
2
100
AcDbEntity
  8
0
100
AcDbCircle
 10
382.498092118949
 20
326.1244330800073
 30
0.0
 40
2.282879329572159
100
AcDbArc
 50
267.2047613210354
 51
325.8911500183373
  0
LWPOLYLINE
  5
2E4
330
2
100
AcDbEntity
  8
0
 62
     3
100
AcDbPolyline
 90
        4
 70
     1
 43
0.0
 10
399.9363552172872
 20
285.9413673303923
 10
402.9240829909483
 20
285.9413673303923
 10
402.9240829909483
 20
288.5864910847875
 10
399.9363552172872
 20
288.5864910847875
  0
ARC
  5
2E5
330
2
100
AcDbEntity
  8
0
100
AcDbCircle
 10
378.8867634720681
 20
331.494269935456
 30
0.0
 40
3.5
100
AcDbArc
 50
0.0
 51
90.0
  0
ARC
  5
2E6
330
2
100
AcDbEntity
  8
0
100
AcDbCircle
 10
378.8867634720681
 20
248.494269935456
 30
0.0
 40
3.5
100
AcDbArc
 50
270.0
 51
0.0
  0
DIMENSION
  5
2E7
330
2
100
AcDbEntity
  8
0
100
AcDbDimension
  2
*D41
 10
403.9813668615771
 20
244.9942699354568
 30
0.0
 11
403.9813668615768
 21
292.744159176691
 31
0.0
 70
   160
  3
1_1_2
100
AcDbAlignedDimension
 13
378.8867634720681
 23
334.9942699354568
 33
0.0
 14
378.8867634720681
 24
244.9942699354568
 34
0.0
 50
90.0
100
AcDbRotatedDimension
  0
LINE
  5
2F4
330
2
100
AcDbEntity
  8
0
100
AcDbLine
 10
382.3867634720682
 20
331.494269935456
 30
0.0
 11
382.3867634720682
 21
248.494269935456
 31
0.0
  0
ENDSEC
  0
SECTION
  2
OBJECTS
  0
DICTIONARY
  5
9
330
0
100
AcDbDictionary
  3
ACAD_GROUP
350
98
  3
ACAD_LAYOUT
350
D
  3
ACAD_MLINESTYLE
350
99
  3
ACAD_PLOTSETTINGS
350
9A
  3
ACAD_PLOTSTYLENAME
350
8
  3
ACDBHEADERROUNDTRIPXREC
350
4ED
  3
ACDBVARIABLEDICTIONARY
350
2F5
  0
DICTIONARY
  5
15
330
14
100
AcDbDictionary
280
     1
  3
ACAD_LAYERFILTERS
360
16
  3
ACAD_LAYERSTATES
360
89
  0
DICTIONARY
  5
3
330
2
100
AcDbDictionary
280
     1
  3
ACAD_LAYOUTSELFREF
360
50E
  0
DICTIONARY
  5
F
330
E
100
AcDbDictionary
280
     1
  3
ACAD_LAYOUTSELFREF
360
50F
  0
DICTIONARY
  5
F1
330
F0
100
AcDbDictionary
280
     1
  3
ACAD_DIMASSOC
360
F2
  0
DICTIONARY
  5
100
330
FF
100
AcDbDictionary
280
     1
  3
ACAD_DIMASSOC
360
101
  0
DICTIONARY
  5
10F
330
10E
100
AcDbDictionary
280
     1
  3
ACAD_DIMASSOC
360
110
  0
DICTIONARY
  5
144
330
143
100
AcDbDictionary
280
     1
  3
ACAD_DIMASSOC
360
145
  0
DICTIONARY
  5
173
330
172
100
AcDbDictionary
280
     1
  3
ACAD_DIMASSOC
360
174
  0
DICTIONARY
  5
184
330
183
100
AcDbDictionary
280
     1
  3
ACAD_DIMASSOC
360
185
  0
DICTIONARY
  5
1A4
330
1A3
100
AcDbDictionary
280
     1
  3
ACAD_DIMASSOC
360
1A5
  0
DICTIONARY
  5
22A
330
229
100
AcDbDictionary
280
     1
  3
ACAD_DIMASSOC
360
22B
  0
DICTIONARY
  5
29F
330
29E
100
AcDbDictionary
280
     1
  3
ACAD_DIMASSOC
360
2A0
  0
DICTIONARY
  5
2B0
330
2AF
100
AcDbDictionary
280
     1
  3
ACAD_DIMASSOC
360
2B1
  0
DICTIONARY
  5
98
102
{ACAD_REACTORS
330
9
102
}
330
9
100
AcDbDictionary
  0
DICTIONARY
  5
D
102
{ACAD_REACTORS
330
9
102
}
330
9
100
AcDbDictionary
  0
DICTIONARY
  5
99
102
{ACAD_REACTORS
330
9
102
}
330
9
100
AcDbDictionary
  3
STANDARD
350
9B
  0
DICTIONARY
  5
9A
102
{ACAD_REACTORS
330
9
102
}
330
9
100
AcDbDictionary
  0
ACDBDICTIONARYWDFLT
  5
8
102
{ACAD_REACTORS
330
9
102
}
330
9
100
AcDbDictionary
281
     1
  3
Normal
350
7
100
AcDbDictionaryWithDefault
340
7
  0
DICTIONARY
  5
4ED
102
{ACAD_REACTORS
330
9
102
}
330
9
100
AcDbDictionary
  3
CEPSNTYPE
350
4F7
  3
DIMSTYLEDATA
350
4FB
  3
FINGERPRINTGUID
350
4F8
  3
HYPERLINKBASE
350
4F0
  3
INSUNITS
350
4F6
  3
LAYOUTDICT
350
4F2
  3
LWETCUNION
350
4F5
  3
PLOTSETDICT
350
4F3
  3
PLOTSTYLNAMDICT
350
4F4
  3
PSVPSCALE
350
4FA
  3
PUCSBASE
350
4FE
  3
PUCSORGBACK
350
504
  3
PUCSORGBOTTOM
350
500
  3
PUCSORGFRONT
350
503
  3
PUCSORGLEFT
350
501
  3
PUCSORGRIGHT
350
502
  3
PUCSORGTOP
350
4FF
  3
PUCSORTHOREF
350
4FC
  3
PUCSORTHOVIEW
350
4FD
  3
STYLESHEET
350
4F1
  3
TSTACKALIGN
350
4EE
  3
TSTACKSIZE
350
4EF
  3
UCSBASE
350
507
  3
UCSORGBACK
350
50D
  3
UCSORGBOTTOM
350
509
  3
UCSORGFRONT
350
50C
  3
UCSORGLEFT
350
50A
  3
UCSORGRIGHT
350
50B
  3
UCSORGTOP
350
508
  3
UCSORTHOREF
350
505
  3
UCSORTHOVIEW
350
506
  3
VERSIONGUID
350
4F9
  0
DICTIONARY
  5
2F5
102
{ACAD_REACTORS
330
9
102
}
330
9
100
AcDbDictionary
  3
DIMASSOC
350
2F7
  3
HIDETEXT
350
2F6
  0
DICTIONARY
  5
16
102
{ACAD_REACTORS
330
15
102
}
330
15
100
AcDbDictionary
280
     1
  3
$LAYERS
360
17
  3
-_UND_0
360
18
  3
-PEGC
360
19
  3
101
360
1A
  3
102
360
1B
  3
1DUC
360
1C
  3
1EQ
360
1D
  3
1TUB
360
1E
  3
2
360
1F
  3
2000
360
20
  3
50
360
21
  3
58J
360
22
  3
65
360
23
  3
AA
360
24
  3
ACABADOS
360
25
  3
AGUA_Y_DREN
360
26
  3
AIRE
360
27
  3
ALLE_AUS
360
28
  3
ALLES_MIT_S
360
29
  3
AMARILLO
360
2A
  3
APAGADOS
360
2B
  3
ARR
360
2C
  3
BA
360
2D
  3
BACKS
360
2E
  3
BASE
360
2F
  3
BLOQ_INUTIL
360
30
  3
CADKON
360
31
  3
CARPINTERIA
360
32
  3
CERRADOS
360
33
  3
COL
360
34
  3
COLOR
360
35
  3
COLOR_250
360
36
  3
COLORES
360
37
  3
CONGELADOS
360
38
  3
CONJUNTO
360
39
  3
D1
360
3A
  3
DA_
360
3B
  3
DET-
360
3C
  3
DOR-H
360
3D
  3
EJES
360
3E
  3
ELECTRICO
360
3F
  3
F1
360
40
  3
FROZEN
360
41
  3
GRID
360
42
  3
GRIDTXT
360
43
  3
HATCH
360
44
  3
HCAD
360
45
  3
INSTALACIONES
360
46
  3
JIZNI
360
47
  3
KCK
360
48
  3
KKK
360
49
  3
LAY
360
4A
  3
LAYER-0
360
4E
  3
LAYER-1
360
4F
  3
LAYER_1_UND_0
360
4B
  3
LAYER_2_UND_0
360
4C
  3
LAYER_9_UND_0_SCHRAFFUR
360
4D
  3
LOCK
360
50
  3
LOCKED
360
51
  3
LOTES
360
52
  3
LUNAR
360
53
  3
LUNAR2
360
54
  3
M
360
55
  3
MIS_LAYERS
360
56
  3
MRKCK
360
57
  3
NECADKON
360
58
  3
NI_LH
360
59
  3
NI_RH
360
5A
  3
NUM
360
5B
  3
OFF
360
5C
  3
ON
360
5D
  3
PBASE
360
5E
  3
PEGC
360
5F
  3
PEGCT
360
60
  3
PFRAME
360
61
  3
PGRID
360
62
  3
PGRIDT
360
63
  3
PLAFONES
360
64
  3
PLANTAS
360
65
  3
PLOT
360
66
  3
PRENDIDAS
360
67
  3
PRENDIDOS
360
68
  3
PRINT
360
69
  3
PT
360
6A
  3
PTH
360
6B
  3
PVGRID
360
6C
  3
RED_DE_AGUA_POTABLE
360
6D
  3
RED_DE_ENERGIA_ELECTRICA
360
6E
  3
SEVERNI
360
6F
  3
SHIN
360
70
  3
SHOW_ALL_LAYER
360
71
  3
SIN
360
72
  3
STORAGE-CART
360
73
  3
T
360
74
  3
TEXTOS
360
75
  3
TEXTURAS
360
76
  3
TUBERIAS
360
77
  3
UNFRZ
360
78
  3
V\U+0160ECHNY_NEPOU\U+017D\U+00CDVAN\U+00C9
360
79
  3
VA
360
7A
  3
VENTILACI\U+00D3N
360
7B
  3
VYHODNI
360
7C
  3
YO
360
7D
  3
ZAPADNI
360
7E
  3
사용
360
7F
  3
신규
360
80
  3
실박스
360
81
  3
우리토목
360
82
  3
주차
360
83
  3
지상정밀
360
84
  3
쩜선
360
85
  3
플로터_작업층
360
86
  3
현재_작업층
360
87
  3
현재_잠금
360
88
  0
DICTIONARY
  5
89
102
{ACAD_REACTORS
330
15
102
}
330
15
100
AcDbDictionary
  0
XRECORD
  5
50E
102
{ACAD_REACTORS
330
3
102
}
330
3
100
AcDbXrecord
340
2
  0
XRECORD
  5
50F
102
{ACAD_REACTORS
330
F
102
}
330
F
100
AcDbXrecord
340
E
  0
DIMASSOC
  5
F2
102
{ACAD_REACTORS
330
F1
102
}
330
F1
100
AcDbDimAssoc
330
F0
 90
        3
 70
     0
 71
     0
  1
AcDbOsnapPointRef
 72
     1
331
181
 73
     2
 91
        0
 40
1.0
 10
149.9268979050774
 20
81.8809236449224
 30
0.0
 75
     0
  1
AcDbOsnapPointRef
 72
     1
331
182
 73
     2
 91
        0
 40
1.0
 10
179.9268979050775
 20
93.88092364492422
 30
0.0
 75
     0
  0
DIMASSOC
  5
101
102
{ACAD_REACTORS
330
100
102
}
330
100
100
AcDbDimAssoc
330
FF
 90
        3
 70
     0
 71
     0
  1
AcDbOsnapPointRef
 72
     1
331
181
 73
     2
 91
        0
 40
1.0
 10
149.9268979050774
 20
81.8809236449224
 30
0.0
 75
     0
  1
AcDbOsnapPointRef
 72
     1
331
16F
 73
     2
 91
        0
 40
1.0
 10
149.9268979050774
 20
92.88092364492241
 30
0.0
 75
     0
  0
DIMASSOC
  5
110
102
{ACAD_REACTORS
330
10F
102
}
330
10F
100
AcDbDimAssoc
330
10E
 90
        3
 70
     0
 71
     0
  1
AcDbOsnapPointRef
 72
    13
331
16D
 73
     2
 91
        0
 40
0.0
 10
184.9268979050775
 20
129.3809236449222
 30
0.0
 75
     0
  1
AcDbOsnapPointRef
 72
     1
331
16D
 73
     2
 91
        0
 40
1.0
 10
184.9268979050775
 20
46.38092364492422
 30
0.0
 75
     0
  0
DIMASSOC
  5
145
102
{ACAD_REACTORS
330
144
102
}
330
144
100
AcDbDimAssoc
330
143
 90
        2
 70
     0
 71
     0
  1
AcDbOsnapPointRef
 72
     3
331
138
 73
     2
 91
        0
 40
0.0
 10
32.0822755436784
 20
87.88092364492422
 30
0.0
 75
     0
  0
DIMASSOC
  5
174
102
{ACAD_REACTORS
330
173
102
}
330
173
100
AcDbDimAssoc
330
172
 90
        3
 70
     0
 71
     0
  1
AcDbOsnapPointRef
 72
     1
331
16F
 73
     2
 91
        0
 40
1.0
 10
149.9268979050774
 20
92.88092364492241
 30
0.0
 75
     0
  1
AcDbOsnapPointRef
 72
     1
331
182
 73
     2
 91
        0
 40
1.0
 10
179.9268979050775
 20
93.88092364492422
 30
0.0
 75
     0
  0
DIMASSOC
  5
185
102
{ACAD_REACTORS
330
184
102
}
330
184
100
AcDbDimAssoc
330
183
 90
        2
 70
     0
 71
     0
  1
AcDbOsnapPointRef
 72
     1
331
16A
 73
     2
 91
        0
 40
1.0
 10
194.4268979050775
 20
131.4796609864532
 30
0.0
 75
     0
  0
DIMASSOC
  5
1A5
102
{ACAD_REACTORS
330
1A4
102
}
330
1A4
100
AcDbDimAssoc
330
1A3
 90
        1
 70
     0
 71
     0
  1
AcDbOsnapPointRef
 72
     1
331
16F
 73
     2
 91
        0
 40
1.0
 10
149.9268979050774
 20
92.88092364492241
 30
0.0
 75
     0
  0
DIMASSOC
  5
22B
102
{ACAD_REACTORS
330
22A
102
}
330
22A
100
AcDbDimAssoc
330
229
 90
        2
 70
     0
 71
     0
  1
AcDbOsnapPointRef
 72
     1
331
23A
 73
     2
 91
        0
 40
1.0
 10
188.8860409813696
 20
333.5930072769861
 30
0.0
 75
     0
  0
DIMASSOC
  5
2A0
102
{ACAD_REACTORS
330
29F
102
}
330
29F
100
AcDbDimAssoc
330
29E
 90
        2
 70
     0
 71
     0
  1
AcDbOsnapPointRef
 72
     3
331
287
 73
     2
 91
        0
 40
0.0
 10
58.31714901972737
 20
289.994269935456
 30
0.0
 75
     0
  0
DIMASSOC
  5
2B1
102
{ACAD_REACTORS
330
2B0
102
}
330
2B0
100
AcDbDimAssoc
330
2AF
 90
        3
 70
     0
 71
     0
  1
AcDbOsnapPointRef
 72
    13
331
24A
 73
     2
 91
        0
 40
0.0
 10
179.3860409813696
 20
331.494269935456
 30
0.0
 75
     0
  1
AcDbOsnapPointRef
 72
     1
331
24A
 73
     2
 91
        0
 40
1.0
 10
179.3860409813696
 20
248.494269935456
 30
0.0
 75
     0
  0
MLINESTYLE
  5
9B
102
{ACAD_REACTORS
330
99
102
}
330
99
100
AcDbMlineStyle
  2
STANDARD
 70
     0
  3

 62
   256
 51
90.0
 52
90.0
 71
     2
 49
0.5
 62
   256
  6
BYLAYER
 49
-0.5
 62
   256
  6
BYLAYER
  0
ACDBPLACEHOLDER
  5
7
102
{ACAD_REACTORS
330
8
102
}
330
8
100
AcDbPlaceHolder
280
     0
  0
XRECORD
  5
4F7
102
{ACAD_REACTORS
330
4ED
102
}
330
4ED
100
AcDbXrecord
 90
        0
  0
XRECORD
  5
4FB
102
{ACAD_REACTORS
330
4ED
102
}
330
4ED
100
AcDbXrecord
1000
DSTYLE
1002
{
1070
    79
 70
     2
1070
   179
 70
     1
1002
}
  0
XRECORD
  5
4F8
102
{ACAD_REACTORS
330
4ED
102
}
330
4ED
100
AcDbXrecord
  1
{FDEAD578-A652-11D2-9A35-0060089B3A3F}
  0
XRECORD
  5
4F0
102
{ACAD_REACTORS
330
4ED
102
}
330
4ED
100
AcDbXrecord
  1

  0
XRECORD
  5
4F6
102
{ACAD_REACTORS
330
4ED
102
}
330
4ED
100
AcDbXrecord
 90
        4
  0
XRECORD
  5
4F2
102
{ACAD_REACTORS
330
4ED
102
}
330
4ED
100
AcDbXrecord
340
D
  0
XRECORD
  5
4F5
102
{ACAD_REACTORS
330
4ED
102
}
330
4ED
100
AcDbXrecord
 90
    10781
  0
XRECORD
  5
4F3
102
{ACAD_REACTORS
330
4ED
102
}
330
4ED
100
AcDbXrecord
340
9A
  0
XRECORD
  5
4F4
102
{ACAD_REACTORS
330
4ED
102
}
330
4ED
100
AcDbXrecord
340
8
  0
XRECORD
  5
4FA
102
{ACAD_REACTORS
330
4ED
102
}
330
4ED
100
AcDbXrecord
 40
0.0
  0
XRECORD
  5
4FE
102
{ACAD_REACTORS
330
4ED
102
}
330
4ED
100
AcDbXrecord
340
0
  0
XRECORD
  5
504
102
{ACAD_REACTORS
330
4ED
102
}
330
4ED
100
AcDbXrecord
 10
0.0
 20
0.0
 30
0.0
  0
XRECORD
  5
500
102
{ACAD_REACTORS
330
4ED
102
}
330
4ED
100
AcDbXrecord
 10
0.0
 20
0.0
 30
0.0
  0
XRECORD
  5
503
102
{ACAD_REACTORS
330
4ED
102
}
330
4ED
100
AcDbXrecord
 10
0.0
 20
0.0
 30
0.0
  0
XRECORD
  5
501
102
{ACAD_REACTORS
330
4ED
102
}
330
4ED
100
AcDbXrecord
 10
0.0
 20
0.0
 30
0.0
  0
XRECORD
  5
502
102
{ACAD_REACTORS
330
4ED
102
}
330
4ED
100
AcDbXrecord
 10
0.0
 20
0.0
 30
0.0
  0
XRECORD
  5
4FF
102
{ACAD_REACTORS
330
4ED
102
}
330
4ED
100
AcDbXrecord
 10
0.0
 20
0.0
 30
0.0
  0
XRECORD
  5
4FC
102
{ACAD_REACTORS
330
4ED
102
}
330
4ED
100
AcDbXrecord
340
0
  0
XRECORD
  5
4FD
102
{ACAD_REACTORS
330
4ED
102
}
330
4ED
100
AcDbXrecord
 70
     0
  0
XRECORD
  5
4F1
102
{ACAD_REACTORS
330
4ED
102
}
330
4ED
100
AcDbXrecord
  1

  0
XRECORD
  5
4EE
102
{ACAD_REACTORS
330
4ED
102
}
330
4ED
100
AcDbXrecord
 90
        1
  0
XRECORD
  5
4EF
102
{ACAD_REACTORS
330
4ED
102
}
330
4ED
100
AcDbXrecord
 90
       70
  0
XRECORD
  5
507
102
{ACAD_REACTORS
330
4ED
102
}
330
4ED
100
AcDbXrecord
340
0
  0
XRECORD
  5
50D
102
{ACAD_REACTORS
330
4ED
102
}
330
4ED
100
AcDbXrecord
 10
0.0
 20
0.0
 30
0.0
  0
XRECORD
  5
509
102
{ACAD_REACTORS
330
4ED
102
}
330
4ED
100
AcDbXrecord
 10
0.0
 20
0.0
 30
0.0
  0
XRECORD
  5
50C
102
{ACAD_REACTORS
330
4ED
102
}
330
4ED
100
AcDbXrecord
 10
0.0
 20
0.0
 30
0.0
  0
XRECORD
  5
50A
102
{ACAD_REACTORS
330
4ED
102
}
330
4ED
100
AcDbXrecord
 10
0.0
 20
0.0
 30
0.0
  0
XRECORD
  5
50B
102
{ACAD_REACTORS
330
4ED
102
}
330
4ED
100
AcDbXrecord
 10
0.0
 20
0.0
 30
0.0
  0
XRECORD
  5
508
102
{ACAD_REACTORS
330
4ED
102
}
330
4ED
100
AcDbXrecord
 10
0.0
 20
0.0
 30
0.0
  0
XRECORD
  5
505
102
{ACAD_REACTORS
330
4ED
102
}
330
4ED
100
AcDbXrecord
340
0
  0
XRECORD
  5
506
102
{ACAD_REACTORS
330
4ED
102
}
330
4ED
100
AcDbXrecord
 70
     0
  0
XRECORD
  5
4F9
102
{ACAD_REACTORS
330
4ED
102
}
330
4ED
100
AcDbXrecord
  1
{07CDDA3A-8E6F-400F-9E14-58E9FB00230A}
  0
DICTIONARYVAR
  5
2F7
102
{ACAD_REACTORS
330
2F5
102
}
330
2F5
100
DictionaryVariables
280
     0
  1
2
  0
DICTIONARYVAR
  5
2F6
102
{ACAD_REACTORS
330
2F5
102
}
330
2F5
100
DictionaryVariables
280
     0
  1
1
  0
XRECORD
  5
17
102
{ACAD_REACTORS
330
16
102
}
330
16
100
AcDbXrecord
  1
$layers
  1
*
  1
*
  1
*
 70
     0
  1
*
  1
*
  0
XRECORD
  5
18
102
{ACAD_REACTORS
330
16
102
}
330
16
100
AcDbXrecord
  1
- und 0
  1
-*,0
  1
*
  1
*
 70
     0
  1
*
  1
*
  0
XRECORD
  5
19
102
{ACAD_REACTORS
330
16
102
}
330
16
100
AcDbXrecord
  1
-pegc
  1
*-pegc
  1
*
  1
*
 70
     0
  1
*
  1
*
  0
XRECORD
  5
1A
102
{ACAD_REACTORS
330
16
102
}
330
16
100
AcDbXrecord
  1
101
  1
*101
  1
*
  1
*
 70
   256
  1
*
  1
*
  0
XRECORD
  5
1B
102
{ACAD_REACTORS
330
16
102
}
330
16
100
AcDbXrecord
  1
102
  1
102*
  1
*
  1
*
 70
     0
  1
*
  1
*
  0
XRECORD
  5
1C
102
{ACAD_REACTORS
330
16
102
}
330
16
100
AcDbXrecord
  1
1duc
  1
*1duc*
  1
*
  1
*
 70
     0
  1
*
  1
*
  0
XRECORD
  5
1D
102
{ACAD_REACTORS
330
16
102
}
330
16
100
AcDbXrecord
  1
1eq
  1
*1eq*
  1
*
  1
*
 70
     0
  1
*
  1
*
  0
XRECORD
  5
1E
102
{ACAD_REACTORS
330
16
102
}
330
16
100
AcDbXrecord
  1
1tub
  1
*1t*
  1
*
  1
*
 70
     0
  1
*
  1
*
  0
XRECORD
  5
1F
102
{ACAD_REACTORS
330
16
102
}
330
16
100
AcDbXrecord
  1
2
  1
*
  1
2
  1
*
 70
     0
  1
*
  1
*
  0
XRECORD
  5
20
102
{ACAD_REACTORS
330
16
102
}
330
16
100
AcDbXrecord
  1
2000
  1
2000*
  1
*
  1
*
 70
     0
  1
*
  1
*
  0
XRECORD
  5
21
102
{ACAD_REACTORS
330
16
102
}
330
16
100
AcDbXrecord
  1
50
  1
*-50
  1
*
  1
*
 70
     0
  1
*
  1
*
  0
XRECORD
  5
22
102
{ACAD_REACTORS
330
16
102
}
330
16
100
AcDbXrecord
  1
58J
  1
*58*
  1
*
  1
*
 70
     0
  1
*
  1
*
  0
XRECORD
  5
23
102
{ACAD_REACTORS
330
16
102
}
330
16
100
AcDbXrecord
  1
65
  1
*65
  1
*
  1
*
 70
     0
  1
*
  1
*
  0
XRECORD
  5
24
102
{ACAD_REACTORS
330
16
102
}
330
16
100
AcDbXrecord
  1
aa
  1
aa*
  1
*
  1
*
 70
     0
  1
*
  1
*
  0
XRECORD
  5
25
102
{ACAD_REACTORS
330
16
102
}
330
16
100
AcDbXrecord
  1
acabados
  1
a-*
  1
*
  1
*
 70
     5
  1
*
  1
*
  0
XRECORD
  5
26
102
{ACAD_REACTORS
330
16
102
}
330
16
100
AcDbXrecord
  1
AGUA Y DREN
  1
A-DS-*
  1
*
  1
*
 70
     0
  1
*
  1
*
  0
XRECORD
  5
27
102
{ACAD_REACTORS
330
16
102
}
330
16
100
AcDbXrecord
  1
Aire
  1
*
  1
*
  1
*
 70
     0
  1
*
  1
*
  0
XRECORD
  5
28
102
{ACAD_REACTORS
330
16
102
}
330
16
100
AcDbXrecord
  1
alle aus
  1
99999999999
  1
*
  1
*
 70
     0
  1
*
  1
*
  0
XRECORD
  5
29
102
{ACAD_REACTORS
330
16
102
}
330
16
100
AcDbXrecord
  1
Alles mit S
  1
s*
  1
*
  1
*
 70
     0
  1
*
  1
*
  0
XRECORD
  5
2A
102
{ACAD_REACTORS
330
16
102
}
330
16
100
AcDbXrecord
  1
amarillo
  1
*
  1
yellow
  1
*
 70
     0
  1
*
  1
*
  0
XRECORD
  5
2B
102
{ACAD_REACTORS
330
16
102
}
330
16
100
AcDbXrecord
  1
APAGADOS
  1
*
  1
*
  1
*
 70
     4
  1
*
  1
*
  0
XRECORD
  5
2C
102
{ACAD_REACTORS
330
16
102
}
330
16
100
AcDbXrecord
  1
ARR
  1
ARR*
  1
*
  1
*
 70
     0
  1
*
  1
*
  0
XRECORD
  5
2D
102
{ACAD_REACTORS
330
16
102
}
330
16
100
AcDbXrecord
  1
ba
  1
*
  1
*
  1
*
 70
     0
  1
*
  1
*
  0
XRECORD
  5
2E
102
{ACAD_REACTORS
330
16
102
}
330
16
100
AcDbXrecord
  1
BACKS
  1
*-H
  1
*
  1
*
 70
     0
  1
*
  1
*
  0
XRECORD
  5
2F
102
{ACAD_REACTORS
330
16
102
}
330
16
100
AcDbXrecord
  1
BASE
  1
*-PBASE
  1
*
  1
*
 70
     0
  1
*
  1
*
  0
XRECORD
  5
30
102
{ACAD_REACTORS
330
16
102
}
330
16
100
AcDbXrecord
  1
BLOQ_INUTIL
  1
*
  1
*
  1
*
 70
     0
  1
*
  1
*
  0
XRECORD
  5
31
102
{ACAD_REACTORS
330
16
102
}
330
16
100
AcDbXrecord
  1
CADKON
  1
?[KAHBSM]?????[23M],?[KAHBSM]?????[23M][1456A-DGHILN-SU-Z]
  1
*
  1
*
 70
     0
  1
*
  1
*
  0
XRECORD
  5
32
102
{ACAD_REACTORS
330
16
102
}
330
16
100
AcDbXrecord
  1
carpinteria
  1
carp*
  1
*
  1
*
 70
     0
  1
*
  1
*
  0
XRECORD
  5
33
102
{ACAD_REACTORS
330
16
102
}
330
16
100
AcDbXrecord
  1
cerrados
  1
*
  1
*
  1
*
 70
   256
  1
*
  1
*
  0
XRECORD
  5
34
102
{ACAD_REACTORS
330
16
102
}
330
16
100
AcDbXrecord
  1
COL
  1
*
  1
*
  1
*
 70
     1
  1
*
  1
*
  0
XRECORD
  5
35
102
{ACAD_REACTORS
330
16
102
}
330
16
100
AcDbXrecord
  1
COLOR
  1
*
  1
253
  1
*
 70
     0
  1
*
  1
*
  0
XRECORD
  5
36
102
{ACAD_REACTORS
330
16
102
}
330
16
100
AcDbXrecord
  1
color 250
  1
*
  1
250
  1
*
 70
     0
  1
*
  1
*
  0
XRECORD
  5
37
102
{ACAD_REACTORS
330
16
102
}
330
16
100
AcDbXrecord
  1
COLORES
  1
*
  1
6
  1
*
 70
     0
  1
*
  1
*
  0
XRECORD
  5
38
102
{ACAD_REACTORS
330
16
102
}
330
16
100
AcDbXrecord
  1
Congelados
  1
*
  1
*
  1
*
 70
     4
  1
*
  1
*
  0
XRECORD
  5
39
102
{ACAD_REACTORS
330
16
102
}
330
16
100
AcDbXrecord
  1
CONJUNTO
  1
CON-*
  1
*
  1
*
 70
     0
  1
*
  1
*
  0
XRECORD
  5
3A
102
{ACAD_REACTORS
330
16
102
}
330
16
100
AcDbXrecord
  1
d1
  1
achurados
  1
*
  1
*
 70
     0
  1
*
  1
*
  0
XRECORD
  5
3B
102
{ACAD_REACTORS
330
16
102
}
330
16
100
AcDbXrecord
  1
DA_
  1
DA*
  1
*
  1
*
 70
     0
  1
*
  1
*
  0
XRECORD
  5
3C
102
{ACAD_REACTORS
330
16
102
}
330
16
100
AcDbXrecord
  1
DET-
  1
*
  1
*
  1
*
 70
     0
  1
*
  1
*
  0
XRECORD
  5
3D
102
{ACAD_REACTORS
330
16
102
}
330
16
100
AcDbXrecord
  1
DOR-H
  1
*
  1
7
  1
*
 70
     0
  1
*
  1
*
  0
XRECORD
  5
3E
102
{ACAD_REACTORS
330
16
102
}
330
16
100
AcDbXrecord
  1
ejes
  1
eje*
  1
*
  1
*
 70
     0
  1
*
  1
*
  0
XRECORD
  5
3F
102
{ACAD_REACTORS
330
16
102
}
330
16
100
AcDbXrecord
  1
ELECTRICO
  1
ELEC-*
  1
*
  1
*
 70
     0
  1
*
  1
*
  0
XRECORD
  5
40
102
{ACAD_REACTORS
330
16
102
}
330
16
100
AcDbXrecord
  1
F1
  1
Halaxref*
  1
*
  1
*
 70
     0
  1
*
  1
*
  0
XRECORD
  5
41
102
{ACAD_REACTORS
330
16
102
}
330
16
100
AcDbXrecord
  1
frozen
  1
*
  1
*
  1
*
 70
     4
  1
*
  1
*
  0
XRECORD
  5
42
102
{ACAD_REACTORS
330
16
102
}
330
16
100
AcDbXrecord
  1
grid
  1
*-PGRID
  1
*
  1
*
 70
     1
  1
*
  1
*
  0
XRECORD
  5
43
102
{ACAD_REACTORS
330
16
102
}
330
16
100
AcDbXrecord
  1
GRIDTXT
  1
*-PGRIDT
  1
*
  1
*
 70
     0
  1
*
  1
*
  0
XRECORD
  5
44
102
{ACAD_REACTORS
330
16
102
}
330
16
100
AcDbXrecord
  1
HATCH
  1
HAT*
  1
*
  1
*
 70
     0
  1
*
  1
*
  0
XRECORD
  5
45
102
{ACAD_REACTORS
330
16
102
}
330
16
100
AcDbXrecord
  1
HCAD
  1
1HCAD-*
  1
*
  1
*
 70
    13
  1
*
  1
*
  0
XRECORD
  5
46
102
{ACAD_REACTORS
330
16
102
}
330
16
100
AcDbXrecord
  1
INSTALACIONES
  1
I-*
  1
*
  1
*
 70
     0
  1
*
  1
*
  0
XRECORD
  5
47
102
{ACAD_REACTORS
330
16
102
}
330
16
100
AcDbXrecord
  1
JIZNI
  1
*-J
  1
*
  1
*
 70
     0
  1
*
  1
*
  0
XRECORD
  5
48
102
{ACAD_REACTORS
330
16
102
}
330
16
100
AcDbXrecord
  1
kck
  1
*
  1
*
  1
*
 70
     0
  1
*
  1
*
  0
XRECORD
  5
49
102
{ACAD_REACTORS
330
16
102
}
330
16
100
AcDbXrecord
  1
kkk
  1
k
  1
*
  1
*
 70
     0
  1
*
  1
*
  0
XRECORD
  5
4A
102
{ACAD_REACTORS
330
16
102
}
330
16
100
AcDbXrecord
  1
lay
  1
??-*
  1
*
  1
*
 70
     0
  1
*
  1
*
  0
XRECORD
  5
4E
102
{ACAD_REACTORS
330
16
102
}
330
16
100
AcDbXrecord
  1
Layer-0
  1
0*
  1
*
  1
*
 70
     0
  1
*
  1
*
  0
XRECORD
  5
4F
102
{ACAD_REACTORS
330
16
102
}
330
16
100
AcDbXrecord
  1
Layer-1
  1
1*
  1
*
  1
*
 70
     0
  1
*
  1
*
  0
XRECORD
  5
4B
102
{ACAD_REACTORS
330
16
102
}
330
16
100
AcDbXrecord
  1
Layer 1 und 0
  1
1*,0
  1
*
  1
*
 70
     0
  1
*
  1
*
  0
XRECORD
  5
4C
102
{ACAD_REACTORS
330
16
102
}
330
16
100
AcDbXrecord
  1
Layer 2 und 0
  1
2*,0
  1
*
  1
*
 70
     0
  1
*
  1
*
  0
XRECORD
  5
4D
102
{ACAD_REACTORS
330
16
102
}
330
16
100
AcDbXrecord
  1
Layer 9 und 0 Schraffur
  1
9*,0
  1
*
  1
*
 70
     0
  1
*
  1
*
  0
XRECORD
  5
50
102
{ACAD_REACTORS
330
16
102
}
330
16
100
AcDbXrecord
  1
LOCK
  1
*
  1
*
  1
*
 70
   256
  1
*
  1
*
  0
XRECORD
  5
51
102
{ACAD_REACTORS
330
16
102
}
330
16
100
AcDbXrecord
  1
locked
  1
*
  1
*
  1
*
 70
   256
  1
*
  1
*
  0
XRECORD
  5
52
102
{ACAD_REACTORS
330
16
102
}
330
16
100
AcDbXrecord
  1
Lotes
  1
*
  1
*
  1
*
 70
     1
  1
*
  1
*
  0
XRECORD
  5
53
102
{ACAD_REACTORS
330
16
102
}
330
16
100
AcDbXrecord
  1
LUNAR
  1
*
  1
*
  1
*
 70
    48
  1
*
  1
*
  0
XRECORD
  5
54
102
{ACAD_REACTORS
330
16
102
}
330
16
100
AcDbXrecord
  1
LUNAR2
  1
*
  1
*
  1
*
 70
    12
  1
*
  1
*
  0
XRECORD
  5
55
102
{ACAD_REACTORS
330
16
102
}
330
16
100
AcDbXrecord
  1
M
  1
M*
  1
*
  1
*
 70
     0
  1
*
  1
*
  0
XRECORD
  5
56
102
{ACAD_REACTORS
330
16
102
}
330
16
100
AcDbXrecord
  1
mis_layers
  1
mis_*
  1
*
  1
*
 70
     0
  1
*
  1
*
  0
XRECORD
  5
57
102
{ACAD_REACTORS
330
16
102
}
330
16
100
AcDbXrecord
  1
MRKCK
  1
*
  1
*
  1
*
 70
     0
  1
*
  1
*
  0
XRECORD
  5
58
102
{ACAD_REACTORS
330
16
102
}
330
16
100
AcDbXrecord
  1
NECADKON
  1
~*?[KAHBSM]?????[23M]*
  1
*
  1
*
 70
     0
  1
*
  1
*
  0
XRECORD
  5
59
102
{ACAD_REACTORS
330
16
102
}
330
16
100
AcDbXrecord
  1
NI_LH
  1
NI_LH*
  1
*
  1
*
 70
     0
  1
*
  1
*
  0
XRECORD
  5
5A
102
{ACAD_REACTORS
330
16
102
}
330
16
100
AcDbXrecord
  1
NI_RH
  1
NI_RH*
  1
*
  1
*
 70
     0
  1
*
  1
*
  0
XRECORD
  5
5B
102
{ACAD_REACTORS
330
16
102
}
330
16
100
AcDbXrecord
  1
NUM
  1
NUM*
  1
*
  1
*
 70
     0
  1
*
  1
*
  0
XRECORD
  5
5C
102
{ACAD_REACTORS
330
16
102
}
330
16
100
AcDbXrecord
  1
off
  1
*
  1
*
  1
*
 70
     3
  1
*
  1
*
  0
XRECORD
  5
5D
102
{ACAD_REACTORS
330
16
102
}
330
16
100
AcDbXrecord
  1
on
  1
*
  1
*
  1
*
 70
     0
  1
*
  1
*
  0
XRECORD
  5
5E
102
{ACAD_REACTORS
330
16
102
}
330
16
100
AcDbXrecord
  1
PBASE
  1
*PBASE
  1
*
  1
*
 70
     0
  1
*
  1
*
  0
XRECORD
  5
5F
102
{ACAD_REACTORS
330
16
102
}
330
16
100
AcDbXrecord
  1
PEGC
  1
*PEGC
  1
*
  1
*
 70
     0
  1
*
  1
*
  0
XRECORD
  5
60
102
{ACAD_REACTORS
330
16
102
}
330
16
100
AcDbXrecord
  1
PEGCT
  1
*PEGCT
  1
*
  1
*
 70
     0
  1
*
  1
*
  0
XRECORD
  5
61
102
{ACAD_REACTORS
330
16
102
}
330
16
100
AcDbXrecord
  1
PFRAME
  1
PFRAME*
  1
*
  1
*
 70
     0
  1
*
  1
*
  0
XRECORD
  5
62
102
{ACAD_REACTORS
330
16
102
}
330
16
100
AcDbXrecord
  1
PGRID
  1
*PGRID
  1
*
  1
*
 70
     0
  1
*
  1
*
  0
XRECORD
  5
63
102
{ACAD_REACTORS
330
16
102
}
330
16
100
AcDbXrecord
  1
PGRIDT
  1
*PGRIDT
  1
*
  1
*
 70
     0
  1
*
  1
*
  0
XRECORD
  5
64
102
{ACAD_REACTORS
330
16
102
}
330
16
100
AcDbXrecord
  1
PLAFONES
  1
0-*
  1
*
  1
*
 70
     0
  1
*
  1
*
  0
XRECORD
  5
65
102
{ACAD_REACTORS
330
16
102
}
330
16
100
AcDbXrecord
  1
PLANTAS
  1
P-*
  1
*
  1
*
 70
     0
  1
*
  1
*
  0
XRECORD
  5
66
102
{ACAD_REACTORS
330
16
102
}
330
16
100
AcDbXrecord
  1
Plot
  1
*
  1
*
  1
*
 70
  1024
  1
*
  1
*
  0
XRECORD
  5
67
102
{ACAD_REACTORS
330
16
102
}
330
16
100
AcDbXrecord
  1
PRENDIDAS
  1
*
  1
*
  1
*
 70
    13
  1
*
  1
*
  0
XRECORD
  5
68
102
{ACAD_REACTORS
330
16
102
}
330
16
100
AcDbXrecord
  1
PRENDIDOS
  1
*
  1
*
  1
*
 70
    12
  1
*
  1
*
  0
XRECORD
  5
69
102
{ACAD_REACTORS
330
16
102
}
330
16
100
AcDbXrecord
  1
print
  1
*
  1
7
  1
*
 70
  1280
  1
*
  1
*
  0
XRECORD
  5
6A
102
{ACAD_REACTORS
330
16
102
}
330
16
100
AcDbXrecord
  1
PT
  1
PT-*
  1
*
  1
*
 70
     0
  1
*
  1
*
  0
XRECORD
  5
6B
102
{ACAD_REACTORS
330
16
102
}
330
16
100
AcDbXrecord
  1
PTH
  1
PTH*
  1
*
  1
*
 70
     0
  1
*
  1
*
  0
XRECORD
  5
6C
102
{ACAD_REACTORS
330
16
102
}
330
16
100
AcDbXrecord
  1
PVGRID
  1
*PVGRID
  1
*
  1
*
 70
     0
  1
*
  1
*
  0
XRECORD
  5
6D
102
{ACAD_REACTORS
330
16
102
}
330
16
100
AcDbXrecord
  1
Red de Agua Potable
  1
Red de Agua Potable
  1
*
  1
*
 70
     1
  1
*
  1
*
  0
XRECORD
  5
6E
102
{ACAD_REACTORS
330
16
102
}
330
16
100
AcDbXrecord
  1
Red de Energia Electrica
  1
Lotes
  1
*
  1
*
 70
     1
  1
*
  1
*
  0
XRECORD
  5
6F
102
{ACAD_REACTORS
330
16
102
}
330
16
100
AcDbXrecord
  1
SEVERNI
  1
*-S
  1
*
  1
*
 70
     0
  1
*
  1
*
  0
XRECORD
  5
70
102
{ACAD_REACTORS
330
16
102
}
330
16
100
AcDbXrecord
  1
shin
  1
일*
  1
*
  1
*
 70
     0
  1
*
  1
*
  0
XRECORD
  5
71
102
{ACAD_REACTORS
330
16
102
}
330
16
100
AcDbXrecord
  1
SHOW ALL LAYER
  1
*
  1
*
  1
*
 70
     0
  1
*
  1
*
  0
XRECORD
  5
72
102
{ACAD_REACTORS
330
16
102
}
330
16
100
AcDbXrecord
  1
sin
  1
sin
  1
*
  1
*
 70
     0
  1
*
  1
*
  0
XRECORD
  5
73
102
{ACAD_REACTORS
330
16
102
}
330
16
100
AcDbXrecord
  1
STORAGE-CART
  1
STORAGE-CART*
  1
*
  1
*
 70
     0
  1
*
  1
*
  0
XRECORD
  5
74
102
{ACAD_REACTORS
330
16
102
}
330
16
100
AcDbXrecord
  1
T
  1
T*
  1
*
  1
*
 70
     0
  1
*
  1
*
  0
XRECORD
  5
75
102
{ACAD_REACTORS
330
16
102
}
330
16
100
AcDbXrecord
  1
TEXTOS
  1
TXT*
  1
*
  1
*
 70
     0
  1
*
  1
*
  0
XRECORD
  5
76
102
{ACAD_REACTORS
330
16
102
}
330
16
100
AcDbXrecord
  1
TEXTURAS
  1
*TEXTURAS
  1
*
  1
*
 70
     0
  1
*
  1
*
  0
XRECORD
  5
77
102
{ACAD_REACTORS
330
16
102
}
330
16
100
AcDbXrecord
  1
TUBERIAS
  1
T*
  1
*
  1
*
 70
     0
  1
*
  1
*
  0
XRECORD
  5
78
102
{ACAD_REACTORS
330
16
102
}
330
16
100
AcDbXrecord
  1
UNFRZ
  1
*
  1
*
  1
*
 70
    12
  1
*
  1
*
  0
XRECORD
  5
79
102
{ACAD_REACTORS
330
16
102
}
330
16
100
AcDbXrecord
  1
v\U+0161echny nepou\U+017E\U+00EDvan\U+00E9
  1
*
  1
*
  1
*
 70
     0
  1
*
  1
*
  0
XRECORD
  5
7A
102
{ACAD_REACTORS
330
16
102
}
330
16
100
AcDbXrecord
  1
VA
  1
VA*
  1
*
  1
*
 70
     0
  1
*
  1
*
  0
XRECORD
  5
7B
102
{ACAD_REACTORS
330
16
102
}
330
16
100
AcDbXrecord
  1
Ventilaci\U+00F3n
  1
*
  1
*
  1
*
 70
     0
  1
*
  1
*
  0
XRECORD
  5
7C
102
{ACAD_REACTORS
330
16
102
}
330
16
100
AcDbXrecord
  1
VYHODNI
  1
*-V
  1
*
  1
*
 70
     0
  1
*
  1
*
  0
XRECORD
  5
7D
102
{ACAD_REACTORS
330
16
102
}
330
16
100
AcDbXrecord
  1
Yo
  1
Muros
  1
*
  1
*
 70
     0
  1
*
  1
*
  0
XRECORD
  5
7E
102
{ACAD_REACTORS
330
16
102
}
330
16
100
AcDbXrecord
  1
ZAPADNI
  1
*-Z
  1
*
  1
*
 70
     0
  1
*
  1
*
  0
XRECORD
  5
7F
102
{ACAD_REACTORS
330
16
102
}
330
16
100
AcDbXrecord
  1
사용
  1
*
  1
*
  1
*
 70
   256
  1
*
  1
*
  0
XRECORD
  5
80
102
{ACAD_REACTORS
330
16
102
}
330
16
100
AcDbXrecord
  1
신규
  1
신규
  1
*
  1
*
 70
     0
  1
*
  1
*
  0
XRECORD
  5
81
102
{ACAD_REACTORS
330
16
102
}
330
16
100
AcDbXrecord
  1
실박스
  1
BLO,SYM,SYM1,SYM2
  1
*
  1
*
 70
     0
  1
*
  1
*
  0
XRECORD
  5
82
102
{ACAD_REACTORS
330
16
102
}
330
16
100
AcDbXrecord
  1
우리토목
  1
w-*
  1
*
  1
*
 70
     0
  1
*
  1
*
  0
XRECORD
  5
83
102
{ACAD_REACTORS
330
16
102
}
330
16
100
AcDbXrecord
  1
주차
  1
car*
  1
*
  1
*
 70
     0
  1
*
  1
*
  0
XRECORD
  5
84
102
{ACAD_REACTORS
330
16
102
}
330
16
100
AcDbXrecord
  1
지상정밀
  1
*
  1
*
  1
*
 70
     0
  1
*
  1
*
  0
XRECORD
  5
85
102
{ACAD_REACTORS
330
16
102
}
330
16
100
AcDbXrecord
  1
쩜선
  1
*
  1
*
  1
*
 70
     0
  1
*
  1
*
  0
XRECORD
  5
86
102
{ACAD_REACTORS
330
16
102
}
330
16
100
AcDbXrecord
  1
플로터 작업층
  1
*
  1
*
  1
*
 70
  1025
  1
*
  1
*
  0
XRECORD
  5
87
102
{ACAD_REACTORS
330
16
102
}
330
16
100
AcDbXrecord
  1
현재 작업층
  1
*
  1
*
  1
*
 70
     1
  1
*
  1
*
  0
XRECORD
  5
88
102
{ACAD_REACTORS
330
16
102
}
330
16
100
AcDbXrecord
  1
현재 잠금
  1
*
  1
*
  1
*
 70
   257
  1
*
  1
*
  0
ENDSEC
  0
EOF
