  0
SECTION
  2
HEADER
  9
$ACADVER
  1
AC1014
  9
$ACADMAINTVER
 70
     9
  9
$DWGCODEPAGE
  3
ANSI_949
  9
$INSBASE
 10
0.0
 20
0.0
 30
0.0
  9
$EXTMIN
 10
-27.51345579861492
 20
-11.63477726642952
 30
-0.0000000000112498
  9
$EXTMAX
 10
341.1808756745926
 20
340.4934854235995
 30
0.0000000000002956
  9
$LIMMIN
 10
0.0
 20
0.0
  9
$LIMMAX
 10
420.0
 20
297.0
  9
$ORTHOMODE
 70
     0
  9
$REGENMODE
 70
     1
  9
$FILLMODE
 70
     1
  9
$QTEXTMODE
 70
     0
  9
$MIRRTEXT
 70
     0
  9
$DRAGMODE
 70
     2
  9
$LTSCALE
 40
0.2
  9
$OSMODE
 70
  3071
  9
$ATTMODE
 70
     1
  9
$TEXTSIZE
 40
5.777225951253058
  9
$TRACEWID
 40
1.0
  9
$TEXTSTYLE
  7
STANDARD
  9
$CLAYER
  8
0
  9
$CELTYPE
  6
BYLAYER
  9
$CECOLOR
 62
   256
  9
$CELTSCALE
 40
1.0
  9
$DELOBJ
 70
     1
  9
$DISPSILH
 70
     0
  9
$DIMSCALE
 40
1.0
  9
$DIMASZ
 40
3.0
  9
$DIMEXO
 40
1.0
  9
$DIMDLI
 40
10.0
  9
$DIMRND
 40
0.0
  9
$DIMDLE
 40
0.0
  9
$DIMEXE
 40
0.6
  9
$DIMTP
 40
0.0
  9
$DIMTM
 40
0.0
  9
$DIMTXT
 40
3.5
  9
$DIMCEN
 40
0.09
  9
$DIMTSZ
 40
0.0
  9
$DIMTOL
 70
     0
  9
$DIMLIM
 70
     0
  9
$DIMTIH
 70
     0
  9
$DIMTOH
 70
     0
  9
$DIMSE1
 70
     0
  9
$DIMSE2
 70
     0
  9
$DIMTAD
 70
     1
  9
$DIMZIN
 70
     8
  9
$DIMBLK
  1

  9
$DIMASO
 70
     1
  9
$DIMSHO
 70
     1
  9
$DIMPOST
  1

  9
$DIMAPOST
  1

  9
$DIMALT
 70
     0
  9
$DIMALTD
 70
     2
  9
$DIMALTF
 40
25.4
  9
$DIMLFAC
 40
1.0
  9
$DIMTOFL
 70
     1
  9
$DIMTVP
 40
0.0
  9
$DIMTIX
 70
     1
  9
$DIMSOXD
 70
     0
  9
$DIMSAH
 70
     0
  9
$DIMBLK1
  1

  9
$DIMBLK2
  1

  9
$DIMSTYLE
  2
1_1_2
  9
$DIMCLRD
 70
   123
  9
$DIMCLRE
 70
   123
  9
$DIMCLRT
 70
     3
  9
$DIMTFAC
 40
1.0
  9
$DIMGAP
 40
1.0
  9
$DIMJUST
 70
     0
  9
$DIMSD1
 70
     0
  9
$DIMSD2
 70
     0
  9
$DIMTOLJ
 70
     1
  9
$DIMTZIN
 70
     0
  9
$DIMALTZ
 70
     0
  9
$DIMALTTZ
 70
     0
  9
$DIMFIT
 70
     3
  9
$DIMUPT
 70
     1
  9
$DIMUNIT
 70
     2
  9
$DIMDEC
 70
     2
  9
$DIMTDEC
 70
     2
  9
$DIMALTU
 70
     2
  9
$DIMALTTD
 70
     2
  9
$DIMTXSTY
  7
STANDARD
  9
$DIMAUNIT
 70
     1
  9
$LUNITS
 70
     2
  9
$LUPREC
 70
     4
  9
$SKETCHINC
 40
1.0
  9
$FILLETRAD
 40
0.5
  9
$AUNITS
 70
     0
  9
$AUPREC
 70
     0
  9
$MENU
  1
.
  9
$ELEVATION
 40
0.0
  9
$PELEVATION
 40
0.0
  9
$THICKNESS
 40
0.0
  9
$LIMCHECK
 70
     0
  9
$BLIPMODE
 70
     0
  9
$CHAMFERA
 40
1.0
  9
$CHAMFERB
 40
1.0
  9
$CHAMFERC
 40
20.0
  9
$CHAMFERD
 40
0.0
  9
$SKPOLY
 70
     0
  9
$TDCREATE
 40
2452839.586179271
  9
$TDUPDATE
 40
2453385.421982233
  9
$TDINDWG
 40
11.1177118866
  9
$TDUSRTIMER
 40
11.1177115278
  9
$USRTIMER
 70
     1
  9
$ANGBASE
 50
0.0
  9
$ANGDIR
 70
     0
  9
$PDMODE
 70
     0
  9
$PDSIZE
 40
0.0
  9
$PLINEWID
 40
0.0
  9
$COORDS
 70
     1
  9
$SPLFRAME
 70
     0
  9
$SPLINETYPE
 70
     6
  9
$SPLINESEGS
 70
   800
  9
$ATTDIA
 70
     0
  9
$ATTREQ
 70
     1
  9
$HANDLING
 70
 22529
  9
$HANDSEED
  5
513
  9
$SURFTAB1
 70
     6
  9
$SURFTAB2
 70
     6
  9
$SURFTYPE
 70
     6
  9
$SURFU
 70
     6
  9
$SURFV
 70
     6
  9
$UCSNAME
  2

  9
$UCSORG
 10
0.0
 20
0.0
 30
0.0
  9
$UCSXDIR
 10
1.0
 20
0.0
 30
0.0
  9
$UCSYDIR
 10
0.0
 20
1.0
 30
0.0
  9
$PUCSNAME
  2

  9
$PUCSORG
 10
0.0
 20
0.0
 30
0.0
  9
$PUCSXDIR
 10
1.0
 20
0.0
 30
0.0
  9
$PUCSYDIR
 10
0.0
 20
1.0
 30
0.0
  9
$USERI1
 70
     0
  9
$USERI2
 70
     0
  9
$USERI3
 70
     0
  9
$USERI4
 70
     0
  9
$USERI5
 70
     0
  9
$USERR1
 40
0.0
  9
$USERR2
 40
0.0
  9
$USERR3
 40
0.0
  9
$USERR4
 40
0.0
  9
$USERR5
 40
0.0
  9
$WORLDVIEW
 70
     1
  9
$SHADEDGE
 70
     3
  9
$SHADEDIF
 70
    70
  9
$TILEMODE
 70
     1
  9
$MAXACTVP
 70
    48
  9
$PINSBASE
 10
0.0
 20
0.0
 30
0.0
  9
$PLIMCHECK
 70
     0
  9
$PEXTMIN
 10
0.0
 20
0.0
 30
0.0
  9
$PEXTMAX
 10
0.0
 20
0.0
 30
0.0
  9
$PLIMMIN
 10
0.0
 20
0.0
  9
$PLIMMAX
 10
12.0
 20
9.0
  9
$UNITMODE
 70
     0
  9
$VISRETAIN
 70
     1
  9
$PLINEGEN
 70
     0
  9
$PSLTSCALE
 70
     1
  9
$TREEDEPTH
 70
  3020
  9
$PICKSTYLE
 70
     1
  9
$CMLSTYLE
  2
STANDARD
  9
$CMLJUST
 70
     0
  9
$CMLSCALE
 40
20.0
  9
$PROXYGRAPHICS
 70
     1
  9
$MEASUREMENT
 70
     1
  0
ENDSEC
  0
SECTION
  2
CLASSES
  0
CLASS
  1
ACDBDICTIONARYWDFLT
  2
AcDbDictionaryWithDefault
  3
AutoCAD 2000
 90
        0
280
     0
281
     0
  0
CLASS
  1
ACDBPLACEHOLDER
  2
AcDbPlaceHolder
  3
AutoCAD 2000
 90
        0
280
     0
281
     0
  0
CLASS
  1
LAYOUT
  2
AcDbLayout
  3
AutoCAD 2000
 90
        0
280
     0
281
     0
  0
CLASS
  1
DICTIONARYVAR
  2
AcDbDictionaryVar
  3
AutoCAD 2000
 90
        0
280
     0
281
     0
  0
CLASS
  1
DIMASSOC
  2
AcDbDimAssoc
  3
"AcDbDimAssoc|Product Desc:     AcDim ARX App For Dimension|Company:          Autodesk, Inc.|WEB Address:      www.autodesk.com"
 90
        0
280
     0
281
     0
  0
CLASS
  1
LONG_TRANSACTION
  2
AcDbLongTransaction
  3
AutoCAD 2000
 90
        0
280
     0
281
     0
  0
CLASS
  1
LWPOLYLINE
  2
AcDbPolyline
  3
AutoCAD 2000
 90
        0
280
     0
281
     1
  0
CLASS
  1
HATCH
  2
AcDbHatch
  3
AutoCAD 2000
 90
        0
280
     0
281
     1
  0
CLASS
  1
XRECORD
  2
AcDbXrecord
  3
AutoCAD 2000
 90
        0
280
     0
281
     0
  0
CLASS
  1
LONG_TRANSACTION
  2
AcDbLongTransaction
  3
AutoCAD 2000
 90
        0
280
     0
281
     0
  0
CLASS
  1
LWPOLYLINE
  2
AcDbPolyline
  3
AutoCAD 2000
 90
        0
280
     0
281
     1
  0
CLASS
  1
HATCH
  2
AcDbHatch
  3
AutoCAD 2000
 90
        0
280
     0
281
     1
  0
CLASS
  1
XRECORD
  2
AcDbXrecord
  3
AutoCAD 2000
 90
        0
280
     0
281
     0
  0
CLASS
  1
LONG_TRANSACTION
  2
AcDbLongTransaction
  3
AutoCAD 2000
 90
        0
280
     0
281
     0
  0
CLASS
  1
LWPOLYLINE
  2
AcDbPolyline
  3
AutoCAD 2000
 90
        0
280
     0
281
     1
  0
CLASS
  1
HATCH
  2
AcDbHatch
  3
AutoCAD 2000
 90
        0
280
     0
281
     1
  0
CLASS
  1
XRECORD
  2
AcDbXrecord
  3
AutoCAD 2000
 90
        0
280
     0
281
     0
  0
CLASS
  1
LONG_TRANSACTION
  2
AcDbLongTransaction
  3
AutoCAD 2000
 90
        0
280
     0
281
     0
  0
CLASS
  1
LWPOLYLINE
  2
AcDbPolyline
  3
AutoCAD 2000
 90
        0
280
     0
281
     1
  0
CLASS
  1
HATCH
  2
AcDbHatch
  3
AutoCAD 2000
 90
        0
280
     0
281
     1
  0
CLASS
  1
XRECORD
  2
AcDbXrecord
  3
AutoCAD 2000
 90
        0
280
     0
281
     0
  0
CLASS
  1
LONG_TRANSACTION
  2
AcDbLongTransaction
  3
AutoCAD 2000
 90
        0
280
     0
281
     0
  0
CLASS
  1
LWPOLYLINE
  2
AcDbPolyline
  3
AutoCAD 2000
 90
        0
280
     0
281
     1
  0
CLASS
  1
HATCH
  2
AcDbHatch
  3
AutoCAD 2000
 90
        0
280
     0
281
     1
  0
CLASS
  1
XRECORD
  2
AcDbXrecord
  3
AutoCAD 2000
 90
        0
280
     0
281
     0
  0
CLASS
  1
LONG_TRANSACTION
  2
AcDbLongTransaction
  3
AutoCAD 2000
 90
        0
280
     0
281
     0
  0
CLASS
  1
LWPOLYLINE
  2
AcDbPolyline
  3
AutoCAD 2000
 90
        0
280
     0
281
     1
  0
CLASS
  1
HATCH
  2
AcDbHatch
  3
AutoCAD 2000
 90
        0
280
     0
281
     1
  0
CLASS
  1
XRECORD
  2
AcDbXrecord
  3
AutoCAD 2000
 90
        0
280
     0
281
     0
  0
CLASS
  1
LONG_TRANSACTION
  2
AcDbLongTransaction
  3
AutoCAD 2000
 90
        0
280
     0
281
     0
  0
CLASS
  1
LWPOLYLINE
  2
AcDbPolyline
  3
AutoCAD 2000
 90
        0
280
     0
281
     1
  0
CLASS
  1
HATCH
  2
AcDbHatch
  3
AutoCAD 2000
 90
        0
280
     0
281
     1
  0
CLASS
  1
XRECORD
  2
AcDbXrecord
  3
AutoCAD 2000
 90
        0
280
     0
281
     0
  0
CLASS
  1
LONG_TRANSACTION
  2
AcDbLongTransaction
  3
AutoCAD 2000
 90
        0
280
     0
281
     0
  0
CLASS
  1
LWPOLYLINE
  2
AcDbPolyline
  3
AutoCAD 2000
 90
        0
280
     0
281
     1
  0
CLASS
  1
HATCH
  2
AcDbHatch
  3
AutoCAD 2000
 90
        0
280
     0
281
     1
  0
CLASS
  1
XRECORD
  2
AcDbXrecord
  3
AutoCAD 2000
 90
        0
280
     0
281
     0
  0
CLASS
  1
LONG_TRANSACTION
  2
AcDbLongTransaction
  3
AutoCAD 2000
 90
        0
280
     0
281
     0
  0
CLASS
  1
LWPOLYLINE
  2
AcDbPolyline
  3
AutoCAD 2000
 90
        0
280
     0
281
     1
  0
CLASS
  1
HATCH
  2
AcDbHatch
  3
AutoCAD 2000
 90
        0
280
     0
281
     1
  0
CLASS
  1
XRECORD
  2
AcDbXrecord
  3
AutoCAD 2000
 90
        0
280
     0
281
     0
  0
CLASS
  1
LONG_TRANSACTION
  2
AcDbLongTransaction
  3
AutoCAD 2000
 90
        0
280
     0
281
     0
  0
CLASS
  1
LWPOLYLINE
  2
AcDbPolyline
  3
AutoCAD 2000
 90
        0
280
     0
281
     1
  0
CLASS
  1
HATCH
  2
AcDbHatch
  3
AutoCAD 2000
 90
        0
280
     0
281
     1
  0
CLASS
  1
XRECORD
  2
AcDbXrecord
  3
AutoCAD 2000
 90
        0
280
     0
281
     0
  0
CLASS
  1
LONG_TRANSACTION
  2
AcDbLongTransaction
  3
AutoCAD 2000
 90
        0
280
     0
281
     0
  0
CLASS
  1
LWPOLYLINE
  2
AcDbPolyline
  3
AutoCAD 2000
 90
        0
280
     0
281
     1
  0
CLASS
  1
HATCH
  2
AcDbHatch
  3
AutoCAD 2000
 90
        0
280
     0
281
     1
  0
CLASS
  1
XRECORD
  2
AcDbXrecord
  3
AutoCAD 2000
 90
        0
280
     0
281
     0
  0
CLASS
  1
LONG_TRANSACTION
  2
AcDbLongTransaction
  3
AutoCAD 2000
 90
        0
280
     0
281
     0
  0
CLASS
  1
LWPOLYLINE
  2
AcDbPolyline
  3
AutoCAD 2000
 90
        0
280
     0
281
     1
  0
CLASS
  1
HATCH
  2
AcDbHatch
  3
AutoCAD 2000
 90
        0
280
     0
281
     1
  0
CLASS
  1
XRECORD
  2
AcDbXrecord
  3
AutoCAD 2000
 90
        0
280
     0
281
     0
  0
CLASS
  1
LONG_TRANSACTION
  2
AcDbLongTransaction
  3
AutoCAD 2000
 90
        0
280
     0
281
     0
  0
CLASS
  1
LWPOLYLINE
  2
AcDbPolyline
  3
AutoCAD 2000
 90
        0
280
     0
281
     1
  0
CLASS
  1
HATCH
  2
AcDbHatch
  3
AutoCAD 2000
 90
        0
280
     0
281
     1
  0
CLASS
  1
XRECORD
  2
AcDbXrecord
  3
AutoCAD 2000
 90
        0
280
     0
281
     0
  0
CLASS
  1
LONG_TRANSACTION
  2
AcDbLongTransaction
  3
AutoCAD 2000
 90
        0
280
     0
281
     0
  0
CLASS
  1
LWPOLYLINE
  2
AcDbPolyline
  3
AutoCAD 2000
 90
        0
280
     0
281
     1
  0
CLASS
  1
HATCH
  2
AcDbHatch
  3
AutoCAD 2000
 90
        0
280
     0
281
     1
  0
CLASS
  1
XRECORD
  2
AcDbXrecord
  3
AutoCAD 2000
 90
        0
280
     0
281
     0
  0
CLASS
  1
LONG_TRANSACTION
  2
AcDbLongTransaction
  3
AutoCAD 2000
 90
        0
280
     0
281
     0
  0
CLASS
  1
LWPOLYLINE
  2
AcDbPolyline
  3
AutoCAD 2000
 90
        0
280
     0
281
     1
  0
CLASS
  1
HATCH
  2
AcDbHatch
  3
AutoCAD 2000
 90
        0
280
     0
281
     1
  0
CLASS
  1
XRECORD
  2
AcDbXrecord
  3
AutoCAD 2000
 90
        0
280
     0
281
     0
  0
CLASS
  1
LONG_TRANSACTION
  2
AcDbLongTransaction
  3
AutoCAD 2000
 90
        0
280
     0
281
     0
  0
CLASS
  1
LWPOLYLINE
  2
AcDbPolyline
  3
AutoCAD 2000
 90
        0
280
     0
281
     1
  0
CLASS
  1
HATCH
  2
AcDbHatch
  3
AutoCAD 2000
 90
        0
280
     0
281
     1
  0
CLASS
  1
XRECORD
  2
AcDbXrecord
  3
AutoCAD 2000
 90
        0
280
     0
281
     0
  0
CLASS
  1
LONG_TRANSACTION
  2
AcDbLongTransaction
  3
AutoCAD 2000
 90
        0
280
     0
281
     0
  0
CLASS
  1
LWPOLYLINE
  2
AcDbPolyline
  3
AutoCAD 2000
 90
        0
280
     0
281
     1
  0
CLASS
  1
HATCH
  2
AcDbHatch
  3
AutoCAD 2000
 90
        0
280
     0
281
     1
  0
CLASS
  1
XRECORD
  2
AcDbXrecord
  3
AutoCAD 2000
 90
        0
280
     0
281
     0
  0
CLASS
  1
LONG_TRANSACTION
  2
AcDbLongTransaction
  3
AutoCAD 2000
 90
        0
280
     0
281
     0
  0
CLASS
  1
LWPOLYLINE
  2
AcDbPolyline
  3
AutoCAD 2000
 90
        0
280
     0
281
     1
  0
CLASS
  1
HATCH
  2
AcDbHatch
  3
AutoCAD 2000
 90
        0
280
     0
281
     1
  0
CLASS
  1
XRECORD
  2
AcDbXrecord
  3
AutoCAD 2000
 90
        0
280
     0
281
     0
  0
CLASS
  1
LONG_TRANSACTION
  2
AcDbLongTransaction
  3
AutoCAD 2000
 90
        0
280
     0
281
     0
  0
CLASS
  1
LWPOLYLINE
  2
AcDbPolyline
  3
AutoCAD 2000
 90
        0
280
     0
281
     1
  0
CLASS
  1
HATCH
  2
AcDbHatch
  3
AutoCAD 2000
 90
        0
280
     0
281
     1
  0
CLASS
  1
XRECORD
  2
AcDbXrecord
  3
AutoCAD 2000
 90
        0
280
     0
281
     0
  0
CLASS
  1
LONG_TRANSACTION
  2
AcDbLongTransaction
  3
AutoCAD 2000
 90
        0
280
     0
281
     0
  0
CLASS
  1
LWPOLYLINE
  2
AcDbPolyline
  3
AutoCAD 2000
 90
        0
280
     0
281
     1
  0
CLASS
  1
HATCH
  2
AcDbHatch
  3
AutoCAD 2000
 90
        0
280
     0
281
     1
  0
CLASS
  1
XRECORD
  2
AcDbXrecord
  3
AutoCAD 2000
 90
        0
280
     0
281
     0
  0
CLASS
  1
LONG_TRANSACTION
  2
AcDbLongTransaction
  3
AutoCAD 2000
 90
        0
280
     0
281
     0
  0
CLASS
  1
LWPOLYLINE
  2
AcDbPolyline
  3
AutoCAD 2000
 90
        0
280
     0
281
     1
  0
CLASS
  1
HATCH
  2
AcDbHatch
  3
AutoCAD 2000
 90
        0
280
     0
281
     1
  0
CLASS
  1
XRECORD
  2
AcDbXrecord
  3
AutoCAD 2000
 90
        0
280
     0
281
     0
  0
CLASS
  1
LONG_TRANSACTION
  2
AcDbLongTransaction
  3
AutoCAD 2000
 90
        0
280
     0
281
     0
  0
CLASS
  1
LWPOLYLINE
  2
AcDbPolyline
  3
AutoCAD 2000
 90
        0
280
     0
281
     1
  0
CLASS
  1
HATCH
  2
AcDbHatch
  3
AutoCAD 2000
 90
        0
280
     0
281
     1
  0
CLASS
  1
XRECORD
  2
AcDbXrecord
  3
AutoCAD 2000
 90
        0
280
     0
281
     0
  0
CLASS
  1
LONG_TRANSACTION
  2
AcDbLongTransaction
  3
AutoCAD 2000
 90
        0
280
     0
281
     0
  0
CLASS
  1
LWPOLYLINE
  2
AcDbPolyline
  3
AutoCAD 2000
 90
        0
280
     0
281
     1
  0
CLASS
  1
HATCH
  2
AcDbHatch
  3
AutoCAD 2000
 90
        0
280
     0
281
     1
  0
CLASS
  1
XRECORD
  2
AcDbXrecord
  3
AutoCAD 2000
 90
        0
280
     0
281
     0
  0
CLASS
  1
LONG_TRANSACTION
  2
AcDbLongTransaction
  3
AutoCAD 2000
 90
        0
280
     0
281
     0
  0
CLASS
  1
LWPOLYLINE
  2
AcDbPolyline
  3
AutoCAD 2000
 90
        0
280
     0
281
     1
  0
CLASS
  1
HATCH
  2
AcDbHatch
  3
AutoCAD 2000
 90
        0
280
     0
281
     1
  0
CLASS
  1
XRECORD
  2
AcDbXrecord
  3
AutoCAD 2000
 90
        0
280
     0
281
     0
  0
CLASS
  1
LONG_TRANSACTION
  2
AcDbLongTransaction
  3
AutoCAD 2000
 90
        0
280
     0
281
     0
  0
CLASS
  1
LWPOLYLINE
  2
AcDbPolyline
  3
AutoCAD 2000
 90
        0
280
     0
281
     1
  0
CLASS
  1
HATCH
  2
AcDbHatch
  3
AutoCAD 2000
 90
        0
280
     0
281
     1
  0
CLASS
  1
XRECORD
  2
AcDbXrecord
  3
AutoCAD 2000
 90
        0
280
     0
281
     0
  0
CLASS
  1
LONG_TRANSACTION
  2
AcDbLongTransaction
  3
AutoCAD 2000
 90
        0
280
     0
281
     0
  0
CLASS
  1
LWPOLYLINE
  2
AcDbPolyline
  3
AutoCAD 2000
 90
        0
280
     0
281
     1
  0
CLASS
  1
HATCH
  2
AcDbHatch
  3
AutoCAD 2000
 90
        0
280
     0
281
     1
  0
CLASS
  1
XRECORD
  2
AcDbXrecord
  3
AutoCAD 2000
 90
        0
280
     0
281
     0
  0
CLASS
  1
LONG_TRANSACTION
  2
AcDbLongTransaction
  3
AutoCAD 2000
 90
        0
280
     0
281
     0
  0
CLASS
  1
LWPOLYLINE
  2
AcDbPolyline
  3
AutoCAD 2000
 90
        0
280
     0
281
     1
  0
CLASS
  1
HATCH
  2
AcDbHatch
  3
AutoCAD 2000
 90
        0
280
     0
281
     1
  0
CLASS
  1
XRECORD
  2
AcDbXrecord
  3
AutoCAD 2000
 90
        0
280
     0
281
     0
  0
CLASS
  1
LONG_TRANSACTION
  2
AcDbLongTransaction
  3
AutoCAD 2000
 90
        0
280
     0
281
     0
  0
CLASS
  1
LWPOLYLINE
  2
AcDbPolyline
  3
AutoCAD 2000
 90
        0
280
     0
281
     1
  0
CLASS
  1
HATCH
  2
AcDbHatch
  3
AutoCAD 2000
 90
        0
280
     0
281
     1
  0
CLASS
  1
XRECORD
  2
AcDbXrecord
  3
AutoCAD 2000
 90
        0
280
     0
281
     0
  0
CLASS
  1
LONG_TRANSACTION
  2
AcDbLongTransaction
  3
AutoCAD 2000
 90
        0
280
     0
281
     0
  0
CLASS
  1
LWPOLYLINE
  2
AcDbPolyline
  3
AutoCAD 2000
 90
        0
280
     0
281
     1
  0
CLASS
  1
HATCH
  2
AcDbHatch
  3
AutoCAD 2000
 90
        0
280
     0
281
     1
  0
CLASS
  1
XRECORD
  2
AcDbXrecord
  3
AutoCAD 2000
 90
        0
280
     0
281
     0
  0
CLASS
  1
LONG_TRANSACTION
  2
AcDbLongTransaction
  3
AutoCAD 2000
 90
        0
280
     0
281
     0
  0
CLASS
  1
LWPOLYLINE
  2
AcDbPolyline
  3
AutoCAD 2000
 90
        0
280
     0
281
     1
  0
CLASS
  1
HATCH
  2
AcDbHatch
  3
AutoCAD 2000
 90
        0
280
     0
281
     1
  0
CLASS
  1
XRECORD
  2
AcDbXrecord
  3
AutoCAD 2000
 90
        0
280
     0
281
     0
  0
CLASS
  1
LONG_TRANSACTION
  2
AcDbLongTransaction
  3
AutoCAD 2000
 90
        0
280
     0
281
     0
  0
CLASS
  1
LWPOLYLINE
  2
AcDbPolyline
  3
AutoCAD 2000
 90
        0
280
     0
281
     1
  0
CLASS
  1
HATCH
  2
AcDbHatch
  3
AutoCAD 2000
 90
        0
280
     0
281
     1
  0
CLASS
  1
XRECORD
  2
AcDbXrecord
  3
AutoCAD 2000
 90
        0
280
     0
281
     0
  0
CLASS
  1
LONG_TRANSACTION
  2
AcDbLongTransaction
  3
AutoCAD 2000
 90
        0
280
     0
281
     0
  0
CLASS
  1
LWPOLYLINE
  2
AcDbPolyline
  3
AutoCAD 2000
 90
        0
280
     0
281
     1
  0
CLASS
  1
HATCH
  2
AcDbHatch
  3
AutoCAD 2000
 90
        0
280
     0
281
     1
  0
CLASS
  1
XRECORD
  2
AcDbXrecord
  3
AutoCAD 2000
 90
        0
280
     0
281
     0
  0
CLASS
  1
LONG_TRANSACTION
  2
AcDbLongTransaction
  3
AutoCAD 2000
 90
        0
280
     0
281
     0
  0
CLASS
  1
LWPOLYLINE
  2
AcDbPolyline
  3
AutoCAD 2000
 90
        0
280
     0
281
     1
  0
CLASS
  1
HATCH
  2
AcDbHatch
  3
AutoCAD 2000
 90
        0
280
     0
281
     1
  0
CLASS
  1
XRECORD
  2
AcDbXrecord
  3
AutoCAD 2000
 90
        0
280
     0
281
     0
  0
CLASS
  1
LONG_TRANSACTION
  2
AcDbLongTransaction
  3
AutoCAD 2000
 90
        0
280
     0
281
     0
  0
CLASS
  1
LWPOLYLINE
  2
AcDbPolyline
  3
AutoCAD 2000
 90
        0
280
     0
281
     1
  0
CLASS
  1
HATCH
  2
AcDbHatch
  3
AutoCAD 2000
 90
        0
280
     0
281
     1
  0
CLASS
  1
XRECORD
  2
AcDbXrecord
  3
AutoCAD 2000
 90
        0
280
     0
281
     0
  0
CLASS
  1
LONG_TRANSACTION
  2
AcDbLongTransaction
  3
AutoCAD 2000
 90
        0
280
     0
281
     0
  0
CLASS
  1
LWPOLYLINE
  2
AcDbPolyline
  3
AutoCAD 2000
 90
        0
280
     0
281
     1
  0
CLASS
  1
HATCH
  2
AcDbHatch
  3
AutoCAD 2000
 90
        0
280
     0
281
     1
  0
CLASS
  1
XRECORD
  2
AcDbXrecord
  3
AutoCAD 2000
 90
        0
280
     0
281
     0
  0
CLASS
  1
LONG_TRANSACTION
  2
AcDbLongTransaction
  3
AutoCAD 2000
 90
        0
280
     0
281
     0
  0
CLASS
  1
LWPOLYLINE
  2
AcDbPolyline
  3
AutoCAD 2000
 90
        0
280
     0
281
     1
  0
CLASS
  1
HATCH
  2
AcDbHatch
  3
AutoCAD 2000
 90
        0
280
     0
281
     1
  0
CLASS
  1
XRECORD
  2
AcDbXrecord
  3
AutoCAD 2000
 90
        0
280
     0
281
     0
  0
CLASS
  1
LONG_TRANSACTION
  2
AcDbLongTransaction
  3
AutoCAD 2000
 90
        0
280
     0
281
     0
  0
CLASS
  1
LWPOLYLINE
  2
AcDbPolyline
  3
AutoCAD 2000
 90
        0
280
     0
281
     1
  0
CLASS
  1
HATCH
  2
AcDbHatch
  3
AutoCAD 2000
 90
        0
280
     0
281
     1
  0
CLASS
  1
XRECORD
  2
AcDbXrecord
  3
AutoCAD 2000
 90
        0
280
     0
281
     0
  0
CLASS
  1
LONG_TRANSACTION
  2
AcDbLongTransaction
  3
AutoCAD 2000
 90
        0
280
     0
281
     0
  0
CLASS
  1
LWPOLYLINE
  2
AcDbPolyline
  3
AutoCAD 2000
 90
        0
280
     0
281
     1
  0
CLASS
  1
HATCH
  2
AcDbHatch
  3
AutoCAD 2000
 90
        0
280
     0
281
     1
  0
CLASS
  1
XRECORD
  2
AcDbXrecord
  3
AutoCAD 2000
 90
        0
280
     0
281
     0
  0
CLASS
  1
LONG_TRANSACTION
  2
AcDbLongTransaction
  3
AutoCAD 2000
 90
        0
280
     0
281
     0
  0
CLASS
  1
LWPOLYLINE
  2
AcDbPolyline
  3
AutoCAD 2000
 90
        0
280
     0
281
     1
  0
CLASS
  1
HATCH
  2
AcDbHatch
  3
AutoCAD 2000
 90
        0
280
     0
281
     1
  0
CLASS
  1
XRECORD
  2
AcDbXrecord
  3
AutoCAD 2000
 90
        0
280
     0
281
     0
  0
CLASS
  1
LONG_TRANSACTION
  2
AcDbLongTransaction
  3
AutoCAD 2000
 90
        0
280
     0
281
     0
  0
CLASS
  1
LWPOLYLINE
  2
AcDbPolyline
  3
AutoCAD 2000
 90
        0
280
     0
281
     1
  0
CLASS
  1
HATCH
  2
AcDbHatch
  3
AutoCAD 2000
 90
        0
280
     0
281
     1
  0
CLASS
  1
XRECORD
  2
AcDbXrecord
  3
AutoCAD 2000
 90
        0
280
     0
281
     0
  0
CLASS
  1
LONG_TRANSACTION
  2
AcDbLongTransaction
  3
AutoCAD 2000
 90
        0
280
     0
281
     0
  0
CLASS
  1
LWPOLYLINE
  2
AcDbPolyline
  3
AutoCAD 2000
 90
        0
280
     0
281
     1
  0
CLASS
  1
HATCH
  2
AcDbHatch
  3
AutoCAD 2000
 90
        0
280
     0
281
     1
  0
CLASS
  1
XRECORD
  2
AcDbXrecord
  3
AutoCAD 2000
 90
        0
280
     0
281
     0
  0
CLASS
  1
LONG_TRANSACTION
  2
AcDbLongTransaction
  3
AutoCAD 2000
 90
        0
280
     0
281
     0
  0
CLASS
  1
LWPOLYLINE
  2
AcDbPolyline
  3
AutoCAD 2000
 90
        0
280
     0
281
     1
  0
CLASS
  1
HATCH
  2
AcDbHatch
  3
AutoCAD 2000
 90
        0
280
     0
281
     1
  0
CLASS
  1
XRECORD
  2
AcDbXrecord
  3
AutoCAD 2000
 90
        0
280
     0
281
     0
  0
CLASS
  1
LONG_TRANSACTION
  2
AcDbLongTransaction
  3
AutoCAD 2000
 90
        0
280
     0
281
     0
  0
CLASS
  1
LWPOLYLINE
  2
AcDbPolyline
  3
AutoCAD 2000
 90
        0
280
     0
281
     1
  0
CLASS
  1
HATCH
  2
AcDbHatch
  3
AutoCAD 2000
 90
        0
280
     0
281
     1
  0
CLASS
  1
XRECORD
  2
AcDbXrecord
  3
AutoCAD 2000
 90
        0
280
     0
281
     0
  0
CLASS
  1
LONG_TRANSACTION
  2
AcDbLongTransaction
  3
AutoCAD 2000
 90
        0
280
     0
281
     0
  0
CLASS
  1
LWPOLYLINE
  2
AcDbPolyline
  3
AutoCAD 2000
 90
        0
280
     0
281
     1
  0
CLASS
  1
HATCH
  2
AcDbHatch
  3
AutoCAD 2000
 90
        0
280
     0
281
     1
  0
CLASS
  1
XRECORD
  2
AcDbXrecord
  3
AutoCAD 2000
 90
        0
280
     0
281
     0
  0
CLASS
  1
LONG_TRANSACTION
  2
AcDbLongTransaction
  3
AutoCAD 2000
 90
        0
280
     0
281
     0
  0
CLASS
  1
LWPOLYLINE
  2
AcDbPolyline
  3
AutoCAD 2000
 90
        0
280
     0
281
     1
  0
CLASS
  1
HATCH
  2
AcDbHatch
  3
AutoCAD 2000
 90
        0
280
     0
281
     1
  0
CLASS
  1
XRECORD
  2
AcDbXrecord
  3
AutoCAD 2000
 90
        0
280
     0
281
     0
  0
CLASS
  1
LONG_TRANSACTION
  2
AcDbLongTransaction
  3
AutoCAD 2000
 90
        0
280
     0
281
     0
  0
CLASS
  1
LWPOLYLINE
  2
AcDbPolyline
  3
AutoCAD 2000
 90
        0
280
     0
281
     1
  0
CLASS
  1
HATCH
  2
AcDbHatch
  3
AutoCAD 2000
 90
        0
280
     0
281
     1
  0
CLASS
  1
XRECORD
  2
AcDbXrecord
  3
AutoCAD 2000
 90
        0
280
     0
281
     0
  0
CLASS
  1
LONG_TRANSACTION
  2
AcDbLongTransaction
  3
AutoCAD 2000
 90
        0
280
     0
281
     0
  0
CLASS
  1
LWPOLYLINE
  2
AcDbPolyline
  3
AutoCAD 2000
 90
        0
280
     0
281
     1
  0
CLASS
  1
HATCH
  2
AcDbHatch
  3
AutoCAD 2000
 90
        0
280
     0
281
     1
  0
CLASS
  1
XRECORD
  2
AcDbXrecord
  3
AutoCAD 2000
 90
        0
280
     0
281
     0
  0
CLASS
  1
LONG_TRANSACTION
  2
AcDbLongTransaction
  3
AutoCAD 2000
 90
        0
280
     0
281
     0
  0
CLASS
  1
LWPOLYLINE
  2
AcDbPolyline
  3
AutoCAD 2000
 90
        0
280
     0
281
     1
  0
CLASS
  1
HATCH
  2
AcDbHatch
  3
AutoCAD 2000
 90
        0
280
     0
281
     1
  0
CLASS
  1
XRECORD
  2
AcDbXrecord
  3
AutoCAD 2000
 90
        0
280
     0
281
     0
  0
CLASS
  1
LONG_TRANSACTION
  2
AcDbLongTransaction
  3
AutoCAD 2000
 90
        0
280
     0
281
     0
  0
CLASS
  1
LWPOLYLINE
  2
AcDbPolyline
  3
AutoCAD 2000
 90
        0
280
     0
281
     1
  0
CLASS
  1
HATCH
  2
AcDbHatch
  3
AutoCAD 2000
 90
        0
280
     0
281
     1
  0
CLASS
  1
XRECORD
  2
AcDbXrecord
  3
AutoCAD 2000
 90
        0
280
     0
281
     0
  0
CLASS
  1
LONG_TRANSACTION
  2
AcDbLongTransaction
  3
AutoCAD 2000
 90
        0
280
     0
281
     0
  0
CLASS
  1
LWPOLYLINE
  2
AcDbPolyline
  3
AutoCAD 2000
 90
        0
280
     0
281
     1
  0
CLASS
  1
HATCH
  2
AcDbHatch
  3
AutoCAD 2000
 90
        0
280
     0
281
     1
  0
CLASS
  1
XRECORD
  2
AcDbXrecord
  3
AutoCAD 2000
 90
        0
280
     0
281
     0
  0
CLASS
  1
LONG_TRANSACTION
  2
AcDbLongTransaction
  3
AutoCAD 2000
 90
        0
280
     0
281
     0
  0
CLASS
  1
LWPOLYLINE
  2
AcDbPolyline
  3
AutoCAD 2000
 90
        0
280
     0
281
     1
  0
CLASS
  1
HATCH
  2
AcDbHatch
  3
AutoCAD 2000
 90
        0
280
     0
281
     1
  0
CLASS
  1
XRECORD
  2
AcDbXrecord
  3
AutoCAD 2000
 90
        0
280
     0
281
     0
  0
CLASS
  1
LONG_TRANSACTION
  2
AcDbLongTransaction
  3
AutoCAD 2000
 90
        0
280
     0
281
     0
  0
CLASS
  1
LWPOLYLINE
  2
AcDbPolyline
  3
AutoCAD 2000
 90
        0
280
     0
281
     1
  0
CLASS
  1
HATCH
  2
AcDbHatch
  3
AutoCAD 2000
 90
        0
280
     0
281
     1
  0
CLASS
  1
XRECORD
  2
AcDbXrecord
  3
AutoCAD 2000
 90
        0
280
     0
281
     0
  0
CLASS
  1
LONG_TRANSACTION
  2
AcDbLongTransaction
  3
AutoCAD 2000
 90
        0
280
     0
281
     0
  0
CLASS
  1
LWPOLYLINE
  2
AcDbPolyline
  3
AutoCAD 2000
 90
        0
280
     0
281
     1
  0
CLASS
  1
HATCH
  2
AcDbHatch
  3
AutoCAD 2000
 90
        0
280
     0
281
     1
  0
CLASS
  1
XRECORD
  2
AcDbXrecord
  3
AutoCAD 2000
 90
        0
280
     0
281
     0
  0
CLASS
  1
LONG_TRANSACTION
  2
AcDbLongTransaction
  3
AutoCAD 2000
 90
        0
280
     0
281
     0
  0
CLASS
  1
LWPOLYLINE
  2
AcDbPolyline
  3
AutoCAD 2000
 90
        0
280
     0
281
     1
  0
CLASS
  1
HATCH
  2
AcDbHatch
  3
AutoCAD 2000
 90
        0
280
     0
281
     1
  0
CLASS
  1
XRECORD
  2
AcDbXrecord
  3
AutoCAD 2000
 90
        0
280
     0
281
     0
  0
CLASS
  1
LONG_TRANSACTION
  2
AcDbLongTransaction
  3
AutoCAD 2000
 90
        0
280
     0
281
     0
  0
CLASS
  1
LWPOLYLINE
  2
AcDbPolyline
  3
AutoCAD 2000
 90
        0
280
     0
281
     1
  0
CLASS
  1
HATCH
  2
AcDbHatch
  3
AutoCAD 2000
 90
        0
280
     0
281
     1
  0
CLASS
  1
XRECORD
  2
AcDbXrecord
  3
AutoCAD 2000
 90
        0
280
     0
281
     0
  0
CLASS
  1
LONG_TRANSACTION
  2
AcDbLongTransaction
  3
AutoCAD 2000
 90
        0
280
     0
281
     0
  0
CLASS
  1
LWPOLYLINE
  2
AcDbPolyline
  3
AutoCAD 2000
 90
        0
280
     0
281
     1
  0
CLASS
  1
HATCH
  2
AcDbHatch
  3
AutoCAD 2000
 90
        0
280
     0
281
     1
  0
CLASS
  1
XRECORD
  2
AcDbXrecord
  3
AutoCAD 2000
 90
        0
280
     0
281
     0
  0
CLASS
  1
LONG_TRANSACTION
  2
AcDbLongTransaction
  3
AutoCAD 2000
 90
        0
280
     0
281
     0
  0
CLASS
  1
LWPOLYLINE
  2
AcDbPolyline
  3
AutoCAD 2000
 90
        0
280
     0
281
     1
  0
CLASS
  1
HATCH
  2
AcDbHatch
  3
AutoCAD 2000
 90
        0
280
     0
281
     1
  0
CLASS
  1
XRECORD
  2
AcDbXrecord
  3
AutoCAD 2000
 90
        0
280
     0
281
     0
  0
CLASS
  1
LONG_TRANSACTION
  2
AcDbLongTransaction
  3
AutoCAD 2000
 90
        0
280
     0
281
     0
  0
CLASS
  1
LWPOLYLINE
  2
AcDbPolyline
  3
AutoCAD 2000
 90
        0
280
     0
281
     1
  0
CLASS
  1
HATCH
  2
AcDbHatch
  3
AutoCAD 2000
 90
        0
280
     0
281
     1
  0
CLASS
  1
XRECORD
  2
AcDbXrecord
  3
AutoCAD 2000
 90
        0
280
     0
281
     0
  0
CLASS
  1
LONG_TRANSACTION
  2
AcDbLongTransaction
  3
AutoCAD 2000
 90
        0
280
     0
281
     0
  0
CLASS
  1
LWPOLYLINE
  2
AcDbPolyline
  3
AutoCAD 2000
 90
        0
280
     0
281
     1
  0
CLASS
  1
HATCH
  2
AcDbHatch
  3
AutoCAD 2000
 90
        0
280
     0
281
     1
  0
CLASS
  1
XRECORD
  2
AcDbXrecord
  3
AutoCAD 2000
 90
        0
280
     0
281
     0
  0
CLASS
  1
LONG_TRANSACTION
  2
AcDbLongTransaction
  3
AutoCAD 2000
 90
        0
280
     0
281
     0
  0
CLASS
  1
LWPOLYLINE
  2
AcDbPolyline
  3
AutoCAD 2000
 90
        0
280
     0
281
     1
  0
CLASS
  1
HATCH
  2
AcDbHatch
  3
AutoCAD 2000
 90
        0
280
     0
281
     1
  0
CLASS
  1
XRECORD
  2
AcDbXrecord
  3
AutoCAD 2000
 90
        0
280
     0
281
     0
  0
CLASS
  1
LONG_TRANSACTION
  2
AcDbLongTransaction
  3
AutoCAD 2000
 90
        0
280
     0
281
     0
  0
CLASS
  1
LWPOLYLINE
  2
AcDbPolyline
  3
AutoCAD 2000
 90
        0
280
     0
281
     1
  0
CLASS
  1
HATCH
  2
AcDbHatch
  3
AutoCAD 2000
 90
        0
280
     0
281
     1
  0
CLASS
  1
XRECORD
  2
AcDbXrecord
  3
AutoCAD 2000
 90
        0
280
     0
281
     0
  0
CLASS
  1
LONG_TRANSACTION
  2
AcDbLongTransaction
  3
AutoCAD 2000
 90
        0
280
     0
281
     0
  0
CLASS
  1
LWPOLYLINE
  2
AcDbPolyline
  3
AutoCAD 2000
 90
        0
280
     0
281
     1
  0
CLASS
  1
HATCH
  2
AcDbHatch
  3
AutoCAD 2000
 90
        0
280
     0
281
     1
  0
CLASS
  1
XRECORD
  2
AcDbXrecord
  3
AutoCAD 2000
 90
        0
280
     0
281
     0
  0
CLASS
  1
LONG_TRANSACTION
  2
AcDbLongTransaction
  3
AutoCAD 2000
 90
        0
280
     0
281
     0
  0
CLASS
  1
LWPOLYLINE
  2
AcDbPolyline
  3
AutoCAD 2000
 90
        0
280
     0
281
     1
  0
CLASS
  1
HATCH
  2
AcDbHatch
  3
AutoCAD 2000
 90
        0
280
     0
281
     1
  0
CLASS
  1
XRECORD
  2
AcDbXrecord
  3
AutoCAD 2000
 90
        0
280
     0
281
     0
  0
CLASS
  1
LONG_TRANSACTION
  2
AcDbLongTransaction
  3
AutoCAD 2000
 90
        0
280
     0
281
     0
  0
CLASS
  1
LWPOLYLINE
  2
AcDbPolyline
  3
AutoCAD 2000
 90
        0
280
     0
281
     1
  0
CLASS
  1
HATCH
  2
AcDbHatch
  3
AutoCAD 2000
 90
        0
280
     0
281
     1
  0
CLASS
  1
XRECORD
  2
AcDbXrecord
  3
AutoCAD 2000
 90
        0
280
     0
281
     0
  0
CLASS
  1
LONG_TRANSACTION
  2
AcDbLongTransaction
  3
AutoCAD 2000
 90
        0
280
     0
281
     0
  0
CLASS
  1
LWPOLYLINE
  2
AcDbPolyline
  3
AutoCAD 2000
 90
        0
280
     0
281
     1
  0
CLASS
  1
HATCH
  2
AcDbHatch
  3
AutoCAD 2000
 90
        0
280
     0
281
     1
  0
CLASS
  1
XRECORD
  2
AcDbXrecord
  3
AutoCAD 2000
 90
        0
280
     0
281
     0
  0
CLASS
  1
LONG_TRANSACTION
  2
AcDbLongTransaction
  3
AutoCAD 2000
 90
        0
280
     0
281
     0
  0
CLASS
  1
LWPOLYLINE
  2
AcDbPolyline
  3
AutoCAD 2000
 90
        0
280
     0
281
     1
  0
CLASS
  1
HATCH
  2
AcDbHatch
  3
AutoCAD 2000
 90
        0
280
     0
281
     1
  0
CLASS
  1
XRECORD
  2
AcDbXrecord
  3
AutoCAD 2000
 90
        0
280
     0
281
     0
  0
CLASS
  1
LONG_TRANSACTION
  2
AcDbLongTransaction
  3
AutoCAD 2000
 90
        0
280
     0
281
     0
  0
CLASS
  1
LWPOLYLINE
  2
AcDbPolyline
  3
AutoCAD 2000
 90
        0
280
     0
281
     1
  0
CLASS
  1
HATCH
  2
AcDbHatch
  3
AutoCAD 2000
 90
        0
280
     0
281
     1
  0
CLASS
  1
XRECORD
  2
AcDbXrecord
  3
AutoCAD 2000
 90
        0
280
     0
281
     0
  0
CLASS
  1
LONG_TRANSACTION
  2
AcDbLongTransaction
  3
AutoCAD 2000
 90
        0
280
     0
281
     0
  0
CLASS
  1
LWPOLYLINE
  2
AcDbPolyline
  3
AutoCAD 2000
 90
        0
280
     0
281
     1
  0
CLASS
  1
HATCH
  2
AcDbHatch
  3
AutoCAD 2000
 90
        0
280
     0
281
     1
  0
CLASS
  1
XRECORD
  2
AcDbXrecord
  3
AutoCAD 2000
 90
        0
280
     0
281
     0
  0
CLASS
  1
LONG_TRANSACTION
  2
AcDbLongTransaction
  3
AutoCAD 2000
 90
        0
280
     0
281
     0
  0
CLASS
  1
LWPOLYLINE
  2
AcDbPolyline
  3
AutoCAD 2000
 90
        0
280
     0
281
     1
  0
CLASS
  1
HATCH
  2
AcDbHatch
  3
AutoCAD 2000
 90
        0
280
     0
281
     1
  0
CLASS
  1
XRECORD
  2
AcDbXrecord
  3
AutoCAD 2000
 90
        0
280
     0
281
     0
  0
CLASS
  1
LONG_TRANSACTION
  2
AcDbLongTransaction
  3
AutoCAD 2000
 90
        0
280
     0
281
     0
  0
CLASS
  1
LWPOLYLINE
  2
AcDbPolyline
  3
AutoCAD 2000
 90
        0
280
     0
281
     1
  0
CLASS
  1
HATCH
  2
AcDbHatch
  3
AutoCAD 2000
 90
        0
280
     0
281
     1
  0
CLASS
  1
XRECORD
  2
AcDbXrecord
  3
AutoCAD 2000
 90
        0
280
     0
281
     0
  0
CLASS
  1
LONG_TRANSACTION
  2
AcDbLongTransaction
  3
AutoCAD 2000
 90
        0
280
     0
281
     0
  0
CLASS
  1
LWPOLYLINE
  2
AcDbPolyline
  3
AutoCAD 2000
 90
        0
280
     0
281
     1
  0
CLASS
  1
HATCH
  2
AcDbHatch
  3
AutoCAD 2000
 90
        0
280
     0
281
     1
  0
CLASS
  1
XRECORD
  2
AcDbXrecord
  3
AutoCAD 2000
 90
        0
280
     0
281
     0
  0
CLASS
  1
LONG_TRANSACTION
  2
AcDbLongTransaction
  3
AutoCAD 2000
 90
        0
280
     0
281
     0
  0
CLASS
  1
LWPOLYLINE
  2
AcDbPolyline
  3
AutoCAD 2000
 90
        0
280
     0
281
     1
  0
CLASS
  1
HATCH
  2
AcDbHatch
  3
AutoCAD 2000
 90
        0
280
     0
281
     1
  0
CLASS
  1
XRECORD
  2
AcDbXrecord
  3
AutoCAD 2000
 90
        0
280
     0
281
     0
  0
CLASS
  1
LONG_TRANSACTION
  2
AcDbLongTransaction
  3
AutoCAD 2000
 90
        0
280
     0
281
     0
  0
CLASS
  1
LWPOLYLINE
  2
AcDbPolyline
  3
AutoCAD 2000
 90
        0
280
     0
281
     1
  0
CLASS
  1
HATCH
  2
AcDbHatch
  3
AutoCAD 2000
 90
        0
280
     0
281
     1
  0
CLASS
  1
XRECORD
  2
AcDbXrecord
  3
AutoCAD 2000
 90
        0
280
     0
281
     0
  0
CLASS
  1
LONG_TRANSACTION
  2
AcDbLongTransaction
  3
AutoCAD 2000
 90
        0
280
     0
281
     0
  0
CLASS
  1
LWPOLYLINE
  2
AcDbPolyline
  3
AutoCAD 2000
 90
        0
280
     0
281
     1
  0
CLASS
  1
HATCH
  2
AcDbHatch
  3
AutoCAD 2000
 90
        0
280
     0
281
     1
  0
CLASS
  1
XRECORD
  2
AcDbXrecord
  3
AutoCAD 2000
 90
        0
280
     0
281
     0
  0
CLASS
  1
LONG_TRANSACTION
  2
AcDbLongTransaction
  3
AutoCAD 2000
 90
        0
280
     0
281
     0
  0
CLASS
  1
LWPOLYLINE
  2
AcDbPolyline
  3
AutoCAD 2000
 90
        0
280
     0
281
     1
  0
CLASS
  1
HATCH
  2
AcDbHatch
  3
AutoCAD 2000
 90
        0
280
     0
281
     1
  0
CLASS
  1
XRECORD
  2
AcDbXrecord
  3
AutoCAD 2000
 90
        0
280
     0
281
     0
  0
CLASS
  1
LONG_TRANSACTION
  2
AcDbLongTransaction
  3
AutoCAD 2000
 90
        0
280
     0
281
     0
  0
CLASS
  1
LWPOLYLINE
  2
AcDbPolyline
  3
AutoCAD 2000
 90
        0
280
     0
281
     1
  0
CLASS
  1
HATCH
  2
AcDbHatch
  3
AutoCAD 2000
 90
        0
280
     0
281
     1
  0
CLASS
  1
XRECORD
  2
AcDbXrecord
  3
AutoCAD 2000
 90
        0
280
     0
281
     0
  0
CLASS
  1
LONG_TRANSACTION
  2
AcDbLongTransaction
  3
AutoCAD 2000
 90
        0
280
     0
281
     0
  0
CLASS
  1
LWPOLYLINE
  2
AcDbPolyline
  3
AutoCAD 2000
 90
        0
280
     0
281
     1
  0
CLASS
  1
HATCH
  2
AcDbHatch
  3
AutoCAD 2000
 90
        0
280
     0
281
     1
  0
CLASS
  1
XRECORD
  2
AcDbXrecord
  3
AutoCAD 2000
 90
        0
280
     0
281
     0
  0
CLASS
  1
LONG_TRANSACTION
  2
AcDbLongTransaction
  3
AutoCAD 2000
 90
        0
280
     0
281
     0
  0
CLASS
  1
LWPOLYLINE
  2
AcDbPolyline
  3
AutoCAD 2000
 90
        0
280
     0
281
     1
  0
CLASS
  1
HATCH
  2
AcDbHatch
  3
AutoCAD 2000
 90
        0
280
     0
281
     1
  0
CLASS
  1
XRECORD
  2
AcDbXrecord
  3
AutoCAD 2000
 90
        0
280
     0
281
     0
  0
CLASS
  1
LONG_TRANSACTION
  2
AcDbLongTransaction
  3
AutoCAD 2000
 90
        0
280
     0
281
     0
  0
CLASS
  1
LWPOLYLINE
  2
AcDbPolyline
  3
AutoCAD 2000
 90
        0
280
     0
281
     1
  0
CLASS
  1
HATCH
  2
AcDbHatch
  3
AutoCAD 2000
 90
        0
280
     0
281
     1
  0
CLASS
  1
XRECORD
  2
AcDbXrecord
  3
AutoCAD 2000
 90
        0
280
     0
281
     0
  0
CLASS
  1
LONG_TRANSACTION
  2
AcDbLongTransaction
  3
AutoCAD 2000
 90
        0
280
     0
281
     0
  0
CLASS
  1
LWPOLYLINE
  2
AcDbPolyline
  3
AutoCAD 2000
 90
        0
280
     0
281
     1
  0
CLASS
  1
HATCH
  2
AcDbHatch
  3
AutoCAD 2000
 90
        0
280
     0
281
     1
  0
CLASS
  1
XRECORD
  2
AcDbXrecord
  3
AutoCAD 2000
 90
        0
280
     0
281
     0
  0
CLASS
  1
LONG_TRANSACTION
  2
AcDbLongTransaction
  3
AutoCAD 2000
 90
        0
280
     0
281
     0
  0
CLASS
  1
LWPOLYLINE
  2
AcDbPolyline
  3
AutoCAD 2000
 90
        0
280
     0
281
     1
  0
CLASS
  1
HATCH
  2
AcDbHatch
  3
AutoCAD 2000
 90
        0
280
     0
281
     1
  0
CLASS
  1
XRECORD
  2
AcDbXrecord
  3
AutoCAD 2000
 90
        0
280
     0
281
     0
  0
CLASS
  1
LONG_TRANSACTION
  2
AcDbLongTransaction
  3
AutoCAD 2000
 90
        0
280
     0
281
     0
  0
CLASS
  1
LWPOLYLINE
  2
AcDbPolyline
  3
AutoCAD 2000
 90
        0
280
     0
281
     1
  0
CLASS
  1
HATCH
  2
AcDbHatch
  3
AutoCAD 2000
 90
        0
280
     0
281
     1
  0
CLASS
  1
XRECORD
  2
AcDbXrecord
  3
AutoCAD 2000
 90
        0
280
     0
281
     0
  0
CLASS
  1
LONG_TRANSACTION
  2
AcDbLongTransaction
  3
AutoCAD 2000
 90
        0
280
     0
281
     0
  0
CLASS
  1
LWPOLYLINE
  2
AcDbPolyline
  3
AutoCAD 2000
 90
        0
280
     0
281
     1
  0
CLASS
  1
HATCH
  2
AcDbHatch
  3
AutoCAD 2000
 90
        0
280
     0
281
     1
  0
CLASS
  1
XRECORD
  2
AcDbXrecord
  3
AutoCAD 2000
 90
        0
280
     0
281
     0
  0
CLASS
  1
LONG_TRANSACTION
  2
AcDbLongTransaction
  3
AutoCAD 2000
 90
        0
280
     0
281
     0
  0
CLASS
  1
LWPOLYLINE
  2
AcDbPolyline
  3
AutoCAD 2000
 90
        0
280
     0
281
     1
  0
CLASS
  1
HATCH
  2
AcDbHatch
  3
AutoCAD 2000
 90
        0
280
     0
281
     1
  0
CLASS
  1
XRECORD
  2
AcDbXrecord
  3
AutoCAD 2000
 90
        0
280
     0
281
     0
  0
CLASS
  1
LONG_TRANSACTION
  2
AcDbLongTransaction
  3
AutoCAD 2000
 90
        0
280
     0
281
     0
  0
CLASS
  1
LWPOLYLINE
  2
AcDbPolyline
  3
AutoCAD 2000
 90
        0
280
     0
281
     1
  0
CLASS
  1
HATCH
  2
AcDbHatch
  3
AutoCAD 2000
 90
        0
280
     0
281
     1
  0
CLASS
  1
XRECORD
  2
AcDbXrecord
  3
AutoCAD 2000
 90
        0
280
     0
281
     0
  0
CLASS
  1
LONG_TRANSACTION
  2
AcDbLongTransaction
  3
AutoCAD 2000
 90
        0
280
     0
281
     0
  0
CLASS
  1
LWPOLYLINE
  2
AcDbPolyline
  3
AutoCAD 2000
 90
        0
280
     0
281
     1
  0
CLASS
  1
HATCH
  2
AcDbHatch
  3
AutoCAD 2000
 90
        0
280
     0
281
     1
  0
CLASS
  1
XRECORD
  2
AcDbXrecord
  3
AutoCAD 2000
 90
        0
280
     0
281
     0
  0
CLASS
  1
LONG_TRANSACTION
  2
AcDbLongTransaction
  3
AutoCAD 2000
 90
        0
280
     0
281
     0
  0
CLASS
  1
LWPOLYLINE
  2
AcDbPolyline
  3
AutoCAD 2000
 90
        0
280
     0
281
     1
  0
CLASS
  1
HATCH
  2
AcDbHatch
  3
AutoCAD 2000
 90
        0
280
     0
281
     1
  0
CLASS
  1
XRECORD
  2
AcDbXrecord
  3
AutoCAD 2000
 90
        0
280
     0
281
     0
  0
CLASS
  1
LONG_TRANSACTION
  2
AcDbLongTransaction
  3
AutoCAD 2000
 90
        0
280
     0
281
     0
  0
CLASS
  1
LWPOLYLINE
  2
AcDbPolyline
  3
AutoCAD 2000
 90
        0
280
     0
281
     1
  0
CLASS
  1
HATCH
  2
AcDbHatch
  3
AutoCAD 2000
 90
        0
280
     0
281
     1
  0
CLASS
  1
XRECORD
  2
AcDbXrecord
  3
AutoCAD 2000
 90
        0
280
     0
281
     0
  0
CLASS
  1
LONG_TRANSACTION
  2
AcDbLongTransaction
  3
AutoCAD 2000
 90
        0
280
     0
281
     0
  0
CLASS
  1
LWPOLYLINE
  2
AcDbPolyline
  3
AutoCAD 2000
 90
        0
280
     0
281
     1
  0
CLASS
  1
HATCH
  2
AcDbHatch
  3
AutoCAD 2000
 90
        0
280
     0
281
     1
  0
CLASS
  1
XRECORD
  2
AcDbXrecord
  3
AutoCAD 2000
 90
        0
280
     0
281
     0
  0
CLASS
  1
LONG_TRANSACTION
  2
AcDbLongTransaction
  3
AutoCAD 2000
 90
        0
280
     0
281
     0
  0
CLASS
  1
LWPOLYLINE
  2
AcDbPolyline
  3
AutoCAD 2000
 90
        0
280
     0
281
     1
  0
CLASS
  1
HATCH
  2
AcDbHatch
  3
AutoCAD 2000
 90
        0
280
     0
281
     1
  0
CLASS
  1
XRECORD
  2
AcDbXrecord
  3
AutoCAD 2000
 90
        0
280
     0
281
     0
  0
CLASS
  1
LONG_TRANSACTION
  2
AcDbLongTransaction
  3
AutoCAD 2000
 90
        0
280
     0
281
     0
  0
CLASS
  1
LWPOLYLINE
  2
AcDbPolyline
  3
AutoCAD 2000
 90
        0
280
     0
281
     1
  0
CLASS
  1
HATCH
  2
AcDbHatch
  3
AutoCAD 2000
 90
        0
280
     0
281
     1
  0
CLASS
  1
XRECORD
  2
AcDbXrecord
  3
AutoCAD 2000
 90
        0
280
     0
281
     0
  0
CLASS
  1
LONG_TRANSACTION
  2
AcDbLongTransaction
  3
AutoCAD 2000
 90
        0
280
     0
281
     0
  0
CLASS
  1
LWPOLYLINE
  2
AcDbPolyline
  3
AutoCAD 2000
 90
        0
280
     0
281
     1
  0
CLASS
  1
HATCH
  2
AcDbHatch
  3
AutoCAD 2000
 90
        0
280
     0
281
     1
  0
CLASS
  1
XRECORD
  2
AcDbXrecord
  3
AutoCAD 2000
 90
        0
280
     0
281
     0
  0
CLASS
  1
LONG_TRANSACTION
  2
AcDbLongTransaction
  3
AutoCAD 2000
 90
        0
280
     0
281
     0
  0
CLASS
  1
LWPOLYLINE
  2
AcDbPolyline
  3
AutoCAD 2000
 90
        0
280
     0
281
     1
  0
CLASS
  1
HATCH
  2
AcDbHatch
  3
AutoCAD 2000
 90
        0
280
     0
281
     1
  0
CLASS
  1
XRECORD
  2
AcDbXrecord
  3
AutoCAD 2000
 90
        0
280
     0
281
     0
  0
CLASS
  1
LONG_TRANSACTION
  2
AcDbLongTransaction
  3
AutoCAD 2000
 90
        0
280
     0
281
     0
  0
CLASS
  1
LWPOLYLINE
  2
AcDbPolyline
  3
AutoCAD 2000
 90
        0
280
     0
281
     1
  0
CLASS
  1
HATCH
  2
AcDbHatch
  3
AutoCAD 2000
 90
        0
280
     0
281
     1
  0
CLASS
  1
XRECORD
  2
AcDbXrecord
  3
AutoCAD 2000
 90
        0
280
     0
281
     0
  0
CLASS
  1
LONG_TRANSACTION
  2
AcDbLongTransaction
  3
AutoCAD 2000
 90
        0
280
     0
281
     0
  0
CLASS
  1
LWPOLYLINE
  2
AcDbPolyline
  3
AutoCAD 2000
 90
        0
280
     0
281
     1
  0
CLASS
  1
HATCH
  2
AcDbHatch
  3
AutoCAD 2000
 90
        0
280
     0
281
     1
  0
CLASS
  1
XRECORD
  2
AcDbXrecord
  3
AutoCAD 2000
 90
        0
280
     0
281
     0
  0
CLASS
  1
LONG_TRANSACTION
  2
AcDbLongTransaction
  3
AutoCAD 2000
 90
        0
280
     0
281
     0
  0
CLASS
  1
LWPOLYLINE
  2
AcDbPolyline
  3
AutoCAD 2000
 90
        0
280
     0
281
     1
  0
CLASS
  1
HATCH
  2
AcDbHatch
  3
AutoCAD 2000
 90
        0
280
     0
281
     1
  0
CLASS
  1
XRECORD
  2
AcDbXrecord
  3
AutoCAD 2000
 90
        0
280
     0
281
     0
  0
CLASS
  1
LONG_TRANSACTION
  2
AcDbLongTransaction
  3
AutoCAD 2000
 90
        0
280
     0
281
     0
  0
CLASS
  1
LWPOLYLINE
  2
AcDbPolyline
  3
AutoCAD 2000
 90
        0
280
     0
281
     1
  0
CLASS
  1
HATCH
  2
AcDbHatch
  3
AutoCAD 2000
 90
        0
280
     0
281
     1
  0
CLASS
  1
XRECORD
  2
AcDbXrecord
  3
AutoCAD 2000
 90
        0
280
     0
281
     0
  0
CLASS
  1
LONG_TRANSACTION
  2
AcDbLongTransaction
  3
AutoCAD 2000
 90
        0
280
     0
281
     0
  0
CLASS
  1
LWPOLYLINE
  2
AcDbPolyline
  3
AutoCAD 2000
 90
        0
280
     0
281
     1
  0
CLASS
  1
HATCH
  2
AcDbHatch
  3
AutoCAD 2000
 90
        0
280
     0
281
     1
  0
CLASS
  1
XRECORD
  2
AcDbXrecord
  3
AutoCAD 2000
 90
        0
280
     0
281
     0
  0
CLASS
  1
LONG_TRANSACTION
  2
AcDbLongTransaction
  3
AutoCAD 2000
 90
        0
280
     0
281
     0
  0
CLASS
  1
LWPOLYLINE
  2
AcDbPolyline
  3
AutoCAD 2000
 90
        0
280
     0
281
     1
  0
CLASS
  1
HATCH
  2
AcDbHatch
  3
AutoCAD 2000
 90
        0
280
     0
281
     1
  0
CLASS
  1
XRECORD
  2
AcDbXrecord
  3
AutoCAD 2000
 90
        0
280
     0
281
     0
  0
CLASS
  1
LONG_TRANSACTION
  2
AcDbLongTransaction
  3
AutoCAD 2000
 90
        0
280
     0
281
     0
  0
CLASS
  1
LWPOLYLINE
  2
AcDbPolyline
  3
AutoCAD 2000
 90
        0
280
     0
281
     1
  0
CLASS
  1
HATCH
  2
AcDbHatch
  3
AutoCAD 2000
 90
        0
280
     0
281
     1
  0
CLASS
  1
XRECORD
  2
AcDbXrecord
  3
AutoCAD 2000
 90
        0
280
     0
281
     0
  0
CLASS
  1
LONG_TRANSACTION
  2
AcDbLongTransaction
  3
AutoCAD 2000
 90
        0
280
     0
281
     0
  0
CLASS
  1
LWPOLYLINE
  2
AcDbPolyline
  3
AutoCAD 2000
 90
        0
280
     0
281
     1
  0
CLASS
  1
HATCH
  2
AcDbHatch
  3
AutoCAD 2000
 90
        0
280
     0
281
     1
  0
CLASS
  1
XRECORD
  2
AcDbXrecord
  3
AutoCAD 2000
 90
        0
280
     0
281
     0
  0
CLASS
  1
LONG_TRANSACTION
  2
AcDbLongTransaction
  3
AutoCAD 2000
 90
        0
280
     0
281
     0
  0
CLASS
  1
LWPOLYLINE
  2
AcDbPolyline
  3
AutoCAD 2000
 90
        0
280
     0
281
     1
  0
CLASS
  1
HATCH
  2
AcDbHatch
  3
AutoCAD 2000
 90
        0
280
     0
281
     1
  0
CLASS
  1
XRECORD
  2
AcDbXrecord
  3
AutoCAD 2000
 90
        0
280
     0
281
     0
  0
ENDSEC
  0
SECTION
  2
TABLES
  0
TABLE
  2
VPORT
  5
92
330
0
100
AcDbSymbolTable
 70
     2
  0
VPORT
  5
4D8
330
92
100
AcDbSymbolTableRecord
100
AcDbViewportTableRecord
  2
*ACTIVE
 70
     0
 10
0.0
 20
0.0
 11
1.0
 21
1.0
 12
156.8337099379888
 22
164.4293540785849
 13
0.0
 23
0.0
 14
10.0
 24
10.0
 15
10.0
 25
10.0
 16
0.0
 26
0.0
 36
1.0
 17
0.0
 27
0.0
 37
0.0
 40
354.7925370609498
 41
1.162878787878787
 42
50.0
 43
0.0
 44
0.0
 50
0.0
 51
0.0
 71
     0
 72
 10000
 73
     1
 74
     3
 75
     0
 76
     0
 77
     0
 78
     1
  0
ENDTAB
  0
TABLE
  2
LTYPE
  5
8D
330
0
100
AcDbSymbolTable
 70
     3
  0
LTYPE
  5
8E
330
8D
100
AcDbSymbolTableRecord
100
AcDbLinetypeTableRecord
  2
BYBLOCK
 70
     0
  3

 72
    65
 73
     0
 40
0.0
  0
LTYPE
  5
8F
330
8D
100
AcDbSymbolTableRecord
100
AcDbLinetypeTableRecord
  2
BYLAYER
 70
     0
  3

 72
    65
 73
     0
 40
0.0
  0
LTYPE
  5
A
330
8D
100
AcDbSymbolTableRecord
100
AcDbLinetypeTableRecord
  2
CONTINUOUS
 70
     0
  3
Solid line
 72
    65
 73
     0
 40
0.0
  0
LTYPE
  5
268
330
8D
100
AcDbSymbolTableRecord
100
AcDbLinetypeTableRecord
  2
CENTER
 70
     0
  3
Center ____ _ ____ _ ____ _ ____ _ ____ _ ____
 72
    65
 73
     4
 40
50.8
 49
31.75
 74
     0
 49
-6.349999999999997
 74
     0
 49
6.349999999999997
 74
     0
 49
-6.349999999999997
 74
     0
  0
LTYPE
  5
CA
330
8D
100
AcDbSymbolTableRecord
100
AcDbLinetypeTableRecord
  2
CENTERX2
 70
     0
  3
Center (2x) ________  __  ________  __  _____
 72
    65
 73
     4
 40
101.6
 49
63.5
 74
     0
 49
-12.7
 74
     0
 49
12.7
 74
     0
 49
-12.7
 74
     0
  0
ENDTAB
  0
TABLE
  2
LAYER
  5
14
102
{ACAD_XDICTIONARY
360
15
102
}
330
0
100
AcDbSymbolTable
 70
     7
  0
LAYER
  5
6
330
14
100
AcDbSymbolTableRecord
100
AcDbLayerTableRecord
  2
0
 70
     0
 62
     7
  6
CONTINUOUS
  0
LAYER
  5
1B7
330
14
100
AcDbSymbolTableRecord
100
AcDbLayerTableRecord
  2
3
 70
     0
 62
     3
  6
CONTINUOUS
  0
LAYER
  5
B0
330
14
100
AcDbSymbolTableRecord
100
AcDbLayerTableRecord
  2
DEFPOINTS
 70
     0
 62
     7
  6
CONTINUOUS
  0
LAYER
  5
10D
330
14
100
AcDbSymbolTableRecord
100
AcDbLayerTableRecord
  2
DIM
 70
     0
 62
     3
  6
CONTINUOUS
  0
LAYER
  5
C9
330
14
100
AcDbSymbolTableRecord
100
AcDbLayerTableRecord
  2
CL
 70
     0
 62
     1
  6
CENTERX2
  0
LAYER
  5
267
330
14
100
AcDbSymbolTableRecord
100
AcDbLayerTableRecord
  2
CEN
 70
     0
 62
     1
  6
CENTER
  0
LAYER
  5
1EF
330
14
100
AcDbSymbolTableRecord
100
AcDbLayerTableRecord
  2
2
 70
     0
 62
     2
  6
CONTINUOUS
  0
ENDTAB
  0
TABLE
  2
STYLE
  5
8A
330
0
100
AcDbSymbolTable
 70
     1
  0
STYLE
  5
8B
330
8A
100
AcDbSymbolTableRecord
100
AcDbTextStyleTableRecord
  2
STANDARD
 70
     0
 40
0.0
 41
1.0
 50
0.0
 71
     0
 42
5.777225951253058
  3
romans.shx
  4
whgtxt.shx
  0
ENDTAB
  0
TABLE
  2
VIEW
  5
90
330
0
100
AcDbSymbolTable
 70
     0
  0
ENDTAB
  0
TABLE
  2
UCS
  5
91
330
0
100
AcDbSymbolTable
 70
     0
  0
ENDTAB
  0
TABLE
  2
APPID
  5
94
330
0
100
AcDbSymbolTable
 70
     2
  0
APPID
  5
95
330
94
100
AcDbSymbolTableRecord
100
AcDbRegAppTableRecord
  2
ACAD
 70
     0
  0
APPID
  5
462
330
94
100
AcDbSymbolTableRecord
100
AcDbRegAppTableRecord
  2
CONTENTBLOCKICON
 70
     0
  0
ENDTAB
  0
TABLE
  2
DIMSTYLE
  5
96
330
0
100
AcDbSymbolTable
 70
     2
  0
DIMSTYLE
105
A7
102
{ACAD_REACTORS
330
D4
330
232
330
147
330
21B
330
27E
330
26F
330
302
330
209
330
12B
330
2D4
330
2BF
330
ED
330
138
330
1DB
330
1A6
330
197
330
A4
330
188
330
179
330
165
330
1CD
330
2B0
330
2A1
330
B7
102
}
330
96
100
AcDbSymbolTableRecord
100
AcDbDimStyleTableRecord
  2
STANDARD
 70
     0
  3

  4

  5

  6

  7

 40
1.0
 41
2.5
 42
1.0
 43
10.0
 44
0.6
 45
0.0
 46
0.0
 47
0.0
 48
0.0
140
3.0
141
0.09
142
0.0
143
25.4
144
1.0
145
0.0
146
1.0
147
1.0
 71
     0
 72
     0
 73
     0
 74
     0
 75
     0
 76
     0
 77
     1
 78
     8
170
     0
171
     2
172
     1
173
     0
174
     1
175
     0
176
   123
177
   123
178
     3
270
     2
271
     2
272
     2
273
     2
274
     2
340
8B
275
     1
280
     0
281
     0
282
     0
283
     1
284
     0
285
     0
286
     0
287
     3
288
     1
  0
DIMSTYLE
105
9C
330
96
100
AcDbSymbolTableRecord
100
AcDbDimStyleTableRecord
  2
1_1_2
 70
     0
  3

  4

  5

  6

  7

 40
1.0
 41
3.0
 42
1.0
 43
10.0
 44
0.6
 45
0.0
 46
0.0
 47
0.0
 48
0.0
140
3.5
141
0.09
142
0.0
143
25.4
144
1.0
145
0.0
146
1.0
147
1.0
 71
     0
 72
     0
 73
     0
 74
     0
 75
     0
 76
     0
 77
     1
 78
     8
170
     0
171
     2
172
     1
173
     0
174
     1
175
     0
176
   123
177
   123
178
     3
270
     2
271
     2
272
     2
273
     2
274
     2
340
8B
275
     1
280
     0
281
     0
282
     0
283
     1
284
     0
285
     0
286
     0
287
     3
288
     1
  0
ENDTAB
  0
TABLE
  2
BLOCK_RECORD
  5
1
330
0
100
AcDbSymbolTable
 70
    48
  0
BLOCK_RECORD
  5
2
102
{ACAD_XDICTIONARY
360
3
102
}
330
1
100
AcDbSymbolTableRecord
100
AcDbBlockTableRecord
  2
*MODEL_SPACE
  0
BLOCK_RECORD
  5
E
102
{ACAD_XDICTIONARY
360
F
102
}
330
1
100
AcDbSymbolTableRecord
100
AcDbBlockTableRecord
  2
*PAPER_SPACE
  0
BLOCK_RECORD
  5
D7
330
1
100
AcDbSymbolTableRecord
100
AcDbBlockTableRecord
  2
*D0
  0
BLOCK_RECORD
  5
CF
330
1
100
AcDbSymbolTableRecord
100
AcDbBlockTableRecord
  2
4
1001
ACAD
1000
DesignCenter Data
1002
{
1070
     1
1070
     4
1002
}
1001
CONTENTBLOCKICON
1071
        0
1004
2800000020000000200000000100080000000000000400000000000000000000000000000000000000000000000080000080000000808000800000008000800080800000C0C0C000C0DCC000F0CAA6000020400000206000002080000020A0000020C0000020E00000400000004020000040400000406000004080000040A0
1004
000040C0000040E00000600000006020000060400000606000006080000060A0000060C0000060E00000800000008020000080400000806000008080000080A0000080C0000080E00000A0000000A0200000A0400000A0600000A0800000A0A00000A0C00000A0E00000C0000000C0200000C0400000C0600000C0800000C0
1004
A00000C0C00000C0E00000E0000000E0200000E0400000E0600000E0800000E0A00000E0C00000E0E00040000000400020004000400040006000400080004000A0004000C0004000E00040200000402020004020400040206000402080004020A0004020C0004020E000404000004040200040404000404060004040800040
1004
40A0004040C0004040E00040600000406020004060400040606000406080004060A0004060C0004060E00040800000408020004080400040806000408080004080A0004080C0004080E00040A0000040A0200040A0400040A0600040A0800040A0A00040A0C00040A0E00040C0000040C0200040C0400040C0600040C08000
1004
40C0A00040C0C00040C0E00040E0000040E0200040E0400040E0600040E0800040E0A00040E0C00040E0E00080000000800020008000400080006000800080008000A0008000C0008000E00080200000802020008020400080206000802080008020A0008020C0008020E00080400000804020008040400080406000804080
1004
008040A0008040C0008040E00080600000806020008060400080606000806080008060A0008060C0008060E00080800000808020008080400080806000808080008080A0008080C0008080E00080A0000080A0200080A0400080A0600080A0800080A0A00080A0C00080A0E00080C0000080C0200080C0400080C0600080C0
1004
800080C0A00080C0C00080C0E00080E0000080E0200080E0400080E0600080E0800080E0A00080E0C00080E0E000C0000000C0002000C0004000C0006000C0008000C000A000C000C000C000E000C0200000C0202000C0204000C0206000C0208000C020A000C020C000C020E000C0400000C0402000C0404000C0406000C0
1004
408000C040A000C040C000C040E000C0600000C0602000C0604000C0606000C0608000C060A000C060C000C060E000C0800000C0802000C0804000C0806000C0808000C080A000C080C000C080E000C0A00000C0A02000C0A04000C0A06000C0A08000C0A0A000C0A0C000C0A0E000C0C00000C0C02000C0C04000C0C06000
1004
C0C08000C0C0A000F0FBFF00A4A0A000808080000000FF0000FF000000FFFF00FF000000FF00FF00FFFF0000FFFFFF0000000000000000000000000000000000000000000000000000000000000000000000000000000000000000000000000000000000000000000000000000000000000000000000000000000000000000
1004
0000000000000000000000000000000000000000FFFFFFFFFFFFFFFFFFFFFFFFFFFFFFFFFFFFFFFFFF000000000000000000FFFFFF00F9000000000000000000000000000000F9FFF9FF0000000000000000FF00FFF90000000000000000000000000000000000FFFFFF0000000000000000F3F3F9F9000000000000000000
1004
00000000000000F9FFF9FF0000000000000000FFF9000000000000000000000000000000000000000000FF0000000000000000FF00F3F300000000000000000000000000000000000000FF0000000000000000FF000000F3000000000000000000000000000000000000FF0000000000000000FF00000000F3000000000000
1004
0000000000000000000000FF0000000000000000FF0000000000F3F3000000000000000000000000000000FF0000000000000000FF00000000000000F30000000000000000000000000000FF0000000000000000FF0000000000000000F3F3000000000000000000000000FF0000000000000000FF00000000000000000000
1004
F30000000000000000000000FF0000000000000000FF0000000000000000000000F300000000000000000000FF0000000000000000FF000000000000000000000000F3F30000000000000000FF0000000000000000FF0000000000000000000000000000F300000000000000FF0000000000000000FF000000000000000000
1004
000000000000F3F30000000000FF0000000000000000FF0000000000000000000000000000000000F300000000FF0000000000000000FF000000000000000000000000000000000000F3000000FF0000000000000000FF00000000000000000000000000000000000000F3F300FF0000000000000000FF0000000000000000
1004
00000000000000000000000000FFFF0000000000000000FF00FFF900000000000000000000000000000000F9F900F30000000000000000FF00FFFF00000000000000000000000000000000F9F9FFFFFAF300000000000000FFF900F90000000000000000000000000000F90000F9FFFAFAF300000000000000FFFFFFFFFFFF
1004
FFFFFFFFFFFFFFFFFFFFFFFFFFFFFF0000FAFAFAF30000000000000000000000000000000000000000000000000000000000FAFAFAF30000000000000000000000000000000000000000000000000000000000FAFA000000000000000000000000000000000000000000000000000000000000000000000000000000000000
1004
0000000000000000000000000000000000000000000000000000000000000000000000000000000000000000000000000000000000000000
  0
BLOCK_RECORD
  5
233
330
1
100
AcDbSymbolTableRecord
100
AcDbBlockTableRecord
  2
*D2
  0
BLOCK_RECORD
  5
21C
330
1
100
AcDbSymbolTableRecord
100
AcDbBlockTableRecord
  2
*D3
  0
BLOCK_RECORD
  5
27F
330
1
100
AcDbSymbolTableRecord
100
AcDbBlockTableRecord
  2
*D4
  0
BLOCK_RECORD
  5
12C
330
1
100
AcDbSymbolTableRecord
100
AcDbBlockTableRecord
  2
*D5
  0
BLOCK_RECORD
  5
139
330
1
100
AcDbSymbolTableRecord
100
AcDbBlockTableRecord
  2
*D6
  0
BLOCK_RECORD
  5
1DC
330
1
100
AcDbSymbolTableRecord
100
AcDbBlockTableRecord
  2
*D7
  0
BLOCK_RECORD
  5
1A7
330
1
100
AcDbSymbolTableRecord
100
AcDbBlockTableRecord
  2
*D8
  0
BLOCK_RECORD
  5
1CE
330
1
100
AcDbSymbolTableRecord
100
AcDbBlockTableRecord
  2
*D9
  0
BLOCK_RECORD
  5
14A
330
1
100
AcDbSymbolTableRecord
100
AcDbBlockTableRecord
  2
*D10
  0
BLOCK_RECORD
  5
272
330
1
100
AcDbSymbolTableRecord
100
AcDbBlockTableRecord
  2
*D11
  0
BLOCK_RECORD
  5
305
330
1
100
AcDbSymbolTableRecord
100
AcDbBlockTableRecord
  2
*D12
  0
BLOCK_RECORD
  5
20C
330
1
100
AcDbSymbolTableRecord
100
AcDbBlockTableRecord
  2
*D13
  0
BLOCK_RECORD
  5
2D7
330
1
100
AcDbSymbolTableRecord
100
AcDbBlockTableRecord
  2
*D14
  0
BLOCK_RECORD
  5
2C2
330
1
100
AcDbSymbolTableRecord
100
AcDbBlockTableRecord
  2
*D15
  0
BLOCK_RECORD
  5
F0
330
1
100
AcDbSymbolTableRecord
100
AcDbBlockTableRecord
  2
*D16
  0
BLOCK_RECORD
  5
19A
330
1
100
AcDbSymbolTableRecord
100
AcDbBlockTableRecord
  2
*D17
  0
BLOCK_RECORD
  5
A8
330
1
100
AcDbSymbolTableRecord
100
AcDbBlockTableRecord
  2
*D18
  0
BLOCK_RECORD
  5
18B
330
1
100
AcDbSymbolTableRecord
100
AcDbBlockTableRecord
  2
*D19
  0
BLOCK_RECORD
  5
17C
330
1
100
AcDbSymbolTableRecord
100
AcDbBlockTableRecord
  2
*D20
  0
BLOCK_RECORD
  5
168
330
1
100
AcDbSymbolTableRecord
100
AcDbBlockTableRecord
  2
*D21
  0
BLOCK_RECORD
  5
2B3
330
1
100
AcDbSymbolTableRecord
100
AcDbBlockTableRecord
  2
*D22
  0
BLOCK_RECORD
  5
2A4
330
1
100
AcDbSymbolTableRecord
100
AcDbBlockTableRecord
  2
*D23
  0
BLOCK_RECORD
  5
BA
330
1
100
AcDbSymbolTableRecord
100
AcDbBlockTableRecord
  2
*D24
  0
BLOCK_RECORD
  5
319
330
1
100
AcDbSymbolTableRecord
100
AcDbBlockTableRecord
  2
*D25
  0
BLOCK_RECORD
  5
327
330
1
100
AcDbSymbolTableRecord
100
AcDbBlockTableRecord
  2
*D26
  0
BLOCK_RECORD
  5
333
330
1
100
AcDbSymbolTableRecord
100
AcDbBlockTableRecord
  2
*D27
  0
BLOCK_RECORD
  5
33F
330
1
100
AcDbSymbolTableRecord
100
AcDbBlockTableRecord
  2
*D28
  0
BLOCK_RECORD
  5
34B
330
1
100
AcDbSymbolTableRecord
100
AcDbBlockTableRecord
  2
*D29
  0
BLOCK_RECORD
  5
357
330
1
100
AcDbSymbolTableRecord
100
AcDbBlockTableRecord
  2
*D30
  0
BLOCK_RECORD
  5
365
330
1
100
AcDbSymbolTableRecord
100
AcDbBlockTableRecord
  2
*D31
  0
BLOCK_RECORD
  5
371
330
1
100
AcDbSymbolTableRecord
100
AcDbBlockTableRecord
  2
*D32
  0
BLOCK_RECORD
  5
37D
330
1
100
AcDbSymbolTableRecord
100
AcDbBlockTableRecord
  2
*D33
  0
BLOCK_RECORD
  5
38B
330
1
100
AcDbSymbolTableRecord
100
AcDbBlockTableRecord
  2
*D34
  0
BLOCK_RECORD
  5
397
330
1
100
AcDbSymbolTableRecord
100
AcDbBlockTableRecord
  2
*D35
  0
BLOCK_RECORD
  5
3A3
330
1
100
AcDbSymbolTableRecord
100
AcDbBlockTableRecord
  2
*D36
  0
BLOCK_RECORD
  5
3AF
330
1
100
AcDbSymbolTableRecord
100
AcDbBlockTableRecord
  2
*D37
  0
BLOCK_RECORD
  5
3BB
330
1
100
AcDbSymbolTableRecord
100
AcDbBlockTableRecord
  2
*D38
  0
BLOCK_RECORD
  5
3C7
330
1
100
AcDbSymbolTableRecord
100
AcDbBlockTableRecord
  2
*D39
  0
BLOCK_RECORD
  5
3D3
330
1
100
AcDbSymbolTableRecord
100
AcDbBlockTableRecord
  2
*D40
  0
BLOCK_RECORD
  5
3DF
330
1
100
AcDbSymbolTableRecord
100
AcDbBlockTableRecord
  2
*D41
  0
BLOCK_RECORD
  5
3ED
330
1
100
AcDbSymbolTableRecord
100
AcDbBlockTableRecord
  2
*D42
  0
BLOCK_RECORD
  5
3F9
330
1
100
AcDbSymbolTableRecord
100
AcDbBlockTableRecord
  2
*D43
  0
BLOCK_RECORD
  5
405
330
1
100
AcDbSymbolTableRecord
100
AcDbBlockTableRecord
  2
*D44
  0
BLOCK_RECORD
  5
411
330
1
100
AcDbSymbolTableRecord
100
AcDbBlockTableRecord
  2
*D45
  0
BLOCK_RECORD
  5
41D
330
1
100
AcDbSymbolTableRecord
100
AcDbBlockTableRecord
  2
*D46
  0
BLOCK_RECORD
  5
429
330
1
100
AcDbSymbolTableRecord
100
AcDbBlockTableRecord
  2
*D47
  0
ENDTAB
  0
ENDSEC
  0
SECTION
  2
BLOCKS
  0
BLOCK
  5
5
330
2
100
AcDbEntity
  8
0
100
AcDbBlockBegin
  2
*MODEL_SPACE
 70
     0
 10
0.0
 20
0.0
 30
0.0
  3
*MODEL_SPACE
  1

  0
ENDBLK
  5
B
330
2
100
AcDbEntity
  8
0
100
AcDbBlockEnd
  0
BLOCK
  5
11
330
E
100
AcDbEntity
 67
     1
  8
0
100
AcDbBlockBegin
  2
*PAPER_SPACE
 70
     0
 10
0.0
 20
0.0
 30
0.0
  3
*PAPER_SPACE
  1

  0
ENDBLK
  5
12
330
E
100
AcDbEntity
 67
     1
  8
0
100
AcDbBlockEnd
  0
BLOCK
  5
E0
330
D7
100
AcDbEntity
  8
0
100
AcDbBlockBegin
  2
*D0
 70
     1
 10
0.0
 20
0.0
 30
0.0
  3
*D0
  1

  0
LINE
  5
D8
330
D7
100
AcDbEntity
  8
0
 62
   123
100
AcDbLine
 10
-474.0668181331803
 20
-2516.925402556208
 30
0.0
 11
-497.6135875546876
 21
-2534.857403328699
 31
0.0
  0
LINE
  5
D9
330
D7
100
AcDbEntity
  8
0
 62
   123
100
AcDbLine
 10
-584.3305466904876
 20
-2600.896550796242
 30
0.0
 11
-586.3194677715837
 21
-2602.411210141828
 31
0.0
  0
MTEXT
  5
DA
330
D7
100
AcDbEntity
  8
0
 62
     3
100
AcDbMText
 10
-484.8441670850143
 20
-2521.990466427412
 30
0.0
 40
3.0
 41
0.0
 71
     5
 72
     1
  1
\A1;\U+2205104%%P0.5
 11
0.7955684324385314
 21
0.6058637382343476
 31
0.0
1001
ACAD
1000
MTEXTBEGIN
1070
    73
1070
     1
1070
    44
1040
1.0
1070
    74
1070
     0
1000
MTEXTEND
1000
MTEXTBEGIN
1070
    73
1070
     1
1070
    44
1040
1.0
1070
    74
1070
     0
1000
MTEXTEND
1000
MTEXTBEGIN
1070
    73
1070
     1
1070
    44
1040
1.0
1070
    74
1070
     0
1000
MTEXTEND
  0
LINE
  5
DB
330
D7
100
AcDbEntity
  8
0
 62
   123
100
AcDbLine
 10
-582.3416256093914
 20
-2599.381891450657
 30
0.0
 11
-499.6025086357838
 21
-2536.372062674285
 31
0.0
  0
SOLID
  5
DC
330
D7
100
AcDbEntity
  8
0
 62
   123
100
AcDbTrace
 10
-584.5829899147519
 20
-2600.565063949392
 30
0.0
 11
-584.0781034662234
 21
-2601.228037643092
 31
0.0
 12
-582.3416256093914
 22
-2599.381891450657
 32
0.0
 13
-582.3416256093914
 23
-2599.381891450657
 33
0.0
  0
SOLID
  5
DD
330
D7
100
AcDbEntity
  8
0
 62
   123
100
AcDbTrace
 10
-497.8660307789517
 20
-2534.52591648185
 30
0.0
 11
-497.3611443304232
 21
-2535.188890175549
 31
0.0
 12
-499.6025086357838
 22
-2536.372062674285
 32
0.0
 13
-499.6025086357838
 23
-2536.372062674285
 33
0.0
  0
POINT
  5
DE
330
D7
100
AcDbEntity
  8
DEFPOINTS
 62
     0
100
AcDbPoint
 10
-499.6025086357838
 20
-2536.372062674285
 30
0.0
  0
POINT
  5
DF
330
D7
100
AcDbEntity
  8
DEFPOINTS
 62
     0
100
AcDbPoint
 10
-582.3416256093914
 20
-2599.381891450657
 30
0.0
  0
ENDBLK
  5
E1
330
D7
100
AcDbEntity
  8
0
100
AcDbBlockEnd
  0
BLOCK
  5
EB
330
CF
100
AcDbEntity
  8
0
100
AcDbBlockBegin
  2
4
 70
     0
 10
0.0
 20
0.0
 30
0.0
  3
4
  1

  0
LWPOLYLINE
  5
D0
330
CF
100
AcDbEntity
  8
0
100
AcDbPolyline
 90
        8
 70
     1
 43
0.0
 10
-40.0
 20
-45.00000000000045
 10
40.0
 20
-45.0
 42
0.4142135623730951
 10
45.0
 20
-40.0
 10
45.0
 20
40.0
 42
0.4142135623730951
 10
40.0
 20
45.0
 10
-40.0
 20
45.0
 42
0.4142135623730951
 10
-45.0
 20
40.0
 10
-45.0
 20
-40.00000000000045
 42
0.4142135623730951
  0
CIRCLE
  5
D1
330
CF
100
AcDbEntity
  8
0
100
AcDbCircle
 10
36.76955262170071
 20
36.76955262170031
 30
0.0
 40
3.25
  0
LINE
  5
D2
330
CF
100
AcDbEntity
  8
CL
 48
0.6
100
AcDbLine
 10
33.05724202047111
 20
33.05724202047122
 30
0.0
 11
40.48186322293008
 21
40.48186322292986
 31
0.0
  0
ARC
  5
D3
102
{ACAD_REACTORS
330
D6
102
}
330
CF
100
AcDbEntity
  8
CL
 48
0.6
100
AcDbCircle
 10
0.0
 20
0.0
 30
0.0
 40
51.9999999999996
100
AcDbArc
 50
35.90024337538245
 51
54.09975662462136
  0
DIMENSION
  5
D4
102
{ACAD_XDICTIONARY
360
D5
102
}
102
{ACAD_REACTORS
330
D6
102
}
330
CF
100
AcDbEntity
  8
0
100
AcDbDimension
  2
*D0
 10
-41.36955848680371
 20
-31.50491438818606
 30
0.0
 11
57.64255938315909
 21
43.89758955396246
 31
0.0
 12
540.9720671225876
 22
2567.87697706247
 32
0.0
 70
   131
  1
<>%%P0.5
  3
STANDARD
100
AcDbDiametricDimension
 15
41.36955848680371
 25
31.50491438818606
 35
0.0
 40
0.0
1001
ACAD
1000
DSTYLE
1002
{
1070
   287
1070
     4
1070
   287
1070
     4
1070
   287
1070
     4
1070
   287
1070
     4
1070
   287
1070
     4
1070
   287
1070
     4
1070
   287
1070
     4
1070
   279
1070
     1
1070
   289
1070
     3
1002
}
  0
ARC
  5
E2
330
CF
100
AcDbEntity
  8
CL
 48
0.6
100
AcDbCircle
 10
-0.0000000000002274
 20
0.0
 30
0.0
 40
52.0
100
AcDbArc
 50
129.2128702778055
 51
140.7871297221883
  0
LINE
  5
E3
330
CF
100
AcDbEntity
  8
CL
 48
0.6
100
AcDbLine
 10
-33.05724202047122
 20
33.05724202047122
 30
0.0
 11
-40.48186322292986
 21
40.48186322293031
 31
0.0
  0
CIRCLE
  5
E4
330
CF
100
AcDbEntity
  8
0
100
AcDbCircle
 10
-36.76955262170054
 20
36.76955262170077
 30
0.0
 40
3.25
  0
LINE
  5
E5
330
CF
100
AcDbEntity
  8
CL
 48
0.6
100
AcDbLine
 10
-33.05724202047122
 20
-33.05724202047122
 30
0.0
 11
-40.48186322293008
 21
-40.48186322292986
 31
0.0
  0
CIRCLE
  5
E6
330
CF
100
AcDbEntity
  8
0
100
AcDbCircle
 10
-36.76955262170077
 20
-36.76955262170031
 30
0.0
 40
3.25
  0
ARC
  5
E7
330
CF
100
AcDbEntity
  8
CL
 48
0.6
100
AcDbCircle
 10
0.0
 20
0.0
 30
0.0
 40
51.9999999999996
100
AcDbArc
 50
215.9002433753824
 51
234.0997566246214
  0
ARC
  5
E8
330
CF
100
AcDbEntity
  8
CL
 48
0.6
100
AcDbCircle
 10
0.0
 20
0.0000000000004547
 30
0.0
 40
52.0
100
AcDbArc
 50
309.2128702778056
 51
320.7871297221883
  0
LINE
  5
E9
330
CF
100
AcDbEntity
  8
CL
 48
0.6
100
AcDbLine
 10
33.05724202047076
 20
-33.05724202047122
 30
0.0
 11
40.48186322292941
 21
-40.48186322293031
 31
0.0
  0
CIRCLE
  5
EA
330
CF
100
AcDbEntity
  8
0
100
AcDbCircle
 10
36.76955262170025
 20
-36.76955262170077
 30
0.0
 40
3.25
  0
ENDBLK
  5
EC
330
CF
100
AcDbEntity
  8
0
100
AcDbBlockEnd
  0
BLOCK
  5
23D
330
233
100
AcDbEntity
  8
0
100
AcDbBlockBegin
  2
*D2
 70
     1
 10
0.0
 20
0.0
 30
0.0
  3
*D2
  1

  0
LINE
  5
234
330
233
100
AcDbEntity
  8
0
 62
   123
100
AcDbLine
 10
-10579.93296381777
 20
-3924.482751743913
 30
0.0
 11
-10579.93296381777
 21
-3907.237525342258
 31
0.0
  0
LINE
  5
235
330
233
100
AcDbEntity
  8
0
 62
   123
100
AcDbLine
 10
-10489.93296381774
 20
-3924.482751743912
 30
0.0
 11
-10489.93296381774
 21
-3907.237525342258
 31
0.0
  0
LINE
  5
236
330
233
100
AcDbEntity
  8
0
 62
   123
100
AcDbLine
 10
-10577.43296381775
 20
-3907.837525342258
 30
0.0
 11
-10492.43296381777
 21
-3907.837525342258
 31
0.0
  0
SOLID
  5
237
330
233
100
AcDbEntity
  8
0
 62
   123
100
AcDbTrace
 10
-10577.43296381775
 20
-3907.420858675592
 30
0.0
 11
-10577.43296381775
 21
-3908.254192008925
 31
0.0
 12
-10579.93296381777
 22
-3907.837525342258
 32
0.0
 13
-10579.93296381777
 23
-3907.837525342258
 33
0.0
  0
SOLID
  5
238
330
233
100
AcDbEntity
  8
0
 62
   123
100
AcDbTrace
 10
-10492.43296381777
 20
-3907.420858675592
 30
0.0
 11
-10492.43296381777
 21
-3908.254192008925
 31
0.0
 12
-10489.93296381774
 22
-3907.837525342258
 32
0.0
 13
-10489.93296381774
 23
-3907.837525342258
 33
0.0
  0
MTEXT
  5
239
330
233
100
AcDbEntity
  8
0
 62
     3
100
AcDbMText
 10
-10534.93296381776
 20
-3905.337525342257
 30
0.0
 40
3.0
 41
0.0
 71
     5
 72
     1
  1
\A1;90
1001
ACAD
1000
MTEXTBEGIN
1070
    73
1070
     1
1070
    44
1040
1.0
1070
    74
1070
     0
1000
MTEXTEND
1000
MTEXTBEGIN
1070
    73
1070
     1
1070
    44
1040
1.0
1070
    74
1070
     0
1000
MTEXTEND
1000
MTEXTBEGIN
1070
    73
1070
     1
1070
    44
1040
1.0
1070
    74
1070
     0
1000
MTEXTEND
  0
POINT
  5
23A
330
233
100
AcDbEntity
  8
DEFPOINTS
 62
     0
100
AcDbPoint
 10
-10579.93296381777
 20
-3925.482751743913
 30
0.0
  0
POINT
  5
23B
330
233
100
AcDbEntity
  8
DEFPOINTS
 62
     0
100
AcDbPoint
 10
-10489.93296381774
 20
-3925.482751743912
 30
0.0
  0
POINT
  5
23C
330
233
100
AcDbEntity
  8
DEFPOINTS
 62
     0
100
AcDbPoint
 10
-10489.93296381774
 20
-3907.837525342258
 30
0.0
  0
ENDBLK
  5
23E
330
233
100
AcDbEntity
  8
0
100
AcDbBlockEnd
  0
BLOCK
  5
228
330
21C
100
AcDbEntity
  8
0
100
AcDbBlockBegin
  2
*D3
 70
     1
 10
0.0
 20
0.0
 30
0.0
  3
*D3
  1

  0
LINE
  5
21D
330
21C
100
AcDbEntity
  8
0
 62
   123
100
AcDbLine
 10
-10433.92706727251
 20
-3923.511987747922
 30
0.0
 11
-10433.92706727251
 21
-3908.38024298938
 31
0.0
  0
LINE
  5
21E
330
21C
100
AcDbEntity
  8
0
 62
   123
100
AcDbLine
 10
-10431.92706727251
 20
-3920.011987747923
 30
0.0
 11
-10431.92706727251
 21
-3908.38024298938
 31
0.0
  0
LINE
  5
21F
330
21C
100
AcDbEntity
  8
0
 62
   123
100
AcDbLine
 10
-10429.42706727251
 20
-3908.980242989381
 30
0.0
 11
-10426.92706727251
 21
-3908.980242989381
 31
0.0
  0
LINE
  5
220
330
21C
100
AcDbEntity
  8
0
 62
   123
100
AcDbLine
 10
-10436.42706727251
 20
-3908.980242989381
 30
0.0
 11
-10442.92706727251
 21
-3908.980242989381
 31
0.0
  0
LINE
  5
221
330
21C
100
AcDbEntity
  8
0
 62
   123
100
AcDbLine
 10
-10431.92706727251
 20
-3908.980242989381
 30
0.0
 11
-10433.92706727251
 21
-3908.980242989381
 31
0.0
  0
SOLID
  5
222
330
21C
100
AcDbEntity
  8
0
 62
   123
100
AcDbTrace
 10
-10429.42706727251
 20
-3908.563576322714
 30
0.0
 11
-10429.42706727251
 21
-3909.396909656047
 31
0.0
 12
-10431.92706727251
 22
-3908.980242989381
 32
0.0
 13
-10431.92706727251
 23
-3908.980242989381
 33
0.0
  0
SOLID
  5
223
330
21C
100
AcDbEntity
  8
0
 62
   123
100
AcDbTrace
 10
-10436.42706727251
 20
-3908.563576322714
 30
0.0
 11
-10436.42706727251
 21
-3909.396909656047
 31
0.0
 12
-10433.92706727251
 22
-3908.980242989381
 32
0.0
 13
-10433.92706727251
 23
-3908.980242989381
 33
0.0
  0
MTEXT
  5
224
330
21C
100
AcDbEntity
  8
0
 62
     3
100
AcDbMText
 10
-10440.92706727251
 20
-3906.480242989381
 30
0.0
 40
3.0
 41
0.0
 71
     5
 72
     1
  1
\A1;2
1001
ACAD
1000
MTEXTBEGIN
1070
    73
1070
     1
1070
    44
1040
1.0
1070
    74
1070
     0
1000
MTEXTEND
1000
MTEXTBEGIN
1070
    73
1070
     1
1070
    44
1040
1.0
1070
    74
1070
     0
1000
MTEXTEND
1000
MTEXTBEGIN
1070
    73
1070
     1
1070
    44
1040
1.0
1070
    74
1070
     0
1000
MTEXTEND
  0
POINT
  5
225
330
21C
100
AcDbEntity
  8
DEFPOINTS
 62
     0
100
AcDbPoint
 10
-10433.92706727251
 20
-3924.511987747921
 30
0.0
  0
POINT
  5
226
330
21C
100
AcDbEntity
  8
DEFPOINTS
 62
     0
100
AcDbPoint
 10
-10431.92706727251
 20
-3921.011987747922
 30
0.0
  0
POINT
  5
227
330
21C
100
AcDbEntity
  8
DEFPOINTS
 62
     0
100
AcDbPoint
 10
-10431.92706727251
 20
-3908.980242989381
 30
0.0
  0
ENDBLK
  5
229
330
21C
100
AcDbEntity
  8
0
100
AcDbBlockEnd
  0
BLOCK
  5
289
330
27F
100
AcDbEntity
  8
0
100
AcDbBlockBegin
  2
*D4
 70
     1
 10
0.0
 20
0.0
 30
0.0
  3
*D4
  1

  0
LINE
  5
280
330
27F
100
AcDbEntity
  8
0
 62
   123
100
AcDbLine
 10
-10452.92706727251
 20
-3960.361987747923
 30
0.0
 11
-10452.92706727251
 21
-3897.846708183803
 31
0.0
  0
LINE
  5
281
330
27F
100
AcDbEntity
  8
0
 62
   123
100
AcDbLine
 10
-10431.92706727251
 20
-3920.011987747923
 30
0.0
 11
-10431.92706727251
 21
-3897.846708183803
 31
0.0
  0
LINE
  5
282
330
27F
100
AcDbEntity
  8
0
 62
   123
100
AcDbLine
 10
-10450.42706727251
 20
-3898.446708183803
 30
0.0
 11
-10434.42706727251
 21
-3898.446708183803
 31
0.0
  0
SOLID
  5
283
330
27F
100
AcDbEntity
  8
0
 62
   123
100
AcDbTrace
 10
-10450.42706727251
 20
-3898.030041517136
 30
0.0
 11
-10450.42706727251
 21
-3898.863374850469
 31
0.0
 12
-10452.92706727251
 22
-3898.446708183803
 32
0.0
 13
-10452.92706727251
 23
-3898.446708183803
 33
0.0
  0
SOLID
  5
284
330
27F
100
AcDbEntity
  8
0
 62
   123
100
AcDbTrace
 10
-10434.42706727251
 20
-3898.030041517136
 30
0.0
 11
-10434.42706727251
 21
-3898.863374850469
 31
0.0
 12
-10431.92706727251
 22
-3898.446708183803
 32
0.0
 13
-10431.92706727251
 23
-3898.446708183803
 33
0.0
  0
MTEXT
  5
285
330
27F
100
AcDbEntity
  8
0
 62
     3
100
AcDbMText
 10
-10442.42706727251
 20
-3895.946708183803
 30
0.0
 40
3.0
 41
0.0
 71
     5
 72
     1
  1
\A1;21
1001
ACAD
1000
MTEXTBEGIN
1070
    73
1070
     1
1070
    44
1040
1.0
1070
    74
1070
     0
1000
MTEXTEND
1000
MTEXTBEGIN
1070
    73
1070
     1
1070
    44
1040
1.0
1070
    74
1070
     0
1000
MTEXTEND
1000
MTEXTBEGIN
1070
    73
1070
     1
1070
    44
1040
1.0
1070
    74
1070
     0
1000
MTEXTEND
  0
POINT
  5
286
330
27F
100
AcDbEntity
  8
DEFPOINTS
 62
     0
100
AcDbPoint
 10
-10452.92706727251
 20
-3961.361987747923
 30
0.0
  0
POINT
  5
287
330
27F
100
AcDbEntity
  8
DEFPOINTS
 62
     0
100
AcDbPoint
 10
-10431.92706727251
 20
-3921.011987747922
 30
0.0
  0
POINT
  5
288
330
27F
100
AcDbEntity
  8
DEFPOINTS
 62
     0
100
AcDbPoint
 10
-10431.92706727251
 20
-3898.446708183803
 30
0.0
  0
ENDBLK
  5
28A
330
27F
100
AcDbEntity
  8
0
100
AcDbBlockEnd
  0
BLOCK
  5
136
330
12C
100
AcDbEntity
  8
0
100
AcDbBlockBegin
  2
*D5
 70
     1
 10
0.0
 20
0.0
 30
0.0
  3
*D5
  1

  0
LINE
  5
12D
330
12C
100
AcDbEntity
  8
0
 62
   123
100
AcDbLine
 10
-10431.92706727251
 20
-3904.911987747921
 30
0.0
 11
-10431.92706727251
 21
-3897.846708183803
 31
0.0
  0
LINE
  5
12E
330
12C
100
AcDbEntity
  8
0
 62
   123
100
AcDbLine
 10
-10281.92706727251
 20
-3923.261987747923
 30
0.0
 11
-10281.92706727251
 21
-3897.846708183803
 31
0.0
  0
LINE
  5
12F
330
12C
100
AcDbEntity
  8
0
 62
   123
100
AcDbLine
 10
-10429.42706727251
 20
-3898.446708183803
 30
0.0
 11
-10284.42706727251
 21
-3898.446708183803
 31
0.0
  0
SOLID
  5
130
330
12C
100
AcDbEntity
  8
0
 62
   123
100
AcDbTrace
 10
-10429.42706727251
 20
-3898.030041517136
 30
0.0
 11
-10429.42706727251
 21
-3898.863374850469
 31
0.0
 12
-10431.92706727251
 22
-3898.446708183803
 32
0.0
 13
-10431.92706727251
 23
-3898.446708183803
 33
0.0
  0
SOLID
  5
131
330
12C
100
AcDbEntity
  8
0
 62
   123
100
AcDbTrace
 10
-10284.42706727251
 20
-3898.030041517136
 30
0.0
 11
-10284.42706727251
 21
-3898.863374850469
 31
0.0
 12
-10281.92706727251
 22
-3898.446708183803
 32
0.0
 13
-10281.92706727251
 23
-3898.446708183803
 33
0.0
  0
MTEXT
  5
132
330
12C
100
AcDbEntity
  8
0
 62
     3
100
AcDbMText
 10
-10354.99307151062
 20
-3895.946708183803
 30
0.0
 40
3.0
 41
0.0
 71
     5
 72
     1
  1
\A1;150
1001
ACAD
1000
MTEXTBEGIN
1070
    73
1070
     1
1070
    44
1040
1.0
1070
    74
1070
     0
1000
MTEXTEND
1000
MTEXTBEGIN
1070
    73
1070
     1
1070
    44
1040
1.0
1070
    74
1070
     0
1000
MTEXTEND
1000
MTEXTBEGIN
1070
    73
1070
     1
1070
    44
1040
1.0
1070
    74
1070
     0
1000
MTEXTEND
  0
POINT
  5
133
330
12C
100
AcDbEntity
  8
DEFPOINTS
 62
     0
100
AcDbPoint
 10
-10431.92706727251
 20
-3905.911987747922
 30
0.0
  0
POINT
  5
134
330
12C
100
AcDbEntity
  8
DEFPOINTS
 62
     0
100
AcDbPoint
 10
-10281.92706727251
 20
-3924.261987747923
 30
0.0
  0
POINT
  5
135
330
12C
100
AcDbEntity
  8
DEFPOINTS
 62
     0
100
AcDbPoint
 10
-10281.92706727251
 20
-3898.446708183803
 30
0.0
  0
ENDBLK
  5
137
330
12C
100
AcDbEntity
  8
0
100
AcDbBlockEnd
  0
BLOCK
  5
143
330
139
100
AcDbEntity
  8
0
100
AcDbBlockBegin
  2
*D6
 70
     1
 10
0.0
 20
0.0
 30
0.0
  3
*D6
  1

  0
LINE
  5
13A
330
139
100
AcDbEntity
  8
0
 62
   123
100
AcDbLine
 10
-10421.84133841693
 20
-4108.222979959957
 30
0.0
 11
-10421.84133841693
 21
-4101.157700395837
 31
0.0
  0
LINE
  5
13B
330
139
100
AcDbEntity
  8
0
 62
   123
100
AcDbLine
 10
-10271.84133841693
 20
-4126.572979959957
 30
0.0
 11
-10271.84133841693
 21
-4101.157700395837
 31
0.0
  0
LINE
  5
13C
330
139
100
AcDbEntity
  8
0
 62
   123
100
AcDbLine
 10
-10419.34133841693
 20
-4101.757700395838
 30
0.0
 11
-10274.34133841693
 21
-4101.757700395838
 31
0.0
  0
SOLID
  5
13D
330
139
100
AcDbEntity
  8
0
 62
   123
100
AcDbTrace
 10
-10419.34133841693
 20
-4101.341033729171
 30
0.0
 11
-10419.34133841693
 21
-4102.174367062505
 31
0.0
 12
-10421.84133841693
 22
-4101.757700395838
 32
0.0
 13
-10421.84133841693
 23
-4101.757700395838
 33
0.0
  0
SOLID
  5
13E
330
139
100
AcDbEntity
  8
0
 62
   123
100
AcDbTrace
 10
-10274.34133841693
 20
-4101.341033729171
 30
0.0
 11
-10274.34133841693
 21
-4102.174367062505
 31
0.0
 12
-10271.84133841693
 22
-4101.757700395838
 32
0.0
 13
-10271.84133841693
 23
-4101.757700395838
 33
0.0
  0
MTEXT
  5
13F
330
139
100
AcDbEntity
  8
0
 62
     3
100
AcDbMText
 10
-10344.90734265504
 20
-4099.257700395837
 30
0.0
 40
3.0
 41
0.0
 71
     5
 72
     1
  1
\A1;150
1001
ACAD
1000
MTEXTBEGIN
1070
    73
1070
     1
1070
    44
1040
1.0
1070
    74
1070
     0
1000
MTEXTEND
1000
MTEXTBEGIN
1070
    73
1070
     1
1070
    44
1040
1.0
1070
    74
1070
     0
1000
MTEXTEND
1000
MTEXTBEGIN
1070
    73
1070
     1
1070
    44
1040
1.0
1070
    74
1070
     0
1000
MTEXTEND
  0
POINT
  5
140
330
139
100
AcDbEntity
  8
DEFPOINTS
 62
     0
100
AcDbPoint
 10
-10421.84133841693
 20
-4109.222979959957
 30
0.0
  0
POINT
  5
141
330
139
100
AcDbEntity
  8
DEFPOINTS
 62
     0
100
AcDbPoint
 10
-10271.84133841693
 20
-4127.572979959957
 30
0.0
  0
POINT
  5
142
330
139
100
AcDbEntity
  8
DEFPOINTS
 62
     0
100
AcDbPoint
 10
-10271.84133841693
 20
-4101.757700395838
 30
0.0
  0
ENDBLK
  5
144
330
139
100
AcDbEntity
  8
0
100
AcDbBlockEnd
  0
BLOCK
  5
1E6
330
1DC
100
AcDbEntity
  8
0
100
AcDbBlockBegin
  2
*D7
 70
     1
 10
0.0
 20
0.0
 30
0.0
  3
*D7
  1

  0
LINE
  5
1DD
330
1DC
100
AcDbEntity
  8
0
 62
   123
100
AcDbLine
 10
-10458.84133841693
 20
-4164.322979959957
 30
0.0
 11
-10458.84133841693
 21
-4101.157700395837
 31
0.0
  0
LINE
  5
1DE
330
1DC
100
AcDbEntity
  8
0
 62
   123
100
AcDbLine
 10
-10421.84133841693
 20
-4123.322979959957
 30
0.0
 11
-10421.84133841693
 21
-4101.157700395837
 31
0.0
  0
LINE
  5
1DF
330
1DC
100
AcDbEntity
  8
0
 62
   123
100
AcDbLine
 10
-10456.34133841693
 20
-4101.757700395838
 30
0.0
 11
-10424.34133841693
 21
-4101.757700395838
 31
0.0
  0
SOLID
  5
1E0
330
1DC
100
AcDbEntity
  8
0
 62
   123
100
AcDbTrace
 10
-10456.34133841693
 20
-4101.341033729171
 30
0.0
 11
-10456.34133841693
 21
-4102.174367062505
 31
0.0
 12
-10458.84133841693
 22
-4101.757700395838
 32
0.0
 13
-10458.84133841693
 23
-4101.757700395838
 33
0.0
  0
SOLID
  5
1E1
330
1DC
100
AcDbEntity
  8
0
 62
   123
100
AcDbTrace
 10
-10424.34133841693
 20
-4101.341033729171
 30
0.0
 11
-10424.34133841693
 21
-4102.174367062505
 31
0.0
 12
-10421.84133841693
 22
-4101.757700395838
 32
0.0
 13
-10421.84133841693
 23
-4101.757700395838
 33
0.0
  0
MTEXT
  5
1E2
330
1DC
100
AcDbEntity
  8
0
 62
     3
100
AcDbMText
 10
-10438.40734265504
 20
-4099.257700395837
 30
0.0
 40
3.0
 41
0.0
 71
     5
 72
     1
  1
\A1;37
1001
ACAD
1000
MTEXTBEGIN
1070
    73
1070
     1
1070
    44
1040
1.0
1070
    74
1070
     0
1000
MTEXTEND
1000
MTEXTBEGIN
1070
    73
1070
     1
1070
    44
1040
1.0
1070
    74
1070
     0
1000
MTEXTEND
1000
MTEXTBEGIN
1070
    73
1070
     1
1070
    44
1040
1.0
1070
    74
1070
     0
1000
MTEXTEND
  0
POINT
  5
1E3
330
1DC
100
AcDbEntity
  8
DEFPOINTS
 62
     0
100
AcDbPoint
 10
-10458.84133841693
 20
-4165.322979959958
 30
0.0
  0
POINT
  5
1E4
330
1DC
100
AcDbEntity
  8
DEFPOINTS
 62
     0
100
AcDbPoint
 10
-10421.84133841693
 20
-4124.322979959957
 30
0.0
  0
POINT
  5
1E5
330
1DC
100
AcDbEntity
  8
DEFPOINTS
 62
     0
100
AcDbPoint
 10
-10421.84133841693
 20
-4101.757700395838
 30
0.0
  0
ENDBLK
  5
1E7
330
1DC
100
AcDbEntity
  8
0
100
AcDbBlockEnd
  0
BLOCK
  5
1B3
330
1A7
100
AcDbEntity
  8
0
100
AcDbBlockBegin
  2
*D8
 70
     1
 10
0.0
 20
0.0
 30
0.0
  3
*D8
  1

  0
LINE
  5
1A8
330
1A7
100
AcDbEntity
  8
0
 62
   123
100
AcDbLine
 10
-10423.84133841693
 20
-4126.822979959957
 30
0.0
 11
-10423.84133841693
 21
-4111.691235201415
 31
0.0
  0
LINE
  5
1A9
330
1A7
100
AcDbEntity
  8
0
 62
   123
100
AcDbLine
 10
-10421.84133841693
 20
-4123.322979959957
 30
0.0
 11
-10421.84133841693
 21
-4111.691235201415
 31
0.0
  0
LINE
  5
1AA
330
1A7
100
AcDbEntity
  8
0
 62
   123
100
AcDbLine
 10
-10419.34133841693
 20
-4112.291235201414
 30
0.0
 11
-10416.84133841693
 21
-4112.291235201414
 31
0.0
  0
LINE
  5
1AB
330
1A7
100
AcDbEntity
  8
0
 62
   123
100
AcDbLine
 10
-10426.34133841693
 20
-4112.291235201414
 30
0.0
 11
-10432.84133841693
 21
-4112.291235201414
 31
0.0
  0
LINE
  5
1AC
330
1A7
100
AcDbEntity
  8
0
 62
   123
100
AcDbLine
 10
-10421.84133841693
 20
-4112.291235201414
 30
0.0
 11
-10423.84133841693
 21
-4112.291235201414
 31
0.0
  0
SOLID
  5
1AD
330
1A7
100
AcDbEntity
  8
0
 62
   123
100
AcDbTrace
 10
-10419.34133841693
 20
-4111.874568534747
 30
0.0
 11
-10419.34133841693
 21
-4112.707901868082
 31
0.0
 12
-10421.84133841693
 22
-4112.291235201414
 32
0.0
 13
-10421.84133841693
 23
-4112.291235201414
 33
0.0
  0
SOLID
  5
1AE
330
1A7
100
AcDbEntity
  8
0
 62
   123
100
AcDbTrace
 10
-10426.34133841693
 20
-4111.874568534747
 30
0.0
 11
-10426.34133841693
 21
-4112.707901868082
 31
0.0
 12
-10423.84133841693
 22
-4112.291235201414
 32
0.0
 13
-10423.84133841693
 23
-4112.291235201414
 33
0.0
  0
MTEXT
  5
1AF
330
1A7
100
AcDbEntity
  8
0
 62
     3
100
AcDbMText
 10
-10430.84133841693
 20
-4109.791235201416
 30
0.0
 40
3.0
 41
0.0
 71
     5
 72
     1
  1
\A1;2
1001
ACAD
1000
MTEXTBEGIN
1070
    73
1070
     1
1070
    44
1040
1.0
1070
    74
1070
     0
1000
MTEXTEND
1000
MTEXTBEGIN
1070
    73
1070
     1
1070
    44
1040
1.0
1070
    74
1070
     0
1000
MTEXTEND
1000
MTEXTBEGIN
1070
    73
1070
     1
1070
    44
1040
1.0
1070
    74
1070
     0
1000
MTEXTEND
  0
POINT
  5
1B0
330
1A7
100
AcDbEntity
  8
DEFPOINTS
 62
     0
100
AcDbPoint
 10
-10423.84133841693
 20
-4127.822979959957
 30
0.0
  0
POINT
  5
1B1
330
1A7
100
AcDbEntity
  8
DEFPOINTS
 62
     0
100
AcDbPoint
 10
-10421.84133841693
 20
-4124.322979959957
 30
0.0
  0
POINT
  5
1B2
330
1A7
100
AcDbEntity
  8
DEFPOINTS
 62
     0
100
AcDbPoint
 10
-10421.84133841693
 20
-4112.291235201414
 30
0.0
  0
ENDBLK
  5
1B4
330
1A7
100
AcDbEntity
  8
0
100
AcDbBlockEnd
  0
BLOCK
  5
1D8
330
1CE
100
AcDbEntity
  8
0
100
AcDbBlockBegin
  2
*D9
 70
     1
 10
0.0
 20
0.0
 30
0.0
  3
*D9
  1

  0
LINE
  5
1CF
330
1CE
100
AcDbEntity
  8
0
 62
   123
100
AcDbLine
 10
-10605.20302224722
 20
-4127.793743955948
 30
0.0
 11
-10605.20302224722
 21
-4110.548517554294
 31
0.0
  0
LINE
  5
1D0
330
1CE
100
AcDbEntity
  8
0
 62
   123
100
AcDbLine
 10
-10515.20302224723
 20
-4127.793743955947
 30
0.0
 11
-10515.20302224723
 21
-4110.548517554294
 31
0.0
  0
LINE
  5
1D1
330
1CE
100
AcDbEntity
  8
0
 62
   123
100
AcDbLine
 10
-10602.70302224723
 20
-4111.148517554293
 30
0.0
 11
-10517.70302224722
 21
-4111.148517554293
 31
0.0
  0
SOLID
  5
1D2
330
1CE
100
AcDbEntity
  8
0
 62
   123
100
AcDbTrace
 10
-10602.70302224723
 20
-4110.731850887627
 30
0.0
 11
-10602.70302224723
 21
-4111.565184220959
 31
0.0
 12
-10605.20302224722
 22
-4111.148517554293
 32
0.0
 13
-10605.20302224722
 23
-4111.148517554293
 33
0.0
  0
SOLID
  5
1D3
330
1CE
100
AcDbEntity
  8
0
 62
   123
100
AcDbTrace
 10
-10517.70302224722
 20
-4110.731850887627
 30
0.0
 11
-10517.70302224722
 21
-4111.565184220959
 31
0.0
 12
-10515.20302224723
 22
-4111.148517554293
 32
0.0
 13
-10515.20302224723
 23
-4111.148517554293
 33
0.0
  0
MTEXT
  5
1D4
330
1CE
100
AcDbEntity
  8
0
 62
     3
100
AcDbMText
 10
-10560.20302224722
 20
-4108.648517554294
 30
0.0
 40
3.0
 41
0.0
 71
     5
 72
     1
  1
\A1;90
1001
ACAD
1000
MTEXTBEGIN
1070
    73
1070
     1
1070
    44
1040
1.0
1070
    74
1070
     0
1000
MTEXTEND
1000
MTEXTBEGIN
1070
    73
1070
     1
1070
    44
1040
1.0
1070
    74
1070
     0
1000
MTEXTEND
1000
MTEXTBEGIN
1070
    73
1070
     1
1070
    44
1040
1.0
1070
    74
1070
     0
1000
MTEXTEND
  0
POINT
  5
1D5
330
1CE
100
AcDbEntity
  8
DEFPOINTS
 62
     0
100
AcDbPoint
 10
-10605.20302224722
 20
-4128.793743955948
 30
0.0
  0
POINT
  5
1D6
330
1CE
100
AcDbEntity
  8
DEFPOINTS
 62
     0
100
AcDbPoint
 10
-10515.20302224723
 20
-4128.793743955947
 30
0.0
  0
POINT
  5
1D7
330
1CE
100
AcDbEntity
  8
DEFPOINTS
 62
     0
100
AcDbPoint
 10
-10515.20302224723
 20
-4111.148517554293
 30
0.0
  0
ENDBLK
  5
1D9
330
1CE
100
AcDbEntity
  8
0
100
AcDbBlockEnd
  0
BLOCK
  5
156
330
14A
100
AcDbEntity
  8
0
100
AcDbBlockBegin
  2
*D10
 70
     1
 10
0.0
 20
0.0
 30
0.0
  3
*D10
  1

  0
LINE
  5
14B
330
14A
100
AcDbEntity
  8
0
 62
   123
100
AcDbLine
 10
-10534.93296381776
 20
-4020.070102748865
 30
0.0
 11
-10534.93296381776
 21
-4038.488690142343
 31
0.0
  0
LINE
  5
14C
330
14A
100
AcDbEntity
  8
0
 62
   123
100
AcDbLine
 10
-10515.90434345718
 20
-4011.363792381305
 30
0.0
 11
-10506.97046556634
 21
-4032.924889349954
 31
0.0
  0
ARC
  5
14D
330
14A
100
AcDbEntity
  8
0
 62
   123
100
AcDbCircle
 10
-10534.93296381776
 20
-3965.439957985118
 30
0.0
 40
72.44873215722477
100
AcDbArc
 50
271.9772127434105
 51
290.5295441539808
  0
SOLID
  5
14E
330
14A
100
AcDbEntity
  8
0
 62
   123
100
AcDbTrace
 10
-10532.42614696131
 20
-4038.26216083634
 30
0.0
 11
-10532.44052494469
 21
-4037.428951548082
 31
0.0
 12
-10534.93296381776
 22
-4037.888690142342
 32
0.0
 13
-10534.93296381776
 23
-4037.888690142342
 33
0.0
  0
SOLID
  5
14F
330
14A
100
AcDbEntity
  8
0
 62
   123
100
AcDbTrace
 10
-10509.67872618945
 20
-4032.899953001108
 30
0.0
 11
-10509.37306289613
 21
-4033.675204183342
 31
0.0
 12
-10507.20014099609
 22
-4032.370588712243
 32
0.0
 13
-10507.20014099609
 23
-4032.370588712243
 33
0.0
  0
MTEXT
  5
150
330
14A
100
AcDbEntity
  8
0
 62
     3
100
AcDbMText
 10
-10521.33835449665
 20
-4033.763619013877
 30
0.0
 40
3.0
 41
0.0
 71
     5
 72
     1
  1
\A1;22°30'
 11
0.9807737751869577
 21
0.1951481537333186
 31
0.0
1001
ACAD
1000
MTEXTBEGIN
1070
    73
1070
     1
1070
    44
1040
1.0
1070
    74
1070
     0
1000
MTEXTEND
1000
MTEXTBEGIN
1070
    73
1070
     1
1070
    44
1040
1.0
1070
    74
1070
     0
1000
MTEXTEND
1000
MTEXTBEGIN
1070
    73
1070
     1
1070
    44
1040
1.0
1070
    74
1070
     0
1000
MTEXTEND
  0
POINT
  5
151
330
14A
100
AcDbEntity
  8
DEFPOINTS
 62
     0
100
AcDbPoint
 10
-10525.4736830879
 20
-4037.268509406281
 30
0.0
  0
POINT
  5
152
330
14A
100
AcDbEntity
  8
DEFPOINTS
 62
     0
100
AcDbPoint
 10
-10534.93296381776
 20
-4019.070102748869
 30
0.0
  0
POINT
  5
153
330
14A
100
AcDbEntity
  8
DEFPOINTS
 62
     0
100
AcDbPoint
 10
-10534.93296381776
 20
-3965.439957985116
 30
0.0
  0
POINT
  5
154
330
14A
100
AcDbEntity
  8
DEFPOINTS
 62
     0
100
AcDbPoint
 10
-10516.28713584009
 20
-4010.439957985115
 30
0.0
  0
POINT
  5
155
330
14A
100
AcDbEntity
  8
DEFPOINTS
 62
     0
100
AcDbPoint
 10
-10534.93296381776
 20
-3911.809813221363
 30
0.0
  0
ENDBLK
  5
157
330
14A
100
AcDbEntity
  8
0
100
AcDbBlockEnd
  0
BLOCK
  5
27C
330
272
100
AcDbEntity
  8
0
100
AcDbBlockBegin
  2
*D11
 70
     1
 10
0.0
 20
0.0
 30
0.0
  3
*D11
  1

  0
LINE
  5
273
330
272
100
AcDbEntity
  8
0
 62
   123
100
AcDbLine
 10
-10434.92706727251
 20
-3924.511987747921
 30
0.0
 11
-10468.53348204982
 21
-3924.511987747921
 31
0.0
  0
LINE
  5
274
330
272
100
AcDbEntity
  8
0
 62
   123
100
AcDbLine
 10
-10434.92706727251
 20
-4007.511987747923
 30
0.0
 11
-10468.53348204982
 21
-4007.511987747923
 31
0.0
  0
LINE
  5
275
330
272
100
AcDbEntity
  8
0
 62
   123
100
AcDbLine
 10
-10467.93348204982
 20
-3927.011987747923
 30
0.0
 11
-10467.93348204982
 21
-4005.011987747923
 31
0.0
  0
SOLID
  5
276
330
272
100
AcDbEntity
  8
0
 62
   123
100
AcDbTrace
 10
-10468.35014871648
 20
-3927.011987747923
 30
0.0
 11
-10467.51681538312
 21
-3927.011987747923
 31
0.0
 12
-10467.93348204982
 22
-3924.511987747921
 32
0.0
 13
-10467.93348204982
 23
-3924.511987747921
 33
0.0
  0
SOLID
  5
277
330
272
100
AcDbEntity
  8
0
 62
   123
100
AcDbTrace
 10
-10468.35014871648
 20
-4005.011987747923
 30
0.0
 11
-10467.51681538312
 21
-4005.011987747923
 31
0.0
 12
-10467.93348204982
 22
-4007.511987747923
 32
0.0
 13
-10467.93348204982
 23
-4007.511987747923
 33
0.0
  0
MTEXT
  5
278
330
272
100
AcDbEntity
  8
0
 62
     3
100
AcDbMText
 10
-10471.88363204982
 20
-3963.717400192223
 30
0.0
 40
3.0
 41
0.0
 71
     5
 72
     1
  1
\A1;\A1;{\f??|b0|i0|c0|p49;%%c83\H0.7x;\S+0^ -0.035;\H1.429x;(h7)}
 11
0.0000000000000001
 21
1.0
 31
0.0
1001
ACAD
1000
MTEXTBEGIN
1070
    73
1070
     1
1070
    44
1040
1.0
1070
    74
1070
     0
1000
MTEXTEND
1000
MTEXTBEGIN
1070
    73
1070
     1
1070
    44
1040
1.0
1070
    74
1070
     0
1000
MTEXTEND
1000
MTEXTBEGIN
1070
    73
1070
     1
1070
    44
1040
1.0
1070
    74
1070
     0
1000
MTEXTEND
  0
POINT
  5
279
330
272
100
AcDbEntity
  8
DEFPOINTS
 62
     0
100
AcDbPoint
 10
-10433.92706727251
 20
-3924.511987747921
 30
0.0
  0
POINT
  5
27A
330
272
100
AcDbEntity
  8
DEFPOINTS
 62
     0
100
AcDbPoint
 10
-10433.92706727251
 20
-4007.511987747923
 30
0.0
  0
POINT
  5
27B
330
272
100
AcDbEntity
  8
DEFPOINTS
 62
     0
100
AcDbPoint
 10
-10467.93348204982
 20
-4007.511987747923
 30
0.0
  0
ENDBLK
  5
27D
330
272
100
AcDbEntity
  8
0
100
AcDbBlockEnd
  0
BLOCK
  5
30F
330
305
100
AcDbEntity
  8
0
100
AcDbBlockBegin
  2
*D12
 70
     1
 10
0.0
 20
0.0
 30
0.0
  3
*D12
  1

  0
LINE
  5
306
330
305
100
AcDbEntity
  8
0
 62
   123
100
AcDbLine
 10
-10281.9270672725
 20
-3923.261987747923
 30
0.0
 11
-10281.9270672725
 21
-3897.846708183803
 31
0.0
  0
LINE
  5
307
330
305
100
AcDbEntity
  8
0
 62
   123
100
AcDbLine
 10
-10271.92706727249
 20
-3942.511987747922
 30
0.0
 11
-10271.92706727249
 21
-3897.846708183803
 31
0.0
  0
LINE
  5
308
330
305
100
AcDbEntity
  8
0
 62
   123
100
AcDbLine
 10
-10279.42706727249
 20
-3898.446708183803
 30
0.0
 11
-10274.4270672725
 21
-3898.446708183803
 31
0.0
  0
SOLID
  5
309
330
305
100
AcDbEntity
  8
0
 62
   123
100
AcDbTrace
 10
-10279.42706727249
 20
-3898.030041517136
 30
0.0
 11
-10279.42706727249
 21
-3898.863374850469
 31
0.0
 12
-10281.9270672725
 22
-3898.446708183803
 32
0.0
 13
-10281.9270672725
 23
-3898.446708183803
 33
0.0
  0
SOLID
  5
30A
330
305
100
AcDbEntity
  8
0
 62
   123
100
AcDbTrace
 10
-10274.4270672725
 20
-3898.030041517136
 30
0.0
 11
-10274.4270672725
 21
-3898.863374850469
 31
0.0
 12
-10271.92706727249
 22
-3898.446708183803
 32
0.0
 13
-10271.92706727249
 23
-3898.446708183803
 33
0.0
  0
MTEXT
  5
30B
330
305
100
AcDbEntity
  8
0
 62
     3
100
AcDbMText
 10
-10276.92706727251
 20
-3895.946708183803
 30
0.0
 40
3.0
 41
0.0
 71
     5
 72
     1
  1
\A1;10
1001
ACAD
1000
MTEXTBEGIN
1070
    73
1070
     1
1070
    44
1040
1.0
1070
    74
1070
     0
1000
MTEXTEND
1000
MTEXTBEGIN
1070
    73
1070
     1
1070
    44
1040
1.0
1070
    74
1070
     0
1000
MTEXTEND
1000
MTEXTBEGIN
1070
    73
1070
     1
1070
    44
1040
1.0
1070
    74
1070
     0
1000
MTEXTEND
  0
POINT
  5
30C
330
305
100
AcDbEntity
  8
DEFPOINTS
 62
     0
100
AcDbPoint
 10
-10281.9270672725
 20
-3924.261987747923
 30
0.0
  0
POINT
  5
30D
330
305
100
AcDbEntity
  8
DEFPOINTS
 62
     0
100
AcDbPoint
 10
-10271.92706727249
 20
-3943.511987747923
 30
0.0
  0
POINT
  5
30E
330
305
100
AcDbEntity
  8
DEFPOINTS
 62
     0
100
AcDbPoint
 10
-10271.92706727249
 20
-3898.446708183803
 30
0.0
  0
ENDBLK
  5
310
330
305
100
AcDbEntity
  8
0
100
AcDbBlockEnd
  0
BLOCK
  5
216
330
20C
100
AcDbEntity
  8
0
100
AcDbBlockBegin
  2
*D13
 70
     1
 10
0.0
 20
0.0
 30
0.0
  3
*D13
  1

  0
LINE
  5
20D
330
20C
100
AcDbEntity
  8
0
 62
   123
100
AcDbLine
 10
-10431.92706727251
 20
-3920.803654414589
 30
0.0
 11
-10431.92706727251
 21
-3908.38024298938
 31
0.0
  0
LINE
  5
20E
330
20C
100
AcDbEntity
  8
0
 62
   123
100
AcDbLine
 10
-10424.42706727251
 20
-3921.413250406395
 30
0.0
 11
-10424.42706727251
 21
-3908.38024298938
 31
0.0
  0
LINE
  5
20F
330
20C
100
AcDbEntity
  8
0
 62
   123
100
AcDbLine
 10
-10429.42706727251
 20
-3908.980242989381
 30
0.0
 11
-10426.92706727251
 21
-3908.980242989381
 31
0.0
  0
SOLID
  5
210
330
20C
100
AcDbEntity
  8
0
 62
   123
100
AcDbTrace
 10
-10429.42706727251
 20
-3908.563576322714
 30
0.0
 11
-10429.42706727251
 21
-3909.396909656047
 31
0.0
 12
-10431.92706727251
 22
-3908.980242989381
 32
0.0
 13
-10431.92706727251
 23
-3908.980242989381
 33
0.0
  0
SOLID
  5
211
330
20C
100
AcDbEntity
  8
0
 62
   123
100
AcDbTrace
 10
-10426.92706727251
 20
-3908.563576322714
 30
0.0
 11
-10426.92706727251
 21
-3909.396909656047
 31
0.0
 12
-10424.42706727251
 22
-3908.980242989381
 32
0.0
 13
-10424.42706727251
 23
-3908.980242989381
 33
0.0
  0
MTEXT
  5
212
330
20C
100
AcDbEntity
  8
0
 62
     3
100
AcDbMText
 10
-10428.17706727251
 20
-3906.480242989381
 30
0.0
 40
3.0
 41
0.0
 71
     5
 72
     1
  1
\A1;7.5
1001
ACAD
1000
MTEXTBEGIN
1070
    73
1070
     1
1070
    44
1040
1.0
1070
    74
1070
     0
1000
MTEXTEND
1000
MTEXTBEGIN
1070
    73
1070
     1
1070
    44
1040
1.0
1070
    74
1070
     0
1000
MTEXTEND
1000
MTEXTBEGIN
1070
    73
1070
     1
1070
    44
1040
1.0
1070
    74
1070
     0
1000
MTEXTEND
  0
POINT
  5
213
330
20C
100
AcDbEntity
  8
DEFPOINTS
 62
     0
100
AcDbPoint
 10
-10431.92706727251
 20
-3921.803654414588
 30
0.0
  0
POINT
  5
214
330
20C
100
AcDbEntity
  8
DEFPOINTS
 62
     0
100
AcDbPoint
 10
-10424.42706727251
 20
-3922.413250406394
 30
0.0
  0
POINT
  5
215
330
20C
100
AcDbEntity
  8
DEFPOINTS
 62
     0
100
AcDbPoint
 10
-10424.42706727251
 20
-3908.980242989381
 30
0.0
  0
ENDBLK
  5
217
330
20C
100
AcDbEntity
  8
0
100
AcDbBlockEnd
  0
BLOCK
  5
2E1
330
2D7
100
AcDbEntity
  8
0
100
AcDbBlockBegin
  2
*D14
 70
     1
 10
0.0
 20
0.0
 30
0.0
  3
*D14
  1

  0
LINE
  5
2D8
330
2D7
100
AcDbEntity
  8
0
 62
   123
100
AcDbLine
 10
-10282.42706727249
 20
-3922.761987747922
 30
0.0
 11
-10250.901464904
 21
-3922.761987747922
 31
0.0
  0
LINE
  5
2D9
330
2D7
100
AcDbEntity
  8
0
 62
   123
100
AcDbLine
 10
-10282.42706727249
 20
-4009.261987747922
 30
0.0
 11
-10250.901464904
 21
-4009.261987747922
 31
0.0
  0
LINE
  5
2DA
330
2D7
100
AcDbEntity
  8
0
 62
   123
100
AcDbLine
 10
-10251.501464904
 20
-3925.261987747921
 30
0.0
 11
-10251.501464904
 21
-4006.761987747923
 31
0.0
  0
SOLID
  5
2DB
330
2D7
100
AcDbEntity
  8
0
 62
   123
100
AcDbTrace
 10
-10251.91813157065
 20
-3925.261987747921
 30
0.0
 11
-10251.08479823735
 21
-3925.261987747921
 31
0.0
 12
-10251.501464904
 22
-3922.761987747922
 32
0.0
 13
-10251.501464904
 23
-3922.761987747922
 33
0.0
  0
SOLID
  5
2DC
330
2D7
100
AcDbEntity
  8
0
 62
   123
100
AcDbTrace
 10
-10251.91813157065
 20
-4006.761987747923
 30
0.0
 11
-10251.08479823735
 21
-4006.761987747923
 31
0.0
 12
-10251.501464904
 22
-4009.261987747922
 32
0.0
 13
-10251.501464904
 23
-4009.261987747922
 33
0.0
  0
MTEXT
  5
2DD
330
2D7
100
AcDbEntity
  8
0
 62
     3
100
AcDbMText
 10
-10254.00146490401
 20
-3966.629625308369
 30
0.0
 40
3.0
 41
0.0
 71
     5
 72
     1
  1
\A1;%%C86.5
 11
0.0000000000000001
 21
1.0
 31
0.0
1001
ACAD
1000
MTEXTBEGIN
1070
    73
1070
     1
1070
    44
1040
1.0
1070
    74
1070
     0
1000
MTEXTEND
1000
MTEXTBEGIN
1070
    73
1070
     1
1070
    44
1040
1.0
1070
    74
1070
     0
1000
MTEXTEND
1000
MTEXTBEGIN
1070
    73
1070
     1
1070
    44
1040
1.0
1070
    74
1070
     0
1000
MTEXTEND
  0
POINT
  5
2DE
330
2D7
100
AcDbEntity
  8
DEFPOINTS
 62
     0
100
AcDbPoint
 10
-10283.42706727251
 20
-3922.761987747922
 30
0.0
  0
POINT
  5
2DF
330
2D7
100
AcDbEntity
  8
DEFPOINTS
 62
     0
100
AcDbPoint
 10
-10283.42706727251
 20
-4009.261987747922
 30
0.0
  0
POINT
  5
2E0
330
2D7
100
AcDbEntity
  8
DEFPOINTS
 62
     0
100
AcDbPoint
 10
-10251.501464904
 20
-4009.261987747922
 30
0.0
  0
ENDBLK
  5
2E2
330
2D7
100
AcDbEntity
  8
0
100
AcDbBlockEnd
  0
BLOCK
  5
2CC
330
2C2
100
AcDbEntity
  8
0
100
AcDbBlockBegin
  2
*D15
 70
     1
 10
0.0
 20
0.0
 30
0.0
  3
*D15
  1

  0
LINE
  5
2C3
330
2C2
100
AcDbEntity
  8
0
 62
   123
100
AcDbLine
 10
-10271.92706727249
 20
-3942.511987747922
 30
0.0
 11
-10258.60949088698
 21
-3942.511987747922
 31
0.0
  0
LINE
  5
2C4
330
2C2
100
AcDbEntity
  8
0
 62
   123
100
AcDbLine
 10
-10271.92706727249
 20
-3989.511987747923
 30
0.0
 11
-10258.60949088698
 21
-3989.511987747923
 31
0.0
  0
LINE
  5
2C5
330
2C2
100
AcDbEntity
  8
0
 62
   123
100
AcDbLine
 10
-10259.20949088698
 20
-3945.011987747923
 30
0.0
 11
-10259.20949088698
 21
-3987.011987747921
 31
0.0
  0
SOLID
  5
2C6
330
2C2
100
AcDbEntity
  8
0
 62
   123
100
AcDbTrace
 10
-10259.62615755364
 20
-3945.011987747923
 30
0.0
 11
-10258.79282422029
 21
-3945.011987747923
 31
0.0
 12
-10259.20949088698
 22
-3942.511987747922
 32
0.0
 13
-10259.20949088698
 23
-3942.511987747922
 33
0.0
  0
SOLID
  5
2C7
330
2C2
100
AcDbEntity
  8
0
 62
   123
100
AcDbTrace
 10
-10259.62615755364
 20
-3987.011987747921
 30
0.0
 11
-10258.79282422029
 21
-3987.011987747921
 31
0.0
 12
-10259.20949088698
 22
-3989.511987747923
 32
0.0
 13
-10259.20949088698
 23
-3989.511987747923
 33
0.0
  0
MTEXT
  5
2C8
330
2C2
100
AcDbEntity
  8
0
 62
     3
100
AcDbMText
 10
-10261.70949088698
 20
-3967.552452568996
 30
0.0
 40
3.0
 41
0.0
 71
     5
 72
     1
  1
\A1;%%c47
 11
0.0000000000000001
 21
1.0
 31
0.0
1001
ACAD
1000
MTEXTBEGIN
1070
    73
1070
     1
1070
    44
1040
1.0
1070
    74
1070
     0
1000
MTEXTEND
1000
MTEXTBEGIN
1070
    73
1070
     1
1070
    44
1040
1.0
1070
    74
1070
     0
1000
MTEXTEND
1000
MTEXTBEGIN
1070
    73
1070
     1
1070
    44
1040
1.0
1070
    74
1070
     0
1000
MTEXTEND
  0
POINT
  5
2C9
330
2C2
100
AcDbEntity
  8
DEFPOINTS
 62
     0
100
AcDbPoint
 10
-10272.92706727251
 20
-3942.511987747922
 30
0.0
  0
POINT
  5
2CA
330
2C2
100
AcDbEntity
  8
DEFPOINTS
 62
     0
100
AcDbPoint
 10
-10272.92706727251
 20
-3989.511987747923
 30
0.0
  0
POINT
  5
2CB
330
2C2
100
AcDbEntity
  8
DEFPOINTS
 62
     0
100
AcDbPoint
 10
-10259.20949088698
 20
-3989.511987747923
 30
0.0
  0
ENDBLK
  5
2CD
330
2C2
100
AcDbEntity
  8
0
100
AcDbBlockEnd
  0
BLOCK
  5
FC
330
F0
100
AcDbEntity
  8
0
100
AcDbBlockBegin
  2
*D16
 70
     1
 10
0.0
 20
0.0
 30
0.0
  3
*D16
  1

  0
LINE
  5
F1
330
F0
100
AcDbEntity
  8
0
 62
   123
100
AcDbLine
 10
-10560.20302224722
 20
-4223.381094960902
 30
0.0
 11
-10560.20302224722
 21
-4241.799682354378
 31
0.0
  0
LINE
  5
F2
330
F0
100
AcDbEntity
  8
0
 62
   123
100
AcDbLine
 10
-10541.17440188663
 20
-4214.67478459334
 30
0.0
 11
-10532.24052399579
 21
-4236.23588156199
 31
0.0
  0
ARC
  5
F3
330
F0
100
AcDbEntity
  8
0
 62
   123
100
AcDbCircle
 10
-10560.20302224722
 20
-4168.750950197153
 30
0.0
 40
72.44873215722456
100
AcDbArc
 50
271.9772127434105
 51
290.5295441539808
  0
SOLID
  5
F4
330
F0
100
AcDbEntity
  8
0
 62
   123
100
AcDbTrace
 10
-10557.69620539074
 20
-4241.573153048372
 30
0.0
 11
-10557.71058337414
 21
-4240.739943760117
 31
0.0
 12
-10560.20302224722
 22
-4241.199682354378
 32
0.0
 13
-10560.20302224722
 23
-4241.199682354378
 33
0.0
  0
SOLID
  5
F5
330
F0
100
AcDbEntity
  8
0
 62
   123
100
AcDbTrace
 10
-10534.94878461892
 20
-4236.210945213143
 30
0.0
 11
-10534.64312132559
 21
-4236.986196395377
 31
0.0
 12
-10532.47019942554
 22
-4235.681580924278
 32
0.0
 13
-10532.47019942554
 23
-4235.681580924278
 33
0.0
  0
MTEXT
  5
F6
330
F0
100
AcDbEntity
  8
0
 62
     3
100
AcDbMText
 10
-10546.60841292609
 20
-4237.074611225911
 30
0.0
 40
3.0
 41
0.0
 71
     5
 72
     1
  1
\A1;22°30'
 11
0.9807737751869577
 21
0.1951481537333186
 31
0.0
1001
ACAD
1000
MTEXTBEGIN
1070
    73
1070
     1
1070
    44
1040
1.0
1070
    74
1070
     0
1000
MTEXTEND
1000
MTEXTBEGIN
1070
    73
1070
     1
1070
    44
1040
1.0
1070
    74
1070
     0
1000
MTEXTEND
1000
MTEXTBEGIN
1070
    73
1070
     1
1070
    44
1040
1.0
1070
    74
1070
     0
1000
MTEXTEND
  0
POINT
  5
F7
330
F0
100
AcDbEntity
  8
DEFPOINTS
 62
     0
100
AcDbPoint
 10
-10550.74374151734
 20
-4240.579501618316
 30
0.0
  0
POINT
  5
F8
330
F0
100
AcDbEntity
  8
DEFPOINTS
 62
     0
100
AcDbPoint
 10
-10560.20302224722
 20
-4222.381094960902
 30
0.0
  0
POINT
  5
F9
330
F0
100
AcDbEntity
  8
DEFPOINTS
 62
     0
100
AcDbPoint
 10
-10560.20302224722
 20
-4168.750950197151
 30
0.0
  0
POINT
  5
FA
330
F0
100
AcDbEntity
  8
DEFPOINTS
 62
     0
100
AcDbPoint
 10
-10541.55719426955
 20
-4213.750950197151
 30
0.0
  0
POINT
  5
FB
330
F0
100
AcDbEntity
  8
DEFPOINTS
 62
     0
100
AcDbPoint
 10
-10560.20302224722
 20
-4115.120805433398
 30
0.0
  0
ENDBLK
  5
FD
330
F0
100
AcDbEntity
  8
0
100
AcDbBlockEnd
  0
BLOCK
  5
1A4
330
19A
100
AcDbEntity
  8
0
100
AcDbBlockBegin
  2
*D17
 70
     1
 10
0.0
 20
0.0
 30
0.0
  3
*D17
  1

  0
LINE
  5
19B
330
19A
100
AcDbEntity
  8
0
 62
   123
100
AcDbLine
 10
-10421.84133841693
 20
-4124.114646626622
 30
0.0
 11
-10421.84133841693
 21
-4111.691235201415
 31
0.0
  0
LINE
  5
19C
330
19A
100
AcDbEntity
  8
0
 62
   123
100
AcDbLine
 10
-10414.34133841693
 20
-4124.724242618429
 30
0.0
 11
-10414.34133841693
 21
-4111.691235201415
 31
0.0
  0
LINE
  5
19D
330
19A
100
AcDbEntity
  8
0
 62
   123
100
AcDbLine
 10
-10419.34133841693
 20
-4112.291235201414
 30
0.0
 11
-10416.84133841693
 21
-4112.291235201414
 31
0.0
  0
SOLID
  5
19E
330
19A
100
AcDbEntity
  8
0
 62
   123
100
AcDbTrace
 10
-10419.34133841693
 20
-4111.874568534747
 30
0.0
 11
-10419.34133841693
 21
-4112.707901868082
 31
0.0
 12
-10421.84133841693
 22
-4112.291235201414
 32
0.0
 13
-10421.84133841693
 23
-4112.291235201414
 33
0.0
  0
SOLID
  5
19F
330
19A
100
AcDbEntity
  8
0
 62
   123
100
AcDbTrace
 10
-10416.84133841693
 20
-4111.874568534747
 30
0.0
 11
-10416.84133841693
 21
-4112.707901868082
 31
0.0
 12
-10414.34133841693
 22
-4112.291235201414
 32
0.0
 13
-10414.34133841693
 23
-4112.291235201414
 33
0.0
  0
MTEXT
  5
1A0
330
19A
100
AcDbEntity
  8
0
 62
     3
100
AcDbMText
 10
-10418.09133841693
 20
-4109.791235201416
 30
0.0
 40
3.0
 41
0.0
 71
     5
 72
     1
  1
\A1;7.5
1001
ACAD
1000
MTEXTBEGIN
1070
    73
1070
     1
1070
    44
1040
1.0
1070
    74
1070
     0
1000
MTEXTEND
1000
MTEXTBEGIN
1070
    73
1070
     1
1070
    44
1040
1.0
1070
    74
1070
     0
1000
MTEXTEND
1000
MTEXTBEGIN
1070
    73
1070
     1
1070
    44
1040
1.0
1070
    74
1070
     0
1000
MTEXTEND
  0
POINT
  5
1A1
330
19A
100
AcDbEntity
  8
DEFPOINTS
 62
     0
100
AcDbPoint
 10
-10421.84133841693
 20
-4125.114646626623
 30
0.0
  0
POINT
  5
1A2
330
19A
100
AcDbEntity
  8
DEFPOINTS
 62
     0
100
AcDbPoint
 10
-10414.34133841693
 20
-4125.724242618429
 30
0.0
  0
POINT
  5
1A3
330
19A
100
AcDbEntity
  8
DEFPOINTS
 62
     0
100
AcDbPoint
 10
-10414.34133841693
 20
-4112.291235201414
 30
0.0
  0
ENDBLK
  5
1A5
330
19A
100
AcDbEntity
  8
0
100
AcDbBlockEnd
  0
BLOCK
  5
B3
330
A8
100
AcDbEntity
  8
0
100
AcDbBlockBegin
  2
*D18
 70
     1
 10
0.0
 20
0.0
 30
0.0
  3
*D18
  1

  0
LINE
  5
A9
330
A8
100
AcDbEntity
  8
0
 62
   123
100
AcDbLine
 10
-10424.84133841693
 20
-4127.822979959957
 30
0.0
 11
-10495.52465773354
 21
-4127.822979959957
 31
0.0
  0
LINE
  5
AA
330
A8
100
AcDbEntity
  8
0
 62
   123
100
AcDbLine
 10
-10424.84133841693
 20
-4210.822979959957
 30
0.0
 11
-10495.52465773354
 21
-4210.822979959957
 31
0.0
  0
LINE
  5
AB
330
A8
100
AcDbEntity
  8
0
 62
   123
100
AcDbLine
 10
-10494.92465773353
 20
-4130.322979959958
 30
0.0
 11
-10494.92465773353
 21
-4208.322979959958
 31
0.0
  0
SOLID
  5
AC
330
A8
100
AcDbEntity
  8
0
 62
   123
100
AcDbTrace
 10
-10495.3413244002
 20
-4130.322979959958
 30
0.0
 11
-10494.50799106687
 21
-4130.322979959958
 31
0.0
 12
-10494.92465773353
 22
-4127.822979959957
 32
0.0
 13
-10494.92465773353
 23
-4127.822979959957
 33
0.0
  0
SOLID
  5
AD
330
A8
100
AcDbEntity
  8
0
 62
   123
100
AcDbTrace
 10
-10495.3413244002
 20
-4208.322979959958
 30
0.0
 11
-10494.50799106687
 21
-4208.322979959958
 31
0.0
 12
-10494.92465773353
 22
-4210.822979959957
 32
0.0
 13
-10494.92465773353
 23
-4210.822979959957
 33
0.0
  0
MTEXT
  5
AE
330
A8
100
AcDbEntity
  8
0
 62
     3
100
AcDbMText
 10
-10498.87480773354
 20
-4167.028392404257
 30
0.0
 40
3.0
 41
0.0
 71
     5
 72
     1
  1
\A1;\A1;{\f??|b0|i0|c0|p49;%%c83\H0.7x;\S+0^ -0.035;\H1.429x;(h7)}
 11
0.0000000000000001
 21
1.0
 31
0.0
1001
ACAD
1000
MTEXTBEGIN
1070
    73
1070
     1
1070
    44
1040
1.0
1070
    74
1070
     0
1000
MTEXTEND
1000
MTEXTBEGIN
1070
    73
1070
     1
1070
    44
1040
1.0
1070
    74
1070
     0
1000
MTEXTEND
1000
MTEXTBEGIN
1070
    73
1070
     1
1070
    44
1040
1.0
1070
    74
1070
     0
1000
MTEXTEND
  0
POINT
  5
AF
330
A8
100
AcDbEntity
  8
DEFPOINTS
 62
     0
100
AcDbPoint
 10
-10423.84133841693
 20
-4127.822979959957
 30
0.0
  0
POINT
  5
B1
330
A8
100
AcDbEntity
  8
DEFPOINTS
 62
     0
100
AcDbPoint
 10
-10423.84133841693
 20
-4210.822979959957
 30
0.0
  0
POINT
  5
B2
330
A8
100
AcDbEntity
  8
DEFPOINTS
 62
     0
100
AcDbPoint
 10
-10494.92465773353
 20
-4210.822979959957
 30
0.0
  0
ENDBLK
  5
B4
330
A8
100
AcDbEntity
  8
0
100
AcDbBlockEnd
  0
BLOCK
  5
195
330
18B
100
AcDbEntity
  8
0
100
AcDbBlockBegin
  2
*D19
 70
     1
 10
0.0
 20
0.0
 30
0.0
  3
*D19
  1

  0
LINE
  5
18C
330
18B
100
AcDbEntity
  8
0
 62
   123
100
AcDbLine
 10
-10459.84133841693
 20
-4174.322979959957
 30
0.0
 11
-10484.42004720711
 21
-4174.322979959957
 31
0.0
  0
LINE
  5
18D
330
18B
100
AcDbEntity
  8
0
 62
   123
100
AcDbLine
 10
-10429.84133841693
 20
-4164.322979959957
 30
0.0
 11
-10484.42004720711
 21
-4164.322979959957
 31
0.0
  0
LINE
  5
18E
330
18B
100
AcDbEntity
  8
0
 62
   123
100
AcDbLine
 10
-10483.82004720711
 20
-4171.822979959958
 30
0.0
 11
-10483.82004720711
 21
-4166.822979959958
 31
0.0
  0
SOLID
  5
18F
330
18B
100
AcDbEntity
  8
0
 62
   123
100
AcDbTrace
 10
-10484.23671387378
 20
-4171.822979959958
 30
0.0
 11
-10483.40338054045
 21
-4171.822979959958
 31
0.0
 12
-10483.82004720711
 22
-4174.322979959957
 32
0.0
 13
-10483.82004720711
 23
-4174.322979959957
 33
0.0
  0
SOLID
  5
190
330
18B
100
AcDbEntity
  8
0
 62
   123
100
AcDbTrace
 10
-10484.23671387378
 20
-4166.822979959958
 30
0.0
 11
-10483.40338054045
 21
-4166.822979959958
 31
0.0
 12
-10483.82004720711
 22
-4164.322979959957
 32
0.0
 13
-10483.82004720711
 23
-4164.322979959957
 33
0.0
  0
MTEXT
  5
191
330
18B
100
AcDbEntity
  8
0
 62
     3
100
AcDbMText
 10
-10487.77019720711
 20
-4169.322979959959
 30
0.0
 40
3.0
 41
0.0
 71
     5
 72
     1
  1
\A1;\A1;{\f??|b0|i0|c0|p49;%%c}10{\f??|b0|i0|c0|p49;\H0.7x;\S+0^ -0.015;\H1.429x;(h7)}
 11
0.0000000000000001
 21
1.0
 31
0.0
1001
ACAD
1000
MTEXTBEGIN
1070
    73
1070
     1
1070
    44
1040
1.0
1070
    74
1070
     0
1000
MTEXTEND
1000
MTEXTBEGIN
1070
    73
1070
     1
1070
    44
1040
1.0
1070
    74
1070
     0
1000
MTEXTEND
1000
MTEXTBEGIN
1070
    73
1070
     1
1070
    44
1040
1.0
1070
    74
1070
     0
1000
MTEXTEND
  0
POINT
  5
192
330
18B
100
AcDbEntity
  8
DEFPOINTS
 62
     0
100
AcDbPoint
 10
-10458.84133841693
 20
-4174.322979959957
 30
0.0
  0
POINT
  5
193
330
18B
100
AcDbEntity
  8
DEFPOINTS
 62
     0
100
AcDbPoint
 10
-10428.84133841693
 20
-4164.322979959957
 30
0.0
  0
POINT
  5
194
330
18B
100
AcDbEntity
  8
DEFPOINTS
 62
     0
100
AcDbPoint
 10
-10483.82004720711
 20
-4164.322979959957
 30
0.0
  0
ENDBLK
  5
196
330
18B
100
AcDbEntity
  8
0
100
AcDbBlockEnd
  0
BLOCK
  5
186
330
17C
100
AcDbEntity
  8
0
100
AcDbBlockBegin
  2
*D20
 70
     1
 10
0.0
 20
0.0
 30
0.0
  3
*D20
  1

  0
LINE
  5
17D
330
17C
100
AcDbEntity
  8
0
 62
   123
100
AcDbLine
 10
-10459.84133841693
 20
-4174.322979959957
 30
0.0
 11
-10472.98434486648
 21
-4174.322979959957
 31
0.0
  0
LINE
  5
17E
330
17C
100
AcDbEntity
  8
0
 62
   123
100
AcDbLine
 10
-10459.84133841693
 20
-4165.322979959958
 30
0.0
 11
-10472.98434486648
 21
-4165.322979959958
 31
0.0
  0
LINE
  5
17F
330
17C
100
AcDbEntity
  8
0
 62
   123
100
AcDbLine
 10
-10472.38434486645
 20
-4171.822979959958
 30
0.0
 11
-10472.38434486645
 21
-4167.822979959957
 31
0.0
  0
SOLID
  5
180
330
17C
100
AcDbEntity
  8
0
 62
   123
100
AcDbTrace
 10
-10472.80101153314
 20
-4171.822979959958
 30
0.0
 11
-10471.9676781998
 21
-4171.822979959958
 31
0.0
 12
-10472.38434486645
 22
-4174.322979959957
 32
0.0
 13
-10472.38434486645
 23
-4174.322979959957
 33
0.0
  0
SOLID
  5
181
330
17C
100
AcDbEntity
  8
0
 62
   123
100
AcDbTrace
 10
-10472.80101153314
 20
-4167.822979959957
 30
0.0
 11
-10471.9676781998
 21
-4167.822979959957
 31
0.0
 12
-10472.38434486645
 22
-4165.322979959958
 32
0.0
 13
-10472.38434486645
 23
-4165.322979959958
 33
0.0
  0
MTEXT
  5
182
330
17C
100
AcDbEntity
  8
0
 62
     3
100
AcDbMText
 10
-10474.88434486647
 20
-4170.766022681368
 30
0.0
 40
3.0
 41
0.0
 71
     5
 72
     1
  1
\A1;9
 11
0.0000000000000001
 21
1.0
 31
0.0
1001
ACAD
1000
MTEXTBEGIN
1070
    73
1070
     1
1070
    44
1040
1.0
1070
    74
1070
     0
1000
MTEXTEND
1000
MTEXTBEGIN
1070
    73
1070
     1
1070
    44
1040
1.0
1070
    74
1070
     0
1000
MTEXTEND
1000
MTEXTBEGIN
1070
    73
1070
     1
1070
    44
1040
1.0
1070
    74
1070
     0
1000
MTEXTEND
  0
POINT
  5
183
330
17C
100
AcDbEntity
  8
DEFPOINTS
 62
     0
100
AcDbPoint
 10
-10458.84133841693
 20
-4174.322979959957
 30
0.0
  0
POINT
  5
184
330
17C
100
AcDbEntity
  8
DEFPOINTS
 62
     0
100
AcDbPoint
 10
-10458.84133841693
 20
-4165.322979959958
 30
0.0
  0
POINT
  5
185
330
17C
100
AcDbEntity
  8
DEFPOINTS
 62
     0
100
AcDbPoint
 10
-10472.38434486645
 20
-4165.322979959958
 30
0.0
  0
ENDBLK
  5
187
330
17C
100
AcDbEntity
  8
0
100
AcDbBlockEnd
  0
BLOCK
  5
172
330
168
100
AcDbEntity
  8
0
100
AcDbBlockBegin
  2
*D21
 70
     1
 10
0.0
 20
0.0
 30
0.0
  3
*D21
  1

  0
LINE
  5
169
330
168
100
AcDbEntity
  8
0
 62
   123
100
AcDbLine
 10
-10458.84133841693
 20
-4164.322979959957
 30
0.0
 11
-10458.84133841693
 21
-4142.261205455883
 31
0.0
  0
LINE
  5
16A
330
168
100
AcDbEntity
  8
0
 62
   123
100
AcDbLine
 10
-10428.84133841693
 20
-4163.322979959957
 30
0.0
 11
-10428.84133841693
 21
-4142.261205455883
 31
0.0
  0
LINE
  5
16B
330
168
100
AcDbEntity
  8
0
 62
   123
100
AcDbLine
 10
-10456.34133841693
 20
-4142.861205455883
 30
0.0
 11
-10431.34133841693
 21
-4142.861205455883
 31
0.0
  0
SOLID
  5
16C
330
168
100
AcDbEntity
  8
0
 62
   123
100
AcDbTrace
 10
-10456.34133841693
 20
-4142.444538789216
 30
0.0
 11
-10456.34133841693
 21
-4143.27787212255
 31
0.0
 12
-10458.84133841693
 22
-4142.861205455883
 32
0.0
 13
-10458.84133841693
 23
-4142.861205455883
 33
0.0
  0
SOLID
  5
16D
330
168
100
AcDbEntity
  8
0
 62
   123
100
AcDbTrace
 10
-10431.34133841693
 20
-4142.444538789216
 30
0.0
 11
-10431.34133841693
 21
-4143.27787212255
 31
0.0
 12
-10428.84133841693
 22
-4142.861205455883
 32
0.0
 13
-10428.84133841693
 23
-4142.861205455883
 33
0.0
  0
MTEXT
  5
16E
330
168
100
AcDbEntity
  8
0
 62
     3
100
AcDbMText
 10
-10444.38614437527
 20
-4140.361205455883
 30
0.0
 40
3.0
 41
0.0
 71
     5
 72
     1
  1
\A1;30
1001
ACAD
1000
MTEXTBEGIN
1070
    73
1070
     1
1070
    44
1040
1.0
1070
    74
1070
     0
1000
MTEXTEND
1000
MTEXTBEGIN
1070
    73
1070
     1
1070
    44
1040
1.0
1070
    74
1070
     0
1000
MTEXTEND
1000
MTEXTBEGIN
1070
    73
1070
     1
1070
    44
1040
1.0
1070
    74
1070
     0
1000
MTEXTEND
  0
POINT
  5
16F
330
168
100
AcDbEntity
  8
DEFPOINTS
 62
     0
100
AcDbPoint
 10
-10458.84133841693
 20
-4165.322979959958
 30
0.0
  0
POINT
  5
170
330
168
100
AcDbEntity
  8
DEFPOINTS
 62
     0
100
AcDbPoint
 10
-10428.84133841693
 20
-4164.322979959957
 30
0.0
  0
POINT
  5
171
330
168
100
AcDbEntity
  8
DEFPOINTS
 62
     0
100
AcDbPoint
 10
-10428.84133841693
 20
-4142.861205455883
 30
0.0
  0
ENDBLK
  5
173
330
168
100
AcDbEntity
  8
0
100
AcDbBlockEnd
  0
BLOCK
  5
2BD
330
2B3
100
AcDbEntity
  8
0
100
AcDbBlockBegin
  2
*D22
 70
     1
 10
0.0
 20
0.0
 30
0.0
  3
*D22
  1

  0
LINE
  5
2B4
330
2B3
100
AcDbEntity
  8
0
 62
   123
100
AcDbLine
 10
-10271.84133841692
 20
-4126.572979959957
 30
0.0
 11
-10271.84133841692
 21
-4101.157700395837
 31
0.0
  0
LINE
  5
2B5
330
2B3
100
AcDbEntity
  8
0
 62
   123
100
AcDbLine
 10
-10261.84133841693
 20
-4145.822979959958
 30
0.0
 11
-10261.84133841693
 21
-4101.157700395837
 31
0.0
  0
LINE
  5
2B6
330
2B3
100
AcDbEntity
  8
0
 62
   123
100
AcDbLine
 10
-10269.34133841689
 20
-4101.757700395838
 30
0.0
 11
-10264.34133841692
 21
-4101.757700395838
 31
0.0
  0
SOLID
  5
2B7
330
2B3
100
AcDbEntity
  8
0
 62
   123
100
AcDbTrace
 10
-10269.34133841689
 20
-4101.341033729171
 30
0.0
 11
-10269.34133841689
 21
-4102.174367062505
 31
0.0
 12
-10271.84133841692
 22
-4101.757700395838
 32
0.0
 13
-10271.84133841692
 23
-4101.757700395838
 33
0.0
  0
SOLID
  5
2B8
330
2B3
100
AcDbEntity
  8
0
 62
   123
100
AcDbTrace
 10
-10264.34133841692
 20
-4101.341033729171
 30
0.0
 11
-10264.34133841692
 21
-4102.174367062505
 31
0.0
 12
-10261.84133841693
 22
-4101.757700395838
 32
0.0
 13
-10261.84133841693
 23
-4101.757700395838
 33
0.0
  0
MTEXT
  5
2B9
330
2B3
100
AcDbEntity
  8
0
 62
     3
100
AcDbMText
 10
-10266.84133841693
 20
-4099.257700395837
 30
0.0
 40
3.0
 41
0.0
 71
     5
 72
     1
  1
\A1;10
1001
ACAD
1000
MTEXTBEGIN
1070
    73
1070
     1
1070
    44
1040
1.0
1070
    74
1070
     0
1000
MTEXTEND
1000
MTEXTBEGIN
1070
    73
1070
     1
1070
    44
1040
1.0
1070
    74
1070
     0
1000
MTEXTEND
1000
MTEXTBEGIN
1070
    73
1070
     1
1070
    44
1040
1.0
1070
    74
1070
     0
1000
MTEXTEND
  0
POINT
  5
2BA
330
2B3
100
AcDbEntity
  8
DEFPOINTS
 62
     0
100
AcDbPoint
 10
-10271.84133841692
 20
-4127.572979959957
 30
0.0
  0
POINT
  5
2BB
330
2B3
100
AcDbEntity
  8
DEFPOINTS
 62
     0
100
AcDbPoint
 10
-10261.84133841693
 20
-4146.822979959957
 30
0.0
  0
POINT
  5
2BC
330
2B3
100
AcDbEntity
  8
DEFPOINTS
 62
     0
100
AcDbPoint
 10
-10261.84133841693
 20
-4101.757700395838
 30
0.0
  0
ENDBLK
  5
2BE
330
2B3
100
AcDbEntity
  8
0
100
AcDbBlockEnd
  0
BLOCK
  5
2AE
330
2A4
100
AcDbEntity
  8
0
100
AcDbBlockBegin
  2
*D23
 70
     1
 10
0.0
 20
0.0
 30
0.0
  3
*D23
  1

  0
LINE
  5
2A5
330
2A4
100
AcDbEntity
  8
0
 62
   123
100
AcDbLine
 10
-10261.84133841693
 20
-4145.822979959958
 30
0.0
 11
-10248.5237620314
 21
-4145.822979959958
 31
0.0
  0
LINE
  5
2A6
330
2A4
100
AcDbEntity
  8
0
 62
   123
100
AcDbLine
 10
-10261.84133841693
 20
-4192.822979959958
 30
0.0
 11
-10248.5237620314
 21
-4192.822979959958
 31
0.0
  0
LINE
  5
2A7
330
2A4
100
AcDbEntity
  8
0
 62
   123
100
AcDbLine
 10
-10249.1237620314
 20
-4148.322979959957
 30
0.0
 11
-10249.1237620314
 21
-4190.322979959957
 31
0.0
  0
SOLID
  5
2A8
330
2A4
100
AcDbEntity
  8
0
 62
   123
100
AcDbTrace
 10
-10249.54042869806
 20
-4148.322979959957
 30
0.0
 11
-10248.70709536474
 21
-4148.322979959957
 31
0.0
 12
-10249.1237620314
 22
-4145.822979959958
 32
0.0
 13
-10249.1237620314
 23
-4145.822979959958
 33
0.0
  0
SOLID
  5
2A9
330
2A4
100
AcDbEntity
  8
0
 62
   123
100
AcDbTrace
 10
-10249.54042869806
 20
-4190.322979959957
 30
0.0
 11
-10248.70709536474
 21
-4190.322979959957
 31
0.0
 12
-10249.1237620314
 22
-4192.822979959958
 32
0.0
 13
-10249.1237620314
 23
-4192.822979959958
 33
0.0
  0
MTEXT
  5
2AA
330
2A4
100
AcDbEntity
  8
0
 62
     3
100
AcDbMText
 10
-10251.6237620314
 20
-4170.863444781031
 30
0.0
 40
3.0
 41
0.0
 71
     5
 72
     1
  1
\A1;%%c47
 11
0.0000000000000001
 21
1.0
 31
0.0
1001
ACAD
1000
MTEXTBEGIN
1070
    73
1070
     1
1070
    44
1040
1.0
1070
    74
1070
     0
1000
MTEXTEND
1000
MTEXTBEGIN
1070
    73
1070
     1
1070
    44
1040
1.0
1070
    74
1070
     0
1000
MTEXTEND
1000
MTEXTBEGIN
1070
    73
1070
     1
1070
    44
1040
1.0
1070
    74
1070
     0
1000
MTEXTEND
  0
POINT
  5
2AB
330
2A4
100
AcDbEntity
  8
DEFPOINTS
 62
     0
100
AcDbPoint
 10
-10262.84133841693
 20
-4145.822979959958
 30
0.0
  0
POINT
  5
2AC
330
2A4
100
AcDbEntity
  8
DEFPOINTS
 62
     0
100
AcDbPoint
 10
-10262.84133841693
 20
-4192.822979959958
 30
0.0
  0
POINT
  5
2AD
330
2A4
100
AcDbEntity
  8
DEFPOINTS
 62
     0
100
AcDbPoint
 10
-10249.1237620314
 20
-4192.822979959958
 30
0.0
  0
ENDBLK
  5
2AF
330
2A4
100
AcDbEntity
  8
0
100
AcDbBlockEnd
  0
BLOCK
  5
C4
330
BA
100
AcDbEntity
  8
0
100
AcDbBlockBegin
  2
*D24
 70
     1
 10
0.0
 20
0.0
 30
0.0
  3
*D24
  1

  0
LINE
  5
BB
330
BA
100
AcDbEntity
  8
0
 62
   123
100
AcDbLine
 10
-10272.34133841693
 20
-4126.072979959957
 30
0.0
 11
-10240.81573604843
 21
-4126.072979959957
 31
0.0
  0
LINE
  5
BC
330
BA
100
AcDbEntity
  8
0
 62
   123
100
AcDbLine
 10
-10272.34133841693
 20
-4212.572979959957
 30
0.0
 11
-10240.81573604843
 21
-4212.572979959957
 31
0.0
  0
LINE
  5
BD
330
BA
100
AcDbEntity
  8
0
 62
   123
100
AcDbLine
 10
-10241.41573604842
 20
-4128.572979959957
 30
0.0
 11
-10241.41573604842
 21
-4210.072979959957
 31
0.0
  0
SOLID
  5
BE
330
BA
100
AcDbEntity
  8
0
 62
   123
100
AcDbTrace
 10
-10241.8324027151
 20
-4128.572979959957
 30
0.0
 11
-10240.99906938177
 21
-4128.572979959957
 31
0.0
 12
-10241.41573604842
 22
-4126.072979959957
 32
0.0
 13
-10241.41573604842
 23
-4126.072979959957
 33
0.0
  0
SOLID
  5
BF
330
BA
100
AcDbEntity
  8
0
 62
   123
100
AcDbTrace
 10
-10241.8324027151
 20
-4210.072979959957
 30
0.0
 11
-10240.99906938177
 21
-4210.072979959957
 31
0.0
 12
-10241.41573604842
 22
-4212.572979959957
 32
0.0
 13
-10241.41573604842
 23
-4212.572979959957
 33
0.0
  0
MTEXT
  5
C0
330
BA
100
AcDbEntity
  8
0
 62
     3
100
AcDbMText
 10
-10243.91573604843
 20
-4169.940617520404
 30
0.0
 40
3.0
 41
0.0
 71
     5
 72
     1
  1
\A1;%%C86.5
 11
0.0000000000000001
 21
1.0
 31
0.0
1001
ACAD
1000
MTEXTBEGIN
1070
    73
1070
     1
1070
    44
1040
1.0
1070
    74
1070
     0
1000
MTEXTEND
1000
MTEXTBEGIN
1070
    73
1070
     1
1070
    44
1040
1.0
1070
    74
1070
     0
1000
MTEXTEND
1000
MTEXTBEGIN
1070
    73
1070
     1
1070
    44
1040
1.0
1070
    74
1070
     0
1000
MTEXTEND
  0
POINT
  5
C1
330
BA
100
AcDbEntity
  8
DEFPOINTS
 62
     0
100
AcDbPoint
 10
-10273.34133841693
 20
-4126.072979959957
 30
0.0
  0
POINT
  5
C2
330
BA
100
AcDbEntity
  8
DEFPOINTS
 62
     0
100
AcDbPoint
 10
-10273.34133841693
 20
-4212.572979959957
 30
0.0
  0
POINT
  5
C3
330
BA
100
AcDbEntity
  8
DEFPOINTS
 62
     0
100
AcDbPoint
 10
-10241.41573604842
 20
-4212.572979959957
 30
0.0
  0
ENDBLK
  5
C5
330
BA
100
AcDbEntity
  8
0
100
AcDbBlockEnd
  0
BLOCK
  5
325
330
319
100
AcDbEntity
  8
0
100
AcDbBlockBegin
  2
*D25
 70
     1
 10
0.0
 20
0.0
 30
0.0
  3
*D25
  1

  0
LINE
  5
4FD
330
319
100
AcDbEntity
  8
0
 62
   123
100
AcDbLine
 10
21.76126961734916
 20
7.082396236263774
 30
0.0
 11
21.76126961734915
 21
-11.33619115721023
 31
0.0
  0
LINE
  5
4FE
330
319
100
AcDbEntity
  8
0
 62
   123
100
AcDbLine
 10
40.78988997793533
 20
15.78870660382632
 30
0.0
 11
49.72376786876644
 21
-5.772390364827643
 31
0.0
  0
ARC
  5
4FF
330
319
100
AcDbEntity
  8
0
 62
   123
100
AcDbCircle
 10
21.76126961734917
 20
61.7125410000153
 30
0.0
 40
72.44873215722555
100
AcDbArc
 50
271.9772127434109
 51
290.5295441539718
  0
SOLID
  5
500
330
319
100
AcDbEntity
  8
0
 62
   123
100
AcDbTrace
 10
24.2680864738101
 20
-11.10966185120689
 30
0.0
 11
24.25370849043275
 21
-10.27645256294947
 31
0.0
 12
21.76126961734915
 22
-10.73619115721023
 32
0.0
 13
21.76126961734915
 23
-10.73619115721023
 33
0.0
  0
SOLID
  5
501
330
319
100
AcDbEntity
  8
0
 62
   123
100
AcDbTrace
 10
47.01550724564869
 20
-5.747454015979352
 30
0.0
 11
47.32117053897622
 21
-6.522705198214255
 31
0.0
 12
49.49409243901717
 22
-5.218089727114238
 32
0.0
 13
49.49409243901717
 23
-5.218089727114238
 33
0.0
  0
MTEXT
  5
502
330
319
100
AcDbEntity
  8
0
 62
     3
100
AcDbMText
 10
35.35587893846102
 20
-6.611120028744237
 30
0.0
 40
3.0
 41
0.0
 71
     5
 72
     1
  1
\A1;22°30'
 11
0.9807737751869714
 21
0.1951481537332508
 31
0.0
  0
POINT
  5
503
330
319
100
AcDbEntity
  8
DEFPOINTS
 62
     0
100
AcDbPoint
 10
31.22055034721749
 20
-10.11601042114972
 30
0.0
  0
POINT
  5
504
330
319
100
AcDbEntity
  8
DEFPOINTS
 62
     0
100
AcDbPoint
 10
21.76126961734917
 20
8.082396236263775
 30
0.0
  0
POINT
  5
505
330
319
100
AcDbEntity
  8
DEFPOINTS
 62
     0
100
AcDbPoint
 10
21.76126961734917
 20
61.71254100001531
 30
0.0
  0
POINT
  5
506
330
319
100
AcDbEntity
  8
DEFPOINTS
 62
     0
100
AcDbPoint
 10
40.40709759501988
 20
16.71254100001532
 30
0.0
  0
POINT
  5
507
330
319
100
AcDbEntity
  8
DEFPOINTS
 62
     0
100
AcDbPoint
 10
21.76126961734917
 20
115.3426857637687
 30
0.0
  0
ENDBLK
  5
326
330
319
100
AcDbEntity
  8
0
100
AcDbBlockEnd
  0
BLOCK
  5
331
330
327
100
AcDbEntity
  8
0
100
AcDbBlockBegin
  2
*D26
 70
     1
 10
0.0
 20
0.0
 30
0.0
  3
*D26
  1

  0
LINE
  5
328
330
327
100
AcDbEntity
  8
0
 62
   123
100
AcDbLine
 10
309.6229534476388
 20
104.3905112372085
 30
0.0
 11
341.1485558161398
 21
104.3905112372085
 31
0.0
  0
LINE
  5
329
330
327
100
AcDbEntity
  8
0
 62
   123
100
AcDbLine
 10
309.6229534476388
 20
17.89051123720855
 30
0.0
 11
341.1485558161398
 21
17.89051123720853
 31
0.0
  0
LINE
  5
32A
330
327
100
AcDbEntity
  8
0
 62
   123
100
AcDbLine
 10
340.5485558161398
 20
101.8905112372084
 30
0.0
 11
340.5485558161398
 21
20.39051123720854
 31
0.0
  0
SOLID
  5
32B
330
327
100
AcDbEntity
  8
0
 62
   123
100
AcDbTrace
 10
340.1318891494732
 20
101.8905112372084
 30
0.0
 11
340.9652224828066
 21
101.8905112372084
 31
0.0
 12
340.5485558161398
 22
104.3905112372085
 32
0.0
 13
340.5485558161398
 23
104.3905112372085
 33
0.0
  0
SOLID
  5
32C
330
327
100
AcDbEntity
  8
0
 62
   123
100
AcDbTrace
 10
340.1318891494732
 20
20.39051123720854
 30
0.0
 11
340.9652224828066
 21
20.39051123720854
 31
0.0
 12
340.5485558161398
 22
17.89051123720853
 32
0.0
 13
340.5485558161398
 23
17.89051123720853
 33
0.0
  0
MTEXT
  5
32D
330
327
100
AcDbEntity
  8
0
 62
     3
100
AcDbMText
 10
338.0485558161398
 20
60.52287367676218
 30
0.0
 40
3.0
 41
0.0
 71
     5
 72
     1
  1
\A1;%%C86.5
 11
0.0000000000000001
 21
1.0
 31
0.0
1001
ACAD
1000
MTEXTBEGIN
1070
    73
1070
     1
1070
    44
1040
1.0
1070
    74
1070
     0
1000
MTEXTEND
1000
MTEXTBEGIN
1070
    73
1070
     1
1070
    44
1040
1.0
1070
    74
1070
     0
1000
MTEXTEND
1000
MTEXTBEGIN
1070
    73
1070
     1
1070
    44
1040
1.0
1070
    74
1070
     0
1000
MTEXTEND
  0
POINT
  5
32E
330
327
100
AcDbEntity
  8
DEFPOINTS
 62
     0
100
AcDbPoint
 10
308.6229534476387
 20
104.3905112372085
 30
0.0
  0
POINT
  5
32F
330
327
100
AcDbEntity
  8
DEFPOINTS
 62
     0
100
AcDbPoint
 10
308.6229534476387
 20
17.89051123720855
 30
0.0
  0
POINT
  5
330
330
327
100
AcDbEntity
  8
DEFPOINTS
 62
     0
100
AcDbPoint
 10
340.5485558161398
 20
17.89051123720853
 30
0.0
  0
ENDBLK
  5
332
330
327
100
AcDbEntity
  8
0
100
AcDbBlockEnd
  0
BLOCK
  5
33D
330
333
100
AcDbEntity
  8
0
100
AcDbBlockBegin
  2
*D27
 70
     1
 10
0.0
 20
0.0
 30
0.0
  3
*D27
  1

  0
LINE
  5
334
330
333
100
AcDbEntity
  8
0
 62
   123
100
AcDbLine
 10
157.1229534476388
 20
102.6405112372084
 30
0.0
 11
86.43963413103888
 21
102.6405112372084
 31
0.0
  0
LINE
  5
335
330
333
100
AcDbEntity
  8
0
 62
   123
100
AcDbLine
 10
157.1229534476388
 20
19.64051123720855
 30
0.0
 11
86.43963413103884
 21
19.64051123720857
 31
0.0
  0
LINE
  5
336
330
333
100
AcDbEntity
  8
0
 62
   123
100
AcDbLine
 10
87.03963413103883
 20
100.1405112372085
 30
0.0
 11
87.03963413103883
 21
22.14051123720857
 31
0.0
  0
SOLID
  5
337
330
333
100
AcDbEntity
  8
0
 62
   123
100
AcDbTrace
 10
86.62296746437219
 20
100.1405112372085
 30
0.0
 11
87.45630079770554
 21
100.1405112372085
 31
0.0
 12
87.03963413103883
 22
102.6405112372084
 32
0.0
 13
87.03963413103883
 23
102.6405112372084
 33
0.0
  0
SOLID
  5
338
330
333
100
AcDbEntity
  8
0
 62
   123
100
AcDbTrace
 10
86.62296746437219
 20
22.14051123720857
 30
0.0
 11
87.45630079770554
 21
22.14051123720857
 31
0.0
 12
87.03963413103883
 22
19.64051123720857
 32
0.0
 13
87.03963413103883
 23
19.64051123720857
 33
0.0
  0
MTEXT
  5
339
330
333
100
AcDbEntity
  8
0
 62
     3
100
AcDbMText
 10
83.08948413103884
 20
63.43509879290923
 30
0.0
 40
3.0
 41
0.0
 71
     5
 72
     1
  1
\A1;\A1;{\f??|b0|i0|c0|p49;%%c83\H0.7x;\S+0^ -0.035;\H1.429x;(h7)}
 11
0.0000000000000001
 21
1.0
 31
0.0
1001
ACAD
1000
MTEXTBEGIN
1070
    73
1070
     1
1070
    44
1040
1.0
1070
    74
1070
     0
1000
MTEXTEND
1000
MTEXTBEGIN
1070
    73
1070
     1
1070
    44
1040
1.0
1070
    74
1070
     0
1000
MTEXTEND
1000
MTEXTBEGIN
1070
    73
1070
     1
1070
    44
1040
1.0
1070
    74
1070
     0
1000
MTEXTEND
  0
POINT
  5
33A
330
333
100
AcDbEntity
  8
DEFPOINTS
 62
     0
100
AcDbPoint
 10
158.1229534476388
 20
102.6405112372084
 30
0.0
  0
POINT
  5
33B
330
333
100
AcDbEntity
  8
DEFPOINTS
 62
     0
100
AcDbPoint
 10
158.1229534476388
 20
19.64051123720855
 30
0.0
  0
POINT
  5
33C
330
333
100
AcDbEntity
  8
DEFPOINTS
 62
     0
100
AcDbPoint
 10
87.03963413103883
 20
19.64051123720857
 30
0.0
  0
ENDBLK
  5
33E
330
333
100
AcDbEntity
  8
0
100
AcDbBlockEnd
  0
BLOCK
  5
349
330
33F
100
AcDbEntity
  8
0
100
AcDbBlockBegin
  2
*D28
 70
     1
 10
0.0
 20
0.0
 30
0.0
  3
*D28
  1

  0
LINE
  5
340
330
33F
100
AcDbEntity
  8
0
 62
   123
100
AcDbLine
 10
160.1229534476388
 20
122.2405112372089
 30
0.0
 11
160.1229534476388
 21
129.3057908013284
 31
0.0
  0
LINE
  5
341
330
33F
100
AcDbEntity
  8
0
 62
   123
100
AcDbLine
 10
310.1229534476388
 20
103.8905112372084
 30
0.0
 11
310.1229534476388
 21
129.3057908013284
 31
0.0
  0
LINE
  5
342
330
33F
100
AcDbEntity
  8
0
 62
   123
100
AcDbLine
 10
162.6229534476386
 20
128.7057908013284
 30
0.0
 11
307.6229534476388
 21
128.7057908013284
 31
0.0
  0
SOLID
  5
343
330
33F
100
AcDbEntity
  8
0
 62
   123
100
AcDbTrace
 10
162.6229534476386
 20
129.1224574679949
 30
0.0
 11
162.6229534476386
 21
128.2891241346618
 31
0.0
 12
160.1229534476388
 22
128.7057908013284
 32
0.0
 13
160.1229534476388
 23
128.7057908013284
 33
0.0
  0
SOLID
  5
344
330
33F
100
AcDbEntity
  8
0
 62
   123
100
AcDbTrace
 10
307.6229534476388
 20
129.1224574679949
 30
0.0
 11
307.6229534476388
 21
128.2891241346618
 31
0.0
 12
310.1229534476388
 22
128.7057908013284
 32
0.0
 13
310.1229534476388
 23
128.7057908013284
 33
0.0
  0
MTEXT
  5
345
330
33F
100
AcDbEntity
  8
0
 62
     3
100
AcDbMText
 10
237.0569492095201
 20
131.2057908013284
 30
0.0
 40
3.0
 41
0.0
 71
     5
 72
     1
  1
\A1;150
1001
ACAD
1000
MTEXTBEGIN
1070
    73
1070
     1
1070
    44
1040
1.0
1070
    74
1070
     0
1000
MTEXTEND
1000
MTEXTBEGIN
1070
    73
1070
     1
1070
    44
1040
1.0
1070
    74
1070
     0
1000
MTEXTEND
1000
MTEXTBEGIN
1070
    73
1070
     1
1070
    44
1040
1.0
1070
    74
1070
     0
1000
MTEXTEND
  0
POINT
  5
346
330
33F
100
AcDbEntity
  8
DEFPOINTS
 62
     0
100
AcDbPoint
 10
160.1229534476388
 20
121.2405112372089
 30
0.0
  0
POINT
  5
347
330
33F
100
AcDbEntity
  8
DEFPOINTS
 62
     0
100
AcDbPoint
 10
310.1229534476388
 20
102.8905112372084
 30
0.0
  0
POINT
  5
348
330
33F
100
AcDbEntity
  8
DEFPOINTS
 62
     0
100
AcDbPoint
 10
310.1229534476388
 20
128.7057908013284
 30
0.0
  0
ENDBLK
  5
34A
330
33F
100
AcDbEntity
  8
0
100
AcDbBlockEnd
  0
BLOCK
  5
355
330
34B
100
AcDbEntity
  8
0
100
AcDbBlockBegin
  2
*D29
 70
     1
 10
0.0
 20
0.0
 30
0.0
  3
*D29
  1

  0
LINE
  5
34C
330
34B
100
AcDbEntity
  8
0
 62
   123
100
AcDbLine
 10
150.0372245920589
 20
325.5515034492446
 30
0.0
 11
150.0372245920589
 21
332.6167830133631
 31
0.0
  0
LINE
  5
34D
330
34B
100
AcDbEntity
  8
0
 62
   123
100
AcDbLine
 10
300.0372245920587
 20
307.2015034492433
 30
0.0
 11
300.0372245920587
 21
332.6167830133631
 31
0.0
  0
LINE
  5
34E
330
34B
100
AcDbEntity
  8
0
 62
   123
100
AcDbLine
 10
152.5372245920589
 20
332.0167830133631
 30
0.0
 11
297.5372245920588
 21
332.0167830133631
 31
0.0
  0
SOLID
  5
34F
330
34B
100
AcDbEntity
  8
0
 62
   123
100
AcDbTrace
 10
152.5372245920589
 20
332.4334496800298
 30
0.0
 11
152.5372245920589
 21
331.6001163466963
 31
0.0
 12
150.0372245920589
 22
332.0167830133631
 32
0.0
 13
150.0372245920589
 23
332.0167830133631
 33
0.0
  0
SOLID
  5
350
330
34B
100
AcDbEntity
  8
0
 62
   123
100
AcDbTrace
 10
297.5372245920588
 20
332.4334496800298
 30
0.0
 11
297.5372245920588
 21
331.6001163466963
 31
0.0
 12
300.0372245920587
 22
332.0167830133631
 32
0.0
 13
300.0372245920587
 23
332.0167830133631
 33
0.0
  0
MTEXT
  5
351
330
34B
100
AcDbEntity
  8
0
 62
     3
100
AcDbMText
 10
226.9712203539401
 20
334.5167830133632
 30
0.0
 40
3.0
 41
0.0
 71
     5
 72
     1
  1
\A1;150
1001
ACAD
1000
MTEXTBEGIN
1070
    73
1070
     1
1070
    44
1040
1.0
1070
    74
1070
     0
1000
MTEXTEND
1000
MTEXTBEGIN
1070
    73
1070
     1
1070
    44
1040
1.0
1070
    74
1070
     0
1000
MTEXTEND
1000
MTEXTBEGIN
1070
    73
1070
     1
1070
    44
1040
1.0
1070
    74
1070
     0
1000
MTEXTEND
  0
POINT
  5
352
330
34B
100
AcDbEntity
  8
DEFPOINTS
 62
     0
100
AcDbPoint
 10
150.0372245920589
 20
324.5515034492445
 30
0.0
  0
POINT
  5
353
330
34B
100
AcDbEntity
  8
DEFPOINTS
 62
     0
100
AcDbPoint
 10
300.0372245920587
 20
306.2015034492433
 30
0.0
  0
POINT
  5
354
330
34B
100
AcDbEntity
  8
DEFPOINTS
 62
     0
100
AcDbPoint
 10
300.0372245920587
 20
332.0167830133631
 30
0.0
  0
ENDBLK
  5
356
330
34B
100
AcDbEntity
  8
0
100
AcDbBlockEnd
  0
BLOCK
  5
363
330
357
100
AcDbEntity
  8
0
100
AcDbBlockBegin
  2
*D30
 70
     1
 10
0.0
 20
0.0
 30
0.0
  3
*D30
  1

  0
LINE
  5
508
330
357
100
AcDbEntity
  8
0
 62
   123
100
AcDbLine
 10
47.0313280467999
 20
210.3933884482969
 30
0.0
 11
47.03132804679989
 21
191.9748010548238
 31
0.0
  0
LINE
  5
509
330
357
100
AcDbEntity
  8
0
 62
   123
100
AcDbLine
 10
66.05994840739531
 20
219.0996988158623
 30
0.0
 11
74.99382629822969
 21
197.5386018472116
 31
0.0
  0
ARC
  5
50A
330
357
100
AcDbEntity
  8
0
 62
   123
100
AcDbCircle
 10
47.0313280467999
 20
265.0235332120501
 30
0.0
 40
72.44873215722617
100
AcDbArc
 50
271.9772127434109
 51
290.5295441539822
  0
SOLID
  5
50B
330
357
100
AcDbEntity
  8
0
 62
   123
100
AcDbTrace
 10
49.53814490326085
 20
192.2013303608272
 30
0.0
 11
49.5237669198835
 21
193.0345396490846
 31
0.0
 12
47.03132804679988
 22
192.5748010548239
 32
0.0
 13
47.03132804679988
 23
192.5748010548239
 33
0.0
  0
SOLID
  5
50C
330
357
100
AcDbEntity
  8
0
 62
   123
100
AcDbTrace
 10
72.28556567511194
 20
197.5635381960594
 30
0.0
 11
72.59122896843959
 21
196.7882870138246
 31
0.0
 12
74.76415086848033
 22
198.092902484925
 32
0.0
 13
74.76415086848033
 23
198.092902484925
 33
0.0
  0
MTEXT
  5
50D
330
357
100
AcDbEntity
  8
0
 62
     3
100
AcDbMText
 10
60.62593736791814
 20
196.6998721832911
 30
0.0
 40
3.0
 41
0.0
 71
     5
 72
     1
  1
\A1;22°30'
 11
0.9807737751869535
 21
0.1951481537333395
 31
0.0
  0
POINT
  5
50E
330
357
100
AcDbEntity
  8
DEFPOINTS
 62
     0
100
AcDbPoint
 10
56.49060877667269
 20
193.194981790885
 30
0.0
  0
POINT
  5
50F
330
357
100
AcDbEntity
  8
DEFPOINTS
 62
     0
100
AcDbPoint
 10
47.03132804679991
 20
211.393388448297
 30
0.0
  0
POINT
  5
510
330
357
100
AcDbEntity
  8
DEFPOINTS
 62
     0
100
AcDbPoint
 10
47.03132804679989
 20
265.0235332120501
 30
0.0
  0
POINT
  5
511
330
357
100
AcDbEntity
  8
DEFPOINTS
 62
     0
100
AcDbPoint
 10
65.6771560244797
 20
220.0235332120513
 30
0.0
  0
POINT
  5
512
330
357
100
AcDbEntity
  8
DEFPOINTS
 62
     0
100
AcDbPoint
 10
47.0313280467999
 20
318.6536779758029
 30
0.0
  0
ENDBLK
  5
364
330
357
100
AcDbEntity
  8
0
100
AcDbBlockEnd
  0
BLOCK
  5
36F
330
365
100
AcDbEntity
  8
0
100
AcDbBlockBegin
  2
*D31
 70
     1
 10
0.0
 20
0.0
 30
0.0
  3
*D31
  1

  0
LINE
  5
366
330
365
100
AcDbEntity
  8
0
 62
   123
100
AcDbLine
 10
123.1229534476387
 20
66.14051123720854
 30
0.0
 11
123.1229534476387
 21
129.3057908013284
 31
0.0
  0
LINE
  5
367
330
365
100
AcDbEntity
  8
0
 62
   123
100
AcDbLine
 10
160.1229534476388
 20
107.1405112372085
 30
0.0
 11
160.1229534476388
 21
129.3057908013284
 31
0.0
  0
LINE
  5
368
330
365
100
AcDbEntity
  8
0
 62
   123
100
AcDbLine
 10
125.6229534476387
 20
128.7057908013284
 30
0.0
 11
157.6229534476385
 21
128.7057908013284
 31
0.0
  0
SOLID
  5
369
330
365
100
AcDbEntity
  8
0
 62
   123
100
AcDbTrace
 10
125.6229534476387
 20
129.1224574679949
 30
0.0
 11
125.6229534476387
 21
128.2891241346618
 31
0.0
 12
123.1229534476387
 22
128.7057908013284
 32
0.0
 13
123.1229534476387
 23
128.7057908013284
 33
0.0
  0
SOLID
  5
36A
330
365
100
AcDbEntity
  8
0
 62
   123
100
AcDbTrace
 10
157.6229534476385
 20
129.1224574679949
 30
0.0
 11
157.6229534476385
 21
128.2891241346618
 31
0.0
 12
160.1229534476388
 22
128.7057908013284
 32
0.0
 13
160.1229534476388
 23
128.7057908013284
 33
0.0
  0
MTEXT
  5
36B
330
365
100
AcDbEntity
  8
0
 62
     3
100
AcDbMText
 10
143.5569492095199
 20
131.2057908013284
 30
0.0
 40
3.0
 41
0.0
 71
     5
 72
     1
  1
\A1;37
1001
ACAD
1000
MTEXTBEGIN
1070
    73
1070
     1
1070
    44
1040
1.0
1070
    74
1070
     0
1000
MTEXTEND
1000
MTEXTBEGIN
1070
    73
1070
     1
1070
    44
1040
1.0
1070
    74
1070
     0
1000
MTEXTEND
1000
MTEXTBEGIN
1070
    73
1070
     1
1070
    44
1040
1.0
1070
    74
1070
     0
1000
MTEXTEND
  0
POINT
  5
36C
330
365
100
AcDbEntity
  8
DEFPOINTS
 62
     0
100
AcDbPoint
 10
123.1229534476387
 20
65.14051123720857
 30
0.0
  0
POINT
  5
36D
330
365
100
AcDbEntity
  8
DEFPOINTS
 62
     0
100
AcDbPoint
 10
160.1229534476388
 20
106.1405112372085
 30
0.0
  0
POINT
  5
36E
330
365
100
AcDbEntity
  8
DEFPOINTS
 62
     0
100
AcDbPoint
 10
160.1229534476388
 20
128.7057908013284
 30
0.0
  0
ENDBLK
  5
370
330
365
100
AcDbEntity
  8
0
100
AcDbBlockEnd
  0
BLOCK
  5
37B
330
371
100
AcDbEntity
  8
0
100
AcDbBlockBegin
  2
*D32
 70
     1
 10
0.0
 20
0.0
 30
0.0
  3
*D32
  1

  0
LINE
  5
372
330
371
100
AcDbEntity
  8
0
 62
   123
100
AcDbLine
 10
-23.23873038265082
 20
102.6697472412179
 30
0.0
 11
-23.23873038265082
 21
119.914973642873
 31
0.0
  0
LINE
  5
373
330
371
100
AcDbEntity
  8
0
 62
   123
100
AcDbLine
 10
66.76126961734006
 20
102.6697472412188
 30
0.0
 11
66.76126961734006
 21
119.914973642873
 31
0.0
  0
LINE
  5
374
330
371
100
AcDbEntity
  8
0
 62
   123
100
AcDbLine
 10
-20.73873038265082
 20
119.3149736428731
 30
0.0
 11
64.26126961734006
 21
119.3149736428731
 31
0.0
  0
SOLID
  5
375
330
371
100
AcDbEntity
  8
0
 62
   123
100
AcDbTrace
 10
-20.73873038265082
 20
119.7316403095397
 30
0.0
 11
-20.73873038265082
 21
118.8983069762064
 31
0.0
 12
-23.23873038265082
 22
119.3149736428731
 32
0.0
 13
-23.23873038265082
 23
119.3149736428731
 33
0.0
  0
SOLID
  5
376
330
371
100
AcDbEntity
  8
0
 62
   123
100
AcDbTrace
 10
64.26126961734006
 20
119.7316403095397
 30
0.0
 11
64.26126961734006
 21
118.8983069762064
 31
0.0
 12
66.76126961734006
 22
119.3149736428731
 32
0.0
 13
66.76126961734006
 23
119.3149736428731
 33
0.0
  0
MTEXT
  5
377
330
371
100
AcDbEntity
  8
0
 62
     3
100
AcDbMText
 10
21.76126961734917
 20
121.8149736428731
 30
0.0
 40
3.0
 41
0.0
 71
     5
 72
     1
  1
\A1;90
1001
ACAD
1000
MTEXTBEGIN
1070
    73
1070
     1
1070
    44
1040
1.0
1070
    74
1070
     0
1000
MTEXTEND
1000
MTEXTBEGIN
1070
    73
1070
     1
1070
    44
1040
1.0
1070
    74
1070
     0
1000
MTEXTEND
1000
MTEXTBEGIN
1070
    73
1070
     1
1070
    44
1040
1.0
1070
    74
1070
     0
1000
MTEXTEND
  0
POINT
  5
378
330
371
100
AcDbEntity
  8
DEFPOINTS
 62
     0
100
AcDbPoint
 10
-23.23873038265082
 20
101.6697472412179
 30
0.0
  0
POINT
  5
379
330
371
100
AcDbEntity
  8
DEFPOINTS
 62
     0
100
AcDbPoint
 10
66.76126961734006
 20
101.6697472412187
 30
0.0
  0
POINT
  5
37A
330
371
100
AcDbEntity
  8
DEFPOINTS
 62
     0
100
AcDbPoint
 10
66.76126961734006
 20
119.3149736428731
 30
0.0
  0
ENDBLK
  5
37C
330
371
100
AcDbEntity
  8
0
100
AcDbBlockEnd
  0
BLOCK
  5
389
330
37D
100
AcDbEntity
  8
0
100
AcDbBlockBegin
  2
*D33
 70
     1
 10
0.0
 20
0.0
 30
0.0
  3
*D33
  1

  0
LINE
  5
37E
330
37D
100
AcDbEntity
  8
0
 62
   123
100
AcDbLine
 10
158.1229534476388
 20
103.6405112372084
 30
0.0
 11
158.1229534476388
 21
118.7722559957513
 31
0.0
  0
LINE
  5
37F
330
37D
100
AcDbEntity
  8
0
 62
   123
100
AcDbLine
 10
160.1229534476388
 20
107.1405112372085
 30
0.0
 11
160.1229534476388
 21
118.7722559957513
 31
0.0
  0
LINE
  5
380
330
37D
100
AcDbEntity
  8
0
 62
   123
100
AcDbLine
 10
162.6229534476386
 20
118.1722559957514
 30
0.0
 11
165.1229534476385
 21
118.1722559957514
 31
0.0
  0
LINE
  5
381
330
37D
100
AcDbEntity
  8
0
 62
   123
100
AcDbLine
 10
155.6229534476385
 20
118.1722559957514
 30
0.0
 11
149.1229534476385
 21
118.1722559957514
 31
0.0
  0
LINE
  5
382
330
37D
100
AcDbEntity
  8
0
 62
   123
100
AcDbLine
 10
160.1229534476388
 20
118.1722559957514
 30
0.0
 11
158.1229534476388
 21
118.1722559957514
 31
0.0
  0
SOLID
  5
383
330
37D
100
AcDbEntity
  8
0
 62
   123
100
AcDbTrace
 10
162.6229534476386
 20
118.5889226624182
 30
0.0
 11
162.6229534476386
 21
117.7555893290849
 31
0.0
 12
160.1229534476388
 22
118.1722559957514
 32
0.0
 13
160.1229534476388
 23
118.1722559957514
 33
0.0
  0
SOLID
  5
384
330
37D
100
AcDbEntity
  8
0
 62
   123
100
AcDbTrace
 10
155.6229534476385
 20
118.5889226624182
 30
0.0
 11
155.6229534476385
 21
117.7555893290849
 31
0.0
 12
158.1229534476388
 22
118.1722559957514
 32
0.0
 13
158.1229534476388
 23
118.1722559957514
 33
0.0
  0
MTEXT
  5
385
330
37D
100
AcDbEntity
  8
0
 62
     3
100
AcDbMText
 10
151.1229534476385
 20
120.6722559957515
 30
0.0
 40
3.0
 41
0.0
 71
     5
 72
     1
  1
\A1;2
1001
ACAD
1000
MTEXTBEGIN
1070
    73
1070
     1
1070
    44
1040
1.0
1070
    74
1070
     0
1000
MTEXTEND
1000
MTEXTBEGIN
1070
    73
1070
     1
1070
    44
1040
1.0
1070
    74
1070
     0
1000
MTEXTEND
1000
MTEXTBEGIN
1070
    73
1070
     1
1070
    44
1040
1.0
1070
    74
1070
     0
1000
MTEXTEND
  0
POINT
  5
386
330
37D
100
AcDbEntity
  8
DEFPOINTS
 62
     0
100
AcDbPoint
 10
158.1229534476388
 20
102.6405112372084
 30
0.0
  0
POINT
  5
387
330
37D
100
AcDbEntity
  8
DEFPOINTS
 62
     0
100
AcDbPoint
 10
160.1229534476388
 20
106.1405112372085
 30
0.0
  0
POINT
  5
388
330
37D
100
AcDbEntity
  8
DEFPOINTS
 62
     0
100
AcDbPoint
 10
160.1229534476388
 20
118.1722559957514
 30
0.0
  0
ENDBLK
  5
38A
330
37D
100
AcDbEntity
  8
0
100
AcDbBlockEnd
  0
BLOCK
  5
395
330
38B
100
AcDbEntity
  8
0
100
AcDbBlockBegin
  2
*D34
 70
     1
 10
0.0
 20
0.0
 30
0.0
  3
*D34
  1

  0
LINE
  5
38C
330
38B
100
AcDbEntity
  8
0
 62
   123
100
AcDbLine
 10
160.1229534476388
 20
106.3488445705434
 30
0.0
 11
160.1229534476388
 21
118.7722559957513
 31
0.0
  0
LINE
  5
38D
330
38B
100
AcDbEntity
  8
0
 62
   123
100
AcDbLine
 10
167.6229534476386
 20
105.7392485787367
 30
0.0
 11
167.6229534476386
 21
118.7722559957513
 31
0.0
  0
LINE
  5
38E
330
38B
100
AcDbEntity
  8
0
 62
   123
100
AcDbLine
 10
162.6229534476386
 20
118.1722559957514
 30
0.0
 11
165.1229534476385
 21
118.1722559957514
 31
0.0
  0
SOLID
  5
38F
330
38B
100
AcDbEntity
  8
0
 62
   123
100
AcDbTrace
 10
162.6229534476386
 20
118.5889226624182
 30
0.0
 11
162.6229534476386
 21
117.7555893290849
 31
0.0
 12
160.1229534476388
 22
118.1722559957514
 32
0.0
 13
160.1229534476388
 23
118.1722559957514
 33
0.0
  0
SOLID
  5
390
330
38B
100
AcDbEntity
  8
0
 62
   123
100
AcDbTrace
 10
165.1229534476385
 20
118.5889226624182
 30
0.0
 11
165.1229534476385
 21
117.7555893290849
 31
0.0
 12
167.6229534476386
 22
118.1722559957514
 32
0.0
 13
167.6229534476386
 23
118.1722559957514
 33
0.0
  0
MTEXT
  5
391
330
38B
100
AcDbEntity
  8
0
 62
     3
100
AcDbMText
 10
163.8729534476385
 20
120.6722559957515
 30
0.0
 40
3.0
 41
0.0
 71
     5
 72
     1
  1
\A1;7.5
1001
ACAD
1000
MTEXTBEGIN
1070
    73
1070
     1
1070
    44
1040
1.0
1070
    74
1070
     0
1000
MTEXTEND
1000
MTEXTBEGIN
1070
    73
1070
     1
1070
    44
1040
1.0
1070
    74
1070
     0
1000
MTEXTEND
1000
MTEXTBEGIN
1070
    73
1070
     1
1070
    44
1040
1.0
1070
    74
1070
     0
1000
MTEXTEND
  0
POINT
  5
392
330
38B
100
AcDbEntity
  8
DEFPOINTS
 62
     0
100
AcDbPoint
 10
160.1229534476388
 20
105.3488445705434
 30
0.0
  0
POINT
  5
393
330
38B
100
AcDbEntity
  8
DEFPOINTS
 62
     0
100
AcDbPoint
 10
167.6229534476386
 20
104.7392485787367
 30
0.0
  0
POINT
  5
394
330
38B
100
AcDbEntity
  8
DEFPOINTS
 62
     0
100
AcDbPoint
 10
167.6229534476386
 20
118.1722559957514
 30
0.0
  0
ENDBLK
  5
396
330
38B
100
AcDbEntity
  8
0
100
AcDbBlockEnd
  0
BLOCK
  5
3A1
330
397
100
AcDbEntity
  8
0
100
AcDbBlockBegin
  2
*D35
 70
     1
 10
0.0
 20
0.0
 30
0.0
  3
*D35
  1

  0
LINE
  5
398
330
397
100
AcDbEntity
  8
0
 62
   123
100
AcDbLine
 10
122.1229534476387
 20
56.14051123720855
 30
0.0
 11
97.54424465746016
 21
56.14051123720856
 31
0.0
  0
LINE
  5
399
330
397
100
AcDbEntity
  8
0
 62
   123
100
AcDbLine
 10
152.1229534476385
 20
66.14051123720854
 30
0.0
 11
97.54424465746016
 21
66.14051123720854
 31
0.0
  0
LINE
  5
39A
330
397
100
AcDbEntity
  8
0
 62
   123
100
AcDbLine
 10
98.14424465746014
 20
58.64051123720856
 30
0.0
 11
98.14424465746014
 21
63.64051123720856
 31
0.0
  0
SOLID
  5
39B
330
397
100
AcDbEntity
  8
0
 62
   123
100
AcDbTrace
 10
97.7275779907935
 20
58.64051123720856
 30
0.0
 11
98.56091132412684
 21
58.64051123720856
 31
0.0
 12
98.14424465746014
 22
56.14051123720856
 32
0.0
 13
98.14424465746014
 23
56.14051123720856
 33
0.0
  0
SOLID
  5
39C
330
397
100
AcDbEntity
  8
0
 62
   123
100
AcDbTrace
 10
97.7275779907935
 20
63.64051123720856
 30
0.0
 11
98.56091132412684
 21
63.64051123720856
 31
0.0
 12
98.14424465746014
 22
66.14051123720854
 32
0.0
 13
98.14424465746014
 23
66.14051123720854
 33
0.0
  0
MTEXT
  5
39D
330
397
100
AcDbEntity
  8
0
 62
     3
100
AcDbMText
 10
94.19409465746015
 20
61.14051123720858
 30
0.0
 40
3.0
 41
0.0
 71
     5
 72
     1
  1
\A1;\A1;{\f??|b0|i0|c0|p49;%%c}10{\f??|b0|i0|c0|p49;\H0.7x;\S+0^ -0.015;\H1.429x;(h7)}
 11
0.0000000000000001
 21
1.0
 31
0.0
1001
ACAD
1000
MTEXTBEGIN
1070
    73
1070
     1
1070
    44
1040
1.0
1070
    74
1070
     0
1000
MTEXTEND
1000
MTEXTBEGIN
1070
    73
1070
     1
1070
    44
1040
1.0
1070
    74
1070
     0
1000
MTEXTEND
1000
MTEXTBEGIN
1070
    73
1070
     1
1070
    44
1040
1.0
1070
    74
1070
     0
1000
MTEXTEND
  0
POINT
  5
39E
330
397
100
AcDbEntity
  8
DEFPOINTS
 62
     0
100
AcDbPoint
 10
123.1229534476387
 20
56.14051123720855
 30
0.0
  0
POINT
  5
39F
330
397
100
AcDbEntity
  8
DEFPOINTS
 62
     0
100
AcDbPoint
 10
153.1229534476388
 20
66.14051123720854
 30
0.0
  0
POINT
  5
3A0
330
397
100
AcDbEntity
  8
DEFPOINTS
 62
     0
100
AcDbPoint
 10
98.14424465746014
 20
66.14051123720854
 30
0.0
  0
ENDBLK
  5
3A2
330
397
100
AcDbEntity
  8
0
100
AcDbBlockEnd
  0
BLOCK
  5
3AD
330
3A3
100
AcDbEntity
  8
0
100
AcDbBlockBegin
  2
*D36
 70
     1
 10
0.0
 20
0.0
 30
0.0
  3
*D36
  1

  0
LINE
  5
3A4
330
3A3
100
AcDbEntity
  8
0
 62
   123
100
AcDbLine
 10
122.1229534476387
 20
56.14051123720855
 30
0.0
 11
108.9799469980992
 21
56.14051123720856
 31
0.0
  0
LINE
  5
3A5
330
3A3
100
AcDbEntity
  8
0
 62
   123
100
AcDbLine
 10
122.1229534476387
 20
65.14051123720857
 30
0.0
 11
108.9799469980992
 21
65.14051123720857
 31
0.0
  0
LINE
  5
3A6
330
3A3
100
AcDbEntity
  8
0
 62
   123
100
AcDbLine
 10
109.5799469980992
 20
58.64051123720856
 30
0.0
 11
109.5799469980992
 21
62.64051123720856
 31
0.0
  0
SOLID
  5
3A7
330
3A3
100
AcDbEntity
  8
0
 62
   123
100
AcDbTrace
 10
109.1632803314324
 20
58.64051123720856
 30
0.0
 11
109.996613664766
 21
58.64051123720856
 31
0.0
 12
109.5799469980992
 22
56.14051123720856
 32
0.0
 13
109.5799469980992
 23
56.14051123720856
 33
0.0
  0
SOLID
  5
3A8
330
3A3
100
AcDbEntity
  8
0
 62
   123
100
AcDbTrace
 10
109.1632803314324
 20
62.64051123720856
 30
0.0
 11
109.996613664766
 21
62.64051123720856
 31
0.0
 12
109.5799469980992
 22
65.14051123720857
 32
0.0
 13
109.5799469980992
 23
65.14051123720857
 33
0.0
  0
MTEXT
  5
3A9
330
3A3
100
AcDbEntity
  8
0
 62
     3
100
AcDbMText
 10
107.0799469980992
 20
59.69746851579838
 30
0.0
 40
3.0
 41
0.0
 71
     5
 72
     1
  1
\A1;9
 11
0.0000000000000001
 21
1.0
 31
0.0
1001
ACAD
1000
MTEXTBEGIN
1070
    73
1070
     1
1070
    44
1040
1.0
1070
    74
1070
     0
1000
MTEXTEND
1000
MTEXTBEGIN
1070
    73
1070
     1
1070
    44
1040
1.0
1070
    74
1070
     0
1000
MTEXTEND
1000
MTEXTBEGIN
1070
    73
1070
     1
1070
    44
1040
1.0
1070
    74
1070
     0
1000
MTEXTEND
  0
POINT
  5
3AA
330
3A3
100
AcDbEntity
  8
DEFPOINTS
 62
     0
100
AcDbPoint
 10
123.1229534476387
 20
56.14051123720855
 30
0.0
  0
POINT
  5
3AB
330
3A3
100
AcDbEntity
  8
DEFPOINTS
 62
     0
100
AcDbPoint
 10
123.1229534476387
 20
65.14051123720857
 30
0.0
  0
POINT
  5
3AC
330
3A3
100
AcDbEntity
  8
DEFPOINTS
 62
     0
100
AcDbPoint
 10
109.5799469980992
 20
65.14051123720857
 30
0.0
  0
ENDBLK
  5
3AE
330
3A3
100
AcDbEntity
  8
0
100
AcDbBlockEnd
  0
BLOCK
  5
3B9
330
3AF
100
AcDbEntity
  8
0
100
AcDbBlockBegin
  2
*D37
 70
     1
 10
0.0
 20
0.0
 30
0.0
  3
*D37
  1

  0
LINE
  5
3B0
330
3AF
100
AcDbEntity
  8
0
 62
   123
100
AcDbLine
 10
123.1229534476387
 20
66.14051123720854
 30
0.0
 11
123.1229534476387
 21
88.2022857412827
 31
0.0
  0
LINE
  5
3B1
330
3AF
100
AcDbEntity
  8
0
 62
   123
100
AcDbLine
 10
153.1229534476388
 20
67.14051123720857
 30
0.0
 11
153.1229534476388
 21
88.2022857412827
 31
0.0
  0
LINE
  5
3B2
330
3AF
100
AcDbEntity
  8
0
 62
   123
100
AcDbLine
 10
125.6229534476387
 20
87.60228574128268
 30
0.0
 11
150.6229534476386
 21
87.60228574128268
 31
0.0
  0
SOLID
  5
3B3
330
3AF
100
AcDbEntity
  8
0
 62
   123
100
AcDbTrace
 10
125.6229534476387
 20
88.01895240794936
 30
0.0
 11
125.6229534476387
 21
87.18561907461602
 31
0.0
 12
123.1229534476387
 22
87.60228574128268
 32
0.0
 13
123.1229534476387
 23
87.60228574128268
 33
0.0
  0
SOLID
  5
3B4
330
3AF
100
AcDbEntity
  8
0
 62
   123
100
AcDbTrace
 10
150.6229534476386
 20
88.01895240794936
 30
0.0
 11
150.6229534476386
 21
87.18561907461602
 31
0.0
 12
153.1229534476388
 22
87.60228574128268
 32
0.0
 13
153.1229534476388
 23
87.60228574128268
 33
0.0
  0
MTEXT
  5
3B5
330
3AF
100
AcDbEntity
  8
0
 62
     3
100
AcDbMText
 10
137.578147489299
 20
90.10228574128268
 30
0.0
 40
3.0
 41
0.0
 71
     5
 72
     1
  1
\A1;30
1001
ACAD
1000
MTEXTBEGIN
1070
    73
1070
     1
1070
    44
1040
1.0
1070
    74
1070
     0
1000
MTEXTEND
1000
MTEXTBEGIN
1070
    73
1070
     1
1070
    44
1040
1.0
1070
    74
1070
     0
1000
MTEXTEND
1000
MTEXTBEGIN
1070
    73
1070
     1
1070
    44
1040
1.0
1070
    74
1070
     0
1000
MTEXTEND
  0
POINT
  5
3B6
330
3AF
100
AcDbEntity
  8
DEFPOINTS
 62
     0
100
AcDbPoint
 10
123.1229534476387
 20
65.14051123720857
 30
0.0
  0
POINT
  5
3B7
330
3AF
100
AcDbEntity
  8
DEFPOINTS
 62
     0
100
AcDbPoint
 10
153.1229534476388
 20
66.14051123720854
 30
0.0
  0
POINT
  5
3B8
330
3AF
100
AcDbEntity
  8
DEFPOINTS
 62
     0
100
AcDbPoint
 10
153.1229534476388
 20
87.60228574128268
 30
0.0
  0
ENDBLK
  5
3BA
330
3AF
100
AcDbEntity
  8
0
100
AcDbBlockEnd
  0
BLOCK
  5
3C5
330
3BB
100
AcDbEntity
  8
0
100
AcDbBlockBegin
  2
*D38
 70
     1
 10
0.0
 20
0.0
 30
0.0
  3
*D38
  1

  0
LINE
  5
3BC
330
3BB
100
AcDbEntity
  8
0
 62
   123
100
AcDbLine
 10
129.0372245920589
 20
270.1015034492428
 30
0.0
 11
129.0372245920589
 21
332.6167830133631
 31
0.0
  0
LINE
  5
3BD
330
3BB
100
AcDbEntity
  8
0
 62
   123
100
AcDbLine
 10
150.0372245920589
 20
310.4515034492441
 30
0.0
 11
150.0372245920589
 21
332.6167830133631
 31
0.0
  0
LINE
  5
3BE
330
3BB
100
AcDbEntity
  8
0
 62
   123
100
AcDbLine
 10
131.5372245920589
 20
332.0167830133631
 30
0.0
 11
147.5372245920589
 21
332.0167830133631
 31
0.0
  0
SOLID
  5
3BF
330
3BB
100
AcDbEntity
  8
0
 62
   123
100
AcDbTrace
 10
131.5372245920589
 20
332.4334496800298
 30
0.0
 11
131.5372245920589
 21
331.6001163466963
 31
0.0
 12
129.0372245920589
 22
332.0167830133631
 32
0.0
 13
129.0372245920589
 23
332.0167830133631
 33
0.0
  0
SOLID
  5
3C0
330
3BB
100
AcDbEntity
  8
0
 62
   123
100
AcDbTrace
 10
147.5372245920589
 20
332.4334496800298
 30
0.0
 11
147.5372245920589
 21
331.6001163466963
 31
0.0
 12
150.0372245920589
 22
332.0167830133631
 32
0.0
 13
150.0372245920589
 23
332.0167830133631
 33
0.0
  0
MTEXT
  5
3C1
330
3BB
100
AcDbEntity
  8
0
 62
     3
100
AcDbMText
 10
139.5372245920589
 20
334.5167830133632
 30
0.0
 40
3.0
 41
0.0
 71
     5
 72
     1
  1
\A1;21
1001
ACAD
1000
MTEXTBEGIN
1070
    73
1070
     1
1070
    44
1040
1.0
1070
    74
1070
     0
1000
MTEXTEND
1000
MTEXTBEGIN
1070
    73
1070
     1
1070
    44
1040
1.0
1070
    74
1070
     0
1000
MTEXTEND
1000
MTEXTBEGIN
1070
    73
1070
     1
1070
    44
1040
1.0
1070
    74
1070
     0
1000
MTEXTEND
  0
POINT
  5
3C2
330
3BB
100
AcDbEntity
  8
DEFPOINTS
 62
     0
100
AcDbPoint
 10
129.0372245920589
 20
269.1015034492429
 30
0.0
  0
POINT
  5
3C3
330
3BB
100
AcDbEntity
  8
DEFPOINTS
 62
     0
100
AcDbPoint
 10
150.0372245920589
 20
309.4515034492441
 30
0.0
  0
POINT
  5
3C4
330
3BB
100
AcDbEntity
  8
DEFPOINTS
 62
     0
100
AcDbPoint
 10
150.0372245920589
 20
332.0167830133631
 30
0.0
  0
ENDBLK
  5
3C6
330
3BB
100
AcDbEntity
  8
0
100
AcDbBlockEnd
  0
BLOCK
  5
3D1
330
3C7
100
AcDbEntity
  8
0
100
AcDbBlockBegin
  2
*D39
 70
     1
 10
0.0
 20
0.0
 30
0.0
  3
*D39
  1

  0
LINE
  5
3C8
330
3C7
100
AcDbEntity
  8
0
 62
   123
100
AcDbLine
 10
147.0372245920589
 20
305.9515034492441
 30
0.0
 11
113.4308098147488
 21
305.9515034492441
 31
0.0
  0
LINE
  5
3C9
330
3C7
100
AcDbEntity
  8
0
 62
   123
100
AcDbLine
 10
147.0372245920589
 20
222.9515034492433
 30
0.0
 11
113.4308098147488
 21
222.9515034492433
 31
0.0
  0
LINE
  5
3CA
330
3C7
100
AcDbEntity
  8
0
 62
   123
100
AcDbLine
 10
114.0308098147488
 20
303.4515034492441
 30
0.0
 11
114.0308098147488
 21
225.4515034492433
 31
0.0
  0
SOLID
  5
3CB
330
3C7
100
AcDbEntity
  8
0
 62
   123
100
AcDbTrace
 10
113.6141431480822
 20
303.4515034492441
 30
0.0
 11
114.4474764814155
 21
303.4515034492441
 31
0.0
 12
114.0308098147488
 22
305.9515034492441
 32
0.0
 13
114.0308098147488
 23
305.9515034492441
 33
0.0
  0
SOLID
  5
3CC
330
3C7
100
AcDbEntity
  8
0
 62
   123
100
AcDbTrace
 10
113.6141431480822
 20
225.4515034492433
 30
0.0
 11
114.4474764814155
 21
225.4515034492433
 31
0.0
 12
114.0308098147488
 22
222.9515034492433
 32
0.0
 13
114.0308098147488
 23
222.9515034492433
 33
0.0
  0
MTEXT
  5
3CD
330
3C7
100
AcDbEntity
  8
0
 62
     3
100
AcDbMText
 10
110.0806598147487
 20
266.7460910049431
 30
0.0
 40
3.0
 41
0.0
 71
     5
 72
     1
  1
\A1;\A1;{\f??|b0|i0|c0|p49;%%c83\H0.7x;\S+0^ -0.035;\H1.429x;(h7)}
 11
0.0000000000000001
 21
1.0
 31
0.0
1001
ACAD
1000
MTEXTBEGIN
1070
    73
1070
     1
1070
    44
1040
1.0
1070
    74
1070
     0
1000
MTEXTEND
1000
MTEXTBEGIN
1070
    73
1070
     1
1070
    44
1040
1.0
1070
    74
1070
     0
1000
MTEXTEND
1000
MTEXTBEGIN
1070
    73
1070
     1
1070
    44
1040
1.0
1070
    74
1070
     0
1000
MTEXTEND
  0
POINT
  5
3CE
330
3C7
100
AcDbEntity
  8
DEFPOINTS
 62
     0
100
AcDbPoint
 10
148.0372245920589
 20
305.9515034492441
 30
0.0
  0
POINT
  5
3CF
330
3C7
100
AcDbEntity
  8
DEFPOINTS
 62
     0
100
AcDbPoint
 10
148.0372245920589
 20
222.9515034492433
 30
0.0
  0
POINT
  5
3D0
330
3C7
100
AcDbEntity
  8
DEFPOINTS
 62
     0
100
AcDbPoint
 10
114.0308098147488
 20
222.9515034492433
 30
0.0
  0
ENDBLK
  5
3D2
330
3C7
100
AcDbEntity
  8
0
100
AcDbBlockEnd
  0
BLOCK
  5
3DD
330
3D3
100
AcDbEntity
  8
0
100
AcDbBlockBegin
  2
*D40
 70
     1
 10
0.0
 20
0.0
 30
0.0
  3
*D40
  1

  0
LINE
  5
3D4
330
3D3
100
AcDbEntity
  8
0
 62
   123
100
AcDbLine
 10
2.031328046799897
 20
305.9807394532531
 30
0.0
 11
2.031328046799898
 21
323.2259658549073
 31
0.0
  0
LINE
  5
3D5
330
3D3
100
AcDbEntity
  8
0
 62
   123
100
AcDbLine
 10
92.03132804679993
 20
305.9807394532545
 30
0.0
 11
92.03132804679993
 21
323.2259658549073
 31
0.0
  0
LINE
  5
3D6
330
3D3
100
AcDbEntity
  8
0
 62
   123
100
AcDbLine
 10
4.5313280467999
 20
322.6259658549074
 30
0.0
 11
89.53132804679993
 21
322.6259658549074
 31
0.0
  0
SOLID
  5
3D7
330
3D3
100
AcDbEntity
  8
0
 62
   123
100
AcDbTrace
 10
4.5313280467999
 20
323.0426325215741
 30
0.0
 11
4.5313280467999
 21
322.2092991882407
 31
0.0
 12
2.031328046799898
 22
322.6259658549074
 32
0.0
 13
2.031328046799898
 23
322.6259658549074
 33
0.0
  0
SOLID
  5
3D8
330
3D3
100
AcDbEntity
  8
0
 62
   123
100
AcDbTrace
 10
89.53132804679993
 20
323.0426325215741
 30
0.0
 11
89.53132804679993
 21
322.2092991882407
 31
0.0
 12
92.03132804679993
 22
322.6259658549074
 32
0.0
 13
92.03132804679993
 23
322.6259658549074
 33
0.0
  0
MTEXT
  5
3D9
330
3D3
100
AcDbEntity
  8
0
 62
     3
100
AcDbMText
 10
47.0313280467999
 20
325.1259658549074
 30
0.0
 40
3.0
 41
0.0
 71
     5
 72
     1
  1
\A1;90
1001
ACAD
1000
MTEXTBEGIN
1070
    73
1070
     1
1070
    44
1040
1.0
1070
    74
1070
     0
1000
MTEXTEND
1000
MTEXTBEGIN
1070
    73
1070
     1
1070
    44
1040
1.0
1070
    74
1070
     0
1000
MTEXTEND
1000
MTEXTBEGIN
1070
    73
1070
     1
1070
    44
1040
1.0
1070
    74
1070
     0
1000
MTEXTEND
  0
POINT
  5
3DA
330
3D3
100
AcDbEntity
  8
DEFPOINTS
 62
     0
100
AcDbPoint
 10
2.031328046799897
 20
304.9807394532531
 30
0.0
  0
POINT
  5
3DB
330
3D3
100
AcDbEntity
  8
DEFPOINTS
 62
     0
100
AcDbPoint
 10
92.03132804679993
 20
304.9807394532545
 30
0.0
  0
POINT
  5
3DC
330
3D3
100
AcDbEntity
  8
DEFPOINTS
 62
     0
100
AcDbPoint
 10
92.03132804679993
 20
322.6259658549074
 30
0.0
  0
ENDBLK
  5
3DE
330
3D3
100
AcDbEntity
  8
0
100
AcDbBlockEnd
  0
BLOCK
  5
3EB
330
3DF
100
AcDbEntity
  8
0
100
AcDbBlockBegin
  2
*D41
 70
     1
 10
0.0
 20
0.0
 30
0.0
  3
*D41
  1

  0
LINE
  5
3E0
330
3DF
100
AcDbEntity
  8
0
 62
   123
100
AcDbLine
 10
148.0372245920589
 20
306.9515034492441
 30
0.0
 11
148.0372245920589
 21
322.083248207785
 31
0.0
  0
LINE
  5
3E1
330
3DF
100
AcDbEntity
  8
0
 62
   123
100
AcDbLine
 10
150.0372245920589
 20
310.4515034492441
 30
0.0
 11
150.0372245920589
 21
322.083248207785
 31
0.0
  0
LINE
  5
3E2
330
3DF
100
AcDbEntity
  8
0
 62
   123
100
AcDbLine
 10
152.5372245920589
 20
321.4832482077848
 30
0.0
 11
155.0372245920589
 21
321.4832482077848
 31
0.0
  0
LINE
  5
3E3
330
3DF
100
AcDbEntity
  8
0
 62
   123
100
AcDbLine
 10
145.5372245920589
 20
321.4832482077848
 30
0.0
 11
139.0372245920589
 21
321.4832482077848
 31
0.0
  0
LINE
  5
3E4
330
3DF
100
AcDbEntity
  8
0
 62
   123
100
AcDbLine
 10
150.0372245920589
 20
321.4832482077848
 30
0.0
 11
148.0372245920589
 21
321.4832482077848
 31
0.0
  0
SOLID
  5
3E5
330
3DF
100
AcDbEntity
  8
0
 62
   123
100
AcDbTrace
 10
152.5372245920589
 20
321.8999148744515
 30
0.0
 11
152.5372245920589
 21
321.0665815411183
 31
0.0
 12
150.0372245920589
 22
321.4832482077848
 32
0.0
 13
150.0372245920589
 23
321.4832482077848
 33
0.0
  0
SOLID
  5
3E6
330
3DF
100
AcDbEntity
  8
0
 62
   123
100
AcDbTrace
 10
145.5372245920589
 20
321.8999148744515
 30
0.0
 11
145.5372245920589
 21
321.0665815411183
 31
0.0
 12
148.0372245920589
 22
321.4832482077848
 32
0.0
 13
148.0372245920589
 23
321.4832482077848
 33
0.0
  0
MTEXT
  5
3E7
330
3DF
100
AcDbEntity
  8
0
 62
     3
100
AcDbMText
 10
141.0372245920589
 20
323.9832482077848
 30
0.0
 40
3.0
 41
0.0
 71
     5
 72
     1
  1
\A1;2
1001
ACAD
1000
MTEXTBEGIN
1070
    73
1070
     1
1070
    44
1040
1.0
1070
    74
1070
     0
1000
MTEXTEND
1000
MTEXTBEGIN
1070
    73
1070
     1
1070
    44
1040
1.0
1070
    74
1070
     0
1000
MTEXTEND
1000
MTEXTBEGIN
1070
    73
1070
     1
1070
    44
1040
1.0
1070
    74
1070
     0
1000
MTEXTEND
  0
POINT
  5
3E8
330
3DF
100
AcDbEntity
  8
DEFPOINTS
 62
     0
100
AcDbPoint
 10
148.0372245920589
 20
305.9515034492441
 30
0.0
  0
POINT
  5
3E9
330
3DF
100
AcDbEntity
  8
DEFPOINTS
 62
     0
100
AcDbPoint
 10
150.0372245920589
 20
309.4515034492441
 30
0.0
  0
POINT
  5
3EA
330
3DF
100
AcDbEntity
  8
DEFPOINTS
 62
     0
100
AcDbPoint
 10
150.0372245920589
 20
321.4832482077848
 30
0.0
  0
ENDBLK
  5
3EC
330
3DF
100
AcDbEntity
  8
0
100
AcDbBlockEnd
  0
BLOCK
  5
3F7
330
3ED
100
AcDbEntity
  8
0
100
AcDbBlockBegin
  2
*D42
 70
     1
 10
0.0
 20
0.0
 30
0.0
  3
*D42
  1

  0
LINE
  5
3EE
330
3ED
100
AcDbEntity
  8
0
 62
   123
100
AcDbLine
 10
150.0372245920589
 20
309.6598367825781
 30
0.0
 11
150.0372245920589
 21
322.083248207785
 31
0.0
  0
LINE
  5
3EF
330
3ED
100
AcDbEntity
  8
0
 62
   123
100
AcDbLine
 10
157.5372245920589
 20
309.050240790772
 30
0.0
 11
157.5372245920589
 21
322.083248207785
 31
0.0
  0
LINE
  5
3F0
330
3ED
100
AcDbEntity
  8
0
 62
   123
100
AcDbLine
 10
152.5372245920589
 20
321.4832482077848
 30
0.0
 11
155.0372245920589
 21
321.4832482077848
 31
0.0
  0
SOLID
  5
3F1
330
3ED
100
AcDbEntity
  8
0
 62
   123
100
AcDbTrace
 10
152.5372245920589
 20
321.8999148744515
 30
0.0
 11
152.5372245920589
 21
321.0665815411183
 31
0.0
 12
150.0372245920589
 22
321.4832482077848
 32
0.0
 13
150.0372245920589
 23
321.4832482077848
 33
0.0
  0
SOLID
  5
3F2
330
3ED
100
AcDbEntity
  8
0
 62
   123
100
AcDbTrace
 10
155.0372245920589
 20
321.8999148744515
 30
0.0
 11
155.0372245920589
 21
321.0665815411183
 31
0.0
 12
157.5372245920589
 22
321.4832482077848
 32
0.0
 13
157.5372245920589
 23
321.4832482077848
 33
0.0
  0
MTEXT
  5
3F3
330
3ED
100
AcDbEntity
  8
0
 62
     3
100
AcDbMText
 10
153.7872245920589
 20
323.9832482077848
 30
0.0
 40
3.0
 41
0.0
 71
     5
 72
     1
  1
\A1;7.5
1001
ACAD
1000
MTEXTBEGIN
1070
    73
1070
     1
1070
    44
1040
1.0
1070
    74
1070
     0
1000
MTEXTEND
1000
MTEXTBEGIN
1070
    73
1070
     1
1070
    44
1040
1.0
1070
    74
1070
     0
1000
MTEXTEND
1000
MTEXTBEGIN
1070
    73
1070
     1
1070
    44
1040
1.0
1070
    74
1070
     0
1000
MTEXTEND
  0
POINT
  5
3F4
330
3ED
100
AcDbEntity
  8
DEFPOINTS
 62
     0
100
AcDbPoint
 10
150.0372245920589
 20
308.6598367825781
 30
0.0
  0
POINT
  5
3F5
330
3ED
100
AcDbEntity
  8
DEFPOINTS
 62
     0
100
AcDbPoint
 10
157.5372245920589
 20
308.050240790772
 30
0.0
  0
POINT
  5
3F6
330
3ED
100
AcDbEntity
  8
DEFPOINTS
 62
     0
100
AcDbPoint
 10
157.5372245920589
 20
321.4832482077848
 30
0.0
  0
ENDBLK
  5
3F8
330
3ED
100
AcDbEntity
  8
0
100
AcDbBlockEnd
  0
BLOCK
  5
403
330
3F9
100
AcDbEntity
  8
0
100
AcDbBlockBegin
  2
*D43
 70
     1
 10
0.0
 20
0.0
 30
0.0
  3
*D43
  1

  0
LINE
  5
3FA
330
3F9
100
AcDbEntity
  8
0
 62
   123
100
AcDbLine
 10
310.1229534476497
 20
103.8905112372084
 30
0.0
 11
310.1229534476497
 21
129.3057908013284
 31
0.0
  0
LINE
  5
3FB
330
3F9
100
AcDbEntity
  8
0
 62
   123
100
AcDbLine
 10
320.1229534476388
 20
84.64051123720855
 30
0.0
 11
320.1229534476388
 21
129.3057908013284
 31
0.0
  0
LINE
  5
3FC
330
3F9
100
AcDbEntity
  8
0
 62
   123
100
AcDbLine
 10
312.6229534476497
 20
128.7057908013284
 30
0.0
 11
317.6229534476386
 21
128.7057908013284
 31
0.0
  0
SOLID
  5
3FD
330
3F9
100
AcDbEntity
  8
0
 62
   123
100
AcDbTrace
 10
312.6229534476497
 20
129.1224574679949
 30
0.0
 11
312.6229534476497
 21
128.2891241346618
 31
0.0
 12
310.1229534476497
 22
128.7057908013284
 32
0.0
 13
310.1229534476497
 23
128.7057908013284
 33
0.0
  0
SOLID
  5
3FE
330
3F9
100
AcDbEntity
  8
0
 62
   123
100
AcDbTrace
 10
317.6229534476386
 20
129.1224574679949
 30
0.0
 11
317.6229534476386
 21
128.2891241346618
 31
0.0
 12
320.1229534476388
 22
128.7057908013284
 32
0.0
 13
320.1229534476388
 23
128.7057908013284
 33
0.0
  0
MTEXT
  5
3FF
330
3F9
100
AcDbEntity
  8
0
 62
     3
100
AcDbMText
 10
315.1229534476386
 20
131.2057908013284
 30
0.0
 40
3.0
 41
0.0
 71
     5
 72
     1
  1
\A1;10
1001
ACAD
1000
MTEXTBEGIN
1070
    73
1070
     1
1070
    44
1040
1.0
1070
    74
1070
     0
1000
MTEXTEND
1000
MTEXTBEGIN
1070
    73
1070
     1
1070
    44
1040
1.0
1070
    74
1070
     0
1000
MTEXTEND
1000
MTEXTBEGIN
1070
    73
1070
     1
1070
    44
1040
1.0
1070
    74
1070
     0
1000
MTEXTEND
  0
POINT
  5
400
330
3F9
100
AcDbEntity
  8
DEFPOINTS
 62
     0
100
AcDbPoint
 10
310.1229534476497
 20
102.8905112372084
 30
0.0
  0
POINT
  5
401
330
3F9
100
AcDbEntity
  8
DEFPOINTS
 62
     0
100
AcDbPoint
 10
320.1229534476388
 20
83.64051123720853
 30
0.0
  0
POINT
  5
402
330
3F9
100
AcDbEntity
  8
DEFPOINTS
 62
     0
100
AcDbPoint
 10
320.1229534476388
 20
128.7057908013284
 30
0.0
  0
ENDBLK
  5
404
330
3F9
100
AcDbEntity
  8
0
100
AcDbBlockEnd
  0
BLOCK
  5
40F
330
405
100
AcDbEntity
  8
0
100
AcDbBlockBegin
  2
*D44
 70
     1
 10
0.0
 20
0.0
 30
0.0
  3
*D44
  1

  0
LINE
  5
406
330
405
100
AcDbEntity
  8
0
 62
   123
100
AcDbLine
 10
320.1229534476388
 20
84.64051123720855
 30
0.0
 11
333.4405298331688
 21
84.64051123720855
 31
0.0
  0
LINE
  5
407
330
405
100
AcDbEntity
  8
0
 62
   123
100
AcDbLine
 10
320.1229534476388
 20
37.64051123720856
 30
0.0
 11
333.4405298331688
 21
37.64051123720856
 31
0.0
  0
LINE
  5
408
330
405
100
AcDbEntity
  8
0
 62
   123
100
AcDbLine
 10
332.840529833169
 20
82.14051123720855
 30
0.0
 11
332.840529833169
 21
40.14051123720856
 31
0.0
  0
SOLID
  5
409
330
405
100
AcDbEntity
  8
0
 62
   123
100
AcDbTrace
 10
332.4238631665023
 20
82.14051123720855
 30
0.0
 11
333.2571964998356
 21
82.14051123720855
 31
0.0
 12
332.840529833169
 22
84.64051123720855
 32
0.0
 13
332.840529833169
 23
84.64051123720855
 33
0.0
  0
SOLID
  5
40A
330
405
100
AcDbEntity
  8
0
 62
   123
100
AcDbTrace
 10
332.4238631665023
 20
40.14051123720856
 30
0.0
 11
333.2571964998356
 21
40.14051123720856
 31
0.0
 12
332.840529833169
 22
37.64051123720856
 32
0.0
 13
332.840529833169
 23
37.64051123720856
 33
0.0
  0
MTEXT
  5
40B
330
405
100
AcDbEntity
  8
0
 62
     3
100
AcDbMText
 10
330.340529833169
 20
59.60004641613521
 30
0.0
 40
3.0
 41
0.0
 71
     5
 72
     1
  1
\A1;%%c47
 11
0.0000000000000001
 21
1.0
 31
0.0
1001
ACAD
1000
MTEXTBEGIN
1070
    73
1070
     1
1070
    44
1040
1.0
1070
    74
1070
     0
1000
MTEXTEND
1000
MTEXTBEGIN
1070
    73
1070
     1
1070
    44
1040
1.0
1070
    74
1070
     0
1000
MTEXTEND
1000
MTEXTBEGIN
1070
    73
1070
     1
1070
    44
1040
1.0
1070
    74
1070
     0
1000
MTEXTEND
  0
POINT
  5
40C
330
405
100
AcDbEntity
  8
DEFPOINTS
 62
     0
100
AcDbPoint
 10
319.1229534476387
 20
84.64051123720855
 30
0.0
  0
POINT
  5
40D
330
405
100
AcDbEntity
  8
DEFPOINTS
 62
     0
100
AcDbPoint
 10
319.1229534476387
 20
37.64051123720856
 30
0.0
  0
POINT
  5
40E
330
405
100
AcDbEntity
  8
DEFPOINTS
 62
     0
100
AcDbPoint
 10
332.840529833169
 20
37.64051123720856
 30
0.0
  0
ENDBLK
  5
410
330
405
100
AcDbEntity
  8
0
100
AcDbBlockEnd
  0
BLOCK
  5
41B
330
411
100
AcDbEntity
  8
0
100
AcDbBlockBegin
  2
*D45
 70
     1
 10
0.0
 20
0.0
 30
0.0
  3
*D45
  1

  0
LINE
  5
412
330
411
100
AcDbEntity
  8
0
 62
   123
100
AcDbLine
 10
300.0372245920698
 20
307.2015034492433
 30
0.0
 11
300.0372245920698
 21
332.6167830133631
 31
0.0
  0
LINE
  5
413
330
411
100
AcDbEntity
  8
0
 62
   123
100
AcDbLine
 10
310.0372245920698
 20
287.9515034492433
 30
0.0
 11
310.0372245920698
 21
332.6167830133631
 31
0.0
  0
LINE
  5
414
330
411
100
AcDbEntity
  8
0
 62
   123
100
AcDbLine
 10
302.5372245920698
 20
332.0167830133631
 30
0.0
 11
307.5372245920698
 21
332.0167830133631
 31
0.0
  0
SOLID
  5
415
330
411
100
AcDbEntity
  8
0
 62
   123
100
AcDbTrace
 10
302.5372245920698
 20
332.4334496800298
 30
0.0
 11
302.5372245920698
 21
331.6001163466963
 31
0.0
 12
300.0372245920698
 22
332.0167830133631
 32
0.0
 13
300.0372245920698
 23
332.0167830133631
 33
0.0
  0
SOLID
  5
416
330
411
100
AcDbEntity
  8
0
 62
   123
100
AcDbTrace
 10
307.5372245920698
 20
332.4334496800298
 30
0.0
 11
307.5372245920698
 21
331.6001163466963
 31
0.0
 12
310.0372245920698
 22
332.0167830133631
 32
0.0
 13
310.0372245920698
 23
332.0167830133631
 33
0.0
  0
MTEXT
  5
417
330
411
100
AcDbEntity
  8
0
 62
     3
100
AcDbMText
 10
305.0372245920588
 20
334.5167830133632
 30
0.0
 40
3.0
 41
0.0
 71
     5
 72
     1
  1
\A1;10
1001
ACAD
1000
MTEXTBEGIN
1070
    73
1070
     1
1070
    44
1040
1.0
1070
    74
1070
     0
1000
MTEXTEND
1000
MTEXTBEGIN
1070
    73
1070
     1
1070
    44
1040
1.0
1070
    74
1070
     0
1000
MTEXTEND
1000
MTEXTBEGIN
1070
    73
1070
     1
1070
    44
1040
1.0
1070
    74
1070
     0
1000
MTEXTEND
  0
POINT
  5
418
330
411
100
AcDbEntity
  8
DEFPOINTS
 62
     0
100
AcDbPoint
 10
300.0372245920698
 20
306.2015034492433
 30
0.0
  0
POINT
  5
419
330
411
100
AcDbEntity
  8
DEFPOINTS
 62
     0
100
AcDbPoint
 10
310.0372245920698
 20
286.9515034492433
 30
0.0
  0
POINT
  5
41A
330
411
100
AcDbEntity
  8
DEFPOINTS
 62
     0
100
AcDbPoint
 10
310.0372245920698
 20
332.0167830133631
 30
0.0
  0
ENDBLK
  5
41C
330
411
100
AcDbEntity
  8
0
100
AcDbBlockEnd
  0
BLOCK
  5
427
330
41D
100
AcDbEntity
  8
0
100
AcDbBlockBegin
  2
*D46
 70
     1
 10
0.0
 20
0.0
 30
0.0
  3
*D46
  1

  0
LINE
  5
41E
330
41D
100
AcDbEntity
  8
0
 62
   123
100
AcDbLine
 10
299.5372245920588
 20
307.7015034492441
 30
0.0
 11
331.0628269605601
 21
307.7015034492441
 31
0.0
  0
LINE
  5
41F
330
41D
100
AcDbEntity
  8
0
 62
   123
100
AcDbLine
 10
299.5372245920588
 20
221.201503449244
 30
0.0
 11
331.0628269605601
 21
221.201503449244
 31
0.0
  0
LINE
  5
420
330
41D
100
AcDbEntity
  8
0
 62
   123
100
AcDbLine
 10
330.4628269605601
 20
305.2015034492441
 30
0.0
 11
330.4628269605601
 21
223.7015034492442
 31
0.0
  0
SOLID
  5
421
330
41D
100
AcDbEntity
  8
0
 62
   123
100
AcDbTrace
 10
330.0461602938933
 20
305.2015034492441
 30
0.0
 11
330.8794936272267
 21
305.2015034492441
 31
0.0
 12
330.4628269605601
 22
307.7015034492441
 32
0.0
 13
330.4628269605601
 23
307.7015034492441
 33
0.0
  0
SOLID
  5
422
330
41D
100
AcDbEntity
  8
0
 62
   123
100
AcDbTrace
 10
330.0461602938933
 20
223.7015034492442
 30
0.0
 11
330.8794936272267
 21
223.7015034492442
 31
0.0
 12
330.4628269605601
 22
221.201503449244
 32
0.0
 13
330.4628269605601
 23
221.201503449244
 33
0.0
  0
MTEXT
  5
423
330
41D
100
AcDbEntity
  8
0
 62
     3
100
AcDbMText
 10
327.9628269605598
 20
263.8338658887969
 30
0.0
 40
3.0
 41
0.0
 71
     5
 72
     1
  1
\A1;%%C86.5
 11
0.0000000000000001
 21
1.0
 31
0.0
1001
ACAD
1000
MTEXTBEGIN
1070
    73
1070
     1
1070
    44
1040
1.0
1070
    74
1070
     0
1000
MTEXTEND
1000
MTEXTBEGIN
1070
    73
1070
     1
1070
    44
1040
1.0
1070
    74
1070
     0
1000
MTEXTEND
1000
MTEXTBEGIN
1070
    73
1070
     1
1070
    44
1040
1.0
1070
    74
1070
     0
1000
MTEXTEND
  0
POINT
  5
424
330
41D
100
AcDbEntity
  8
DEFPOINTS
 62
     0
100
AcDbPoint
 10
298.5372245920588
 20
307.7015034492441
 30
0.0
  0
POINT
  5
425
330
41D
100
AcDbEntity
  8
DEFPOINTS
 62
     0
100
AcDbPoint
 10
298.5372245920588
 20
221.201503449244
 30
0.0
  0
POINT
  5
426
330
41D
100
AcDbEntity
  8
DEFPOINTS
 62
     0
100
AcDbPoint
 10
330.4628269605601
 20
221.201503449244
 30
0.0
  0
ENDBLK
  5
428
330
41D
100
AcDbEntity
  8
0
100
AcDbBlockEnd
  0
BLOCK
  5
433
330
429
100
AcDbEntity
  8
0
100
AcDbBlockBegin
  2
*D47
 70
     1
 10
0.0
 20
0.0
 30
0.0
  3
*D47
  1

  0
LINE
  5
435
330
429
100
AcDbEntity
  8
0
 62
   123
100
AcDbLine
 10
310.0372245920588
 20
287.9515034492433
 30
0.0
 11
323.3548009775891
 21
287.9515034492433
 31
0.0
  0
LINE
  5
436
330
429
100
AcDbEntity
  8
0
 62
   123
100
AcDbLine
 10
310.0372245920588
 20
240.9515034492424
 30
0.0
 11
323.3548009775891
 21
240.9515034492423
 31
0.0
  0
LINE
  5
437
330
429
100
AcDbEntity
  8
0
 62
   123
100
AcDbLine
 10
322.7548009775891
 20
285.4515034492433
 30
0.0
 11
322.7548009775891
 21
243.4515034492423
 31
0.0
  0
SOLID
  5
438
330
429
100
AcDbEntity
  8
0
 62
   123
100
AcDbTrace
 10
322.3381343109223
 20
285.4515034492433
 30
0.0
 11
323.1714676442558
 21
285.4515034492433
 31
0.0
 12
322.7548009775891
 22
287.9515034492433
 32
0.0
 13
322.7548009775891
 23
287.9515034492433
 33
0.0
  0
SOLID
  5
439
330
429
100
AcDbEntity
  8
0
 62
   123
100
AcDbTrace
 10
322.3381343109223
 20
243.4515034492423
 30
0.0
 11
323.1714676442558
 21
243.4515034492423
 31
0.0
 12
322.7548009775891
 22
240.9515034492423
 32
0.0
 13
322.7548009775891
 23
240.9515034492423
 33
0.0
  0
MTEXT
  5
43A
330
429
100
AcDbEntity
  8
0
 62
     3
100
AcDbMText
 10
320.2548009775891
 20
262.9110386281689
 30
0.0
 40
3.0
 41
0.0
 71
     5
 72
     1
  1
\A1;%%c47
 11
0.0000000000000001
 21
1.0
 31
0.0
1001
ACAD
1000
MTEXTBEGIN
1070
    73
1070
     1
1070
    44
1040
1.0
1070
    74
1070
     0
1000
MTEXTEND
1000
MTEXTBEGIN
1070
    73
1070
     1
1070
    44
1040
1.0
1070
    74
1070
     0
1000
MTEXTEND
1000
MTEXTBEGIN
1070
    73
1070
     1
1070
    44
1040
1.0
1070
    74
1070
     0
1000
MTEXTEND
  0
POINT
  5
43B
330
429
100
AcDbEntity
  8
DEFPOINTS
 62
     0
100
AcDbPoint
 10
309.0372245920588
 20
287.9515034492433
 30
0.0
  0
POINT
  5
43C
330
429
100
AcDbEntity
  8
DEFPOINTS
 62
     0
100
AcDbPoint
 10
309.0372245920588
 20
240.9515034492424
 30
0.0
  0
POINT
  5
43D
330
429
100
AcDbEntity
  8
DEFPOINTS
 62
     0
100
AcDbPoint
 10
322.7548009775891
 20
240.9515034492423
 30
0.0
  0
ENDBLK
  5
434
330
429
100
AcDbEntity
  8
0
100
AcDbBlockEnd
  0
ENDSEC
  0
SECTION
  2
ENTITIES
  0
LINE
  5
9D
330
2
100
AcDbEntity
  8
0
100
AcDbLine
 10
258.1229534476388
 20
106.540511237209
 30
0.0
 11
258.1229534476388
 21
15.74051123720892
 31
0.0
  0
LINE
  5
9E
330
2
100
AcDbEntity
  8
0
100
AcDbLine
 10
258.1229534476388
 20
16.64051123720855
 30
0.0
 11
258.1229534476388
 21
105.6405112372085
 31
0.0
  0
LINE
  5
9F
330
2
100
AcDbEntity
  8
0
100
AcDbLine
 10
258.1229534476388
 20
105.6405112372085
 30
0.0
 11
258.1229534476497
 21
16.64051123720855
 31
0.0
  0
LINE
  5
A0
102
{ACAD_REACTORS
330
A6
102
}
330
2
100
AcDbEntity
  8
0
100
AcDbLine
 10
158.1229534476388
 20
102.6405112372084
 30
0.0
 11
158.1229534476388
 21
19.64051123720855
 31
0.0
  0
LINE
  5
A1
330
2
100
AcDbEntity
  8
0
100
AcDbLine
 10
167.6229534476386
 20
25.24177389568012
 30
0.0
 11
167.6229534476386
 21
17.5417738956803
 31
0.0
  0
LINE
  5
A2
330
2
100
AcDbEntity
  8
0
100
AcDbLine
 10
166.722953447639
 20
106.1405112372101
 30
0.0
 11
166.722953447639
 21
16.14051123720853
 31
0.0
  0
LINE
  5
A3
330
2
100
AcDbEntity
  8
0
100
AcDbLine
 10
160.1229534476388
 20
106.1405112372085
 30
0.0
 11
160.1229534476388
 21
16.14051123720853
 31
0.0
  0
DIMENSION
  5
A4
102
{ACAD_XDICTIONARY
360
A5
102
}
102
{ACAD_REACTORS
330
A6
102
}
330
2
100
AcDbEntity
  8
0
100
AcDbDimension
  2
*D27
 10
87.03963413103883
 20
19.64051123720857
 30
0.0
 11
87.03963413103883
 21
63.43509879290923
 31
0.0
 70
   160
  1
\A1;{\f??|b0|i0|c0|p49;%%c83\H0.7x;\S+0^ -0.035;\H1.429x;(h7)}
  3
STANDARD
100
AcDbAlignedDimension
 13
158.1229534476388
 23
102.6405112372084
 33
0.0
 14
158.1229534476388
 24
19.64051123720855
 34
0.0
 50
90.0
100
AcDbRotatedDimension
  0
LINE
  5
B5
330
2
100
AcDbEntity
  8
0
100
AcDbLine
 10
312.6229534476497
 20
35.84051123720836
 30
0.0
 11
312.6229534476497
 21
16.79798846149878
 31
0.0
  0
LINE
  5
B6
330
2
100
AcDbEntity
  8
0
100
AcDbLine
 10
317.6229534476497
 20
35.84051123720836
 30
0.0
 11
317.6229534476497
 21
14.79798846149606
 31
0.0
  0
DIMENSION
  5
B7
102
{ACAD_XDICTIONARY
360
B8
102
}
102
{ACAD_REACTORS
330
B9
102
}
330
2
100
AcDbEntity
  8
0
100
AcDbDimension
  2
*D26
 10
340.5485558161398
 20
17.89051123720853
 30
0.0
 11
340.5485558161398
 21
60.52287367676218
 31
0.0
 70
   160
  1
%%C<>
  3
STANDARD
100
AcDbAlignedDimension
 13
308.6229534476387
 23
104.3905112372085
 33
0.0
 14
308.6229534476387
 24
17.89051123720855
 34
0.0
 50
90.0
100
AcDbRotatedDimension
  0
LINE
  5
C6
330
2
100
AcDbEntity
  8
0
100
AcDbLine
 10
300.1229534476387
 20
104.3905112372085
 30
0.0
 11
300.1229534476387
 21
17.89051123720855
 31
0.0
  0
LINE
  5
C7
102
{ACAD_REACTORS
330
2B2
102
}
330
2
100
AcDbEntity
  8
0
100
AcDbLine
 10
310.1229534476497
 20
102.8905112372084
 30
0.0
 11
310.1229534476497
 21
19.39051123720854
 31
0.0
  0
LINE
  5
C8
330
2
100
AcDbEntity
  8
CL
 48
0.6
100
AcDbLine
 10
40.40709759501988
 20
16.71254100001533
 30
0.0
 11
21.76126961734917
 21
61.71254100001533
 31
0.0
  0
LINE
  5
CB
102
{ACAD_REACTORS
330
EF
102
}
330
2
100
AcDbEntity
  8
CL
 48
0.6
100
AcDbLine
 10
21.76126961734917
 20
8.082396236263775
 30
0.0
 11
21.76126961734917
 21
115.3426857637687
 31
0.0
  0
CIRCLE
  5
CC
330
2
100
AcDbEntity
  8
0
 48
0.6
100
AcDbCircle
 10
21.76126961734917
 20
61.71254100001533
 30
0.0
 40
42.00000000000005
  0
CIRCLE
  5
CD
330
2
100
AcDbEntity
  8
0
 48
0.6
100
AcDbCircle
 10
21.76126961734917
 20
61.71254100001533
 30
0.0
 40
43.5
  0
INSERT
  5
CE
330
2
100
AcDbEntity
  8
0
100
AcDbBlockReference
  2
4
 10
21.76126961734917
 20
61.71254100001533
 30
0.0
  0
DIMENSION
  5
ED
102
{ACAD_XDICTIONARY
360
EE
102
}
102
{ACAD_REACTORS
330
EF
102
}
330
2
100
AcDbEntity
  8
0
100
AcDbDimension
  2
*D25
 10
21.76126961734917
 20
115.3426857637687
 30
0.0
 11
35.35587893846102
 21
-6.611120028744238
 31
0.0
 70
    34
  1
<>
  3
STANDARD
100
AcDb2LineAngularDimension
 13
21.76126961734917
 23
61.71254100001533
 33
0.0
 14
40.40709759501988
 24
16.71254100001533
 34
0.0
 15
21.76126961734917
 25
8.082396236263775
 35
0.0
 16
31.22055034721749
 26
-10.11601042114972
 36
0.0
1001
ACAD
1000
DSTYLE
1002
{
1070
   271
1070
     1
1070
   179
1070
     1
1070
   271
1070
     0
1070
   271
1070
     1
1070
   271
1070
     1
1070
   271
1070
     1
1070
   271
1070
     1
1070
   271
1070
     1
1070
   271
1070
     1
1070
   271
1070
     1
1002
}
  0
LINE
  5
FE
330
2
100
AcDbEntity
  8
0
100
AcDbLine
 10
172.9254467598783
 20
13.79798846149242
 30
0.0
 11
309.6229534476388
 21
13.79798846150606
 31
0.0
  0
LINE
  5
FF
330
2
100
AcDbEntity
  8
0
100
AcDbLine
 10
176.6229534476387
 20
15.64051123720853
 30
0.0
 11
167.6229534476386
 21
15.64051123720853
 31
0.0
  0
LINE
  5
100
330
2
100
AcDbEntity
  8
0
100
AcDbLine
 10
258.1229534476497
 20
16.64051123720855
 30
0.0
 11
166.722953447639
 21
16.64051123720855
 31
0.0
  0
LWPOLYLINE
  5
101
330
2
100
AcDbEntity
  8
0
100
AcDbPolyline
 90
      467
 70
     0
 43
0.0
 10
175.1256571266358
 20
-5.72433775725119
 10
175.1278554087174
 20
-5.723262671469342
 10
175.1480996589552
 20
-5.713460570827805
 10
175.1683191243363
 20
-5.703768666957215
 10
175.1885138479565
 20
-5.694186517641241
 10
175.2086838729255
 20
-5.684713680672642
 10
175.2288292423662
 20
-5.675349713836907
 10
175.2489499993761
 20
-5.666094174926798
 10
175.2690461870761
 20
-5.656946621729615
 10
175.2891178485761
 20
-5.64790661203176
 10
175.3091650269751
 20
-5.638973703623263
 10
175.3291877654054
 20
-5.630147454295978
 10
175.349186106966
 20
-5.621427421835391
 10
175.3691600947668
 20
-5.612813164032444
 10
175.389109771916
 20
-5.604304238673534
 10
175.4090351815456
 20
-5.595900203547784
 10
175.4289363667347
 20
-5.587600616446137
 10
175.4488133706262
 20
-5.5794050351559
 10
175.4686662363064
 20
-5.571313017466195
 10
175.4884950069071
 20
-5.563324121167056
 10
175.5082997255167
 20
-5.555437904043968
 10
175.5280804352669
 20
-5.547653923889697
 10
175.5478371792678
 20
-5.539971738488816
 10
175.5675700006166
 20
-5.532390905634996
 10
175.5872789424346
 20
-5.524910983114637
 10
175.6069640478261
 20
-5.517531528713218
 10
175.6266253599159
 20
-5.510252100226237
 10
175.6462629217957
 20
-5.503072255437358
 10
175.6658767765957
 20
-5.495991552138433
 10
175.6854669674166
 20
-5.489009548116768
 10
175.7050335373759
 20
-5.482125801158757
 10
175.7245765295764
 20
-5.475339869058982
 10
175.7440959871354
 20
-5.468651309602023
 10
175.7635919531667
 20
-5.462059680577908
 10
175.7830644707764
 20
-5.455564539775763
 10
175.8025135830766
 20
-5.449165444981986
 10
175.8219393331754
 20
-5.442861953988425
 10
175.8413417641849
 20
-5.4366536245833
 10
175.8607209192259
 20
-5.430540014553911
 10
175.8800768414066
 20
-5.424520681692115
 10
175.8994095738261
 20
-5.418595183783393
 10
175.9187191596056
 20
-5.412763078616875
 10
175.9380056418675
 20
-5.4070239239835
 10
175.9572690636949
 20
-5.401377277670576
 10
175.9765094682161
 20
-5.395822697468132
 10
175.9957268985461
 20
-5.390359741162568
 10
176.0149213977955
 20
-5.384987966544826
 10
176.0340930090669
 20
-5.379706931402211
 10
176.0532417754756
 20
-5.374516193526573
 10
176.0723677401265
 20
-5.369415310703402
 10
176.0914709461458
 20
-5.364403840722728
 10
176.1105514366344
 20
-5.359481341375498
 10
176.1296092547063
 20
-5.354647370445377
 10
176.1486444434766
 20
-5.349901485724216
 10
176.1676570460466
 20
-5.34524324500296
 10
176.1866471055354
 20
-5.340672206066186
 10
176.2056146650455
 20
-5.336187926704837
 10
176.2245597676964
 20
-5.331789964709855
 10
176.2434824566051
 20
-5.327477877865816
 10
176.2623827748765
 20
-5.323251223964574
 10
176.2812607656059
 20
-5.319109560791616
 10
176.3001164719361
 20
-5.315052446142429
 10
176.3189499369554
 20
-5.311079437797046
 10
176.3377612037755
 20
-5.307190093550047
 10
176.356550315525
 20
-5.303383971188736
 10
176.3753173152954
 20
-5.299660628503146
 10
176.3940622462058
 20
-5.296019623280584
 10
176.4127851513757
 20
-5.292460513310174
 10
176.4314860739059
 20
-5.288982856381949
 10
176.4501650569063
 20
-5.285586210282302
 10
176.4688221434961
 20
-5.282270132801271
 10
176.4874573767765
 20
-5.279034181727068
 10
176.5060707998754
 20
-5.275877914851547
 10
176.5246624558866
 20
-5.272800889959284
 10
176.5432323879349
 20
-5.269802664840311
 10
176.5617806391173
 20
-5.266882797285574
 10
176.580307252555
 20
-5.264040845081466
 10
176.598812271367
 20
-5.261276366019841
 10
176.6172957386451
 20
-5.258588917884367
 10
176.6357576975051
 20
-5.255978058468713
 10
176.6541981910767
 20
-5.253443345560184
 10
176.6726172624466
 20
-5.250984336946088
 10
176.6910149547465
 20
-5.248600590414638
 10
176.7093913110756
 20
-5.246291663758596
 10
176.7277463745475
 20
-5.244057114765268
 10
176.746080188276
 20
-5.241896501223777
 10
176.7643927953677
 20
-5.2398093809187
 10
176.7826842389358
 20
-5.237795311643707
 10
176.8009545620961
 20
-5.235853851187016
 10
176.8192038079569
 20
-5.233984557335019
 10
176.8374320196262
 20
-5.232186987877752
 10
176.8556392402159
 20
-5.230460700605248
 10
176.8738255128454
 20
-5.228805253305721
 10
176.8919908806174
 20
-5.227220203765566
 10
176.9101353866471
 20
-5.225705109775731
 10
176.9282590740357
 20
-5.224259529126243
 10
176.946361985906
 20
-5.222883019603499
 10
176.9644441653754
 20
-5.221575138996626
 10
176.9825056555355
 20
-5.220335445097474
 10
177.0005464995164
 20
-5.219163495692441
 10
177.0185667404175
 20
-5.21805884856792
 10
177.0365664213558
 20
-5.217021061516674
 10
177.054545585447
 20
-5.216049692325099
 10
177.0725042757849
 20
-5.215144298785047
 10
177.0904425354956
 20
-5.214304438682915
 10
177.1083604076856
 20
-5.213529669806916
 10
177.1262579354669
 20
-5.212819549946174
 10
177.144135161955
 20
-5.212173636890724
 10
177.1619921302562
 20
-5.21159148842878
 10
177.1798288834769
 20
-5.211072662351283
 10
177.1976454647365
 20
-5.210616716441903
 10
177.2154419171464
 20
-5.210223208491583
 10
177.2332182838171
 20
-5.209891696292173
 10
177.2509746078566
 20
-5.209621737630981
 10
177.2687109323769
 20
-5.209412890294401
 10
177.286427300497
 20
-5.209264712074286
 10
177.3041237553178
 20
-5.209176760757941
 10
177.3218003399459
 20
-5.20914859413267
 10
177.3394570975059
 20
-5.209179769991237
 10
177.357094071106
 20
-5.209269846119126
 10
177.3747113038561
 20
-5.209418380307283
 10
177.3923088388664
 20
-5.209624930340281
 10
177.4098867192469
 20
-5.209889054014523
 10
177.4274449881168
 20
-5.210210309111856
 10
177.444983688566
 20
-5.210588253425043
 10
177.4625028637355
 20
-5.211022444740478
 10
177.4800025567174
 20
-5.211512440848195
 10
177.497482810625
 20
-5.212057799536409
 10
177.514943668576
 20
-5.212658078595152
 10
177.5323851736765
 20
-5.213312835811733
 10
177.5498073690459
 20
-5.214021628974363
 10
177.5672102977759
 20
-5.214784015875807
 10
177.5845940029966
 20
-5.215599554300637
 10
177.6019585278163
 20
-5.216467802038891
 10
177.6193039153466
 20
-5.21738831688151
 10
177.6366302086852
 20
-5.218360656616709
 10
177.6539374509547
 20
-5.219384379028156
 10
177.6712256852761
 20
-5.220459041911339
 10
177.6884949547356
 20
-5.221584203050838
 10
177.7057453024763
 20
-5.222759420236683
 10
177.7229767715753
 20
-5.223984251258912
 10
177.7401894051663
 20
-5.225258253904826
 10
177.7573832463557
 20
-5.226580985965369
 10
177.7745583382557
 20
-5.227952005226939
 10
177.7917147239759
 20
-5.229370869478657
 10
177.8088524466246
 20
-5.230837136509648
 10
177.8259715493176
 20
-5.232350364109946
 10
177.8430720751665
 20
-5.233910110067768
 10
177.860154067276
 20
-5.235515932169504
 10
177.8772175687563
 20
-5.23716738820792
 10
177.8942626227353
 20
-5.238864035966683
 10
177.9112892723049
 20
-5.240605433243104
 10
177.9282975605974
 20
-5.242391137817207
 10
177.9452875306969
 20
-5.244220707481757
 10
177.9622592257355
 20
-5.246093700024972
 10
177.9792126888269
 20
-5.248009673235968
 10
177.9961479630555
 20
-5.249968184902058
 10
178.013065091566
 20
-5.251968792816
 10
178.0299641174451
 20
-5.254011054760552
 10
178.0468450838169
 20
-5.256094528531207
 10
178.0637080337955
 20
-5.258218771912537
 10
178.0805530104762
 20
-5.260383342694581
 10
178.0973800569854
 20
-5.262587798665548
 10
178.1141892164258
 20
-5.264831697612748
 10
178.1309805319169
 20
-5.267114597329849
 10
178.1477540465556
 20
-5.269436055600521
 10
178.1645098034667
 20
-5.271795630217525
 10
178.1812478457549
 20
-5.274192878968164
 10
178.1979682165465
 20
-5.276627359637926
 10
178.214670958926
 20
-5.279098630022303
 10
178.2313561160253
 20
-5.281606247904959
 10
178.2480237309473
 20
-5.284149771073201
 10
178.2646738468056
 20
-5.286728757323429
 10
178.2813065067065
 20
-5.289342764436582
 10
178.2979217537658
 20
-5.29199135020542
 10
178.3145196311061
 20
-5.294674072419978
 10
178.3311001818173
 20
-5.297390488865743
 10
178.3476634490169
 20
-5.300140157333657
 10
178.364209475835
 20
-5.302922635611934
 10
178.3807383053563
 20
-5.305737481488789
 10
178.397249980705
 20
-5.308584252752438
 10
178.4137445449969
 20
-5.311462507193823
 10
178.4302220413273
 20
-5.314371802600247
 10
178.4466825128246
 20
-5.317311696759928
 10
178.4631260025844
 20
-5.320281747465627
 10
178.4795525537346
 20
-5.32328151250283
 10
178.4959622093765
 20
-5.326310549658842
 10
178.5123550126271
 20
-5.329368416724605
 10
178.5287310065859
 20
-5.332454671490153
 10
178.5450902343755
 20
-5.335568871741883
 10
178.5614327391057
 20
-5.338710575269828
 10
178.5777585638852
 20
-5.341879339862201
 10
178.5940677518254
 20
-5.345074723308128
 10
178.6103603460476
 20
-5.348296283396733
 10
178.6266363896474
 20
-5.351543577917141
 10
178.6428959257363
 20
-5.354816164654834
 10
178.6591389974354
 20
-5.358113601405306
 10
178.6753656478458
 20
-5.361435445951313
 10
178.6915759200956
 20
-5.36478125608471
 10
178.7077698572766
 20
-5.3681505895928
 10
178.723947502517
 20
-5.371543004265617
 10
178.7401088989163
 20
-5.374958057888646
 10
178.7562540895859
 20
-5.378395308255561
 10
178.7723831176452
 20
-5.381854313153666
 10
178.7884960262061
 20
-5.385334630372084
 10
178.804592858366
 20
-5.388835817694483
 10
178.8206736572545
 20
-5.392357432918172
 10
178.8367384659659
 20
-5.395899033825003
 10
178.8527873276169
 20
-5.399460178206822
 10
178.8688202853253
 20
-5.403040423852757
 10
178.8848373821974
 20
-5.406639328550113
 10
178.9008386613468
 20
-5.410256450088012
 10
178.9168241658761
 20
-5.41389134625831
 10
178.9327939389176
 20
-5.41754357484285
 10
178.9487480235556
 20
-5.421212693638038
 10
178.9646864629166
 20
-5.424898260429358
 10
178.9806093001051
 20
-5.428599833005023
 10
178.9965165782458
 20
-5.432316969155065
 10
179.0124083404361
 20
-5.436049226666795
 10
179.0282846297968
 20
-5.439796163331152
 10
179.0441454894253
 20
-5.443557336934531
 10
179.0599909624551
 20
-5.447332305268787
 10
179.0758210919765
 20
-5.451120626118495
 10
179.0916359211049
 20
-5.454921857278236
 10
179.1074354929669
 20
-5.458735556529858
 10
179.1232198506558
 20
-5.462561281668853
 10
179.1389890372855
 20
-5.466398590480706
 10
179.1547430959752
 20
-5.470247040753631
 10
179.1704820698259
 20
-5.474106190276756
 10
179.1862060019656
 20
-5.477975596841018
 10
179.2019149354973
 20
-5.481854818231908
 10
179.2176089135163
 20
-5.485743412240366
 10
179.2332879791564
 20
-5.489640936654608
 10
179.2489521755169
 20
-5.493546949265577
 10
179.2646015457165
 20
-5.49746100785876
 10
179.2802361328566
 20
-5.501382670225097
 10
179.2958559800563
 20
-5.505311494152807
 10
179.3114611304254
 20
-5.50924703742828
 10
179.3270516270758
 20
-5.513188857845193
 10
179.3426275131176
 20
-5.517136513189938
 10
179.3581888316557
 20
-5.521089561249823
 10
179.3737356258052
 20
-5.525047559816697
 10
179.3892679386854
 20
-5.52901006667696
 10
179.4047858134063
 20
-5.532976639617911
 10
179.4202892930761
 20
-5.53694683643323
 10
179.4357784207958
 20
-5.540920214909307
 10
179.4512532396866
 20
-5.544896332831625
 10
179.4667137928672
 20
-5.548874747995681
 10
179.4821601234351
 20
-5.552855018185141
 10
179.497592274506
 20
-5.556836701190944
 10
179.513010289197
 20
-5.560819354801308
 10
179.5284142106055
 20
-5.564802536803539
 10
179.5438040818561
 20
-5.568785804991305
 10
179.5591799460551
 20
-5.572768717146458
 10
179.5745418463164
 20
-5.576750831065395
 10
179.5898898257464
 20
-5.580731704530875
 10
179.6052239274658
 20
-5.584710895332931
 10
179.6205441945758
 20
-5.588687961261597
 10
179.6358506701954
 20
-5.592662460105998
 10
179.6511433974254
 20
-5.596633949654346
 10
179.6664224193855
 20
-5.600601987693949
 10
179.6816877791851
 20
-5.604566132017565
 10
179.6969395199347
 20
-5.608525940410686
 10
179.712177684746
 20
-5.612480970663341
 10
179.7274023167254
 20
-5.616430780562835
 10
179.7426134589958
 20
-5.620374927900114
 10
179.7578111546672
 20
-5.624312970460664
 10
179.7729954468349
 20
-5.628244466039063
 10
179.7881663786256
 20
-5.632168972418071
 10
179.8033239931473
 20
-5.636086047390448
 10
179.8184683335048
 20
-5.639995248743502
 10
179.8335994428169
 20
-5.643896134265446
 10
179.848717364196
 20
-5.647788261747223
 10
179.8638221407462
 20
-5.651671188976137
 10
179.878913815576
 20
-5.655544473739496
 10
179.8939924318174
 20
-5.65940767382915
 10
179.9090580325564
 20
-5.663260347030585
 10
179.9241106609159
 20
-5.667102051137476
 10
179.9391503600062
 20
-5.670932343933485
 10
179.9541771729353
 20
-5.674750783211377
 10
179.9691911428261
 20
-5.678556926756641
 10
179.9841923127759
 20
-5.682350332359304
 10
179.9991807259056
 20
-5.686130557810314
 10
180.0141564253253
 20
-5.689897160895156
 10
180.0291194541358
 20
-5.69364969940659
 10
180.0440698554674
 20
-5.697387731128285
 10
180.0590076724065
 20
-5.701110813852096
 10
180.0739329480848
 20
-5.704818505368052
 10
180.0888457256178
 20
-5.70851036346164
 10
180.1037460480846
 20
-5.712185945924714
 10
180.1186339586356
 20
-5.715844810545489
 10
180.1335095003569
 20
-5.719486515111269
 10
180.1483727163676
 20
-5.723110617411178
 10
180.1632236497761
 20
-5.726716675235252
 10
180.1780623436961
 20
-5.730304246371701
 10
180.1928888412358
 20
-5.733872888607834
 10
180.2077031855177
 20
-5.737422159735499
 10
180.222505419636
 20
-5.740951617541098
 10
180.2372955867167
 20
-5.744460819814661
 10
180.2520737298664
 20
-5.747949324345311
 10
180.2668398921858
 20
-5.751416688919447
 10
180.2815941168055
 20
-5.754862471328009
 10
180.2963364468259
 20
-5.758286229360121
 10
180.3110669253555
 20
-5.761687520804003
 10
180.325785595517
 20
-5.765065903447863
 10
180.3404925003969
 20
-5.768420935079915
 10
180.3551876831361
 20
-5.771752173490198
 10
180.3698711868355
 20
-5.775059176468744
 10
180.384543054596
 20
-5.778341501801945
 10
180.3992033295461
 20
-5.78159870728075
 10
180.4138520547758
 20
-5.784830350692459
 10
180.4284892734166
 20
-5.788035989823469
 10
180.4431150285753
 20
-5.791215182469272
 10
180.4577293633474
 20
-5.794367486411714
 10
180.4723323208663
 20
-5.797492459446287
 10
180.486923944235
 20
-5.80058965935484
 10
180.5015042765561
 20
-5.803658643930133
 10
180.5160733609471
 20
-5.806698970960382
 10
180.5306312405255
 20
-5.809710198235619
 10
180.5451779583971
 20
-5.812691883542242
 10
180.5597135576763
 20
-5.815643584670282
 10
180.5742380814562
 20
-5.818564859409775
 10
180.5887515728763
 20
-5.821455265545295
 10
180.6032540750355
 20
-5.824314360871426
 10
180.6177456310351
 20
-5.827141703172742
 10
180.6322262840066
 20
-5.829936850242915
 10
180.6466960770475
 20
-5.832699359863794
 10
180.6611550532661
 20
-5.835428789829053
 10
180.6756032557849
 20
-5.838124697923261
 10
180.6900407277053
 20
-5.840786641941916
 10
180.704467512146
 20
-5.843414179668683
 10
180.7188836522173
 20
-5.846006868894503
 10
180.7332891910255
 20
-5.848564267405775
 10
180.747684171686
 20
-5.85108593299526
 10
180.7620686373055
 20
-5.853571423446622
 10
180.7764426309977
 20
-5.856020296551718
 10
180.790806195876
 20
-5.858432110102397
 10
180.805159375056
 20
-5.860806421881419
 10
180.819502211635
 20
-5.863142789682455
 10
180.8338347487451
 20
-5.865440771289173
 10
180.8481570294761
 20
-5.867699924496149
 10
180.8624690969471
 20
-5.869919807087967
 10
180.8767709942758
 20
-5.872099976854655
 10
180.8910627645664
 20
-5.874239991588067
 10
180.9053444509363
 20
-5.876339409072784
 10
180.9196160964846
 20
-5.878397787098831
 10
180.9338777443363
 20
-5.88041468345625
 10
180.9481294375954
 20
-5.882389655930523
 10
180.9623712193761
 20
-5.884322262316231
 10
180.9766031327844
 20
-5.886212060397043
 10
180.9908252209361
 20
-5.888058607962076
 10
181.0050375269464
 20
-5.889861462805014
 10
181.0192400939167
 20
-5.891620182708606
 10
181.0334329649658
 20
-5.893334325463798
 10
181.0476161832056
 20
-5.895003448863347
 10
181.0617897917463
 20
-5.896627110689108
 10
181.0759538336851
 20
-5.89820486873475
 10
181.0901083521556
 20
-5.899736280788487
 10
181.1042533902555
 20
-5.901220904636714
 10
181.1183889911053
 20
-5.902658298073107
 10
181.1325151978062
 20
-5.904048018880414
 10
181.1466320534755
 20
-5.905389624851409
 10
181.1607396012268
 20
-5.906682673775207
 10
181.1748378841556
 20
-5.90792672343548
 10
181.1889269453958
 20
-5.909121331626805
 10
181.2030068280464
 20
-5.910266056137402
 10
181.2170775752173
 20
-5.911360454752752
 10
181.2311392300261
 20
-5.9124040852638
 10
181.2451918355755
 20
-5.913396505460581
 10
181.2592354349843
 20
-5.914337273128579
 10
181.2732700713559
 20
-5.915225946060557
 10
181.2872957878161
 20
-5.916062082042002
 10
181.3013126274663
 20
-5.916845238862038
 10
181.3153206334163
 20
-5.917574974312514
 10
181.3293198487761
 20
-5.91825084617892
 10
181.3433103166671
 20
-5.918872412249469
 10
181.3572920801843
 20
-5.919439230317832
 10
181.3712651824561
 20
-5.91995085816859
 10
181.3852296665853
 20
-5.92040685359359
 10
181.3991855756858
 20
-5.9208067743765
 10
181.4131329528672
 20
-5.921150178311902
 10
181.4270718412453
 20
-5.921436623183467
 10
181.4410022839173
 20
-5.921665666785769
 10
181.4549243240061
 20
-5.921836866901571
 10
181.4688380046253
 20
-5.921949781326361
 10
181.482743368885
 20
-5.922003967841988
 10
181.4966404598844
 20
-5.921998984242121
 10
181.5105293207551
 20
-5.92193438831407
 10
181.5244099945856
 20
-5.921809737845137
 10
181.538282524506
 20
-5.921624590627174
 10
181.5521469536169
 20
-5.921378504445668
 10
181.5660033250268
 20
-5.921071037091564
 10
181.5798516818676
 20
-5.920701746353982
 10
181.5936920672256
 20
-5.920270190021143
 10
181.6075245242253
 20
-5.919775925880343
 10
181.6213490959661
 20
-5.919218511723442
 10
181.6351658255853
 20
-5.918597505335013
 10
181.6489747561671
 20
-5.91791246450782
 10
181.6627759308365
 20
-5.917162947029167
 10
181.6765693926963
 20
-5.916348510689089
 10
181.6903551848671
 20
-5.91546871327398
 10
181.7041333504556
 20
-5.914523112574782
 10
181.7179039325664
 20
-5.913511266376985
 10
181.7316669743259
 20
-5.912432732476076
 10
181.7454225188348
 20
-5.911287068652086
 10
181.7591706092069
 20
-5.910073832702321
 10
181.7729112885471
 20
-5.908792582406817
 10
181.7866445999852
 20
-5.907442875563787
 10
181.8003705866058
 20
-5.906024269955991
 10
181.8140892915461
 20
-5.904536323374371
 10
181.8278007578965
 20
-5.902978593604415
 10
181.8415050287848
 20
-5.901350638441612
 10
181.855202147316
 20
-5.899652015667811
 10
181.8688921565961
 20
-5.897882283075772
 10
181.8825750997465
 20
-5.896040998453712
 10
181.8962510198661
 20
-5.894127719589846
 10
181.9099199600668
 20
-5.892142004273295
 10
181.9235819634766
 20
-5.890083410291367
 10
181.9372370731971
 20
-5.887951495435004
 10
181.9508853323268
 20
-5.885745817494238
 10
181.964526783996
 20
-5.88346593425274
 10
181.9781614713055
 20
-5.881111403505087
 10
181.9917894373766
 20
-5.878681783036767
 10
182.0054107253063
 20
-5.876176630635086
 10
182.0190253782156
 20
-5.873595504093713
 10
182.0326334392165
 20
-5.870937961199046
 10
182.0462349514173
 20
-5.868203559738389
 10
182.0598299579259
 20
-5.865391857501776
 10
182.0734185018563
 20
-5.86250241227924
 10
182.0870006263166
 20
-5.859534781857178
 10
182.100576374426
 20
-5.85648852402744
 10
182.1141457892963
 20
-5.853363196574605
 10
182.1277089140248
 20
-5.850158357292341
 10
182.1412657917361
 20
-5.846873563965232
 10
182.1548164655459
 20
-5.843508374383302
 10
182.1683609785476
 20
-5.840062346339322
 10
182.1818993738551
 20
-5.836535037616044
 10
182.1954316945966
 20
-5.832926006004412
 10
182.2089579838766
 20
-5.82923480929719
 10
182.2224782847978
 20
-5.825461005277133
 10
182.2359926404669
 20
-5.821604151737004
 10
182.2495010940174
 20
-5.8176638064632
 10
182.2630036885465
 20
-5.813639527246663
 10
182.2765004671664
 20
-5.809530871874699
 10
182.289991472985
 20
-5.805337398135518
 10
182.3034767491162
 20
-5.801058663820071
 10
182.3169563386773
 20
-5.796694226716566
 10
182.3304302847764
 20
-5.792243644615041
 10
182.3438986305163
 20
-5.787706475299159
 10
182.3573614190254
 20
-5.783082276561683
 10
182.3708186933972
 20
-5.778370606193561
 10
182.3842704967564
 20
-5.773571021980272
 10
182.3977168722058
 20
-5.768683081710946
 10
182.4111578628553
 20
-5.763706343173793
 10
182.4245935118259
 20
-5.758640364159758
 10
182.4380238622169
 20
-5.753484702456147
 10
182.4514489571474
 20
-5.748238915852084
 10
182.4648688397364
 20
-5.742902562135782
 10
182.4782835530758
 20
-5.737475199099093
 10
182.4916931402849
 20
-5.731956384526597
 10
182.5050976444863
 20
-5.726345676210142
 10
182.5184971087773
 20
-5.720642631935219
 10
182.5318915762771
 20
-5.714846809493677
 10
182.545281090096
 20
-5.708957766674642
 10
182.5586656933364
 20
-5.70297506126451
 10
182.5720454291175
 20
-5.696898251055131
 10
182.5817984891063
 20
-5.692398062959796
  0
ARC
  5
102
330
2
100
AcDbEntity
  8
0
100
AcDbCircle
 10
168.8850847745288
 20
4.190987193351247
 30
0.0
 40
8.907313409310658
100
AcDbArc
 50
24.23072274293526
 51
94.90087069773977
  0
LWPOLYLINE
  5
103
330
2
100
AcDbEntity
  8
0
100
AcDbPolyline
 90
      548
 70
     0
 43
0.0
 10
45.80144880095939
 20
1.688489406443293
 10
45.80446421607847
 20
1.703062821227829
 10
45.80801266741035
 20
1.719722509895291
 10
45.81164008559063
 20
1.736275555362225
 10
45.81534621586977
 20
1.752722313494813
 10
45.81913080348021
 20
1.769063140170145
 10
45.82299359367789
 20
1.785298391260764
 10
45.82693433169878
 20
1.801428422634671
 10
45.8309527627989
 20
1.817453590171679
 10
45.83504863219059
 20
1.833374249742518
 10
45.83922168514982
 20
1.849190757215183
 10
45.84347166689076
 20
1.864903468467673
 10
45.84779832266939
 20
1.880512739371622
 10
45.85220139772899
 20
1.89601892580049
 10
45.85668063732009
 20
1.911422383624083
 10
45.86123578666047
 20
1.92672346871859
 10
45.86586659101885
 20
1.941922536957463
 10
45.87057279561849
 20
1.957019944208695
 10
45.87535414571902
 20
1.972016046348471
 10
45.88021038654004
 20
1.98691119925206
 10
45.88514126334849
 20
2.001705758787465
 10
45.89014652136937
 20
2.01640008083086
 10
45.89522590586057
 20
2.030994521253886
 10
45.90037916204892
 20
2.045489435929084
 10
45.90560603519043
 20
2.059885180729907
 10
45.91090627051015
 20
2.074182111528898
 10
45.91627961326958
 20
2.088380584197693
 10
45.9217258087101
 20
2.102480954613382
 10
45.92724460204954
 20
2.116483578643054
 10
45.93283573856022
 20
2.130388812166529
 10
45.9384989634691
 20
2.144197011048162
 10
45.94423402202846
 20
2.157908531167775
 10
45.95004065946887
 20
2.171523728395186
 10
45.955918621039
 20
2.185042958602934
 10
45.96186765197852
 20
2.198466577665385
 10
45.96788749753978
 20
2.211794941453263
 10
45.9739779029496
 20
2.225028405842747
 10
45.98013861346042
 20
2.23816732670366
 10
45.9863693743191
 20
2.251212059911267
 10
45.99266993074889
 20
2.264162961336294
 10
45.99904002801848
 20
2.27702038685129
 10
46.00547941134936
 20
2.289784692330613
 10
46.01198782599932
 20
2.302456233649535
 10
46.01856501719884
 20
2.315035366675147
 10
46.02521073019852
 20
2.327522447283627
 10
46.03192471022885
 20
2.339917831348429
 10
46.03870670254945
 20
2.352221874742097
 10
46.04555645238906
 20
2.364434933335358
 10
46.05247370500001
 20
2.376557363002575
 10
46.05945820562009
 20
2.388589519618108
 10
46.06650969949078
 20
2.400531759050863
 10
46.07362793184984
 20
2.412384437178843
 10
46.08081264794964
 20
2.424147909869134
 10
46.08806359302978
 20
2.435822532999734
 10
46.09538051233903
 20
2.447408662441374
 10
46.10276315109877
 20
2.458906654067503
 10
46.11021125456864
 20
2.470316863747938
 10
46.11772456799007
 20
2.48163964736068
 10
46.12530283660999
 20
2.492875360773723
 10
46.13294580564796
 20
2.504024359863251
 10
46.14065322037823
 20
2.515087000500898
 10
46.14842482602035
 20
2.526063638559207
 10
46.15626036782852
 20
2.536954629912543
 10
46.1641595910387
 20
2.547760330430719
 10
46.17212224089962
 20
2.558481095988097
 10
46.18014806264
 20
2.569117282459044
 10
46.18823680151945
 20
2.579669245715193
 10
46.1963882027685
 20
2.590137341631816
 10
46.20460201163949
 20
2.600521926075089
 10
46.21287797335935
 20
2.61082335492574
 10
46.22121583319859
 20
2.621041984051769
 10
46.22961533636953
 20
2.63117816932845
 10
46.23807622812818
 20
2.6412322666265
 10
46.24659825371963
 20
2.65120463181847
 10
46.25518115837985
 20
2.661095620781451
 10
46.26382468735937
 20
2.670905589382527
 10
46.27252858589054
 20
2.68063489349879
 10
46.28129259921842
 20
2.690283889001873
 10
46.29011647258994
 20
2.699852931765235
 10
46.29899995124833
 20
2.709342377659595
 10
46.30794278044047
 20
2.718752582559318
 10
46.31694470538969
 20
2.728083902337855
 10
46.32600547135007
 20
2.737336692865936
 10
46.33512482357034
 20
2.74651131001883
 10
46.34430250728835
 20
2.755608109669082
 10
46.35353826774917
 20
2.764627447688326
 10
46.36283185017783
 20
2.773569679949104
 10
46.37218299984851
 20
2.78243516232578
 10
46.38159146196993
 20
2.791224250691811
 10
46.39105698181082
 20
2.799937300917008
 10
46.40057930459806
 20
2.808574668876643
 10
46.41015817558946
 20
2.817136710442355
 10
46.41979334001007
 20
2.825623781487593
 10
46.42948454311045
 20
2.83403623788672
 10
46.43923153012837
 20
2.842374435510463
 10
46.44903404631078
 20
2.850638730230457
 10
46.45889183689904
 20
2.85882947792197
 10
46.46880464714013
 20
2.866947034458462
 10
46.47877222227907
 20
2.874991755710651
 10
46.48879430755004
 20
2.882963997551996
 10
46.49887064819085
 20
2.890864115855946
 10
46.50900098945931
 20
2.898692466495048
 10
46.51918507657863
 20
2.906449405344573
 10
46.52942265481033
 20
2.914135288270698
 10
46.53971346939033
 20
2.921750471153245
 10
46.55005726554918
 20
2.929295309862026
 10
46.56045378854833
 20
2.936770160270497
 10
46.57090278362011
 20
2.9441753782512
 10
46.58140399600959
 20
2.951511319676681
 10
46.59195717096006
 20
2.958778340417665
 10
46.60256205370933
 20
2.965976796353061
 10
46.6132183895097
 20
2.973107043351774
 10
46.62392592357901
 20
2.980169437285438
 10
46.63468440119868
 20
2.987164334031149
 10
46.64549356757925
 20
2.994092089455078
 10
46.65635316796943
 20
3.000953059437051
 10
46.66726294762884
 20
3.00774759984597
 10
46.67822265177892
 20
3.014476066555287
 10
46.68923202567021
 20
3.021138815440281
 10
46.70029081454958
 20
3.027736202369851
 10
46.71139876364939
 20
3.03426858322109
 10
46.72255561822932
 20
3.040736313861998
 10
46.73376112351979
 20
3.047139750167842
 10
46.7450150247605
 20
3.053479248013898
 10
46.75631706719104
 20
3.059755163269073
 10
46.76766699606924
 20
3.065967851807727
 10
46.77906455662923
 20
3.072117669504221
 10
46.79050949411066
 20
3.078204972229285
 10
46.80200155376041
 20
3.08423011585728
 10
46.81354048081994
 20
3.090193456258928
 10
46.82512602052883
 20
3.096095349311326
 10
46.83675791812857
 20
3.101936150881556
 10
46.84843591886965
 20
3.107716216845801
 10
46.86015976799899
 20
3.113435903077515
 10
46.87192921073981
 20
3.119095565448333
 10
46.88374399233905
 20
3.124695559829888
 10
46.89560385805997
 20
3.130236242097451
 10
46.90750855311853
 20
3.135717968124481
 10
46.91945782276889
 20
3.141141093779877
 10
46.93145141225977
 20
3.146505974941646
 10
46.943489066829
 20
3.151812967477781
 10
46.95557053171069
 20
3.157062427263553
 10
46.96769555215904
 20
3.1622547101706
 10
46.97986387341006
 20
3.167390172073281
 10
46.9920752407088
 20
3.172469168843234
 10
47.00432939930031
 20
3.177492056354822
 10
47.01662609441881
 20
3.182459190480585
 10
47.02896507130936
 20
3.187370927093978
 10
47.04134607521882
 20
3.192227622063001
 10
47.05376885139048
 20
3.197029631267469
 10
47.06623314506032
 20
3.201777310575379
 10
47.07873870146977
 20
3.206471015859278
 10
47.09128526587845
 20
3.211111102995346
 10
47.10387258350965
 20
3.215697927856126
 10
47.11650039961021
 20
3.220231846313252
 10
47.1291684594289
 20
3.224713214238363
 10
47.14187650819805
 20
3.229142387503998
 10
47.15462429117907
 20
3.233519721989068
 10
47.16741155358977
 20
3.237845573559752
 10
47.18023804068979
 20
3.242120298090411
 10
47.19310349771875
 20
3.246344251453591
 10
47.20600766991991
 20
3.250517789525473
 10
47.21895030252016
 20
3.254641268176783
 10
47.23193114079005
 20
3.258715043279153
 10
47.24494992994914
 20
3.262739470705127
 10
47.25800641524982
 20
3.266714906330888
 10
47.27110034191901
 20
3.270641706027163
 10
47.28423145522902
 20
3.274520225667401
 10
47.29739950039946
 20
3.278350821121421
 10
47.3106042226791
 20
3.282133848267221
 10
47.32384536730933
 20
3.285869662974618
 10
47.3371226795407
 20
3.289558621114338
 10
47.35043590459826
 20
3.29320107856347
 10
47.36378478773985
 20
3.296797391193649
 10
47.37716907421054
 20
3.300347914877419
 10
47.39058850924084
 20
3.303853005488234
 10
47.40404283807946
 20
3.307313018896818
 10
47.41753180596059
 20
3.310728310979356
 10
47.43105515814021
 20
3.314099237602931
 10
47.44461263984883
 20
3.317426154646454
 10
47.45820399632793
 20
3.320709417980651
 10
47.47182897283892
 20
3.323949383478975
 10
47.48548731461051
 20
3.32714640701397
 10
47.49917876687868
 20
3.330300844457267
 10
47.51290307491035
 20
3.333413051682326
 10
47.52665998391967
 20
3.336483384560778
 10
47.54044923916079
 20
3.339512198968805
 10
47.55427058586974
 20
3.34249985077804
 10
47.56812376930064
 20
3.345446695859207
 10
47.58200853469861
 20
3.348353090087584
 10
47.59592462728867
 20
3.351219389333891
 10
47.6098717923287
 20
3.354045949472491
 10
47.62384977504915
 20
3.35683312637684
 10
47.6378583206988
 20
3.35958127592039
 10
47.65189717452995
 20
3.362290753970227
 10
47.6659660817695
 20
3.364961916406173
 10
47.68006478766984
 20
3.367595119098039
 10
47.69419303747054
 20
3.370190717919285
 10
47.70835057641122
 20
3.37274906874245
 10
47.72253714971884
 20
3.375270527440078
 10
47.73675250266932
 20
3.377755449885626
 10
47.75099638048959
 20
3.380204191948905
 10
47.76526852843018
 20
3.382617109509737
 10
47.77956869171064
 20
3.384994558435208
 10
47.79389661559071
 20
3.387336894598773
 10
47.80825204530993
 20
3.389644473873886
 10
47.82263472610975
 20
3.391917652135816
 10
47.83704440324071
 20
3.39415678525529
 10
47.85148082194064
 20
3.39636222910485
 10
47.86594372744002
 20
3.398534339556133
 10
47.88043286499851
 20
3.400673472486231
 10
47.89494797984843
 20
3.402779983764048
 10
47.90948881722942
 20
3.404854229263946
 10
47.9240551223993
 20
3.40689656485938
 10
47.93864664059038
 20
3.408907346420162
 10
47.95326311704047
 20
3.41088692982157
 10
47.96790429699103
 20
3.412835670937055
 10
47.98256992570895
 20
3.414753925639161
 10
47.99725974839929
 20
3.416642049800428
 10
48.01197351033987
 20
3.418500399293406
 10
48.02671095675031
 20
3.420329329990636
 10
48.04147183287932
 20
3.42212919776648
 10
48.05625588396832
 20
3.423900358492573
 10
48.0710628552697
 20
3.425643168040551
 10
48.08589249201031
 20
3.427357982286594
 10
48.100744539448
 20
3.429045157100516
 10
48.1156187428096
 20
3.430705048355775
 10
48.13051484734933
 20
3.432338011926731
 10
48.14543259831044
 20
3.433944403685017
 10
48.1603717409198
 20
3.43552457950409
 10
48.17533202044068
 20
3.437078895253761
 10
48.19031318209818
 20
3.438607706812943
 10
48.20531497114825
 20
3.440111370049633
 10
48.2203371328196
 20
3.441590240839103
 10
48.2353794123701
 20
3.443044675052988
 10
48.25044155503928
 20
3.444475028562008
 10
48.26552330605955
 20
3.445881657244171
 10
48.2806244106796
 20
3.447264916968379
 10
48.29574461413904
 20
3.448625163608085
 10
48.31088366169026
 20
3.44996275303856
 10
48.32604129856008
 20
3.451278041130533
 10
48.3412172699991
 20
3.45257138375473
 10
48.35641132125966
 20
3.453843136790053
 10
48.37162319757045
 20
3.45509365610269
 10
48.38685264416927
 20
3.456323297568814
 10
48.4020994063194
 20
3.457532417062792
 10
48.41736322924043
 20
3.458721370454441
 10
48.4326438581902
 20
3.45989051361812
 10
48.44794103841923
 20
3.461040202427283
 10
48.46325451513984
 20
3.462170792753568
 10
48.47858403361897
 20
3.463282640468605
 10
48.49392933909985
 20
3.464376101448578
 10
48.50929017680027
 20
3.465451531563303
 10
48.52466629199807
 20
3.46650928668714
 10
48.54005742990921
 20
3.467549722694457
 10
48.55546333577876
 20
3.468573195454153
 10
48.57088375487
 20
3.469580060843326
 10
48.58631843239891
 20
3.470570674731788
 10
48.60176711361964
 20
3.471545392992993
 10
48.6172295437791
 20
3.472504571500393
 10
48.63270546811872
 20
3.473448566127443
 10
48.64819463186904
 20
3.47437773274396
 10
48.66369678028966
 20
3.475292427227031
 10
48.67921165860934
 20
3.476193005447383
 10
48.69473901207857
 20
3.477079823279381
 10
48.7102785859297
 20
3.477953236592838
 10
48.72583012542964
 20
3.478813601261208
 10
48.74139337579072
 20
3.479661273158851
 10
48.75696808226893
 20
3.480496608159226
 10
48.77255399011119
 20
3.481319962133964
 10
48.78815084454799
 20
3.482131690955611
 10
48.80375839084082
 20
3.482932150499436
 10
48.81937637421106
 20
3.483721696633437
 10
48.83500453990928
 20
3.484500685234706
 10
48.85064263318962
 20
3.485269472173968
 10
48.86629039926994
 20
3.486028413327403
 10
48.88194758341889
 20
3.4867778645621
 10
48.89761393085972
 20
3.487518181756968
 10
48.91328918685029
 20
3.488249720780002
 10
48.9289730966193
 20
3.48897283750739
 10
48.94466540541907
 20
3.48968788780985
 10
48.96036585849106
 20
3.490395227562657
 10
48.97607420106942
 20
3.491095212634718
 10
48.99179017839924
 20
3.491788198903122
 10
49.00751353572921
 20
3.492474542238595
 10
49.02324401829901
 20
3.493154598512774
 10
49.03898137136093
 20
3.493828723602746
 10
49.05472534012915
 20
3.494497273376508
 10
49.07047566987056
 20
3.495160603709337
 10
49.08623210582845
 20
3.495819070472861
 10
49.10199439322969
 20
3.496473029543266
 10
49.11776227732843
 20
3.497122836788548
 10
49.13353550336978
 20
3.497768848086705
 10
49.14931381657879
 20
3.498411419305738
 10
49.16509696222057
 20
3.499050906321826
 10
49.18088468552014
 20
3.499687665005693
 10
49.19667673172806
 20
3.500322051230796
 10
49.21247284607852
 20
3.500954420872403
 10
49.22827277382928
 20
3.501585129799423
 10
49.24407626021821
 20
3.502214533887126
 10
49.2598830504794
 20
3.502842989008058
 10
49.27569288985978
 20
3.503470851033853
 10
49.29150552359896
 20
3.504098475839781
 10
49.30732069694932
 20
3.50472621929566
 10
49.32313815513953
 20
3.505354437277674
 10
49.33895764342015
 20
3.505983485657451
 10
49.35477890703987
 20
3.506613720304811
 10
49.37060169122924
 20
3.507245497095937
 10
49.38642574122787
 20
3.507879171905186
 10
49.40225080229902
 20
3.508515100599651
 10
49.41807661966959
 20
3.50915363905824
 10
49.43390293857921
 20
3.509795143149858
 10
49.44972950427835
 20
3.510439968747959
 10
49.46555606201036
 20
3.511088471728724
 10
49.48138235700935
 20
3.511741007960153
 10
49.49720813451857
 20
3.512397933319333
 10
49.5130331397886
 20
3.513059603676083
 10
49.52885711806086
 20
3.513726374903852
 10
49.54467981456947
 20
3.514398602877008
 10
49.56050097456864
 20
3.515076643466271
 10
49.57632034329799
 20
3.515760852546008
 10
49.59213766598987
 20
3.516451585987852
 10
49.60795268790024
 20
3.517149199667982
 10
49.62376515425058
 20
3.517854049454398
 10
49.63957481031139
 20
3.518566491224191
 10
49.65538140130957
 20
3.519286880846266
 10
49.6711846724902
 20
3.520015574197713
 10
49.68698436908926
 20
3.520752927147441
 10
49.70278023636092
 20
3.52149929556981
 10
49.71857201953936
 20
3.522255035339183
 10
49.73435946386961
 20
3.523020502327198
 10
49.75014231458954
 20
3.523796052406396
 10
49.76592031694782
 20
3.52458204145023
 10
49.78169321618953
 20
3.525378825331245
 10
49.79746075755975
 20
3.526186759921074
 10
49.813222686289
 20
3.52700620109408
 10
49.82897874762056
 20
3.52783750472372
 10
49.84472868681042
 20
3.528681026680715
 10
49.86047224907816
 20
3.529537122840336
 10
49.87620917969071
 20
3.530406149074222
 10
49.89193922387857
 20
3.531288461254006
 10
49.9076621268905
 20
3.53218441525496
 10
49.92337763396061
 20
3.533094366948716
 10
49.93908549032858
 20
3.534018672207821
 10
49.95478544124853
 20
3.534957686904816
 10
49.9704772319601
 20
3.535911766914068
 10
49.98616060769927
 20
3.536881268107208
 10
50.0018353137202
 20
3.537866546357689
 10
50.01750109524983
 20
3.538867957537149
 10
50.03315769753863
 20
3.539885857521765
 10
50.04880486582989
 20
3.540920602180448
 10
50.06444234536865
 20
3.541972547386647
 10
50.08006988140005
 20
3.543042049016548
 10
50.09568721914911
 20
3.544129462939962
 10
50.11129410387912
 20
3.545235145030345
 10
50.12689028081878
 20
3.546359451161151
 10
50.14247549521861
 20
3.547502737203103
 10
50.15804949232006
 20
3.548665359031473
 10
50.17361201736092
 20
3.549847672516988
 10
50.18916281557904
 20
3.551050033536738
 10
50.20470163222853
 20
3.55227279795872
 10
50.22022821254903
 20
3.553516321657298
 10
50.2357423017893
 20
3.554780960506831
 10
50.25124364517068
 20
3.556067070379866
 10
50.26673198794924
 20
3.557375007148038
 10
50.28220707537911
 20
3.558705126684798
 10
50.29766865267809
 20
3.560057784861783
 10
50.3131164651095
 20
3.561433337554261
 10
50.32855025791103
 20
3.562832140632963
 10
50.34396977632059
 20
3.564254549972246
 10
50.35937476556863
 20
3.565700921441928
 10
50.37476497092939
 20
3.567171610920921
 10
50.39014013762062
 20
3.568666974274491
 10
50.40550001088014
 20
3.570187367382458
 10
50.42084433598029
 20
3.571733146113728
 10
50.43617285812977
 20
3.573304666343573
 10
50.45148532259009
 20
3.57490228393908
 10
50.46678147459896
 20
3.576526354780978
 10
50.48206105940881
 20
3.578177234737268
 10
50.497323822241
 20
3.579855279683215
 10
50.51256950836068
 20
3.581560845486818
 10
50.52779786300014
 20
3.583294288027898
 10
50.54300863138998
 20
3.585055963174453
 10
50.55820155878973
 20
3.586846226800843
 10
50.57337639043907
 20
3.588665434780523
 10
50.58853287157944
 20
3.590513942986035
 10
50.60367074744863
 20
3.592392107290834
 10
50.6187897632899
 20
3.594300283563825
 10
50.63388966435013
 20
3.596238827683008
 10
50.64897019586897
 20
3.598208095519111
 10
50.66403110308964
 20
3.600208442944676
 10
50.6790721312609
 20
3.602240225833156
 10
50.69409302560962
 20
3.604303800057095
 10
50.70909353138995
 20
3.606399521488127
 10
50.72407339384881
 20
3.608527746003346
 10
50.73903235821854
 20
3.610688829468926
 10
50.75397016974057
 20
3.612883127764688
 10
50.76888657366907
 20
3.615110996758629
 10
50.78378131524004
 20
3.617372792325113
 10
50.79865413969128
 20
3.61966887033668
 10
50.81350479226967
 20
3.621999586669517
 10
50.82833301822029
 20
3.624365297189797
 10
50.84313856277913
 20
3.626766357777341
 10
50.85792117118945
 20
3.629203124299236
 10
50.87268058871086
 20
3.631675952631667
 10
50.88741656056118
 20
3.634185198645353
 10
50.90212883199092
 20
3.636731218217391
 10
50.91681714824883
 20
3.639314367215773
 10
50.93148125456901
 20
3.641935001517595
 10
50.94612089620931
 20
3.644593476990848
 10
50.96073581839117
 20
3.647290149510808
 10
50.9753257663706
 20
3.650025374950927
 10
50.98989048538896
 20
3.65279950918557
 10
51.00442972068958
 20
3.655612908084548
 10
51.01894321751024
 20
3.658465927522227
 10
51.03343072108874
 20
3.661358923369333
 10
51.04789197667924
 20
3.664292251502046
 10
51.06232672951954
 20
3.667266267791091
 10
51.0767347248493
 20
3.670281328109011
 10
51.09111570791903
 20
3.67333778833017
 10
51.10546942396104
 20
3.676436004327115
 10
51.11979561822955
 20
3.679576331973294
 10
51.1340940359496
 20
3.682759127139433
 10
51.14836442237901
 20
3.685984745698078
 10
51.16260652276105
 20
3.68925354352541
 10
51.17682008231895
 20
3.692565876492153
 10
51.19100484631964
 20
3.695922100470852
 10
51.20516055999907
 20
3.699322571337686
 10
51.21928696857867
 20
3.702767644960656
 10
51.23338381732899
 20
3.706257677213216
 10
51.24745085147877
 20
3.709793023970632
 10
51.26148781627853
 20
3.713374041105453
 10
51.27549445695876
 20
3.717001084489309
 10
51.28947051877002
 20
3.72067450999566
 10
51.30341574695922
 20
3.724394673497953
 10
51.31732988674958
 20
3.728161930868736
 10
51.33121268340982
 20
3.731976637980551
 10
51.34506388215959
 20
3.735839150705941
 10
51.35888322826032
 20
3.739749824917451
 10
51.37267046694069
 20
3.743709016489446
 10
51.38642534344946
 20
3.747717081293556
 10
51.40014760302983
 20
3.751774375204147
 10
51.41383699091965
 20
3.755881254092853
 10
51.42749325236036
 20
3.760038073829491
 10
51.44111613259885
 20
3.764245190293876
 10
51.45470537687835
 20
3.768502959352188
 10
51.4682607304494
 20
3.77281173688243
 10
51.48178193852981
 20
3.777171878753506
 10
51.49526874639015
 20
3.781583740838866
 10
51.50872089924996
 20
3.786047679016518
 10
51.52213814236891
 20
3.790564049150816
 10
51.53552022097938
 20
3.79513320712067
 10
51.54886688032821
 20
3.799755508796806
 10
51.56217786564775
 20
3.804431310054495
 10
51.57545292219946
 20
3.809160966763556
 10
51.58869179521023
 20
3.81394483479562
 10
51.60189422992878
 20
3.818783270027778
 10
51.6150599716002
 20
3.823676628331666
 10
51.62818876546953
 20
3.828625265578011
 10
51.64128035676004
 20
3.833629537641171
 10
51.65433449072953
 20
3.838689800396423
 10
51.66735091262854
 20
3.843806409709941
 10
51.6803293676785
 20
3.848979721461546
 10
51.69326960113902
 20
3.854210091520143
 10
51.70617135824795
 20
3.859497875761007
 10
51.71903438423942
 20
3.864843430053951
 10
51.73185842436942
 20
3.870247110275158
 10
51.7446432238703
 20
3.875709272294443
 10
51.75738852799077
 20
3.881230271987078
 10
51.77009408196862
 20
3.886810465225607
 10
51.78275963104898
 20
3.892450207878937
 10
51.79538492047868
 20
3.898149855825977
 10
51.8079696954901
 20
3.90390976493745
 10
51.82051370132832
 20
3.909730291083178
 10
51.83301668324929
 20
3.915611790140246
 10
51.84547838646904
 20
3.92155461797938
 10
51.8578985562599
 20
3.927559130472218
 10
51.87027693783966
 20
3.933625683494028
 10
51.88261327646978
 20
3.939754632918263
 10
51.89490731737897
 20
3.945946334613836
 10
51.90715880581954
 20
3.95220114445965
 10
51.91936748702028
 20
3.958519418320065
 10
51.93153310624984
 20
3.964901512076721
 10
51.94365540872059
 20
3.971347781597613
 10
51.95573413969032
 20
3.977858582755287
 10
51.96776904439865
 20
3.984434271424106
 10
51.97975986809979
 20
3.991075203477521
 10
51.99170635600967
 20
3.997781734786258
 10
52.00360825339885
 20
4.004554221226498
 10
52.01546530549058
 20
4.011393018667147
 10
52.02727725753902
 20
4.018298482984389
 10
52.03904385478018
 20
4.025270970049859
 10
52.05076484246092
 20
4.032310835733368
 10
52.06243996581907
 20
4.039418435912009
 10
52.07406897008877
 20
4.04659412645924
 10
52.08565160054059
 20
4.053838263243958
 10
52.09718760238866
 20
4.061151202141443
 10
52.10867672089079
 20
4.068533299023327
 10
52.12011870127935
 20
4.075984909763064
 10
52.13151328881031
 20
4.083506390235924
 10
52.14286022871057
 20
4.091098096310815
 10
52.15415926623973
 20
4.098760383862098
 10
52.16541014661925
 20
4.106493608763228
 10
52.17661261511057
 20
4.114298126886751
 10
52.18776641694785
 20
4.122174294104297
 10
52.1988712973707
 20
4.130122466291138
 10
52.20992700162971
 20
4.138142999318006
 10
52.22093327496986
 20
4.146236249059255
 10
52.23188986261084
 20
4.154402571384705
 10
52.24279650981952
 20
4.162642322172358
 10
52.25365296183918
 20
4.170955857291118
 10
52.26445896388941
 20
4.179343532614439
 10
52.27521426123892
 20
4.187805704017591
 10
52.28591859911102
 20
4.196342727369483
 10
52.29657172275985
 20
4.204954958545386
 10
52.30717337741953
 20
4.213642753418753
 10
52.31772330832971
 20
4.222406467861218
 10
52.32822126074825
 20
4.231246457744417
 10
52.33866697989832
 20
4.240163078944533
 10
52.34906021104871
 20
4.249156687333196
 10
52.35940069941896
 20
4.258227638780224
 10
52.36968819025968
 20
4.267376289161801
 10
52.37992242881046
 20
4.276602994349558
 10
52.3901031603109
 20
4.285908110216039
 10
52.40023013002065
 20
4.295291992636521
 10
52.41030308315931
 20
4.304754997480813
 10
52.42032176497922
 20
4.314297480623281
 10
52.43028592072914
 20
4.323919797936468
 10
52.44019529564866
 20
4.333622305293828
 10
52.45004963497013
 20
4.343405358566085
 10
52.45984868394953
 20
4.353269313630335
 10
52.46959218781921
 20
4.363214526354568
 10
52.47927989182972
 20
4.373241352614058
 10
52.48891154122064
 20
4.383350148281351
 10
52.49848688122803
 20
4.393541269230808
 10
52.50800565709869
 20
4.403815071332244
 10
52.51746761409049
 20
4.414171910459117
 10
52.52687249741939
 20
4.424612142488513
 10
52.53622005233957
 20
4.435136123286611
 10
52.54551002411061
 20
4.445744208731412
 10
52.55474215793947
 20
4.45643675469455
 10
52.56391619908935
 20
4.467214117045839
 10
52.57303189281083
 20
4.478076651663284
 10
52.58208898432894
 20
4.489024714415791
 10
52.59108721889971
 20
4.500058661179537
 10
52.60002634176089
 20
4.511178847822518
 10
52.6089060981485
 20
4.522385630220924
 10
52.61225054866009
 20
4.526668028827771
  0
LINE
  5
104
330
2
100
AcDbEntity
  8
0
100
AcDbLine
 10
160.1229534476388
 20
19.64051123720855
 30
0.0
 11
158.1229534476388
 21
19.64051123720855
 31
0.0
  0
ARC
  5
105
330
2
100
AcDbEntity
  8
0
100
AcDbCircle
 10
167.6229534476386
 20
16.14051123720853
 30
0.0
 40
0.5
100
AcDbArc
 50
180.0
 51
270.0
  0
LINE
  5
106
330
2
100
AcDbEntity
  8
0
100
AcDbLine
 10
166.722953447639
 20
17.5417738956803
 30
0.0
 11
167.6229534476386
 21
17.5417738956803
 31
0.0
  0
LINE
  5
107
330
2
100
AcDbEntity
  8
0
100
AcDbLine
 10
167.1229534476385
 20
16.64051123720855
 30
0.0
 11
167.1229534476385
 21
16.14051123720853
 31
0.0
  0
LINE
  5
108
330
2
100
AcDbEntity
  8
0
100
AcDbLine
 10
160.1229534476388
 20
16.14051123720853
 30
0.0
 11
166.722953447639
 21
16.14051123720853
 31
0.0
  0
ARC
  5
109
330
2
100
AcDbEntity
  8
0
 48
0.6
100
AcDbCircle
 10
346.3133573818997
 20
68.7629817862298
 30
0.0
 40
186.6911607212715
100
AcDbArc
 50
197.3578643704927
 51
203.5148573160181
  0
ARC
  5
10A
330
2
100
AcDbEntity
  8
0
100
AcDbCircle
 10
172.9170021183089
 20
12.49022003775553
 30
0.0
 40
1.318158315128889
100
AcDbArc
 50
89.65642249345519
 51
172.1237927370686
  0
LINE
  5
10B
330
2
100
AcDbEntity
  8
0
 62
   123
 48
0.6
100
AcDbLine
 10
160.1140453915613
 20
-6.961838601685485
 30
0.0
 11
100.8598875642001
 21
-6.961838601685485
 31
0.0
  0
TEXT
  5
10C
330
2
100
AcDbEntity
  8
DIM
100
AcDbText
 10
102.2299076151903
 20
-4.961838601687302
 30
0.0
 40
3.5
  1
 LEAD WIRE 300m
100
AcDbText
  0
ARC
  5
10E
330
2
100
AcDbEntity
  8
0
 48
0.6
100
AcDbCircle
 10
208.4256754476391
 20
15.55186523720839
 30
0.0
 40
39.15579199999999
100
AcDbArc
 50
179.8702870000233
 51
183.6102158837779
  0
ARC
  5
10F
330
2
100
AcDbEntity
  8
0
 48
0.6
100
AcDbCircle
 10
208.7218813835296
 20
15.47647676135784
 30
0.0
 40
37.855792
100
AcDbArc
 50
179.8658330000312
 51
183.9724199931055
  0
ARC
  5
110
330
2
100
AcDbEntity
  8
0
 48
0.6
100
AcDbCircle
 10
208.1331813944198
 20
15.638176346215
 30
0.0
 40
35.255792
100
AcDbArc
 50
179.9962054631615
 51
182.9919319862273
  0
LEADER
  5
111
330
2
100
AcDbEntity
  8
0
100
AcDbLeader
  3
STANDARD
 74
     0
 40
13.0
 41
28.50892857142855
 76
     2
 10
169.2307957837399
 20
8.332981028706852
 30
0.0
 10
160.1140453915613
 20
-6.961838601685485
 30
0.0
1001
ACAD
1000
DSTYLE
1002
{
1070
     5
1000

1070
   342
1005
0
1002
}
  0
ARC
  5
112
330
2
100
AcDbEntity
  8
0
 48
0.6
100
AcDbCircle
 10
6.57992127451871
 20
3.123842383176452
 30
0.0
 40
39.15579199999999
100
AcDbArc
 50
16.65391050761257
 51
20.30648800596492
  0
LINE
  5
113
330
2
100
AcDbEntity
  8
0
100
AcDbLine
 10
39.00252761421143
 20
12.07886740293633
 30
0.0
 11
45.49465895974935
 21
14.96946737966482
 31
0.0
  0
ARC
  5
114
330
2
100
AcDbEntity
  8
0
 48
0.6
100
AcDbCircle
 10
73.91221182472874
 20
31.023093648555
 30
0.0
 40
39.15579199999999
100
AcDbArc
 50
201.4369589999631
 51
208.5517089163135
  0
ARC
  5
115
330
2
100
AcDbEntity
  8
0
 48
0.6
100
AcDbCircle
 10
140.1407368587897
 20
70.83881547440795
 30
0.0
 40
116.9686661741607
100
AcDbArc
 50
210.1560153536115
 51
216.2412691602773
  0
ARC
  5
116
330
2
100
AcDbEntity
  8
0
 48
0.6
100
AcDbCircle
 10
128.0822816427189
 20
63.6124478044112
 30
0.0
 40
95.84808274048763
100
AcDbArc
 50
210.4975034246499
 51
218.0575295674634
  0
LINE
  5
117
330
2
100
AcDbEntity
  8
0
100
AcDbLine
 10
258.1229534476388
 20
15.74051123720892
 30
0.0
 11
290.1229534476497
 21
16.42622552292323
 31
0.0
  0
LINE
  5
118
330
2
100
AcDbEntity
  8
0
100
AcDbLine
 10
177.279507491179
 20
8.797988461498787
 30
0.0
 11
311.6229534476388
 21
8.797988461494242
 31
0.0
  0
LINE
  5
119
330
2
100
AcDbEntity
  8
0
100
AcDbLine
 10
177.1229534476387
 20
16.64051123720855
 30
0.0
 11
177.1229534476387
 21
16.14051123720853
 31
0.0
  0
ARC
  5
11A
330
2
100
AcDbEntity
  8
0
100
AcDbCircle
 10
176.6229534476387
 20
16.14051123720853
 30
0.0
 40
0.5
100
AcDbArc
 50
270.0
 51
0.0
  0
ARC
  5
11B
330
2
100
AcDbEntity
  8
0
100
AcDbCircle
 10
177.279507491179
 20
8.297988461498787
 30
0.0
 40
0.5
100
AcDbArc
 50
90.0
 51
177.9685271120391
  0
ARC
  5
11C
330
2
100
AcDbEntity
  8
0
 48
0.6
100
AcDbCircle
 10
358.4380986675441
 20
74.62598097514419
 30
0.0
 40
193.3299778196813
100
AcDbArc
 50
200.2072101005281
 51
204.5474757868444
  0
ARC
  5
11D
330
2
100
AcDbEntity
  8
0
 48
0.6
100
AcDbCircle
 10
208.4256754476391
 20
15.55186523720839
 30
0.0
 40
33.95579199999998
100
AcDbArc
 50
179.85042300002
 51
182.9607459492086
  0
LINE
  5
11E
102
{ACAD_REACTORS
330
B9
102
}
330
2
100
AcDbEntity
  8
0
100
AcDbLine
 10
308.6229534476387
 20
17.89051123720855
 30
0.0
 11
300.1229534476387
 21
17.89051123720855
 31
0.0
  0
LINE
  5
11F
330
2
100
AcDbEntity
  8
0
100
AcDbLine
 10
290.1229534476497
 20
17.64051123720855
 30
0.0
 11
300.1229534476497
 21
17.64051123720855
 31
0.0
  0
LINE
  5
120
330
2
100
AcDbEntity
  8
0
100
AcDbLine
 10
290.1229534476497
 20
16.42622552292323
 30
0.0
 11
290.1229534476497
 21
17.64051123720855
 31
0.0
  0
LINE
  5
121
330
2
100
AcDbEntity
  8
0
100
AcDbLine
 10
300.1229534476387
 20
17.89051123720855
 30
0.0
 11
300.1229534476387
 21
17.64051123720855
 31
0.0
  0
LINE
  5
122
330
2
100
AcDbEntity
  8
0
100
AcDbLine
 10
308.6229534476387
 20
17.89051123720855
 30
0.0
 11
310.1229534476497
 21
19.39051123720854
 31
0.0
  0
ARC
  5
123
330
2
100
AcDbEntity
  8
0
100
AcDbCircle
 10
311.6229534476496
 20
14.79798846149606
 30
0.0
 40
6.0
100
AcDbArc
 50
270.0
 51
0.0
  0
ARC
  5
124
330
2
100
AcDbEntity
  8
0
100
AcDbCircle
 10
309.6229534476388
 20
16.79798846149878
 30
0.0
 40
3.0
100
AcDbArc
 50
270.0
 51
0.0
  0
LINE
  5
125
330
2
100
AcDbEntity
  8
CL
 48
0.6
100
AcDbLine
 10
278.9671841031686
 20
61.14051123720855
 30
0.0
 11
115.9842487942187
 21
61.14051123720855
 31
0.0
  0
LINE
  5
126
330
2
100
AcDbEntity
  8
0
100
AcDbLine
 10
258.1229534476388
 20
105.6405112372085
 30
0.0
 11
166.722953447639
 21
105.6405112372085
 31
0.0
  0
LINE
  5
127
330
2
100
AcDbEntity
  8
0
100
AcDbLine
 10
248.0372245920589
 20
308.9515034492433
 30
0.0
 11
156.637224592059
 21
308.9515034492433
 31
0.0
  0
LINE
  5
128
330
2
100
AcDbEntity
  8
0
100
AcDbLine
 10
248.0372245920698
 20
219.9515034492433
 30
0.0
 11
156.637224592059
 21
219.9515034492433
 31
0.0
  0
LINE
  5
129
330
2
100
AcDbEntity
  8
0
100
AcDbLine
 10
167.193778635599
 20
212.1089806735335
 30
0.0
 11
301.5372245920588
 21
212.108980673529
 31
0.0
  0
LINE
  5
12A
330
2
100
AcDbEntity
  8
0
100
AcDbLine
 10
162.8397179043004
 20
217.1089806735269
 30
0.0
 11
299.5372245920588
 21
217.1089806735399
 31
0.0
  0
DIMENSION
  5
12B
330
2
100
AcDbEntity
  8
0
100
AcDbDimension
  2
*D29
 10
300.0372245920587
 20
332.0167830133631
 30
0.0
 11
226.9712203539401
 21
332.0167830133631
 31
0.0
 70
   160
  3
STANDARD
100
AcDbAlignedDimension
 13
150.0372245920589
 23
324.5515034492445
 33
0.0
 14
300.0372245920587
 24
306.2015034492433
 34
0.0
100
AcDbRotatedDimension
  0
DIMENSION
  5
138
330
2
100
AcDbEntity
  8
0
100
AcDbDimension
  2
*D28
 10
310.1229534476388
 20
128.7057908013284
 30
0.0
 11
237.0569492095201
 21
128.7057908013284
 31
0.0
 70
   160
  3
STANDARD
100
AcDbAlignedDimension
 13
160.1229534476388
 23
121.2405112372089
 33
0.0
 14
310.1229534476388
 24
102.8905112372084
 34
0.0
100
AcDbRotatedDimension
  0
LINE
  5
145
330
2
100
AcDbEntity
  8
CL
 48
0.6
100
AcDbLine
 10
268.8814552475887
 20
264.4515034492433
 30
0.0
 11
117.2469735710292
 21
264.4515034492433
 31
0.0
  0
LEADER
  5
146
330
2
100
AcDbEntity
  8
0
100
AcDbLeader
  3
STANDARD
 74
     0
 40
13.0
 41
28.50892857142855
 76
     2
 10
159.1450669281603
 20
211.643973240741
 30
0.0
 10
150.0283165359796
 20
196.349153610349
 30
0.0
1001
ACAD
1000
DSTYLE
1002
{
1070
     5
1000

1070
   342
1005
0
1002
}
  0
DIMENSION
  5
147
102
{ACAD_XDICTIONARY
360
148
102
}
102
{ACAD_REACTORS
330
149
102
}
330
2
100
AcDbEntity
  8
0
100
AcDbDimension
  2
*D30
 10
47.0313280467999
 20
318.653677975803
 30
0.0
 11
60.62593736791814
 21
196.6998721832911
 31
0.0
 70
    34
  1
<>
  3
STANDARD
100
AcDb2LineAngularDimension
 13
47.0313280467999
 23
265.0235332120501
 33
0.0
 14
65.6771560244797
 24
220.0235332120513
 34
0.0
 15
47.0313280467999
 25
211.393388448297
 35
0.0
 16
56.49060877667269
 26
193.194981790885
 36
0.0
1001
ACAD
1000
DSTYLE
1002
{
1070
   271
1070
     1
1070
   179
1070
     1
1070
   271
1070
     0
1070
   271
1070
     1
1070
   271
1070
     1
1070
   271
1070
     1
1070
   271
1070
     1
1070
   271
1070
     1
1070
   271
1070
     1
1070
   271
1070
     1
1002
}
  0
TEXT
  5
158
330
2
100
AcDbEntity
  8
DIM
100
AcDbText
 10
92.14417875961045
 20
198.3491536103479
 30
0.0
 40
3.5
  1
 LEAD WIRE 300mm
100
AcDbText
  0
MTEXT
  5
159
102
{ACAD_REACTORS
330
1E8
102
}
330
2
100
AcDbEntity
  8
0
 62
     3
100
AcDbMText
 10
47.76547987084085
 20
134.1607463053949
 30
0.0
 40
3.0
 41
0.0
 71
     9
 72
     1
  1
4-%%C6.5 hole
1001
ACAD
1000
MTEXTBEGIN
1070
    73
1070
     1
1070
    44
1040
1.0
1070
    74
1070
     0
1000
MTEXTEND
1000
MTEXTBEGIN
1070
    73
1070
     1
1070
    44
1040
1.0
1070
    74
1070
     0
1000
MTEXTEND
1000
MTEXTBEGIN
1070
    73
1070
     1
1070
    44
1040
1.0
1070
    74
1070
     0
1000
MTEXTEND
  0
ARC
  5
15A
330
2
100
AcDbEntity
  8
0
 48
0.6
100
AcDbCircle
 10
21.68580530317012
 20
61.71254100001533
 30
0.0
 40
33.74764799999999
100
AcDbArc
 50
342.2801918472013
 51
17.71980815279839
  0
ARC
  5
15B
330
2
100
AcDbEntity
  8
0
 48
0.6
100
AcDbCircle
 10
56.75475280644969
 20
50.50725195995255
 30
0.0
 40
3.067967999999998
100
AcDbArc
 50
162.2801918472015
 51
218.0513255193776
  0
ARC
  5
15C
330
2
100
AcDbEntity
  8
0
 48
0.6
100
AcDbCircle
 10
51.92295521922822
 20
46.72526271191327
 30
0.0
 40
3.067967999999998
100
AcDbArc
 50
333.6343274967831
 51
38.05132551937779
  0
ARC
  5
15D
330
2
100
AcDbEntity
  8
0
 48
0.6
100
AcDbCircle
 10
56.75475280644969
 20
72.91783004007903
 30
0.0
 40
3.067967999999998
100
AcDbArc
 50
141.9486744806222
 51
197.7198081527984
  0
ARC
  5
15E
330
2
100
AcDbEntity
  8
0
 48
0.6
100
AcDbCircle
 10
51.92295521922822
 20
76.69981928811829
 30
0.0
 40
3.067967999999998
100
AcDbArc
 50
321.9486744806221
 51
26.36567250321681
  0
LINE
  5
15F
330
2
100
AcDbEntity
  8
0
100
AcDbLine
 10
160.1229534476388
 20
102.6405112372084
 30
0.0
 11
158.1229534476388
 21
102.6405112372084
 31
0.0
  0
LINE
  5
160
102
{ACAD_REACTORS
330
17B
330
18A
102
}
330
2
100
AcDbEntity
  8
CL
  6
BYBLOCK
 62
     0
100
AcDbLine
 10
158.1229534476388
 20
56.14051123720855
 30
0.0
 11
123.1229534476387
 21
56.14051123720855
 31
0.0
  0
LINE
  5
161
102
{ACAD_REACTORS
330
167
330
17B
102
}
330
2
100
AcDbEntity
  8
CL
  6
BYBLOCK
 62
     0
100
AcDbLine
 10
153.1229534476388
 20
65.14051123720857
 30
0.0
 11
123.1229534476387
 21
65.14051123720857
 31
0.0
  0
LINE
  5
162
330
2
100
AcDbEntity
  8
0
100
AcDbLine
 10
123.1229534476387
 20
65.14051123720857
 30
0.0
 11
123.1229534476387
 21
56.14051123720855
 31
0.0
  0
LINE
  5
163
330
2
100
AcDbEntity
  8
0
100
AcDbLine
 10
153.1229534476388
 20
66.14051123720854
 30
0.0
 11
153.1229534476388
 21
65.14051123720857
 31
0.0
  0
LINE
  5
164
102
{ACAD_REACTORS
330
167
330
18A
102
}
330
2
100
AcDbEntity
  8
CL
  6
BYBLOCK
 62
     0
100
AcDbLine
 10
158.1229534476388
 20
66.14051123720854
 30
0.0
 11
153.1229534476388
 21
66.14051123720854
 31
0.0
  0
DIMENSION
  5
165
102
{ACAD_XDICTIONARY
360
166
102
}
102
{ACAD_REACTORS
330
167
102
}
330
2
100
AcDbEntity
  8
0
100
AcDbDimension
  2
*D37
 10
153.1229534476388
 20
87.60228574128268
 30
0.0
 11
137.578147489299
 21
87.60228574128268
 31
0.0
 70
   160
  3
STANDARD
100
AcDbAlignedDimension
 13
123.1229534476387
 23
65.14051123720857
 33
0.0
 14
153.1229534476388
 24
66.14051123720854
 34
0.0
100
AcDbRotatedDimension
  0
LINE
  5
174
330
2
100
AcDbEntity
  8
0
100
AcDbLine
 10
160.1229534476388
 20
106.1405112372085
 30
0.0
 11
166.722953447639
 21
106.1405112372085
 31
0.0
  0
LINE
  5
175
102
{ACAD_REACTORS
330
199
102
}
330
2
100
AcDbEntity
  8
0
100
AcDbLine
 10
166.722953447639
 20
104.7392485787367
 30
0.0
 11
167.6229534476386
 21
104.7392485787367
 31
0.0
  0
LINE
  5
176
330
2
100
AcDbEntity
  8
0
100
AcDbLine
 10
166.722953447639
 20
97.03924857873881
 30
0.0
 11
167.6229534476386
 21
97.03924857873881
 31
0.0
  0
LINE
  5
177
330
2
100
AcDbEntity
  8
0
100
AcDbLine
 10
167.6229534476386
 20
97.03924857873881
 30
0.0
 11
167.6229534476386
 21
104.7392485787367
 31
0.0
  0
LINE
  5
178
330
2
100
AcDbEntity
  8
0
100
AcDbLine
 10
166.722953447639
 20
25.24177389568012
 30
0.0
 11
167.6229534476386
 21
25.24177389568012
 31
0.0
  0
DIMENSION
  5
179
102
{ACAD_XDICTIONARY
360
17A
102
}
102
{ACAD_REACTORS
330
17B
102
}
330
2
100
AcDbEntity
  8
0
100
AcDbDimension
  2
*D36
 10
109.5799469980992
 20
65.14051123720857
 30
0.0
 11
109.5799469980992
 21
59.69746851579838
 31
0.0
 70
   160
  3
STANDARD
100
AcDbAlignedDimension
 13
123.1229534476387
 23
56.14051123720855
 33
0.0
 14
123.1229534476387
 24
65.14051123720857
 34
0.0
 50
90.0
100
AcDbRotatedDimension
  0
DIMENSION
  5
188
102
{ACAD_XDICTIONARY
360
189
102
}
102
{ACAD_REACTORS
330
18A
102
}
330
2
100
AcDbEntity
  8
0
100
AcDbDimension
  2
*D35
 10
98.14424465746014
 20
66.14051123720854
 30
0.0
 11
98.14424465746014
 21
61.14051123720858
 31
0.0
 70
   160
  1
\A1;{\f??|b0|i0|c0|p49;%%c}<>{\f??|b0|i0|c0|p49;\H0.7x;\S+0^ -0.015;\H1.429x;(h7)}
  3
STANDARD
100
AcDbAlignedDimension
 13
123.1229534476387
 23
56.14051123720855
 33
0.0
 14
153.1229534476388
 24
66.14051123720854
 34
0.0
 50
90.0
100
AcDbRotatedDimension
  0
DIMENSION
  5
197
102
{ACAD_XDICTIONARY
360
198
102
}
102
{ACAD_REACTORS
330
199
102
}
330
2
100
AcDbEntity
  8
0
100
AcDbDimension
  2
*D34
 10
167.6229534476386
 20
118.1722559957514
 30
0.0
 11
163.8729534476385
 21
118.1722559957514
 31
0.0
 70
   160
  3
STANDARD
100
AcDbAlignedDimension
 13
160.1229534476388
 23
105.3488445705434
 33
0.0
 14
167.6229534476386
 24
104.7392485787367
 34
0.0
100
AcDbRotatedDimension
  0
DIMENSION
  5
1A6
330
2
100
AcDbEntity
  8
0
100
AcDbDimension
  2
*D33
 10
160.1229534476388
 20
118.1722559957514
 30
0.0
 11
151.1229534476385
 21
118.1722559957514
 31
0.0
 70
   160
  3
STANDARD
100
AcDbAlignedDimension
 13
158.1229534476388
 23
102.6405112372084
 33
0.0
 14
160.1229534476388
 24
106.1405112372085
 34
0.0
100
AcDbRotatedDimension
  0
LINE
  5
1B5
330
2
100
AcDbEntity
  8
0
100
AcDbLine
 10
26.68559901868865
 20
65.14051123720857
 30
0.0
 11
16.83694021599874
 21
65.14051123720857
 31
0.0
  0
LWPOLYLINE
  5
1B6
330
2
100
AcDbEntity
  8
3
100
AcDbPolyline
 90
        4
 70
     1
 43
0.0
 10
15.46577437321866
 20
120.0909251700831
 10
18.76577437320882
 20
120.0909251700831
 10
18.76577437320882
 20
123.590925170083
 10
15.46577437321866
 20
123.590925170083
  0
ARC
  5
1B8
330
2
100
AcDbEntity
  8
0
 48
0.6
100
AcDbCircle
 10
21.68580530317012
 20
61.71254100001533
 30
0.0
 40
33.74764799999999
100
AcDbArc
 50
162.2801918472015
 51
197.7198081527984
  0
ARC
  5
1B9
330
2
100
AcDbEntity
  8
0
 48
0.6
100
AcDbCircle
 10
-13.38314220012216
 20
50.50725195995255
 30
0.0
 40
3.067967999999998
100
AcDbArc
 50
321.9486744806221
 51
17.71980815279839
  0
ARC
  5
1BA
330
2
100
AcDbEntity
  8
0
 48
0.6
100
AcDbCircle
 10
-8.551344612900717
 20
46.72526271191327
 30
0.0
 40
3.067967999999998
100
AcDbArc
 50
141.9486744806222
 51
206.3656725032168
  0
ARC
  5
1BB
330
2
100
AcDbEntity
  8
0
 48
0.6
100
AcDbCircle
 10
21.68580530317012
 20
61.71254100001533
 30
0.0
 40
36.81561599999999
100
AcDbArc
 50
116.3656725032109
 51
153.634327496783
  0
ARC
  5
1BC
330
2
100
AcDbEntity
  8
0
 48
0.6
100
AcDbCircle
 10
-13.38314220012216
 20
72.91783004007903
 30
0.0
 40
3.067967999999998
100
AcDbArc
 50
342.2801918472013
 51
38.05132551937779
  0
ARC
  5
1BD
330
2
100
AcDbEntity
  8
0
 48
0.6
100
AcDbCircle
 10
-8.551344612900717
 20
76.69981928811829
 30
0.0
 40
3.067967999999998
100
AcDbArc
 50
153.634327496783
 51
218.0513255193776
  0
CIRCLE
  5
1BE
330
2
100
AcDbEntity
  8
0
 48
0.6
100
AcDbCircle
 10
21.76126961734917
 20
61.71254100001533
 30
0.0
 40
6.0
  0
ARC
  5
1BF
330
2
100
AcDbEntity
  8
0
 48
0.6
100
AcDbCircle
 10
32.89109434322927
 20
96.78148850330037
 30
0.0
 40
3.067967999999998
100
AcDbArc
 50
252.2801918471949
 51
308.0513255193868
  0
ARC
  5
1C0
330
2
100
AcDbEntity
  8
0
 48
0.6
100
AcDbCircle
 10
6.698527015059879
 20
91.94969091608529
 30
0.0
 40
3.067967999999998
100
AcDbArc
 50
51.94867448061305
 51
116.3656725032109
  0
ARC
  5
1C1
330
2
100
AcDbEntity
  8
0
 48
0.6
100
AcDbCircle
 10
10.48051626310007
 20
96.78148850330037
 30
0.0
 40
3.067967999999998
100
AcDbArc
 50
231.948674480613
 51
287.7198081528051
  0
ARC
  5
1C2
330
2
100
AcDbEntity
  8
0
 48
0.6
100
AcDbCircle
 10
21.68580530317012
 20
61.71254100001533
 30
0.0
 40
33.74764799999999
100
AcDbArc
 50
72.28019184719491
 51
107.7198081528049
  0
ARC
  5
1C3
330
2
100
AcDbEntity
  8
0
 48
0.6
100
AcDbCircle
 10
36.67308359126946
 20
91.94969091608529
 30
0.0
 40
3.067967999999998
100
AcDbArc
 50
63.63432749678904
 51
128.0513255193867
  0
ARC
  5
1C4
330
2
100
AcDbEntity
  8
0
 48
0.6
100
AcDbCircle
 10
32.89109434322927
 20
26.64359349673123
 30
0.0
 40
3.067967999999998
100
AcDbArc
 50
51.94867448061305
 51
107.7198081528049
  0
ARC
  5
1C5
330
2
100
AcDbEntity
  8
0
 48
0.6
100
AcDbCircle
 10
6.698527015059879
 20
31.47539108394721
 30
0.0
 40
3.067967999999998
100
AcDbArc
 50
243.634327496789
 51
308.0513255193868
  0
ARC
  5
1C6
330
2
100
AcDbEntity
  8
0
 48
0.6
100
AcDbCircle
 10
10.48051626310007
 20
26.64359349673123
 30
0.0
 40
3.067967999999998
100
AcDbArc
 50
72.28019184719491
 51
128.0513255193867
  0
ARC
  5
1C7
330
2
100
AcDbEntity
  8
0
 48
0.6
100
AcDbCircle
 10
21.68580530317012
 20
61.71254100001533
 30
0.0
 40
33.74764799999999
100
AcDbArc
 50
252.2801918471949
 51
287.7198081528051
  0
ARC
  5
1C8
330
2
100
AcDbEntity
  8
0
 48
0.6
100
AcDbCircle
 10
36.67308359126946
 20
31.47539108394721
 30
0.0
 40
3.067967999999998
100
AcDbArc
 50
231.948674480613
 51
296.3656725032108
  0
ARC
  5
1C9
330
2
100
AcDbEntity
  8
0
 48
0.6
100
AcDbCircle
 10
21.68580530317012
 20
61.71254100001533
 30
0.0
 40
36.81561599999999
100
AcDbArc
 50
206.3656725032168
 51
243.634327496789
  0
CIRCLE
  5
1CA
330
2
100
AcDbEntity
  8
0
 48
0.6
100
AcDbCircle
 10
21.76126961734917
 20
61.71254100001533
 30
0.0
 40
20.0
  0
ARC
  5
1CB
330
2
100
AcDbEntity
  8
0
 48
0.6
100
AcDbCircle
 10
21.68580530317012
 20
61.71254100001533
 30
0.0
 40
36.81561599999999
100
AcDbArc
 50
26.36567250321681
 51
63.63432749678904
  0
ARC
  5
1CC
330
2
100
AcDbEntity
  8
0
 48
0.6
100
AcDbCircle
 10
21.68580530317012
 20
61.71254100001533
 30
0.0
 40
36.81561599999999
100
AcDbArc
 50
296.3656725032108
 51
333.6343274967831
  0
DIMENSION
  5
1CD
330
2
100
AcDbEntity
  8
0
100
AcDbDimension
  2
*D32
 10
66.76126961734006
 20
119.3149736428731
 30
0.0
 11
21.76126961734917
 21
119.3149736428731
 31
0.0
 70
   160
  3
STANDARD
100
AcDbAlignedDimension
 13
-23.23873038265082
 23
101.6697472412179
 33
0.0
 14
66.76126961734006
 24
101.6697472412187
 34
0.0
100
AcDbRotatedDimension
  0
LINE
  5
1DA
330
2
100
AcDbEntity
  8
CL
 48
0.6
100
AcDbLine
 10
-27.49200659705092
 20
61.71254100001533
 30
0.0
 11
71.01454583174927
 21
61.71254100001533
 31
0.0
  0
DIMENSION
  5
1DB
330
2
100
AcDbEntity
  8
0
100
AcDbDimension
  2
*D31
 10
160.1229534476388
 20
128.7057908013284
 30
0.0
 11
143.5569492095199
 21
128.7057908013284
 31
0.0
 70
   160
  3
STANDARD
100
AcDbAlignedDimension
 13
123.1229534476387
 23
65.14051123720857
 33
0.0
 14
160.1229534476388
 24
106.1405112372085
 34
0.0
100
AcDbRotatedDimension
  0
LEADER
  5
1E8
330
2
100
AcDbEntity
  8
0
100
AcDbLeader
  3
STANDARD
 73
     0
 75
     1
 40
3.0
 41
26.65178571428571
 76
     3
 10
58.55546281377792
 20
101.6317154528204
 30
0.0
 10
51.26547987084085
 20
133.1607463053949
 30
0.0
 10
48.76547987084085
 20
133.1607463053949
 30
0.0
340
159
1001
ACAD
1000
DSTYLE
1002
{
1070
     5
1000

1070
   342
1005
0
1002
}
  0
LINE
  5
1E9
330
2
100
AcDbEntity
  8
0
 62
   123
 48
0.6
100
AcDbLine
 10
150.0283165359796
 20
196.349153610349
 30
0.0
 11
90.77415870862024
 21
196.349153610349
 31
0.0
  0
ARC
  5
1EA
330
2
100
AcDbEntity
  8
0
 48
0.6
100
AcDbCircle
 10
143.0804115028894
 20
296.0177343382643
 30
0.0
 40
26.81626566475105
100
AcDbArc
 50
269.907726570802
 51
280.6520097393284
  0
LINE
  5
1EB
330
2
100
AcDbEntity
  8
0
 48
0.6
100
AcDbLine
 10
137.0372245920589
 20
270.1015034492428
 30
0.0
 11
148.0372245920589
 21
270.1015034492428
 31
0.0
  0
ARC
  5
1EC
330
2
100
AcDbEntity
  8
0
 48
0.6
100
AcDbCircle
 10
143.0804115028894
 20
232.8852725601941
 30
0.0
 40
26.81626566478071
100
AcDbArc
 50
79.34799026067249
 51
90.09227342919791
  0
LINE
  5
1ED
330
2
100
AcDbEntity
  8
0
 48
0.6
100
AcDbLine
 10
137.0372245920589
 20
258.8015034492446
 30
0.0
 11
148.0372245920589
 21
258.8015034492446
 31
0.0
  0
LINE
  5
1EE
330
2
100
AcDbEntity
  8
2
 48
0.6
100
AcDbLine
 10
143.0372245920589
 20
269.201503449244
 30
0.0
 11
143.0372245920589
 21
259.7015034492433
 31
0.0
  0
LINE
  5
1F0
330
2
100
AcDbEntity
  8
0
100
AcDbLine
 10
150.0372245920589
 20
309.4515034492441
 30
0.0
 11
150.0372245920589
 21
219.4515034492433
 31
0.0
  0
LINE
  5
1F1
330
2
100
AcDbEntity
  8
0
100
AcDbLine
 10
156.637224592059
 20
309.4515034492455
 30
0.0
 11
156.637224592059
 21
219.4515034492433
 31
0.0
  0
ARC
  5
1F2
330
2
100
AcDbEntity
  8
0
 48
0.6
100
AcDbCircle
 10
392.5893551975293
 20
286.6883769781253
 30
0.0
 40
237.9720042064083
100
AcDbArc
 50
198.5053580224706
 51
202.4173514037041
  0
ARC
  5
1F3
330
2
100
AcDbEntity
  8
0
 48
0.6
100
AcDbCircle
 10
367.2774817542206
 20
277.5423214612595
 30
0.0
 40
217.995938408068
100
AcDbArc
 50
196.2949043034234
 51
201.99259447011
  0
LWPOLYLINE
  5
1F4
330
2
100
AcDbEntity
  8
0
100
AcDbPolyline
 90
      467
 70
     0
 43
0.0
 10
165.1446140116066
 20
195.905730764655
 10
165.1468122936863
 20
195.9068058504378
 10
165.1670565439259
 20
195.9166079510788
 10
165.1872760093072
 20
195.9262998549494
 10
165.2074707329271
 20
195.9358820042668
 10
165.2276407578963
 20
195.9453548412341
 10
165.2477861273351
 20
195.9547188080698
 10
165.2679068843561
 20
195.9639743469809
 10
165.2880030720468
 20
195.973121900178
 10
165.3080747335468
 20
195.9821619098759
 10
165.328121911946
 20
195.991094818283
 10
165.3481446503763
 20
195.999921067612
 10
165.3681429919349
 20
196.0086411000713
 10
165.3881169797356
 20
196.0172553578751
 10
165.4080666568849
 20
196.025764283234
 10
165.4279920665163
 20
196.0341683183589
 10
165.4478932517057
 20
196.0424679054611
 10
165.467770255597
 20
196.0506634867521
 10
165.4876231212771
 20
196.0587555044419
 10
165.5074518918778
 20
196.0667444007405
 10
165.5272566104857
 20
196.074630617864
 10
165.5470373202359
 20
196.0824145980179
 10
165.5667940642349
 20
196.0900967834178
 10
165.5865268855857
 20
196.097677616273
 10
165.6062358274071
 20
196.1051575387929
 10
165.6259209327971
 20
196.112536993194
 10
165.6455822448867
 20
196.1198164216819
 10
165.6652198067665
 20
196.1269962664703
 10
165.6848336615664
 20
196.134076969771
 10
165.7044238523855
 20
196.1410589737914
 10
165.7239904223468
 20
196.1479427207479
 10
165.7435334145471
 20
196.154728652849
 10
165.7630528721063
 20
196.1614172123056
 10
165.7825488381355
 20
196.1680088413296
 10
165.8020213557471
 20
196.1745039821319
 10
165.8214704680474
 20
196.1809030769247
 10
165.8408962181463
 20
196.1872065679196
 10
165.8602986491556
 20
196.1934148973239
 10
165.8796778041967
 20
196.1995285073533
 10
165.8990337263773
 20
196.2055478402159
 10
165.9183664587968
 20
196.2114733381247
 10
165.9376760445763
 20
196.217305443292
 10
165.9569625268346
 20
196.2230445979228
 10
165.9762259486677
 20
196.2286912442375
 10
165.995466353185
 20
196.2342458244389
 10
166.014683783517
 20
196.239708780745
 10
166.0338782827663
 20
196.2450805553628
 10
166.0530498940358
 20
196.250361590504
 10
166.0721986604464
 20
196.255552328381
 10
166.0913246250971
 20
196.2606532112038
 10
166.1104278311183
 20
196.265664681184
 10
166.129508321607
 20
196.2705871805331
 10
166.1485661396771
 20
196.2754211514628
 10
166.1676013284474
 20
196.2801670361838
 10
166.1866139310174
 20
196.284825276906
 10
166.2056039905063
 20
196.2893963158409
 10
166.2245715500164
 20
196.2938805952033
 10
166.2435166526671
 20
196.2982785571981
 10
166.2624393415761
 20
196.3025906440409
 10
166.2813396598473
 20
196.306817297944
 10
166.3002176505768
 20
196.3109589611151
 10
166.3190733569068
 20
196.3150160757656
 10
166.3379068219281
 20
196.3189890841111
 10
166.3567180887464
 20
196.322878428358
 10
166.3755072004956
 20
196.3266845507179
 10
166.394274200266
 20
196.3304078934049
 10
166.4130191311765
 20
196.3340488986256
 10
166.4317420363464
 20
196.3376080085978
 10
166.4504429588767
 20
196.3410856655258
 10
166.4691219418772
 20
196.3444823116258
 10
166.4877790284669
 20
196.3477983891081
 10
166.5064142617471
 20
196.3510343401809
 10
166.5250276848481
 20
196.3541906070561
 10
166.5436193408574
 20
196.3572676319479
 10
166.5621892729055
 20
196.3602658570669
 10
166.5807375240863
 20
196.363185724622
 10
166.5992641375257
 20
196.3660276768247
 10
166.6177691563358
 20
196.3687921558878
 10
166.6362526236176
 20
196.3714796040233
 10
166.6547145824758
 20
196.3740904634398
 10
166.6731550760475
 20
196.3766251763479
 10
166.6915741474174
 20
196.379084184962
 10
166.7099718397173
 20
196.381467931492
 10
166.7283481960464
 20
196.383776858148
 10
166.7467032595184
 20
196.3860114071428
 10
166.7650370732468
 20
196.3881720206829
 10
166.7833496803367
 20
196.3902591409889
 10
166.8016411239066
 20
196.392273210263
 10
166.8199114470668
 20
196.394214670721
 10
166.8381606929276
 20
196.3960839645731
 10
166.8563889045969
 20
196.3978815340299
 10
166.8745961251866
 20
196.3996078213024
 10
166.8927823978161
 20
196.4012632686019
 10
166.9109477655863
 20
196.402848318143
 10
166.9290922716179
 20
196.4043634121319
 10
166.9472159590066
 20
196.4058089927809
 10
166.9653188708859
 20
196.4071855023051
 10
166.9834010503478
 20
196.40849338291
 10
167.0014625405062
 20
196.4097330768101
 10
167.0195033844855
 20
196.4109050262161
 10
167.0375236253863
 20
196.4120096733401
 10
167.0555233063267
 20
196.4130474603923
 10
167.0735024704177
 20
196.4140188295816
 10
167.0914611607574
 20
196.414924223123
 10
167.1093994204662
 20
196.4157640832246
 10
167.1273172926564
 20
196.4165388521013
 10
167.1452148204359
 20
196.4172489719619
 10
167.1630920469277
 20
196.4178948850168
 10
167.1809490152271
 20
196.4184770334801
 10
167.1987857684476
 20
196.4189958595577
 10
167.2166023497071
 20
196.4194518054648
 10
167.2343988021172
 20
196.4198453134146
 10
167.252175168786
 20
196.420176825615
 10
167.2699314928274
 20
196.4204467842776
 10
167.2876678173476
 20
196.4206556316128
 10
167.3053841854676
 20
196.4208038098334
 10
167.3230806402868
 20
196.4208917611501
 10
167.3407572249186
 20
196.420919927775
 10
167.3584139824768
 20
196.4208887519163
 10
167.3760509560768
 20
196.4207986757875
 10
167.3936681888269
 20
196.4206501416007
 10
167.4112657238371
 20
196.4204435915674
 10
167.4288436042177
 20
196.4201794678927
 10
167.4464018730856
 20
196.4198582127954
 10
167.4639405735366
 20
196.4194802684818
 10
167.4814597487063
 20
196.4190460771671
 10
167.4989594416864
 20
196.4185560810599
 10
167.5164396955958
 20
196.4180107223708
 10
167.5339005535466
 20
196.4174104433129
 10
167.5513420586473
 20
196.4167556860945
 10
167.5687642540166
 20
196.4160468929318
 10
167.5861671827466
 20
196.4152845060319
 10
167.6035508879675
 20
196.4144689676065
 10
167.6209154127869
 20
196.4136007198678
 10
167.6382608003176
 20
196.4126802050261
 10
167.655587093656
 20
196.4117078652923
 10
167.6728943359256
 20
196.41068414288
 10
167.6901825702468
 20
196.4096094799968
 10
167.7074518397173
 20
196.4084843188567
 10
167.7247021874471
 20
196.4073091016695
 10
167.7419336565478
 20
196.4060842706491
 10
167.7591462901371
 20
196.4048102680019
 10
167.7763401313266
 20
196.4034875359427
 10
167.7935152232264
 20
196.4021165166803
 10
167.8106716089466
 20
196.400697652429
 10
167.8278093315973
 20
196.3992313853965
 10
167.8449284342848
 20
196.3977181577963
 10
167.8620289601354
 20
196.3961584118413
 10
167.8791109522469
 20
196.3945525897381
 10
167.896174453736
 20
196.3929011336992
 10
167.9132195077061
 20
196.3912044859396
 10
167.9302461572758
 20
196.3894630886664
 10
167.9472544455681
 20
196.3876773840895
 10
167.9642444156676
 20
196.3858478144274
 10
167.9812161107063
 20
196.3839748218827
 10
167.9981695737975
 20
196.382058848672
 10
168.0151048480263
 20
196.3801003370059
 10
168.0320219765369
 20
196.378099729092
 10
168.0489210024176
 20
196.3760574671456
 10
168.0658019687859
 20
196.3739739933769
 10
168.0826649187663
 20
196.371849749995
 10
168.0995098954469
 20
196.369685179213
 10
168.1163369419562
 20
196.3674807232407
 10
168.1331461013968
 20
196.3652368242943
 10
168.1499374168858
 20
196.3629539245773
 10
168.1667109315264
 20
196.3606324663058
 10
168.1834666884356
 20
196.3582728916891
 10
168.2002047307275
 20
196.3558756429413
 10
168.2169251015171
 20
196.3534411622693
 10
168.2336278438967
 20
196.3509698918854
 10
168.2503130009978
 20
196.3484622740031
 10
168.266980615918
 20
196.345918750833
 10
168.2836307317763
 20
196.3433397645859
 10
168.3002633916773
 20
196.3407257574696
 10
168.3168786387366
 20
196.3380771717021
 10
168.3334765160768
 20
196.3353944494876
 10
168.3500570667863
 20
196.3326780330419
 10
168.3666203339969
 20
196.329928364574
 10
168.3831663608059
 20
196.3271458862962
 10
168.399695190327
 20
196.3243310404193
 10
168.4162068656775
 20
196.3214842691552
 10
168.4327014299675
 20
196.3186060147143
 10
168.449178926298
 20
196.3156967193069
 10
168.4656393977971
 20
196.3127568251468
 10
168.4820828875551
 20
196.3097867744406
 10
168.4985094387073
 20
196.3067870094056
 10
168.5149190943471
 20
196.3037579722501
 10
168.5313118975979
 20
196.300700105182
 10
168.5476878915566
 20
196.297613850418
 10
168.5640471193461
 20
196.2944996501653
 10
168.5803896240765
 20
196.2913579466393
 10
168.5967154488559
 20
196.2881891820467
 10
168.6130246367963
 20
196.2849937985991
 10
168.6293172310186
 20
196.2817722385113
 10
168.6455932746181
 20
196.2785249439909
 10
168.6618528107072
 20
196.2752523572518
 10
168.6780958824061
 20
196.2719549205028
 10
168.6943225328166
 20
196.2686330759568
 10
168.7105328050663
 20
196.2652872658238
 10
168.7267267422473
 20
196.2619179323148
 10
168.7429043874861
 20
196.2585255176433
 10
168.7590657838871
 20
196.2551104640176
 10
168.7752109745566
 20
196.251673213652
 10
168.7913400026162
 20
196.2482142087525
 10
168.8074529111771
 20
196.2447338915374
 10
168.8235497433366
 20
196.2412327042131
 10
168.8396305422253
 20
196.2377110889905
 10
168.8556953509365
 20
196.234169488083
 10
168.8717442125859
 20
196.2306083437008
 10
168.8877771702981
 20
196.2270280980554
 10
168.9037942671681
 20
196.223429193358
 10
168.9197955463176
 20
196.2198120718196
 10
168.935781050847
 20
196.2161771756511
 10
168.9517508238865
 20
196.2125249470639
 10
168.9677049085263
 20
196.2088558282701
 10
168.9836433478873
 20
196.2051702614783
 10
168.9995661850758
 20
196.201468688903
 10
169.0154734632167
 20
196.1977515527516
 10
169.0313652254069
 20
196.1940192952404
 10
169.0472415147675
 20
196.1902723585768
 10
169.0631023743961
 20
196.1865111849716
 10
169.0789478474258
 20
196.1827362166393
 10
169.0947779769474
 20
196.1789478957891
 10
169.1105928060759
 20
196.1751466646312
 10
169.1263923779358
 20
196.1713329653768
 10
169.1421767356267
 20
196.1675072402393
 10
169.1579459222564
 20
196.1636699314274
 10
169.1736999809461
 20
196.1598214811539
 10
169.1894389547966
 20
196.1559623316313
 10
169.2051628869363
 20
196.1520929250671
 10
169.220871820468
 20
196.1482137036756
 10
169.2365657984853
 20
196.1443251096677
 10
169.2522448641271
 20
196.140427585253
 10
169.2679090604858
 20
196.1365215726406
 10
169.2835584306854
 20
196.1326075140489
 10
169.2991930178274
 20
196.128685851683
 10
169.3148128650269
 20
196.1247570277548
 10
169.3304180153961
 20
196.120821484478
 10
169.3460085120467
 20
196.1168796640624
 10
169.3615843980849
 20
196.1129320087168
 10
169.3771457166264
 20
196.1089789606568
 10
169.3926925107776
 20
196.1050209620909
 10
169.408224823656
 20
196.101058455231
 10
169.423742698377
 20
196.0970918822893
 10
169.4392461780468
 20
196.0931216854753
 10
169.4547353057665
 20
196.0891483069993
 10
169.4702101246573
 20
196.085172189075
 10
169.485670677836
 20
196.081193773912
 10
169.5011170084059
 20
196.0772135037215
 10
169.5165491594768
 20
196.0732318207158
 10
169.5319671741678
 20
196.0692491671068
 10
169.5473710955762
 20
196.0652659851026
 10
169.5627609668269
 20
196.0612827169168
 10
169.578136831026
 20
196.0572998047611
 10
169.5934987312853
 20
196.0533176908421
 10
169.6088467107171
 20
196.0493368173771
 10
169.6241808124366
 20
196.0453576265751
 10
169.6395010795465
 20
196.0413805606451
 10
169.654807555166
 20
196.0374060618006
 10
169.6701002823964
 20
196.0334345722533
 10
169.6853793043563
 20
196.0294665342131
 10
169.7006446641559
 20
196.0255023898886
 10
169.7158964049075
 20
196.0215425814956
 10
169.7311345697168
 20
196.0175875512442
 10
169.7463592016963
 20
196.0136377413448
 10
169.7615703439667
 20
196.0096935940095
 10
169.7767680396361
 20
196.0057555514455
 10
169.7919523318056
 20
196.0018240558691
 10
169.8071232635963
 20
195.9978995494891
 10
169.8222808781181
 20
195.9939824745171
 10
169.8374252184756
 20
195.9900732731631
 10
169.852556327786
 20
195.9861723876421
 10
169.8676742491668
 20
195.9822802601594
 10
169.8827790257171
 20
195.978397332932
 10
169.8978707005469
 20
195.9745240481681
 10
169.9129493167863
 20
195.970660848079
 10
169.928014917527
 20
195.9668081748756
 10
169.9430675458868
 20
195.9629664707711
 10
169.9581072449771
 20
195.959136177975
 10
169.9731340579063
 20
195.9553177386966
 10
169.9881480277969
 20
195.95151159515
 10
170.0031491977467
 20
195.9477181895483
 10
170.0181376108764
 20
195.9439379640959
 10
170.0331133102979
 20
195.9401713610129
 10
170.0480763391067
 20
195.9364188225023
 10
170.0630267404346
 20
195.9326807907798
 10
170.0779645573771
 20
195.928957708056
 10
170.0928898330555
 20
195.9252500165396
 10
170.1078026105849
 20
195.9215581584465
 10
170.1227029330554
 20
195.917882575982
 10
170.1375908436063
 20
195.9142237113621
 10
170.1524663853276
 20
195.9105820067978
 10
170.1673296013366
 20
195.9069579044969
 10
170.1821805347469
 20
195.9033518466728
 10
170.1970192286687
 20
195.8997642755364
 10
170.2118457262065
 20
195.8961956332998
 10
170.2266600704849
 20
195.892646362172
 10
170.2414623046067
 20
195.889116904367
 10
170.2562524716856
 20
195.8856077020933
 10
170.2710306148353
 20
195.8821191975637
 10
170.2857967771566
 20
195.878651832989
 10
170.3005510017761
 20
195.8752060505791
 10
170.3152933317968
 20
195.8717822925465
 10
170.3300238103263
 20
195.8683810011041
 10
170.344742480486
 20
195.8650026184598
 10
170.3594493853676
 20
195.8616475868273
 10
170.3741445681068
 20
195.8583163484161
 10
170.3888280718062
 20
195.8550093454397
 10
170.4034999395668
 20
195.8517270201062
 10
170.4181602145169
 20
195.8484698146281
 10
170.4328089397465
 20
195.8452381712153
 10
170.4474461583855
 20
195.8420325320828
 10
170.4620719135481
 20
195.8388533394388
 10
170.476686248318
 20
195.8357010354959
 10
170.4912892058351
 20
195.8325760624631
 10
170.5058808292057
 20
195.8294788625541
 10
170.5204611615268
 20
195.8264098779783
 10
170.5350302459181
 20
195.8233695509481
 10
170.5495881254963
 20
195.8203583236711
 10
170.564134843368
 20
195.8173766383653
 10
170.578670442647
 20
195.8144249372378
 10
170.593194966427
 20
195.8115036624979
 10
170.6077084578472
 20
195.8086132563609
 10
170.6222109600064
 20
195.8057541610362
 10
170.6367025160076
 20
195.802926818734
 10
170.6511831689774
 20
195.8001316716647
 10
170.6656529620183
 20
195.7973691620439
 10
170.6801119382349
 20
195.794639732079
 10
170.6945601407556
 20
195.7919438239844
 10
170.7089976126759
 20
195.7892818799662
 10
170.7234243971166
 20
195.786654342238
 10
170.7378405371861
 20
195.784061653013
 10
170.7522460759961
 20
195.7815042545019
 10
170.7666410566568
 20
195.7789825889128
 10
170.7810255222764
 20
195.7764970984597
 10
170.7953995159684
 20
195.774048225355
 10
170.8097630808467
 20
195.7716364118054
 10
170.8241162600266
 20
195.7692621000261
 10
170.8384590966058
 20
195.7669257322269
 10
170.8527916337159
 20
195.7646277506193
 10
170.8671139144469
 20
195.7623685974114
 10
170.8814259819179
 20
195.7601487148196
 10
170.8957278792466
 20
195.7579685450521
 10
170.9100196495353
 20
195.7558285303199
 10
170.9243013359071
 20
195.7537291128348
 10
170.9385729814556
 20
195.7516707348083
 10
170.9528346293071
 20
195.7496538384532
 10
170.9670863225661
 20
195.7476788659757
 10
170.9813281043468
 20
195.7457462595909
 10
170.995560017755
 20
195.743856461511
 10
171.0097821059068
 20
195.742009913945
 10
171.0239944119173
 20
195.740207059103
 10
171.0381969788856
 20
195.7384483392003
 10
171.0523898499365
 20
195.7367341964434
 10
171.0665730681764
 20
195.7350650730448
 10
171.0807466767171
 20
195.7334414112181
 10
171.0949107186576
 20
195.7318636531719
 10
171.1090652371264
 20
195.7303322411192
 10
171.1232102752262
 20
195.7288476172705
 10
171.1373458760759
 20
195.7274102238354
 10
171.1514720827769
 20
195.7260205030259
 10
171.1655889384461
 20
195.7246788970566
 10
171.1796964861974
 20
195.7233858481338
 10
171.1937947691264
 20
195.7221417984723
 10
171.2078838303666
 20
195.7209471902799
 10
171.2219637130171
 20
195.719802465771
 10
171.2360344601863
 20
195.7187080671549
 10
171.2500961149969
 20
195.7176644366429
 10
171.2641487205461
 20
195.7166720164479
 10
171.278192319957
 20
195.715731248779
 10
171.2922269563265
 20
195.714842575847
 10
171.3062526727869
 20
195.7140064398661
 10
171.3202695124371
 20
195.7132232830461
 10
171.3342775183851
 20
195.7124935475968
 10
171.3482767337471
 20
195.7118176757296
 10
171.362267201636
 20
195.7111961096568
 10
171.3762489651552
 20
195.7106292915898
 10
171.3902220674269
 20
195.710117663738
 10
171.4041865515562
 20
195.7096616683154
 10
171.4181424606564
 20
195.709261747532
 10
171.432089837836
 20
195.7089183435948
 10
171.4460287262161
 20
195.7086318987228
 10
171.4599591688972
 20
195.7084028551214
 10
171.473881208977
 20
195.7082316550051
 10
171.4877948895962
 20
195.7081187405808
 10
171.5017002538558
 20
195.708064554066
 10
171.5155973448571
 20
195.708069537666
 10
171.5294862057278
 20
195.7081341335941
 10
171.5433668795563
 20
195.7082587840629
 10
171.5572394094766
 20
195.7084439312809
 10
171.5711038385859
 20
195.7086900174605
 10
171.5849602099976
 20
195.708997484816
 10
171.5988085668346
 20
195.709366775554
 10
171.6126489521963
 20
195.7097983318874
 10
171.6264814091961
 20
195.7102925960267
 10
171.640305980935
 20
195.710850010186
 10
171.6541227105559
 20
195.7114710165731
 10
171.6679316411362
 20
195.7121560573989
 10
171.6817328158072
 20
195.7129055748789
 10
171.695526277667
 20
195.7137200112194
 10
171.7093120698361
 20
195.7145998086337
 10
171.7230902354266
 20
195.7155454093319
 10
171.7368608175372
 20
195.7165572555302
 10
171.7506238592965
 20
195.7176357894329
 10
171.7643794038056
 20
195.7187814532547
 10
171.7781274941778
 20
195.7199946892071
 10
171.791868173527
 20
195.7212759394998
 10
171.8056014849578
 20
195.722625646343
 10
171.8193274715764
 20
195.7240442519511
 10
171.8330461765169
 20
195.7255321985333
 10
171.8467576428673
 20
195.7270899283031
 10
171.8604619137556
 20
195.728717883466
 10
171.8741590322866
 20
195.7304165062389
 10
171.887849041567
 20
195.7321862388328
 10
171.9015319847173
 20
195.7340275234539
 10
171.9152079048369
 20
195.7359408023178
 10
171.9288768450357
 20
195.7379265176339
 10
171.9425388484475
 20
195.7399851116172
 10
171.9561939581678
 20
195.7421170264731
 10
171.9698422172975
 20
195.7443227044139
 10
171.9834836689666
 20
195.7466025876549
 10
171.9971183562764
 20
195.748957118403
 10
172.0107463223472
 20
195.75138673887
 10
172.0243676102771
 20
195.7538918912717
 10
172.0379822631864
 20
195.7564730178139
 10
172.0515903241856
 20
195.759130560709
 10
172.0651918363861
 20
195.7618649621688
 10
172.0787868428967
 20
195.7646766644072
 10
172.092375386827
 20
195.7675661096279
 10
172.1059575112855
 20
195.7705337400508
 10
172.1195332593967
 20
195.773579997881
 10
172.133102674267
 20
195.7767053253329
 10
172.1466657989974
 20
195.7799101646153
 10
172.1602226767069
 20
195.7831949579423
 10
172.1737733505167
 20
195.7865601475243
 10
172.1873178635184
 20
195.7900061755696
 10
172.2008562588259
 20
195.7935334842911
 10
172.2143885795673
 20
195.7971425159032
 10
172.2279148688473
 20
195.8008337126108
 10
172.2414351697686
 20
195.80460751663
 10
172.2549495254358
 20
195.808464370171
 10
172.2684579789864
 20
195.8124047154439
 10
172.2819605735173
 20
195.8164289946624
 10
172.2954573521353
 20
195.8205376500329
 10
172.3089483579558
 20
195.8247311237716
 10
172.3224336340869
 20
195.8290098580875
 10
172.3359132236481
 20
195.8333742951906
 10
172.349387169747
 20
195.8378248772921
 10
172.3628555154852
 20
195.8423620466094
 10
172.3763183039979
 20
195.846986245345
 10
172.3897755783679
 20
195.851697915714
 10
172.4032273817272
 20
195.8564974999273
 10
172.4166737571765
 20
195.8613854401971
 10
172.430114747826
 20
195.8663621787339
 10
172.4435503967967
 20
195.8714281577484
 10
172.4569807471858
 20
195.8765838194524
 10
172.4704058421181
 20
195.8818296060556
 10
172.4838257247071
 20
195.8871659597722
 10
172.4972404380466
 20
195.8925933228094
 10
172.5106500252555
 20
195.8981121373805
 10
172.524054529457
 20
195.9037228456965
 10
172.5374539937481
 20
195.9094258899729
 10
172.550848461248
 20
195.9152217124131
 10
172.5642379750666
 20
195.9211107552329
 10
172.577622578307
 20
195.927093460643
 10
172.5910023140865
 20
195.9331702708519
 10
172.6007553740771
 20
195.9376704589483
  0
ARC
  5
1F5
330
2
100
AcDbEntity
  8
0
100
AcDbCircle
 10
158.799355918949
 20
207.5019794053863
 30
0.0
 40
8.907313409310658
100
AcDbArc
 50
24.23072274293526
 51
94.90087069773977
  0
ARC
  5
1F6
330
2
100
AcDbEntity
  8
0
100
AcDbCircle
 10
167.193778635599
 20
211.6089806735319
 30
0.0
 40
0.5
100
AcDbArc
 50
90.0
 51
177.9685271120391
  0
ARC
  5
1F7
330
2
100
AcDbEntity
  8
0
 48
0.6
100
AcDbCircle
 10
198.0474525388397
 20
218.9491685582488
 30
0.0
 40
35.255792
100
AcDbArc
 50
179.9962054631615
 51
182.9919319862273
  0
ARC
  5
1F8
330
2
100
AcDbEntity
  8
0
 48
0.6
100
AcDbCircle
 10
198.3399465920591
 20
218.862857449243
 30
0.0
 40
33.95579199999998
100
AcDbArc
 50
179.85042300002
 51
182.9607459492086
  0
ARC
  5
1F9
330
2
100
AcDbEntity
  8
0
100
AcDbCircle
 10
162.8312732627291
 20
215.8012122497911
 30
0.0
 40
1.318158315128889
100
AcDbArc
 50
89.65642249345519
 51
172.1237927370686
  0
ARC
  5
1FA
330
2
100
AcDbEntity
  8
0
 48
0.6
100
AcDbCircle
 10
198.6361525279498
 20
218.7874689733929
 30
0.0
 40
37.855792
100
AcDbArc
 50
179.8658330000312
 51
183.9724199931055
  0
ARC
  5
1FB
330
2
100
AcDbEntity
  8
0
 48
0.6
100
AcDbCircle
 10
198.3399465920591
 20
218.862857449243
 30
0.0
 40
39.15579199999999
100
AcDbArc
 50
179.8702870000233
 51
183.6102158837779
  0
LINE
  5
1FC
330
2
100
AcDbEntity
  8
0
100
AcDbLine
 10
157.5372245920589
 20
228.5527661077144
 30
0.0
 11
157.5372245920589
 21
220.852766107715
 31
0.0
  0
ARC
  5
1FD
330
2
100
AcDbEntity
  8
0
100
AcDbCircle
 10
166.5372245920589
 20
219.4515034492433
 30
0.0
 40
0.5
100
AcDbArc
 50
270.0
 51
0.0
  0
LINE
  5
1FE
330
2
100
AcDbEntity
  8
0
100
AcDbLine
 10
150.0372245920589
 20
219.4515034492433
 30
0.0
 11
156.637224592059
 21
219.4515034492433
 31
0.0
  0
LINE
  5
1FF
330
2
100
AcDbEntity
  8
0
100
AcDbLine
 10
157.0372245920589
 20
219.9515034492433
 30
0.0
 11
157.0372245920589
 21
219.4515034492433
 31
0.0
  0
LINE
  5
200
330
2
100
AcDbEntity
  8
0
100
AcDbLine
 10
156.637224592059
 20
220.852766107715
 30
0.0
 11
157.5372245920589
 21
220.852766107715
 31
0.0
  0
ARC
  5
201
330
2
100
AcDbEntity
  8
0
100
AcDbCircle
 10
157.5372245920589
 20
219.4515034492433
 30
0.0
 40
0.5
100
AcDbArc
 50
180.0
 51
270.0
  0
LINE
  5
202
330
2
100
AcDbEntity
  8
0
100
AcDbLine
 10
166.5372245920589
 20
218.9515034492433
 30
0.0
 11
157.5372245920589
 21
218.9515034492433
 31
0.0
  0
LINE
  5
203
330
2
100
AcDbEntity
  8
0
100
AcDbLine
 10
167.0372245920589
 20
219.9515034492433
 30
0.0
 11
167.0372245920589
 21
219.4515034492433
 31
0.0
  0
LINE
  5
204
330
2
100
AcDbEntity
  8
0
100
AcDbLine
 10
156.637224592059
 20
228.5527661077144
 30
0.0
 11
157.5372245920589
 21
228.5527661077144
 31
0.0
  0
LINE
  5
205
330
2
100
AcDbEntity
  8
0
100
AcDbLine
 10
157.5372245920589
 20
300.3502407907731
 30
0.0
 11
157.5372245920589
 21
308.050240790772
 31
0.0
  0
LINE
  5
206
330
2
100
AcDbEntity
  8
0
100
AcDbLine
 10
156.637224592059
 20
300.3502407907731
 30
0.0
 11
157.5372245920589
 21
300.3502407907731
 31
0.0
  0
LINE
  5
207
102
{ACAD_REACTORS
330
20B
102
}
330
2
100
AcDbEntity
  8
0
100
AcDbLine
 10
156.637224592059
 20
308.050240790772
 30
0.0
 11
157.5372245920589
 21
308.050240790772
 31
0.0
  0
LINE
  5
208
330
2
100
AcDbEntity
  8
0
100
AcDbLine
 10
150.0372245920589
 20
309.4515034492441
 30
0.0
 11
156.637224592059
 21
309.4515034492441
 31
0.0
  0
DIMENSION
  5
209
102
{ACAD_XDICTIONARY
360
20A
102
}
102
{ACAD_REACTORS
330
20B
102
}
330
2
100
AcDbEntity
  8
0
100
AcDbDimension
  2
*D42
 10
157.5372245920589
 20
321.4832482077848
 30
0.0
 11
153.7872245920589
 21
321.4832482077848
 31
0.0
 70
   160
  3
STANDARD
100
AcDbAlignedDimension
 13
150.0372245920589
 23
308.6598367825781
 33
0.0
 14
157.5372245920589
 24
308.050240790772
 34
0.0
100
AcDbRotatedDimension
  0
LINE
  5
218
102
{ACAD_REACTORS
330
271
102
}
330
2
100
AcDbEntity
  8
0
100
AcDbLine
 10
148.0372245920589
 20
305.9515034492441
 30
0.0
 11
148.0372245920589
 21
222.9515034492433
 31
0.0
  0
LINE
  5
219
330
2
100
AcDbEntity
  8
0
100
AcDbLine
 10
150.0372245920589
 20
222.9515034492433
 30
0.0
 11
148.0372245920589
 21
222.9515034492433
 31
0.0
  0
LINE
  5
21A
330
2
100
AcDbEntity
  8
0
100
AcDbLine
 10
150.0372245920589
 20
305.9515034492441
 30
0.0
 11
148.0372245920589
 21
305.9515034492441
 31
0.0
  0
DIMENSION
  5
21B
330
2
100
AcDbEntity
  8
0
100
AcDbDimension
  2
*D41
 10
150.0372245920589
 20
321.4832482077848
 30
0.0
 11
141.0372245920589
 21
321.4832482077848
 31
0.0
 70
   160
  3
STANDARD
100
AcDbAlignedDimension
 13
148.0372245920589
 23
305.9515034492441
 33
0.0
 14
150.0372245920589
 24
309.4515034492441
 34
0.0
100
AcDbRotatedDimension
  0
MTEXT
  5
22A
102
{ACAD_REACTORS
330
263
102
}
330
2
100
AcDbEntity
  8
0
 62
     3
100
AcDbMText
 10
73.03553830029887
 20
337.4717385174303
 30
0.0
 40
3.0
 41
0.0
 71
     9
 72
     1
  1
4-%%C6.5 hole
1001
ACAD
1000
MTEXTBEGIN
1070
    73
1070
     1
1070
    44
1040
1.0
1070
    74
1070
     0
1000
MTEXTEND
1000
MTEXTBEGIN
1070
    73
1070
     1
1070
    44
1040
1.0
1070
    74
1070
     0
1000
MTEXTEND
1000
MTEXTBEGIN
1070
    73
1070
     1
1070
    44
1040
1.0
1070
    74
1070
     0
1000
MTEXTEND
  0
ARC
  5
22B
330
2
100
AcDbEntity
  8
0
 48
0.6
100
AcDbCircle
 10
31.9685854445197
 20
295.2606831281191
 30
0.0
 40
3.067967999999998
100
AcDbArc
 50
51.94867448061305
 51
116.3656725032109
  0
ARC
  5
22C
330
2
100
AcDbEntity
  8
0
 48
0.6
100
AcDbCircle
 10
31.9685854445197
 20
234.7863832959808
 30
0.0
 40
3.067967999999998
100
AcDbArc
 50
243.634327496789
 51
308.0513255193868
  0
CIRCLE
  5
22D
330
2
100
AcDbEntity
  8
0
 48
0.6
100
AcDbCircle
 10
47.0313280467999
 20
265.0235332120501
 30
0.0
 40
20.0
  0
CIRCLE
  5
22E
330
2
100
AcDbEntity
  8
0
 48
0.6
100
AcDbCircle
 10
47.0313280467999
 20
265.0235332120501
 30
0.0
 40
42.00000000000005
  0
CIRCLE
  5
22F
330
2
100
AcDbEntity
  8
0
 48
0.6
100
AcDbCircle
 10
47.0313280467999
 20
265.0235332120501
 30
0.0
 40
43.5
  0
INSERT
  5
230
330
2
100
AcDbEntity
  8
0
100
AcDbBlockReference
  2
4
 10
47.0313280467999
 20
265.0235332120501
 30
0.0
  0
LINE
  5
231
330
2
100
AcDbEntity
  8
CL
 48
0.6
100
AcDbLine
 10
-2.221948167589288
 20
265.0235332120501
 30
0.0
 11
96.2846042612
 21
265.0235332120501
 31
0.0
  0
DIMENSION
  5
232
330
2
100
AcDbEntity
  8
0
100
AcDbDimension
  2
*D40
 10
92.03132804679993
 20
322.6259658549074
 30
0.0
 11
47.0313280467999
 21
322.6259658549074
 31
0.0
 70
   160
  3
STANDARD
100
AcDbAlignedDimension
 13
2.031328046799897
 23
304.9807394532531
 33
0.0
 14
92.03132804679993
 24
304.9807394532545
 34
0.0
100
AcDbRotatedDimension
  0
ARC
  5
23F
330
2
100
AcDbEntity
  8
0
 48
0.6
100
AcDbCircle
 10
46.95586373262083
 20
265.0235332120501
 30
0.0
 40
33.74764799999999
100
AcDbArc
 50
162.2801918472015
 51
197.7198081527984
  0
ARC
  5
240
330
2
100
AcDbEntity
  8
0
 48
0.6
100
AcDbCircle
 10
11.88691622933947
 20
253.8182441719868
 30
0.0
 40
3.067967999999998
100
AcDbArc
 50
321.9486744806221
 51
17.71980815279839
  0
ARC
  5
241
330
2
100
AcDbEntity
  8
0
 48
0.6
100
AcDbCircle
 10
16.71871381655
 20
250.0362549239471
 30
0.0
 40
3.067967999999998
100
AcDbArc
 50
141.9486744806222
 51
206.3656725032168
  0
ARC
  5
242
330
2
100
AcDbEntity
  8
0
 48
0.6
100
AcDbCircle
 10
46.95586373262083
 20
265.0235332120501
 30
0.0
 40
36.81561599999999
100
AcDbArc
 50
116.3656725032109
 51
153.634327496783
  0
ARC
  5
243
330
2
100
AcDbEntity
  8
0
 48
0.6
100
AcDbCircle
 10
11.88691622933947
 20
276.2288222521141
 30
0.0
 40
3.067967999999998
100
AcDbArc
 50
342.2801918472013
 51
38.05132551937779
  0
ARC
  5
244
330
2
100
AcDbEntity
  8
0
 48
0.6
100
AcDbCircle
 10
16.71871381655
 20
280.010811500153
 30
0.0
 40
3.067967999999998
100
AcDbArc
 50
153.634327496783
 51
218.0513255193776
  0
ARC
  5
245
330
2
100
AcDbEntity
  8
0
 48
0.6
100
AcDbCircle
 10
46.95586373262083
 20
265.0235332120501
 30
0.0
 40
36.81561599999999
100
AcDbArc
 50
206.3656725032168
 51
243.634327496789
  0
ARC
  5
246
330
2
100
AcDbEntity
  8
0
 48
0.6
100
AcDbCircle
 10
31.84997970397853
 20
206.4348345952111
 30
0.0
 40
39.15579199999999
100
AcDbArc
 50
16.65391050761257
 51
20.30648800596492
  0
LINE
  5
247
330
2
100
AcDbEntity
  8
0
100
AcDbLine
 10
64.27258604366034
 20
215.3898596149701
 30
0.0
 11
70.764717389211
 21
218.2804595917009
 31
0.0
  0
ARC
  5
248
330
2
100
AcDbEntity
  8
0
 48
0.6
100
AcDbCircle
 10
99.18227025417946
 20
234.3340858605916
 30
0.0
 40
39.15579199999999
100
AcDbArc
 50
201.4369589999631
 51
208.5517089163135
  0
ARC
  5
249
330
2
100
AcDbEntity
  8
0
 48
0.6
100
AcDbCircle
 10
165.4107952882404
 20
274.1498076864441
 30
0.0
 40
116.9686661741607
100
AcDbArc
 50
210.1560153536115
 51
216.2412691602773
  0
ARC
  5
24A
330
2
100
AcDbEntity
  8
0
 48
0.6
100
AcDbCircle
 10
153.3523400721787
 20
266.9234400164459
 30
0.0
 40
95.84808274048763
100
AcDbArc
 50
210.4975034246499
 51
218.0575295674634
  0
LWPOLYLINE
  5
24B
330
2
100
AcDbEntity
  8
0
100
AcDbPolyline
 90
      548
 70
     0
 43
0.0
 10
71.07150723041923
 20
204.9994816184784
 10
71.07452264552923
 20
205.0140550332621
 10
71.07807109685928
 20
205.0307147219309
 10
71.08169851503953
 20
205.047267767399
 10
71.0854046453187
 20
205.0637145255303
 10
71.08918923294004
 20
205.0800553522071
 10
71.09305202313954
 20
205.0962906032959
 10
71.09699276116043
 20
205.112420634671
 10
71.10101119224964
 20
205.1284458022081
 10
71.10510706165041
 20
205.1443664617782
 10
71.10928011459873
 20
205.1601829692513
 10
71.11353009634877
 20
205.1758956805028
 10
71.11785675212923
 20
205.191504951408
 10
71.12225982719063
 20
205.2070111378351
 10
71.126739066769
 20
205.22241459566
 10
71.13129421612029
 20
205.2377156807561
 10
71.13592502046959
 20
205.252914748992
 10
71.14063122506924
 20
205.2680121562433
 10
71.14541257516975
 20
205.2830082583846
 10
71.15026881599987
 20
205.2979034112875
 10
71.15519969279922
 20
205.3126979708221
 10
71.1602049508292
 20
205.327392292866
 10
71.16528433531858
 20
205.3419867332891
 10
71.17043759149964
 20
205.3564816479638
 10
71.17566446464116
 20
205.370877392766
 10
71.18096469996999
 20
205.3851743235635
 10
71.1863380427294
 20
205.3993727962341
 10
71.19178423815902
 20
205.4134731666481
 10
71.19730303151118
 20
205.4274757906799
 10
71.20289416802006
 20
205.4413810242022
 10
71.20855739292892
 20
205.4551892230849
 10
71.21429245147918
 20
205.4689007432028
 10
71.2200990889196
 20
205.4825159404308
 10
71.22597705048973
 20
205.496035170639
 10
71.23192608144019
 20
205.509458789701
 10
71.2379459269905
 20
205.5227871534893
 10
71.24403633240945
 20
205.5360206178784
 10
71.25019704291843
 20
205.5491595387406
 10
71.25642780376985
 20
205.5622042719469
 10
71.26272836021053
 20
205.575155173371
 10
71.26909845746921
 20
205.5880125988878
 10
71.27553784080918
 20
205.6007769043671
 10
71.28204625545006
 20
205.6134484456843
 10
71.28862344664958
 20
205.6260275787103
 10
71.29526915964925
 20
205.63851465932
 10
71.30198313969049
 20
205.650910043385
 10
71.30876513200927
 20
205.6632140867777
 10
71.3156148818507
 20
205.675427145371
 10
71.32253213445983
 20
205.6875495750391
 10
71.32951663507083
 20
205.6995817316542
 10
71.33656812893969
 20
205.7115239710869
 10
71.34368636130965
 20
205.7233766492148
 10
71.35087107740947
 20
205.7351401219047
 10
71.35812202248962
 20
205.7468147450354
 10
71.36543894178977
 20
205.758400874477
 10
71.3728215805495
 20
205.769898866102
 10
71.38026968402845
 20
205.781309075783
 10
71.3877829974499
 20
205.792631859395
 10
71.39536126606071
 20
205.8038675728079
 10
71.40300423510962
 20
205.8150165718994
 10
71.41071164983988
 20
205.8260792125365
 10
71.41848325547835
 20
205.8370558505948
 10
71.42631879727924
 20
205.8479468419468
 10
71.43421802048942
 20
205.8587525424649
 10
71.44218067035033
 20
205.869473308024
 10
71.45020649209802
 20
205.880109494495
 10
71.45829523097019
 20
205.8906614577522
 10
71.46644663223014
 20
205.901129553667
 10
71.47466044108842
 20
205.9115141381107
 10
71.48293640281917
 20
205.9218155669609
 10
71.49127426264931
 20
205.9320341960869
 10
71.49967376582026
 20
205.9421703813625
 10
71.50813465757892
 20
205.9522244786621
 10
71.51665668316855
 20
205.9621968438546
 10
71.52523958783969
 20
205.9720878328162
 10
71.53388311681009
 20
205.9818978014177
 10
71.54258701533945
 20
205.9916271055338
 10
71.55135102866916
 20
206.001276101038
 10
71.56017490204795
 20
206.0108451437999
 10
71.56905838070997
 20
206.0203345896951
 10
71.57800120988941
 20
206.0297447945954
 10
71.58700313483859
 20
206.039076114373
 10
71.59606390080989
 20
206.0483289049024
 10
71.60518325302837
 20
206.0575035220538
 10
71.61436093675002
 20
206.0666003217042
 10
71.62359669719808
 20
206.0756196597238
 10
71.63289027963947
 20
206.0845618919865
 10
71.64224142929923
 20
206.093427374361
 10
71.65164989142795
 20
206.1022164627284
 10
71.66111541127065
 20
206.1109295129525
 10
71.67063773405971
 20
206.1195668809118
 10
71.68021660504019
 20
206.1281289224779
 10
71.68985176945898
 20
206.1366159935228
 10
71.69954297255936
 20
206.1450284499215
 10
71.70928995957911
 20
206.153366647545
 10
71.71909247576876
 20
206.161630942266
 10
71.72895026636068
 20
206.169821689958
 10
71.73886307659995
 20
206.1779392464925
 10
71.7488306517407
 20
206.1859839677472
 10
71.75885273699894
 20
206.193956209587
 10
71.76892907764886
 20
206.2018563278909
 10
71.77905941891005
 20
206.2096846785307
 10
71.78924350603846
 20
206.2174416173792
 10
71.79948108426834
 20
206.2251275003068
 10
71.80977189883923
 20
206.232742683188
 10
71.82011569501081
 20
206.2402875218968
 10
71.83051221800997
 20
206.2477623723051
 10
71.84096121307994
 20
206.2551675902864
 10
71.85146242546943
 20
206.2625035317119
 10
71.86201560041991
 20
206.2697705524541
 10
71.87262048316916
 20
206.2769690083892
 10
71.88327681896044
 20
206.2840992553883
 10
71.89398435304065
 20
206.2911616493211
 10
71.90474283064941
 20
206.2981565460661
 10
71.91555199702998
 20
206.3050843014912
 10
71.92641159742925
 20
206.3119452714722
 10
71.93732137707957
 20
206.318739811881
 10
71.94828108122783
 20
206.3254682785914
 10
71.95929045512818
 20
206.3321310274764
 10
71.97034924401123
 20
206.3387284144059
 10
71.98145719310923
 20
206.3452607952558
 10
71.99261404768911
 20
206.3517285258985
 10
72.00381955296871
 20
206.3581319622033
 10
72.01507345421124
 20
206.3644714600495
 10
72.02637549664905
 20
206.3707473753049
 10
72.03772542552906
 20
206.3769600638432
 10
72.04912298607816
 20
206.3831098815398
 10
72.06056792357047
 20
206.3891971842663
 10
72.07205998320933
 20
206.3952223278919
 10
72.08359891027794
 20
206.4011856682955
 10
72.09518444997775
 20
206.4070875613456
 10
72.10681634759018
 20
206.4129283629163
 10
72.11849434832949
 20
206.4187084288819
 10
72.13021819744972
 20
206.4244281151121
 10
72.14198764018873
 20
206.4300877774829
 10
72.1538024217989
 20
206.4356877718669
 10
72.16566228751069
 20
206.4412284541329
 10
72.17756698257836
 20
206.4467101801592
 10
72.1895162522287
 20
206.4521333058153
 10
72.20150984171958
 20
206.4574981869764
 10
72.21354749628881
 20
206.4628051795128
 10
72.22562896117051
 20
206.468054639299
 10
72.23775398161887
 20
206.4732469222058
 10
72.24992230286989
 20
206.4783823841103
 10
72.26213367017044
 20
206.4834613808788
 10
72.27438782874924
 20
206.4884842683909
 10
72.28668452386954
 20
206.4934514025158
 10
72.2990235007601
 20
206.4983631391291
 10
72.31140450467866
 20
206.503219834099
 10
72.32382728084849
 20
206.5080218433021
 10
72.33629157452014
 20
206.5127695226109
 10
72.3487971309296
 20
206.5174632278949
 10
72.36134369534011
 20
206.522103315031
 10
72.37393101296039
 20
206.5266901398913
 10
72.38655882906823
 20
206.5312240583489
 10
72.39922688888873
 20
206.5357054262745
 10
72.41193493765968
 20
206.5401345995403
 10
72.42468272062978
 20
206.544511934025
 10
72.4374699830496
 20
206.5488377855948
 10
72.45029647014963
 20
206.5531125101264
 10
72.46316192717859
 20
206.5573364634909
 10
72.47606609936884
 20
206.5615100015611
 10
72.48900873198
 20
206.5656334802123
 10
72.50198957023894
 20
206.5697072553148
 10
72.51500835939805
 20
206.573731682741
 10
72.52806484469875
 20
206.5777071183674
 10
72.54115877137883
 20
206.5816339180631
 10
72.55428988467975
 20
206.5855124377021
 10
72.5674579298593
 20
206.5893430331574
 10
72.58066265212983
 20
206.593126060302
 10
72.59390379676915
 20
206.5968618750101
 10
72.6071811089987
 20
206.6005508331499
 10
72.62049433405991
 20
206.6041932906
 10
72.63384321719968
 20
206.6077896032296
 10
72.64722750367036
 20
206.6113401269126
 10
72.66064693868975
 20
206.6148452175228
 10
72.67410126752839
 20
206.618305230932
 10
72.68759023541861
 20
206.6217205230141
 10
72.70111358758914
 20
206.6250914496395
 10
72.71467106929957
 20
206.6284183666819
 10
72.72826242578958
 20
206.6317016300172
 10
72.74188740229873
 20
206.6349415955136
 10
72.75554574406851
 20
206.638138619049
 10
72.76923719634033
 20
206.6412930564924
 10
72.78296150435926
 20
206.6444052637169
 10
72.79671841337041
 20
206.6474755965973
 10
72.8105076686097
 20
206.6505044110054
 10
72.82432901532956
 20
206.6534920628141
 10
72.83818219876048
 20
206.6564389078948
 10
72.85206696414935
 20
206.6593453021223
 10
72.86598305675035
 20
206.6622116013703
 10
72.87993022177944
 20
206.665038161508
 10
72.89390820450897
 20
206.6678253384143
 10
72.90791675016044
 20
206.670573487955
 10
72.92195560398976
 20
206.6732829660054
 10
72.93602451122932
 20
206.675954128442
 10
72.95012321711872
 20
206.6785873311341
 10
72.96425146691944
 20
206.681182929954
 10
72.97840900586016
 20
206.6837412807779
 10
72.99259557917868
 20
206.6862627394761
 10
73.00681093212915
 20
206.6887476619204
 10
73.02105480994942
 20
206.6911964039849
 10
73.03532695787906
 20
206.6936093215454
 10
73.04962712117049
 20
206.6959867704713
 10
73.0639550450487
 20
206.6983291066339
 10
73.07831047476975
 20
206.7006366859099
 10
73.09269315556957
 20
206.7029098641709
 10
73.10710283269874
 20
206.7051489972899
 10
73.12153925138955
 20
206.7073544411413
 10
73.13600215689803
 20
206.709526551592
 10
73.15049129444924
 20
206.7116656845219
 10
73.16500640929915
 20
206.7137721958
 10
73.17954724668926
 20
206.7158464413
 10
73.19411355185001
 20
206.7178887768941
 10
73.20870507003928
 20
206.7198995584558
 10
73.22332154648939
 20
206.7218791418572
 10
73.23796272644905
 20
206.7238278829729
 10
73.25262835515968
 20
206.725746137675
 10
73.26731817786094
 20
206.7276342618364
 10
73.2820319397997
 20
206.7294926113294
 10
73.29676938621012
 20
206.7313215420266
 10
73.31153026233915
 20
206.733121409802
 10
73.32631431342996
 20
206.7348925705273
 10
73.34112128472952
 20
206.736635380076
 10
73.35595092146832
 20
206.7383501943218
 10
73.37080296889872
 20
206.740037369135
 10
73.38567717226943
 20
206.7416972603917
 10
73.40057327681098
 20
206.7433302239623
 10
73.41549102776117
 20
206.7449366157215
 10
73.43043017036869
 20
206.7465167915393
 10
73.44539044988959
 20
206.748071107291
 10
73.46037161154891
 20
206.749599918848
 10
73.47537340059898
 20
206.7511035820848
 10
73.49039556227943
 20
206.7525824528742
 10
73.50543784182992
 20
206.7540368870881
 10
73.52049998449911
 20
206.7554672405981
 10
73.53558173551937
 20
206.7568738692802
 10
73.5506828401285
 20
206.7582571290039
 10
73.56580304359886
 20
206.7596173756437
 10
73.58094209113914
 20
206.7609549650735
 10
73.5960997280199
 20
206.7622702531656
 10
73.61127569945892
 20
206.763563595792
 10
73.62646975071037
 20
206.7648353488251
 10
73.64168162701935
 20
206.766085868139
 10
73.65691107362909
 20
206.7673155096048
 10
73.67215783577012
 20
206.7685246290971
 10
73.68742165869844
 20
206.7697135824901
 10
73.70270228765003
 20
206.7708827256546
 10
73.71799946786994
 20
206.7720324144624
 10
73.73331294459967
 20
206.7731630047883
 10
73.74864246307879
 20
206.7742748525041
 10
73.76398776854876
 20
206.7753683134838
 10
73.77934860626009
 20
206.7764437435994
 10
73.79472472144879
 20
206.7775014987232
 10
73.81011585935993
 20
206.7785419347301
 10
73.8255217652404
 20
206.7795654074902
 10
73.84094218431892
 20
206.7805722728784
 10
73.85637686184963
 20
206.7815628867669
 10
73.87182554307947
 20
206.7825376050291
 10
73.88728797324073
 20
206.7834967835365
 10
73.90276389756945
 20
206.7844407781622
 10
73.91825306132886
 20
206.785369944779
 10
73.93375520974041
 20
206.786284639263
 10
73.94927008806917
 20
206.7871852174821
 10
73.9647974415293
 20
206.7880720353141
 10
73.98033701538953
 20
206.7889454486278
 10
73.99588855487855
 20
206.7898058132973
 10
74.01145180523963
 20
206.790653485194
 10
74.02702651171967
 20
206.7914888201953
 10
74.04261241956008
 20
206.792312174169
 10
74.0582092739987
 20
206.7931239029911
 10
74.07381682028972
 20
206.7939243625341
 10
74.08943480365997
 20
206.7947139086695
 10
74.1050629693691
 20
206.7954928972699
 10
74.12070106264036
 20
206.7962616842101
 10
74.13634882872795
 20
206.797020625362
 10
74.1520060128787
 20
206.797770076599
 10
74.16767236031954
 20
206.7985103937933
 10
74.18334761631013
 20
206.799241932816
 10
74.19903152607912
 20
206.7999650495429
 10
74.21472383487889
 20
206.8006800998455
 10
74.23042428794906
 20
206.8013874395981
 10
74.24613263052925
 20
206.8020874246708
 10
74.26184860786086
 20
206.8027804109383
 10
74.27757196518903
 20
206.8034667542741
 10
74.29330244776065
 20
206.8041468105479
 10
74.30903980080984
 20
206.8048209356383
 10
74.32478376959079
 20
206.8054894854121
 10
74.34053409932857
 20
206.8061528157441
 10
74.35629053527918
 20
206.8068112825088
 10
74.37205282268951
 20
206.8074652415789
 10
74.38782070677915
 20
206.8081150488237
 10
74.4035939328187
 20
206.808761060121
 10
74.41937224603861
 20
206.8094036313404
 10
74.43515539166947
 20
206.810043118357
 10
74.45094311497816
 20
206.8106798770409
 10
74.4667351611788
 20
206.8113142632681
 10
74.48253127554017
 20
206.8119466329085
 10
74.49833120329095
 20
206.8125773418364
 10
74.51413468966894
 20
206.8132067459223
 10
74.52994147993923
 20
206.8138352010432
 10
74.54575131931959
 20
206.814463063069
 10
74.56156395306061
 20
206.8150906878768
 10
74.57737912640005
 20
206.8157184313331
 10
74.59319658459936
 20
206.8163466493118
 10
74.60901607287816
 20
206.816975697692
 10
74.62483733649969
 20
206.8176059323398
 10
74.64066012067997
 20
206.8182377091305
 10
74.65648417068951
 20
206.8188713839404
 10
74.67230923176065
 20
206.8195073126348
 10
74.6881350491185
 20
206.8201458510929
 10
74.7039613680408
 20
206.820787355185
 10
74.71978793372909
 20
206.8214321807845
 10
74.73561449146109
 20
206.8220806837653
 10
74.75144078646008
 20
206.8227332199958
 10
74.76726656397841
 20
206.823390145354
 10
74.78309156925025
 20
206.8240518157121
 10
74.79891554752065
 20
206.8247185869404
 10
74.8147382440293
 20
206.8253908149122
 10
74.83055940402845
 20
206.8260688555009
 10
74.84637877274872
 20
206.8267530645811
 10
74.86219609544969
 20
206.8274437980244
 10
74.87801111734916
 20
206.828141411704
 10
74.8938235837104
 20
206.8288462614908
 10
74.90963323976939
 20
206.8295587032593
 10
74.92543983076939
 20
206.8302790928818
 10
74.94124310194091
 20
206.8310077862324
 10
74.95704279853999
 20
206.8317451391822
 10
74.97283866581892
 20
206.832491507605
 10
74.98863044899008
 20
206.8332472473747
 10
75.00441789332033
 20
206.8340127143633
 10
75.02020074404936
 20
206.8347882644419
 10
75.03597874640945
 20
206.8355742534849
 10
75.05175164564935
 20
206.8363710373664
 10
75.06751918701954
 20
206.8371789719563
 10
75.08328111573973
 20
206.8379984131293
 10
75.09903717707856
 20
206.8388297167589
 10
75.1147871162593
 20
206.8396732387163
 10
75.1305306785398
 20
206.8405293348773
 10
75.14626760914871
 20
206.8413983611089
 10
75.16199765332931
 20
206.8422806732904
 10
75.1777205563394
 20
206.84317662729
 10
75.19343606340953
 20
206.8440865789848
 10
75.20914391977931
 20
206.8450108842443
 10
75.22484387069926
 20
206.8459498989407
 10
75.24053566141083
 20
206.84690397895
 10
75.25621903715908
 20
206.8478734801423
 10
75.27189374316913
 20
206.8488587583942
 10
75.28755952469873
 20
206.8498601695742
 10
75.30321612699845
 20
206.8508780695569
 10
75.3188632952897
 20
206.8519128142152
 10
75.33450077482848
 20
206.8529647594246
 10
75.35012831084895
 20
206.8540342610508
 10
75.36574564861076
 20
206.8551216749761
 10
75.38135253334075
 20
206.8562273570655
 10
75.39694871027859
 20
206.8573516631959
 10
75.41253392468025
 20
206.8584949492383
 10
75.42810792176897
 20
206.859657571066
 10
75.44367044680985
 20
206.8608398845531
 10
75.45922124503886
 20
206.8620422455718
 10
75.47476006169016
 20
206.8632650099939
 10
75.49028664200888
 20
206.8645085336934
 10
75.50580073124002
 20
206.8657731725419
 10
75.5213020746287
 20
206.8670592824164
 10
75.53679041741088
 20
206.8683672191832
 10
75.55226550483893
 20
206.8696973387214
 10
75.56772708213975
 20
206.871049996897
 10
75.58317489456931
 20
206.8724255495911
 10
75.59860868735995
 20
206.8738243526691
 10
75.6140282057695
 20
206.8752467620079
 10
75.62943319502847
 20
206.8766931334788
 10
75.6448234003783
 20
206.878163822957
 10
75.66019856706953
 20
206.8796591863109
 10
75.67555844033996
 20
206.8811795794188
 10
75.6909027654292
 20
206.8827253581498
 10
75.70623128758963
 20
206.8842968783786
 10
75.72154375204809
 20
206.885894495975
 10
75.73683990406061
 20
206.8875185668161
 10
75.75211948885955
 20
206.889169446772
 10
75.76738225169902
 20
206.8908474917179
 10
75.78262793781869
 20
206.892553057522
 10
75.79785629244907
 20
206.8942865000638
 10
75.81306706084068
 20
206.8960481752109
 10
75.82825998824955
 20
206.8978384388374
 10
75.84343481988979
 20
206.8996576468183
 10
75.85859130103017
 20
206.901506155021
 10
75.87372917689936
 20
206.9033843193259
 10
75.8888481927388
 20
206.9052924956013
 10
75.90394809380995
 20
206.9072310397181
 10
75.91902862532879
 20
206.9092003075543
 10
75.93408953254949
 20
206.9112006549794
 10
75.9491305607098
 20
206.9132324378692
 10
75.96415145506944
 20
206.9152960120923
 10
75.97915196084795
 20
206.9173917335227
 10
75.99413182329953
 20
206.9195199580383
 10
76.00909078767836
 20
206.9216810415039
 10
76.02402859920039
 20
206.923875339799
 10
76.03894500312891
 20
206.9261032087934
 10
76.05383974469805
 20
206.9283650043606
 10
76.06871256914018
 20
206.9306610823723
 10
76.08356322172949
 20
206.9329917987043
 10
76.09839144767102
 20
206.935357509225
 10
76.11319699222986
 20
206.937758569812
 10
76.12797960064925
 20
206.9401953363349
 10
76.14273901815976
 20
206.9426681646659
 10
76.15747499001009
 20
206.9451774106823
 10
76.17218726143983
 20
206.9477234302539
 10
76.18687557769955
 20
206.9503065792509
 10
76.20153968402883
 20
206.9529272135523
 10
76.21617932566005
 20
206.9555856890269
 10
76.23079424784918
 20
206.9582823615458
 10
76.24538419582859
 20
206.9610175869865
 10
76.25994891484879
 20
206.963791721222
 10
76.27448815014031
 20
206.9666051201188
 10
76.28900164695915
 20
206.969458139557
 10
76.30348915055037
 20
206.9723511354053
 10
76.31795040613906
 20
206.9752844635381
 10
76.33238515897938
 20
206.9782584798258
 10
76.34679315431094
 20
206.9812735401459
 10
76.36117413737884
 20
206.9843300003662
 10
76.37552785341904
 20
206.9874282163623
 10
76.38985404767845
 20
206.9905685440093
 10
76.40415246541123
 20
206.9937513391755
 10
76.41842285184066
 20
206.9969769577332
 10
76.43266495220995
 20
207.0002457555609
 10
76.44687851177876
 20
207.0035580885273
 10
76.46106327577945
 20
207.0069143125059
 10
76.47521898944797
 20
207.0103147833719
 10
76.48934539804031
 20
207.0137598569958
 10
76.50344224679066
 20
207.0172498892492
 10
76.51750928094043
 20
207.020785236007
 10
76.53154624572926
 20
207.0243662531406
 10
76.5455528864204
 20
207.0279932965254
 10
76.55952894822985
 20
207.0316667220315
 10
76.57347417640995
 20
207.0353868855327
 10
76.5873883162094
 20
207.0391541429038
 10
76.60127111286056
 20
207.0429688500155
 10
76.61512231161943
 20
207.0468313627424
 10
76.62894165771831
 20
207.0507420369529
 10
76.64272889639869
 20
207.0547012285259
 10
76.65648377291109
 20
207.0587092933299
 10
76.67020603247873
 20
207.0627665872393
 10
76.68389542037949
 20
207.066873466128
 10
76.69755168182018
 20
207.0710302858645
 10
76.71117456206045
 20
207.0752374023291
 10
76.72476380633999
 20
207.0794951713878
 10
76.73831915989831
 20
207.0838039489189
 10
76.75184036798964
 20
207.0881640907891
 10
76.76532717584088
 20
207.0925759528768
 10
76.77877932870979
 20
207.0970398910508
 10
76.79219657182875
 20
207.1015562611869
 10
76.8055786504392
 20
207.1061254191556
 10
76.81892530977894
 20
207.1107477208328
 10
76.83223629510941
 20
207.1154235220908
 10
76.8455113516502
 20
207.120153178799
 10
76.85875022467008
 20
207.1249370468311
 10
76.87195265939045
 20
207.1297754820629
 10
76.88511840106001
 20
207.134668840368
 10
76.89824719492026
 20
207.1396174776126
 10
76.91133878621986
 20
207.1446217496772
 10
76.92439292018935
 20
207.149682012431
 10
76.93740934207927
 20
207.1547986217451
 10
76.95038779714014
 20
207.1599719334972
 10
76.96332803060069
 20
207.1652023035556
 10
76.97622978769868
 20
207.170490087797
 10
76.98909281369925
 20
207.1758356420899
 10
77.00191685382923
 20
207.1812393223101
 10
77.01470165333012
 20
207.1867014843291
 10
77.02744695744877
 20
207.1922224840236
 10
77.04015251142845
 20
207.197802677261
 10
77.0528180605106
 20
207.2034424199141
 10
77.06544334992759
 20
207.2091420678621
 10
77.07802812493901
 20
207.214901976972
 10
77.09057213078995
 20
207.2207225031188
 10
77.10307511270001
 20
207.2266040021763
 10
77.11553681592886
 20
207.2325468300141
 10
77.1279569857088
 20
207.2385513425079
 10
77.14033536729949
 20
207.2446178955305
 10
77.15267170592959
 20
207.2507468449543
 10
77.16496574684061
 20
207.2569385466503
 10
77.17721723526847
 20
207.2631933564939
 10
77.18942591647828
 20
207.2695116303556
 10
77.20159153569875
 20
207.2758937241113
 10
77.21371383817859
 20
207.2823399936333
 10
77.22579256915016
 20
207.2888507947914
 10
77.23782747386031
 20
207.2954264834601
 10
77.2498182975487
 20
207.302067415513
 10
77.26176478546951
 20
207.3087739468219
 10
77.27366668284957
 20
207.3155464332621
 10
77.28552373494858
 20
207.3223852307032
 10
77.29733568699884
 20
207.3292906950199
 10
77.30910228424
 20
207.336263182084
 10
77.32082327190983
 20
207.343303047769
 10
77.3324983952698
 20
207.3504106479481
 10
77.34412739954859
 20
207.3575863384949
 10
77.35571002998948
 20
207.3648304752786
 10
77.36724603183937
 20
207.372143414177
 10
77.37873515033969
 20
207.379525511059
 10
77.39017713074098
 20
207.386977121799
 10
77.40157171825922
 20
207.3944986022724
 10
77.41291865816856
 20
207.4020903083459
 10
77.42421769569045
 20
207.4097525958973
 10
77.43546857607906
 20
207.4174858207984
 10
77.4466710445704
 20
207.4252903389218
 10
77.45782484639858
 20
207.4331665061388
 10
77.46892972682871
 20
207.4411146783266
 10
77.47998543108952
 20
207.4491352113532
 10
77.49099170441876
 20
207.4572284610944
 10
77.50194829206884
 20
207.4653947834201
 10
77.51285493927935
 20
207.473634534207
 10
77.52371139128991
 20
207.4819480693263
 10
77.53451739334924
 20
207.4903357446499
 10
77.54527269068967
 20
207.4987979160527
 10
77.55597702856903
 20
207.5073349394046
 10
77.56663015221056
 20
207.5159471705823
 10
77.57723180686844
 20
207.5246349654539
 10
77.58778173778956
 20
207.5333986798967
 10
77.59827969019898
 20
207.5422386697808
 10
77.60872540935998
 20
207.5511552909801
 10
77.61911864049944
 20
207.5601488993684
 10
77.62945912886971
 20
207.5692198508158
 10
77.63974661971042
 20
207.5783685011955
 10
77.64998085825936
 20
207.5875952063845
 10
77.6601615897689
 20
207.596900322252
 10
77.67028855946954
 20
207.6062842046708
 10
77.68036151261004
 20
207.6157472095183
 10
77.69038019444088
 20
207.6252896926594
 10
77.70034435018897
 20
207.634912009973
 10
77.71025372509939
 20
207.644614517329
 10
77.72010806442995
 20
207.654397570602
 10
77.72990711340935
 20
207.6642615256651
 10
77.73965061727904
 20
207.6742067383896
 10
77.74933832128954
 20
207.68423356465
 10
77.75896997067865
 20
207.6943423603174
 10
77.76854531068966
 20
207.7045334812658
 10
77.77806408656032
 20
207.7148072833674
 10
77.78752604353941
 20
207.725164122495
 10
77.7969309268792
 20
207.735604354523
 10
77.80627848179936
 20
207.7461283353208
 10
77.81556845355955
 20
207.7567364207669
 10
77.8248005873902
 20
207.7674289667302
 10
77.83397462854918
 20
207.7782063290833
 10
77.84309032226883
 20
207.7890688636994
 10
77.85214741378877
 20
207.8000169264519
 10
77.86114564835952
 20
207.8110508732151
 10
77.8700847712207
 20
207.822171059859
 10
77.87896452761017
 20
207.8333778422584
 10
77.88230897811991
 20
207.837660240863
  0
LINE
  5
24C
330
2
100
AcDbEntity
  8
0
 48
0.6
100
AcDbLine
 10
129.0372245920589
 20
269.1015034492429
 30
0.0
 11
130.0372245920589
 21
270.1015034492428
 31
0.0
  0
LINE
  5
24D
330
2
100
AcDbEntity
  8
0
 48
0.6
100
AcDbLine
 10
129.0372245920589
 20
259.8015034492444
 30
0.0
 11
130.0372245920589
 21
258.8015034492446
 31
0.0
  0
LINE
  5
24E
330
2
100
AcDbEntity
  8
2
 48
0.6
100
AcDbLine
 10
130.0372245920589
 20
270.1015034492428
 30
0.0
 11
130.0372245920589
 21
258.8015034492418
 31
0.0
  0
LINE
  5
24F
330
2
100
AcDbEntity
  8
0
 48
0.6
100
AcDbLine
 10
129.0372245920589
 20
269.1015034492429
 30
0.0
 11
129.0372245920589
 21
259.8015034492444
 31
0.0
  0
ARC
  5
250
330
2
100
AcDbEntity
  8
0
 48
0.6
100
AcDbCircle
 10
46.95586373262083
 20
265.0235332120501
 30
0.0
 40
33.74764799999999
100
AcDbArc
 50
342.2801918472013
 51
17.71980815279839
  0
ARC
  5
251
330
2
100
AcDbEntity
  8
0
 48
0.6
100
AcDbCircle
 10
82.02481123590953
 20
253.8182441719868
 30
0.0
 40
3.067967999999998
100
AcDbArc
 50
162.2801918472015
 51
218.0513255193776
  0
ARC
  5
252
330
2
100
AcDbEntity
  8
0
 48
0.6
100
AcDbCircle
 10
77.19301364868987
 20
250.0362549239471
 30
0.0
 40
3.067967999999998
100
AcDbArc
 50
333.6343274967831
 51
38.05132551937779
  0
ARC
  5
253
330
2
100
AcDbEntity
  8
0
 48
0.6
100
AcDbCircle
 10
46.95586373262083
 20
265.0235332120501
 30
0.0
 40
36.81561599999999
100
AcDbArc
 50
26.36567250321681
 51
63.63432749678904
  0
ARC
  5
254
330
2
100
AcDbEntity
  8
0
 48
0.6
100
AcDbCircle
 10
82.02481123590953
 20
276.2288222521141
 30
0.0
 40
3.067967999999998
100
AcDbArc
 50
141.9486744806222
 51
197.7198081527984
  0
ARC
  5
255
330
2
100
AcDbEntity
  8
0
 48
0.6
100
AcDbCircle
 10
77.19301364868987
 20
280.010811500153
 30
0.0
 40
3.067967999999998
100
AcDbArc
 50
321.9486744806221
 51
26.36567250321681
  0
LWPOLYLINE
  5
256
330
2
100
AcDbEntity
  8
3
100
AcDbPolyline
 90
        4
 70
     1
 43
0.0
 10
40.73583280266939
 20
323.4019173821175
 10
44.03583280267048
 20
323.4019173821175
 10
44.03583280267048
 20
326.9019173821175
 10
40.73583280266939
 20
326.9019173821175
  0
CIRCLE
  5
257
330
2
100
AcDbEntity
  8
0
 48
0.6
100
AcDbCircle
 10
47.0313280467999
 20
265.0235332120501
 30
0.0
 40
6.0
  0
ARC
  5
258
330
2
100
AcDbEntity
  8
0
 48
0.6
100
AcDbCircle
 10
58.16115277267817
 20
300.0924807153336
 30
0.0
 40
3.067967999999998
100
AcDbArc
 50
252.2801918471949
 51
308.0513255193868
  0
ARC
  5
259
330
2
100
AcDbEntity
  8
0
 48
0.6
100
AcDbCircle
 10
35.75057469255989
 20
300.0924807153336
 30
0.0
 40
3.067967999999998
100
AcDbArc
 50
231.948674480613
 51
287.7198081528051
  0
ARC
  5
25A
330
2
100
AcDbEntity
  8
0
 48
0.6
100
AcDbCircle
 10
46.95586373262083
 20
265.0235332120501
 30
0.0
 40
33.74764799999999
100
AcDbArc
 50
72.28019184719491
 51
107.7198081528049
  0
ARC
  5
25B
330
2
100
AcDbEntity
  8
0
 48
0.6
100
AcDbCircle
 10
61.94314202072018
 20
295.2606831281191
 30
0.0
 40
3.067967999999998
100
AcDbArc
 50
63.63432749678904
 51
128.0513255193867
  0
ARC
  5
25C
330
2
100
AcDbEntity
  8
0
 48
0.6
100
AcDbCircle
 10
58.16115277267817
 20
229.954585708766
 30
0.0
 40
3.067967999999998
100
AcDbArc
 50
51.94867448061305
 51
107.7198081528049
  0
ARC
  5
25D
330
2
100
AcDbEntity
  8
0
 48
0.6
100
AcDbCircle
 10
35.75057469255989
 20
229.954585708766
 30
0.0
 40
3.067967999999998
100
AcDbArc
 50
72.28019184719491
 51
128.0513255193867
  0
ARC
  5
25E
330
2
100
AcDbEntity
  8
0
 48
0.6
100
AcDbCircle
 10
46.95586373262083
 20
265.0235332120501
 30
0.0
 40
33.74764799999999
100
AcDbArc
 50
252.2801918471949
 51
287.7198081528051
  0
ARC
  5
25F
330
2
100
AcDbEntity
  8
0
 48
0.6
100
AcDbCircle
 10
61.94314202072018
 20
234.7863832959808
 30
0.0
 40
3.067967999999998
100
AcDbArc
 50
231.948674480613
 51
296.3656725032108
  0
LINE
  5
260
330
2
100
AcDbEntity
  8
CL
 48
0.6
100
AcDbLine
 10
65.6771560244797
 20
220.0235332120513
 30
0.0
 11
47.0313280467999
 21
265.0235332120501
 31
0.0
  0
ARC
  5
261
330
2
100
AcDbEntity
  8
0
 48
0.6
100
AcDbCircle
 10
46.95586373262083
 20
265.0235332120501
 30
0.0
 40
36.81561599999999
100
AcDbArc
 50
296.3656725032108
 51
333.6343274967831
  0
LINE
  5
262
102
{ACAD_REACTORS
330
149
102
}
330
2
100
AcDbEntity
  8
CL
 48
0.6
100
AcDbLine
 10
47.0313280467999
 20
211.393388448297
 30
0.0
 11
47.0313280467999
 21
318.653677975803
 31
0.0
  0
LEADER
  5
263
330
2
100
AcDbEntity
  8
0
100
AcDbLeader
  3
STANDARD
 73
     0
 75
     1
 40
3.0
 41
26.65178571428571
 76
     3
 10
83.82552124322865
 20
304.9427076648553
 30
0.0
 10
76.53553830029887
 20
336.4717385174303
 30
0.0
 10
74.03553830029887
 20
336.4717385174303
 30
0.0
340
22A
1001
ACAD
1000
DSTYLE
1002
{
1070
     5
1000

1070
   342
1005
0
1002
}
  0
LINE
  5
264
330
2
100
AcDbEntity
  8
0
 48
0.6
100
AcDbLine
 10
130.0372245920589
 20
270.1015034492428
 30
0.0
 11
148.0372245920589
 21
270.1015034492428
 31
0.0
  0
LINE
  5
265
330
2
100
AcDbEntity
  8
0
 48
0.6
100
AcDbLine
 10
130.0372245920589
 20
269.201503449244
 30
0.0
 11
143.0372245920589
 21
269.201503449244
 31
0.0
  0
LINE
  5
266
330
2
100
AcDbEntity
  8
CEN
 48
0.6
100
AcDbLine
 10
127.4763926704199
 20
269.5910034492431
 30
0.0
 11
151.0372245920589
 21
269.5910034492431
 31
0.0
  0
LINE
  5
269
330
2
100
AcDbEntity
  8
2
 48
0.6
100
AcDbLine
 10
143.0372245920589
 20
268.0501335529261
 30
0.0
 11
130.0372245920589
 21
261.4827742408942
 31
0.0
  0
LINE
  5
26A
330
2
100
AcDbEntity
  8
0
 48
0.6
100
AcDbLine
 10
130.0372245920589
 20
258.8015034492446
 30
0.0
 11
148.0372245920589
 21
258.8015034492446
 31
0.0
  0
LINE
  5
26B
330
2
100
AcDbEntity
  8
0
 48
0.6
100
AcDbLine
 10
130.0372245920589
 20
259.7015034492433
 30
0.0
 11
143.0372245920589
 21
259.7015034492433
 31
0.0
  0
LINE
  5
26C
330
2
100
AcDbEntity
  8
CEN
 48
0.6
100
AcDbLine
 10
127.2829474446989
 20
259.3120034492416
 30
0.0
 11
151.0372245920589
 21
259.3120034492416
 31
0.0
  0
LINE
  5
26D
330
2
100
AcDbEntity
  8
2
 48
0.6
100
AcDbLine
 10
143.0372245920589
 20
265.9064033335929
 30
0.0
 11
131.1346767549601
 21
259.7015034492433
 31
0.0
  0
LINE
  5
26E
330
2
100
AcDbEntity
  8
2
 48
0.6
100
AcDbLine
 10
143.0372245920589
 20
267.0715928262548
 30
0.0
 11
130.0372245920589
 21
260.1915021184113
 31
0.0
  0
DIMENSION
  5
26F
102
{ACAD_XDICTIONARY
360
270
102
}
102
{ACAD_REACTORS
330
271
102
}
330
2
100
AcDbEntity
  8
0
100
AcDbDimension
  2
*D39
 10
114.0308098147488
 20
222.9515034492433
 30
0.0
 11
114.0308098147488
 21
266.7460910049431
 31
0.0
 70
   160
  1
\A1;{\f??|b0|i0|c0|p49;%%c83\H0.7x;\S+0^ -0.035;\H1.429x;(h7)}
  3
STANDARD
100
AcDbAlignedDimension
 13
148.0372245920589
 23
305.9515034492441
 33
0.0
 14
148.0372245920589
 24
222.9515034492433
 34
0.0
 50
90.0
100
AcDbRotatedDimension
  0
DIMENSION
  5
27E
330
2
100
AcDbEntity
  8
0
100
AcDbDimension
  2
*D38
 10
150.0372245920589
 20
332.0167830133631
 30
0.0
 11
139.5372245920589
 21
332.0167830133631
 31
0.0
 70
   160
  3
STANDARD
100
AcDbAlignedDimension
 13
129.0372245920589
 23
269.1015034492429
 33
0.0
 14
150.0372245920589
 24
309.4515034492441
 34
0.0
100
AcDbRotatedDimension
  0
LINE
  5
28B
330
2
100
AcDbEntity
  8
0
100
AcDbLine
 10
258.1229534476388
 20
106.540511237209
 30
0.0
 11
290.1229534476497
 21
105.8547969514929
 31
0.0
  0
LINE
  5
28C
330
2
100
AcDbEntity
  8
CEN
100
AcDbLine
 10
250.8378306117683
 20
61.14051123720855
 30
0.0
 11
324.5517281586689
 21
61.14051123720855
 31
0.0
  0
LINE
  5
28D
330
2
100
AcDbEntity
  8
0
100
AcDbLine
 10
290.1229534476497
 20
74.14051123720857
 30
0.0
 11
290.1229534476497
 21
48.14051123720854
 31
0.0
  0
LINE
  5
28E
330
2
100
AcDbEntity
  8
0
100
AcDbLine
 10
290.1229534476497
 20
74.14051123720857
 30
0.0
 11
300.1229534476497
 21
74.14051123720857
 31
0.0
  0
LINE
  5
28F
330
2
100
AcDbEntity
  8
0
100
AcDbLine
 10
290.1229534476497
 20
48.14051123720854
 30
0.0
 11
300.1229534476497
 21
48.14051123720854
 31
0.0
  0
LINE
  5
290
330
2
100
AcDbEntity
  8
0
100
AcDbLine
 10
308.6229534476387
 20
104.3905112372085
 30
0.0
 11
300.1229534476387
 21
104.3905112372085
 31
0.0
  0
LINE
  5
291
330
2
100
AcDbEntity
  8
0
100
AcDbLine
 10
290.1229534476497
 20
104.6405112372085
 30
0.0
 11
300.1229534476497
 21
104.6405112372085
 31
0.0
  0
LINE
  5
292
330
2
100
AcDbEntity
  8
0
100
AcDbLine
 10
290.1229534476497
 20
105.8547969514929
 30
0.0
 11
290.1229534476497
 21
104.6405112372085
 31
0.0
  0
LINE
  5
293
330
2
100
AcDbEntity
  8
0
100
AcDbLine
 10
300.1229534476497
 20
104.6405112372085
 30
0.0
 11
300.1229534476387
 21
104.3905112372085
 31
0.0
  0
LINE
  5
294
330
2
100
AcDbEntity
  8
0
 48
0.6
100
AcDbLine
 10
319.1229534476387
 20
84.64051123720855
 30
0.0
 11
310.1229534476497
 21
84.64051123720855
 31
0.0
  0
LINE
  5
295
330
2
100
AcDbEntity
  8
0
100
AcDbLine
 10
308.6229534476387
 20
104.3905112372085
 30
0.0
 11
310.1229534476497
 21
102.8905112372084
 31
0.0
  0
ARC
  5
296
102
{ACAD_REACTORS
330
2A3
102
}
330
2
100
AcDbEntity
  8
0
 48
0.6
100
AcDbCircle
 10
319.1229534476387
 20
83.64051123720853
 30
0.0
 40
1.0
100
AcDbArc
 50
0.0
 51
90.0
  0
LINE
  5
297
102
{ACAD_REACTORS
330
2A3
102
}
330
2
100
AcDbEntity
  8
0
 48
0.6
100
AcDbLine
 10
319.1229534476387
 20
37.64051123720856
 30
0.0
 11
310.1229534476497
 21
37.64051123720856
 31
0.0
  0
LINE
  5
298
330
2
100
AcDbEntity
  8
0
100
AcDbLine
 10
312.6229534476497
 20
35.84051123720836
 30
0.0
 11
317.6229534476497
 21
35.84051123720836
 31
0.0
  0
LINE
  5
299
330
2
100
AcDbEntity
  8
0
100
AcDbLine
 10
312.6229534476497
 20
36.64051123720855
 30
0.0
 11
317.6229534476497
 21
36.64051123720855
 31
0.0
  0
LINE
  5
29A
330
2
100
AcDbEntity
  8
0
100
AcDbLine
 10
313.1229534476497
 20
35.84051123720836
 30
0.0
 11
313.1229534476497
 21
36.64051123720855
 31
0.0
  0
ARC
  5
29B
330
2
100
AcDbEntity
  8
0
100
AcDbCircle
 10
312.6229534476497
 20
37.64051123720856
 30
0.0
 40
1.0
100
AcDbArc
 50
180.0
 51
270.0
  0
ARC
  5
29C
330
2
100
AcDbEntity
  8
0
 48
0.6
100
AcDbCircle
 10
319.1229534476387
 20
38.64051123720855
 30
0.0
 40
1.0
100
AcDbArc
 50
270.0
 51
0.0
  0
LINE
  5
29D
330
2
100
AcDbEntity
  8
0
100
AcDbLine
 10
317.1229534476387
 20
35.84051123720836
 30
0.0
 11
317.1229534476387
 21
36.64051123720855
 31
0.0
  0
LINE
  5
29E
330
2
100
AcDbEntity
  8
0
100
AcDbLine
 10
315.1229534476497
 20
35.84051123720836
 30
0.0
 11
315.1229534476497
 21
36.64051123720855
 31
0.0
  0
ARC
  5
29F
330
2
100
AcDbEntity
  8
0
100
AcDbCircle
 10
317.6229534476497
 20
37.64051123720856
 30
0.0
 40
1.0
100
AcDbArc
 50
270.0
 51
0.0
  0
LINE
  5
2A0
102
{ACAD_REACTORS
330
2B2
102
}
330
2
100
AcDbEntity
  8
0
 48
0.6
100
AcDbLine
 10
320.1229534476388
 20
83.64051123720853
 30
0.0
 11
320.1229534476388
 21
38.64051123720855
 31
0.0
  0
DIMENSION
  5
2A1
102
{ACAD_XDICTIONARY
360
2A2
102
}
102
{ACAD_REACTORS
330
2A3
102
}
330
2
100
AcDbEntity
  8
0
100
AcDbDimension
  2
*D44
 10
332.840529833169
 20
37.64051123720856
 30
0.0
 11
332.840529833169
 21
59.60004641613521
 31
0.0
 70
   160
  1
%%c<>
  3
STANDARD
100
AcDbAlignedDimension
 13
319.1229534476387
 23
84.64051123720855
 33
0.0
 14
319.1229534476387
 24
37.64051123720856
 34
0.0
 50
90.0
100
AcDbRotatedDimension
  0
DIMENSION
  5
2B0
102
{ACAD_XDICTIONARY
360
2B1
102
}
102
{ACAD_REACTORS
330
2B2
102
}
330
2
100
AcDbEntity
  8
0
100
AcDbDimension
  2
*D43
 10
320.1229534476388
 20
128.7057908013284
 30
0.0
 11
315.1229534476386
 21
128.7057908013284
 31
0.0
 70
   160
  3
STANDARD
100
AcDbAlignedDimension
 13
310.1229534476497
 23
102.8905112372084
 33
0.0
 14
320.1229534476388
 24
83.64051123720853
 34
0.0
100
AcDbRotatedDimension
  0
DIMENSION
  5
2BF
102
{ACAD_XDICTIONARY
360
2C0
102
}
102
{ACAD_REACTORS
330
2C1
102
}
330
2
100
AcDbEntity
  8
0
100
AcDbDimension
  2
*D47
 10
322.7548009775891
 20
240.9515034492423
 30
0.0
 11
322.7548009775891
 21
262.9110386281689
 31
0.0
 70
   160
  1
%%c<>
  3
STANDARD
100
AcDbAlignedDimension
 13
309.0372245920588
 23
287.9515034492433
 33
0.0
 14
309.0372245920588
 24
240.9515034492424
 34
0.0
 50
90.0
100
AcDbRotatedDimension
  0
LINE
  5
2CE
102
{ACAD_REACTORS
330
304
102
}
330
2
100
AcDbEntity
  8
0
 48
0.6
100
AcDbLine
 10
310.0372245920698
 20
286.9515034492433
 30
0.0
 11
310.0372245920698
 21
241.9515034492433
 31
0.0
  0
LINE
  5
2CF
330
2
100
AcDbEntity
  8
0
100
AcDbLine
 10
248.0372245920589
 20
308.9515034492433
 30
0.0
 11
248.0372245920698
 21
219.9515034492433
 31
0.0
  0
LINE
  5
2D0
330
2
100
AcDbEntity
  8
0
100
AcDbLine
 10
248.0372245920589
 20
219.9515034492433
 30
0.0
 11
248.0372245920589
 21
308.9515034492433
 31
0.0
  0
LINE
  5
2D1
330
2
100
AcDbEntity
  8
0
100
AcDbLine
 10
248.0372245920589
 20
309.8515034492428
 30
0.0
 11
248.0372245920589
 21
219.0515034492445
 31
0.0
  0
LINE
  5
2D2
102
{ACAD_REACTORS
330
304
102
}
330
2
100
AcDbEntity
  8
0
100
AcDbLine
 10
300.0372245920698
 20
306.2015034492433
 30
0.0
 11
300.0372245920698
 21
222.7015034492441
 31
0.0
  0
LINE
  5
2D3
330
2
100
AcDbEntity
  8
0
100
AcDbLine
 10
290.0372245920698
 20
307.7015034492441
 30
0.0
 11
290.0372245920698
 21
221.201503449244
 31
0.0
  0
DIMENSION
  5
2D4
102
{ACAD_XDICTIONARY
360
2D5
102
}
102
{ACAD_REACTORS
330
2D6
102
}
330
2
100
AcDbEntity
  8
0
100
AcDbDimension
  2
*D46
 10
330.4628269605601
 20
221.201503449244
 30
0.0
 11
330.46282696056
 21
263.8338658887969
 31
0.0
 70
   160
  1
%%C<>
  3
STANDARD
100
AcDbAlignedDimension
 13
298.5372245920588
 23
307.7015034492441
 33
0.0
 14
298.5372245920588
 24
221.201503449244
 34
0.0
 50
90.0
100
AcDbRotatedDimension
  0
ARC
  5
2E3
330
2
100
AcDbEntity
  8
0
100
AcDbCircle
 10
307.5372245920698
 20
240.9515034492433
 30
0.0
 40
1.0
100
AcDbArc
 50
270.0
 51
0.0
  0
LINE
  5
2E4
330
2
100
AcDbEntity
  8
0
100
AcDbLine
 10
305.0372245920698
 20
239.151503449243
 30
0.0
 11
305.0372245920698
 21
239.9515034492433
 31
0.0
  0
LINE
  5
2E5
330
2
100
AcDbEntity
  8
0
100
AcDbLine
 10
307.0372245920588
 20
239.151503449243
 30
0.0
 11
307.0372245920588
 21
239.9515034492433
 31
0.0
  0
ARC
  5
2E6
330
2
100
AcDbEntity
  8
0
 48
0.6
100
AcDbCircle
 10
309.0372245920588
 20
241.9515034492433
 30
0.0
 40
1.0
100
AcDbArc
 50
270.0
 51
0.0
  0
LINE
  5
2E7
330
2
100
AcDbEntity
  8
0
100
AcDbLine
 10
307.5372245920698
 20
239.151503449243
 30
0.0
 11
307.5372245920698
 21
218.1089806735307
 31
0.0
  0
ARC
  5
2E8
330
2
100
AcDbEntity
  8
0
100
AcDbCircle
 10
302.5372245920698
 20
240.9515034492433
 30
0.0
 40
1.0
100
AcDbArc
 50
180.0
 51
270.0
  0
LINE
  5
2E9
330
2
100
AcDbEntity
  8
0
100
AcDbLine
 10
303.0372245920698
 20
239.151503449243
 30
0.0
 11
303.0372245920698
 21
239.9515034492433
 31
0.0
  0
LINE
  5
2EA
330
2
100
AcDbEntity
  8
0
100
AcDbLine
 10
298.5372245920588
 20
221.201503449244
 30
0.0
 11
300.0372245920698
 21
222.7015034492441
 31
0.0
  0
ARC
  5
2EB
330
2
100
AcDbEntity
  8
0
100
AcDbCircle
 10
299.5372245920698
 20
220.1089806735335
 30
0.0
 40
3.0
100
AcDbArc
 50
270.0
 51
0.0
  0
LINE
  5
2EC
330
2
100
AcDbEntity
  8
0
100
AcDbLine
 10
302.5372245920698
 20
239.151503449243
 30
0.0
 11
302.5372245920698
 21
220.1089806735335
 31
0.0
  0
LINE
  5
2ED
330
2
100
AcDbEntity
  8
0
100
AcDbLine
 10
302.5372245920698
 20
239.9515034492433
 30
0.0
 11
307.5372245920698
 21
239.9515034492433
 31
0.0
  0
LINE
  5
2EE
330
2
100
AcDbEntity
  8
0
100
AcDbLine
 10
302.5372245920698
 20
239.151503449243
 30
0.0
 11
307.5372245920698
 21
239.151503449243
 31
0.0
  0
LINE
  5
2EF
102
{ACAD_REACTORS
330
2C1
102
}
330
2
100
AcDbEntity
  8
0
 48
0.6
100
AcDbLine
 10
309.0372245920588
 20
240.9515034492433
 30
0.0
 11
300.0372245920698
 21
240.9515034492433
 31
0.0
  0
ARC
  5
2F0
330
2
100
AcDbEntity
  8
0
100
AcDbCircle
 10
301.5372245920698
 20
218.1089806735307
 30
0.0
 40
6.0
100
AcDbArc
 50
270.0
 51
0.0
  0
LINE
  5
2F1
330
2
100
AcDbEntity
  8
0
100
AcDbLine
 10
290.0372245920698
 20
221.201503449244
 30
0.0
 11
290.0372245920698
 21
220.9515034492433
 31
0.0
  0
LINE
  5
2F2
330
2
100
AcDbEntity
  8
0
100
AcDbLine
 10
280.0372245920698
 20
219.737217734957
 30
0.0
 11
280.0372245920698
 21
220.9515034492433
 31
0.0
  0
LINE
  5
2F3
330
2
100
AcDbEntity
  8
0
100
AcDbLine
 10
280.0372245920698
 20
220.9515034492433
 30
0.0
 11
290.0372245920698
 21
220.9515034492433
 31
0.0
  0
LINE
  5
2F4
330
2
100
AcDbEntity
  8
0
100
AcDbLine
 10
248.0372245920589
 20
219.0515034492445
 30
0.0
 11
280.0372245920698
 21
219.737217734957
 31
0.0
  0
LINE
  5
2F5
102
{ACAD_REACTORS
330
2D6
102
}
330
2
100
AcDbEntity
  8
0
100
AcDbLine
 10
298.5372245920588
 20
221.201503449244
 30
0.0
 11
290.0372245920698
 21
221.201503449244
 31
0.0
  0
LINE
  5
2F6
330
2
100
AcDbEntity
  8
CEN
100
AcDbLine
 10
240.7521017561903
 20
264.4515034492433
 30
0.0
 11
314.4659993030908
 21
264.4515034492433
 31
0.0
  0
ARC
  5
2F7
102
{ACAD_REACTORS
330
2C1
102
}
330
2
100
AcDbEntity
  8
0
 48
0.6
100
AcDbCircle
 10
309.0372245920588
 20
286.9515034492433
 30
0.0
 40
1.0
100
AcDbArc
 50
0.0
 51
90.0
  0
LINE
  5
2F8
330
2
100
AcDbEntity
  8
0
100
AcDbLine
 10
298.5372245920588
 20
307.7015034492441
 30
0.0
 11
300.0372245920698
 21
306.2015034492433
 31
0.0
  0
LINE
  5
2F9
330
2
100
AcDbEntity
  8
0
 48
0.6
100
AcDbLine
 10
309.0372245920588
 20
287.9515034492441
 30
0.0
 11
300.0372245920698
 21
287.9515034492441
 31
0.0
  0
LINE
  5
2FA
330
2
100
AcDbEntity
  8
0
100
AcDbLine
 10
290.0372245920698
 20
307.9515034492433
 30
0.0
 11
290.0372245920698
 21
307.7015034492441
 31
0.0
  0
LINE
  5
2FB
330
2
100
AcDbEntity
  8
0
100
AcDbLine
 10
280.0372245920698
 20
309.1657891635286
 30
0.0
 11
280.0372245920698
 21
307.9515034492433
 31
0.0
  0
LINE
  5
2FC
330
2
100
AcDbEntity
  8
0
100
AcDbLine
 10
280.0372245920698
 20
307.9515034492433
 30
0.0
 11
290.0372245920698
 21
307.9515034492433
 31
0.0
  0
LINE
  5
2FD
330
2
100
AcDbEntity
  8
0
100
AcDbLine
 10
248.0372245920589
 20
309.8515034492428
 30
0.0
 11
280.0372245920698
 21
309.1657891635286
 31
0.0
  0
LINE
  5
2FE
330
2
100
AcDbEntity
  8
0
100
AcDbLine
 10
298.5372245920588
 20
307.7015034492441
 30
0.0
 11
290.0372245920698
 21
307.7015034492441
 31
0.0
  0
LINE
  5
2FF
330
2
100
AcDbEntity
  8
0
100
AcDbLine
 10
280.0372245920698
 20
251.4515034492442
 30
0.0
 11
290.0372245920698
 21
251.4515034492442
 31
0.0
  0
LINE
  5
300
330
2
100
AcDbEntity
  8
0
100
AcDbLine
 10
280.0372245920698
 20
277.451503449244
 30
0.0
 11
290.0372245920698
 21
277.451503449244
 31
0.0
  0
LINE
  5
301
330
2
100
AcDbEntity
  8
0
100
AcDbLine
 10
280.0372245920698
 20
277.451503449244
 30
0.0
 11
280.0372245920698
 21
251.4515034492442
 31
0.0
  0
DIMENSION
  5
302
102
{ACAD_XDICTIONARY
360
303
102
}
102
{ACAD_REACTORS
330
304
102
}
330
2
100
AcDbEntity
  8
0
100
AcDbDimension
  2
*D45
 10
310.0372245920698
 20
332.0167830133631
 30
0.0
 11
305.0372245920588
 21
332.0167830133631
 31
0.0
 70
   160
  3
STANDARD
100
AcDbAlignedDimension
 13
300.0372245920698
 23
306.2015034492433
 33
0.0
 14
310.0372245920698
 24
286.9515034492433
 34
0.0
100
AcDbRotatedDimension
  0
ENDSEC
  0
SECTION
  2
OBJECTS
  0
DICTIONARY
  5
9
330
0
100
AcDbDictionary
  3
ACAD_GROUP
350
98
  3
ACAD_LAYOUT
350
D
  3
ACAD_MLINESTYLE
350
99
  3
ACAD_PLOTSETTINGS
350
9A
  3
ACAD_PLOTSTYLENAME
350
8
  3
ACDBHEADERROUNDTRIPXREC
350
4D9
  3
ACDBVARIABLEDICTIONARY
350
311
  0
DICTIONARY
  5
15
330
14
100
AcDbDictionary
280
     1
  3
ACAD_LAYERFILTERS
360
16
  3
ACAD_LAYERSTATES
360
89
  0
DICTIONARY
  5
3
330
2
100
AcDbDictionary
280
     1
  3
ACAD_LAYOUTSELFREF
360
4FA
  0
DICTIONARY
  5
F
330
E
100
AcDbDictionary
280
     1
  3
ACAD_LAYOUTSELFREF
360
4FB
  0
DICTIONARY
  5
D5
330
D4
100
AcDbDictionary
280
     1
  3
ACAD_DIMASSOC
360
D6
  0
DICTIONARY
  5
A5
330
A4
100
AcDbDictionary
280
     1
  3
ACAD_DIMASSOC
360
A6
  0
DICTIONARY
  5
B8
330
B7
100
AcDbDictionary
280
     1
  3
ACAD_DIMASSOC
360
B9
  0
DICTIONARY
  5
EE
330
ED
100
AcDbDictionary
280
     1
  3
ACAD_DIMASSOC
360
EF
  0
DICTIONARY
  5
148
330
147
100
AcDbDictionary
280
     1
  3
ACAD_DIMASSOC
360
149
  0
DICTIONARY
  5
166
330
165
100
AcDbDictionary
280
     1
  3
ACAD_DIMASSOC
360
167
  0
DICTIONARY
  5
17A
330
179
100
AcDbDictionary
280
     1
  3
ACAD_DIMASSOC
360
17B
  0
DICTIONARY
  5
189
330
188
100
AcDbDictionary
280
     1
  3
ACAD_DIMASSOC
360
18A
  0
DICTIONARY
  5
198
330
197
100
AcDbDictionary
280
     1
  3
ACAD_DIMASSOC
360
199
  0
DICTIONARY
  5
20A
330
209
100
AcDbDictionary
280
     1
  3
ACAD_DIMASSOC
360
20B
  0
DICTIONARY
  5
270
330
26F
100
AcDbDictionary
280
     1
  3
ACAD_DIMASSOC
360
271
  0
DICTIONARY
  5
2A2
330
2A1
100
AcDbDictionary
280
     1
  3
ACAD_DIMASSOC
360
2A3
  0
DICTIONARY
  5
2B1
330
2B0
100
AcDbDictionary
280
     1
  3
ACAD_DIMASSOC
360
2B2
  0
DICTIONARY
  5
2C0
330
2BF
100
AcDbDictionary
280
     1
  3
ACAD_DIMASSOC
360
2C1
  0
DICTIONARY
  5
2D5
330
2D4
100
AcDbDictionary
280
     1
  3
ACAD_DIMASSOC
360
2D6
  0
DICTIONARY
  5
303
330
302
100
AcDbDictionary
280
     1
  3
ACAD_DIMASSOC
360
304
  0
DICTIONARY
  5
98
102
{ACAD_REACTORS
330
9
102
}
330
9
100
AcDbDictionary
  0
DICTIONARY
  5
D
102
{ACAD_REACTORS
330
9
102
}
330
9
100
AcDbDictionary
  0
DICTIONARY
  5
99
102
{ACAD_REACTORS
330
9
102
}
330
9
100
AcDbDictionary
  3
STANDARD
350
9B
  0
DICTIONARY
  5
9A
102
{ACAD_REACTORS
330
9
102
}
330
9
100
AcDbDictionary
  0
ACDBDICTIONARYWDFLT
  5
8
102
{ACAD_REACTORS
330
9
102
}
330
9
100
AcDbDictionary
281
     1
  3
Normal
350
7
100
AcDbDictionaryWithDefault
340
7
  0
DICTIONARY
  5
4D9
102
{ACAD_REACTORS
330
9
102
}
330
9
100
AcDbDictionary
  3
CEPSNTYPE
350
4E3
  3
DIMSTYLEDATA
350
4E7
  3
FINGERPRINTGUID
350
4E4
  3
HYPERLINKBASE
350
4DC
  3
INSUNITS
350
4E2
  3
LAYOUTDICT
350
4DE
  3
LWETCUNION
350
4E1
  3
PLOTSETDICT
350
4DF
  3
PLOTSTYLNAMDICT
350
4E0
  3
PSVPSCALE
350
4E6
  3
PUCSBASE
350
4EA
  3
PUCSORGBACK
350
4F0
  3
PUCSORGBOTTOM
350
4EC
  3
PUCSORGFRONT
350
4EF
  3
PUCSORGLEFT
350
4ED
  3
PUCSORGRIGHT
350
4EE
  3
PUCSORGTOP
350
4EB
  3
PUCSORTHOREF
350
4E8
  3
PUCSORTHOVIEW
350
4E9
  3
STYLESHEET
350
4DD
  3
TSTACKALIGN
350
4DA
  3
TSTACKSIZE
350
4DB
  3
UCSBASE
350
4F3
  3
UCSORGBACK
350
4F9
  3
UCSORGBOTTOM
350
4F5
  3
UCSORGFRONT
350
4F8
  3
UCSORGLEFT
350
4F6
  3
UCSORGRIGHT
350
4F7
  3
UCSORGTOP
350
4F4
  3
UCSORTHOREF
350
4F1
  3
UCSORTHOVIEW
350
4F2
  3
VERSIONGUID
350
4E5
  0
DICTIONARY
  5
311
102
{ACAD_REACTORS
330
9
102
}
330
9
100
AcDbDictionary
  3
DIMASSOC
350
313
  3
HIDETEXT
350
312
  0
DICTIONARY
  5
16
102
{ACAD_REACTORS
330
15
102
}
330
15
100
AcDbDictionary
280
     1
  3
$LAYERS
360
17
  3
-_UND_0
360
18
  3
-PEGC
360
19
  3
101
360
1A
  3
102
360
1B
  3
1DUC
360
1C
  3
1EQ
360
1D
  3
1TUB
360
1E
  3
2
360
1F
  3
2000
360
20
  3
50
360
21
  3
58J
360
22
  3
65
360
23
  3
AA
360
24
  3
ACABADOS
360
25
  3
AGUA_Y_DREN
360
26
  3
AIRE
360
27
  3
ALLE_AUS
360
28
  3
ALLES_MIT_S
360
29
  3
AMARILLO
360
2A
  3
APAGADOS
360
2B
  3
ARR
360
2C
  3
BA
360
2D
  3
BACKS
360
2E
  3
BASE
360
2F
  3
BLOQ_INUTIL
360
30
  3
CADKON
360
31
  3
CARPINTERIA
360
32
  3
CERRADOS
360
33
  3
COL
360
34
  3
COLOR
360
35
  3
COLOR_250
360
36
  3
COLORES
360
37
  3
CONGELADOS
360
38
  3
CONJUNTO
360
39
  3
D1
360
3A
  3
DA_
360
3B
  3
DET-
360
3C
  3
DOR-H
360
3D
  3
EJES
360
3E
  3
ELECTRICO
360
3F
  3
F1
360
40
  3
FROZEN
360
41
  3
GRID
360
42
  3
GRIDTXT
360
43
  3
HATCH
360
44
  3
HCAD
360
45
  3
INSTALACIONES
360
46
  3
JIZNI
360
47
  3
KCK
360
48
  3
KKK
360
49
  3
LAY
360
4A
  3
LAYER-0
360
4E
  3
LAYER-1
360
4F
  3
LAYER_1_UND_0
360
4B
  3
LAYER_2_UND_0
360
4C
  3
LAYER_9_UND_0_SCHRAFFUR
360
4D
  3
LOCK
360
50
  3
LOCKED
360
51
  3
LOTES
360
52
  3
LUNAR
360
53
  3
LUNAR2
360
54
  3
M
360
55
  3
MIS_LAYERS
360
56
  3
MRKCK
360
57
  3
NECADKON
360
58
  3
NI_LH
360
59
  3
NI_RH
360
5A
  3
NUM
360
5B
  3
OFF
360
5C
  3
ON
360
5D
  3
PBASE
360
5E
  3
PEGC
360
5F
  3
PEGCT
360
60
  3
PFRAME
360
61
  3
PGRID
360
62
  3
PGRIDT
360
63
  3
PLAFONES
360
64
  3
PLANTAS
360
65
  3
PLOT
360
66
  3
PRENDIDAS
360
67
  3
PRENDIDOS
360
68
  3
PRINT
360
69
  3
PT
360
6A
  3
PTH
360
6B
  3
PVGRID
360
6C
  3
RED_DE_AGUA_POTABLE
360
6D
  3
RED_DE_ENERGIA_ELECTRICA
360
6E
  3
SEVERNI
360
6F
  3
SHIN
360
70
  3
SHOW_ALL_LAYER
360
71
  3
SIN
360
72
  3
STORAGE-CART
360
73
  3
T
360
74
  3
TEXTOS
360
75
  3
TEXTURAS
360
76
  3
TUBERIAS
360
77
  3
UNFRZ
360
78
  3
V\U+0160ECHNY_NEPOU\U+017D\U+00CDVAN\U+00C9
360
79
  3
VA
360
7A
  3
VENTILACI\U+00D3N
360
7B
  3
VYHODNI
360
7C
  3
YO
360
7D
  3
ZAPADNI
360
7E
  3
사용
360
7F
  3
신규
360
80
  3
실박스
360
81
  3
우리토목
360
82
  3
주차
360
83
  3
지상정밀
360
84
  3
쩜선
360
85
  3
플로터_작업층
360
86
  3
현재_작업층
360
87
  3
현재_잠금
360
88
  0
DICTIONARY
  5
89
102
{ACAD_REACTORS
330
15
102
}
330
15
100
AcDbDictionary
  0
XRECORD
  5
4FA
102
{ACAD_REACTORS
330
3
102
}
330
3
100
AcDbXrecord
340
2
  0
XRECORD
  5
4FB
102
{ACAD_REACTORS
330
F
102
}
330
F
100
AcDbXrecord
340
E
  0
DIMASSOC
  5
D6
102
{ACAD_REACTORS
330
D5
102
}
330
D5
100
AcDbDimAssoc
330
D4
 90
        2
 70
     0
 71
     0
  1
AcDbOsnapPointRef
 72
     3
331
D3
 73
     2
 91
        0
 40
0.0
 10
0.0
 20
0.0
 30
0.0
 75
     0
  0
DIMASSOC
  5
A6
102
{ACAD_REACTORS
330
A5
102
}
330
A5
100
AcDbDimAssoc
330
A4
 90
        3
 70
     0
 71
     0
  1
AcDbOsnapPointRef
 72
    13
331
A0
 73
     2
 91
        0
 40
0.0
 10
158.1229534476388
 20
102.6405112372084
 30
0.0
 75
     0
  1
AcDbOsnapPointRef
 72
     1
331
A0
 73
     2
 91
        0
 40
1.0
 10
158.1229534476388
 20
19.64051123720855
 30
0.0
 75
     0
  0
DIMASSOC
  5
B9
102
{ACAD_REACTORS
330
B8
102
}
330
B8
100
AcDbDimAssoc
330
B7
 90
        2
 70
     0
 71
     0
  1
AcDbOsnapPointRef
 72
    13
331
11E
 73
     2
 91
        0
 40
0.0
 10
308.6229534476387
 20
17.89051123720855
 30
0.0
 75
     0
  0
DIMASSOC
  5
EF
102
{ACAD_REACTORS
330
EE
102
}
330
EE
100
AcDbDimAssoc
330
ED
 90
       12
 70
     0
 71
     0
  1
AcDbOsnapPointRef
 72
    13
331
CB
 73
     2
 91
        0
 40
0.0
 10
21.76126961734917
 20
8.082396236263775
 30
0.0
 75
     0
  1
AcDbOsnapPointRef
 72
     1
331
CB
 73
     2
 91
        0
 40
0.9999999999999998
 10
21.76126961734917
 20
115.3426857637687
 30
0.0
 75
     0
  0
DIMASSOC
  5
149
102
{ACAD_REACTORS
330
148
102
}
330
148
100
AcDbDimAssoc
330
147
 90
       12
 70
     0
 71
     0
  1
AcDbOsnapPointRef
 72
    13
331
262
 73
     2
 91
        0
 40
0.0
 10
47.0313280467999
 20
211.393388448297
 30
0.0
 75
     0
  1
AcDbOsnapPointRef
 72
     1
331
262
 73
     2
 91
        0
 40
0.9999999999999998
 10
47.0313280467999
 20
318.653677975803
 30
0.0
 75
     0
  0
DIMASSOC
  5
167
102
{ACAD_REACTORS
330
166
102
}
330
166
100
AcDbDimAssoc
330
165
 90
        3
 70
     0
 71
     0
  1
AcDbOsnapPointRef
 72
     1
331
161
 73
     2
 91
        0
 40
1.0
 10
123.1229534476387
 20
65.14051123720857
 30
0.0
 75
     0
  1
AcDbOsnapPointRef
 72
     1
331
164
 73
     2
 91
        0
 40
1.0
 10
153.1229534476388
 20
66.14051123720854
 30
0.0
 75
     0
  0
DIMASSOC
  5
17B
102
{ACAD_REACTORS
330
17A
102
}
330
17A
100
AcDbDimAssoc
330
179
 90
        3
 70
     0
 71
     0
  1
AcDbOsnapPointRef
 72
     1
331
160
 73
     2
 91
        0
 40
1.0
 10
123.1229534476387
 20
56.14051123720855
 30
0.0
 75
     0
  1
AcDbOsnapPointRef
 72
     1
331
161
 73
     2
 91
        0
 40
1.0
 10
123.1229534476387
 20
65.14051123720857
 30
0.0
 75
     0
  0
DIMASSOC
  5
18A
102
{ACAD_REACTORS
330
189
102
}
330
189
100
AcDbDimAssoc
330
188
 90
        3
 70
     0
 71
     0
  1
AcDbOsnapPointRef
 72
     1
331
160
 73
     2
 91
        0
 40
1.0
 10
123.1229534476387
 20
56.14051123720855
 30
0.0
 75
     0
  1
AcDbOsnapPointRef
 72
     1
331
164
 73
     2
 91
        0
 40
1.0
 10
153.1229534476388
 20
66.14051123720854
 30
0.0
 75
     0
  0
DIMASSOC
  5
199
102
{ACAD_REACTORS
330
198
102
}
330
198
100
AcDbDimAssoc
330
197
 90
        2
 70
     0
 71
     0
  1
AcDbOsnapPointRef
 72
     1
331
175
 73
     2
 91
        0
 40
1.0
 10
167.6229534476386
 20
104.7392485787367
 30
0.0
 75
     0
  0
DIMASSOC
  5
20B
102
{ACAD_REACTORS
330
20A
102
}
330
20A
100
AcDbDimAssoc
330
209
 90
        2
 70
     0
 71
     0
  1
AcDbOsnapPointRef
 72
     1
331
207
 73
     2
 91
        0
 40
1.0
 10
157.5372245920589
 20
308.050240790772
 30
0.0
 75
     0
  0
DIMASSOC
  5
271
102
{ACAD_REACTORS
330
270
102
}
330
270
100
AcDbDimAssoc
330
26F
 90
        3
 70
     0
 71
     0
  1
AcDbOsnapPointRef
 72
    13
331
218
 73
     2
 91
        0
 40
0.0
 10
148.0372245920589
 20
305.9515034492441
 30
0.0
 75
     0
  1
AcDbOsnapPointRef
 72
     1
331
218
 73
     2
 91
        0
 40
1.0
 10
148.0372245920589
 20
222.9515034492433
 30
0.0
 75
     0
  0
DIMASSOC
  5
2A3
102
{ACAD_REACTORS
330
2A2
102
}
330
2A2
100
AcDbDimAssoc
330
2A1
 90
        3
 70
     0
 71
     0
  1
AcDbOsnapPointRef
 72
     1
331
296
 73
     2
 91
        0
 40
1.570796326794896
 10
319.1229534476387
 20
84.64051123720855
 30
0.0
 75
     0
  1
AcDbOsnapPointRef
 72
     8
331
297
 73
     2
 91
        0
 40
-0.0000000000000253
 10
319.1229534476387
 20
37.64051123720856
 30
0.0
 75
     1
  1
AcDbOsnapPointRef
 72
     1
331
296
 73
     2
 91
        0
 40
1.570796326794896
 10
319.1229534476387
 20
84.64051123720855
 30
0.0
 75
     0
  0
DIMASSOC
  5
2B2
102
{ACAD_REACTORS
330
2B1
102
}
330
2B1
100
AcDbDimAssoc
330
2B0
 90
        3
 70
     0
 71
     0
  1
AcDbOsnapPointRef
 72
    13
331
C7
 73
     2
 91
        0
 40
0.0
 10
310.1229534476497
 20
102.8905112372084
 30
0.0
 75
     0
  1
AcDbOsnapPointRef
 72
    13
331
2A0
 73
     2
 91
        0
 40
0.0
 10
320.1229534476388
 20
83.64051123720853
 30
0.0
 75
     0
  0
DIMASSOC
  5
2C1
102
{ACAD_REACTORS
330
2C0
102
}
330
2C0
100
AcDbDimAssoc
330
2BF
 90
        3
 70
     0
 71
     0
  1
AcDbOsnapPointRef
 72
     1
331
2F7
 73
     2
 91
        0
 40
1.570796326794896
 10
309.0372245920588
 20
287.9515034492433
 30
0.0
 75
     0
  1
AcDbOsnapPointRef
 72
     8
331
2EF
 73
     2
 91
        0
 40
-0.0000000000000253
 10
309.0372245920588
 20
240.9515034492433
 30
0.0
 75
     1
  1
AcDbOsnapPointRef
 72
     1
331
2F7
 73
     2
 91
        0
 40
1.570796326794896
 10
309.0372245920588
 20
287.9515034492433
 30
0.0
 75
     0
  0
DIMASSOC
  5
2D6
102
{ACAD_REACTORS
330
2D5
102
}
330
2D5
100
AcDbDimAssoc
330
2D4
 90
        2
 70
     0
 71
     0
  1
AcDbOsnapPointRef
 72
    13
331
2F5
 73
     2
 91
        0
 40
0.0
 10
298.5372245920588
 20
221.201503449244
 30
0.0
 75
     0
  0
DIMASSOC
  5
304
102
{ACAD_REACTORS
330
303
102
}
330
303
100
AcDbDimAssoc
330
302
 90
        3
 70
     0
 71
     0
  1
AcDbOsnapPointRef
 72
    13
331
2D2
 73
     2
 91
        0
 40
0.0
 10
300.0372245920698
 20
306.2015034492433
 30
0.0
 75
     0
  1
AcDbOsnapPointRef
 72
    13
331
2CE
 73
     2
 91
        0
 40
0.0
 10
310.0372245920698
 20
286.9515034492433
 30
0.0
 75
     0
  0
MLINESTYLE
  5
9B
102
{ACAD_REACTORS
330
99
102
}
330
99
100
AcDbMlineStyle
  2
STANDARD
 70
     0
  3

 62
   256
 51
90.0
 52
90.0
 71
     2
 49
0.5
 62
   256
  6
BYLAYER
 49
-0.5
 62
   256
  6
BYLAYER
  0
ACDBPLACEHOLDER
  5
7
102
{ACAD_REACTORS
330
8
102
}
330
8
100
AcDbPlaceHolder
280
     0
  0
XRECORD
  5
4E3
102
{ACAD_REACTORS
330
4D9
102
}
330
4D9
100
AcDbXrecord
 90
        0
  0
XRECORD
  5
4E7
102
{ACAD_REACTORS
330
4D9
102
}
330
4D9
100
AcDbXrecord
1000
DSTYLE
1002
{
1070
    79
 70
     2
1070
   179
 70
     1
1002
}
  0
XRECORD
  5
4E4
102
{ACAD_REACTORS
330
4D9
102
}
330
4D9
100
AcDbXrecord
  1
{FDEAD578-A652-11D2-9A35-0060089B3A3F}
  0
XRECORD
  5
4DC
102
{ACAD_REACTORS
330
4D9
102
}
330
4D9
100
AcDbXrecord
  1

  0
XRECORD
  5
4E2
102
{ACAD_REACTORS
330
4D9
102
}
330
4D9
100
AcDbXrecord
 90
        4
  0
XRECORD
  5
4DE
102
{ACAD_REACTORS
330
4D9
102
}
330
4D9
100
AcDbXrecord
340
D
  0
XRECORD
  5
4E1
102
{ACAD_REACTORS
330
4D9
102
}
330
4D9
100
AcDbXrecord
 90
    10781
  0
XRECORD
  5
4DF
102
{ACAD_REACTORS
330
4D9
102
}
330
4D9
100
AcDbXrecord
340
9A
  0
XRECORD
  5
4E0
102
{ACAD_REACTORS
330
4D9
102
}
330
4D9
100
AcDbXrecord
340
8
  0
XRECORD
  5
4E6
102
{ACAD_REACTORS
330
4D9
102
}
330
4D9
100
AcDbXrecord
 40
0.0
  0
XRECORD
  5
4EA
102
{ACAD_REACTORS
330
4D9
102
}
330
4D9
100
AcDbXrecord
340
0
  0
XRECORD
  5
4F0
102
{ACAD_REACTORS
330
4D9
102
}
330
4D9
100
AcDbXrecord
 10
0.0
 20
0.0
 30
0.0
  0
XRECORD
  5
4EC
102
{ACAD_REACTORS
330
4D9
102
}
330
4D9
100
AcDbXrecord
 10
0.0
 20
0.0
 30
0.0
  0
XRECORD
  5
4EF
102
{ACAD_REACTORS
330
4D9
102
}
330
4D9
100
AcDbXrecord
 10
0.0
 20
0.0
 30
0.0
  0
XRECORD
  5
4ED
102
{ACAD_REACTORS
330
4D9
102
}
330
4D9
100
AcDbXrecord
 10
0.0
 20
0.0
 30
0.0
  0
XRECORD
  5
4EE
102
{ACAD_REACTORS
330
4D9
102
}
330
4D9
100
AcDbXrecord
 10
0.0
 20
0.0
 30
0.0
  0
XRECORD
  5
4EB
102
{ACAD_REACTORS
330
4D9
102
}
330
4D9
100
AcDbXrecord
 10
0.0
 20
0.0
 30
0.0
  0
XRECORD
  5
4E8
102
{ACAD_REACTORS
330
4D9
102
}
330
4D9
100
AcDbXrecord
340
0
  0
XRECORD
  5
4E9
102
{ACAD_REACTORS
330
4D9
102
}
330
4D9
100
AcDbXrecord
 70
     0
  0
XRECORD
  5
4DD
102
{ACAD_REACTORS
330
4D9
102
}
330
4D9
100
AcDbXrecord
  1

  0
XRECORD
  5
4DA
102
{ACAD_REACTORS
330
4D9
102
}
330
4D9
100
AcDbXrecord
 90
        1
  0
XRECORD
  5
4DB
102
{ACAD_REACTORS
330
4D9
102
}
330
4D9
100
AcDbXrecord
 90
       70
  0
XRECORD
  5
4F3
102
{ACAD_REACTORS
330
4D9
102
}
330
4D9
100
AcDbXrecord
340
0
  0
XRECORD
  5
4F9
102
{ACAD_REACTORS
330
4D9
102
}
330
4D9
100
AcDbXrecord
 10
0.0
 20
0.0
 30
0.0
  0
XRECORD
  5
4F5
102
{ACAD_REACTORS
330
4D9
102
}
330
4D9
100
AcDbXrecord
 10
0.0
 20
0.0
 30
0.0
  0
XRECORD
  5
4F8
102
{ACAD_REACTORS
330
4D9
102
}
330
4D9
100
AcDbXrecord
 10
0.0
 20
0.0
 30
0.0
  0
XRECORD
  5
4F6
102
{ACAD_REACTORS
330
4D9
102
}
330
4D9
100
AcDbXrecord
 10
0.0
 20
0.0
 30
0.0
  0
XRECORD
  5
4F7
102
{ACAD_REACTORS
330
4D9
102
}
330
4D9
100
AcDbXrecord
 10
0.0
 20
0.0
 30
0.0
  0
XRECORD
  5
4F4
102
{ACAD_REACTORS
330
4D9
102
}
330
4D9
100
AcDbXrecord
 10
0.0
 20
0.0
 30
0.0
  0
XRECORD
  5
4F1
102
{ACAD_REACTORS
330
4D9
102
}
330
4D9
100
AcDbXrecord
340
0
  0
XRECORD
  5
4F2
102
{ACAD_REACTORS
330
4D9
102
}
330
4D9
100
AcDbXrecord
 70
     0
  0
XRECORD
  5
4E5
102
{ACAD_REACTORS
330
4D9
102
}
330
4D9
100
AcDbXrecord
  1
{A77C3E70-7EC6-4CEA-B239-15FDAE5EB478}
  0
DICTIONARYVAR
  5
313
102
{ACAD_REACTORS
330
311
102
}
330
311
100
DictionaryVariables
280
     0
  1
2
  0
DICTIONARYVAR
  5
312
102
{ACAD_REACTORS
330
311
102
}
330
311
100
DictionaryVariables
280
     0
  1
1
  0
XRECORD
  5
17
102
{ACAD_REACTORS
330
16
102
}
330
16
100
AcDbXrecord
  1
$layers
  1
*
  1
*
  1
*
 70
     0
  1
*
  1
*
  0
XRECORD
  5
18
102
{ACAD_REACTORS
330
16
102
}
330
16
100
AcDbXrecord
  1
- und 0
  1
-*,0
  1
*
  1
*
 70
     0
  1
*
  1
*
  0
XRECORD
  5
19
102
{ACAD_REACTORS
330
16
102
}
330
16
100
AcDbXrecord
  1
-pegc
  1
*-pegc
  1
*
  1
*
 70
     0
  1
*
  1
*
  0
XRECORD
  5
1A
102
{ACAD_REACTORS
330
16
102
}
330
16
100
AcDbXrecord
  1
101
  1
*101
  1
*
  1
*
 70
   256
  1
*
  1
*
  0
XRECORD
  5
1B
102
{ACAD_REACTORS
330
16
102
}
330
16
100
AcDbXrecord
  1
102
  1
102*
  1
*
  1
*
 70
     0
  1
*
  1
*
  0
XRECORD
  5
1C
102
{ACAD_REACTORS
330
16
102
}
330
16
100
AcDbXrecord
  1
1duc
  1
*1duc*
  1
*
  1
*
 70
     0
  1
*
  1
*
  0
XRECORD
  5
1D
102
{ACAD_REACTORS
330
16
102
}
330
16
100
AcDbXrecord
  1
1eq
  1
*1eq*
  1
*
  1
*
 70
     0
  1
*
  1
*
  0
XRECORD
  5
1E
102
{ACAD_REACTORS
330
16
102
}
330
16
100
AcDbXrecord
  1
1tub
  1
*1t*
  1
*
  1
*
 70
     0
  1
*
  1
*
  0
XRECORD
  5
1F
102
{ACAD_REACTORS
330
16
102
}
330
16
100
AcDbXrecord
  1
2
  1
*
  1
2
  1
*
 70
     0
  1
*
  1
*
  0
XRECORD
  5
20
102
{ACAD_REACTORS
330
16
102
}
330
16
100
AcDbXrecord
  1
2000
  1
2000*
  1
*
  1
*
 70
     0
  1
*
  1
*
  0
XRECORD
  5
21
102
{ACAD_REACTORS
330
16
102
}
330
16
100
AcDbXrecord
  1
50
  1
*-50
  1
*
  1
*
 70
     0
  1
*
  1
*
  0
XRECORD
  5
22
102
{ACAD_REACTORS
330
16
102
}
330
16
100
AcDbXrecord
  1
58J
  1
*58*
  1
*
  1
*
 70
     0
  1
*
  1
*
  0
XRECORD
  5
23
102
{ACAD_REACTORS
330
16
102
}
330
16
100
AcDbXrecord
  1
65
  1
*65
  1
*
  1
*
 70
     0
  1
*
  1
*
  0
XRECORD
  5
24
102
{ACAD_REACTORS
330
16
102
}
330
16
100
AcDbXrecord
  1
aa
  1
aa*
  1
*
  1
*
 70
     0
  1
*
  1
*
  0
XRECORD
  5
25
102
{ACAD_REACTORS
330
16
102
}
330
16
100
AcDbXrecord
  1
acabados
  1
a-*
  1
*
  1
*
 70
     5
  1
*
  1
*
  0
XRECORD
  5
26
102
{ACAD_REACTORS
330
16
102
}
330
16
100
AcDbXrecord
  1
AGUA Y DREN
  1
A-DS-*
  1
*
  1
*
 70
     0
  1
*
  1
*
  0
XRECORD
  5
27
102
{ACAD_REACTORS
330
16
102
}
330
16
100
AcDbXrecord
  1
Aire
  1
*
  1
*
  1
*
 70
     0
  1
*
  1
*
  0
XRECORD
  5
28
102
{ACAD_REACTORS
330
16
102
}
330
16
100
AcDbXrecord
  1
alle aus
  1
99999999999
  1
*
  1
*
 70
     0
  1
*
  1
*
  0
XRECORD
  5
29
102
{ACAD_REACTORS
330
16
102
}
330
16
100
AcDbXrecord
  1
Alles mit S
  1
s*
  1
*
  1
*
 70
     0
  1
*
  1
*
  0
XRECORD
  5
2A
102
{ACAD_REACTORS
330
16
102
}
330
16
100
AcDbXrecord
  1
amarillo
  1
*
  1
yellow
  1
*
 70
     0
  1
*
  1
*
  0
XRECORD
  5
2B
102
{ACAD_REACTORS
330
16
102
}
330
16
100
AcDbXrecord
  1
APAGADOS
  1
*
  1
*
  1
*
 70
     4
  1
*
  1
*
  0
XRECORD
  5
2C
102
{ACAD_REACTORS
330
16
102
}
330
16
100
AcDbXrecord
  1
ARR
  1
ARR*
  1
*
  1
*
 70
     0
  1
*
  1
*
  0
XRECORD
  5
2D
102
{ACAD_REACTORS
330
16
102
}
330
16
100
AcDbXrecord
  1
ba
  1
*
  1
*
  1
*
 70
     0
  1
*
  1
*
  0
XRECORD
  5
2E
102
{ACAD_REACTORS
330
16
102
}
330
16
100
AcDbXrecord
  1
BACKS
  1
*-H
  1
*
  1
*
 70
     0
  1
*
  1
*
  0
XRECORD
  5
2F
102
{ACAD_REACTORS
330
16
102
}
330
16
100
AcDbXrecord
  1
BASE
  1
*-PBASE
  1
*
  1
*
 70
     0
  1
*
  1
*
  0
XRECORD
  5
30
102
{ACAD_REACTORS
330
16
102
}
330
16
100
AcDbXrecord
  1
BLOQ_INUTIL
  1
*
  1
*
  1
*
 70
     0
  1
*
  1
*
  0
XRECORD
  5
31
102
{ACAD_REACTORS
330
16
102
}
330
16
100
AcDbXrecord
  1
CADKON
  1
?[KAHBSM]?????[23M],?[KAHBSM]?????[23M][1456A-DGHILN-SU-Z]
  1
*
  1
*
 70
     0
  1
*
  1
*
  0
XRECORD
  5
32
102
{ACAD_REACTORS
330
16
102
}
330
16
100
AcDbXrecord
  1
carpinteria
  1
carp*
  1
*
  1
*
 70
     0
  1
*
  1
*
  0
XRECORD
  5
33
102
{ACAD_REACTORS
330
16
102
}
330
16
100
AcDbXrecord
  1
cerrados
  1
*
  1
*
  1
*
 70
   256
  1
*
  1
*
  0
XRECORD
  5
34
102
{ACAD_REACTORS
330
16
102
}
330
16
100
AcDbXrecord
  1
COL
  1
*
  1
*
  1
*
 70
     1
  1
*
  1
*
  0
XRECORD
  5
35
102
{ACAD_REACTORS
330
16
102
}
330
16
100
AcDbXrecord
  1
COLOR
  1
*
  1
253
  1
*
 70
     0
  1
*
  1
*
  0
XRECORD
  5
36
102
{ACAD_REACTORS
330
16
102
}
330
16
100
AcDbXrecord
  1
color 250
  1
*
  1
250
  1
*
 70
     0
  1
*
  1
*
  0
XRECORD
  5
37
102
{ACAD_REACTORS
330
16
102
}
330
16
100
AcDbXrecord
  1
COLORES
  1
*
  1
6
  1
*
 70
     0
  1
*
  1
*
  0
XRECORD
  5
38
102
{ACAD_REACTORS
330
16
102
}
330
16
100
AcDbXrecord
  1
Congelados
  1
*
  1
*
  1
*
 70
     4
  1
*
  1
*
  0
XRECORD
  5
39
102
{ACAD_REACTORS
330
16
102
}
330
16
100
AcDbXrecord
  1
CONJUNTO
  1
CON-*
  1
*
  1
*
 70
     0
  1
*
  1
*
  0
XRECORD
  5
3A
102
{ACAD_REACTORS
330
16
102
}
330
16
100
AcDbXrecord
  1
d1
  1
achurados
  1
*
  1
*
 70
     0
  1
*
  1
*
  0
XRECORD
  5
3B
102
{ACAD_REACTORS
330
16
102
}
330
16
100
AcDbXrecord
  1
DA_
  1
DA*
  1
*
  1
*
 70
     0
  1
*
  1
*
  0
XRECORD
  5
3C
102
{ACAD_REACTORS
330
16
102
}
330
16
100
AcDbXrecord
  1
DET-
  1
*
  1
*
  1
*
 70
     0
  1
*
  1
*
  0
XRECORD
  5
3D
102
{ACAD_REACTORS
330
16
102
}
330
16
100
AcDbXrecord
  1
DOR-H
  1
*
  1
7
  1
*
 70
     0
  1
*
  1
*
  0
XRECORD
  5
3E
102
{ACAD_REACTORS
330
16
102
}
330
16
100
AcDbXrecord
  1
ejes
  1
eje*
  1
*
  1
*
 70
     0
  1
*
  1
*
  0
XRECORD
  5
3F
102
{ACAD_REACTORS
330
16
102
}
330
16
100
AcDbXrecord
  1
ELECTRICO
  1
ELEC-*
  1
*
  1
*
 70
     0
  1
*
  1
*
  0
XRECORD
  5
40
102
{ACAD_REACTORS
330
16
102
}
330
16
100
AcDbXrecord
  1
F1
  1
Halaxref*
  1
*
  1
*
 70
     0
  1
*
  1
*
  0
XRECORD
  5
41
102
{ACAD_REACTORS
330
16
102
}
330
16
100
AcDbXrecord
  1
frozen
  1
*
  1
*
  1
*
 70
     4
  1
*
  1
*
  0
XRECORD
  5
42
102
{ACAD_REACTORS
330
16
102
}
330
16
100
AcDbXrecord
  1
grid
  1
*-PGRID
  1
*
  1
*
 70
     1
  1
*
  1
*
  0
XRECORD
  5
43
102
{ACAD_REACTORS
330
16
102
}
330
16
100
AcDbXrecord
  1
GRIDTXT
  1
*-PGRIDT
  1
*
  1
*
 70
     0
  1
*
  1
*
  0
XRECORD
  5
44
102
{ACAD_REACTORS
330
16
102
}
330
16
100
AcDbXrecord
  1
HATCH
  1
HAT*
  1
*
  1
*
 70
     0
  1
*
  1
*
  0
XRECORD
  5
45
102
{ACAD_REACTORS
330
16
102
}
330
16
100
AcDbXrecord
  1
HCAD
  1
1HCAD-*
  1
*
  1
*
 70
    13
  1
*
  1
*
  0
XRECORD
  5
46
102
{ACAD_REACTORS
330
16
102
}
330
16
100
AcDbXrecord
  1
INSTALACIONES
  1
I-*
  1
*
  1
*
 70
     0
  1
*
  1
*
  0
XRECORD
  5
47
102
{ACAD_REACTORS
330
16
102
}
330
16
100
AcDbXrecord
  1
JIZNI
  1
*-J
  1
*
  1
*
 70
     0
  1
*
  1
*
  0
XRECORD
  5
48
102
{ACAD_REACTORS
330
16
102
}
330
16
100
AcDbXrecord
  1
kck
  1
*
  1
*
  1
*
 70
     0
  1
*
  1
*
  0
XRECORD
  5
49
102
{ACAD_REACTORS
330
16
102
}
330
16
100
AcDbXrecord
  1
kkk
  1
k
  1
*
  1
*
 70
     0
  1
*
  1
*
  0
XRECORD
  5
4A
102
{ACAD_REACTORS
330
16
102
}
330
16
100
AcDbXrecord
  1
lay
  1
??-*
  1
*
  1
*
 70
     0
  1
*
  1
*
  0
XRECORD
  5
4E
102
{ACAD_REACTORS
330
16
102
}
330
16
100
AcDbXrecord
  1
Layer-0
  1
0*
  1
*
  1
*
 70
     0
  1
*
  1
*
  0
XRECORD
  5
4F
102
{ACAD_REACTORS
330
16
102
}
330
16
100
AcDbXrecord
  1
Layer-1
  1
1*
  1
*
  1
*
 70
     0
  1
*
  1
*
  0
XRECORD
  5
4B
102
{ACAD_REACTORS
330
16
102
}
330
16
100
AcDbXrecord
  1
Layer 1 und 0
  1
1*,0
  1
*
  1
*
 70
     0
  1
*
  1
*
  0
XRECORD
  5
4C
102
{ACAD_REACTORS
330
16
102
}
330
16
100
AcDbXrecord
  1
Layer 2 und 0
  1
2*,0
  1
*
  1
*
 70
     0
  1
*
  1
*
  0
XRECORD
  5
4D
102
{ACAD_REACTORS
330
16
102
}
330
16
100
AcDbXrecord
  1
Layer 9 und 0 Schraffur
  1
9*,0
  1
*
  1
*
 70
     0
  1
*
  1
*
  0
XRECORD
  5
50
102
{ACAD_REACTORS
330
16
102
}
330
16
100
AcDbXrecord
  1
LOCK
  1
*
  1
*
  1
*
 70
   256
  1
*
  1
*
  0
XRECORD
  5
51
102
{ACAD_REACTORS
330
16
102
}
330
16
100
AcDbXrecord
  1
locked
  1
*
  1
*
  1
*
 70
   256
  1
*
  1
*
  0
XRECORD
  5
52
102
{ACAD_REACTORS
330
16
102
}
330
16
100
AcDbXrecord
  1
Lotes
  1
*
  1
*
  1
*
 70
     1
  1
*
  1
*
  0
XRECORD
  5
53
102
{ACAD_REACTORS
330
16
102
}
330
16
100
AcDbXrecord
  1
LUNAR
  1
*
  1
*
  1
*
 70
    48
  1
*
  1
*
  0
XRECORD
  5
54
102
{ACAD_REACTORS
330
16
102
}
330
16
100
AcDbXrecord
  1
LUNAR2
  1
*
  1
*
  1
*
 70
    12
  1
*
  1
*
  0
XRECORD
  5
55
102
{ACAD_REACTORS
330
16
102
}
330
16
100
AcDbXrecord
  1
M
  1
M*
  1
*
  1
*
 70
     0
  1
*
  1
*
  0
XRECORD
  5
56
102
{ACAD_REACTORS
330
16
102
}
330
16
100
AcDbXrecord
  1
mis_layers
  1
mis_*
  1
*
  1
*
 70
     0
  1
*
  1
*
  0
XRECORD
  5
57
102
{ACAD_REACTORS
330
16
102
}
330
16
100
AcDbXrecord
  1
MRKCK
  1
*
  1
*
  1
*
 70
     0
  1
*
  1
*
  0
XRECORD
  5
58
102
{ACAD_REACTORS
330
16
102
}
330
16
100
AcDbXrecord
  1
NECADKON
  1
~*?[KAHBSM]?????[23M]*
  1
*
  1
*
 70
     0
  1
*
  1
*
  0
XRECORD
  5
59
102
{ACAD_REACTORS
330
16
102
}
330
16
100
AcDbXrecord
  1
NI_LH
  1
NI_LH*
  1
*
  1
*
 70
     0
  1
*
  1
*
  0
XRECORD
  5
5A
102
{ACAD_REACTORS
330
16
102
}
330
16
100
AcDbXrecord
  1
NI_RH
  1
NI_RH*
  1
*
  1
*
 70
     0
  1
*
  1
*
  0
XRECORD
  5
5B
102
{ACAD_REACTORS
330
16
102
}
330
16
100
AcDbXrecord
  1
NUM
  1
NUM*
  1
*
  1
*
 70
     0
  1
*
  1
*
  0
XRECORD
  5
5C
102
{ACAD_REACTORS
330
16
102
}
330
16
100
AcDbXrecord
  1
off
  1
*
  1
*
  1
*
 70
     3
  1
*
  1
*
  0
XRECORD
  5
5D
102
{ACAD_REACTORS
330
16
102
}
330
16
100
AcDbXrecord
  1
on
  1
*
  1
*
  1
*
 70
     0
  1
*
  1
*
  0
XRECORD
  5
5E
102
{ACAD_REACTORS
330
16
102
}
330
16
100
AcDbXrecord
  1
PBASE
  1
*PBASE
  1
*
  1
*
 70
     0
  1
*
  1
*
  0
XRECORD
  5
5F
102
{ACAD_REACTORS
330
16
102
}
330
16
100
AcDbXrecord
  1
PEGC
  1
*PEGC
  1
*
  1
*
 70
     0
  1
*
  1
*
  0
XRECORD
  5
60
102
{ACAD_REACTORS
330
16
102
}
330
16
100
AcDbXrecord
  1
PEGCT
  1
*PEGCT
  1
*
  1
*
 70
     0
  1
*
  1
*
  0
XRECORD
  5
61
102
{ACAD_REACTORS
330
16
102
}
330
16
100
AcDbXrecord
  1
PFRAME
  1
PFRAME*
  1
*
  1
*
 70
     0
  1
*
  1
*
  0
XRECORD
  5
62
102
{ACAD_REACTORS
330
16
102
}
330
16
100
AcDbXrecord
  1
PGRID
  1
*PGRID
  1
*
  1
*
 70
     0
  1
*
  1
*
  0
XRECORD
  5
63
102
{ACAD_REACTORS
330
16
102
}
330
16
100
AcDbXrecord
  1
PGRIDT
  1
*PGRIDT
  1
*
  1
*
 70
     0
  1
*
  1
*
  0
XRECORD
  5
64
102
{ACAD_REACTORS
330
16
102
}
330
16
100
AcDbXrecord
  1
PLAFONES
  1
0-*
  1
*
  1
*
 70
     0
  1
*
  1
*
  0
XRECORD
  5
65
102
{ACAD_REACTORS
330
16
102
}
330
16
100
AcDbXrecord
  1
PLANTAS
  1
P-*
  1
*
  1
*
 70
     0
  1
*
  1
*
  0
XRECORD
  5
66
102
{ACAD_REACTORS
330
16
102
}
330
16
100
AcDbXrecord
  1
Plot
  1
*
  1
*
  1
*
 70
  1024
  1
*
  1
*
  0
XRECORD
  5
67
102
{ACAD_REACTORS
330
16
102
}
330
16
100
AcDbXrecord
  1
PRENDIDAS
  1
*
  1
*
  1
*
 70
    13
  1
*
  1
*
  0
XRECORD
  5
68
102
{ACAD_REACTORS
330
16
102
}
330
16
100
AcDbXrecord
  1
PRENDIDOS
  1
*
  1
*
  1
*
 70
    12
  1
*
  1
*
  0
XRECORD
  5
69
102
{ACAD_REACTORS
330
16
102
}
330
16
100
AcDbXrecord
  1
print
  1
*
  1
7
  1
*
 70
  1280
  1
*
  1
*
  0
XRECORD
  5
6A
102
{ACAD_REACTORS
330
16
102
}
330
16
100
AcDbXrecord
  1
PT
  1
PT-*
  1
*
  1
*
 70
     0
  1
*
  1
*
  0
XRECORD
  5
6B
102
{ACAD_REACTORS
330
16
102
}
330
16
100
AcDbXrecord
  1
PTH
  1
PTH*
  1
*
  1
*
 70
     0
  1
*
  1
*
  0
XRECORD
  5
6C
102
{ACAD_REACTORS
330
16
102
}
330
16
100
AcDbXrecord
  1
PVGRID
  1
*PVGRID
  1
*
  1
*
 70
     0
  1
*
  1
*
  0
XRECORD
  5
6D
102
{ACAD_REACTORS
330
16
102
}
330
16
100
AcDbXrecord
  1
Red de Agua Potable
  1
Red de Agua Potable
  1
*
  1
*
 70
     1
  1
*
  1
*
  0
XRECORD
  5
6E
102
{ACAD_REACTORS
330
16
102
}
330
16
100
AcDbXrecord
  1
Red de Energia Electrica
  1
Lotes
  1
*
  1
*
 70
     1
  1
*
  1
*
  0
XRECORD
  5
6F
102
{ACAD_REACTORS
330
16
102
}
330
16
100
AcDbXrecord
  1
SEVERNI
  1
*-S
  1
*
  1
*
 70
     0
  1
*
  1
*
  0
XRECORD
  5
70
102
{ACAD_REACTORS
330
16
102
}
330
16
100
AcDbXrecord
  1
shin
  1
일*
  1
*
  1
*
 70
     0
  1
*
  1
*
  0
XRECORD
  5
71
102
{ACAD_REACTORS
330
16
102
}
330
16
100
AcDbXrecord
  1
SHOW ALL LAYER
  1
*
  1
*
  1
*
 70
     0
  1
*
  1
*
  0
XRECORD
  5
72
102
{ACAD_REACTORS
330
16
102
}
330
16
100
AcDbXrecord
  1
sin
  1
sin
  1
*
  1
*
 70
     0
  1
*
  1
*
  0
XRECORD
  5
73
102
{ACAD_REACTORS
330
16
102
}
330
16
100
AcDbXrecord
  1
STORAGE-CART
  1
STORAGE-CART*
  1
*
  1
*
 70
     0
  1
*
  1
*
  0
XRECORD
  5
74
102
{ACAD_REACTORS
330
16
102
}
330
16
100
AcDbXrecord
  1
T
  1
T*
  1
*
  1
*
 70
     0
  1
*
  1
*
  0
XRECORD
  5
75
102
{ACAD_REACTORS
330
16
102
}
330
16
100
AcDbXrecord
  1
TEXTOS
  1
TXT*
  1
*
  1
*
 70
     0
  1
*
  1
*
  0
XRECORD
  5
76
102
{ACAD_REACTORS
330
16
102
}
330
16
100
AcDbXrecord
  1
TEXTURAS
  1
*TEXTURAS
  1
*
  1
*
 70
     0
  1
*
  1
*
  0
XRECORD
  5
77
102
{ACAD_REACTORS
330
16
102
}
330
16
100
AcDbXrecord
  1
TUBERIAS
  1
T*
  1
*
  1
*
 70
     0
  1
*
  1
*
  0
XRECORD
  5
78
102
{ACAD_REACTORS
330
16
102
}
330
16
100
AcDbXrecord
  1
UNFRZ
  1
*
  1
*
  1
*
 70
    12
  1
*
  1
*
  0
XRECORD
  5
79
102
{ACAD_REACTORS
330
16
102
}
330
16
100
AcDbXrecord
  1
v\U+0161echny nepou\U+017E\U+00EDvan\U+00E9
  1
*
  1
*
  1
*
 70
     0
  1
*
  1
*
  0
XRECORD
  5
7A
102
{ACAD_REACTORS
330
16
102
}
330
16
100
AcDbXrecord
  1
VA
  1
VA*
  1
*
  1
*
 70
     0
  1
*
  1
*
  0
XRECORD
  5
7B
102
{ACAD_REACTORS
330
16
102
}
330
16
100
AcDbXrecord
  1
Ventilaci\U+00F3n
  1
*
  1
*
  1
*
 70
     0
  1
*
  1
*
  0
XRECORD
  5
7C
102
{ACAD_REACTORS
330
16
102
}
330
16
100
AcDbXrecord
  1
VYHODNI
  1
*-V
  1
*
  1
*
 70
     0
  1
*
  1
*
  0
XRECORD
  5
7D
102
{ACAD_REACTORS
330
16
102
}
330
16
100
AcDbXrecord
  1
Yo
  1
Muros
  1
*
  1
*
 70
     0
  1
*
  1
*
  0
XRECORD
  5
7E
102
{ACAD_REACTORS
330
16
102
}
330
16
100
AcDbXrecord
  1
ZAPADNI
  1
*-Z
  1
*
  1
*
 70
     0
  1
*
  1
*
  0
XRECORD
  5
7F
102
{ACAD_REACTORS
330
16
102
}
330
16
100
AcDbXrecord
  1
사용
  1
*
  1
*
  1
*
 70
   256
  1
*
  1
*
  0
XRECORD
  5
80
102
{ACAD_REACTORS
330
16
102
}
330
16
100
AcDbXrecord
  1
신규
  1
신규
  1
*
  1
*
 70
     0
  1
*
  1
*
  0
XRECORD
  5
81
102
{ACAD_REACTORS
330
16
102
}
330
16
100
AcDbXrecord
  1
실박스
  1
BLO,SYM,SYM1,SYM2
  1
*
  1
*
 70
     0
  1
*
  1
*
  0
XRECORD
  5
82
102
{ACAD_REACTORS
330
16
102
}
330
16
100
AcDbXrecord
  1
우리토목
  1
w-*
  1
*
  1
*
 70
     0
  1
*
  1
*
  0
XRECORD
  5
83
102
{ACAD_REACTORS
330
16
102
}
330
16
100
AcDbXrecord
  1
주차
  1
car*
  1
*
  1
*
 70
     0
  1
*
  1
*
  0
XRECORD
  5
84
102
{ACAD_REACTORS
330
16
102
}
330
16
100
AcDbXrecord
  1
지상정밀
  1
*
  1
*
  1
*
 70
     0
  1
*
  1
*
  0
XRECORD
  5
85
102
{ACAD_REACTORS
330
16
102
}
330
16
100
AcDbXrecord
  1
쩜선
  1
*
  1
*
  1
*
 70
     0
  1
*
  1
*
  0
XRECORD
  5
86
102
{ACAD_REACTORS
330
16
102
}
330
16
100
AcDbXrecord
  1
플로터 작업층
  1
*
  1
*
  1
*
 70
  1025
  1
*
  1
*
  0
XRECORD
  5
87
102
{ACAD_REACTORS
330
16
102
}
330
16
100
AcDbXrecord
  1
현재 작업층
  1
*
  1
*
  1
*
 70
     1
  1
*
  1
*
  0
XRECORD
  5
88
102
{ACAD_REACTORS
330
16
102
}
330
16
100
AcDbXrecord
  1
현재 잠금
  1
*
  1
*
  1
*
 70
   257
  1
*
  1
*
  0
ENDSEC
  0
EOF
