  0
SECTION
  2
HEADER
  9
$ACADVER
  1
AC1014
  9
$ACADMAINTVER
 70
     9
  9
$DWGCODEPAGE
  3
ANSI_949
  9
$INSBASE
 10
0.0
 20
0.0
 30
0.0
  9
$EXTMIN
 10
-103.99245801105
 20
-136.4519596658188
 30
-0.0000000000112498
  9
$EXTMAX
 10
230.0089605534624
 20
160.2635110962653
 30
0.0000000000002956
  9
$LIMMIN
 10
0.0
 20
0.0
  9
$LIMMAX
 10
420.0
 20
297.0
  9
$ORTHOMODE
 70
     0
  9
$REGENMODE
 70
     1
  9
$FILLMODE
 70
     1
  9
$QTEXTMODE
 70
     0
  9
$MIRRTEXT
 70
     0
  9
$DRAGMODE
 70
     2
  9
$LTSCALE
 40
0.2
  9
$OSMODE
 70
  3071
  9
$ATTMODE
 70
     1
  9
$TEXTSIZE
 40
5.777225951253058
  9
$TRACEWID
 40
1.0
  9
$TEXTSTYLE
  7
STANDARD
  9
$CLAYER
  8
0
  9
$CELTYPE
  6
BYLAYER
  9
$CECOLOR
 62
   256
  9
$CELTSCALE
 40
1.0
  9
$DELOBJ
 70
     1
  9
$DISPSILH
 70
     0
  9
$DIMSCALE
 40
1.0
  9
$DIMASZ
 40
3.0
  9
$DIMEXO
 40
1.0
  9
$DIMDLI
 40
10.0
  9
$DIMRND
 40
0.0
  9
$DIMDLE
 40
0.0
  9
$DIMEXE
 40
0.6
  9
$DIMTP
 40
0.0
  9
$DIMTM
 40
0.0
  9
$DIMTXT
 40
3.5
  9
$DIMCEN
 40
0.09
  9
$DIMTSZ
 40
0.0
  9
$DIMTOL
 70
     0
  9
$DIMLIM
 70
     0
  9
$DIMTIH
 70
     0
  9
$DIMTOH
 70
     0
  9
$DIMSE1
 70
     0
  9
$DIMSE2
 70
     0
  9
$DIMTAD
 70
     1
  9
$DIMZIN
 70
     8
  9
$DIMBLK
  1

  9
$DIMASO
 70
     1
  9
$DIMSHO
 70
     1
  9
$DIMPOST
  1

  9
$DIMAPOST
  1

  9
$DIMALT
 70
     0
  9
$DIMALTD
 70
     2
  9
$DIMALTF
 40
25.4
  9
$DIMLFAC
 40
1.0
  9
$DIMTOFL
 70
     1
  9
$DIMTVP
 40
0.0
  9
$DIMTIX
 70
     1
  9
$DIMSOXD
 70
     0
  9
$DIMSAH
 70
     0
  9
$DIMBLK1
  1

  9
$DIMBLK2
  1

  9
$DIMSTYLE
  2
1_1_2
  9
$DIMCLRD
 70
   123
  9
$DIMCLRE
 70
   123
  9
$DIMCLRT
 70
     3
  9
$DIMTFAC
 40
1.0
  9
$DIMGAP
 40
1.0
  9
$DIMJUST
 70
     0
  9
$DIMSD1
 70
     0
  9
$DIMSD2
 70
     0
  9
$DIMTOLJ
 70
     1
  9
$DIMTZIN
 70
     0
  9
$DIMALTZ
 70
     0
  9
$DIMALTTZ
 70
     0
  9
$DIMFIT
 70
     3
  9
$DIMUPT
 70
     1
  9
$DIMUNIT
 70
     2
  9
$DIMDEC
 70
     2
  9
$DIMTDEC
 70
     2
  9
$DIMALTU
 70
     2
  9
$DIMALTTD
 70
     2
  9
$DIMTXSTY
  7
STANDARD
  9
$DIMAUNIT
 70
     1
  9
$LUNITS
 70
     2
  9
$LUPREC
 70
     4
  9
$SKETCHINC
 40
1.0
  9
$FILLETRAD
 40
0.5
  9
$AUNITS
 70
     0
  9
$AUPREC
 70
     0
  9
$MENU
  1
.
  9
$ELEVATION
 40
0.0
  9
$PELEVATION
 40
0.0
  9
$THICKNESS
 40
0.0
  9
$LIMCHECK
 70
     0
  9
$BLIPMODE
 70
     0
  9
$CHAMFERA
 40
1.0
  9
$CHAMFERB
 40
1.0
  9
$CHAMFERC
 40
20.0
  9
$CHAMFERD
 40
0.0
  9
$SKPOLY
 70
     0
  9
$TDCREATE
 40
2452839.586179271
  9
$TDUPDATE
 40
2453385.420637836
  9
$TDINDWG
 40
11.1166991319
  9
$TDUSRTIMER
 40
11.1166985880
  9
$USRTIMER
 70
     1
  9
$ANGBASE
 50
0.0
  9
$ANGDIR
 70
     0
  9
$PDMODE
 70
     0
  9
$PDSIZE
 40
0.0
  9
$PLINEWID
 40
0.0
  9
$COORDS
 70
     1
  9
$SPLFRAME
 70
     0
  9
$SPLINETYPE
 70
     6
  9
$SPLINESEGS
 70
   800
  9
$ATTDIA
 70
     0
  9
$ATTREQ
 70
     1
  9
$HANDLING
 70
 22529
  9
$HANDSEED
  5
505
  9
$SURFTAB1
 70
     6
  9
$SURFTAB2
 70
     6
  9
$SURFTYPE
 70
     6
  9
$SURFU
 70
     6
  9
$SURFV
 70
     6
  9
$UCSNAME
  2

  9
$UCSORG
 10
0.0
 20
0.0
 30
0.0
  9
$UCSXDIR
 10
1.0
 20
0.0
 30
0.0
  9
$UCSYDIR
 10
0.0
 20
1.0
 30
0.0
  9
$PUCSNAME
  2

  9
$PUCSORG
 10
0.0
 20
0.0
 30
0.0
  9
$PUCSXDIR
 10
1.0
 20
0.0
 30
0.0
  9
$PUCSYDIR
 10
0.0
 20
1.0
 30
0.0
  9
$USERI1
 70
     0
  9
$USERI2
 70
     0
  9
$USERI3
 70
     0
  9
$USERI4
 70
     0
  9
$USERI5
 70
     0
  9
$USERR1
 40
0.0
  9
$USERR2
 40
0.0
  9
$USERR3
 40
0.0
  9
$USERR4
 40
0.0
  9
$USERR5
 40
0.0
  9
$WORLDVIEW
 70
     1
  9
$SHADEDGE
 70
     3
  9
$SHADEDIF
 70
    70
  9
$TILEMODE
 70
     1
  9
$MAXACTVP
 70
    48
  9
$PINSBASE
 10
0.0
 20
0.0
 30
0.0
  9
$PLIMCHECK
 70
     0
  9
$PEXTMIN
 10
0.0
 20
0.0
 30
0.0
  9
$PEXTMAX
 10
0.0
 20
0.0
 30
0.0
  9
$PLIMMIN
 10
0.0
 20
0.0
  9
$PLIMMAX
 10
12.0
 20
9.0
  9
$UNITMODE
 70
     0
  9
$VISRETAIN
 70
     1
  9
$PLINEGEN
 70
     0
  9
$PSLTSCALE
 70
     1
  9
$TREEDEPTH
 70
  3020
  9
$PICKSTYLE
 70
     1
  9
$CMLSTYLE
  2
STANDARD
  9
$CMLJUST
 70
     0
  9
$CMLSCALE
 40
20.0
  9
$PROXYGRAPHICS
 70
     1
  9
$MEASUREMENT
 70
     1
  0
ENDSEC
  0
SECTION
  2
CLASSES
  0
CLASS
  1
ACDBDICTIONARYWDFLT
  2
AcDbDictionaryWithDefault
  3
AutoCAD 2000
 90
        0
280
     0
281
     0
  0
CLASS
  1
ACDBPLACEHOLDER
  2
AcDbPlaceHolder
  3
AutoCAD 2000
 90
        0
280
     0
281
     0
  0
CLASS
  1
LAYOUT
  2
AcDbLayout
  3
AutoCAD 2000
 90
        0
280
     0
281
     0
  0
CLASS
  1
DICTIONARYVAR
  2
AcDbDictionaryVar
  3
AutoCAD 2000
 90
        0
280
     0
281
     0
  0
CLASS
  1
DIMASSOC
  2
AcDbDimAssoc
  3
"AcDbDimAssoc|Product Desc:     AcDim ARX App For Dimension|Company:          Autodesk, Inc.|WEB Address:      www.autodesk.com"
 90
        0
280
     0
281
     0
  0
CLASS
  1
LONG_TRANSACTION
  2
AcDbLongTransaction
  3
AutoCAD 2000
 90
        0
280
     0
281
     0
  0
CLASS
  1
LWPOLYLINE
  2
AcDbPolyline
  3
AutoCAD 2000
 90
        0
280
     0
281
     1
  0
CLASS
  1
HATCH
  2
AcDbHatch
  3
AutoCAD 2000
 90
        0
280
     0
281
     1
  0
CLASS
  1
XRECORD
  2
AcDbXrecord
  3
AutoCAD 2000
 90
        0
280
     0
281
     0
  0
CLASS
  1
LONG_TRANSACTION
  2
AcDbLongTransaction
  3
AutoCAD 2000
 90
        0
280
     0
281
     0
  0
CLASS
  1
LWPOLYLINE
  2
AcDbPolyline
  3
AutoCAD 2000
 90
        0
280
     0
281
     1
  0
CLASS
  1
HATCH
  2
AcDbHatch
  3
AutoCAD 2000
 90
        0
280
     0
281
     1
  0
CLASS
  1
XRECORD
  2
AcDbXrecord
  3
AutoCAD 2000
 90
        0
280
     0
281
     0
  0
CLASS
  1
LONG_TRANSACTION
  2
AcDbLongTransaction
  3
AutoCAD 2000
 90
        0
280
     0
281
     0
  0
CLASS
  1
LWPOLYLINE
  2
AcDbPolyline
  3
AutoCAD 2000
 90
        0
280
     0
281
     1
  0
CLASS
  1
HATCH
  2
AcDbHatch
  3
AutoCAD 2000
 90
        0
280
     0
281
     1
  0
CLASS
  1
XRECORD
  2
AcDbXrecord
  3
AutoCAD 2000
 90
        0
280
     0
281
     0
  0
CLASS
  1
LONG_TRANSACTION
  2
AcDbLongTransaction
  3
AutoCAD 2000
 90
        0
280
     0
281
     0
  0
CLASS
  1
LWPOLYLINE
  2
AcDbPolyline
  3
AutoCAD 2000
 90
        0
280
     0
281
     1
  0
CLASS
  1
HATCH
  2
AcDbHatch
  3
AutoCAD 2000
 90
        0
280
     0
281
     1
  0
CLASS
  1
XRECORD
  2
AcDbXrecord
  3
AutoCAD 2000
 90
        0
280
     0
281
     0
  0
CLASS
  1
LONG_TRANSACTION
  2
AcDbLongTransaction
  3
AutoCAD 2000
 90
        0
280
     0
281
     0
  0
CLASS
  1
LWPOLYLINE
  2
AcDbPolyline
  3
AutoCAD 2000
 90
        0
280
     0
281
     1
  0
CLASS
  1
HATCH
  2
AcDbHatch
  3
AutoCAD 2000
 90
        0
280
     0
281
     1
  0
CLASS
  1
XRECORD
  2
AcDbXrecord
  3
AutoCAD 2000
 90
        0
280
     0
281
     0
  0
CLASS
  1
LONG_TRANSACTION
  2
AcDbLongTransaction
  3
AutoCAD 2000
 90
        0
280
     0
281
     0
  0
CLASS
  1
LWPOLYLINE
  2
AcDbPolyline
  3
AutoCAD 2000
 90
        0
280
     0
281
     1
  0
CLASS
  1
HATCH
  2
AcDbHatch
  3
AutoCAD 2000
 90
        0
280
     0
281
     1
  0
CLASS
  1
XRECORD
  2
AcDbXrecord
  3
AutoCAD 2000
 90
        0
280
     0
281
     0
  0
CLASS
  1
LONG_TRANSACTION
  2
AcDbLongTransaction
  3
AutoCAD 2000
 90
        0
280
     0
281
     0
  0
CLASS
  1
LWPOLYLINE
  2
AcDbPolyline
  3
AutoCAD 2000
 90
        0
280
     0
281
     1
  0
CLASS
  1
HATCH
  2
AcDbHatch
  3
AutoCAD 2000
 90
        0
280
     0
281
     1
  0
CLASS
  1
XRECORD
  2
AcDbXrecord
  3
AutoCAD 2000
 90
        0
280
     0
281
     0
  0
CLASS
  1
LONG_TRANSACTION
  2
AcDbLongTransaction
  3
AutoCAD 2000
 90
        0
280
     0
281
     0
  0
CLASS
  1
LWPOLYLINE
  2
AcDbPolyline
  3
AutoCAD 2000
 90
        0
280
     0
281
     1
  0
CLASS
  1
HATCH
  2
AcDbHatch
  3
AutoCAD 2000
 90
        0
280
     0
281
     1
  0
CLASS
  1
XRECORD
  2
AcDbXrecord
  3
AutoCAD 2000
 90
        0
280
     0
281
     0
  0
CLASS
  1
LONG_TRANSACTION
  2
AcDbLongTransaction
  3
AutoCAD 2000
 90
        0
280
     0
281
     0
  0
CLASS
  1
LWPOLYLINE
  2
AcDbPolyline
  3
AutoCAD 2000
 90
        0
280
     0
281
     1
  0
CLASS
  1
HATCH
  2
AcDbHatch
  3
AutoCAD 2000
 90
        0
280
     0
281
     1
  0
CLASS
  1
XRECORD
  2
AcDbXrecord
  3
AutoCAD 2000
 90
        0
280
     0
281
     0
  0
CLASS
  1
LONG_TRANSACTION
  2
AcDbLongTransaction
  3
AutoCAD 2000
 90
        0
280
     0
281
     0
  0
CLASS
  1
LWPOLYLINE
  2
AcDbPolyline
  3
AutoCAD 2000
 90
        0
280
     0
281
     1
  0
CLASS
  1
HATCH
  2
AcDbHatch
  3
AutoCAD 2000
 90
        0
280
     0
281
     1
  0
CLASS
  1
XRECORD
  2
AcDbXrecord
  3
AutoCAD 2000
 90
        0
280
     0
281
     0
  0
CLASS
  1
LONG_TRANSACTION
  2
AcDbLongTransaction
  3
AutoCAD 2000
 90
        0
280
     0
281
     0
  0
CLASS
  1
LWPOLYLINE
  2
AcDbPolyline
  3
AutoCAD 2000
 90
        0
280
     0
281
     1
  0
CLASS
  1
HATCH
  2
AcDbHatch
  3
AutoCAD 2000
 90
        0
280
     0
281
     1
  0
CLASS
  1
XRECORD
  2
AcDbXrecord
  3
AutoCAD 2000
 90
        0
280
     0
281
     0
  0
CLASS
  1
LONG_TRANSACTION
  2
AcDbLongTransaction
  3
AutoCAD 2000
 90
        0
280
     0
281
     0
  0
CLASS
  1
LWPOLYLINE
  2
AcDbPolyline
  3
AutoCAD 2000
 90
        0
280
     0
281
     1
  0
CLASS
  1
HATCH
  2
AcDbHatch
  3
AutoCAD 2000
 90
        0
280
     0
281
     1
  0
CLASS
  1
XRECORD
  2
AcDbXrecord
  3
AutoCAD 2000
 90
        0
280
     0
281
     0
  0
CLASS
  1
LONG_TRANSACTION
  2
AcDbLongTransaction
  3
AutoCAD 2000
 90
        0
280
     0
281
     0
  0
CLASS
  1
LWPOLYLINE
  2
AcDbPolyline
  3
AutoCAD 2000
 90
        0
280
     0
281
     1
  0
CLASS
  1
HATCH
  2
AcDbHatch
  3
AutoCAD 2000
 90
        0
280
     0
281
     1
  0
CLASS
  1
XRECORD
  2
AcDbXrecord
  3
AutoCAD 2000
 90
        0
280
     0
281
     0
  0
CLASS
  1
LONG_TRANSACTION
  2
AcDbLongTransaction
  3
AutoCAD 2000
 90
        0
280
     0
281
     0
  0
CLASS
  1
LWPOLYLINE
  2
AcDbPolyline
  3
AutoCAD 2000
 90
        0
280
     0
281
     1
  0
CLASS
  1
HATCH
  2
AcDbHatch
  3
AutoCAD 2000
 90
        0
280
     0
281
     1
  0
CLASS
  1
XRECORD
  2
AcDbXrecord
  3
AutoCAD 2000
 90
        0
280
     0
281
     0
  0
CLASS
  1
LONG_TRANSACTION
  2
AcDbLongTransaction
  3
AutoCAD 2000
 90
        0
280
     0
281
     0
  0
CLASS
  1
LWPOLYLINE
  2
AcDbPolyline
  3
AutoCAD 2000
 90
        0
280
     0
281
     1
  0
CLASS
  1
HATCH
  2
AcDbHatch
  3
AutoCAD 2000
 90
        0
280
     0
281
     1
  0
CLASS
  1
XRECORD
  2
AcDbXrecord
  3
AutoCAD 2000
 90
        0
280
     0
281
     0
  0
CLASS
  1
LONG_TRANSACTION
  2
AcDbLongTransaction
  3
AutoCAD 2000
 90
        0
280
     0
281
     0
  0
CLASS
  1
LWPOLYLINE
  2
AcDbPolyline
  3
AutoCAD 2000
 90
        0
280
     0
281
     1
  0
CLASS
  1
HATCH
  2
AcDbHatch
  3
AutoCAD 2000
 90
        0
280
     0
281
     1
  0
CLASS
  1
XRECORD
  2
AcDbXrecord
  3
AutoCAD 2000
 90
        0
280
     0
281
     0
  0
CLASS
  1
LONG_TRANSACTION
  2
AcDbLongTransaction
  3
AutoCAD 2000
 90
        0
280
     0
281
     0
  0
CLASS
  1
LWPOLYLINE
  2
AcDbPolyline
  3
AutoCAD 2000
 90
        0
280
     0
281
     1
  0
CLASS
  1
HATCH
  2
AcDbHatch
  3
AutoCAD 2000
 90
        0
280
     0
281
     1
  0
CLASS
  1
XRECORD
  2
AcDbXrecord
  3
AutoCAD 2000
 90
        0
280
     0
281
     0
  0
CLASS
  1
LONG_TRANSACTION
  2
AcDbLongTransaction
  3
AutoCAD 2000
 90
        0
280
     0
281
     0
  0
CLASS
  1
LWPOLYLINE
  2
AcDbPolyline
  3
AutoCAD 2000
 90
        0
280
     0
281
     1
  0
CLASS
  1
HATCH
  2
AcDbHatch
  3
AutoCAD 2000
 90
        0
280
     0
281
     1
  0
CLASS
  1
XRECORD
  2
AcDbXrecord
  3
AutoCAD 2000
 90
        0
280
     0
281
     0
  0
CLASS
  1
LONG_TRANSACTION
  2
AcDbLongTransaction
  3
AutoCAD 2000
 90
        0
280
     0
281
     0
  0
CLASS
  1
LWPOLYLINE
  2
AcDbPolyline
  3
AutoCAD 2000
 90
        0
280
     0
281
     1
  0
CLASS
  1
HATCH
  2
AcDbHatch
  3
AutoCAD 2000
 90
        0
280
     0
281
     1
  0
CLASS
  1
XRECORD
  2
AcDbXrecord
  3
AutoCAD 2000
 90
        0
280
     0
281
     0
  0
CLASS
  1
LONG_TRANSACTION
  2
AcDbLongTransaction
  3
AutoCAD 2000
 90
        0
280
     0
281
     0
  0
CLASS
  1
LWPOLYLINE
  2
AcDbPolyline
  3
AutoCAD 2000
 90
        0
280
     0
281
     1
  0
CLASS
  1
HATCH
  2
AcDbHatch
  3
AutoCAD 2000
 90
        0
280
     0
281
     1
  0
CLASS
  1
XRECORD
  2
AcDbXrecord
  3
AutoCAD 2000
 90
        0
280
     0
281
     0
  0
CLASS
  1
LONG_TRANSACTION
  2
AcDbLongTransaction
  3
AutoCAD 2000
 90
        0
280
     0
281
     0
  0
CLASS
  1
LWPOLYLINE
  2
AcDbPolyline
  3
AutoCAD 2000
 90
        0
280
     0
281
     1
  0
CLASS
  1
HATCH
  2
AcDbHatch
  3
AutoCAD 2000
 90
        0
280
     0
281
     1
  0
CLASS
  1
XRECORD
  2
AcDbXrecord
  3
AutoCAD 2000
 90
        0
280
     0
281
     0
  0
CLASS
  1
LONG_TRANSACTION
  2
AcDbLongTransaction
  3
AutoCAD 2000
 90
        0
280
     0
281
     0
  0
CLASS
  1
LWPOLYLINE
  2
AcDbPolyline
  3
AutoCAD 2000
 90
        0
280
     0
281
     1
  0
CLASS
  1
HATCH
  2
AcDbHatch
  3
AutoCAD 2000
 90
        0
280
     0
281
     1
  0
CLASS
  1
XRECORD
  2
AcDbXrecord
  3
AutoCAD 2000
 90
        0
280
     0
281
     0
  0
CLASS
  1
LONG_TRANSACTION
  2
AcDbLongTransaction
  3
AutoCAD 2000
 90
        0
280
     0
281
     0
  0
CLASS
  1
LWPOLYLINE
  2
AcDbPolyline
  3
AutoCAD 2000
 90
        0
280
     0
281
     1
  0
CLASS
  1
HATCH
  2
AcDbHatch
  3
AutoCAD 2000
 90
        0
280
     0
281
     1
  0
CLASS
  1
XRECORD
  2
AcDbXrecord
  3
AutoCAD 2000
 90
        0
280
     0
281
     0
  0
CLASS
  1
LONG_TRANSACTION
  2
AcDbLongTransaction
  3
AutoCAD 2000
 90
        0
280
     0
281
     0
  0
CLASS
  1
LWPOLYLINE
  2
AcDbPolyline
  3
AutoCAD 2000
 90
        0
280
     0
281
     1
  0
CLASS
  1
HATCH
  2
AcDbHatch
  3
AutoCAD 2000
 90
        0
280
     0
281
     1
  0
CLASS
  1
XRECORD
  2
AcDbXrecord
  3
AutoCAD 2000
 90
        0
280
     0
281
     0
  0
CLASS
  1
LONG_TRANSACTION
  2
AcDbLongTransaction
  3
AutoCAD 2000
 90
        0
280
     0
281
     0
  0
CLASS
  1
LWPOLYLINE
  2
AcDbPolyline
  3
AutoCAD 2000
 90
        0
280
     0
281
     1
  0
CLASS
  1
HATCH
  2
AcDbHatch
  3
AutoCAD 2000
 90
        0
280
     0
281
     1
  0
CLASS
  1
XRECORD
  2
AcDbXrecord
  3
AutoCAD 2000
 90
        0
280
     0
281
     0
  0
CLASS
  1
LONG_TRANSACTION
  2
AcDbLongTransaction
  3
AutoCAD 2000
 90
        0
280
     0
281
     0
  0
CLASS
  1
LWPOLYLINE
  2
AcDbPolyline
  3
AutoCAD 2000
 90
        0
280
     0
281
     1
  0
CLASS
  1
HATCH
  2
AcDbHatch
  3
AutoCAD 2000
 90
        0
280
     0
281
     1
  0
CLASS
  1
XRECORD
  2
AcDbXrecord
  3
AutoCAD 2000
 90
        0
280
     0
281
     0
  0
CLASS
  1
LONG_TRANSACTION
  2
AcDbLongTransaction
  3
AutoCAD 2000
 90
        0
280
     0
281
     0
  0
CLASS
  1
LWPOLYLINE
  2
AcDbPolyline
  3
AutoCAD 2000
 90
        0
280
     0
281
     1
  0
CLASS
  1
HATCH
  2
AcDbHatch
  3
AutoCAD 2000
 90
        0
280
     0
281
     1
  0
CLASS
  1
XRECORD
  2
AcDbXrecord
  3
AutoCAD 2000
 90
        0
280
     0
281
     0
  0
CLASS
  1
LONG_TRANSACTION
  2
AcDbLongTransaction
  3
AutoCAD 2000
 90
        0
280
     0
281
     0
  0
CLASS
  1
LWPOLYLINE
  2
AcDbPolyline
  3
AutoCAD 2000
 90
        0
280
     0
281
     1
  0
CLASS
  1
HATCH
  2
AcDbHatch
  3
AutoCAD 2000
 90
        0
280
     0
281
     1
  0
CLASS
  1
XRECORD
  2
AcDbXrecord
  3
AutoCAD 2000
 90
        0
280
     0
281
     0
  0
CLASS
  1
LONG_TRANSACTION
  2
AcDbLongTransaction
  3
AutoCAD 2000
 90
        0
280
     0
281
     0
  0
CLASS
  1
LWPOLYLINE
  2
AcDbPolyline
  3
AutoCAD 2000
 90
        0
280
     0
281
     1
  0
CLASS
  1
HATCH
  2
AcDbHatch
  3
AutoCAD 2000
 90
        0
280
     0
281
     1
  0
CLASS
  1
XRECORD
  2
AcDbXrecord
  3
AutoCAD 2000
 90
        0
280
     0
281
     0
  0
CLASS
  1
LONG_TRANSACTION
  2
AcDbLongTransaction
  3
AutoCAD 2000
 90
        0
280
     0
281
     0
  0
CLASS
  1
LWPOLYLINE
  2
AcDbPolyline
  3
AutoCAD 2000
 90
        0
280
     0
281
     1
  0
CLASS
  1
HATCH
  2
AcDbHatch
  3
AutoCAD 2000
 90
        0
280
     0
281
     1
  0
CLASS
  1
XRECORD
  2
AcDbXrecord
  3
AutoCAD 2000
 90
        0
280
     0
281
     0
  0
CLASS
  1
LONG_TRANSACTION
  2
AcDbLongTransaction
  3
AutoCAD 2000
 90
        0
280
     0
281
     0
  0
CLASS
  1
LWPOLYLINE
  2
AcDbPolyline
  3
AutoCAD 2000
 90
        0
280
     0
281
     1
  0
CLASS
  1
HATCH
  2
AcDbHatch
  3
AutoCAD 2000
 90
        0
280
     0
281
     1
  0
CLASS
  1
XRECORD
  2
AcDbXrecord
  3
AutoCAD 2000
 90
        0
280
     0
281
     0
  0
CLASS
  1
LONG_TRANSACTION
  2
AcDbLongTransaction
  3
AutoCAD 2000
 90
        0
280
     0
281
     0
  0
CLASS
  1
LWPOLYLINE
  2
AcDbPolyline
  3
AutoCAD 2000
 90
        0
280
     0
281
     1
  0
CLASS
  1
HATCH
  2
AcDbHatch
  3
AutoCAD 2000
 90
        0
280
     0
281
     1
  0
CLASS
  1
XRECORD
  2
AcDbXrecord
  3
AutoCAD 2000
 90
        0
280
     0
281
     0
  0
CLASS
  1
LONG_TRANSACTION
  2
AcDbLongTransaction
  3
AutoCAD 2000
 90
        0
280
     0
281
     0
  0
CLASS
  1
LWPOLYLINE
  2
AcDbPolyline
  3
AutoCAD 2000
 90
        0
280
     0
281
     1
  0
CLASS
  1
HATCH
  2
AcDbHatch
  3
AutoCAD 2000
 90
        0
280
     0
281
     1
  0
CLASS
  1
XRECORD
  2
AcDbXrecord
  3
AutoCAD 2000
 90
        0
280
     0
281
     0
  0
CLASS
  1
LONG_TRANSACTION
  2
AcDbLongTransaction
  3
AutoCAD 2000
 90
        0
280
     0
281
     0
  0
CLASS
  1
LWPOLYLINE
  2
AcDbPolyline
  3
AutoCAD 2000
 90
        0
280
     0
281
     1
  0
CLASS
  1
HATCH
  2
AcDbHatch
  3
AutoCAD 2000
 90
        0
280
     0
281
     1
  0
CLASS
  1
XRECORD
  2
AcDbXrecord
  3
AutoCAD 2000
 90
        0
280
     0
281
     0
  0
CLASS
  1
LONG_TRANSACTION
  2
AcDbLongTransaction
  3
AutoCAD 2000
 90
        0
280
     0
281
     0
  0
CLASS
  1
LWPOLYLINE
  2
AcDbPolyline
  3
AutoCAD 2000
 90
        0
280
     0
281
     1
  0
CLASS
  1
HATCH
  2
AcDbHatch
  3
AutoCAD 2000
 90
        0
280
     0
281
     1
  0
CLASS
  1
XRECORD
  2
AcDbXrecord
  3
AutoCAD 2000
 90
        0
280
     0
281
     0
  0
CLASS
  1
LONG_TRANSACTION
  2
AcDbLongTransaction
  3
AutoCAD 2000
 90
        0
280
     0
281
     0
  0
CLASS
  1
LWPOLYLINE
  2
AcDbPolyline
  3
AutoCAD 2000
 90
        0
280
     0
281
     1
  0
CLASS
  1
HATCH
  2
AcDbHatch
  3
AutoCAD 2000
 90
        0
280
     0
281
     1
  0
CLASS
  1
XRECORD
  2
AcDbXrecord
  3
AutoCAD 2000
 90
        0
280
     0
281
     0
  0
CLASS
  1
LONG_TRANSACTION
  2
AcDbLongTransaction
  3
AutoCAD 2000
 90
        0
280
     0
281
     0
  0
CLASS
  1
LWPOLYLINE
  2
AcDbPolyline
  3
AutoCAD 2000
 90
        0
280
     0
281
     1
  0
CLASS
  1
HATCH
  2
AcDbHatch
  3
AutoCAD 2000
 90
        0
280
     0
281
     1
  0
CLASS
  1
XRECORD
  2
AcDbXrecord
  3
AutoCAD 2000
 90
        0
280
     0
281
     0
  0
CLASS
  1
LONG_TRANSACTION
  2
AcDbLongTransaction
  3
AutoCAD 2000
 90
        0
280
     0
281
     0
  0
CLASS
  1
LWPOLYLINE
  2
AcDbPolyline
  3
AutoCAD 2000
 90
        0
280
     0
281
     1
  0
CLASS
  1
HATCH
  2
AcDbHatch
  3
AutoCAD 2000
 90
        0
280
     0
281
     1
  0
CLASS
  1
XRECORD
  2
AcDbXrecord
  3
AutoCAD 2000
 90
        0
280
     0
281
     0
  0
CLASS
  1
LONG_TRANSACTION
  2
AcDbLongTransaction
  3
AutoCAD 2000
 90
        0
280
     0
281
     0
  0
CLASS
  1
LWPOLYLINE
  2
AcDbPolyline
  3
AutoCAD 2000
 90
        0
280
     0
281
     1
  0
CLASS
  1
HATCH
  2
AcDbHatch
  3
AutoCAD 2000
 90
        0
280
     0
281
     1
  0
CLASS
  1
XRECORD
  2
AcDbXrecord
  3
AutoCAD 2000
 90
        0
280
     0
281
     0
  0
CLASS
  1
LONG_TRANSACTION
  2
AcDbLongTransaction
  3
AutoCAD 2000
 90
        0
280
     0
281
     0
  0
CLASS
  1
LWPOLYLINE
  2
AcDbPolyline
  3
AutoCAD 2000
 90
        0
280
     0
281
     1
  0
CLASS
  1
HATCH
  2
AcDbHatch
  3
AutoCAD 2000
 90
        0
280
     0
281
     1
  0
CLASS
  1
XRECORD
  2
AcDbXrecord
  3
AutoCAD 2000
 90
        0
280
     0
281
     0
  0
CLASS
  1
LONG_TRANSACTION
  2
AcDbLongTransaction
  3
AutoCAD 2000
 90
        0
280
     0
281
     0
  0
CLASS
  1
LWPOLYLINE
  2
AcDbPolyline
  3
AutoCAD 2000
 90
        0
280
     0
281
     1
  0
CLASS
  1
HATCH
  2
AcDbHatch
  3
AutoCAD 2000
 90
        0
280
     0
281
     1
  0
CLASS
  1
XRECORD
  2
AcDbXrecord
  3
AutoCAD 2000
 90
        0
280
     0
281
     0
  0
CLASS
  1
LONG_TRANSACTION
  2
AcDbLongTransaction
  3
AutoCAD 2000
 90
        0
280
     0
281
     0
  0
CLASS
  1
LWPOLYLINE
  2
AcDbPolyline
  3
AutoCAD 2000
 90
        0
280
     0
281
     1
  0
CLASS
  1
HATCH
  2
AcDbHatch
  3
AutoCAD 2000
 90
        0
280
     0
281
     1
  0
CLASS
  1
XRECORD
  2
AcDbXrecord
  3
AutoCAD 2000
 90
        0
280
     0
281
     0
  0
CLASS
  1
LONG_TRANSACTION
  2
AcDbLongTransaction
  3
AutoCAD 2000
 90
        0
280
     0
281
     0
  0
CLASS
  1
LWPOLYLINE
  2
AcDbPolyline
  3
AutoCAD 2000
 90
        0
280
     0
281
     1
  0
CLASS
  1
HATCH
  2
AcDbHatch
  3
AutoCAD 2000
 90
        0
280
     0
281
     1
  0
CLASS
  1
XRECORD
  2
AcDbXrecord
  3
AutoCAD 2000
 90
        0
280
     0
281
     0
  0
CLASS
  1
LONG_TRANSACTION
  2
AcDbLongTransaction
  3
AutoCAD 2000
 90
        0
280
     0
281
     0
  0
CLASS
  1
LWPOLYLINE
  2
AcDbPolyline
  3
AutoCAD 2000
 90
        0
280
     0
281
     1
  0
CLASS
  1
HATCH
  2
AcDbHatch
  3
AutoCAD 2000
 90
        0
280
     0
281
     1
  0
CLASS
  1
XRECORD
  2
AcDbXrecord
  3
AutoCAD 2000
 90
        0
280
     0
281
     0
  0
CLASS
  1
LONG_TRANSACTION
  2
AcDbLongTransaction
  3
AutoCAD 2000
 90
        0
280
     0
281
     0
  0
CLASS
  1
LWPOLYLINE
  2
AcDbPolyline
  3
AutoCAD 2000
 90
        0
280
     0
281
     1
  0
CLASS
  1
HATCH
  2
AcDbHatch
  3
AutoCAD 2000
 90
        0
280
     0
281
     1
  0
CLASS
  1
XRECORD
  2
AcDbXrecord
  3
AutoCAD 2000
 90
        0
280
     0
281
     0
  0
CLASS
  1
LONG_TRANSACTION
  2
AcDbLongTransaction
  3
AutoCAD 2000
 90
        0
280
     0
281
     0
  0
CLASS
  1
LWPOLYLINE
  2
AcDbPolyline
  3
AutoCAD 2000
 90
        0
280
     0
281
     1
  0
CLASS
  1
HATCH
  2
AcDbHatch
  3
AutoCAD 2000
 90
        0
280
     0
281
     1
  0
CLASS
  1
XRECORD
  2
AcDbXrecord
  3
AutoCAD 2000
 90
        0
280
     0
281
     0
  0
CLASS
  1
LONG_TRANSACTION
  2
AcDbLongTransaction
  3
AutoCAD 2000
 90
        0
280
     0
281
     0
  0
CLASS
  1
LWPOLYLINE
  2
AcDbPolyline
  3
AutoCAD 2000
 90
        0
280
     0
281
     1
  0
CLASS
  1
HATCH
  2
AcDbHatch
  3
AutoCAD 2000
 90
        0
280
     0
281
     1
  0
CLASS
  1
XRECORD
  2
AcDbXrecord
  3
AutoCAD 2000
 90
        0
280
     0
281
     0
  0
CLASS
  1
LONG_TRANSACTION
  2
AcDbLongTransaction
  3
AutoCAD 2000
 90
        0
280
     0
281
     0
  0
CLASS
  1
LWPOLYLINE
  2
AcDbPolyline
  3
AutoCAD 2000
 90
        0
280
     0
281
     1
  0
CLASS
  1
HATCH
  2
AcDbHatch
  3
AutoCAD 2000
 90
        0
280
     0
281
     1
  0
CLASS
  1
XRECORD
  2
AcDbXrecord
  3
AutoCAD 2000
 90
        0
280
     0
281
     0
  0
CLASS
  1
LONG_TRANSACTION
  2
AcDbLongTransaction
  3
AutoCAD 2000
 90
        0
280
     0
281
     0
  0
CLASS
  1
LWPOLYLINE
  2
AcDbPolyline
  3
AutoCAD 2000
 90
        0
280
     0
281
     1
  0
CLASS
  1
HATCH
  2
AcDbHatch
  3
AutoCAD 2000
 90
        0
280
     0
281
     1
  0
CLASS
  1
XRECORD
  2
AcDbXrecord
  3
AutoCAD 2000
 90
        0
280
     0
281
     0
  0
CLASS
  1
LONG_TRANSACTION
  2
AcDbLongTransaction
  3
AutoCAD 2000
 90
        0
280
     0
281
     0
  0
CLASS
  1
LWPOLYLINE
  2
AcDbPolyline
  3
AutoCAD 2000
 90
        0
280
     0
281
     1
  0
CLASS
  1
HATCH
  2
AcDbHatch
  3
AutoCAD 2000
 90
        0
280
     0
281
     1
  0
CLASS
  1
XRECORD
  2
AcDbXrecord
  3
AutoCAD 2000
 90
        0
280
     0
281
     0
  0
CLASS
  1
LONG_TRANSACTION
  2
AcDbLongTransaction
  3
AutoCAD 2000
 90
        0
280
     0
281
     0
  0
CLASS
  1
LWPOLYLINE
  2
AcDbPolyline
  3
AutoCAD 2000
 90
        0
280
     0
281
     1
  0
CLASS
  1
HATCH
  2
AcDbHatch
  3
AutoCAD 2000
 90
        0
280
     0
281
     1
  0
CLASS
  1
XRECORD
  2
AcDbXrecord
  3
AutoCAD 2000
 90
        0
280
     0
281
     0
  0
CLASS
  1
LONG_TRANSACTION
  2
AcDbLongTransaction
  3
AutoCAD 2000
 90
        0
280
     0
281
     0
  0
CLASS
  1
LWPOLYLINE
  2
AcDbPolyline
  3
AutoCAD 2000
 90
        0
280
     0
281
     1
  0
CLASS
  1
HATCH
  2
AcDbHatch
  3
AutoCAD 2000
 90
        0
280
     0
281
     1
  0
CLASS
  1
XRECORD
  2
AcDbXrecord
  3
AutoCAD 2000
 90
        0
280
     0
281
     0
  0
CLASS
  1
LONG_TRANSACTION
  2
AcDbLongTransaction
  3
AutoCAD 2000
 90
        0
280
     0
281
     0
  0
CLASS
  1
LWPOLYLINE
  2
AcDbPolyline
  3
AutoCAD 2000
 90
        0
280
     0
281
     1
  0
CLASS
  1
HATCH
  2
AcDbHatch
  3
AutoCAD 2000
 90
        0
280
     0
281
     1
  0
CLASS
  1
XRECORD
  2
AcDbXrecord
  3
AutoCAD 2000
 90
        0
280
     0
281
     0
  0
CLASS
  1
LONG_TRANSACTION
  2
AcDbLongTransaction
  3
AutoCAD 2000
 90
        0
280
     0
281
     0
  0
CLASS
  1
LWPOLYLINE
  2
AcDbPolyline
  3
AutoCAD 2000
 90
        0
280
     0
281
     1
  0
CLASS
  1
HATCH
  2
AcDbHatch
  3
AutoCAD 2000
 90
        0
280
     0
281
     1
  0
CLASS
  1
XRECORD
  2
AcDbXrecord
  3
AutoCAD 2000
 90
        0
280
     0
281
     0
  0
CLASS
  1
LONG_TRANSACTION
  2
AcDbLongTransaction
  3
AutoCAD 2000
 90
        0
280
     0
281
     0
  0
CLASS
  1
LWPOLYLINE
  2
AcDbPolyline
  3
AutoCAD 2000
 90
        0
280
     0
281
     1
  0
CLASS
  1
HATCH
  2
AcDbHatch
  3
AutoCAD 2000
 90
        0
280
     0
281
     1
  0
CLASS
  1
XRECORD
  2
AcDbXrecord
  3
AutoCAD 2000
 90
        0
280
     0
281
     0
  0
CLASS
  1
LONG_TRANSACTION
  2
AcDbLongTransaction
  3
AutoCAD 2000
 90
        0
280
     0
281
     0
  0
CLASS
  1
LWPOLYLINE
  2
AcDbPolyline
  3
AutoCAD 2000
 90
        0
280
     0
281
     1
  0
CLASS
  1
HATCH
  2
AcDbHatch
  3
AutoCAD 2000
 90
        0
280
     0
281
     1
  0
CLASS
  1
XRECORD
  2
AcDbXrecord
  3
AutoCAD 2000
 90
        0
280
     0
281
     0
  0
CLASS
  1
LONG_TRANSACTION
  2
AcDbLongTransaction
  3
AutoCAD 2000
 90
        0
280
     0
281
     0
  0
CLASS
  1
LWPOLYLINE
  2
AcDbPolyline
  3
AutoCAD 2000
 90
        0
280
     0
281
     1
  0
CLASS
  1
HATCH
  2
AcDbHatch
  3
AutoCAD 2000
 90
        0
280
     0
281
     1
  0
CLASS
  1
XRECORD
  2
AcDbXrecord
  3
AutoCAD 2000
 90
        0
280
     0
281
     0
  0
CLASS
  1
LONG_TRANSACTION
  2
AcDbLongTransaction
  3
AutoCAD 2000
 90
        0
280
     0
281
     0
  0
CLASS
  1
LWPOLYLINE
  2
AcDbPolyline
  3
AutoCAD 2000
 90
        0
280
     0
281
     1
  0
CLASS
  1
HATCH
  2
AcDbHatch
  3
AutoCAD 2000
 90
        0
280
     0
281
     1
  0
CLASS
  1
XRECORD
  2
AcDbXrecord
  3
AutoCAD 2000
 90
        0
280
     0
281
     0
  0
CLASS
  1
LONG_TRANSACTION
  2
AcDbLongTransaction
  3
AutoCAD 2000
 90
        0
280
     0
281
     0
  0
CLASS
  1
LWPOLYLINE
  2
AcDbPolyline
  3
AutoCAD 2000
 90
        0
280
     0
281
     1
  0
CLASS
  1
HATCH
  2
AcDbHatch
  3
AutoCAD 2000
 90
        0
280
     0
281
     1
  0
CLASS
  1
XRECORD
  2
AcDbXrecord
  3
AutoCAD 2000
 90
        0
280
     0
281
     0
  0
CLASS
  1
LONG_TRANSACTION
  2
AcDbLongTransaction
  3
AutoCAD 2000
 90
        0
280
     0
281
     0
  0
CLASS
  1
LWPOLYLINE
  2
AcDbPolyline
  3
AutoCAD 2000
 90
        0
280
     0
281
     1
  0
CLASS
  1
HATCH
  2
AcDbHatch
  3
AutoCAD 2000
 90
        0
280
     0
281
     1
  0
CLASS
  1
XRECORD
  2
AcDbXrecord
  3
AutoCAD 2000
 90
        0
280
     0
281
     0
  0
CLASS
  1
LONG_TRANSACTION
  2
AcDbLongTransaction
  3
AutoCAD 2000
 90
        0
280
     0
281
     0
  0
CLASS
  1
LWPOLYLINE
  2
AcDbPolyline
  3
AutoCAD 2000
 90
        0
280
     0
281
     1
  0
CLASS
  1
HATCH
  2
AcDbHatch
  3
AutoCAD 2000
 90
        0
280
     0
281
     1
  0
CLASS
  1
XRECORD
  2
AcDbXrecord
  3
AutoCAD 2000
 90
        0
280
     0
281
     0
  0
CLASS
  1
LONG_TRANSACTION
  2
AcDbLongTransaction
  3
AutoCAD 2000
 90
        0
280
     0
281
     0
  0
CLASS
  1
LWPOLYLINE
  2
AcDbPolyline
  3
AutoCAD 2000
 90
        0
280
     0
281
     1
  0
CLASS
  1
HATCH
  2
AcDbHatch
  3
AutoCAD 2000
 90
        0
280
     0
281
     1
  0
CLASS
  1
XRECORD
  2
AcDbXrecord
  3
AutoCAD 2000
 90
        0
280
     0
281
     0
  0
CLASS
  1
LONG_TRANSACTION
  2
AcDbLongTransaction
  3
AutoCAD 2000
 90
        0
280
     0
281
     0
  0
CLASS
  1
LWPOLYLINE
  2
AcDbPolyline
  3
AutoCAD 2000
 90
        0
280
     0
281
     1
  0
CLASS
  1
HATCH
  2
AcDbHatch
  3
AutoCAD 2000
 90
        0
280
     0
281
     1
  0
CLASS
  1
XRECORD
  2
AcDbXrecord
  3
AutoCAD 2000
 90
        0
280
     0
281
     0
  0
CLASS
  1
LONG_TRANSACTION
  2
AcDbLongTransaction
  3
AutoCAD 2000
 90
        0
280
     0
281
     0
  0
CLASS
  1
LWPOLYLINE
  2
AcDbPolyline
  3
AutoCAD 2000
 90
        0
280
     0
281
     1
  0
CLASS
  1
HATCH
  2
AcDbHatch
  3
AutoCAD 2000
 90
        0
280
     0
281
     1
  0
CLASS
  1
XRECORD
  2
AcDbXrecord
  3
AutoCAD 2000
 90
        0
280
     0
281
     0
  0
CLASS
  1
LONG_TRANSACTION
  2
AcDbLongTransaction
  3
AutoCAD 2000
 90
        0
280
     0
281
     0
  0
CLASS
  1
LWPOLYLINE
  2
AcDbPolyline
  3
AutoCAD 2000
 90
        0
280
     0
281
     1
  0
CLASS
  1
HATCH
  2
AcDbHatch
  3
AutoCAD 2000
 90
        0
280
     0
281
     1
  0
CLASS
  1
XRECORD
  2
AcDbXrecord
  3
AutoCAD 2000
 90
        0
280
     0
281
     0
  0
CLASS
  1
LONG_TRANSACTION
  2
AcDbLongTransaction
  3
AutoCAD 2000
 90
        0
280
     0
281
     0
  0
CLASS
  1
LWPOLYLINE
  2
AcDbPolyline
  3
AutoCAD 2000
 90
        0
280
     0
281
     1
  0
CLASS
  1
HATCH
  2
AcDbHatch
  3
AutoCAD 2000
 90
        0
280
     0
281
     1
  0
CLASS
  1
XRECORD
  2
AcDbXrecord
  3
AutoCAD 2000
 90
        0
280
     0
281
     0
  0
CLASS
  1
LONG_TRANSACTION
  2
AcDbLongTransaction
  3
AutoCAD 2000
 90
        0
280
     0
281
     0
  0
CLASS
  1
LWPOLYLINE
  2
AcDbPolyline
  3
AutoCAD 2000
 90
        0
280
     0
281
     1
  0
CLASS
  1
HATCH
  2
AcDbHatch
  3
AutoCAD 2000
 90
        0
280
     0
281
     1
  0
CLASS
  1
XRECORD
  2
AcDbXrecord
  3
AutoCAD 2000
 90
        0
280
     0
281
     0
  0
CLASS
  1
LONG_TRANSACTION
  2
AcDbLongTransaction
  3
AutoCAD 2000
 90
        0
280
     0
281
     0
  0
CLASS
  1
LWPOLYLINE
  2
AcDbPolyline
  3
AutoCAD 2000
 90
        0
280
     0
281
     1
  0
CLASS
  1
HATCH
  2
AcDbHatch
  3
AutoCAD 2000
 90
        0
280
     0
281
     1
  0
CLASS
  1
XRECORD
  2
AcDbXrecord
  3
AutoCAD 2000
 90
        0
280
     0
281
     0
  0
CLASS
  1
LONG_TRANSACTION
  2
AcDbLongTransaction
  3
AutoCAD 2000
 90
        0
280
     0
281
     0
  0
CLASS
  1
LWPOLYLINE
  2
AcDbPolyline
  3
AutoCAD 2000
 90
        0
280
     0
281
     1
  0
CLASS
  1
HATCH
  2
AcDbHatch
  3
AutoCAD 2000
 90
        0
280
     0
281
     1
  0
CLASS
  1
XRECORD
  2
AcDbXrecord
  3
AutoCAD 2000
 90
        0
280
     0
281
     0
  0
CLASS
  1
LONG_TRANSACTION
  2
AcDbLongTransaction
  3
AutoCAD 2000
 90
        0
280
     0
281
     0
  0
CLASS
  1
LWPOLYLINE
  2
AcDbPolyline
  3
AutoCAD 2000
 90
        0
280
     0
281
     1
  0
CLASS
  1
HATCH
  2
AcDbHatch
  3
AutoCAD 2000
 90
        0
280
     0
281
     1
  0
CLASS
  1
XRECORD
  2
AcDbXrecord
  3
AutoCAD 2000
 90
        0
280
     0
281
     0
  0
CLASS
  1
LONG_TRANSACTION
  2
AcDbLongTransaction
  3
AutoCAD 2000
 90
        0
280
     0
281
     0
  0
CLASS
  1
LWPOLYLINE
  2
AcDbPolyline
  3
AutoCAD 2000
 90
        0
280
     0
281
     1
  0
CLASS
  1
HATCH
  2
AcDbHatch
  3
AutoCAD 2000
 90
        0
280
     0
281
     1
  0
CLASS
  1
XRECORD
  2
AcDbXrecord
  3
AutoCAD 2000
 90
        0
280
     0
281
     0
  0
CLASS
  1
LONG_TRANSACTION
  2
AcDbLongTransaction
  3
AutoCAD 2000
 90
        0
280
     0
281
     0
  0
CLASS
  1
LWPOLYLINE
  2
AcDbPolyline
  3
AutoCAD 2000
 90
        0
280
     0
281
     1
  0
CLASS
  1
HATCH
  2
AcDbHatch
  3
AutoCAD 2000
 90
        0
280
     0
281
     1
  0
CLASS
  1
XRECORD
  2
AcDbXrecord
  3
AutoCAD 2000
 90
        0
280
     0
281
     0
  0
CLASS
  1
LONG_TRANSACTION
  2
AcDbLongTransaction
  3
AutoCAD 2000
 90
        0
280
     0
281
     0
  0
CLASS
  1
LWPOLYLINE
  2
AcDbPolyline
  3
AutoCAD 2000
 90
        0
280
     0
281
     1
  0
CLASS
  1
HATCH
  2
AcDbHatch
  3
AutoCAD 2000
 90
        0
280
     0
281
     1
  0
CLASS
  1
XRECORD
  2
AcDbXrecord
  3
AutoCAD 2000
 90
        0
280
     0
281
     0
  0
CLASS
  1
LONG_TRANSACTION
  2
AcDbLongTransaction
  3
AutoCAD 2000
 90
        0
280
     0
281
     0
  0
CLASS
  1
LWPOLYLINE
  2
AcDbPolyline
  3
AutoCAD 2000
 90
        0
280
     0
281
     1
  0
CLASS
  1
HATCH
  2
AcDbHatch
  3
AutoCAD 2000
 90
        0
280
     0
281
     1
  0
CLASS
  1
XRECORD
  2
AcDbXrecord
  3
AutoCAD 2000
 90
        0
280
     0
281
     0
  0
CLASS
  1
LONG_TRANSACTION
  2
AcDbLongTransaction
  3
AutoCAD 2000
 90
        0
280
     0
281
     0
  0
CLASS
  1
LWPOLYLINE
  2
AcDbPolyline
  3
AutoCAD 2000
 90
        0
280
     0
281
     1
  0
CLASS
  1
HATCH
  2
AcDbHatch
  3
AutoCAD 2000
 90
        0
280
     0
281
     1
  0
CLASS
  1
XRECORD
  2
AcDbXrecord
  3
AutoCAD 2000
 90
        0
280
     0
281
     0
  0
CLASS
  1
LONG_TRANSACTION
  2
AcDbLongTransaction
  3
AutoCAD 2000
 90
        0
280
     0
281
     0
  0
CLASS
  1
LWPOLYLINE
  2
AcDbPolyline
  3
AutoCAD 2000
 90
        0
280
     0
281
     1
  0
CLASS
  1
HATCH
  2
AcDbHatch
  3
AutoCAD 2000
 90
        0
280
     0
281
     1
  0
CLASS
  1
XRECORD
  2
AcDbXrecord
  3
AutoCAD 2000
 90
        0
280
     0
281
     0
  0
CLASS
  1
LONG_TRANSACTION
  2
AcDbLongTransaction
  3
AutoCAD 2000
 90
        0
280
     0
281
     0
  0
CLASS
  1
LWPOLYLINE
  2
AcDbPolyline
  3
AutoCAD 2000
 90
        0
280
     0
281
     1
  0
CLASS
  1
HATCH
  2
AcDbHatch
  3
AutoCAD 2000
 90
        0
280
     0
281
     1
  0
CLASS
  1
XRECORD
  2
AcDbXrecord
  3
AutoCAD 2000
 90
        0
280
     0
281
     0
  0
CLASS
  1
LONG_TRANSACTION
  2
AcDbLongTransaction
  3
AutoCAD 2000
 90
        0
280
     0
281
     0
  0
CLASS
  1
LWPOLYLINE
  2
AcDbPolyline
  3
AutoCAD 2000
 90
        0
280
     0
281
     1
  0
CLASS
  1
HATCH
  2
AcDbHatch
  3
AutoCAD 2000
 90
        0
280
     0
281
     1
  0
CLASS
  1
XRECORD
  2
AcDbXrecord
  3
AutoCAD 2000
 90
        0
280
     0
281
     0
  0
CLASS
  1
LONG_TRANSACTION
  2
AcDbLongTransaction
  3
AutoCAD 2000
 90
        0
280
     0
281
     0
  0
CLASS
  1
LWPOLYLINE
  2
AcDbPolyline
  3
AutoCAD 2000
 90
        0
280
     0
281
     1
  0
CLASS
  1
HATCH
  2
AcDbHatch
  3
AutoCAD 2000
 90
        0
280
     0
281
     1
  0
CLASS
  1
XRECORD
  2
AcDbXrecord
  3
AutoCAD 2000
 90
        0
280
     0
281
     0
  0
CLASS
  1
LONG_TRANSACTION
  2
AcDbLongTransaction
  3
AutoCAD 2000
 90
        0
280
     0
281
     0
  0
CLASS
  1
LWPOLYLINE
  2
AcDbPolyline
  3
AutoCAD 2000
 90
        0
280
     0
281
     1
  0
CLASS
  1
HATCH
  2
AcDbHatch
  3
AutoCAD 2000
 90
        0
280
     0
281
     1
  0
CLASS
  1
XRECORD
  2
AcDbXrecord
  3
AutoCAD 2000
 90
        0
280
     0
281
     0
  0
CLASS
  1
LONG_TRANSACTION
  2
AcDbLongTransaction
  3
AutoCAD 2000
 90
        0
280
     0
281
     0
  0
CLASS
  1
LWPOLYLINE
  2
AcDbPolyline
  3
AutoCAD 2000
 90
        0
280
     0
281
     1
  0
CLASS
  1
HATCH
  2
AcDbHatch
  3
AutoCAD 2000
 90
        0
280
     0
281
     1
  0
CLASS
  1
XRECORD
  2
AcDbXrecord
  3
AutoCAD 2000
 90
        0
280
     0
281
     0
  0
CLASS
  1
LONG_TRANSACTION
  2
AcDbLongTransaction
  3
AutoCAD 2000
 90
        0
280
     0
281
     0
  0
CLASS
  1
LWPOLYLINE
  2
AcDbPolyline
  3
AutoCAD 2000
 90
        0
280
     0
281
     1
  0
CLASS
  1
HATCH
  2
AcDbHatch
  3
AutoCAD 2000
 90
        0
280
     0
281
     1
  0
CLASS
  1
XRECORD
  2
AcDbXrecord
  3
AutoCAD 2000
 90
        0
280
     0
281
     0
  0
CLASS
  1
LONG_TRANSACTION
  2
AcDbLongTransaction
  3
AutoCAD 2000
 90
        0
280
     0
281
     0
  0
CLASS
  1
LWPOLYLINE
  2
AcDbPolyline
  3
AutoCAD 2000
 90
        0
280
     0
281
     1
  0
CLASS
  1
HATCH
  2
AcDbHatch
  3
AutoCAD 2000
 90
        0
280
     0
281
     1
  0
CLASS
  1
XRECORD
  2
AcDbXrecord
  3
AutoCAD 2000
 90
        0
280
     0
281
     0
  0
CLASS
  1
LONG_TRANSACTION
  2
AcDbLongTransaction
  3
AutoCAD 2000
 90
        0
280
     0
281
     0
  0
CLASS
  1
LWPOLYLINE
  2
AcDbPolyline
  3
AutoCAD 2000
 90
        0
280
     0
281
     1
  0
CLASS
  1
HATCH
  2
AcDbHatch
  3
AutoCAD 2000
 90
        0
280
     0
281
     1
  0
CLASS
  1
XRECORD
  2
AcDbXrecord
  3
AutoCAD 2000
 90
        0
280
     0
281
     0
  0
CLASS
  1
LONG_TRANSACTION
  2
AcDbLongTransaction
  3
AutoCAD 2000
 90
        0
280
     0
281
     0
  0
CLASS
  1
LWPOLYLINE
  2
AcDbPolyline
  3
AutoCAD 2000
 90
        0
280
     0
281
     1
  0
CLASS
  1
HATCH
  2
AcDbHatch
  3
AutoCAD 2000
 90
        0
280
     0
281
     1
  0
CLASS
  1
XRECORD
  2
AcDbXrecord
  3
AutoCAD 2000
 90
        0
280
     0
281
     0
  0
CLASS
  1
LONG_TRANSACTION
  2
AcDbLongTransaction
  3
AutoCAD 2000
 90
        0
280
     0
281
     0
  0
CLASS
  1
LWPOLYLINE
  2
AcDbPolyline
  3
AutoCAD 2000
 90
        0
280
     0
281
     1
  0
CLASS
  1
HATCH
  2
AcDbHatch
  3
AutoCAD 2000
 90
        0
280
     0
281
     1
  0
CLASS
  1
XRECORD
  2
AcDbXrecord
  3
AutoCAD 2000
 90
        0
280
     0
281
     0
  0
CLASS
  1
LONG_TRANSACTION
  2
AcDbLongTransaction
  3
AutoCAD 2000
 90
        0
280
     0
281
     0
  0
CLASS
  1
LWPOLYLINE
  2
AcDbPolyline
  3
AutoCAD 2000
 90
        0
280
     0
281
     1
  0
CLASS
  1
HATCH
  2
AcDbHatch
  3
AutoCAD 2000
 90
        0
280
     0
281
     1
  0
CLASS
  1
XRECORD
  2
AcDbXrecord
  3
AutoCAD 2000
 90
        0
280
     0
281
     0
  0
CLASS
  1
LONG_TRANSACTION
  2
AcDbLongTransaction
  3
AutoCAD 2000
 90
        0
280
     0
281
     0
  0
CLASS
  1
LWPOLYLINE
  2
AcDbPolyline
  3
AutoCAD 2000
 90
        0
280
     0
281
     1
  0
CLASS
  1
HATCH
  2
AcDbHatch
  3
AutoCAD 2000
 90
        0
280
     0
281
     1
  0
CLASS
  1
XRECORD
  2
AcDbXrecord
  3
AutoCAD 2000
 90
        0
280
     0
281
     0
  0
CLASS
  1
LONG_TRANSACTION
  2
AcDbLongTransaction
  3
AutoCAD 2000
 90
        0
280
     0
281
     0
  0
CLASS
  1
LWPOLYLINE
  2
AcDbPolyline
  3
AutoCAD 2000
 90
        0
280
     0
281
     1
  0
CLASS
  1
HATCH
  2
AcDbHatch
  3
AutoCAD 2000
 90
        0
280
     0
281
     1
  0
CLASS
  1
XRECORD
  2
AcDbXrecord
  3
AutoCAD 2000
 90
        0
280
     0
281
     0
  0
CLASS
  1
LONG_TRANSACTION
  2
AcDbLongTransaction
  3
AutoCAD 2000
 90
        0
280
     0
281
     0
  0
CLASS
  1
LWPOLYLINE
  2
AcDbPolyline
  3
AutoCAD 2000
 90
        0
280
     0
281
     1
  0
CLASS
  1
HATCH
  2
AcDbHatch
  3
AutoCAD 2000
 90
        0
280
     0
281
     1
  0
CLASS
  1
XRECORD
  2
AcDbXrecord
  3
AutoCAD 2000
 90
        0
280
     0
281
     0
  0
CLASS
  1
LONG_TRANSACTION
  2
AcDbLongTransaction
  3
AutoCAD 2000
 90
        0
280
     0
281
     0
  0
CLASS
  1
LWPOLYLINE
  2
AcDbPolyline
  3
AutoCAD 2000
 90
        0
280
     0
281
     1
  0
CLASS
  1
HATCH
  2
AcDbHatch
  3
AutoCAD 2000
 90
        0
280
     0
281
     1
  0
CLASS
  1
XRECORD
  2
AcDbXrecord
  3
AutoCAD 2000
 90
        0
280
     0
281
     0
  0
CLASS
  1
LONG_TRANSACTION
  2
AcDbLongTransaction
  3
AutoCAD 2000
 90
        0
280
     0
281
     0
  0
CLASS
  1
LWPOLYLINE
  2
AcDbPolyline
  3
AutoCAD 2000
 90
        0
280
     0
281
     1
  0
CLASS
  1
HATCH
  2
AcDbHatch
  3
AutoCAD 2000
 90
        0
280
     0
281
     1
  0
CLASS
  1
XRECORD
  2
AcDbXrecord
  3
AutoCAD 2000
 90
        0
280
     0
281
     0
  0
CLASS
  1
LONG_TRANSACTION
  2
AcDbLongTransaction
  3
AutoCAD 2000
 90
        0
280
     0
281
     0
  0
CLASS
  1
LWPOLYLINE
  2
AcDbPolyline
  3
AutoCAD 2000
 90
        0
280
     0
281
     1
  0
CLASS
  1
HATCH
  2
AcDbHatch
  3
AutoCAD 2000
 90
        0
280
     0
281
     1
  0
CLASS
  1
XRECORD
  2
AcDbXrecord
  3
AutoCAD 2000
 90
        0
280
     0
281
     0
  0
CLASS
  1
LONG_TRANSACTION
  2
AcDbLongTransaction
  3
AutoCAD 2000
 90
        0
280
     0
281
     0
  0
CLASS
  1
LWPOLYLINE
  2
AcDbPolyline
  3
AutoCAD 2000
 90
        0
280
     0
281
     1
  0
CLASS
  1
HATCH
  2
AcDbHatch
  3
AutoCAD 2000
 90
        0
280
     0
281
     1
  0
CLASS
  1
XRECORD
  2
AcDbXrecord
  3
AutoCAD 2000
 90
        0
280
     0
281
     0
  0
CLASS
  1
LONG_TRANSACTION
  2
AcDbLongTransaction
  3
AutoCAD 2000
 90
        0
280
     0
281
     0
  0
CLASS
  1
LWPOLYLINE
  2
AcDbPolyline
  3
AutoCAD 2000
 90
        0
280
     0
281
     1
  0
CLASS
  1
HATCH
  2
AcDbHatch
  3
AutoCAD 2000
 90
        0
280
     0
281
     1
  0
CLASS
  1
XRECORD
  2
AcDbXrecord
  3
AutoCAD 2000
 90
        0
280
     0
281
     0
  0
CLASS
  1
LONG_TRANSACTION
  2
AcDbLongTransaction
  3
AutoCAD 2000
 90
        0
280
     0
281
     0
  0
CLASS
  1
LWPOLYLINE
  2
AcDbPolyline
  3
AutoCAD 2000
 90
        0
280
     0
281
     1
  0
CLASS
  1
HATCH
  2
AcDbHatch
  3
AutoCAD 2000
 90
        0
280
     0
281
     1
  0
CLASS
  1
XRECORD
  2
AcDbXrecord
  3
AutoCAD 2000
 90
        0
280
     0
281
     0
  0
CLASS
  1
LONG_TRANSACTION
  2
AcDbLongTransaction
  3
AutoCAD 2000
 90
        0
280
     0
281
     0
  0
CLASS
  1
LWPOLYLINE
  2
AcDbPolyline
  3
AutoCAD 2000
 90
        0
280
     0
281
     1
  0
CLASS
  1
HATCH
  2
AcDbHatch
  3
AutoCAD 2000
 90
        0
280
     0
281
     1
  0
CLASS
  1
XRECORD
  2
AcDbXrecord
  3
AutoCAD 2000
 90
        0
280
     0
281
     0
  0
CLASS
  1
LONG_TRANSACTION
  2
AcDbLongTransaction
  3
AutoCAD 2000
 90
        0
280
     0
281
     0
  0
CLASS
  1
LWPOLYLINE
  2
AcDbPolyline
  3
AutoCAD 2000
 90
        0
280
     0
281
     1
  0
CLASS
  1
HATCH
  2
AcDbHatch
  3
AutoCAD 2000
 90
        0
280
     0
281
     1
  0
CLASS
  1
XRECORD
  2
AcDbXrecord
  3
AutoCAD 2000
 90
        0
280
     0
281
     0
  0
CLASS
  1
LONG_TRANSACTION
  2
AcDbLongTransaction
  3
AutoCAD 2000
 90
        0
280
     0
281
     0
  0
CLASS
  1
LWPOLYLINE
  2
AcDbPolyline
  3
AutoCAD 2000
 90
        0
280
     0
281
     1
  0
CLASS
  1
HATCH
  2
AcDbHatch
  3
AutoCAD 2000
 90
        0
280
     0
281
     1
  0
CLASS
  1
XRECORD
  2
AcDbXrecord
  3
AutoCAD 2000
 90
        0
280
     0
281
     0
  0
CLASS
  1
LONG_TRANSACTION
  2
AcDbLongTransaction
  3
AutoCAD 2000
 90
        0
280
     0
281
     0
  0
CLASS
  1
LWPOLYLINE
  2
AcDbPolyline
  3
AutoCAD 2000
 90
        0
280
     0
281
     1
  0
CLASS
  1
HATCH
  2
AcDbHatch
  3
AutoCAD 2000
 90
        0
280
     0
281
     1
  0
CLASS
  1
XRECORD
  2
AcDbXrecord
  3
AutoCAD 2000
 90
        0
280
     0
281
     0
  0
CLASS
  1
LONG_TRANSACTION
  2
AcDbLongTransaction
  3
AutoCAD 2000
 90
        0
280
     0
281
     0
  0
CLASS
  1
LWPOLYLINE
  2
AcDbPolyline
  3
AutoCAD 2000
 90
        0
280
     0
281
     1
  0
CLASS
  1
HATCH
  2
AcDbHatch
  3
AutoCAD 2000
 90
        0
280
     0
281
     1
  0
CLASS
  1
XRECORD
  2
AcDbXrecord
  3
AutoCAD 2000
 90
        0
280
     0
281
     0
  0
CLASS
  1
LONG_TRANSACTION
  2
AcDbLongTransaction
  3
AutoCAD 2000
 90
        0
280
     0
281
     0
  0
CLASS
  1
LWPOLYLINE
  2
AcDbPolyline
  3
AutoCAD 2000
 90
        0
280
     0
281
     1
  0
CLASS
  1
HATCH
  2
AcDbHatch
  3
AutoCAD 2000
 90
        0
280
     0
281
     1
  0
CLASS
  1
XRECORD
  2
AcDbXrecord
  3
AutoCAD 2000
 90
        0
280
     0
281
     0
  0
ENDSEC
  0
SECTION
  2
TABLES
  0
TABLE
  2
VPORT
  5
92
330
0
100
AcDbSymbolTable
 70
     2
  0
VPORT
  5
4CA
330
92
100
AcDbSymbolTableRecord
100
AcDbViewportTableRecord
  2
*ACTIVE
 70
     0
 10
0.0
 20
0.0
 11
1.0
 21
1.0
 12
63.00825127120617
 22
11.90577571522322
 13
0.0
 23
0.0
 14
10.0
 24
10.0
 15
10.0
 25
10.0
 16
0.0
 26
0.0
 36
1.0
 17
0.0
 27
0.0
 37
0.0
 40
298.9604806291365
 41
1.162878787878787
 42
50.0
 43
0.0
 44
0.0
 50
0.0
 51
0.0
 71
     0
 72
 10000
 73
     1
 74
     3
 75
     0
 76
     0
 77
     0
 78
     1
  0
ENDTAB
  0
TABLE
  2
LTYPE
  5
8D
330
0
100
AcDbSymbolTable
 70
     3
  0
LTYPE
  5
8E
330
8D
100
AcDbSymbolTableRecord
100
AcDbLinetypeTableRecord
  2
BYBLOCK
 70
     0
  3

 72
    65
 73
     0
 40
0.0
  0
LTYPE
  5
8F
330
8D
100
AcDbSymbolTableRecord
100
AcDbLinetypeTableRecord
  2
BYLAYER
 70
     0
  3

 72
    65
 73
     0
 40
0.0
  0
LTYPE
  5
A
330
8D
100
AcDbSymbolTableRecord
100
AcDbLinetypeTableRecord
  2
CONTINUOUS
 70
     0
  3
Solid line
 72
    65
 73
     0
 40
0.0
  0
LTYPE
  5
A8
330
8D
100
AcDbSymbolTableRecord
100
AcDbLinetypeTableRecord
  2
CENTER
 70
     0
  3
Center ____ _ ____ _ ____ _ ____ _ ____ _ ____
 72
    65
 73
     4
 40
50.8
 49
31.75
 74
     0
 49
-6.349999999999997
 74
     0
 49
6.349999999999997
 74
     0
 49
-6.349999999999997
 74
     0
  0
LTYPE
  5
111
330
8D
100
AcDbSymbolTableRecord
100
AcDbLinetypeTableRecord
  2
CENTERX2
 70
     0
  3
Center (2x) ________  __  ________  __  _____
 72
    65
 73
     4
 40
101.6
 49
63.5
 74
     0
 49
-12.7
 74
     0
 49
12.7
 74
     0
 49
-12.7
 74
     0
  0
ENDTAB
  0
TABLE
  2
LAYER
  5
14
102
{ACAD_XDICTIONARY
360
15
102
}
330
0
100
AcDbSymbolTable
 70
     7
  0
LAYER
  5
6
330
14
100
AcDbSymbolTableRecord
100
AcDbLayerTableRecord
  2
0
 70
     0
 62
     7
  6
CONTINUOUS
  0
LAYER
  5
156
330
14
100
AcDbSymbolTableRecord
100
AcDbLayerTableRecord
  2
3
 70
     0
 62
     3
  6
CONTINUOUS
  0
LAYER
  5
B5
330
14
100
AcDbSymbolTableRecord
100
AcDbLayerTableRecord
  2
DEFPOINTS
 70
     0
 62
     7
  6
CONTINUOUS
  0
LAYER
  5
E4
330
14
100
AcDbSymbolTableRecord
100
AcDbLayerTableRecord
  2
DIM
 70
     0
 62
     3
  6
CONTINUOUS
  0
LAYER
  5
110
330
14
100
AcDbSymbolTableRecord
100
AcDbLayerTableRecord
  2
CL
 70
     0
 62
     1
  6
CENTERX2
  0
LAYER
  5
A7
330
14
100
AcDbSymbolTableRecord
100
AcDbLayerTableRecord
  2
CEN
 70
     0
 62
     1
  6
CENTER
  0
LAYER
  5
239
330
14
100
AcDbSymbolTableRecord
100
AcDbLayerTableRecord
  2
2
 70
     0
 62
     2
  6
CONTINUOUS
  0
ENDTAB
  0
TABLE
  2
STYLE
  5
8A
330
0
100
AcDbSymbolTable
 70
     1
  0
STYLE
  5
8B
330
8A
100
AcDbSymbolTableRecord
100
AcDbTextStyleTableRecord
  2
STANDARD
 70
     0
 40
0.0
 41
1.0
 50
0.0
 71
     0
 42
5.777225951253058
  3
romans.shx
  4
whgtxt.shx
  0
ENDTAB
  0
TABLE
  2
VIEW
  5
90
330
0
100
AcDbSymbolTable
 70
     0
  0
ENDTAB
  0
TABLE
  2
UCS
  5
91
330
0
100
AcDbSymbolTable
 70
     0
  0
ENDTAB
  0
TABLE
  2
APPID
  5
94
330
0
100
AcDbSymbolTable
 70
     2
  0
APPID
  5
95
330
94
100
AcDbSymbolTableRecord
100
AcDbRegAppTableRecord
  2
ACAD
 70
     0
  0
APPID
  5
46A
330
94
100
AcDbSymbolTableRecord
100
AcDbRegAppTableRecord
  2
CONTENTBLOCKICON
 70
     0
  0
ENDTAB
  0
TABLE
  2
DIMSTYLE
  5
96
330
0
100
AcDbSymbolTable
 70
     2
  0
DIMSTYLE
105
AC
102
{ACAD_REACTORS
330
18F
330
285
330
A9
330
21B
330
25C
330
24D
330
2B1
330
22B
330
2F1
330
2C0
330
D1
330
102
330
1AD
330
11A
330
161
330
F4
330
13D
330
BD
330
206
330
E5
330
12E
330
1CA
330
1E3
330
2D9
102
}
330
96
100
AcDbSymbolTableRecord
100
AcDbDimStyleTableRecord
  2
STANDARD
 70
     0
  3

  4

  5

  6

  7

 40
1.0
 41
2.5
 42
1.0
 43
10.0
 44
0.6
 45
0.0
 46
0.0
 47
0.0
 48
0.0
140
3.0
141
0.09
142
0.0
143
25.4
144
1.0
145
0.0
146
1.0
147
1.0
 71
     0
 72
     0
 73
     0
 74
     0
 75
     0
 76
     0
 77
     1
 78
     8
170
     0
171
     2
172
     1
173
     0
174
     1
175
     0
176
   123
177
   123
178
     3
270
     2
271
     2
272
     2
273
     2
274
     2
340
8B
275
     1
280
     0
281
     0
282
     0
283
     1
284
     0
285
     0
286
     0
287
     3
288
     1
  0
DIMSTYLE
105
9C
330
96
100
AcDbSymbolTableRecord
100
AcDbDimStyleTableRecord
  2
1_1_2
 70
     0
  3

  4

  5

  6

  7

 40
1.0
 41
3.0
 42
1.0
 43
10.0
 44
0.6
 45
0.0
 46
0.0
 47
0.0
 48
0.0
140
3.5
141
0.09
142
0.0
143
25.4
144
1.0
145
0.0
146
1.0
147
1.0
 71
     0
 72
     0
 73
     0
 74
     0
 75
     0
 76
     0
 77
     1
 78
     8
170
     0
171
     2
172
     1
173
     0
174
     1
175
     0
176
   123
177
   123
178
     3
270
     2
271
     2
272
     2
273
     2
274
     2
340
8B
275
     1
280
     0
281
     0
282
     0
283
     1
284
     0
285
     0
286
     0
287
     3
288
     1
  0
ENDTAB
  0
TABLE
  2
BLOCK_RECORD
  5
1
330
0
100
AcDbSymbolTable
 70
    48
  0
BLOCK_RECORD
  5
2
102
{ACAD_XDICTIONARY
360
3
102
}
330
1
100
AcDbSymbolTableRecord
100
AcDbBlockTableRecord
  2
*MODEL_SPACE
  0
BLOCK_RECORD
  5
E
102
{ACAD_XDICTIONARY
360
F
102
}
330
1
100
AcDbSymbolTableRecord
100
AcDbBlockTableRecord
  2
*PAPER_SPACE
  0
BLOCK_RECORD
  5
18B
330
1
100
AcDbSymbolTableRecord
100
AcDbBlockTableRecord
  2
5
1001
ACAD
1000
DesignCenter Data
1002
{
1070
     1
1070
     4
1002
}
1001
CONTENTBLOCKICON
1071
        0
1004
2800000020000000200000000100080000000000000400000000000000000000000000000000000000000000000080000080000000808000800000008000800080800000C0C0C000C0DCC000F0CAA6000020400000206000002080000020A0000020C0000020E00000400000004020000040400000406000004080000040A0
1004
000040C0000040E00000600000006020000060400000606000006080000060A0000060C0000060E00000800000008020000080400000806000008080000080A0000080C0000080E00000A0000000A0200000A0400000A0600000A0800000A0A00000A0C00000A0E00000C0000000C0200000C0400000C0600000C0800000C0
1004
A00000C0C00000C0E00000E0000000E0200000E0400000E0600000E0800000E0A00000E0C00000E0E00040000000400020004000400040006000400080004000A0004000C0004000E00040200000402020004020400040206000402080004020A0004020C0004020E000404000004040200040404000404060004040800040
1004
40A0004040C0004040E00040600000406020004060400040606000406080004060A0004060C0004060E00040800000408020004080400040806000408080004080A0004080C0004080E00040A0000040A0200040A0400040A0600040A0800040A0A00040A0C00040A0E00040C0000040C0200040C0400040C0600040C08000
1004
40C0A00040C0C00040C0E00040E0000040E0200040E0400040E0600040E0800040E0A00040E0C00040E0E00080000000800020008000400080006000800080008000A0008000C0008000E00080200000802020008020400080206000802080008020A0008020C0008020E00080400000804020008040400080406000804080
1004
008040A0008040C0008040E00080600000806020008060400080606000806080008060A0008060C0008060E00080800000808020008080400080806000808080008080A0008080C0008080E00080A0000080A0200080A0400080A0600080A0800080A0A00080A0C00080A0E00080C0000080C0200080C0400080C0600080C0
1004
800080C0A00080C0C00080C0E00080E0000080E0200080E0400080E0600080E0800080E0A00080E0C00080E0E000C0000000C0002000C0004000C0006000C0008000C000A000C000C000C000E000C0200000C0202000C0204000C0206000C0208000C020A000C020C000C020E000C0400000C0402000C0404000C0406000C0
1004
408000C040A000C040C000C040E000C0600000C0602000C0604000C0606000C0608000C060A000C060C000C060E000C0800000C0802000C0804000C0806000C0808000C080A000C080C000C080E000C0A00000C0A02000C0A04000C0A06000C0A08000C0A0A000C0A0C000C0A0E000C0C00000C0C02000C0C04000C0C06000
1004
C0C08000C0C0A000F0FBFF00A4A0A000808080000000FF0000FF000000FFFF00FF000000FF00FF00FFFF0000FFFFFF0000000000000000000000000000000000000000000000000000000000000000000000000000000000000000000000000000000000000000000000000000000000000000000000000000000000000000
1004
00000000000000000000000000000000000000000000F9000000000000000000000000000000F900000000000000000000000000FFF90000000000000000000000000000000000FFF9000000000000000000F3F3F9FF0000000000000000000000000000000000FFFF00000000000000000000F9FF00F90000000000000000
1004
00000000000000F900F9000000000000000000000000F30000000000000000000000000000000000000000000000000000000000000000F3F30000000000000000000000000000000000000000000000000000000000000000F30000000000000000000000000000000000000000000000000000000000000000F300000000
1004
00000000000000000000000000000000000000000000000000000000F30000000000000000000000000000000000000000000000000000000000000000F3F30000000000000000000000000000000000000000000000000000000000000000F300000000000000000000000000000000000000000000000000000000000000
1004
00F30000000000000000000000000000000000000000000000000000000000000000F30000000000000000000000000000000000000000000000000000000000000000F3F30000000000000000000000000000000000000000000000000000000000000000F300000000000000000000000000000000000000000000000000
1004
00000000000000F30000000000000000000000000000000000000000000000000000000000000000F30000000000000000000000000000000000000000000000000000000000000000F3F30000000000000000000000000000000000000000000000000000000000000000F3F900000000000000000000F9FF00F900000000
1004
0000000000000000000000F9F9FFF300000000000000000000FFFF00000000000000000000000000000000F9F9FF00F3000000000000000000FF00F90000000000000000000000000000F900FFF900FAFA000000000000000000000000000000000000000000000000000000000000FAFAFAF3000000000000000000000000
1004
0000000000000000000000000000000000FAFAFAFA0000000000000000000000000000000000000000000000000000000000FAFAFAF3000000000000000000000000000000000000000000000000000000000000FA000000000000000000000000000000000000000000000000000000000000000000000000000000000000
1004
0000000000000000000000000000000000000000000000000000000000000000000000000000000000000000000000000000000000000000
  0
BLOCK_RECORD
  5
192
330
1
100
AcDbSymbolTableRecord
100
AcDbBlockTableRecord
  2
*D1
  0
BLOCK_RECORD
  5
21C
330
1
100
AcDbSymbolTableRecord
100
AcDbBlockTableRecord
  2
*D2
  0
BLOCK_RECORD
  5
25D
330
1
100
AcDbSymbolTableRecord
100
AcDbBlockTableRecord
  2
*D3
  0
BLOCK_RECORD
  5
22C
330
1
100
AcDbSymbolTableRecord
100
AcDbBlockTableRecord
  2
*D4
  0
BLOCK_RECORD
  5
103
330
1
100
AcDbSymbolTableRecord
100
AcDbBlockTableRecord
  2
*D5
  0
BLOCK_RECORD
  5
F5
330
1
100
AcDbSymbolTableRecord
100
AcDbBlockTableRecord
  2
*D6
  0
BLOCK_RECORD
  5
BE
330
1
100
AcDbSymbolTableRecord
100
AcDbBlockTableRecord
  2
*D7
  0
BLOCK_RECORD
  5
12F
330
1
100
AcDbSymbolTableRecord
100
AcDbBlockTableRecord
  2
*D8
  0
BLOCK_RECORD
  5
288
330
1
100
AcDbSymbolTableRecord
100
AcDbBlockTableRecord
  2
*D9
  0
BLOCK_RECORD
  5
AD
330
1
100
AcDbSymbolTableRecord
100
AcDbBlockTableRecord
  2
*D10
  0
BLOCK_RECORD
  5
250
330
1
100
AcDbSymbolTableRecord
100
AcDbBlockTableRecord
  2
*D11
  0
BLOCK_RECORD
  5
2B4
330
1
100
AcDbSymbolTableRecord
100
AcDbBlockTableRecord
  2
*D12
  0
BLOCK_RECORD
  5
2F4
330
1
100
AcDbSymbolTableRecord
100
AcDbBlockTableRecord
  2
*D13
  0
BLOCK_RECORD
  5
2C3
330
1
100
AcDbSymbolTableRecord
100
AcDbBlockTableRecord
  2
*D14
  0
BLOCK_RECORD
  5
D4
330
1
100
AcDbSymbolTableRecord
100
AcDbBlockTableRecord
  2
*D15
  0
BLOCK_RECORD
  5
1B0
330
1
100
AcDbSymbolTableRecord
100
AcDbBlockTableRecord
  2
*D16
  0
BLOCK_RECORD
  5
11D
330
1
100
AcDbSymbolTableRecord
100
AcDbBlockTableRecord
  2
*D17
  0
BLOCK_RECORD
  5
164
330
1
100
AcDbSymbolTableRecord
100
AcDbBlockTableRecord
  2
*D18
  0
BLOCK_RECORD
  5
140
330
1
100
AcDbSymbolTableRecord
100
AcDbBlockTableRecord
  2
*D19
  0
BLOCK_RECORD
  5
209
330
1
100
AcDbSymbolTableRecord
100
AcDbBlockTableRecord
  2
*D20
  0
BLOCK_RECORD
  5
E8
330
1
100
AcDbSymbolTableRecord
100
AcDbBlockTableRecord
  2
*D21
  0
BLOCK_RECORD
  5
1CD
330
1
100
AcDbSymbolTableRecord
100
AcDbBlockTableRecord
  2
*D22
  0
BLOCK_RECORD
  5
1E6
330
1
100
AcDbSymbolTableRecord
100
AcDbBlockTableRecord
  2
*D23
  0
BLOCK_RECORD
  5
2DC
330
1
100
AcDbSymbolTableRecord
100
AcDbBlockTableRecord
  2
*D24
  0
BLOCK_RECORD
  5
30B
330
1
100
AcDbSymbolTableRecord
100
AcDbBlockTableRecord
  2
*D25
  0
BLOCK_RECORD
  5
319
330
1
100
AcDbSymbolTableRecord
100
AcDbBlockTableRecord
  2
*D26
  0
BLOCK_RECORD
  5
325
330
1
100
AcDbSymbolTableRecord
100
AcDbBlockTableRecord
  2
*D27
  0
BLOCK_RECORD
  5
333
330
1
100
AcDbSymbolTableRecord
100
AcDbBlockTableRecord
  2
*D28
  0
BLOCK_RECORD
  5
33F
330
1
100
AcDbSymbolTableRecord
100
AcDbBlockTableRecord
  2
*D29
  0
BLOCK_RECORD
  5
34B
330
1
100
AcDbSymbolTableRecord
100
AcDbBlockTableRecord
  2
*D30
  0
BLOCK_RECORD
  5
357
330
1
100
AcDbSymbolTableRecord
100
AcDbBlockTableRecord
  2
*D31
  0
BLOCK_RECORD
  5
365
330
1
100
AcDbSymbolTableRecord
100
AcDbBlockTableRecord
  2
*D32
  0
BLOCK_RECORD
  5
371
330
1
100
AcDbSymbolTableRecord
100
AcDbBlockTableRecord
  2
*D33
  0
BLOCK_RECORD
  5
37D
330
1
100
AcDbSymbolTableRecord
100
AcDbBlockTableRecord
  2
*D34
  0
BLOCK_RECORD
  5
389
330
1
100
AcDbSymbolTableRecord
100
AcDbBlockTableRecord
  2
*D35
  0
BLOCK_RECORD
  5
395
330
1
100
AcDbSymbolTableRecord
100
AcDbBlockTableRecord
  2
*D36
  0
BLOCK_RECORD
  5
3A1
330
1
100
AcDbSymbolTableRecord
100
AcDbBlockTableRecord
  2
*D37
  0
BLOCK_RECORD
  5
3AD
330
1
100
AcDbSymbolTableRecord
100
AcDbBlockTableRecord
  2
*D38
  0
BLOCK_RECORD
  5
3B9
330
1
100
AcDbSymbolTableRecord
100
AcDbBlockTableRecord
  2
*D39
  0
BLOCK_RECORD
  5
3C5
330
1
100
AcDbSymbolTableRecord
100
AcDbBlockTableRecord
  2
*D40
  0
BLOCK_RECORD
  5
3D1
330
1
100
AcDbSymbolTableRecord
100
AcDbBlockTableRecord
  2
*D41
  0
BLOCK_RECORD
  5
3DD
330
1
100
AcDbSymbolTableRecord
100
AcDbBlockTableRecord
  2
*D42
  0
BLOCK_RECORD
  5
3EB
330
1
100
AcDbSymbolTableRecord
100
AcDbBlockTableRecord
  2
*D43
  0
BLOCK_RECORD
  5
3F7
330
1
100
AcDbSymbolTableRecord
100
AcDbBlockTableRecord
  2
*D44
  0
BLOCK_RECORD
  5
403
330
1
100
AcDbSymbolTableRecord
100
AcDbBlockTableRecord
  2
*D45
  0
BLOCK_RECORD
  5
40F
330
1
100
AcDbSymbolTableRecord
100
AcDbBlockTableRecord
  2
*D46
  0
BLOCK_RECORD
  5
41B
330
1
100
AcDbSymbolTableRecord
100
AcDbBlockTableRecord
  2
*D47
  0
ENDTAB
  0
ENDSEC
  0
SECTION
  2
BLOCKS
  0
BLOCK
  5
5
330
2
100
AcDbEntity
  8
0
100
AcDbBlockBegin
  2
*MODEL_SPACE
 70
     0
 10
0.0
 20
0.0
 30
0.0
  3
*MODEL_SPACE
  1

  0
ENDBLK
  5
B
330
2
100
AcDbEntity
  8
0
100
AcDbBlockEnd
  0
BLOCK
  5
11
330
E
100
AcDbEntity
 67
     1
  8
0
100
AcDbBlockBegin
  2
*PAPER_SPACE
 70
     0
 10
0.0
 20
0.0
 30
0.0
  3
*PAPER_SPACE
  1

  0
ENDBLK
  5
12
330
E
100
AcDbEntity
 67
     1
  8
0
100
AcDbBlockEnd
  0
BLOCK
  5
1A6
330
18B
100
AcDbEntity
  8
0
100
AcDbBlockBegin
  2
5
 70
     0
 10
0.0
 20
0.0
 30
0.0
  3
5
  1

  0
CIRCLE
  5
18C
330
18B
100
AcDbEntity
  8
0
100
AcDbCircle
 10
33.23401871576971
 20
33.2340187157647
 30
0.0
 40
2.75
  0
LINE
  5
18D
330
18B
100
AcDbEntity
  8
CEN
 48
0.6
100
AcDbLine
 10
29.87526150513349
 20
29.87526150512849
 30
0.0
 11
36.59277592640592
 21
36.59277592640092
 31
0.0
  0
ARC
  5
18E
102
{ACAD_REACTORS
330
191
102
}
330
18B
100
AcDbEntity
  8
CEN
 48
0.6
100
AcDbCircle
 10
-0.0000000000009095
 20
0.0
 30
0.0
 40
47.0
100
AcDbArc
 50
35.54155537381702
 51
54.45844462620417
  0
DIMENSION
  5
18F
102
{ACAD_XDICTIONARY
360
190
102
}
102
{ACAD_REACTORS
330
191
102
}
330
18B
100
AcDbEntity
  8
0
100
AcDbDimension
  2
*D1
 10
-37.12703852731556
 20
-28.81983709515498
 30
0.0
 11
52.82902883363476
 21
41.00849583681338
 31
0.0
 12
-5558.635528985877
 22
2192.234809732951
 32
0.0
 70
   131
  1
<>%%P0.5
  3
STANDARD
100
AcDbDiametricDimension
 15
37.12703852731374
 25
28.81983709515407
 35
0.0
 40
0.0
  0
ARC
  5
19D
330
18B
100
AcDbEntity
  8
CEN
 48
0.6
100
AcDbCircle
 10
-0.0000000000009095
 20
0.0000000000004547
 30
0.0
 40
47.0
100
AcDbArc
 50
126.7642625682232
 51
143.2357374317767
  0
LINE
  5
19E
330
18B
100
AcDbEntity
  8
CEN
 48
0.6
100
AcDbLine
 10
-29.87526150512985
 20
29.87526150513439
 30
0.0
 11
-36.59277592640228
 21
36.59277592640683
 31
0.0
  0
CIRCLE
  5
19F
330
18B
100
AcDbEntity
  8
0
100
AcDbCircle
 10
-33.23401871576605
 20
33.23401871577107
 30
0.0
 40
2.75
  0
LINE
  5
1A0
330
18B
100
AcDbEntity
  8
CEN
 48
0.6
100
AcDbLine
 10
-29.87526150513439
 20
-29.87526150512895
 30
0.0
 11
-36.59277592640683
 21
-36.59277592640135
 31
0.0
  0
CIRCLE
  5
1A1
330
18B
100
AcDbEntity
  8
0
100
AcDbCircle
 10
-33.23401871577061
 20
-33.23401871576516
 30
0.0
 40
2.75
  0
ARC
  5
1A2
330
18B
100
AcDbEntity
  8
CEN
 48
0.6
100
AcDbCircle
 10
0.0
 20
-0.0000000000004547
 30
0.0
 40
47.0
100
AcDbArc
 50
215.5415553738169
 51
234.4584446262041
  0
ARC
  5
1A3
330
18B
100
AcDbEntity
  8
CEN
 48
0.6
100
AcDbCircle
 10
-0.000000000001819
 20
-0.0000000000004547
 30
0.0
 40
47.0
100
AcDbArc
 50
306.7642625682233
 51
323.2357374317766
  0
LINE
  5
1A4
330
18B
100
AcDbEntity
  8
CEN
 48
0.6
100
AcDbLine
 10
29.87526150512712
 20
-29.87526150513439
 30
0.0
 11
36.59277592639954
 21
-36.59277592640683
 31
0.0
  0
CIRCLE
  5
1A5
330
18B
100
AcDbEntity
  8
0
100
AcDbCircle
 10
33.23401871576243
 20
-33.23401871577107
 30
0.0
 40
2.75
  0
ENDBLK
  5
1A7
330
18B
100
AcDbEntity
  8
0
100
AcDbBlockEnd
  0
BLOCK
  5
19B
330
192
100
AcDbEntity
  8
0
100
AcDbBlockBegin
  2
*D1
 70
     1
 10
0.0
 20
0.0
 30
0.0
  3
*D1
  1

  0
LINE
  5
193
330
192
100
AcDbEntity
  8
0
 62
   123
100
AcDbLine
 10
5519.533647983703
 20
-2222.58761688636
 30
0.0
 11
5517.558805508848
 21
-2224.120586944613
 31
0.0
  0
LINE
  5
194
330
192
100
AcDbEntity
  8
0
 62
   123
100
AcDbLine
 10
5597.737409988048
 20
-2161.882002579545
 30
0.0
 11
5619.53319993107
 21
-2144.963036229563
 31
0.0
  0
LINE
  5
195
330
192
100
AcDbEntity
  8
0
 62
   123
100
AcDbLine
 10
5521.508490458562
 20
-2221.054646828107
 30
0.0
 11
5595.762567513191
 21
-2163.414972637796
 31
0.0
  0
SOLID
  5
196
330
192
100
AcDbEntity
  8
0
 62
   123
100
AcDbTrace
 10
5519.278152973996
 20
-2222.258476473883
 30
0.0
 11
5519.789142993413
 21
-2222.916757298836
 31
0.0
 12
5521.508490458562
 22
-2221.054646828107
 32
0.0
 13
5521.508490458562
 23
-2221.054646828107
 33
0.0
  0
SOLID
  5
197
330
192
100
AcDbEntity
  8
0
 62
   123
100
AcDbTrace
 10
5597.481914978339
 20
-2161.552862167069
 30
0.0
 11
5597.992904997757
 21
-2162.21114299202
 31
0.0
 12
5595.762567513191
 22
-2163.414972637796
 32
0.0
 13
5595.762567513191
 23
-2163.414972637796
 33
0.0
  0
MTEXT
  5
198
330
192
100
AcDbEntity
  8
0
 62
     3
100
AcDbMText
 10
5609.931587761259
 20
-2149.251471421281
 30
0.0
 40
3.0
 41
0.0
 71
     5
 72
     1
  1
\A1;\U+220594%%P0.5
 11
0.7899369899428739
 21
0.6131880233011666
 31
0.0
1001
ACAD
1000
MTEXTBEGIN
1070
    73
1070
     1
1070
    44
1040
1.0
1070
    74
1070
     0
1000
MTEXTEND
1000
MTEXTBEGIN
1070
    73
1070
     1
1070
    44
1040
1.0
1070
    74
1070
     0
1000
MTEXTEND
1000
MTEXTBEGIN
1070
    73
1070
     1
1070
    44
1040
1.0
1070
    74
1070
     0
1000
MTEXTEND
  0
POINT
  5
199
330
192
100
AcDbEntity
  8
DEFPOINTS
 62
     0
100
AcDbPoint
 10
5595.762567513191
 20
-2163.414972637796
 30
0.0
  0
POINT
  5
19A
330
192
100
AcDbEntity
  8
DEFPOINTS
 62
     0
100
AcDbPoint
 10
5521.508490458562
 20
-2221.054646828107
 30
0.0
  0
ENDBLK
  5
19C
330
192
100
AcDbEntity
  8
0
100
AcDbBlockEnd
  0
BLOCK
  5
226
330
21C
100
AcDbEntity
  8
0
100
AcDbBlockBegin
  2
*D2
 70
     1
 10
0.0
 20
0.0
 30
0.0
  3
*D2
  1

  0
LINE
  5
21D
330
21C
100
AcDbEntity
  8
0
 62
   123
100
AcDbLine
 10
-10423.74896073626
 20
-3049.351235346263
 30
0.0
 11
-10423.74896073626
 21
-3045.471168688197
 31
0.0
  0
LINE
  5
21E
330
21C
100
AcDbEntity
  8
0
 62
   123
100
AcDbLine
 10
-10293.74896073626
 20
-3071.481235346264
 30
0.0
 11
-10293.74896073626
 21
-3045.471168688197
 31
0.0
  0
LINE
  5
21F
330
21C
100
AcDbEntity
  8
0
 62
   123
100
AcDbLine
 10
-10421.24896073626
 20
-3046.071168688197
 30
0.0
 11
-10296.24896073626
 21
-3046.071168688197
 31
0.0
  0
SOLID
  5
220
330
21C
100
AcDbEntity
  8
0
 62
   123
100
AcDbTrace
 10
-10421.24896073626
 20
-3045.65450202153
 30
0.0
 11
-10421.24896073626
 21
-3046.487835354863
 31
0.0
 12
-10423.74896073626
 22
-3046.071168688197
 32
0.0
 13
-10423.74896073626
 23
-3046.071168688197
 33
0.0
  0
SOLID
  5
221
330
21C
100
AcDbEntity
  8
0
 62
   123
100
AcDbTrace
 10
-10296.24896073626
 20
-3045.65450202153
 30
0.0
 11
-10296.24896073626
 21
-3046.487835354863
 31
0.0
 12
-10293.74896073626
 22
-3046.071168688197
 32
0.0
 13
-10293.74896073626
 23
-3046.071168688197
 33
0.0
  0
MTEXT
  5
222
330
21C
100
AcDbEntity
  8
0
 62
     3
100
AcDbMText
 10
-10358.74896073626
 20
-3043.571168688197
 30
0.0
 40
3.0
 41
0.0
 71
     5
 72
     1
  1
\A1;130
1001
ACAD
1000
MTEXTBEGIN
1070
    73
1070
     1
1070
    44
1040
1.0
1070
    74
1070
     0
1000
MTEXTEND
1000
MTEXTBEGIN
1070
    73
1070
     1
1070
    44
1040
1.0
1070
    74
1070
     0
1000
MTEXTEND
1000
MTEXTBEGIN
1070
    73
1070
     1
1070
    44
1040
1.0
1070
    74
1070
     0
1000
MTEXTEND
  0
POINT
  5
223
330
21C
100
AcDbEntity
  8
DEFPOINTS
 62
     0
100
AcDbPoint
 10
-10423.74896073626
 20
-3050.351235346264
 30
0.0
  0
POINT
  5
224
330
21C
100
AcDbEntity
  8
DEFPOINTS
 62
     0
100
AcDbPoint
 10
-10293.74896073626
 20
-3072.481235346264
 30
0.0
  0
POINT
  5
225
330
21C
100
AcDbEntity
  8
DEFPOINTS
 62
     0
100
AcDbPoint
 10
-10293.74896073626
 20
-3046.071168688197
 30
0.0
  0
ENDBLK
  5
227
330
21C
100
AcDbEntity
  8
0
100
AcDbBlockEnd
  0
BLOCK
  5
269
330
25D
100
AcDbEntity
  8
0
100
AcDbBlockBegin
  2
*D3
 70
     1
 10
0.0
 20
0.0
 30
0.0
  3
*D3
  1

  0
LINE
  5
25E
330
25D
100
AcDbEntity
  8
0
 62
   123
100
AcDbLine
 10
-10425.74896073626
 20
-3072.951235346263
 30
0.0
 11
-10425.74896073626
 21
-3057.64290201293
 31
0.0
  0
LINE
  5
25F
330
25D
100
AcDbEntity
  8
0
 62
   123
100
AcDbLine
 10
-10423.74896073626
 20
-3069.451235346262
 30
0.0
 11
-10423.74896073626
 21
-3057.64290201293
 31
0.0
  0
LINE
  5
260
330
25D
100
AcDbEntity
  8
0
 62
   123
100
AcDbLine
 10
-10421.24896073626
 20
-3058.24290201293
 30
0.0
 11
-10418.74896073626
 21
-3058.24290201293
 31
0.0
  0
LINE
  5
261
330
25D
100
AcDbEntity
  8
0
 62
   123
100
AcDbLine
 10
-10428.24896073626
 20
-3058.24290201293
 30
0.0
 11
-10434.74896073626
 21
-3058.24290201293
 31
0.0
  0
LINE
  5
262
330
25D
100
AcDbEntity
  8
0
 62
   123
100
AcDbLine
 10
-10423.74896073626
 20
-3058.24290201293
 30
0.0
 11
-10425.74896073626
 21
-3058.24290201293
 31
0.0
  0
SOLID
  5
263
330
25D
100
AcDbEntity
  8
0
 62
   123
100
AcDbTrace
 10
-10421.24896073626
 20
-3057.826235346265
 30
0.0
 11
-10421.24896073626
 21
-3058.659568679598
 31
0.0
 12
-10423.74896073626
 22
-3058.24290201293
 32
0.0
 13
-10423.74896073626
 23
-3058.24290201293
 33
0.0
  0
SOLID
  5
264
330
25D
100
AcDbEntity
  8
0
 62
   123
100
AcDbTrace
 10
-10428.24896073626
 20
-3057.826235346265
 30
0.0
 11
-10428.24896073626
 21
-3058.659568679598
 31
0.0
 12
-10425.74896073626
 22
-3058.24290201293
 32
0.0
 13
-10425.74896073626
 23
-3058.24290201293
 33
0.0
  0
MTEXT
  5
265
330
25D
100
AcDbEntity
  8
0
 62
     3
100
AcDbMText
 10
-10432.74896073626
 20
-3055.74290201293
 30
0.0
 40
3.0
 41
0.0
 71
     5
 72
     1
  1
\A1;2
1001
ACAD
1000
MTEXTBEGIN
1070
    73
1070
     1
1070
    44
1040
1.0
1070
    74
1070
     0
1000
MTEXTEND
1000
MTEXTBEGIN
1070
    73
1070
     1
1070
    44
1040
1.0
1070
    74
1070
     0
1000
MTEXTEND
1000
MTEXTBEGIN
1070
    73
1070
     1
1070
    44
1040
1.0
1070
    74
1070
     0
1000
MTEXTEND
  0
POINT
  5
266
330
25D
100
AcDbEntity
  8
DEFPOINTS
 62
     0
100
AcDbPoint
 10
-10425.74896073626
 20
-3073.951235346263
 30
0.0
  0
POINT
  5
267
330
25D
100
AcDbEntity
  8
DEFPOINTS
 62
     0
100
AcDbPoint
 10
-10423.74896073626
 20
-3070.451235346263
 30
0.0
  0
POINT
  5
268
330
25D
100
AcDbEntity
  8
DEFPOINTS
 62
     0
100
AcDbPoint
 10
-10423.74896073626
 20
-3058.24290201293
 30
0.0
  0
ENDBLK
  5
26A
330
25D
100
AcDbEntity
  8
0
100
AcDbBlockEnd
  0
BLOCK
  5
236
330
22C
100
AcDbEntity
  8
0
100
AcDbBlockBegin
  2
*D4
 70
     1
 10
0.0
 20
0.0
 30
0.0
  3
*D4
  1

  0
LINE
  5
22D
330
22C
100
AcDbEntity
  8
0
 62
   123
100
AcDbLine
 10
-10437.24896073626
 20
-3106.346235346264
 30
0.0
 11
-10437.24896073626
 21
-3045.471168688197
 31
0.0
  0
LINE
  5
22E
330
22C
100
AcDbEntity
  8
0
 62
   123
100
AcDbLine
 10
-10423.74896073626
 20
-3069.451235346262
 30
0.0
 11
-10423.74896073626
 21
-3045.471168688197
 31
0.0
  0
LINE
  5
22F
330
22C
100
AcDbEntity
  8
0
 62
   123
100
AcDbLine
 10
-10434.74896073626
 20
-3046.071168688197
 30
0.0
 11
-10426.24896073626
 21
-3046.071168688197
 31
0.0
  0
SOLID
  5
230
330
22C
100
AcDbEntity
  8
0
 62
   123
100
AcDbTrace
 10
-10434.74896073626
 20
-3045.65450202153
 30
0.0
 11
-10434.74896073626
 21
-3046.487835354863
 31
0.0
 12
-10437.24896073626
 22
-3046.071168688197
 32
0.0
 13
-10437.24896073626
 23
-3046.071168688197
 33
0.0
  0
SOLID
  5
231
330
22C
100
AcDbEntity
  8
0
 62
   123
100
AcDbTrace
 10
-10426.24896073626
 20
-3045.65450202153
 30
0.0
 11
-10426.24896073626
 21
-3046.487835354863
 31
0.0
 12
-10423.74896073626
 22
-3046.071168688197
 32
0.0
 13
-10423.74896073626
 23
-3046.071168688197
 33
0.0
  0
MTEXT
  5
232
330
22C
100
AcDbEntity
  8
0
 62
     3
100
AcDbMText
 10
-10430.49896073626
 20
-3043.571168688197
 30
0.0
 40
3.0
 41
0.0
 71
     5
 72
     1
  1
\A1;13.5
1001
ACAD
1000
MTEXTBEGIN
1070
    73
1070
     1
1070
    44
1040
1.0
1070
    74
1070
     0
1000
MTEXTEND
1000
MTEXTBEGIN
1070
    73
1070
     1
1070
    44
1040
1.0
1070
    74
1070
     0
1000
MTEXTEND
1000
MTEXTBEGIN
1070
    73
1070
     1
1070
    44
1040
1.0
1070
    74
1070
     0
1000
MTEXTEND
  0
POINT
  5
233
330
22C
100
AcDbEntity
  8
DEFPOINTS
 62
     0
100
AcDbPoint
 10
-10437.24896073626
 20
-3107.346235346264
 30
0.0
  0
POINT
  5
234
330
22C
100
AcDbEntity
  8
DEFPOINTS
 62
     0
100
AcDbPoint
 10
-10423.74896073626
 20
-3070.451235346263
 30
0.0
  0
POINT
  5
235
330
22C
100
AcDbEntity
  8
DEFPOINTS
 62
     0
100
AcDbPoint
 10
-10423.74896073626
 20
-3046.071168688197
 30
0.0
  0
ENDBLK
  5
237
330
22C
100
AcDbEntity
  8
0
100
AcDbBlockEnd
  0
BLOCK
  5
10D
330
103
100
AcDbEntity
  8
0
100
AcDbBlockBegin
  2
*D5
 70
     1
 10
0.0
 20
0.0
 30
0.0
  3
*D5
  1

  0
LINE
  5
104
330
103
100
AcDbEntity
  8
0
 62
   123
100
AcDbLine
 10
-10424.1366151728
 20
-3270.573922798762
 30
0.0
 11
-10470.76344706824
 21
-3270.573922798762
 31
0.0
  0
LINE
  5
105
330
103
100
AcDbEntity
  8
0
 62
   123
100
AcDbLine
 10
-10449.1366151728
 20
-3278.573922798762
 30
0.0
 11
-10470.76344706824
 21
-3278.573922798762
 31
0.0
  0
LINE
  5
106
330
103
100
AcDbEntity
  8
0
 62
   123
100
AcDbLine
 10
-10470.16344706825
 20
-3273.073922798762
 30
0.0
 11
-10470.16344706825
 21
-3276.073922798762
 31
0.0
  0
SOLID
  5
107
330
103
100
AcDbEntity
  8
0
 62
   123
100
AcDbTrace
 10
-10470.58011373493
 20
-3273.073922798762
 30
0.0
 11
-10469.74678040159
 21
-3273.073922798762
 31
0.0
 12
-10470.16344706825
 22
-3270.573922798762
 32
0.0
 13
-10470.16344706825
 23
-3270.573922798762
 33
0.0
  0
SOLID
  5
108
330
103
100
AcDbEntity
  8
0
 62
   123
100
AcDbTrace
 10
-10470.58011373493
 20
-3276.073922798762
 30
0.0
 11
-10469.74678040159
 21
-3276.073922798762
 31
0.0
 12
-10470.16344706825
 22
-3278.573922798762
 32
0.0
 13
-10470.16344706825
 23
-3278.573922798762
 33
0.0
  0
MTEXT
  5
109
330
103
100
AcDbEntity
  8
0
 62
     3
100
AcDbMText
 10
-10474.11344706826
 20
-3274.573922798764
 30
0.0
 40
3.0
 41
0.0
 71
     5
 72
     1
  1
\A1;\A1;%%c8{\H0.7x;\S+0^ -0.015;}(h7)
 11
0.0000000000000001
 21
1.0
 31
0.0
1001
ACAD
1000
MTEXTBEGIN
1070
    73
1070
     1
1070
    44
1040
1.0
1070
    74
1070
     0
1000
MTEXTEND
1000
MTEXTBEGIN
1070
    73
1070
     1
1070
    44
1040
1.0
1070
    74
1070
     0
1000
MTEXTEND
1000
MTEXTBEGIN
1070
    73
1070
     1
1070
    44
1040
1.0
1070
    74
1070
     0
1000
MTEXTEND
  0
POINT
  5
10A
330
103
100
AcDbEntity
  8
DEFPOINTS
 62
     0
100
AcDbPoint
 10
-10423.1366151728
 20
-3270.573922798762
 30
0.0
  0
POINT
  5
10B
330
103
100
AcDbEntity
  8
DEFPOINTS
 62
     0
100
AcDbPoint
 10
-10448.1366151728
 20
-3278.573922798762
 30
0.0
  0
POINT
  5
10C
330
103
100
AcDbEntity
  8
DEFPOINTS
 62
     0
100
AcDbPoint
 10
-10470.16344706825
 20
-3278.573922798762
 30
0.0
  0
ENDBLK
  5
10E
330
103
100
AcDbEntity
  8
0
100
AcDbBlockEnd
  0
BLOCK
  5
FF
330
F5
100
AcDbEntity
  8
0
100
AcDbBlockBegin
  2
*D6
 70
     1
 10
0.0
 20
0.0
 30
0.0
  3
*D6
  1

  0
LINE
  5
F6
330
F5
100
AcDbEntity
  8
0
 62
   123
100
AcDbLine
 10
-10448.1366151728
 20
-3269.573922798762
 30
0.0
 11
-10448.1366151728
 21
-3200.626877980996
 31
0.0
  0
LINE
  5
F7
330
F5
100
AcDbEntity
  8
0
 62
   123
100
AcDbLine
 10
-10416.13661517279
 20
-3233.573922798762
 30
0.0
 11
-10416.13661517279
 21
-3200.626877980996
 31
0.0
  0
LINE
  5
F8
330
F5
100
AcDbEntity
  8
0
 62
   123
100
AcDbLine
 10
-10445.63661517279
 20
-3201.226877980996
 30
0.0
 11
-10418.6366151728
 21
-3201.226877980996
 31
0.0
  0
SOLID
  5
F9
330
F5
100
AcDbEntity
  8
0
 62
   123
100
AcDbTrace
 10
-10445.63661517279
 20
-3200.810211314329
 30
0.0
 11
-10445.63661517279
 21
-3201.643544647662
 31
0.0
 12
-10448.1366151728
 22
-3201.226877980996
 32
0.0
 13
-10448.1366151728
 23
-3201.226877980996
 33
0.0
  0
SOLID
  5
FA
330
F5
100
AcDbEntity
  8
0
 62
   123
100
AcDbTrace
 10
-10418.6366151728
 20
-3200.810211314329
 30
0.0
 11
-10418.6366151728
 21
-3201.643544647662
 31
0.0
 12
-10416.13661517279
 22
-3201.226877980996
 32
0.0
 13
-10416.13661517279
 23
-3201.226877980996
 33
0.0
  0
MTEXT
  5
FB
330
F5
100
AcDbEntity
  8
0
 62
     3
100
AcDbMText
 10
-10432.1366151728
 20
-3198.726877980995
 30
0.0
 40
3.0
 41
0.0
 71
     5
 72
     1
  1
\A1;32
1001
ACAD
1000
MTEXTBEGIN
1070
    73
1070
     1
1070
    44
1040
1.0
1070
    74
1070
     0
1000
MTEXTEND
1000
MTEXTBEGIN
1070
    73
1070
     1
1070
    44
1040
1.0
1070
    74
1070
     0
1000
MTEXTEND
1000
MTEXTBEGIN
1070
    73
1070
     1
1070
    44
1040
1.0
1070
    74
1070
     0
1000
MTEXTEND
  0
POINT
  5
FC
330
F5
100
AcDbEntity
  8
DEFPOINTS
 62
     0
100
AcDbPoint
 10
-10448.1366151728
 20
-3270.573922798762
 30
0.0
  0
POINT
  5
FD
330
F5
100
AcDbEntity
  8
DEFPOINTS
 62
     0
100
AcDbPoint
 10
-10416.13661517279
 20
-3234.573922798762
 30
0.0
  0
POINT
  5
FE
330
F5
100
AcDbEntity
  8
DEFPOINTS
 62
     0
100
AcDbPoint
 10
-10416.13661517279
 20
-3201.226877980996
 30
0.0
  0
ENDBLK
  5
100
330
F5
100
AcDbEntity
  8
0
100
AcDbBlockEnd
  0
BLOCK
  5
C8
330
BE
100
AcDbEntity
  8
0
100
AcDbBlockBegin
  2
*D7
 70
     1
 10
0.0
 20
0.0
 30
0.0
  3
*D7
  1

  0
LINE
  5
BF
330
BE
100
AcDbEntity
  8
0
 62
   123
100
AcDbLine
 10
-10416.13661517279
 20
-3213.473922798764
 30
0.0
 11
-10416.13661517279
 21
-3200.626877980996
 31
0.0
  0
LINE
  5
C0
330
BE
100
AcDbEntity
  8
0
 62
   123
100
AcDbLine
 10
-10286.1366151728
 20
-3235.603922798762
 30
0.0
 11
-10286.1366151728
 21
-3200.626877980996
 31
0.0
  0
LINE
  5
C1
330
BE
100
AcDbEntity
  8
0
 62
   123
100
AcDbLine
 10
-10413.6366151728
 20
-3201.226877980996
 30
0.0
 11
-10288.63661517281
 21
-3201.226877980996
 31
0.0
  0
SOLID
  5
C2
330
BE
100
AcDbEntity
  8
0
 62
   123
100
AcDbTrace
 10
-10413.6366151728
 20
-3200.810211314329
 30
0.0
 11
-10413.6366151728
 21
-3201.643544647662
 31
0.0
 12
-10416.13661517279
 22
-3201.226877980996
 32
0.0
 13
-10416.13661517279
 23
-3201.226877980996
 33
0.0
  0
SOLID
  5
C3
330
BE
100
AcDbEntity
  8
0
 62
   123
100
AcDbTrace
 10
-10288.63661517281
 20
-3200.810211314329
 30
0.0
 11
-10288.63661517281
 21
-3201.643544647662
 31
0.0
 12
-10286.1366151728
 22
-3201.226877980996
 32
0.0
 13
-10286.1366151728
 23
-3201.226877980996
 33
0.0
  0
MTEXT
  5
C4
330
BE
100
AcDbEntity
  8
0
 62
     3
100
AcDbMText
 10
-10351.1366151728
 20
-3198.726877980995
 30
0.0
 40
3.0
 41
0.0
 71
     5
 72
     1
  1
\A1;130
1001
ACAD
1000
MTEXTBEGIN
1070
    73
1070
     1
1070
    44
1040
1.0
1070
    74
1070
     0
1000
MTEXTEND
1000
MTEXTBEGIN
1070
    73
1070
     1
1070
    44
1040
1.0
1070
    74
1070
     0
1000
MTEXTEND
1000
MTEXTBEGIN
1070
    73
1070
     1
1070
    44
1040
1.0
1070
    74
1070
     0
1000
MTEXTEND
  0
POINT
  5
C5
330
BE
100
AcDbEntity
  8
DEFPOINTS
 62
     0
100
AcDbPoint
 10
-10416.13661517279
 20
-3214.473922798764
 30
0.0
  0
POINT
  5
C6
330
BE
100
AcDbEntity
  8
DEFPOINTS
 62
     0
100
AcDbPoint
 10
-10286.1366151728
 20
-3236.603922798762
 30
0.0
  0
POINT
  5
C7
330
BE
100
AcDbEntity
  8
DEFPOINTS
 62
     0
100
AcDbPoint
 10
-10286.1366151728
 20
-3201.226877980996
 30
0.0
  0
ENDBLK
  5
C9
330
BE
100
AcDbEntity
  8
0
100
AcDbBlockEnd
  0
BLOCK
  5
13B
330
12F
100
AcDbEntity
  8
0
100
AcDbBlockBegin
  2
*D8
 70
     1
 10
0.0
 20
0.0
 30
0.0
  3
*D8
  1

  0
LINE
  5
130
330
12F
100
AcDbEntity
  8
0
 62
   123
100
AcDbLine
 10
-10418.13661517279
 20
-3237.073922798762
 30
0.0
 11
-10418.13661517279
 21
-3221.76558946543
 31
0.0
  0
LINE
  5
131
330
12F
100
AcDbEntity
  8
0
 62
   123
100
AcDbLine
 10
-10416.13661517279
 20
-3233.573922798762
 30
0.0
 11
-10416.13661517279
 21
-3221.76558946543
 31
0.0
  0
LINE
  5
132
330
12F
100
AcDbEntity
  8
0
 62
   123
100
AcDbLine
 10
-10420.6366151728
 20
-3222.36558946543
 30
0.0
 11
-10423.1366151728
 21
-3222.36558946543
 31
0.0
  0
LINE
  5
133
330
12F
100
AcDbEntity
  8
0
 62
   123
100
AcDbLine
 10
-10413.6366151728
 20
-3222.36558946543
 30
0.0
 11
-10411.1366151728
 21
-3222.36558946543
 31
0.0
  0
LINE
  5
134
330
12F
100
AcDbEntity
  8
0
 62
   123
100
AcDbLine
 10
-10418.13661517279
 20
-3222.36558946543
 30
0.0
 11
-10416.13661517279
 21
-3222.36558946543
 31
0.0
  0
SOLID
  5
135
330
12F
100
AcDbEntity
  8
0
 62
   123
100
AcDbTrace
 10
-10420.6366151728
 20
-3221.948922798762
 30
0.0
 11
-10420.6366151728
 21
-3222.782256132097
 31
0.0
 12
-10418.13661517279
 22
-3222.36558946543
 32
0.0
 13
-10418.13661517279
 23
-3222.36558946543
 33
0.0
  0
SOLID
  5
136
330
12F
100
AcDbEntity
  8
0
 62
   123
100
AcDbTrace
 10
-10413.6366151728
 20
-3221.948922798762
 30
0.0
 11
-10413.6366151728
 21
-3222.782256132097
 31
0.0
 12
-10416.13661517279
 22
-3222.36558946543
 32
0.0
 13
-10416.13661517279
 23
-3222.36558946543
 33
0.0
  0
MTEXT
  5
137
330
12F
100
AcDbEntity
  8
0
 62
     3
100
AcDbMText
 10
-10417.13661517279
 20
-3219.86558946543
 30
0.0
 40
3.0
 41
0.0
 71
     5
 72
     1
  1
\A1;2
1001
ACAD
1000
MTEXTBEGIN
1070
    73
1070
     1
1070
    44
1040
1.0
1070
    74
1070
     0
1000
MTEXTEND
1000
MTEXTBEGIN
1070
    73
1070
     1
1070
    44
1040
1.0
1070
    74
1070
     0
1000
MTEXTEND
1000
MTEXTBEGIN
1070
    73
1070
     1
1070
    44
1040
1.0
1070
    74
1070
     0
1000
MTEXTEND
  0
POINT
  5
138
330
12F
100
AcDbEntity
  8
DEFPOINTS
 62
     0
100
AcDbPoint
 10
-10418.13661517279
 20
-3238.073922798762
 30
0.0
  0
POINT
  5
139
330
12F
100
AcDbEntity
  8
DEFPOINTS
 62
     0
100
AcDbPoint
 10
-10416.13661517279
 20
-3234.573922798762
 30
0.0
  0
POINT
  5
13A
330
12F
100
AcDbEntity
  8
DEFPOINTS
 62
     0
100
AcDbPoint
 10
-10416.13661517279
 20
-3222.36558946543
 30
0.0
  0
ENDBLK
  5
13C
330
12F
100
AcDbEntity
  8
0
100
AcDbBlockEnd
  0
BLOCK
  5
292
330
288
100
AcDbEntity
  8
0
100
AcDbBlockBegin
  2
*D9
 70
     1
 10
0.0
 20
0.0
 30
0.0
  3
*D9
  1

  0
LINE
  5
289
330
288
100
AcDbEntity
  8
0
 62
   123
100
AcDbLine
 10
-10547.14002854029
 20
-3074.451235346263
 30
0.0
 11
-10547.14002854029
 21
-3055.123145698444
 31
0.0
  0
LINE
  5
28A
330
288
100
AcDbEntity
  8
0
 62
   123
100
AcDbLine
 10
-10467.14002854029
 20
-3074.451235346263
 30
0.0
 11
-10467.14002854029
 21
-3055.123145698444
 31
0.0
  0
LINE
  5
28B
330
288
100
AcDbEntity
  8
0
 62
   123
100
AcDbLine
 10
-10544.64002854029
 20
-3055.723145698445
 30
0.0
 11
-10469.64002854029
 21
-3055.723145698445
 31
0.0
  0
SOLID
  5
28C
330
288
100
AcDbEntity
  8
0
 62
   123
100
AcDbTrace
 10
-10544.64002854029
 20
-3055.306479031779
 30
0.0
 11
-10544.64002854029
 21
-3056.139812365112
 31
0.0
 12
-10547.14002854029
 22
-3055.723145698445
 32
0.0
 13
-10547.14002854029
 23
-3055.723145698445
 33
0.0
  0
SOLID
  5
28D
330
288
100
AcDbEntity
  8
0
 62
   123
100
AcDbTrace
 10
-10469.64002854029
 20
-3055.306479031779
 30
0.0
 11
-10469.64002854029
 21
-3056.139812365112
 31
0.0
 12
-10467.14002854029
 22
-3055.723145698445
 32
0.0
 13
-10467.14002854029
 23
-3055.723145698445
 33
0.0
  0
MTEXT
  5
28E
330
288
100
AcDbEntity
  8
0
 62
     3
100
AcDbMText
 10
-10505.07589814736
 20
-3053.223145698445
 30
0.0
 40
3.0
 41
0.0
 71
     5
 72
     1
  1
\A1;80
1001
ACAD
1000
MTEXTBEGIN
1070
    73
1070
     1
1070
    44
1040
1.0
1070
    74
1070
     0
1000
MTEXTEND
1000
MTEXTBEGIN
1070
    73
1070
     1
1070
    44
1040
1.0
1070
    74
1070
     0
1000
MTEXTEND
1000
MTEXTBEGIN
1070
    73
1070
     1
1070
    44
1040
1.0
1070
    74
1070
     0
1000
MTEXTEND
  0
POINT
  5
28F
330
288
100
AcDbEntity
  8
DEFPOINTS
 62
     0
100
AcDbPoint
 10
-10547.14002854029
 20
-3075.451235346263
 30
0.0
  0
POINT
  5
290
330
288
100
AcDbEntity
  8
DEFPOINTS
 62
     0
100
AcDbPoint
 10
-10467.14002854029
 20
-3075.451235346263
 30
0.0
  0
POINT
  5
291
330
288
100
AcDbEntity
  8
DEFPOINTS
 62
     0
100
AcDbPoint
 10
-10467.14002854029
 20
-3055.723145698445
 30
0.0
  0
ENDBLK
  5
293
330
288
100
AcDbEntity
  8
0
100
AcDbBlockEnd
  0
BLOCK
  5
BA
330
AD
100
AcDbEntity
  8
0
100
AcDbBlockBegin
  2
*D10
 70
     1
 10
0.0
 20
0.0
 30
0.0
  3
*D10
  1

  0
LINE
  5
AE
330
AD
100
AcDbEntity
  8
0
 62
   123
100
AcDbLine
 10
-10507.1400285403
 20
-3158.62335855466
 30
0.0
 11
-10507.1400285403
 21
-3171.752819910746
 31
0.0
  0
LINE
  5
AF
330
AD
100
AcDbEntity
  8
0
 62
   123
100
AcDbLine
 10
-10490.188802613
 20
-3151.375114878773
 30
0.0
 11
-10483.68092774974
 21
-3167.086514635899
 31
0.0
  0
ARC
  5
B0
330
AD
100
AcDbEntity
  8
0
 62
   123
100
AcDbCircle
 10
-10507.14002854029
 20
-3110.451235346261
 30
0.0
 40
60.70158456448515
100
AcDbArc
 50
272.3598984319504
 51
290.1401015680463
  0
SOLID
  5
B1
330
AD
100
AcDbEntity
  8
0
 62
   123
100
AcDbTrace
 10
-10504.63197843622
 20
-3171.517916865806
 30
0.0
 11
-10504.64913888886
 21
-3170.684760239887
 31
0.0
 12
-10507.1400285403
 22
-3171.152819910745
 32
0.0
 13
-10507.1400285403
 23
-3171.152819910745
 33
0.0
  0
SOLID
  5
B2
330
AD
100
AcDbEntity
  8
0
 62
   123
100
AcDbTrace
 10
-10486.39093845724
 20
-3167.052978367946
 30
0.0
 11
-10486.08795741091
 21
-3167.829281742922
 31
0.0
 12
-10483.91053780916
 22
-3166.532186916392
 32
0.0
 13
-10483.91053780916
 23
-3166.532186916392
 33
0.0
  0
MTEXT
  5
B3
330
AD
100
AcDbEntity
  8
0
 62
     3
100
AcDbMText
 10
-10494.09473266097
 20
-3166.878784341128
 30
0.0
 40
3.0
 41
0.0
 71
     5
 72
     1
  1
\A1;22°30'
 11
0.9743020129588089
 21
0.225245616038166
 31
0.0
1001
ACAD
1000
MTEXTBEGIN
1070
    73
1070
     1
1070
    44
1040
1.0
1070
    74
1070
     0
1000
MTEXTEND
1000
MTEXTBEGIN
1070
    73
1070
     1
1070
    44
1040
1.0
1070
    74
1070
     0
1000
MTEXTEND
1000
MTEXTBEGIN
1070
    73
1070
     1
1070
    44
1040
1.0
1070
    74
1070
     0
1000
MTEXTEND
  0
POINT
  5
B4
330
AD
100
AcDbEntity
  8
DEFPOINTS
 62
     0
100
AcDbPoint
 10
-10499.21688184537
 20
-3170.633509439967
 30
0.0
  0
POINT
  5
B6
330
AD
100
AcDbEntity
  8
DEFPOINTS
 62
     0
100
AcDbPoint
 10
-10507.1400285403
 20
-3157.623358554658
 30
0.0
  0
POINT
  5
B7
330
AD
100
AcDbEntity
  8
DEFPOINTS
 62
     0
100
AcDbPoint
 10
-10490.57148604537
 20
-3150.451235346262
 30
0.0
  0
POINT
  5
B8
330
AD
100
AcDbEntity
  8
DEFPOINTS
 62
     0
100
AcDbPoint
 10
-10507.14002854029
 20
-3110.451235346262
 30
0.0
  0
POINT
  5
B9
330
AD
100
AcDbEntity
  8
DEFPOINTS
 62
     0
100
AcDbPoint
 10
-10507.1400285403
 20
-3063.279112137866
 30
0.0
  0
ENDBLK
  5
BB
330
AD
100
AcDbEntity
  8
0
100
AcDbBlockEnd
  0
BLOCK
  5
25A
330
250
100
AcDbEntity
  8
0
100
AcDbBlockBegin
  2
*D11
 70
     1
 10
0.0
 20
0.0
 30
0.0
  3
*D11
  1

  0
LINE
  5
251
330
250
100
AcDbEntity
  8
0
 62
   123
100
AcDbLine
 10
-10423.74896073626
 20
-3065.242902012931
 30
0.0
 11
-10423.74896073626
 21
-3057.64290201293
 31
0.0
  0
LINE
  5
252
330
250
100
AcDbEntity
  8
0
 62
   123
100
AcDbLine
 10
-10416.74896073626
 20
-3070.852498004735
 30
0.0
 11
-10416.74896073626
 21
-3057.64290201293
 31
0.0
  0
LINE
  5
253
330
250
100
AcDbEntity
  8
0
 62
   123
100
AcDbLine
 10
-10421.24896073626
 20
-3058.24290201293
 30
0.0
 11
-10419.24896073626
 21
-3058.24290201293
 31
0.0
  0
SOLID
  5
254
330
250
100
AcDbEntity
  8
0
 62
   123
100
AcDbTrace
 10
-10421.24896073626
 20
-3057.826235346265
 30
0.0
 11
-10421.24896073626
 21
-3058.659568679598
 31
0.0
 12
-10423.74896073626
 22
-3058.24290201293
 32
0.0
 13
-10423.74896073626
 23
-3058.24290201293
 33
0.0
  0
SOLID
  5
255
330
250
100
AcDbEntity
  8
0
 62
   123
100
AcDbTrace
 10
-10419.24896073626
 20
-3057.826235346265
 30
0.0
 11
-10419.24896073626
 21
-3058.659568679598
 31
0.0
 12
-10416.74896073626
 22
-3058.24290201293
 32
0.0
 13
-10416.74896073626
 23
-3058.24290201293
 33
0.0
  0
MTEXT
  5
256
330
250
100
AcDbEntity
  8
0
 62
     3
100
AcDbMText
 10
-10419.99896073626
 20
-3055.74290201293
 30
0.0
 40
3.0
 41
0.0
 71
     5
 72
     1
  1
\A1;7
1001
ACAD
1000
MTEXTBEGIN
1070
    73
1070
     1
1070
    44
1040
1.0
1070
    74
1070
     0
1000
MTEXTEND
1000
MTEXTBEGIN
1070
    73
1070
     1
1070
    44
1040
1.0
1070
    74
1070
     0
1000
MTEXTEND
1000
MTEXTBEGIN
1070
    73
1070
     1
1070
    44
1040
1.0
1070
    74
1070
     0
1000
MTEXTEND
  0
POINT
  5
257
330
250
100
AcDbEntity
  8
DEFPOINTS
 62
     0
100
AcDbPoint
 10
-10423.74896073626
 20
-3066.24290201293
 30
0.0
  0
POINT
  5
258
330
250
100
AcDbEntity
  8
DEFPOINTS
 62
     0
100
AcDbPoint
 10
-10416.74896073626
 20
-3071.852498004735
 30
0.0
  0
POINT
  5
259
330
250
100
AcDbEntity
  8
DEFPOINTS
 62
     0
100
AcDbPoint
 10
-10416.74896073626
 20
-3058.24290201293
 30
0.0
  0
ENDBLK
  5
25B
330
250
100
AcDbEntity
  8
0
100
AcDbBlockEnd
  0
BLOCK
  5
2BE
330
2B4
100
AcDbEntity
  8
0
100
AcDbBlockBegin
  2
*D12
 70
     1
 10
0.0
 20
0.0
 30
0.0
  3
*D12
  1

  0
LINE
  5
2B5
330
2B4
100
AcDbEntity
  8
0
 62
   123
100
AcDbLine
 10
-10426.74896073626
 20
-3073.951235346263
 30
0.0
 11
-10448.81047209563
 21
-3073.951235346263
 31
0.0
  0
LINE
  5
2B6
330
2B4
100
AcDbEntity
  8
0
 62
   123
100
AcDbLine
 10
-10426.74896073626
 20
-3146.951235346262
 30
0.0
 11
-10448.81047209563
 21
-3146.951235346262
 31
0.0
  0
LINE
  5
2B7
330
2B4
100
AcDbEntity
  8
0
 62
   123
100
AcDbLine
 10
-10448.21047209564
 20
-3076.451235346262
 30
0.0
 11
-10448.21047209564
 21
-3144.451235346263
 31
0.0
  0
SOLID
  5
2B8
330
2B4
100
AcDbEntity
  8
0
 62
   123
100
AcDbTrace
 10
-10448.6271387623
 20
-3076.451235346262
 30
0.0
 11
-10447.79380542897
 21
-3076.451235346262
 31
0.0
 12
-10448.21047209564
 22
-3073.951235346263
 32
0.0
 13
-10448.21047209564
 23
-3073.951235346263
 33
0.0
  0
SOLID
  5
2B9
330
2B4
100
AcDbEntity
  8
0
 62
   123
100
AcDbTrace
 10
-10448.6271387623
 20
-3144.451235346263
 30
0.0
 11
-10447.79380542897
 21
-3144.451235346263
 31
0.0
 12
-10448.21047209564
 22
-3146.951235346262
 32
0.0
 13
-10448.21047209564
 23
-3146.951235346262
 33
0.0
  0
MTEXT
  5
2BA
330
2B4
100
AcDbEntity
  8
0
 62
     3
100
AcDbMText
 10
-10452.16062209564
 20
-3110.451235346262
 30
0.0
 40
3.0
 41
0.0
 71
     5
 72
     1
  1
\A1;\A1;{\f??|b0|i0|c0|p49;%%C73\H0.7x;\S+0^ -0.030;\H1.429x;(h7)}
 11
0.0000000000000001
 21
1.0
 31
0.0
1001
ACAD
1000
MTEXTBEGIN
1070
    73
1070
     1
1070
    44
1040
1.0
1070
    74
1070
     0
1000
MTEXTEND
1000
MTEXTBEGIN
1070
    73
1070
     1
1070
    44
1040
1.0
1070
    74
1070
     0
1000
MTEXTEND
1000
MTEXTBEGIN
1070
    73
1070
     1
1070
    44
1040
1.0
1070
    74
1070
     0
1000
MTEXTEND
  0
POINT
  5
2BB
330
2B4
100
AcDbEntity
  8
DEFPOINTS
 62
     0
100
AcDbPoint
 10
-10425.74896073626
 20
-3073.951235346263
 30
0.0
  0
POINT
  5
2BC
330
2B4
100
AcDbEntity
  8
DEFPOINTS
 62
     0
100
AcDbPoint
 10
-10425.74896073626
 20
-3146.951235346262
 30
0.0
  0
POINT
  5
2BD
330
2B4
100
AcDbEntity
  8
DEFPOINTS
 62
     0
100
AcDbPoint
 10
-10448.21047209564
 20
-3146.951235346262
 30
0.0
  0
ENDBLK
  5
2BF
330
2B4
100
AcDbEntity
  8
0
100
AcDbBlockEnd
  0
BLOCK
  5
2FE
330
2F4
100
AcDbEntity
  8
0
100
AcDbBlockBegin
  2
*D13
 70
     1
 10
0.0
 20
0.0
 30
0.0
  3
*D13
  1

  0
LINE
  5
2F5
330
2F4
100
AcDbEntity
  8
0
 62
   123
100
AcDbLine
 10
-10294.24862133134
 20
-3070.949327674028
 30
0.0
 11
-10260.06174834818
 21
-3070.949327674028
 31
0.0
  0
LINE
  5
2F6
330
2F4
100
AcDbEntity
  8
0
 62
   123
100
AcDbLine
 10
-10294.24862133134
 20
-3149.9531430185
 30
0.0
 11
-10260.06174834818
 21
-3149.9531430185
 31
0.0
  0
LINE
  5
2F7
330
2F4
100
AcDbEntity
  8
0
 62
   123
100
AcDbLine
 10
-10260.66174834818
 20
-3073.449327674028
 30
0.0
 11
-10260.66174834818
 21
-3147.4531430185
 31
0.0
  0
SOLID
  5
2F8
330
2F4
100
AcDbEntity
  8
0
 62
   123
100
AcDbTrace
 10
-10261.07841501485
 20
-3073.449327674028
 30
0.0
 11
-10260.2450816815
 21
-3073.449327674028
 31
0.0
 12
-10260.66174834818
 22
-3070.949327674028
 32
0.0
 13
-10260.66174834818
 23
-3070.949327674028
 33
0.0
  0
SOLID
  5
2F9
330
2F4
100
AcDbEntity
  8
0
 62
   123
100
AcDbTrace
 10
-10261.07841501485
 20
-3147.4531430185
 30
0.0
 11
-10260.2450816815
 21
-3147.4531430185
 31
0.0
 12
-10260.66174834818
 22
-3149.9531430185
 32
0.0
 13
-10260.66174834818
 23
-3149.9531430185
 33
0.0
  0
MTEXT
  5
2FA
330
2F4
100
AcDbEntity
  8
0
 62
     3
100
AcDbMText
 10
-10263.16174834818
 20
-3110.059450283074
 30
0.0
 40
3.0
 41
0.0
 71
     5
 72
     1
  1
\A1;%%C79
 11
0.0000000000000001
 21
1.0
 31
0.0
1001
ACAD
1000
MTEXTBEGIN
1070
    73
1070
     1
1070
    44
1040
1.0
1070
    74
1070
     0
1000
MTEXTEND
1000
MTEXTBEGIN
1070
    73
1070
     1
1070
    44
1040
1.0
1070
    74
1070
     0
1000
MTEXTEND
1000
MTEXTBEGIN
1070
    73
1070
     1
1070
    44
1040
1.0
1070
    74
1070
     0
1000
MTEXTEND
  0
POINT
  5
2FB
330
2F4
100
AcDbEntity
  8
DEFPOINTS
 62
     0
100
AcDbPoint
 10
-10295.24862133134
 20
-3070.949327674028
 30
0.0
  0
POINT
  5
2FC
330
2F4
100
AcDbEntity
  8
DEFPOINTS
 62
     0
100
AcDbPoint
 10
-10295.24862133134
 20
-3149.9531430185
 30
0.0
  0
POINT
  5
2FD
330
2F4
100
AcDbEntity
  8
DEFPOINTS
 62
     0
100
AcDbPoint
 10
-10260.66174834818
 20
-3149.9531430185
 30
0.0
  0
ENDBLK
  5
2FF
330
2F4
100
AcDbEntity
  8
0
100
AcDbBlockEnd
  0
BLOCK
  5
2CD
330
2C3
100
AcDbEntity
  8
0
100
AcDbBlockBegin
  2
*D14
 70
     1
 10
0.0
 20
0.0
 30
0.0
  3
*D14
  1

  0
LINE
  5
2C4
330
2C3
100
AcDbEntity
  8
0
 62
   123
100
AcDbLine
 10
-10283.74896073626
 20
-3086.951235346262
 30
0.0
 11
-10271.13743694784
 21
-3086.951235346262
 31
0.0
  0
LINE
  5
2C5
330
2C3
100
AcDbEntity
  8
0
 62
   123
100
AcDbLine
 10
-10283.74896073626
 20
-3133.951235346263
 30
0.0
 11
-10271.13743694784
 21
-3133.951235346263
 31
0.0
  0
LINE
  5
2C6
330
2C3
100
AcDbEntity
  8
0
 62
   123
100
AcDbLine
 10
-10271.73743694784
 20
-3089.451235346263
 30
0.0
 11
-10271.73743694784
 21
-3131.451235346263
 31
0.0
  0
SOLID
  5
2C7
330
2C3
100
AcDbEntity
  8
0
 62
   123
100
AcDbTrace
 10
-10272.15410361449
 20
-3089.451235346263
 30
0.0
 11
-10271.32077028117
 21
-3089.451235346263
 31
0.0
 12
-10271.73743694784
 22
-3086.951235346262
 32
0.0
 13
-10271.73743694784
 23
-3086.951235346262
 33
0.0
  0
SOLID
  5
2C8
330
2C3
100
AcDbEntity
  8
0
 62
   123
100
AcDbTrace
 10
-10272.15410361449
 20
-3131.451235346263
 30
0.0
 11
-10271.32077028117
 21
-3131.451235346263
 31
0.0
 12
-10271.73743694784
 22
-3133.951235346263
 32
0.0
 13
-10271.73743694784
 23
-3133.951235346263
 33
0.0
  0
MTEXT
  5
2C9
330
2C3
100
AcDbEntity
  8
0
 62
     3
100
AcDbMText
 10
-10274.23743694784
 20
-3110.491342573181
 30
0.0
 40
3.0
 41
0.0
 71
     5
 72
     1
  1
\A1;%%c47
 11
0.0000000000000001
 21
1.0
 31
0.0
1001
ACAD
1000
MTEXTBEGIN
1070
    73
1070
     1
1070
    44
1040
1.0
1070
    74
1070
     0
1000
MTEXTEND
1000
MTEXTBEGIN
1070
    73
1070
     1
1070
    44
1040
1.0
1070
    74
1070
     0
1000
MTEXTEND
1000
MTEXTBEGIN
1070
    73
1070
     1
1070
    44
1040
1.0
1070
    74
1070
     0
1000
MTEXTEND
  0
POINT
  5
2CA
330
2C3
100
AcDbEntity
  8
DEFPOINTS
 62
     0
100
AcDbPoint
 10
-10284.74896073626
 20
-3086.951235346262
 30
0.0
  0
POINT
  5
2CB
330
2C3
100
AcDbEntity
  8
DEFPOINTS
 62
     0
100
AcDbPoint
 10
-10284.74896073626
 20
-3133.951235346263
 30
0.0
  0
POINT
  5
2CC
330
2C3
100
AcDbEntity
  8
DEFPOINTS
 62
     0
100
AcDbPoint
 10
-10271.73743694784
 20
-3133.951235346263
 30
0.0
  0
ENDBLK
  5
2CE
330
2C3
100
AcDbEntity
  8
0
100
AcDbBlockEnd
  0
BLOCK
  5
E0
330
D4
100
AcDbEntity
  8
0
100
AcDbBlockBegin
  2
*D15
 70
     1
 10
0.0
 20
0.0
 30
0.0
  3
*D15
  1

  0
LINE
  5
D5
330
D4
100
AcDbEntity
  8
0
 62
   123
100
AcDbLine
 10
-10542.33577782579
 20
-3322.746046007159
 30
0.0
 11
-10542.33577782579
 21
-3335.875507363245
 31
0.0
  0
LINE
  5
D6
330
D4
100
AcDbEntity
  8
0
 62
   123
100
AcDbLine
 10
-10525.38455189852
 20
-3315.497802331274
 30
0.0
 11
-10518.87667703526
 21
-3331.209202088399
 31
0.0
  0
ARC
  5
D7
330
D4
100
AcDbEntity
  8
0
 62
   123
100
AcDbCircle
 10
-10542.33577782579
 20
-3274.57392279876
 30
0.0
 40
60.70158456448496
100
AcDbArc
 50
272.3598984319508
 51
290.1401015680447
  0
SOLID
  5
D8
330
D4
100
AcDbEntity
  8
0
 62
   123
100
AcDbTrace
 10
-10539.82772772174
 20
-3335.640604318305
 30
0.0
 11
-10539.84488817437
 21
-3334.807447692387
 31
0.0
 12
-10542.33577782579
 22
-3335.275507363245
 32
0.0
 13
-10542.33577782579
 23
-3335.275507363245
 33
0.0
  0
SOLID
  5
D9
330
D4
100
AcDbEntity
  8
0
 62
   123
100
AcDbTrace
 10
-10521.58668774278
 20
-3331.175665820446
 30
0.0
 11
-10521.28370669642
 21
-3331.951969195422
 31
0.0
 12
-10519.10628709467
 22
-3330.654874368892
 32
0.0
 13
-10519.10628709467
 23
-3330.654874368892
 33
0.0
  0
MTEXT
  5
DA
330
D4
100
AcDbEntity
  8
0
 62
     3
100
AcDbMText
 10
-10529.29048194648
 20
-3331.001471793626
 30
0.0
 40
3.0
 41
0.0
 71
     5
 72
     1
  1
\A1;22°30'
 11
0.974302012958816
 21
0.2252456160381357
 31
0.0
1001
ACAD
1000
MTEXTBEGIN
1070
    73
1070
     1
1070
    44
1040
1.0
1070
    74
1070
     0
1000
MTEXTEND
1000
MTEXTBEGIN
1070
    73
1070
     1
1070
    44
1040
1.0
1070
    74
1070
     0
1000
MTEXTEND
1000
MTEXTBEGIN
1070
    73
1070
     1
1070
    44
1040
1.0
1070
    74
1070
     0
1000
MTEXTEND
  0
POINT
  5
DB
330
D4
100
AcDbEntity
  8
DEFPOINTS
 62
     0
100
AcDbPoint
 10
-10534.41263113089
 20
-3334.756196892467
 30
0.0
  0
POINT
  5
DC
330
D4
100
AcDbEntity
  8
DEFPOINTS
 62
     0
100
AcDbPoint
 10
-10542.33577782579
 20
-3321.746046007158
 30
0.0
  0
POINT
  5
DD
330
D4
100
AcDbEntity
  8
DEFPOINTS
 62
     0
100
AcDbPoint
 10
-10525.76723533089
 20
-3314.573922798762
 30
0.0
  0
POINT
  5
DE
330
D4
100
AcDbEntity
  8
DEFPOINTS
 62
     0
100
AcDbPoint
 10
-10542.33577782579
 20
-3274.573922798762
 30
0.0
  0
POINT
  5
DF
330
D4
100
AcDbEntity
  8
DEFPOINTS
 62
     0
100
AcDbPoint
 10
-10542.33577782579
 20
-3227.401799590363
 30
0.0
  0
ENDBLK
  5
E1
330
D4
100
AcDbEntity
  8
0
100
AcDbBlockEnd
  0
BLOCK
  5
1BA
330
1B0
100
AcDbEntity
  8
0
100
AcDbBlockBegin
  2
*D16
 70
     1
 10
0.0
 20
0.0
 30
0.0
  3
*D16
  1

  0
LINE
  5
1B1
330
1B0
100
AcDbEntity
  8
0
 62
   123
100
AcDbLine
 10
-10419.13661517281
 20
-3238.073922798762
 30
0.0
 11
-10483.33469839541
 21
-3238.073922798762
 31
0.0
  0
LINE
  5
1B2
330
1B0
100
AcDbEntity
  8
0
 62
   123
100
AcDbLine
 10
-10419.13661517281
 20
-3311.073922798762
 30
0.0
 11
-10483.33469839541
 21
-3311.073922798762
 31
0.0
  0
LINE
  5
1B3
330
1B0
100
AcDbEntity
  8
0
 62
   123
100
AcDbLine
 10
-10482.7346983954
 20
-3240.573922798762
 30
0.0
 11
-10482.7346983954
 21
-3308.573922798762
 31
0.0
  0
SOLID
  5
1B4
330
1B0
100
AcDbEntity
  8
0
 62
   123
100
AcDbTrace
 10
-10483.15136506208
 20
-3240.573922798762
 30
0.0
 11
-10482.31803172875
 21
-3240.573922798762
 31
0.0
 12
-10482.7346983954
 22
-3238.073922798762
 32
0.0
 13
-10482.7346983954
 23
-3238.073922798762
 33
0.0
  0
SOLID
  5
1B5
330
1B0
100
AcDbEntity
  8
0
 62
   123
100
AcDbTrace
 10
-10483.15136506208
 20
-3308.573922798762
 30
0.0
 11
-10482.31803172875
 21
-3308.573922798762
 31
0.0
 12
-10482.7346983954
 22
-3311.073922798762
 32
0.0
 13
-10482.7346983954
 23
-3311.073922798762
 33
0.0
  0
MTEXT
  5
1B6
330
1B0
100
AcDbEntity
  8
0
 62
     3
100
AcDbMText
 10
-10486.6848483954
 20
-3274.573922798762
 30
0.0
 40
3.0
 41
0.0
 71
     5
 72
     1
  1
\A1;\A1;{\f??|b0|i0|c0|p49;%%C73\H0.7x;\S+0^ -0.030;\H1.429x;(h7)}
 11
0.0000000000000001
 21
1.0
 31
0.0
1001
ACAD
1000
MTEXTBEGIN
1070
    73
1070
     1
1070
    44
1040
1.0
1070
    74
1070
     0
1000
MTEXTEND
1000
MTEXTBEGIN
1070
    73
1070
     1
1070
    44
1040
1.0
1070
    74
1070
     0
1000
MTEXTEND
1000
MTEXTBEGIN
1070
    73
1070
     1
1070
    44
1040
1.0
1070
    74
1070
     0
1000
MTEXTEND
  0
POINT
  5
1B7
330
1B0
100
AcDbEntity
  8
DEFPOINTS
 62
     0
100
AcDbPoint
 10
-10418.13661517279
 20
-3238.073922798762
 30
0.0
  0
POINT
  5
1B8
330
1B0
100
AcDbEntity
  8
DEFPOINTS
 62
     0
100
AcDbPoint
 10
-10418.13661517279
 20
-3311.073922798762
 30
0.0
  0
POINT
  5
1B9
330
1B0
100
AcDbEntity
  8
DEFPOINTS
 62
     0
100
AcDbPoint
 10
-10482.7346983954
 20
-3311.073922798762
 30
0.0
  0
ENDBLK
  5
1BB
330
1B0
100
AcDbEntity
  8
0
100
AcDbBlockEnd
  0
BLOCK
  5
127
330
11D
100
AcDbEntity
  8
0
100
AcDbBlockBegin
  2
*D17
 70
     1
 10
0.0
 20
0.0
 30
0.0
  3
*D17
  1

  0
LINE
  5
11E
330
11D
100
AcDbEntity
  8
0
 62
   123
100
AcDbLine
 10
-10449.1366151728
 20
-3278.573922798762
 30
0.0
 11
-10461.72654321179
 21
-3278.573922798762
 31
0.0
  0
LINE
  5
11F
330
11D
100
AcDbEntity
  8
0
 62
   123
100
AcDbLine
 10
-10449.1366151728
 20
-3271.573922798762
 30
0.0
 11
-10461.72654321179
 21
-3271.573922798762
 31
0.0
  0
LINE
  5
120
330
11D
100
AcDbEntity
  8
0
 62
   123
100
AcDbLine
 10
-10461.12654321179
 20
-3276.073922798762
 30
0.0
 11
-10461.12654321179
 21
-3274.073922798762
 31
0.0
  0
SOLID
  5
121
330
11D
100
AcDbEntity
  8
0
 62
   123
100
AcDbTrace
 10
-10461.54320987844
 20
-3276.073922798762
 30
0.0
 11
-10460.70987654512
 21
-3276.073922798762
 31
0.0
 12
-10461.12654321179
 22
-3278.573922798762
 32
0.0
 13
-10461.12654321179
 23
-3278.573922798762
 33
0.0
  0
SOLID
  5
122
330
11D
100
AcDbEntity
  8
0
 62
   123
100
AcDbTrace
 10
-10461.54320987844
 20
-3274.073922798762
 30
0.0
 11
-10460.70987654512
 21
-3274.073922798762
 31
0.0
 12
-10461.12654321179
 22
-3271.573922798762
 32
0.0
 13
-10461.12654321179
 23
-3271.573922798762
 33
0.0
  0
MTEXT
  5
123
330
11D
100
AcDbEntity
  8
0
 62
     3
100
AcDbMText
 10
-10463.62654321179
 20
-3275.073922798762
 30
0.0
 40
3.0
 41
0.0
 71
     5
 72
     1
  1
\A1;7
 11
0.0000000000000001
 21
1.0
 31
0.0
1001
ACAD
1000
MTEXTBEGIN
1070
    73
1070
     1
1070
    44
1040
1.0
1070
    74
1070
     0
1000
MTEXTEND
1000
MTEXTBEGIN
1070
    73
1070
     1
1070
    44
1040
1.0
1070
    74
1070
     0
1000
MTEXTEND
1000
MTEXTBEGIN
1070
    73
1070
     1
1070
    44
1040
1.0
1070
    74
1070
     0
1000
MTEXTEND
  0
POINT
  5
124
330
11D
100
AcDbEntity
  8
DEFPOINTS
 62
     0
100
AcDbPoint
 10
-10448.1366151728
 20
-3278.573922798762
 30
0.0
  0
POINT
  5
125
330
11D
100
AcDbEntity
  8
DEFPOINTS
 62
     0
100
AcDbPoint
 10
-10448.1366151728
 20
-3271.573922798762
 30
0.0
  0
POINT
  5
126
330
11D
100
AcDbEntity
  8
DEFPOINTS
 62
     0
100
AcDbPoint
 10
-10461.12654321179
 20
-3271.573922798762
 30
0.0
  0
ENDBLK
  5
128
330
11D
100
AcDbEntity
  8
0
100
AcDbBlockEnd
  0
BLOCK
  5
16E
330
164
100
AcDbEntity
  8
0
100
AcDbBlockBegin
  2
*D18
 70
     1
 10
0.0
 20
0.0
 30
0.0
  3
*D18
  1

  0
LINE
  5
165
330
164
100
AcDbEntity
  8
0
 62
   123
100
AcDbLine
 10
-10582.33577782579
 20
-3238.573922798762
 30
0.0
 11
-10582.33577782579
 21
-3219.245833150945
 31
0.0
  0
LINE
  5
166
330
164
100
AcDbEntity
  8
0
 62
   123
100
AcDbLine
 10
-10502.33577782579
 20
-3238.573922798762
 30
0.0
 11
-10502.33577782579
 21
-3219.245833150945
 31
0.0
  0
LINE
  5
167
330
164
100
AcDbEntity
  8
0
 62
   123
100
AcDbLine
 10
-10579.83577782581
 20
-3219.845833150944
 30
0.0
 11
-10504.8357778258
 21
-3219.845833150944
 31
0.0
  0
SOLID
  5
168
330
164
100
AcDbEntity
  8
0
 62
   123
100
AcDbTrace
 10
-10579.83577782581
 20
-3219.429166484278
 30
0.0
 11
-10579.83577782581
 21
-3220.262499817611
 31
0.0
 12
-10582.33577782579
 22
-3219.845833150944
 32
0.0
 13
-10582.33577782579
 23
-3219.845833150944
 33
0.0
  0
SOLID
  5
169
330
164
100
AcDbEntity
  8
0
 62
   123
100
AcDbTrace
 10
-10504.8357778258
 20
-3219.429166484278
 30
0.0
 11
-10504.8357778258
 21
-3220.262499817611
 31
0.0
 12
-10502.33577782579
 22
-3219.845833150944
 32
0.0
 13
-10502.33577782579
 23
-3219.845833150944
 33
0.0
  0
MTEXT
  5
16A
330
164
100
AcDbEntity
  8
0
 62
     3
100
AcDbMText
 10
-10540.27164743287
 20
-3217.345833150944
 30
0.0
 40
3.0
 41
0.0
 71
     5
 72
     1
  1
\A1;80
1001
ACAD
1000
MTEXTBEGIN
1070
    73
1070
     1
1070
    44
1040
1.0
1070
    74
1070
     0
1000
MTEXTEND
1000
MTEXTBEGIN
1070
    73
1070
     1
1070
    44
1040
1.0
1070
    74
1070
     0
1000
MTEXTEND
1000
MTEXTBEGIN
1070
    73
1070
     1
1070
    44
1040
1.0
1070
    74
1070
     0
1000
MTEXTEND
  0
POINT
  5
16B
330
164
100
AcDbEntity
  8
DEFPOINTS
 62
     0
100
AcDbPoint
 10
-10582.33577782579
 20
-3239.573922798762
 30
0.0
  0
POINT
  5
16C
330
164
100
AcDbEntity
  8
DEFPOINTS
 62
     0
100
AcDbPoint
 10
-10502.33577782579
 20
-3239.573922798762
 30
0.0
  0
POINT
  5
16D
330
164
100
AcDbEntity
  8
DEFPOINTS
 62
     0
100
AcDbPoint
 10
-10502.33577782579
 20
-3219.845833150944
 30
0.0
  0
ENDBLK
  5
16F
330
164
100
AcDbEntity
  8
0
100
AcDbBlockEnd
  0
BLOCK
  5
14A
330
140
100
AcDbEntity
  8
0
100
AcDbBlockBegin
  2
*D19
 70
     1
 10
0.0
 20
0.0
 30
0.0
  3
*D19
  1

  0
LINE
  5
141
330
140
100
AcDbEntity
  8
0
 62
   123
100
AcDbLine
 10
-10416.13661517279
 20
-3229.36558946543
 30
0.0
 11
-10416.13661517279
 21
-3212.175507782379
 31
0.0
  0
LINE
  5
142
330
140
100
AcDbEntity
  8
0
 62
   123
100
AcDbLine
 10
-10409.1366151728
 20
-3234.975185457233
 30
0.0
 11
-10409.1366151728
 21
-3212.175507782379
 31
0.0
  0
LINE
  5
143
330
140
100
AcDbEntity
  8
0
 62
   123
100
AcDbLine
 10
-10413.6366151728
 20
-3212.775507782379
 30
0.0
 11
-10411.63661517281
 21
-3212.775507782379
 31
0.0
  0
SOLID
  5
144
330
140
100
AcDbEntity
  8
0
 62
   123
100
AcDbTrace
 10
-10413.6366151728
 20
-3212.358841115713
 30
0.0
 11
-10413.6366151728
 21
-3213.192174449046
 31
0.0
 12
-10416.13661517279
 22
-3212.775507782379
 32
0.0
 13
-10416.13661517279
 23
-3212.775507782379
 33
0.0
  0
SOLID
  5
145
330
140
100
AcDbEntity
  8
0
 62
   123
100
AcDbTrace
 10
-10411.63661517281
 20
-3212.358841115713
 30
0.0
 11
-10411.63661517281
 21
-3213.192174449046
 31
0.0
 12
-10409.1366151728
 22
-3212.775507782379
 32
0.0
 13
-10409.1366151728
 23
-3212.775507782379
 33
0.0
  0
MTEXT
  5
146
330
140
100
AcDbEntity
  8
0
 62
     3
100
AcDbMText
 10
-10412.63661517281
 20
-3210.275507782379
 30
0.0
 40
3.0
 41
0.0
 71
     5
 72
     1
  1
\A1;7
1001
ACAD
1000
MTEXTBEGIN
1070
    73
1070
     1
1070
    44
1040
1.0
1070
    74
1070
     0
1000
MTEXTEND
1000
MTEXTBEGIN
1070
    73
1070
     1
1070
    44
1040
1.0
1070
    74
1070
     0
1000
MTEXTEND
1000
MTEXTBEGIN
1070
    73
1070
     1
1070
    44
1040
1.0
1070
    74
1070
     0
1000
MTEXTEND
  0
POINT
  5
147
330
140
100
AcDbEntity
  8
DEFPOINTS
 62
     0
100
AcDbPoint
 10
-10416.13661517279
 20
-3230.36558946543
 30
0.0
  0
POINT
  5
148
330
140
100
AcDbEntity
  8
DEFPOINTS
 62
     0
100
AcDbPoint
 10
-10409.1366151728
 20
-3235.975185457233
 30
0.0
  0
POINT
  5
149
330
140
100
AcDbEntity
  8
DEFPOINTS
 62
     0
100
AcDbPoint
 10
-10409.1366151728
 20
-3212.775507782379
 30
0.0
  0
ENDBLK
  5
14B
330
140
100
AcDbEntity
  8
0
100
AcDbBlockEnd
  0
BLOCK
  5
213
330
209
100
AcDbEntity
  8
0
100
AcDbBlockBegin
  2
*D20
 70
     1
 10
0.0
 20
0.0
 30
0.0
  3
*D20
  1

  0
LINE
  5
20A
330
209
100
AcDbEntity
  8
0
 62
   123
100
AcDbLine
 10
-10286.63627576789
 20
-3235.072015126528
 30
0.0
 11
-10252.44940278473
 21
-3235.072015126528
 31
0.0
  0
LINE
  5
20B
330
209
100
AcDbEntity
  8
0
 62
   123
100
AcDbLine
 10
-10286.63627576789
 20
-3314.075830470999
 30
0.0
 11
-10252.44940278473
 21
-3314.075830470999
 31
0.0
  0
LINE
  5
20C
330
209
100
AcDbEntity
  8
0
 62
   123
100
AcDbLine
 10
-10253.04940278473
 20
-3237.572015126527
 30
0.0
 11
-10253.04940278473
 21
-3311.575830470999
 31
0.0
  0
SOLID
  5
20D
330
209
100
AcDbEntity
  8
0
 62
   123
100
AcDbTrace
 10
-10253.4660694514
 20
-3237.572015126527
 30
0.0
 11
-10252.63273611805
 21
-3237.572015126527
 31
0.0
 12
-10253.04940278473
 22
-3235.072015126528
 32
0.0
 13
-10253.04940278473
 23
-3235.072015126528
 33
0.0
  0
SOLID
  5
20E
330
209
100
AcDbEntity
  8
0
 62
   123
100
AcDbTrace
 10
-10253.4660694514
 20
-3311.575830470999
 30
0.0
 11
-10252.63273611805
 21
-3311.575830470999
 31
0.0
 12
-10253.04940278473
 22
-3314.075830470999
 32
0.0
 13
-10253.04940278473
 23
-3314.075830470999
 33
0.0
  0
MTEXT
  5
20F
330
209
100
AcDbEntity
  8
0
 62
     3
100
AcDbMText
 10
-10255.54940278473
 20
-3274.182137735571
 30
0.0
 40
3.0
 41
0.0
 71
     5
 72
     1
  1
\A1;%%C79
 11
0.0000000000000001
 21
1.0
 31
0.0
1001
ACAD
1000
MTEXTBEGIN
1070
    73
1070
     1
1070
    44
1040
1.0
1070
    74
1070
     0
1000
MTEXTEND
1000
MTEXTBEGIN
1070
    73
1070
     1
1070
    44
1040
1.0
1070
    74
1070
     0
1000
MTEXTEND
1000
MTEXTBEGIN
1070
    73
1070
     1
1070
    44
1040
1.0
1070
    74
1070
     0
1000
MTEXTEND
  0
POINT
  5
210
330
209
100
AcDbEntity
  8
DEFPOINTS
 62
     0
100
AcDbPoint
 10
-10287.63627576789
 20
-3235.072015126528
 30
0.0
  0
POINT
  5
211
330
209
100
AcDbEntity
  8
DEFPOINTS
 62
     0
100
AcDbPoint
 10
-10287.63627576789
 20
-3314.075830470999
 30
0.0
  0
POINT
  5
212
330
209
100
AcDbEntity
  8
DEFPOINTS
 62
     0
100
AcDbPoint
 10
-10253.04940278473
 20
-3314.075830470999
 30
0.0
  0
ENDBLK
  5
214
330
209
100
AcDbEntity
  8
0
100
AcDbBlockEnd
  0
BLOCK
  5
F2
330
E8
100
AcDbEntity
  8
0
100
AcDbBlockBegin
  2
*D21
 70
     1
 10
0.0
 20
0.0
 30
0.0
  3
*D21
  1

  0
LINE
  5
E9
330
E8
100
AcDbEntity
  8
0
 62
   123
100
AcDbLine
 10
-10448.1366151728
 20
-3270.573922798762
 30
0.0
 11
-10448.1366151728
 21
-3255.945536724876
 31
0.0
  0
LINE
  5
EA
330
E8
100
AcDbEntity
  8
0
 62
   123
100
AcDbLine
 10
-10423.1366151728
 20
-3269.573922798762
 30
0.0
 11
-10423.1366151728
 21
-3255.945536724876
 31
0.0
  0
LINE
  5
EB
330
E8
100
AcDbEntity
  8
0
 62
   123
100
AcDbLine
 10
-10445.63661517279
 20
-3256.545536724877
 30
0.0
 11
-10425.63661517279
 21
-3256.545536724877
 31
0.0
  0
SOLID
  5
EC
330
E8
100
AcDbEntity
  8
0
 62
   123
100
AcDbTrace
 10
-10445.63661517279
 20
-3256.12887005821
 30
0.0
 11
-10445.63661517279
 21
-3256.962203391543
 31
0.0
 12
-10448.1366151728
 22
-3256.545536724877
 32
0.0
 13
-10448.1366151728
 23
-3256.545536724877
 33
0.0
  0
SOLID
  5
ED
330
E8
100
AcDbEntity
  8
0
 62
   123
100
AcDbTrace
 10
-10425.63661517279
 20
-3256.12887005821
 30
0.0
 11
-10425.63661517279
 21
-3256.962203391543
 31
0.0
 12
-10423.1366151728
 22
-3256.545536724877
 32
0.0
 13
-10423.1366151728
 23
-3256.545536724877
 33
0.0
  0
MTEXT
  5
EE
330
E8
100
AcDbEntity
  8
0
 62
     3
100
AcDbMText
 10
-10435.6366151728
 20
-3254.045536724877
 30
0.0
 40
3.0
 41
0.0
 71
     5
 72
     1
  1
\A1;25
1001
ACAD
1000
MTEXTBEGIN
1070
    73
1070
     1
1070
    44
1040
1.0
1070
    74
1070
     0
1000
MTEXTEND
1000
MTEXTBEGIN
1070
    73
1070
     1
1070
    44
1040
1.0
1070
    74
1070
     0
1000
MTEXTEND
1000
MTEXTBEGIN
1070
    73
1070
     1
1070
    44
1040
1.0
1070
    74
1070
     0
1000
MTEXTEND
  0
POINT
  5
EF
330
E8
100
AcDbEntity
  8
DEFPOINTS
 62
     0
100
AcDbPoint
 10
-10448.1366151728
 20
-3271.573922798762
 30
0.0
  0
POINT
  5
F0
330
E8
100
AcDbEntity
  8
DEFPOINTS
 62
     0
100
AcDbPoint
 10
-10423.1366151728
 20
-3270.573922798762
 30
0.0
  0
POINT
  5
F1
330
E8
100
AcDbEntity
  8
DEFPOINTS
 62
     0
100
AcDbPoint
 10
-10423.1366151728
 20
-3256.545536724877
 30
0.0
  0
ENDBLK
  5
F3
330
E8
100
AcDbEntity
  8
0
100
AcDbBlockEnd
  0
BLOCK
  5
1D7
330
1CD
100
AcDbEntity
  8
0
100
AcDbBlockBegin
  2
*D22
 70
     1
 10
0.0
 20
0.0
 30
0.0
  3
*D22
  1

  0
LINE
  5
1CE
330
1CD
100
AcDbEntity
  8
0
 62
   123
100
AcDbLine
 10
-10276.13661517279
 20
-3251.073922798763
 30
0.0
 11
-10263.52509138438
 21
-3251.073922798763
 31
0.0
  0
LINE
  5
1CF
330
1CD
100
AcDbEntity
  8
0
 62
   123
100
AcDbLine
 10
-10276.13661517279
 20
-3298.073922798762
 30
0.0
 11
-10263.52509138438
 21
-3298.073922798762
 31
0.0
  0
LINE
  5
1D0
330
1CD
100
AcDbEntity
  8
0
 62
   123
100
AcDbLine
 10
-10264.12509138437
 20
-3253.573922798763
 30
0.0
 11
-10264.12509138437
 21
-3295.573922798762
 31
0.0
  0
SOLID
  5
1D1
330
1CD
100
AcDbEntity
  8
0
 62
   123
100
AcDbTrace
 10
-10264.54175805104
 20
-3253.573922798763
 30
0.0
 11
-10263.70842471771
 21
-3253.573922798763
 31
0.0
 12
-10264.12509138437
 22
-3251.073922798763
 32
0.0
 13
-10264.12509138437
 23
-3251.073922798763
 33
0.0
  0
SOLID
  5
1D2
330
1CD
100
AcDbEntity
  8
0
 62
   123
100
AcDbTrace
 10
-10264.54175805104
 20
-3295.573922798762
 30
0.0
 11
-10263.70842471771
 21
-3295.573922798762
 31
0.0
 12
-10264.12509138437
 22
-3298.073922798762
 32
0.0
 13
-10264.12509138437
 23
-3298.073922798762
 33
0.0
  0
MTEXT
  5
1D3
330
1CD
100
AcDbEntity
  8
0
 62
     3
100
AcDbMText
 10
-10266.62509138438
 20
-3274.614030025679
 30
0.0
 40
3.0
 41
0.0
 71
     5
 72
     1
  1
\A1;%%c47
 11
0.0000000000000001
 21
1.0
 31
0.0
1001
ACAD
1000
MTEXTBEGIN
1070
    73
1070
     1
1070
    44
1040
1.0
1070
    74
1070
     0
1000
MTEXTEND
1000
MTEXTBEGIN
1070
    73
1070
     1
1070
    44
1040
1.0
1070
    74
1070
     0
1000
MTEXTEND
1000
MTEXTBEGIN
1070
    73
1070
     1
1070
    44
1040
1.0
1070
    74
1070
     0
1000
MTEXTEND
  0
POINT
  5
1D4
330
1CD
100
AcDbEntity
  8
DEFPOINTS
 62
     0
100
AcDbPoint
 10
-10277.13661517279
 20
-3251.073922798763
 30
0.0
  0
POINT
  5
1D5
330
1CD
100
AcDbEntity
  8
DEFPOINTS
 62
     0
100
AcDbPoint
 10
-10277.13661517279
 20
-3298.073922798762
 30
0.0
  0
POINT
  5
1D6
330
1CD
100
AcDbEntity
  8
DEFPOINTS
 62
     0
100
AcDbPoint
 10
-10264.12509138437
 20
-3298.073922798762
 30
0.0
  0
ENDBLK
  5
1D8
330
1CD
100
AcDbEntity
  8
0
100
AcDbBlockEnd
  0
BLOCK
  5
1F0
330
1E6
100
AcDbEntity
  8
0
100
AcDbBlockBegin
  2
*D23
 70
     1
 10
0.0
 20
0.0
 30
0.0
  3
*D23
  1

  0
LINE
  5
1E7
330
1E6
100
AcDbEntity
  8
0
 62
   123
100
AcDbLine
 10
-10276.13661517279
 20
-3251.073922798763
 30
0.0
 11
-10276.13661517279
 21
-3200.626877980996
 31
0.0
  0
LINE
  5
1E8
330
1E6
100
AcDbEntity
  8
0
 62
   123
100
AcDbLine
 10
-10286.1366151728
 20
-3235.603922798762
 30
0.0
 11
-10286.1366151728
 21
-3200.626877980996
 31
0.0
  0
LINE
  5
1E9
330
1E6
100
AcDbEntity
  8
0
 62
   123
100
AcDbLine
 10
-10278.6366151728
 20
-3201.226877980996
 30
0.0
 11
-10283.63661517279
 21
-3201.226877980996
 31
0.0
  0
SOLID
  5
1EA
330
1E6
100
AcDbEntity
  8
0
 62
   123
100
AcDbTrace
 10
-10278.6366151728
 20
-3200.810211314329
 30
0.0
 11
-10278.6366151728
 21
-3201.643544647662
 31
0.0
 12
-10276.13661517279
 22
-3201.226877980996
 32
0.0
 13
-10276.13661517279
 23
-3201.226877980996
 33
0.0
  0
SOLID
  5
1EB
330
1E6
100
AcDbEntity
  8
0
 62
   123
100
AcDbTrace
 10
-10283.63661517279
 20
-3200.810211314329
 30
0.0
 11
-10283.63661517279
 21
-3201.643544647662
 31
0.0
 12
-10286.1366151728
 22
-3201.226877980996
 32
0.0
 13
-10286.1366151728
 23
-3201.226877980996
 33
0.0
  0
MTEXT
  5
1EC
330
1E6
100
AcDbEntity
  8
0
 62
     3
100
AcDbMText
 10
-10281.13661517281
 20
-3198.726877980995
 30
0.0
 40
3.0
 41
0.0
 71
     5
 72
     1
  1
\A1;10
1001
ACAD
1000
MTEXTBEGIN
1070
    73
1070
     1
1070
    44
1040
1.0
1070
    74
1070
     0
1000
MTEXTEND
1000
MTEXTBEGIN
1070
    73
1070
     1
1070
    44
1040
1.0
1070
    74
1070
     0
1000
MTEXTEND
1000
MTEXTBEGIN
1070
    73
1070
     1
1070
    44
1040
1.0
1070
    74
1070
     0
1000
MTEXTEND
  0
POINT
  5
1ED
330
1E6
100
AcDbEntity
  8
DEFPOINTS
 62
     0
100
AcDbPoint
 10
-10276.13661517279
 20
-3252.073922798762
 30
0.0
  0
POINT
  5
1EE
330
1E6
100
AcDbEntity
  8
DEFPOINTS
 62
     0
100
AcDbPoint
 10
-10286.1366151728
 20
-3236.603922798762
 30
0.0
  0
POINT
  5
1EF
330
1E6
100
AcDbEntity
  8
DEFPOINTS
 62
     0
100
AcDbPoint
 10
-10286.1366151728
 20
-3201.226877980996
 30
0.0
  0
ENDBLK
  5
1F1
330
1E6
100
AcDbEntity
  8
0
100
AcDbBlockEnd
  0
BLOCK
  5
2E6
330
2DC
100
AcDbEntity
  8
0
100
AcDbBlockBegin
  2
*D24
 70
     1
 10
0.0
 20
0.0
 30
0.0
  3
*D24
  1

  0
LINE
  5
2DD
330
2DC
100
AcDbEntity
  8
0
 62
   123
100
AcDbLine
 10
-10283.74896073626
 20
-3086.951235346262
 30
0.0
 11
-10283.74896073626
 21
-3045.471168688197
 31
0.0
  0
LINE
  5
2DE
330
2DC
100
AcDbEntity
  8
0
 62
   123
100
AcDbLine
 10
-10293.74896073626
 20
-3071.481235346264
 30
0.0
 11
-10293.74896073626
 21
-3045.471168688197
 31
0.0
  0
LINE
  5
2DF
330
2DC
100
AcDbEntity
  8
0
 62
   123
100
AcDbLine
 10
-10286.24896073626
 20
-3046.071168688197
 30
0.0
 11
-10291.24896073626
 21
-3046.071168688197
 31
0.0
  0
SOLID
  5
2E0
330
2DC
100
AcDbEntity
  8
0
 62
   123
100
AcDbTrace
 10
-10286.24896073626
 20
-3045.65450202153
 30
0.0
 11
-10286.24896073626
 21
-3046.487835354863
 31
0.0
 12
-10283.74896073626
 22
-3046.071168688197
 32
0.0
 13
-10283.74896073626
 23
-3046.071168688197
 33
0.0
  0
SOLID
  5
2E1
330
2DC
100
AcDbEntity
  8
0
 62
   123
100
AcDbTrace
 10
-10291.24896073626
 20
-3045.65450202153
 30
0.0
 11
-10291.24896073626
 21
-3046.487835354863
 31
0.0
 12
-10293.74896073626
 22
-3046.071168688197
 32
0.0
 13
-10293.74896073626
 23
-3046.071168688197
 33
0.0
  0
MTEXT
  5
2E2
330
2DC
100
AcDbEntity
  8
0
 62
     3
100
AcDbMText
 10
-10288.65627190073
 20
-3043.571168688197
 30
0.0
 40
3.0
 41
0.0
 71
     5
 72
     1
  1
\A1;10
1001
ACAD
1000
MTEXTBEGIN
1070
    73
1070
     1
1070
    44
1040
1.0
1070
    74
1070
     0
1000
MTEXTEND
1000
MTEXTBEGIN
1070
    73
1070
     1
1070
    44
1040
1.0
1070
    74
1070
     0
1000
MTEXTEND
1000
MTEXTBEGIN
1070
    73
1070
     1
1070
    44
1040
1.0
1070
    74
1070
     0
1000
MTEXTEND
  0
POINT
  5
2E3
330
2DC
100
AcDbEntity
  8
DEFPOINTS
 62
     0
100
AcDbPoint
 10
-10283.74896073626
 20
-3087.951235346263
 30
0.0
  0
POINT
  5
2E4
330
2DC
100
AcDbEntity
  8
DEFPOINTS
 62
     0
100
AcDbPoint
 10
-10293.74896073626
 20
-3072.481235346264
 30
0.0
  0
POINT
  5
2E5
330
2DC
100
AcDbEntity
  8
DEFPOINTS
 62
     0
100
AcDbPoint
 10
-10293.74896073626
 20
-3046.071168688197
 30
0.0
  0
ENDBLK
  5
2E7
330
2DC
100
AcDbEntity
  8
0
100
AcDbBlockEnd
  0
BLOCK
  5
317
330
30B
100
AcDbEntity
  8
0
100
AcDbBlockBegin
  2
*D25
 70
     1
 10
0.0
 20
0.0
 30
0.0
  3
*D25
  1

  0
LINE
  5
4EE
330
30B
100
AcDbEntity
  8
0
 62
   123
100
AcDbLine
 10
-24.69959066923911
 20
43.68675465836621
 30
0.0
 11
-24.69959066923912
 21
30.55729330227984
 31
0.0
  0
LINE
  5
4EF
330
30B
100
AcDbEntity
  8
0
 62
   123
100
AcDbLine
 10
-7.748364741944363
 20
50.93499833425091
 30
0.0
 11
-1.240489878679513
 21
35.22359857712737
 31
0.0
  0
ARC
  5
4F0
330
30B
100
AcDbEntity
  8
0
 62
   123
100
AcDbCircle
 10
-24.69959066923911
 20
91.85887786678282
 30
0.0
 40
60.70158456450297
100
AcDbArc
 50
272.3598984319507
 51
290.140101568046
  0
SOLID
  5
4F1
330
30B
100
AcDbEntity
  8
0
 62
   123
100
AcDbTrace
 10
-22.19154056517077
 20
30.79219634722017
 30
0.0
 11
-22.20870101780376
 21
31.62535297313746
 31
0.0
 12
-24.69959066923912
 22
31.15729330227984
 32
0.0
 13
-24.69959066923912
 23
31.15729330227984
 33
0.0
  0
SOLID
  5
4F2
330
30B
100
AcDbEntity
  8
0
 62
   123
100
AcDbTrace
 10
-3.950500586199334
 20
35.25713484507965
 30
0.0
 11
-3.647519539851882
 21
34.48083147010395
 31
0.0
 12
-1.470099938098534
 22
35.77792629663415
 32
0.0
 13
-1.470099938098534
 23
35.77792629663415
 33
0.0
  0
MTEXT
  5
4F3
330
30B
100
AcDbEntity
  8
0
 62
     3
100
AcDbMText
 10
-11.65429478991032
 20
35.43132887189693
 30
0.0
 40
3.0
 41
0.0
 71
     5
 72
     1
  1
\A1;22°30'
 11
0.9743020129588231
 21
0.2252456160381055
 31
0.0
  0
POINT
  5
4F4
330
30B
100
AcDbEntity
  8
DEFPOINTS
 62
     0
100
AcDbPoint
 10
-16.77644397431222
 20
31.67660377305838
 30
0.0
  0
POINT
  5
4F5
330
30B
100
AcDbEntity
  8
DEFPOINTS
 62
     0
100
AcDbPoint
 10
-24.69959066923911
 20
44.68675465836621
 30
0.0
  0
POINT
  5
4F6
330
30B
100
AcDbEntity
  8
DEFPOINTS
 62
     0
100
AcDbPoint
 10
-8.131048174309398
 20
51.85887786676222
 30
0.0
  0
POINT
  5
4F7
330
30B
100
AcDbEntity
  8
DEFPOINTS
 62
     0
100
AcDbPoint
 10
-24.69959066923001
 20
91.85887786676083
 30
0.0
  0
POINT
  5
4F8
330
30B
100
AcDbEntity
  8
DEFPOINTS
 62
     0
100
AcDbPoint
 10
-24.69959066923911
 20
139.0310010751585
 30
0.0
  0
ENDBLK
  5
318
330
30B
100
AcDbEntity
  8
0
100
AcDbBlockEnd
  0
BLOCK
  5
323
330
319
100
AcDbEntity
  8
0
100
AcDbBlockBegin
  2
*D26
 70
     1
 10
0.0
 20
0.0
 30
0.0
  3
*D26
  1

  0
LINE
  5
31A
330
319
100
AcDbEntity
  8
0
 62
   123
100
AcDbLine
 10
66.30382269825168
 20
-11.16380958573881
 30
0.0
 11
66.30382269825168
 21
1.683235232028982
 31
0.0
  0
LINE
  5
31B
330
319
100
AcDbEntity
  8
0
 62
   123
100
AcDbLine
 10
196.3038226982516
 20
-33.29380958573711
 30
0.0
 11
196.3038226982516
 21
1.683235232028984
 31
0.0
  0
LINE
  5
31C
330
319
100
AcDbEntity
  8
0
 62
   123
100
AcDbLine
 10
68.80382269825168
 20
1.083235232028981
 30
0.0
 11
193.8038226982516
 21
1.083235232028981
 31
0.0
  0
SOLID
  5
31D
330
319
100
AcDbEntity
  8
0
 62
   123
100
AcDbTrace
 10
68.80382269825168
 20
1.499901898695649
 30
0.0
 11
68.80382269825168
 21
0.6665685653623164
 31
0.0
 12
66.30382269825168
 22
1.083235232028981
 32
0.0
 13
66.30382269825168
 23
1.083235232028981
 33
0.0
  0
SOLID
  5
31E
330
319
100
AcDbEntity
  8
0
 62
   123
100
AcDbTrace
 10
193.8038226982516
 20
1.499901898695649
 30
0.0
 11
193.8038226982516
 21
0.6665685653623164
 31
0.0
 12
196.3038226982516
 22
1.083235232028981
 32
0.0
 13
196.3038226982516
 23
1.083235232028981
 33
0.0
  0
MTEXT
  5
31F
330
319
100
AcDbEntity
  8
0
 62
     3
100
AcDbMText
 10
131.3038226982516
 20
3.583235232028981
 30
0.0
 40
3.0
 41
0.0
 71
     5
 72
     1
  1
\A1;130
1001
ACAD
1000
MTEXTBEGIN
1070
    73
1070
     1
1070
    44
1040
1.0
1070
    74
1070
     0
1000
MTEXTEND
1000
MTEXTBEGIN
1070
    73
1070
     1
1070
    44
1040
1.0
1070
    74
1070
     0
1000
MTEXTEND
1000
MTEXTBEGIN
1070
    73
1070
     1
1070
    44
1040
1.0
1070
    74
1070
     0
1000
MTEXTEND
  0
POINT
  5
320
330
319
100
AcDbEntity
  8
DEFPOINTS
 62
     0
100
AcDbPoint
 10
66.30382269825168
 20
-12.16380958573881
 30
0.0
  0
POINT
  5
321
330
319
100
AcDbEntity
  8
DEFPOINTS
 62
     0
100
AcDbPoint
 10
196.3038226982516
 20
-34.29380958573711
 30
0.0
  0
POINT
  5
322
330
319
100
AcDbEntity
  8
DEFPOINTS
 62
     0
100
AcDbPoint
 10
196.3038226982516
 20
1.083235232028981
 30
0.0
  0
ENDBLK
  5
324
330
319
100
AcDbEntity
  8
0
100
AcDbBlockEnd
  0
BLOCK
  5
331
330
325
100
AcDbEntity
  8
0
100
AcDbBlockBegin
  2
*D27
 70
     1
 10
0.0
 20
0.0
 30
0.0
  3
*D27
  1

  0
LINE
  5
4F9
330
325
100
AcDbEntity
  8
0
 62
   123
100
AcDbLine
 10
-59.89533995474809
 20
-120.4359327941338
 30
0.0
 11
-59.89533995474812
 21
-133.5653941502198
 31
0.0
  0
LINE
  5
4FA
330
325
100
AcDbEntity
  8
0
 62
   123
100
AcDbLine
 10
-42.9441140274662
 20
-113.1876891182486
 30
0.0
 11
-36.43623916420138
 21
-128.8990888753759
 31
0.0
  0
ARC
  5
4FB
330
325
100
AcDbEntity
  8
0
 62
   123
100
AcDbCircle
 10
-59.89533995474811
 20
-72.26380958573739
 30
0.0
 40
60.70158456448246
100
AcDbArc
 50
272.3598984319515
 51
290.1401015680401
  0
SOLID
  5
4FC
330
325
100
AcDbEntity
  8
0
 62
   123
100
AcDbTrace
 10
-57.38728985067975
 20
-133.3304911052795
 30
0.0
 11
-57.40445030331276
 21
-132.4973344793622
 31
0.0
 12
-59.89533995474811
 22
-132.9653941502198
 32
0.0
 13
-59.89533995474811
 23
-132.9653941502198
 33
0.0
  0
SOLID
  5
4FD
330
325
100
AcDbEntity
  8
0
 62
   123
100
AcDbTrace
 10
-39.14624987172121
 20
-128.8655526074234
 30
0.0
 11
-38.84326882537384
 21
-129.6418559823991
 31
0.0
 12
-36.66584922362035
 22
-128.3447611558691
 32
0.0
 13
-36.66584922362035
 23
-128.3447611558691
 33
0.0
  0
MTEXT
  5
4FE
330
325
100
AcDbEntity
  8
0
 62
     3
100
AcDbMText
 10
-46.85004407542128
 20
-128.6913585806026
 30
0.0
 40
3.0
 41
0.0
 71
     5
 72
     1
  1
\A1;22°30'
 11
0.9743020129588121
 21
0.2252456160381521
 31
0.0
  0
POINT
  5
4FF
330
325
100
AcDbEntity
  8
DEFPOINTS
 62
     0
100
AcDbPoint
 10
-51.97219325982565
 20
-132.4460836794417
 30
0.0
  0
POINT
  5
500
330
325
100
AcDbEntity
  8
DEFPOINTS
 62
     0
100
AcDbPoint
 10
-59.89533995474809
 20
-119.4359327941338
 30
0.0
  0
POINT
  5
501
330
325
100
AcDbEntity
  8
DEFPOINTS
 62
     0
100
AcDbPoint
 10
-43.32679745983115
 20
-112.2638095857373
 30
0.0
  0
POINT
  5
502
330
325
100
AcDbEntity
  8
DEFPOINTS
 62
     0
100
AcDbPoint
 10
-59.89533995474811
 20
-72.26380958573736
 30
0.0
  0
POINT
  5
503
330
325
100
AcDbEntity
  8
DEFPOINTS
 62
     0
100
AcDbPoint
 10
-59.8953399547481
 20
-25.09168637734001
 30
0.0
  0
ENDBLK
  5
332
330
325
100
AcDbEntity
  8
0
100
AcDbBlockEnd
  0
BLOCK
  5
33D
330
333
100
AcDbEntity
  8
0
100
AcDbBlockBegin
  2
*D28
 70
     1
 10
0.0
 20
0.0
 30
0.0
  3
*D28
  1

  0
LINE
  5
334
330
333
100
AcDbEntity
  8
0
 62
   123
100
AcDbLine
 10
63.30382269825168
 20
-35.76380958573735
 30
0.0
 11
-0.8942605243479214
 21
-35.76380958573734
 31
0.0
  0
LINE
  5
335
330
333
100
AcDbEntity
  8
0
 62
   123
100
AcDbLine
 10
63.30382269825168
 20
-108.7638095857373
 30
0.0
 11
-0.8942605243479377
 21
-108.7638095857373
 31
0.0
  0
LINE
  5
336
330
333
100
AcDbEntity
  8
0
 62
   123
100
AcDbLine
 10
-0.2942605243479233
 20
-38.26380958573734
 30
0.0
 11
-0.2942605243479384
 21
-106.2638095857373
 31
0.0
  0
SOLID
  5
337
330
333
100
AcDbEntity
  8
0
 62
   123
100
AcDbTrace
 10
-0.71092719101459
 20
-38.26380958573734
 30
0.0
 11
0.1224061423187433
 21
-38.26380958573734
 31
0.0
 12
-0.2942605243479228
 22
-35.76380958573734
 32
0.0
 13
-0.2942605243479228
 23
-35.76380958573734
 33
0.0
  0
SOLID
  5
338
330
333
100
AcDbEntity
  8
0
 62
   123
100
AcDbTrace
 10
-0.7109271910146051
 20
-106.2638095857373
 30
0.0
 11
0.1224061423187282
 21
-106.2638095857373
 31
0.0
 12
-0.294260524347939
 22
-108.7638095857373
 32
0.0
 13
-0.294260524347939
 23
-108.7638095857373
 33
0.0
  0
MTEXT
  5
339
330
333
100
AcDbEntity
  8
0
 62
     3
100
AcDbMText
 10
-4.244410524347919
 20
-72.26380958573736
 30
0.0
 40
3.0
 41
0.0
 71
     5
 72
     1
  1
\A1;\A1;{\f??|b0|i0|c0|p49;%%C73\H0.7x;\S+0^ -0.030;\H1.429x;(h7)}
 11
0.0000000000000001
 21
1.0
 31
0.0
1001
ACAD
1000
MTEXTBEGIN
1070
    73
1070
     1
1070
    44
1040
1.0
1070
    74
1070
     0
1000
MTEXTEND
1000
MTEXTBEGIN
1070
    73
1070
     1
1070
    44
1040
1.0
1070
    74
1070
     0
1000
MTEXTEND
1000
MTEXTBEGIN
1070
    73
1070
     1
1070
    44
1040
1.0
1070
    74
1070
     0
1000
MTEXTEND
  0
POINT
  5
33A
330
333
100
AcDbEntity
  8
DEFPOINTS
 62
     0
100
AcDbPoint
 10
64.30382269825168
 20
-35.76380958573735
 30
0.0
  0
POINT
  5
33B
330
333
100
AcDbEntity
  8
DEFPOINTS
 62
     0
100
AcDbPoint
 10
64.30382269825168
 20
-108.7638095857373
 30
0.0
  0
POINT
  5
33C
330
333
100
AcDbEntity
  8
DEFPOINTS
 62
     0
100
AcDbPoint
 10
-0.294260524347939
 20
-108.7638095857373
 30
0.0
  0
ENDBLK
  5
33E
330
333
100
AcDbEntity
  8
0
100
AcDbBlockEnd
  0
BLOCK
  5
349
330
33F
100
AcDbEntity
  8
0
100
AcDbBlockBegin
  2
*D29
 70
     1
 10
0.0
 20
0.0
 30
0.0
  3
*D29
  1

  0
LINE
  5
340
330
33F
100
AcDbEntity
  8
0
 62
   123
100
AcDbLine
 10
-99.89533995474811
 20
-36.26380958573735
 30
0.0
 11
-99.89533995474811
 21
-16.93571993791911
 31
0.0
  0
LINE
  5
341
330
33F
100
AcDbEntity
  8
0
 62
   123
100
AcDbLine
 10
-19.89533995474812
 20
-36.26380958573735
 30
0.0
 11
-19.89533995474812
 21
-16.93571993791911
 31
0.0
  0
LINE
  5
342
330
33F
100
AcDbEntity
  8
0
 62
   123
100
AcDbLine
 10
-97.39533995474811
 20
-17.5357199379191
 30
0.0
 11
-22.39533995474812
 21
-17.5357199379191
 31
0.0
  0
SOLID
  5
343
330
33F
100
AcDbEntity
  8
0
 62
   123
100
AcDbTrace
 10
-97.39533995474811
 20
-17.11905327125244
 30
0.0
 11
-97.39533995474811
 21
-17.95238660458577
 31
0.0
 12
-99.89533995474811
 22
-17.5357199379191
 32
0.0
 13
-99.89533995474811
 23
-17.5357199379191
 33
0.0
  0
SOLID
  5
344
330
33F
100
AcDbEntity
  8
0
 62
   123
100
AcDbTrace
 10
-22.39533995474812
 20
-17.11905327125244
 30
0.0
 11
-22.39533995474812
 21
-17.95238660458577
 31
0.0
 12
-19.89533995474812
 22
-17.5357199379191
 32
0.0
 13
-19.89533995474812
 23
-17.5357199379191
 33
0.0
  0
MTEXT
  5
345
330
33F
100
AcDbEntity
  8
0
 62
     3
100
AcDbMText
 10
-57.83120956180937
 20
-15.0357199379191
 30
0.0
 40
3.0
 41
0.0
 71
     5
 72
     1
  1
\A1;80
1001
ACAD
1000
MTEXTBEGIN
1070
    73
1070
     1
1070
    44
1040
1.0
1070
    74
1070
     0
1000
MTEXTEND
1000
MTEXTBEGIN
1070
    73
1070
     1
1070
    44
1040
1.0
1070
    74
1070
     0
1000
MTEXTEND
1000
MTEXTBEGIN
1070
    73
1070
     1
1070
    44
1040
1.0
1070
    74
1070
     0
1000
MTEXTEND
  0
POINT
  5
346
330
33F
100
AcDbEntity
  8
DEFPOINTS
 62
     0
100
AcDbPoint
 10
-99.89533995474811
 20
-37.26380958573735
 30
0.0
  0
POINT
  5
347
330
33F
100
AcDbEntity
  8
DEFPOINTS
 62
     0
100
AcDbPoint
 10
-19.89533995474812
 20
-37.26380958573735
 30
0.0
  0
POINT
  5
348
330
33F
100
AcDbEntity
  8
DEFPOINTS
 62
     0
100
AcDbPoint
 10
-19.89533995474812
 20
-17.5357199379191
 30
0.0
  0
ENDBLK
  5
34A
330
33F
100
AcDbEntity
  8
0
100
AcDbBlockEnd
  0
BLOCK
  5
355
330
34B
100
AcDbEntity
  8
0
100
AcDbBlockBegin
  2
*D30
 70
     1
 10
0.0
 20
0.0
 30
0.0
  3
*D30
  1

  0
LINE
  5
34C
330
34B
100
AcDbEntity
  8
0
 62
   123
100
AcDbLine
 10
66.30382269825168
 20
-27.05547625240523
 30
0.0
 11
66.30382269825168
 21
-9.865394569353972
 31
0.0
  0
LINE
  5
34D
330
34B
100
AcDbEntity
  8
0
 62
   123
100
AcDbLine
 10
73.30382269825169
 20
-32.66507224420866
 30
0.0
 11
73.30382269825169
 21
-9.865394569353972
 31
0.0
  0
LINE
  5
34E
330
34B
100
AcDbEntity
  8
0
 62
   123
100
AcDbLine
 10
68.80382269825168
 20
-10.46539456935396
 30
0.0
 11
70.80382269825169
 21
-10.46539456935396
 31
0.0
  0
SOLID
  5
34F
330
34B
100
AcDbEntity
  8
0
 62
   123
100
AcDbTrace
 10
68.80382269825168
 20
-10.04872790268728
 30
0.0
 11
68.80382269825168
 21
-10.88206123602064
 31
0.0
 12
66.30382269825168
 22
-10.46539456935396
 32
0.0
 13
66.30382269825168
 23
-10.46539456935396
 33
0.0
  0
SOLID
  5
350
330
34B
100
AcDbEntity
  8
0
 62
   123
100
AcDbTrace
 10
70.80382269825169
 20
-10.04872790268728
 30
0.0
 11
70.80382269825169
 21
-10.88206123602064
 31
0.0
 12
73.30382269825169
 22
-10.46539456935396
 32
0.0
 13
73.30382269825169
 23
-10.46539456935396
 33
0.0
  0
MTEXT
  5
351
330
34B
100
AcDbEntity
  8
0
 62
     3
100
AcDbMText
 10
69.80382269825168
 20
-7.965394569353975
 30
0.0
 40
3.0
 41
0.0
 71
     5
 72
     1
  1
\A1;7
1001
ACAD
1000
MTEXTBEGIN
1070
    73
1070
     1
1070
    44
1040
1.0
1070
    74
1070
     0
1000
MTEXTEND
1000
MTEXTBEGIN
1070
    73
1070
     1
1070
    44
1040
1.0
1070
    74
1070
     0
1000
MTEXTEND
1000
MTEXTBEGIN
1070
    73
1070
     1
1070
    44
1040
1.0
1070
    74
1070
     0
1000
MTEXTEND
  0
POINT
  5
352
330
34B
100
AcDbEntity
  8
DEFPOINTS
 62
     0
100
AcDbPoint
 10
66.30382269825168
 20
-28.05547625240524
 30
0.0
  0
POINT
  5
353
330
34B
100
AcDbEntity
  8
DEFPOINTS
 62
     0
100
AcDbPoint
 10
73.30382269825169
 20
-33.66507224420866
 30
0.0
  0
POINT
  5
354
330
34B
100
AcDbEntity
  8
DEFPOINTS
 62
     0
100
AcDbPoint
 10
73.30382269825169
 20
-10.46539456935396
 30
0.0
  0
ENDBLK
  5
356
330
34B
100
AcDbEntity
  8
0
100
AcDbBlockEnd
  0
BLOCK
  5
363
330
357
100
AcDbEntity
  8
0
100
AcDbBlockBegin
  2
*D31
 70
     1
 10
0.0
 20
0.0
 30
0.0
  3
*D31
  1

  0
LINE
  5
358
330
357
100
AcDbEntity
  8
0
 62
   123
100
AcDbLine
 10
64.30382269825168
 20
-34.76380958573735
 30
0.0
 11
64.30382269825168
 21
-19.45547625240523
 31
0.0
  0
LINE
  5
359
330
357
100
AcDbEntity
  8
0
 62
   123
100
AcDbLine
 10
66.30382269825168
 20
-31.26380958573735
 30
0.0
 11
66.30382269825168
 21
-19.45547625240523
 31
0.0
  0
LINE
  5
35A
330
357
100
AcDbEntity
  8
0
 62
   123
100
AcDbLine
 10
61.80382269825168
 20
-20.05547625240523
 30
0.0
 11
59.30382269825168
 21
-20.05547625240523
 31
0.0
  0
LINE
  5
35B
330
357
100
AcDbEntity
  8
0
 62
   123
100
AcDbLine
 10
68.80382269825168
 20
-20.05547625240523
 30
0.0
 11
71.30382269825169
 21
-20.05547625240523
 31
0.0
  0
LINE
  5
35C
330
357
100
AcDbEntity
  8
0
 62
   123
100
AcDbLine
 10
64.30382269825168
 20
-20.05547625240523
 30
0.0
 11
66.30382269825168
 21
-20.05547625240523
 31
0.0
  0
SOLID
  5
35D
330
357
100
AcDbEntity
  8
0
 62
   123
100
AcDbTrace
 10
61.80382269825168
 20
-19.63880958573857
 30
0.0
 11
61.80382269825168
 21
-20.47214291907191
 31
0.0
 12
64.30382269825168
 22
-20.05547625240523
 32
0.0
 13
64.30382269825168
 23
-20.05547625240523
 33
0.0
  0
SOLID
  5
35E
330
357
100
AcDbEntity
  8
0
 62
   123
100
AcDbTrace
 10
68.80382269825168
 20
-19.63880958573857
 30
0.0
 11
68.80382269825168
 21
-20.47214291907191
 31
0.0
 12
66.30382269825168
 22
-20.05547625240523
 32
0.0
 13
66.30382269825168
 23
-20.05547625240523
 33
0.0
  0
MTEXT
  5
35F
330
357
100
AcDbEntity
  8
0
 62
     3
100
AcDbMText
 10
65.30382269825167
 20
-17.55547625240524
 30
0.0
 40
3.0
 41
0.0
 71
     5
 72
     1
  1
\A1;2
1001
ACAD
1000
MTEXTBEGIN
1070
    73
1070
     1
1070
    44
1040
1.0
1070
    74
1070
     0
1000
MTEXTEND
1000
MTEXTBEGIN
1070
    73
1070
     1
1070
    44
1040
1.0
1070
    74
1070
     0
1000
MTEXTEND
1000
MTEXTBEGIN
1070
    73
1070
     1
1070
    44
1040
1.0
1070
    74
1070
     0
1000
MTEXTEND
  0
POINT
  5
360
330
357
100
AcDbEntity
  8
DEFPOINTS
 62
     0
100
AcDbPoint
 10
64.30382269825168
 20
-35.76380958573735
 30
0.0
  0
POINT
  5
361
330
357
100
AcDbEntity
  8
DEFPOINTS
 62
     0
100
AcDbPoint
 10
66.30382269825168
 20
-32.26380958573735
 30
0.0
  0
POINT
  5
362
330
357
100
AcDbEntity
  8
DEFPOINTS
 62
     0
100
AcDbPoint
 10
66.30382269825168
 20
-20.05547625240523
 30
0.0
  0
ENDBLK
  5
364
330
357
100
AcDbEntity
  8
0
100
AcDbBlockEnd
  0
BLOCK
  5
36F
330
365
100
AcDbEntity
  8
0
100
AcDbBlockBegin
  2
*D32
 70
     1
 10
0.0
 20
0.0
 30
0.0
  3
*D32
  1

  0
LINE
  5
366
330
365
100
AcDbEntity
  8
0
 62
   123
100
AcDbLine
 10
33.30382269825168
 20
-76.26380958573736
 30
0.0
 11
20.71389465926985
 21
-76.26380958573735
 31
0.0
  0
LINE
  5
367
330
365
100
AcDbEntity
  8
0
 62
   123
100
AcDbLine
 10
33.30382269825168
 20
-69.26380958573736
 30
0.0
 11
20.71389465926985
 21
-69.26380958573735
 31
0.0
  0
LINE
  5
368
330
365
100
AcDbEntity
  8
0
 62
   123
100
AcDbLine
 10
21.31389465926984
 20
-73.76380958573735
 30
0.0
 11
21.31389465926985
 21
-71.76380958573735
 31
0.0
  0
SOLID
  5
369
330
365
100
AcDbEntity
  8
0
 62
   123
100
AcDbTrace
 10
20.89722799260318
 20
-73.76380958573735
 30
0.0
 11
21.73056132593651
 21
-73.76380958573735
 31
0.0
 12
21.31389465926984
 22
-76.26380958573735
 32
0.0
 13
21.31389465926984
 23
-76.26380958573735
 33
0.0
  0
SOLID
  5
36A
330
365
100
AcDbEntity
  8
0
 62
   123
100
AcDbTrace
 10
20.89722799260318
 20
-71.76380958573735
 30
0.0
 11
21.73056132593651
 21
-71.76380958573735
 31
0.0
 12
21.31389465926985
 22
-69.26380958573735
 32
0.0
 13
21.31389465926985
 23
-69.26380958573735
 33
0.0
  0
MTEXT
  5
36B
330
365
100
AcDbEntity
  8
0
 62
     3
100
AcDbMText
 10
18.81389465926986
 20
-72.76380958573736
 30
0.0
 40
3.0
 41
0.0
 71
     5
 72
     1
  1
\A1;7
 11
0.0000000000000001
 21
1.0
 31
0.0
1001
ACAD
1000
MTEXTBEGIN
1070
    73
1070
     1
1070
    44
1040
1.0
1070
    74
1070
     0
1000
MTEXTEND
1000
MTEXTBEGIN
1070
    73
1070
     1
1070
    44
1040
1.0
1070
    74
1070
     0
1000
MTEXTEND
1000
MTEXTBEGIN
1070
    73
1070
     1
1070
    44
1040
1.0
1070
    74
1070
     0
1000
MTEXTEND
  0
POINT
  5
36C
330
365
100
AcDbEntity
  8
DEFPOINTS
 62
     0
100
AcDbPoint
 10
34.30382269825168
 20
-76.26380958573736
 30
0.0
  0
POINT
  5
36D
330
365
100
AcDbEntity
  8
DEFPOINTS
 62
     0
100
AcDbPoint
 10
34.30382269825168
 20
-69.26380958573736
 30
0.0
  0
POINT
  5
36E
330
365
100
AcDbEntity
  8
DEFPOINTS
 62
     0
100
AcDbPoint
 10
21.31389465926985
 20
-69.26380958573735
 30
0.0
  0
ENDBLK
  5
370
330
365
100
AcDbEntity
  8
0
100
AcDbBlockEnd
  0
BLOCK
  5
37B
330
371
100
AcDbEntity
  8
0
100
AcDbBlockBegin
  2
*D33
 70
     1
 10
0.0
 20
0.0
 30
0.0
  3
*D33
  1

  0
LINE
  5
372
330
371
100
AcDbEntity
  8
0
 62
   123
100
AcDbLine
 10
58.30382269825168
 20
-68.26380958573736
 30
0.0
 11
11.67699080280214
 21
-68.26380958573735
 31
0.0
  0
LINE
  5
373
330
371
100
AcDbEntity
  8
0
 62
   123
100
AcDbLine
 10
33.30382269825168
 20
-76.26380958573736
 30
0.0
 11
11.67699080280214
 21
-76.26380958573735
 31
0.0
  0
LINE
  5
374
330
371
100
AcDbEntity
  8
0
 62
   123
100
AcDbLine
 10
12.27699080280216
 20
-70.76380958573735
 30
0.0
 11
12.27699080280216
 21
-73.76380958573735
 31
0.0
  0
SOLID
  5
375
330
371
100
AcDbEntity
  8
0
 62
   123
100
AcDbTrace
 10
11.86032413613549
 20
-70.76380958573735
 30
0.0
 11
12.69365746946881
 21
-70.76380958573735
 31
0.0
 12
12.27699080280216
 22
-68.26380958573735
 32
0.0
 13
12.27699080280216
 23
-68.26380958573735
 33
0.0
  0
SOLID
  5
376
330
371
100
AcDbEntity
  8
0
 62
   123
100
AcDbTrace
 10
11.86032413613549
 20
-73.76380958573735
 30
0.0
 11
12.69365746946881
 21
-73.76380958573735
 31
0.0
 12
12.27699080280216
 22
-76.26380958573735
 32
0.0
 13
12.27699080280216
 23
-76.26380958573735
 33
0.0
  0
MTEXT
  5
377
330
371
100
AcDbEntity
  8
0
 62
     3
100
AcDbMText
 10
8.326990802802175
 20
-72.26380958573734
 30
0.0
 40
3.0
 41
0.0
 71
     5
 72
     1
  1
\A1;\A1;%%c8{\H0.7x;\S+0^ -0.015;}(h7)
 11
0.0000000000000001
 21
1.0
 31
0.0
1001
ACAD
1000
MTEXTBEGIN
1070
    73
1070
     1
1070
    44
1040
1.0
1070
    74
1070
     0
1000
MTEXTEND
1000
MTEXTBEGIN
1070
    73
1070
     1
1070
    44
1040
1.0
1070
    74
1070
     0
1000
MTEXTEND
1000
MTEXTBEGIN
1070
    73
1070
     1
1070
    44
1040
1.0
1070
    74
1070
     0
1000
MTEXTEND
  0
POINT
  5
378
330
371
100
AcDbEntity
  8
DEFPOINTS
 62
     0
100
AcDbPoint
 10
59.30382269825168
 20
-68.26380958573736
 30
0.0
  0
POINT
  5
379
330
371
100
AcDbEntity
  8
DEFPOINTS
 62
     0
100
AcDbPoint
 10
34.30382269825168
 20
-76.26380958573736
 30
0.0
  0
POINT
  5
37A
330
371
100
AcDbEntity
  8
DEFPOINTS
 62
     0
100
AcDbPoint
 10
12.27699080280216
 20
-76.26380958573735
 30
0.0
  0
ENDBLK
  5
37C
330
371
100
AcDbEntity
  8
0
100
AcDbBlockEnd
  0
BLOCK
  5
387
330
37D
100
AcDbEntity
  8
0
100
AcDbBlockBegin
  2
*D34
 70
     1
 10
0.0
 20
0.0
 30
0.0
  3
*D34
  1

  0
LINE
  5
37E
330
37D
100
AcDbEntity
  8
0
 62
   123
100
AcDbLine
 10
34.30382269825168
 20
-67.26380958573736
 30
0.0
 11
34.30382269825168
 21
1.683235232028975
 31
0.0
  0
LINE
  5
37F
330
37D
100
AcDbEntity
  8
0
 62
   123
100
AcDbLine
 10
66.30382269825168
 20
-31.26380958573735
 30
0.0
 11
66.30382269825168
 21
1.683235232028984
 31
0.0
  0
LINE
  5
380
330
37D
100
AcDbEntity
  8
0
 62
   123
100
AcDbLine
 10
36.80382269825168
 20
1.083235232028981
 30
0.0
 11
63.80382269825168
 21
1.083235232028981
 31
0.0
  0
SOLID
  5
381
330
37D
100
AcDbEntity
  8
0
 62
   123
100
AcDbTrace
 10
36.80382269825168
 20
1.499901898695649
 30
0.0
 11
36.80382269825168
 21
0.6665685653623164
 31
0.0
 12
34.30382269825168
 22
1.083235232028981
 32
0.0
 13
34.30382269825168
 23
1.083235232028981
 33
0.0
  0
SOLID
  5
382
330
37D
100
AcDbEntity
  8
0
 62
   123
100
AcDbTrace
 10
63.80382269825168
 20
1.499901898695649
 30
0.0
 11
63.80382269825168
 21
0.6665685653623164
 31
0.0
 12
66.30382269825168
 22
1.083235232028981
 32
0.0
 13
66.30382269825168
 23
1.083235232028981
 33
0.0
  0
MTEXT
  5
383
330
37D
100
AcDbEntity
  8
0
 62
     3
100
AcDbMText
 10
50.30382269825167
 20
3.583235232028981
 30
0.0
 40
3.0
 41
0.0
 71
     5
 72
     1
  1
\A1;32
1001
ACAD
1000
MTEXTBEGIN
1070
    73
1070
     1
1070
    44
1040
1.0
1070
    74
1070
     0
1000
MTEXTEND
1000
MTEXTBEGIN
1070
    73
1070
     1
1070
    44
1040
1.0
1070
    74
1070
     0
1000
MTEXTEND
1000
MTEXTBEGIN
1070
    73
1070
     1
1070
    44
1040
1.0
1070
    74
1070
     0
1000
MTEXTEND
  0
POINT
  5
384
330
37D
100
AcDbEntity
  8
DEFPOINTS
 62
     0
100
AcDbPoint
 10
34.30382269825168
 20
-68.26380958573736
 30
0.0
  0
POINT
  5
385
330
37D
100
AcDbEntity
  8
DEFPOINTS
 62
     0
100
AcDbPoint
 10
66.30382269825168
 20
-32.26380958573735
 30
0.0
  0
POINT
  5
386
330
37D
100
AcDbEntity
  8
DEFPOINTS
 62
     0
100
AcDbPoint
 10
66.30382269825168
 20
1.083235232028981
 30
0.0
  0
ENDBLK
  5
388
330
37D
100
AcDbEntity
  8
0
100
AcDbBlockEnd
  0
BLOCK
  5
393
330
389
100
AcDbEntity
  8
0
100
AcDbBlockBegin
  2
*D35
 70
     1
 10
0.0
 20
0.0
 30
0.0
  3
*D35
  1

  0
LINE
  5
38A
330
389
100
AcDbEntity
  8
0
 62
   123
100
AcDbLine
 10
34.30382269825168
 20
-68.26380958573736
 30
0.0
 11
34.30382269825168
 21
-53.63542351185188
 31
0.0
  0
LINE
  5
38B
330
389
100
AcDbEntity
  8
0
 62
   123
100
AcDbLine
 10
59.30382269825168
 20
-67.26380958573736
 30
0.0
 11
59.30382269825168
 21
-53.63542351185188
 31
0.0
  0
LINE
  5
38C
330
389
100
AcDbEntity
  8
0
 62
   123
100
AcDbLine
 10
36.80382269825168
 20
-54.23542351185187
 30
0.0
 11
56.80382269825168
 21
-54.23542351185187
 31
0.0
  0
SOLID
  5
38D
330
389
100
AcDbEntity
  8
0
 62
   123
100
AcDbTrace
 10
36.80382269825168
 20
-53.81875684518521
 30
0.0
 11
36.80382269825168
 21
-54.65209017851854
 31
0.0
 12
34.30382269825168
 22
-54.23542351185187
 32
0.0
 13
34.30382269825168
 23
-54.23542351185187
 33
0.0
  0
SOLID
  5
38E
330
389
100
AcDbEntity
  8
0
 62
   123
100
AcDbTrace
 10
56.80382269825168
 20
-53.81875684518521
 30
0.0
 11
56.80382269825168
 21
-54.65209017851854
 31
0.0
 12
59.30382269825168
 22
-54.23542351185187
 32
0.0
 13
59.30382269825168
 23
-54.23542351185187
 33
0.0
  0
MTEXT
  5
38F
330
389
100
AcDbEntity
  8
0
 62
     3
100
AcDbMText
 10
46.80382269825168
 20
-51.73542351185187
 30
0.0
 40
3.0
 41
0.0
 71
     5
 72
     1
  1
\A1;25
1001
ACAD
1000
MTEXTBEGIN
1070
    73
1070
     1
1070
    44
1040
1.0
1070
    74
1070
     0
1000
MTEXTEND
1000
MTEXTBEGIN
1070
    73
1070
     1
1070
    44
1040
1.0
1070
    74
1070
     0
1000
MTEXTEND
1000
MTEXTBEGIN
1070
    73
1070
     1
1070
    44
1040
1.0
1070
    74
1070
     0
1000
MTEXTEND
  0
POINT
  5
390
330
389
100
AcDbEntity
  8
DEFPOINTS
 62
     0
100
AcDbPoint
 10
34.30382269825168
 20
-69.26380958573736
 30
0.0
  0
POINT
  5
391
330
389
100
AcDbEntity
  8
DEFPOINTS
 62
     0
100
AcDbPoint
 10
59.30382269825168
 20
-68.26380958573736
 30
0.0
  0
POINT
  5
392
330
389
100
AcDbEntity
  8
DEFPOINTS
 62
     0
100
AcDbPoint
 10
59.30382269825168
 20
-54.23542351185187
 30
0.0
  0
ENDBLK
  5
394
330
389
100
AcDbEntity
  8
0
100
AcDbBlockEnd
  0
BLOCK
  5
39F
330
395
100
AcDbEntity
  8
0
100
AcDbBlockBegin
  2
*D36
 70
     1
 10
0.0
 20
0.0
 30
0.0
  3
*D36
  1

  0
LINE
  5
396
330
395
100
AcDbEntity
  8
0
 62
   123
100
AcDbLine
 10
195.8041621031695
 20
-32.7619019135027
 30
0.0
 11
229.9910350863298
 21
-32.7619019135027
 31
0.0
  0
LINE
  5
397
330
395
100
AcDbEntity
  8
0
 62
   123
100
AcDbLine
 10
195.8041621031695
 20
-111.7657172579743
 30
0.0
 11
229.9910350863297
 21
-111.7657172579743
 31
0.0
  0
LINE
  5
398
330
395
100
AcDbEntity
  8
0
 62
   123
100
AcDbLine
 10
229.3910350863296
 20
-35.2619019135027
 30
0.0
 11
229.3910350863296
 21
-109.2657172579743
 31
0.0
  0
SOLID
  5
399
330
395
100
AcDbEntity
  8
0
 62
   123
100
AcDbTrace
 10
228.974368419663
 20
-35.2619019135027
 30
0.0
 11
229.8077017529963
 21
-35.2619019135027
 31
0.0
 12
229.3910350863296
 22
-32.7619019135027
 32
0.0
 13
229.3910350863296
 23
-32.7619019135027
 33
0.0
  0
SOLID
  5
39A
330
395
100
AcDbEntity
  8
0
 62
   123
100
AcDbTrace
 10
228.974368419663
 20
-109.2657172579743
 30
0.0
 11
229.8077017529963
 21
-109.2657172579743
 31
0.0
 12
229.3910350863296
 22
-111.7657172579743
 32
0.0
 13
229.3910350863296
 23
-111.7657172579743
 33
0.0
  0
MTEXT
  5
39B
330
395
100
AcDbEntity
  8
0
 62
     3
100
AcDbMText
 10
226.8910350863297
 20
-71.87202452254678
 30
0.0
 40
3.0
 41
0.0
 71
     5
 72
     1
  1
\A1;%%C79
 11
0.0000000000000001
 21
1.0
 31
0.0
1001
ACAD
1000
MTEXTBEGIN
1070
    73
1070
     1
1070
    44
1040
1.0
1070
    74
1070
     0
1000
MTEXTEND
1000
MTEXTBEGIN
1070
    73
1070
     1
1070
    44
1040
1.0
1070
    74
1070
     0
1000
MTEXTEND
1000
MTEXTBEGIN
1070
    73
1070
     1
1070
    44
1040
1.0
1070
    74
1070
     0
1000
MTEXTEND
  0
POINT
  5
39C
330
395
100
AcDbEntity
  8
DEFPOINTS
 62
     0
100
AcDbPoint
 10
194.8041621031696
 20
-32.7619019135027
 30
0.0
  0
POINT
  5
39D
330
395
100
AcDbEntity
  8
DEFPOINTS
 62
     0
100
AcDbPoint
 10
194.8041621031696
 20
-111.7657172579743
 30
0.0
  0
POINT
  5
39E
330
395
100
AcDbEntity
  8
DEFPOINTS
 62
     0
100
AcDbPoint
 10
229.3910350863296
 20
-111.7657172579743
 30
0.0
  0
ENDBLK
  5
3A0
330
395
100
AcDbEntity
  8
0
100
AcDbBlockEnd
  0
BLOCK
  5
3AB
330
3A1
100
AcDbEntity
  8
0
100
AcDbBlockBegin
  2
*D37
 70
     1
 10
0.0
 20
0.0
 30
0.0
  3
*D37
  1

  0
LINE
  5
3A2
330
3A1
100
AcDbEntity
  8
0
 62
   123
100
AcDbLine
 10
206.3038226982516
 20
-48.76380958573736
 30
0.0
 11
206.3038226982516
 21
1.683235232028984
 31
0.0
  0
LINE
  5
3A3
330
3A1
100
AcDbEntity
  8
0
 62
   123
100
AcDbLine
 10
196.3038226982516
 20
-33.29380958573711
 30
0.0
 11
196.3038226982516
 21
1.683235232028984
 31
0.0
  0
LINE
  5
3A4
330
3A1
100
AcDbEntity
  8
0
 62
   123
100
AcDbLine
 10
203.8038226982517
 20
1.083235232028981
 30
0.0
 11
198.8038226982516
 21
1.083235232028981
 31
0.0
  0
SOLID
  5
3A5
330
3A1
100
AcDbEntity
  8
0
 62
   123
100
AcDbTrace
 10
203.8038226982517
 20
1.499901898695649
 30
0.0
 11
203.8038226982517
 21
0.6665685653623164
 31
0.0
 12
206.3038226982516
 22
1.083235232028981
 32
0.0
 13
206.3038226982516
 23
1.083235232028981
 33
0.0
  0
SOLID
  5
3A6
330
3A1
100
AcDbEntity
  8
0
 62
   123
100
AcDbTrace
 10
198.8038226982516
 20
1.499901898695649
 30
0.0
 11
198.8038226982516
 21
0.6665685653623164
 31
0.0
 12
196.3038226982516
 22
1.083235232028981
 32
0.0
 13
196.3038226982516
 23
1.083235232028981
 33
0.0
  0
MTEXT
  5
3A7
330
3A1
100
AcDbEntity
  8
0
 62
     3
100
AcDbMText
 10
201.3038226982516
 20
3.583235232028981
 30
0.0
 40
3.0
 41
0.0
 71
     5
 72
     1
  1
\A1;10
1001
ACAD
1000
MTEXTBEGIN
1070
    73
1070
     1
1070
    44
1040
1.0
1070
    74
1070
     0
1000
MTEXTEND
1000
MTEXTBEGIN
1070
    73
1070
     1
1070
    44
1040
1.0
1070
    74
1070
     0
1000
MTEXTEND
1000
MTEXTBEGIN
1070
    73
1070
     1
1070
    44
1040
1.0
1070
    74
1070
     0
1000
MTEXTEND
  0
POINT
  5
3A8
330
3A1
100
AcDbEntity
  8
DEFPOINTS
 62
     0
100
AcDbPoint
 10
206.3038226982516
 20
-49.76380958573736
 30
0.0
  0
POINT
  5
3A9
330
3A1
100
AcDbEntity
  8
DEFPOINTS
 62
     0
100
AcDbPoint
 10
196.3038226982516
 20
-34.29380958573711
 30
0.0
  0
POINT
  5
3AA
330
3A1
100
AcDbEntity
  8
DEFPOINTS
 62
     0
100
AcDbPoint
 10
196.3038226982516
 20
1.083235232028981
 30
0.0
  0
ENDBLK
  5
3AC
330
3A1
100
AcDbEntity
  8
0
100
AcDbBlockEnd
  0
BLOCK
  5
3B7
330
3AD
100
AcDbEntity
  8
0
100
AcDbBlockBegin
  2
*D38
 70
     1
 10
0.0
 20
0.0
 30
0.0
  3
*D38
  1

  0
LINE
  5
427
330
3AD
100
AcDbEntity
  8
0
 62
   123
100
AcDbLine
 10
206.3038226982516
 20
-48.76380958573736
 30
0.0
 11
218.9153464866809
 21
-48.76380958573736
 31
0.0
  0
LINE
  5
428
330
3AD
100
AcDbEntity
  8
0
 62
   123
100
AcDbLine
 10
206.3038226982516
 20
-95.76380958573691
 30
0.0
 11
218.9153464866809
 21
-95.76380958573691
 31
0.0
  0
LINE
  5
429
330
3AD
100
AcDbEntity
  8
0
 62
   123
100
AcDbLine
 10
218.3153464866808
 20
-51.26380958573736
 30
0.0
 11
218.3153464866808
 21
-93.26380958573691
 31
0.0
  0
SOLID
  5
42A
330
3AD
100
AcDbEntity
  8
0
 62
   123
100
AcDbTrace
 10
217.8986798200142
 20
-51.26380958573736
 30
0.0
 11
218.7320131533474
 21
-51.26380958573736
 31
0.0
 12
218.3153464866808
 22
-48.76380958573736
 32
0.0
 13
218.3153464866808
 23
-48.76380958573736
 33
0.0
  0
SOLID
  5
42B
330
3AD
100
AcDbEntity
  8
0
 62
   123
100
AcDbTrace
 10
217.8986798200142
 20
-93.26380958573691
 30
0.0
 11
218.7320131533474
 21
-93.26380958573691
 31
0.0
 12
218.3153464866808
 22
-95.76380958573691
 32
0.0
 13
218.3153464866808
 23
-95.76380958573691
 33
0.0
  0
MTEXT
  5
42C
330
3AD
100
AcDbEntity
  8
0
 62
     3
100
AcDbMText
 10
215.8153464866809
 20
-72.30391681265428
 30
0.0
 40
3.0
 41
0.0
 71
     5
 72
     1
  1
\A1;%%c47
 11
0.0000000000000001
 21
1.0
 31
0.0
1001
ACAD
1000
MTEXTBEGIN
1070
    73
1070
     1
1070
    44
1040
1.0
1070
    74
1070
     0
1000
MTEXTEND
1000
MTEXTBEGIN
1070
    73
1070
     1
1070
    44
1040
1.0
1070
    74
1070
     0
1000
MTEXTEND
1000
MTEXTBEGIN
1070
    73
1070
     1
1070
    44
1040
1.0
1070
    74
1070
     0
1000
MTEXTEND
  0
POINT
  5
42D
330
3AD
100
AcDbEntity
  8
DEFPOINTS
 62
     0
100
AcDbPoint
 10
205.3038226982516
 20
-48.76380958573736
 30
0.0
  0
POINT
  5
42E
330
3AD
100
AcDbEntity
  8
DEFPOINTS
 62
     0
100
AcDbPoint
 10
205.3038226982516
 20
-95.76380958573691
 30
0.0
  0
POINT
  5
42F
330
3AD
100
AcDbEntity
  8
DEFPOINTS
 62
     0
100
AcDbPoint
 10
218.3153464866808
 20
-95.76380958573691
 30
0.0
  0
ENDBLK
  5
3B8
330
3AD
100
AcDbEntity
  8
0
100
AcDbBlockEnd
  0
BLOCK
  5
3C3
330
3B9
100
AcDbEntity
  8
0
100
AcDbBlockBegin
  2
*D39
 70
     1
 10
0.0
 20
0.0
 30
0.0
  3
*D39
  1

  0
LINE
  5
3BA
330
3B9
100
AcDbEntity
  8
0
 62
   123
100
AcDbLine
 10
58.69147713480014
 20
152.958877866761
 30
0.0
 11
58.69147713480014
 21
156.838944524828
 31
0.0
  0
LINE
  5
3BB
330
3B9
100
AcDbEntity
  8
0
 62
   123
100
AcDbLine
 10
188.6914771348001
 20
130.8288778667611
 30
0.0
 11
188.6914771348001
 21
156.838944524828
 31
0.0
  0
LINE
  5
3BC
330
3B9
100
AcDbEntity
  8
0
 62
   123
100
AcDbLine
 10
61.19147713480014
 20
156.2389445248279
 30
0.0
 11
186.1914771348001
 21
156.2389445248279
 31
0.0
  0
SOLID
  5
3BD
330
3B9
100
AcDbEntity
  8
0
 62
   123
100
AcDbTrace
 10
61.19147713480014
 20
156.6556111914948
 30
0.0
 11
61.19147713480014
 21
155.8222778581614
 31
0.0
 12
58.69147713480014
 22
156.2389445248279
 32
0.0
 13
58.69147713480014
 23
156.2389445248279
 33
0.0
  0
SOLID
  5
3BE
330
3B9
100
AcDbEntity
  8
0
 62
   123
100
AcDbTrace
 10
186.1914771348001
 20
156.6556111914948
 30
0.0
 11
186.1914771348001
 21
155.8222778581614
 31
0.0
 12
188.6914771348001
 22
156.2389445248279
 32
0.0
 13
188.6914771348001
 23
156.2389445248279
 33
0.0
  0
MTEXT
  5
3BF
330
3B9
100
AcDbEntity
  8
0
 62
     3
100
AcDbMText
 10
123.6914771347999
 20
158.7389445248281
 30
0.0
 40
3.0
 41
0.0
 71
     5
 72
     1
  1
\A1;130
1001
ACAD
1000
MTEXTBEGIN
1070
    73
1070
     1
1070
    44
1040
1.0
1070
    74
1070
     0
1000
MTEXTEND
1000
MTEXTBEGIN
1070
    73
1070
     1
1070
    44
1040
1.0
1070
    74
1070
     0
1000
MTEXTEND
1000
MTEXTBEGIN
1070
    73
1070
     1
1070
    44
1040
1.0
1070
    74
1070
     0
1000
MTEXTEND
  0
POINT
  5
3C0
330
3B9
100
AcDbEntity
  8
DEFPOINTS
 62
     0
100
AcDbPoint
 10
58.69147713480014
 20
151.958877866761
 30
0.0
  0
POINT
  5
3C1
330
3B9
100
AcDbEntity
  8
DEFPOINTS
 62
     0
100
AcDbPoint
 10
188.6914771348001
 20
129.8288778667611
 30
0.0
  0
POINT
  5
3C2
330
3B9
100
AcDbEntity
  8
DEFPOINTS
 62
     0
100
AcDbPoint
 10
188.6914771348001
 20
156.2389445248279
 30
0.0
  0
ENDBLK
  5
3C4
330
3B9
100
AcDbEntity
  8
0
100
AcDbBlockEnd
  0
BLOCK
  5
3CF
330
3C5
100
AcDbEntity
  8
0
100
AcDbBlockBegin
  2
*D40
 70
     1
 10
0.0
 20
0.0
 30
0.0
  3
*D40
  1

  0
LINE
  5
3C6
330
3C5
100
AcDbEntity
  8
0
 62
   123
100
AcDbLine
 10
55.69147713480013
 20
128.358877866762
 30
0.0
 11
33.62996577541926
 21
128.358877866762
 31
0.0
  0
LINE
  5
3C7
330
3C5
100
AcDbEntity
  8
0
 62
   123
100
AcDbLine
 10
55.69147713480013
 20
55.35887786676219
 30
0.0
 11
33.62996577541926
 21
55.35887786676222
 31
0.0
  0
LINE
  5
3C8
330
3C5
100
AcDbEntity
  8
0
 62
   123
100
AcDbLine
 10
34.22996577541928
 20
125.858877866762
 30
0.0
 11
34.22996577541926
 21
57.85887786676222
 31
0.0
  0
SOLID
  5
3C9
330
3C5
100
AcDbEntity
  8
0
 62
   123
100
AcDbTrace
 10
33.81329910875261
 20
125.858877866762
 30
0.0
 11
34.64663244208594
 21
125.858877866762
 31
0.0
 12
34.22996577541928
 22
128.358877866762
 32
0.0
 13
34.22996577541928
 23
128.358877866762
 33
0.0
  0
SOLID
  5
3CA
330
3C5
100
AcDbEntity
  8
0
 62
   123
100
AcDbTrace
 10
33.8132991087526
 20
57.85887786676222
 30
0.0
 11
34.64663244208593
 21
57.85887786676222
 31
0.0
 12
34.22996577541926
 22
55.35887786676222
 32
0.0
 13
34.22996577541926
 23
55.35887786676222
 33
0.0
  0
MTEXT
  5
3CB
330
3C5
100
AcDbEntity
  8
0
 62
     3
100
AcDbMText
 10
30.27981577541924
 20
91.85887786676222
 30
0.0
 40
3.0
 41
0.0
 71
     5
 72
     1
  1
\A1;\A1;{\f??|b0|i0|c0|p49;%%C73\H0.7x;\S+0^ -0.030;\H1.429x;(h7)}
 11
0.0000000000000001
 21
1.0
 31
0.0
1001
ACAD
1000
MTEXTBEGIN
1070
    73
1070
     1
1070
    44
1040
1.0
1070
    74
1070
     0
1000
MTEXTEND
1000
MTEXTBEGIN
1070
    73
1070
     1
1070
    44
1040
1.0
1070
    74
1070
     0
1000
MTEXTEND
1000
MTEXTBEGIN
1070
    73
1070
     1
1070
    44
1040
1.0
1070
    74
1070
     0
1000
MTEXTEND
  0
POINT
  5
3CC
330
3C5
100
AcDbEntity
  8
DEFPOINTS
 62
     0
100
AcDbPoint
 10
56.69147713480015
 20
128.358877866762
 30
0.0
  0
POINT
  5
3CD
330
3C5
100
AcDbEntity
  8
DEFPOINTS
 62
     0
100
AcDbPoint
 10
56.69147713480015
 20
55.35887786676219
 30
0.0
  0
POINT
  5
3CE
330
3C5
100
AcDbEntity
  8
DEFPOINTS
 62
     0
100
AcDbPoint
 10
34.22996577541926
 20
55.35887786676222
 30
0.0
  0
ENDBLK
  5
3D0
330
3C5
100
AcDbEntity
  8
0
100
AcDbBlockEnd
  0
BLOCK
  5
3DB
330
3D1
100
AcDbEntity
  8
0
100
AcDbBlockBegin
  2
*D41
 70
     1
 10
0.0
 20
0.0
 30
0.0
  3
*D41
  1

  0
LINE
  5
3D2
330
3D1
100
AcDbEntity
  8
0
 62
   123
100
AcDbLine
 10
-64.69959066923002
 20
127.858877866762
 30
0.0
 11
-64.69959066923002
 21
147.18696751458
 31
0.0
  0
LINE
  5
3D3
330
3D1
100
AcDbEntity
  8
0
 62
   123
100
AcDbLine
 10
15.30040933076998
 20
127.858877866762
 30
0.0
 11
15.30040933076998
 21
147.18696751458
 31
0.0
  0
LINE
  5
3D4
330
3D1
100
AcDbEntity
  8
0
 62
   123
100
AcDbLine
 10
-62.19959066923002
 20
146.58696751458
 30
0.0
 11
12.80040933076998
 21
146.58696751458
 31
0.0
  0
SOLID
  5
3D5
330
3D1
100
AcDbEntity
  8
0
 62
   123
100
AcDbTrace
 10
-62.19959066923002
 20
147.0036341812464
 30
0.0
 11
-62.19959066923002
 21
146.1703008479131
 31
0.0
 12
-64.69959066923002
 22
146.58696751458
 32
0.0
 13
-64.69959066923002
 23
146.58696751458
 33
0.0
  0
SOLID
  5
3D6
330
3D1
100
AcDbEntity
  8
0
 62
   123
100
AcDbTrace
 10
12.80040933076998
 20
147.0036341812464
 30
0.0
 11
12.80040933076998
 21
146.1703008479131
 31
0.0
 12
15.30040933076998
 22
146.58696751458
 32
0.0
 13
15.30040933076998
 23
146.58696751458
 33
0.0
  0
MTEXT
  5
3D7
330
3D1
100
AcDbEntity
  8
0
 62
     3
100
AcDbMText
 10
-22.63546027629853
 20
149.08696751458
 30
0.0
 40
3.0
 41
0.0
 71
     5
 72
     1
  1
\A1;80
1001
ACAD
1000
MTEXTBEGIN
1070
    73
1070
     1
1070
    44
1040
1.0
1070
    74
1070
     0
1000
MTEXTEND
1000
MTEXTBEGIN
1070
    73
1070
     1
1070
    44
1040
1.0
1070
    74
1070
     0
1000
MTEXTEND
1000
MTEXTBEGIN
1070
    73
1070
     1
1070
    44
1040
1.0
1070
    74
1070
     0
1000
MTEXTEND
  0
POINT
  5
3D8
330
3D1
100
AcDbEntity
  8
DEFPOINTS
 62
     0
100
AcDbPoint
 10
-64.69959066923002
 20
126.858877866762
 30
0.0
  0
POINT
  5
3D9
330
3D1
100
AcDbEntity
  8
DEFPOINTS
 62
     0
100
AcDbPoint
 10
15.30040933076998
 20
126.858877866762
 30
0.0
  0
POINT
  5
3DA
330
3D1
100
AcDbEntity
  8
DEFPOINTS
 62
     0
100
AcDbPoint
 10
15.30040933076998
 20
146.58696751458
 30
0.0
  0
ENDBLK
  5
3DC
330
3D1
100
AcDbEntity
  8
0
100
AcDbBlockEnd
  0
BLOCK
  5
3E9
330
3DD
100
AcDbEntity
  8
0
100
AcDbBlockBegin
  2
*D42
 70
     1
 10
0.0
 20
0.0
 30
0.0
  3
*D42
  1

  0
LINE
  5
3DE
330
3DD
100
AcDbEntity
  8
0
 62
   123
100
AcDbLine
 10
56.69147713480015
 20
129.358877866762
 30
0.0
 11
56.69147713480015
 21
144.6672112000943
 31
0.0
  0
LINE
  5
3DF
330
3DD
100
AcDbEntity
  8
0
 62
   123
100
AcDbLine
 10
58.69147713480014
 20
132.858877866762
 30
0.0
 11
58.69147713480014
 21
144.6672112000943
 31
0.0
  0
LINE
  5
3E0
330
3DD
100
AcDbEntity
  8
0
 62
   123
100
AcDbLine
 10
61.19147713480014
 20
144.0672112000943
 30
0.0
 11
63.69147713480014
 21
144.0672112000943
 31
0.0
  0
LINE
  5
3E1
330
3DD
100
AcDbEntity
  8
0
 62
   123
100
AcDbLine
 10
54.19147713480015
 20
144.0672112000943
 30
0.0
 11
47.69147713480013
 21
144.0672112000943
 31
0.0
  0
LINE
  5
3E2
330
3DD
100
AcDbEntity
  8
0
 62
   123
100
AcDbLine
 10
58.69147713480014
 20
144.0672112000943
 30
0.0
 11
56.69147713480015
 21
144.0672112000943
 31
0.0
  0
SOLID
  5
3E3
330
3DD
100
AcDbEntity
  8
0
 62
   123
100
AcDbTrace
 10
61.19147713480014
 20
144.483877866761
 30
0.0
 11
61.19147713480014
 21
143.6505445334276
 31
0.0
 12
58.69147713480014
 22
144.0672112000943
 32
0.0
 13
58.69147713480014
 23
144.0672112000943
 33
0.0
  0
SOLID
  5
3E4
330
3DD
100
AcDbEntity
  8
0
 62
   123
100
AcDbTrace
 10
54.19147713480015
 20
144.483877866761
 30
0.0
 11
54.19147713480015
 21
143.6505445334276
 31
0.0
 12
56.69147713480015
 22
144.0672112000943
 32
0.0
 13
56.69147713480015
 23
144.0672112000943
 33
0.0
  0
MTEXT
  5
3E5
330
3DD
100
AcDbEntity
  8
0
 62
     3
100
AcDbMText
 10
49.69147713480015
 20
146.5672112000943
 30
0.0
 40
3.0
 41
0.0
 71
     5
 72
     1
  1
\A1;2
1001
ACAD
1000
MTEXTBEGIN
1070
    73
1070
     1
1070
    44
1040
1.0
1070
    74
1070
     0
1000
MTEXTEND
1000
MTEXTBEGIN
1070
    73
1070
     1
1070
    44
1040
1.0
1070
    74
1070
     0
1000
MTEXTEND
1000
MTEXTBEGIN
1070
    73
1070
     1
1070
    44
1040
1.0
1070
    74
1070
     0
1000
MTEXTEND
  0
POINT
  5
3E6
330
3DD
100
AcDbEntity
  8
DEFPOINTS
 62
     0
100
AcDbPoint
 10
56.69147713480015
 20
128.358877866762
 30
0.0
  0
POINT
  5
3E7
330
3DD
100
AcDbEntity
  8
DEFPOINTS
 62
     0
100
AcDbPoint
 10
58.69147713480014
 20
131.858877866762
 30
0.0
  0
POINT
  5
3E8
330
3DD
100
AcDbEntity
  8
DEFPOINTS
 62
     0
100
AcDbPoint
 10
58.69147713480014
 20
144.0672112000943
 30
0.0
  0
ENDBLK
  5
3EA
330
3DD
100
AcDbEntity
  8
0
100
AcDbBlockEnd
  0
BLOCK
  5
3F5
330
3EB
100
AcDbEntity
  8
0
100
AcDbBlockBegin
  2
*D43
 70
     1
 10
0.0
 20
0.0
 30
0.0
  3
*D43
  1

  0
LINE
  5
3EC
330
3EB
100
AcDbEntity
  8
0
 62
   123
100
AcDbLine
 10
58.69147713480014
 20
137.0672112000943
 30
0.0
 11
58.69147713480014
 21
144.6672112000943
 31
0.0
  0
LINE
  5
3ED
330
3EB
100
AcDbEntity
  8
0
 62
   123
100
AcDbLine
 10
65.69147713480015
 20
131.4576152082899
 30
0.0
 11
65.69147713480015
 21
144.6672112000943
 31
0.0
  0
LINE
  5
3EE
330
3EB
100
AcDbEntity
  8
0
 62
   123
100
AcDbLine
 10
61.19147713480014
 20
144.0672112000943
 30
0.0
 11
63.19147713480013
 21
144.0672112000943
 31
0.0
  0
SOLID
  5
3EF
330
3EB
100
AcDbEntity
  8
0
 62
   123
100
AcDbTrace
 10
61.19147713480014
 20
144.483877866761
 30
0.0
 11
61.19147713480014
 21
143.6505445334276
 31
0.0
 12
58.69147713480014
 22
144.0672112000943
 32
0.0
 13
58.69147713480014
 23
144.0672112000943
 33
0.0
  0
SOLID
  5
3F0
330
3EB
100
AcDbEntity
  8
0
 62
   123
100
AcDbTrace
 10
63.19147713480013
 20
144.483877866761
 30
0.0
 11
63.19147713480013
 21
143.6505445334276
 31
0.0
 12
65.69147713480015
 22
144.0672112000943
 32
0.0
 13
65.69147713480015
 23
144.0672112000943
 33
0.0
  0
MTEXT
  5
3F1
330
3EB
100
AcDbEntity
  8
0
 62
     3
100
AcDbMText
 10
62.44147713480014
 20
146.5672112000943
 30
0.0
 40
3.0
 41
0.0
 71
     5
 72
     1
  1
\A1;7
1001
ACAD
1000
MTEXTBEGIN
1070
    73
1070
     1
1070
    44
1040
1.0
1070
    74
1070
     0
1000
MTEXTEND
1000
MTEXTBEGIN
1070
    73
1070
     1
1070
    44
1040
1.0
1070
    74
1070
     0
1000
MTEXTEND
1000
MTEXTBEGIN
1070
    73
1070
     1
1070
    44
1040
1.0
1070
    74
1070
     0
1000
MTEXTEND
  0
POINT
  5
3F2
330
3EB
100
AcDbEntity
  8
DEFPOINTS
 62
     0
100
AcDbPoint
 10
58.69147713480014
 20
136.0672112000943
 30
0.0
  0
POINT
  5
3F3
330
3EB
100
AcDbEntity
  8
DEFPOINTS
 62
     0
100
AcDbPoint
 10
65.69147713480015
 20
130.4576152082899
 30
0.0
  0
POINT
  5
3F4
330
3EB
100
AcDbEntity
  8
DEFPOINTS
 62
     0
100
AcDbPoint
 10
65.69147713480015
 20
144.0672112000943
 30
0.0
  0
ENDBLK
  5
3F6
330
3EB
100
AcDbEntity
  8
0
100
AcDbBlockEnd
  0
BLOCK
  5
401
330
3F7
100
AcDbEntity
  8
0
100
AcDbBlockBegin
  2
*D44
 70
     1
 10
0.0
 20
0.0
 30
0.0
  3
*D44
  1

  0
LINE
  5
3F8
330
3F7
100
AcDbEntity
  8
0
 62
   123
100
AcDbLine
 10
45.19147713480013
 20
95.96387786676087
 30
0.0
 11
45.19147713480013
 21
156.838944524828
 31
0.0
  0
LINE
  5
3F9
330
3F7
100
AcDbEntity
  8
0
 62
   123
100
AcDbLine
 10
58.69147713480014
 20
132.858877866762
 30
0.0
 11
58.69147713480014
 21
156.838944524828
 31
0.0
  0
LINE
  5
3FA
330
3F7
100
AcDbEntity
  8
0
 62
   123
100
AcDbLine
 10
47.69147713480013
 20
156.2389445248279
 30
0.0
 11
56.19147713480014
 21
156.2389445248279
 31
0.0
  0
SOLID
  5
3FB
330
3F7
100
AcDbEntity
  8
0
 62
   123
100
AcDbTrace
 10
47.69147713480013
 20
156.6556111914948
 30
0.0
 11
47.69147713480013
 21
155.8222778581614
 31
0.0
 12
45.19147713480013
 22
156.2389445248279
 32
0.0
 13
45.19147713480013
 23
156.2389445248279
 33
0.0
  0
SOLID
  5
3FC
330
3F7
100
AcDbEntity
  8
0
 62
   123
100
AcDbTrace
 10
56.19147713480014
 20
156.6556111914948
 30
0.0
 11
56.19147713480014
 21
155.8222778581614
 31
0.0
 12
58.69147713480014
 22
156.2389445248279
 32
0.0
 13
58.69147713480014
 23
156.2389445248279
 33
0.0
  0
MTEXT
  5
3FD
330
3F7
100
AcDbEntity
  8
0
 62
     3
100
AcDbMText
 10
51.94147713480013
 20
158.7389445248281
 30
0.0
 40
3.0
 41
0.0
 71
     5
 72
     1
  1
\A1;13.5
1001
ACAD
1000
MTEXTBEGIN
1070
    73
1070
     1
1070
    44
1040
1.0
1070
    74
1070
     0
1000
MTEXTEND
1000
MTEXTBEGIN
1070
    73
1070
     1
1070
    44
1040
1.0
1070
    74
1070
     0
1000
MTEXTEND
1000
MTEXTBEGIN
1070
    73
1070
     1
1070
    44
1040
1.0
1070
    74
1070
     0
1000
MTEXTEND
  0
POINT
  5
3FE
330
3F7
100
AcDbEntity
  8
DEFPOINTS
 62
     0
100
AcDbPoint
 10
45.19147713480013
 20
94.96387786676086
 30
0.0
  0
POINT
  5
3FF
330
3F7
100
AcDbEntity
  8
DEFPOINTS
 62
     0
100
AcDbPoint
 10
58.69147713480014
 20
131.858877866762
 30
0.0
  0
POINT
  5
400
330
3F7
100
AcDbEntity
  8
DEFPOINTS
 62
     0
100
AcDbPoint
 10
58.69147713480014
 20
156.2389445248279
 30
0.0
  0
ENDBLK
  5
402
330
3F7
100
AcDbEntity
  8
0
100
AcDbBlockEnd
  0
BLOCK
  5
40D
330
403
100
AcDbEntity
  8
0
100
AcDbBlockBegin
  2
*D45
 70
     1
 10
0.0
 20
0.0
 30
0.0
  3
*D45
  1

  0
LINE
  5
404
330
403
100
AcDbEntity
  8
0
 62
   123
100
AcDbLine
 10
188.1918165397109
 20
131.3607855389972
 30
0.0
 11
222.3786895228801
 21
131.3607855389972
 31
0.0
  0
LINE
  5
405
330
403
100
AcDbEntity
  8
0
 62
   123
100
AcDbLine
 10
188.1918165397109
 20
52.35697019452526
 30
0.0
 11
222.37868952288
 21
52.35697019452526
 31
0.0
  0
LINE
  5
406
330
403
100
AcDbEntity
  8
0
 62
   123
100
AcDbLine
 10
221.7786895228801
 20
128.8607855389972
 30
0.0
 11
221.7786895228801
 21
54.85697019452526
 31
0.0
  0
SOLID
  5
407
330
403
100
AcDbEntity
  8
0
 62
   123
100
AcDbTrace
 10
221.3620228562134
 20
128.8607855389972
 30
0.0
 11
222.1953561895467
 21
128.8607855389972
 31
0.0
 12
221.7786895228801
 22
131.3607855389972
 32
0.0
 13
221.7786895228801
 23
131.3607855389972
 33
0.0
  0
SOLID
  5
408
330
403
100
AcDbEntity
  8
0
 62
   123
100
AcDbTrace
 10
221.3620228562134
 20
54.85697019452526
 30
0.0
 11
222.1953561895467
 21
54.85697019452526
 31
0.0
 12
221.7786895228801
 22
52.35697019452526
 32
0.0
 13
221.7786895228801
 23
52.35697019452526
 33
0.0
  0
MTEXT
  5
409
330
403
100
AcDbEntity
  8
0
 62
     3
100
AcDbMText
 10
219.27868952288
 20
92.25066292995142
 30
0.0
 40
3.0
 41
0.0
 71
     5
 72
     1
  1
\A1;%%C79
 11
0.0000000000000001
 21
1.0
 31
0.0
1001
ACAD
1000
MTEXTBEGIN
1070
    73
1070
     1
1070
    44
1040
1.0
1070
    74
1070
     0
1000
MTEXTEND
1000
MTEXTBEGIN
1070
    73
1070
     1
1070
    44
1040
1.0
1070
    74
1070
     0
1000
MTEXTEND
1000
MTEXTBEGIN
1070
    73
1070
     1
1070
    44
1040
1.0
1070
    74
1070
     0
1000
MTEXTEND
  0
POINT
  5
40A
330
403
100
AcDbEntity
  8
DEFPOINTS
 62
     0
100
AcDbPoint
 10
187.191816539711
 20
131.3607855389972
 30
0.0
  0
POINT
  5
40B
330
403
100
AcDbEntity
  8
DEFPOINTS
 62
     0
100
AcDbPoint
 10
187.191816539711
 20
52.35697019452526
 30
0.0
  0
POINT
  5
40C
330
403
100
AcDbEntity
  8
DEFPOINTS
 62
     0
100
AcDbPoint
 10
221.7786895228801
 20
52.35697019452526
 30
0.0
  0
ENDBLK
  5
40E
330
403
100
AcDbEntity
  8
0
100
AcDbBlockEnd
  0
BLOCK
  5
419
330
40F
100
AcDbEntity
  8
0
100
AcDbBlockBegin
  2
*D46
 70
     1
 10
0.0
 20
0.0
 30
0.0
  3
*D46
  1

  0
LINE
  5
410
330
40F
100
AcDbEntity
  8
0
 62
   123
100
AcDbLine
 10
198.6914771348001
 20
115.358877866762
 30
0.0
 11
198.6914771348001
 21
156.838944524828
 31
0.0
  0
LINE
  5
411
330
40F
100
AcDbEntity
  8
0
 62
   123
100
AcDbLine
 10
188.6914771348001
 20
130.8288778667611
 30
0.0
 11
188.6914771348001
 21
156.838944524828
 31
0.0
  0
LINE
  5
412
330
40F
100
AcDbEntity
  8
0
 62
   123
100
AcDbLine
 10
196.1914771348001
 20
156.2389445248279
 30
0.0
 11
191.1914771348001
 21
156.2389445248279
 31
0.0
  0
SOLID
  5
413
330
40F
100
AcDbEntity
  8
0
 62
   123
100
AcDbTrace
 10
196.1914771348001
 20
156.6556111914948
 30
0.0
 11
196.1914771348001
 21
155.8222778581614
 31
0.0
 12
198.6914771348001
 22
156.2389445248279
 32
0.0
 13
198.6914771348001
 23
156.2389445248279
 33
0.0
  0
SOLID
  5
414
330
40F
100
AcDbEntity
  8
0
 62
   123
100
AcDbTrace
 10
191.1914771348001
 20
156.6556111914948
 30
0.0
 11
191.1914771348001
 21
155.8222778581614
 31
0.0
 12
188.6914771348001
 22
156.2389445248279
 32
0.0
 13
188.6914771348001
 23
156.2389445248279
 33
0.0
  0
MTEXT
  5
415
330
40F
100
AcDbEntity
  8
0
 62
     3
100
AcDbMText
 10
193.7841659703298
 20
158.7389445248281
 30
0.0
 40
3.0
 41
0.0
 71
     5
 72
     1
  1
\A1;10
1001
ACAD
1000
MTEXTBEGIN
1070
    73
1070
     1
1070
    44
1040
1.0
1070
    74
1070
     0
1000
MTEXTEND
1000
MTEXTBEGIN
1070
    73
1070
     1
1070
    44
1040
1.0
1070
    74
1070
     0
1000
MTEXTEND
1000
MTEXTBEGIN
1070
    73
1070
     1
1070
    44
1040
1.0
1070
    74
1070
     0
1000
MTEXTEND
  0
POINT
  5
416
330
40F
100
AcDbEntity
  8
DEFPOINTS
 62
     0
100
AcDbPoint
 10
198.6914771348001
 20
114.358877866762
 30
0.0
  0
POINT
  5
417
330
40F
100
AcDbEntity
  8
DEFPOINTS
 62
     0
100
AcDbPoint
 10
188.6914771348001
 20
129.8288778667611
 30
0.0
  0
POINT
  5
418
330
40F
100
AcDbEntity
  8
DEFPOINTS
 62
     0
100
AcDbPoint
 10
188.6914771348001
 20
156.2389445248279
 30
0.0
  0
ENDBLK
  5
41A
330
40F
100
AcDbEntity
  8
0
100
AcDbBlockEnd
  0
BLOCK
  5
425
330
41B
100
AcDbEntity
  8
0
100
AcDbBlockBegin
  2
*D47
 70
     1
 10
0.0
 20
0.0
 30
0.0
  3
*D47
  1

  0
LINE
  5
41C
330
41B
100
AcDbEntity
  8
0
 62
   123
100
AcDbLine
 10
198.6914771348001
 20
115.358877866762
 30
0.0
 11
211.3030009232203
 21
115.358877866762
 31
0.0
  0
LINE
  5
41D
330
41B
100
AcDbEntity
  8
0
 62
   123
100
AcDbLine
 10
198.6914771348001
 20
68.35887786676221
 30
0.0
 11
211.3030009232203
 21
68.35887786676221
 31
0.0
  0
LINE
  5
41E
330
41B
100
AcDbEntity
  8
0
 62
   123
100
AcDbLine
 10
210.7030009232203
 20
112.8588778667622
 30
0.0
 11
210.7030009232203
 21
70.8588778667622
 31
0.0
  0
SOLID
  5
41F
330
41B
100
AcDbEntity
  8
0
 62
   123
100
AcDbTrace
 10
210.2863342565536
 20
112.8588778667622
 30
0.0
 11
211.1196675898868
 21
112.8588778667622
 31
0.0
 12
210.7030009232203
 22
115.358877866762
 32
0.0
 13
210.7030009232203
 23
115.358877866762
 33
0.0
  0
SOLID
  5
420
330
41B
100
AcDbEntity
  8
0
 62
   123
100
AcDbTrace
 10
210.2863342565536
 20
70.8588778667622
 30
0.0
 11
211.1196675898868
 21
70.8588778667622
 31
0.0
 12
210.7030009232203
 22
68.35887786676221
 32
0.0
 13
210.7030009232203
 23
68.35887786676221
 33
0.0
  0
MTEXT
  5
421
330
41B
100
AcDbEntity
  8
0
 62
     3
100
AcDbMText
 10
208.2030009232203
 20
91.81877063984392
 30
0.0
 40
3.0
 41
0.0
 71
     5
 72
     1
  1
\A1;%%c47
 11
0.0000000000000001
 21
1.0
 31
0.0
1001
ACAD
1000
MTEXTBEGIN
1070
    73
1070
     1
1070
    44
1040
1.0
1070
    74
1070
     0
1000
MTEXTEND
1000
MTEXTBEGIN
1070
    73
1070
     1
1070
    44
1040
1.0
1070
    74
1070
     0
1000
MTEXTEND
1000
MTEXTBEGIN
1070
    73
1070
     1
1070
    44
1040
1.0
1070
    74
1070
     0
1000
MTEXTEND
  0
POINT
  5
422
330
41B
100
AcDbEntity
  8
DEFPOINTS
 62
     0
100
AcDbPoint
 10
197.6914771348001
 20
115.358877866762
 30
0.0
  0
POINT
  5
423
330
41B
100
AcDbEntity
  8
DEFPOINTS
 62
     0
100
AcDbPoint
 10
197.6914771348001
 20
68.35887786676221
 30
0.0
  0
POINT
  5
424
330
41B
100
AcDbEntity
  8
DEFPOINTS
 62
     0
100
AcDbPoint
 10
210.7030009232203
 20
68.35887786676221
 30
0.0
  0
ENDBLK
  5
426
330
41B
100
AcDbEntity
  8
0
100
AcDbBlockEnd
  0
ENDSEC
  0
SECTION
  2
ENTITIES
  0
ARC
  5
9D
330
2
100
AcDbEntity
  8
0
100
AcDbCircle
 10
188.1914771348001
 20
52.51635509105108
 30
0.0
 40
3.0
100
AcDbArc
 50
270.0
 51
0.0
  0
ARC
  5
9E
330
2
100
AcDbEntity
  8
0
100
AcDbCircle
 10
190.1914771348001
 20
50.51635509104972
 30
0.0
 40
6.0
100
AcDbArc
 50
270.0
 51
0.0
  0
ARC
  5
9F
330
2
100
AcDbEntity
  8
0
 48
0.6
100
AcDbCircle
 10
106.9941991348005
 20
51.27023186676207
 30
0.0
 40
33.95579199999998
100
AcDbArc
 50
179.85042300002
 51
182.9607459492086
  0
ARC
  5
A0
330
2
100
AcDbEntity
  8
0
 48
0.6
100
AcDbCircle
 10
106.7017050815702
 20
51.35654297576774
 30
0.0
 40
35.255792
100
AcDbArc
 50
179.9962054631615
 51
182.9919319862273
  0
ARC
  5
A1
330
2
100
AcDbEntity
  8
0
 48
0.6
100
AcDbCircle
 10
107.2904050706909
 20
51.1948433909106
 30
0.0
 40
37.855792
100
AcDbArc
 50
179.8658330000312
 51
183.9724199931055
  0
ARC
  5
A2
330
2
100
AcDbEntity
  8
0
 48
0.6
100
AcDbCircle
 10
106.9941991348005
 20
51.27023186676207
 30
0.0
 40
39.15579199999999
100
AcDbArc
 50
179.8702870000233
 51
183.6102158837779
  0
ARC
  5
A3
330
2
100
AcDbEntity
  8
0
 48
0.6
100
AcDbCircle
 10
26.6790835321608
 20
66.67414733665009
 30
0.0
 40
33.95579199999998
100
AcDbArc
 50
205.86871404083
 51
220.5962187217288
  0
LINE
  5
A4
330
2
100
AcDbEntity
  8
0
100
AcDbLine
 10
-10.35996737320965
 20
48.97111482517221
 30
0.0
 11
-3.874207630689852
 21
51.85887786676222
 31
0.0
  0
ARC
  5
A5
330
2
100
AcDbEntity
  8
0
 48
0.6
100
AcDbCircle
 10
25.54551682530108
 20
66.16943051530234
 30
0.0
 40
39.15579199999999
100
AcDbArc
 50
201.4369589999595
 51
205.6205866778139
  0
LINE
  5
A6
102
{ACAD_REACTORS
330
AB
102
}
330
2
100
AcDbEntity
  8
CEN
 48
0.6
100
AcDbLine
 10
-24.69959066923911
 20
44.68675465836621
 30
0.0
 11
-24.69959066923911
 21
139.0310010751585
 31
0.0
  0
DIMENSION
  5
A9
102
{ACAD_XDICTIONARY
360
AA
102
}
102
{ACAD_REACTORS
330
AB
102
}
330
2
100
AcDbEntity
  8
0
100
AcDbDimension
  2
*D25
 10
-24.69959066923911
 20
139.0310010751585
 30
0.0
 11
-11.02682485951846
 21
32.71720183579735
 31
0.0
 70
   162
  3
STANDARD
100
AcDb2LineAngularDimension
 13
-8.131048174309398
 23
51.85887786676222
 33
0.0
 14
-24.69959066923001
 24
91.85887786676085
 34
0.0
 15
-24.69959066923911
 25
44.68675465836621
 35
0.0
 16
-16.77644397431222
 26
31.67660377305838
 36
0.0
1001
ACAD
1000
DSTYLE
1002
{
1070
   271
1070
     1
1070
   179
1070
     1
1070
   271
1070
     0
1070
   271
1070
     1
1070
   271
1070
     1
1070
   271
1070
     1
1070
   271
1070
     1
1070
   271
1070
     1
1002
}
  0
LINE
  5
BC
330
2
100
AcDbEntity
  8
CEN
 48
0.6
100
AcDbLine
 10
211.3588594850007
 20
-72.26380958573736
 30
0.0
 11
25.60752098131887
 21
-72.26380958573736
 31
0.0
  0
DIMENSION
  5
BD
330
2
100
AcDbEntity
  8
0
100
AcDbDimension
  2
*D26
 10
196.3038226982516
 20
1.083235232028981
 30
0.0
 11
131.3038226982516
 21
1.083235232028981
 31
0.0
 70
   160
  3
STANDARD
100
AcDbAlignedDimension
 13
66.30382269825168
 23
-12.16380958573881
 33
0.0
 14
196.3038226982516
 24
-34.29380958573711
 34
0.0
100
AcDbRotatedDimension
  0
LINE
  5
CA
330
2
100
AcDbEntity
  8
0
100
AcDbLine
 10
144.3038226982515
 20
-32.76380958573735
 30
0.0
 11
72.40382269825204
 21
-32.76380958573735
 31
0.0
  0
LINE
  5
CB
330
2
100
AcDbEntity
  8
0
100
AcDbLine
 10
82.80382269825167
 20
-112.7638095857373
 30
0.0
 11
73.80382269825169
 21
-112.7638095857373
 31
0.0
  0
LINE
  5
CC
330
2
100
AcDbEntity
  8
0
100
AcDbLine
 10
144.3038226982515
 20
-111.7638095857373
 30
0.0
 11
72.40382269825204
 21
-111.7638095857373
 31
0.0
  0
LEADER
  5
CD
330
2
100
AcDbEntity
  8
0
100
AcDbLeader
  3
STANDARD
 74
     0
 40
13.0
 41
28.50892857142855
 76
     2
 10
75.88361040430936
 20
-121.1568052810553
 30
0.0
 10
66.76686001213056
 20
-136.4516249114481
 30
0.0
1001
ACAD
1000
DSTYLE
1002
{
1070
     5
1000

1070
   342
1005
0
1002
}
  0
ARC
  5
CE
330
2
100
AcDbEntity
  8
0
100
AcDbCircle
 10
67.45360846169025
 20
39.90935382290535
 30
0.0
 40
8.907313409310658
100
AcDbArc
 50
24.23072274293526
 51
94.90087069773977
  0
LWPOLYLINE
  5
CF
330
2
100
AcDbEntity
  8
0
100
AcDbPolyline
 90
      467
 70
     0
 43
0.0
 10
72.23887954963355
 20
32.55106983547388
 10
72.24107783170254
 20
32.55214492125526
 10
72.26132208195306
 20
32.56194702189724
 10
72.28154154733236
 20
32.5716389257683
 10
72.30173627095428
 20
32.58122107508472
 10
72.32190629592333
 20
32.59069391205242
 10
72.34205166536231
 20
32.60005787888815
 10
72.36217242237398
 20
32.60931341779961
 10
72.38226861007387
 20
32.61846097099635
 10
72.40234027157383
 20
32.6275009806933
 10
72.42238744997303
 20
32.63643388910134
 10
72.4424101884033
 20
32.64526013842953
 10
72.46240852996199
 20
32.65398017088921
 10
72.48238251776275
 20
32.66259442869307
 10
72.50233219491201
 20
32.67110335405242
 10
72.52225760453256
 20
32.67950738917682
 10
72.54215878973264
 20
32.68780697627892
 10
72.56203579362409
 20
32.69600255757053
 10
72.58188865930424
 20
32.70409457525932
 10
72.60171742989403
 20
32.71208347155937
 10
72.62152214851266
 20
32.71996968868153
 10
72.64130285826286
 20
32.72775366883628
 10
72.66105960225468
 20
32.73543585423625
 10
72.68079242361274
 20
32.74301668709143
 10
72.70050136542341
 20
32.75049660961178
 10
72.72018647082404
 20
32.75787606401185
 10
72.7398477829138
 20
32.76515549249928
 10
72.75948534479358
 20
32.77233533728725
 10
72.77909919959348
 20
32.77941604058618
 10
72.79868939041263
 20
32.78639804460873
 10
72.81825596037379
 20
32.79328179156674
 10
72.8377989525743
 20
32.80006772366744
 10
72.85731841013329
 20
32.8067562831235
 10
72.87681437616265
 20
32.81334791214806
 10
72.89628689376328
 20
32.81984305295021
 10
72.9157360060617
 20
32.82624214774353
 10
72.9351617561624
 20
32.83254563873754
 10
72.95456418718277
 20
32.83875396814266
 10
72.97394334222372
 20
32.84486757817069
 10
72.9932992644044
 20
32.85088691103294
 10
73.01263199682399
 20
32.85681240894348
 10
73.03194158260341
 20
32.8626445141091
 10
73.05122806485451
 20
32.8683836687411
 10
73.07049148668375
 20
32.87403031505539
 10
73.08973189121203
 20
32.87958489525738
 10
73.10894932154406
 20
32.8850478515634
 10
73.1281438207825
 20
32.89041962618159
 10
73.14731543206287
 20
32.89570066132103
 10
73.16646419846256
 20
32.90089139919848
 10
73.18559016312429
 20
32.90599228202121
 10
73.20469336914539
 20
32.91100375200233
 10
73.22377385963226
 20
32.91592625135092
 10
73.24283167770224
 20
32.92076022228104
 10
73.2618668664745
 20
32.92550610700128
 10
73.2808794690445
 20
32.93016434772256
 10
73.29986952852414
 20
32.93473538665931
 10
73.31883708804344
 20
32.93921966601885
 10
73.33778219069427
 20
32.9436176280161
 10
73.35670487960306
 20
32.94792971485925
 10
73.37560519787439
 20
32.95215636876139
 10
73.39448318860376
 20
32.95629803193344
 10
73.41333889493398
 20
32.96035514658445
 10
73.43217235995327
 20
32.96432815492938
 10
73.45098362677345
 20
32.96821749917501
 10
73.46977273851189
 20
32.97202362153587
 10
73.48853973829318
 20
32.97574696422236
 10
73.50728466920371
 20
32.97938796944446
 10
73.52600757436267
 20
32.98294707941487
 10
73.54470849690368
 20
32.98642473634446
 10
73.56338747990412
 20
32.98982138244321
 10
73.58204456649399
 20
32.99313745992514
 10
73.60067979977248
 20
32.99637341099935
 10
73.61929322287322
 20
32.99952967787442
 10
73.63788487888268
 20
33.00260670276668
 10
73.65645481092361
 20
33.00560492788428
 10
73.67500306211329
 20
33.00852479543904
 10
73.69352967555276
 20
33.01136674764313
 10
73.71203469435387
 20
33.01413122670521
 10
73.73051816163386
 20
33.01681867484115
 10
73.74898012050289
 20
33.01942953425633
 10
73.76742061407457
 20
33.02196424716532
 10
73.78583968544444
 20
33.02442325577898
 10
73.80423737774434
 20
33.02680700231042
 10
73.82261373406254
 20
33.02911592896646
 10
73.84096879754361
 20
33.03135047795797
 10
73.85930261127396
 20
33.03351109150264
 10
73.87761521836363
 20
33.03559821180499
 10
73.89590666193362
 20
33.03761228108136
 10
73.91417698509393
 20
33.03955374153848
 10
73.93242623095463
 20
33.04142303539048
 10
73.95065444262401
 20
33.04322060484821
 10
73.96886166321381
 20
33.04494689211936
 10
73.98704793584329
 20
33.04660233942071
 10
74.00521330361335
 20
33.0481873889604
 10
74.0233578096431
 20
33.04970248294978
 10
74.0414814970336
 20
33.05114806359881
 10
74.0595844089039
 20
33.05252457312247
 10
74.07766658837498
 20
33.05383245372661
 10
74.09572807853329
 20
33.0550721476285
 10
74.11376892251245
 20
33.05624409703352
 10
74.13178916341348
 20
33.05734874415804
 10
74.14978884435368
 20
33.05838653120928
 10
74.16776800843216
 20
33.05935790039995
 10
74.18572669878267
 20
33.06026329394001
 10
74.20366495849339
 20
33.0611031540435
 10
74.22158283068348
 20
33.0618779229186
 10
74.23948035846297
 20
33.06258804277935
 10
74.25735758494375
 20
33.06323395583433
 10
74.27521455324312
 20
33.06381610429719
 10
74.29305130647299
 20
33.06433493037514
 10
74.31086788773427
 20
33.06479087628314
 10
74.3286643401443
 20
33.06518438423303
 10
74.34644070681315
 20
33.06551589643243
 10
74.36419703085448
 20
33.06578585509454
 10
74.38193335537468
 20
33.06599470243021
 10
74.39964972348389
 20
33.06614288065031
 10
74.41734617830298
 20
33.06623083196758
 10
74.43502276294565
 20
33.06625899859101
 10
74.45267952050382
 20
33.06622782273338
 10
74.47031649410383
 20
33.06613774660548
 10
74.48793372685395
 20
33.06598921241867
 10
74.50553126185329
 20
33.06578266238251
 10
74.52310914224472
 20
33.06551853871144
 10
74.54066741110364
 20
33.06519728361321
 10
74.55820611156378
 20
33.06481933930047
 10
74.57572528673336
 20
33.06438514798549
 10
74.5932249797115
 20
33.06389515187732
 10
74.61070523362288
 20
33.06334979318819
 10
74.6281660915738
 20
33.06274951412989
 10
74.64560759667438
 20
33.06209475691332
 10
74.66302979203283
 20
33.06138596375024
 10
74.68043272077375
 20
33.06062357684925
 10
74.69781642599443
 20
33.05980803842442
 10
74.71518095081411
 20
33.05893979068481
 10
74.73252633833363
 20
33.05801927584218
 10
74.74985263168308
 20
33.05704693610926
 10
74.76715987395255
 20
33.05602321369736
 10
74.78444810826295
 20
33.05494855081462
 10
74.80171737773344
 20
33.05382338967513
 10
74.81896772546315
 20
33.05264817248838
 10
74.83619919457487
 20
33.05142334146704
 10
74.85341182816409
 20
33.05014933882068
 10
74.87060566935361
 20
33.04882660676013
 10
74.88778076125345
 20
33.04745558749903
 10
74.90493714696277
 20
33.04603672324639
 10
74.92207486961344
 20
33.04457045621495
 10
74.93919397231184
 20
33.0430572286142
 10
74.95629449815351
 20
33.04149748265865
 10
74.97337649026301
 20
33.0398916605551
 10
74.99043999175409
 20
33.03824020451758
 10
75.00748504573313
 20
33.03654355675838
 10
75.02451169530283
 20
33.03480215948332
 10
75.04151998359339
 20
33.03301645490829
 10
75.0585099536947
 20
33.03118688524467
 10
75.07548164873333
 20
33.02931389270099
 10
75.09243511181377
 20
33.02739791949
 10
75.10937038605334
 20
33.02543940782163
 10
75.12628751456394
 20
33.02343879990996
 10
75.14318654044473
 20
33.02139653796405
 10
75.16006750681298
 20
33.0193130641943
 10
75.17693045678242
 20
33.01718882081344
 10
75.19377543347399
 20
33.01502425003139
 10
75.21060247998318
 20
33.01281979405905
 10
75.22741163942372
 20
33.01057589511003
 10
75.24420295490381
 20
33.00829299539519
 10
75.26097646955348
 20
33.00597153712454
 10
75.27773222646283
 20
33.00361196250708
 10
75.29447026875459
 20
33.00121471375826
 10
75.31119063953338
 20
32.99878023308759
 10
75.3278933819238
 20
32.99630896270322
 10
75.34457853902312
 20
32.99380134482055
 10
75.36124615394509
 20
32.99125782164958
 10
75.37789626979429
 20
32.98867883540117
 10
75.39452892970436
 20
32.98606482828847
 10
75.41114417676361
 20
32.98341624251736
 10
75.42774205409478
 20
32.98073352030598
 10
75.44432260481332
 20
32.97801710385842
 10
75.46088587201301
 20
32.97526743539096
 10
75.47743189882384
 20
32.97248495711357
 10
75.49396072835404
 20
32.96967011123764
 10
75.51047240369371
 20
32.96682333997352
 10
75.52696696798375
 20
32.96394508553261
 10
75.54344446432333
 20
32.96103579012572
 10
75.55990493581338
 20
32.9580958959633
 10
75.57634842558219
 20
32.95512584525897
 10
75.59277497673429
 20
32.95212608022267
 10
75.60918463237431
 20
32.94909704306758
 10
75.62557743562502
 20
32.94603917599999
 10
75.64195342958374
 20
32.94295292123582
 10
75.65831265737324
 20
32.93983872098317
 10
75.67465516210359
 20
32.93669701745523
 10
75.690980986883
 20
32.93352825286239
 10
75.70729017482334
 20
32.93033286941646
 10
75.72358276904378
 20
32.92711130932969
 10
75.73985881263434
 20
32.92386401480792
 10
75.75611834872325
 20
32.92059142806795
 10
75.7723614204242
 20
32.91729399132067
 10
75.78858807084362
 20
32.91397214677421
 10
75.80479834308244
 20
32.91062633664035
 10
75.82099228027437
 20
32.90725700313317
 10
75.83716992551306
 20
32.90386458846035
 10
75.85333132191408
 20
32.90044953483642
 10
75.8694765125838
 20
32.89701228446949
 10
75.88560554064315
 20
32.89355327957139
 10
75.90171844919495
 20
32.89007296235435
 10
75.91781528136198
 20
32.88657177503012
 10
75.93389608024519
 20
32.88305015980734
 10
75.94996088895277
 20
32.87950855890096
 10
75.96600975061301
 20
32.87594741451961
 10
75.98204270832503
 20
32.87236716887321
 10
75.99805980519524
 20
32.8687682641754
 10
76.01406108434456
 20
32.86515114263524
 10
76.03004658887403
 20
32.86151624646811
 10
76.04601636190273
 20
32.8578640178813
 10
76.06197044654436
 20
32.85419489908611
 10
76.07790888591264
 20
32.85050933229662
 10
76.09383172310298
 20
32.84680775972002
 10
76.10973900124371
 20
32.84309062357044
 10
76.12563076343395
 20
32.83935836605826
 10
76.14150705279462
 20
32.83561142939571
 10
76.15736791242304
 20
32.83185025579007
 10
76.17321338544389
 20
32.82807528745628
 10
76.1890435149744
 20
32.82428696660611
 10
76.20485834410283
 20
32.82048573544818
 10
76.22065791596288
 20
32.81667203619564
 10
76.23644227364454
 20
32.81284631105757
 10
76.25221146028344
 20
32.8090090022439
 10
76.26796551897315
 20
32.80516055197232
 10
76.28370449282376
 20
32.80130140244922
 10
76.29942842496348
 20
32.7974319958854
 10
76.31513735848239
 20
32.79355277449315
 10
76.33083133651235
 20
32.78966418048561
 10
76.34651040215429
 20
32.78576665607046
 10
76.36217459851287
 20
32.78186064345904
 10
76.37782396870353
 20
32.77794658486721
 10
76.3934585558545
 20
32.77402492250041
 10
76.40907840305406
 20
32.77009609857317
 10
76.42468355341406
 20
32.76616055529632
 10
76.44027405006273
 20
32.76221873487942
 10
76.45584993610464
 20
32.75827107953512
 10
76.47141125464441
 20
32.75431803147569
 10
76.48695804880482
 20
32.75036003290928
 10
76.50249036168315
 20
32.74639752604946
 10
76.51800823640221
 20
32.74243095310714
 10
76.53351171606299
 20
32.73846075629228
 10
76.54900084379367
 20
32.73448737781667
 10
76.56447566268434
 20
32.73051125989343
 10
76.57993621585409
 20
32.72653284473074
 10
76.59538254642393
 20
32.72255257453946
 10
76.61081469750389
 20
32.7185708915341
 10
76.62623271218215
 20
32.71458823792467
 10
76.64163663360341
 20
32.71060505592151
 10
76.65702650485402
 20
32.70662178773421
 10
76.6724023690531
 20
32.7026388755786
 10
76.68776426931254
 20
32.69865676166057
 10
76.70311224874422
 20
32.69467588819417
 10
76.71844635046364
 20
32.6906966973935
 10
76.73376661757356
 20
32.68671963146347
 10
76.74907309318223
 20
32.68274513261815
 10
76.76436582041242
 20
32.67877364307026
 10
76.77964484238327
 20
32.67480560503155
 10
76.79491020218302
 20
32.67084146070704
 10
76.81016194292351
 20
32.66688165231438
 10
76.82540010774392
 20
32.66292662206218
 10
76.84062473972334
 20
32.6589768121636
 10
76.8558358819937
 20
32.6550326648263
 10
76.87103357765225
 20
32.65109462226439
 10
76.88621786983276
 20
32.64716312668598
 10
76.9013888016234
 20
32.64323862030607
 10
76.9165464161324
 20
32.63932154533553
 10
76.93169075649528
 20
32.63541234398111
 10
76.94682186581303
 20
32.63151145845915
 10
76.96193978718294
 20
32.62761933097829
 10
76.9770445637441
 20
32.62373640374937
 10
76.99213623857395
 20
32.61986311898555
 10
77.00721485480428
 20
32.61599991889636
 10
77.02228045555419
 20
32.61214724569447
 10
77.03733308390292
 20
32.60830554158896
 10
77.05237278300407
 20
32.60447524879249
 10
77.06739959593324
 20
32.60065680951459
 10
77.08241356582401
 20
32.59685066596841
 10
77.09741473577378
 20
32.59305726036393
 10
77.11240314890345
 20
32.58927703491429
 10
77.12737884832495
 20
32.58551043183128
 10
77.14234187713373
 20
32.58175789332028
 10
77.15729227846168
 20
32.57801986159722
 10
77.17223009540248
 20
32.57429677887432
 10
77.18715537108256
 20
32.57058908735837
 10
77.20206814860467
 20
32.56689722926251
 10
77.21696847108251
 20
32.56322164680035
 10
77.23185638162431
 20
32.55956278218049
 10
77.24673192334376
 20
32.55592107761514
 10
77.26159513935272
 20
32.55229697531389
 10
77.27644607276303
 20
32.54869091748982
 10
77.29128476669393
 20
32.54510334635428
 10
77.30611126423355
 20
32.54153470411722
 10
77.32092560851197
 20
32.5379854329891
 10
77.3357278426338
 20
32.53445597518531
 10
77.35051800971269
 20
32.53094677291132
 10
77.36529615285327
 20
32.52745826838111
 10
77.38006231518375
 20
32.52399090380652
 10
77.3948165398033
 20
32.52054512139749
 10
77.40955886982373
 20
32.51712136336539
 10
77.42428934835334
 20
32.51372007192243
 10
77.43900801850393
 20
32.51034168927857
 10
77.45371492339471
 20
32.50698665764514
 10
77.46841010613389
 20
32.50365541923439
 10
77.48309360982419
 20
32.5003484162563
 10
77.49776547759393
 20
32.49706609092447
 10
77.51242575253309
 20
32.49380888544431
 10
77.52707447777353
 20
32.49057724203352
 10
77.54171169641266
 20
32.4873716029016
 10
77.55633745156226
 20
32.48419241025623
 10
77.57095178634519
 20
32.48104010631333
 10
77.58555474386231
 20
32.4779151332806
 10
77.6001463672237
 20
32.47481793337157
 10
77.61472669955401
 20
32.47174894879492
 10
77.62929578394504
 20
32.46870862176514
 10
77.64385366352326
 20
32.46569739448943
 10
77.65840038139504
 20
32.46271570918327
 10
77.67293598066316
 20
32.45976400805524
 10
77.68746050445405
 20
32.45684273331665
 10
77.70197399587413
 20
32.45395232717749
 10
77.71647649803345
 20
32.45109323185364
 10
77.73096805403294
 20
32.44826588955049
 10
77.74544870700447
 20
32.44547074248214
 10
77.75991850004356
 20
32.44270823286217
 10
77.77437747626207
 20
32.43997880289693
 10
77.78882567878281
 20
32.43728289480134
 10
77.80326315070306
 20
32.4346209507836
 10
77.81768993514379
 20
32.43199341305636
 10
77.83210607521323
 20
32.42940072383147
 10
77.84651161401234
 20
32.42684332532019
 10
77.86090659467301
 20
32.42432165973117
 10
77.87529106030344
 20
32.42183616927842
 10
77.88966505399549
 20
32.41938729617334
 10
77.90402861887378
 20
32.4169754826231
 10
77.91838179805381
 20
32.41460117084318
 10
77.9327246346329
 20
32.41226480304443
 10
77.9470571717338
 20
32.40996682143634
 10
77.96137945247392
 20
32.40770766822936
 10
77.97569151994503
 20
32.40548778563754
 10
77.98999341727355
 20
32.40330761586994
 10
78.00428518756233
 20
32.40116760113744
 10
78.01856687393409
 20
32.39906818365318
 10
78.03283851948255
 20
32.39700980562668
 10
78.04710016733405
 20
32.39499290927062
 10
78.06135186059328
 20
32.39301793679409
 10
78.07559364237384
 20
32.39108533040929
 10
78.08982555578222
 20
32.38919553232846
 10
78.10404764393386
 20
32.38734898476343
 10
78.11825994994433
 20
32.3855461299205
 10
78.13246251691269
 20
32.38378741001737
 10
78.14665538796361
 20
32.38207326726126
 10
78.16083860620347
 20
32.38040414386307
 10
78.1750122147332
 20
32.37878048203413
 10
78.18917625668291
 20
32.3772027239903
 10
78.2033307751535
 20
32.37567131193657
 10
78.21747581325324
 20
32.37418668808835
 10
78.23161141410309
 20
32.37274929465332
 10
78.24573762080397
 20
32.37135957384419
 10
78.25985447647326
 20
32.37001796787456
 10
78.2739620242246
 20
32.36872491895121
 10
78.2880603071535
 20
32.3674808692882
 10
78.30214936839365
 20
32.36628626109825
 10
78.3162292510442
 20
32.36514153658903
 10
78.33029999821338
 20
32.36404713797321
 10
78.34436165301305
 20
32.3630035074599
 10
78.35841425857323
 20
32.36201108726538
 10
78.37245785797495
 20
32.36107031959738
 10
78.38649249435366
 20
32.36018164666541
 10
78.40051821081397
 20
32.35934551068442
 10
78.41453505045318
 20
32.35856235386346
 10
78.42854305641231
 20
32.35783261841392
 10
78.44254227177406
 20
32.35715674654704
 10
78.45653273966309
 20
32.35653518047514
 10
78.4705145031821
 20
32.35596836240812
 10
78.48448760545399
 20
32.35545673455601
 10
78.49845208958321
 20
32.35500073913328
 10
78.51240799868357
 20
32.35460081834947
 10
78.5263553758632
 20
32.35425741441314
 10
78.54029426423403
 20
32.3539709695416
 10
78.55422470691337
 20
32.35374192593928
 10
78.56814674700398
 20
32.35357072582303
 10
78.58206042762322
 20
32.35345781139915
 10
78.59596579187381
 20
32.35340362488307
 10
78.60986288288405
 20
32.35340860848292
 10
78.62375174374392
 20
32.35347320441143
 10
78.6376324175835
 20
32.35359785487993
 10
78.65150494749468
 20
32.35378300209925
 10
78.66536937660383
 20
32.35402908827939
 10
78.67922574802467
 20
32.35433655563439
 10
78.69307410485453
 20
32.35470584637107
 10
78.70691449021251
 20
32.35513740270528
 10
78.72074694721232
 20
32.35563166684562
 10
78.73457151896218
 20
32.35618908100299
 10
78.74838824857397
 20
32.35681008739049
 10
78.7621971791632
 20
32.35749512821769
 10
78.77599835382352
 20
32.35824464569633
 10
78.78979181569412
 20
32.35905908203732
 10
78.80357760786319
 20
32.35993887945108
 10
78.81735577344443
 20
32.36088448015117
 10
78.83112635556243
 20
32.36189632634762
 10
78.84488939732365
 20
32.36297486024989
 10
78.85864494183261
 20
32.36412052407207
 10
78.87239303220304
 20
32.36533376002411
 10
78.88613371154497
 20
32.36661501031643
 10
78.89986702297393
 20
32.36796471716081
 10
78.91359300960357
 20
32.36938332276997
 10
78.92731171454395
 20
32.37087126935159
 10
78.94102318089427
 20
32.37242899912018
 10
78.95472745178267
 20
32.37405695428435
 10
78.9684245703138
 20
32.37575557705725
 10
78.98211457959405
 20
32.37752530965019
 10
78.99579752273348
 20
32.37936659427225
 10
79.00947344285305
 20
32.38127987313657
 10
79.0231423830628
 20
32.38326558845268
 10
79.03680438647462
 20
32.3853241824346
 10
79.05045949618396
 20
32.38745609729051
 10
79.06410775532457
 20
32.38966177523218
 10
79.07774920699376
 20
32.39194165847186
 10
79.09138389430333
 20
32.39429618922179
 10
79.10501186037437
 20
32.39672580968921
 10
79.11863314830404
 20
32.39923096209043
 10
79.13224780121345
 20
32.40181208863271
 10
79.14585586221256
 20
32.40446963152646
 10
79.15945737440416
 20
32.40720403298621
 10
79.17305238091285
 20
32.41001573522419
 10
79.18664092485414
 20
32.41290518044674
 10
79.20022304931262
 20
32.41587281086832
 10
79.21379879742381
 20
32.41891906869899
 10
79.22736821229408
 20
32.42204439615136
 10
79.24093133702445
 20
32.42524923543317
 10
79.25448821473402
 20
32.42853402876028
 10
79.26803888853283
 20
32.4318992183413
 10
79.28158340154549
 20
32.43534524638711
 10
79.29512179685298
 20
32.43887255510855
 10
79.3086541175944
 20
32.44248158672019
 10
79.32218040686348
 20
32.44617278342923
 10
79.33570070778293
 20
32.44994658744838
 10
79.34921506346291
 20
32.45380344098896
 10
79.36272351701338
 20
32.45774378626276
 10
79.37622611153347
 20
32.4617680654793
 10
79.38972289015328
 20
32.46587672085126
 10
79.40321389597375
 20
32.47007019458907
 10
79.41669917211402
 20
32.47434892890407
 10
79.43017876167323
 20
32.47871336600804
 10
79.44365270777415
 20
32.48316394811137
 10
79.45712105351231
 20
32.48770111742635
 10
79.47058384202501
 20
32.4923253161611
 10
79.48404111639502
 20
32.49703698653103
 10
79.49749291974331
 20
32.50183657074524
 10
79.51093929519449
 20
32.5067245110141
 10
79.52438028585309
 20
32.51170124955217
 10
79.53781593481291
 20
32.51676722856621
 10
79.55124628521298
 20
32.52192289026938
 10
79.56467138014524
 20
32.52716867687343
 10
79.57809126272329
 20
32.53250503058927
 10
79.59150597607369
 20
32.53793239362688
 10
79.6049155632827
 20
32.54345120819937
 10
79.61832006748409
 20
32.54906191651537
 10
79.63171953177334
 20
32.55476496079029
 10
79.64511399927324
 20
32.56056078323139
 10
79.6585035130829
 20
32.5664498260504
 10
79.6718881163233
 20
32.57243253146056
 10
79.68526785211361
 20
32.57850934167039
 10
79.69502091210415
 20
32.58300952976618
  0
LINE
  5
D0
330
2
100
AcDbEntity
  8
0
100
AcDbLine
 10
71.49397044704166
 20
49.51635509104606
 30
0.0
 11
188.1914771348001
 21
49.51635509105472
 31
0.0
  0
DIMENSION
  5
D1
102
{ACAD_XDICTIONARY
360
D2
102
}
102
{ACAD_REACTORS
330
D3
102
}
330
2
100
AcDbEntity
  8
0
100
AcDbDimension
  2
*D27
 10
-59.8953399547481
 20
-25.09168637734001
 30
0.0
 11
-46.22257414502928
 21
-131.4054856167022
 31
0.0
 70
   162
  3
STANDARD
100
AcDb2LineAngularDimension
 13
-43.32679745983114
 23
-112.2638095857373
 33
0.0
 14
-59.8953399547481
 24
-72.26380958573736
 34
0.0
 15
-59.8953399547481
 25
-119.4359327941338
 35
0.0
 16
-51.97219325982565
 26
-132.4460836794417
 36
0.0
1001
ACAD
1000
DSTYLE
1002
{
1070
   271
1070
     1
1070
   179
1070
     1
1070
   271
1070
     0
1070
   271
1070
     1
1070
   271
1070
     1
1070
   271
1070
     1
1070
   271
1070
     1
1070
   271
1070
     1
1002
}
  0
LINE
  5
E2
330
2
100
AcDbEntity
  8
0
 62
   123
 48
0.6
100
AcDbLine
 10
66.76686001213056
 20
-136.4516249114481
 30
0.0
 11
7.5127021847602
 21
-136.4516249114481
 31
0.0
  0
TEXT
  5
E3
330
2
100
AcDbEntity
  8
DIM
100
AcDbText
 10
8.882722235752224
 20
-134.4516249114481
 30
0.0
 40
3.5
  1
 LEAD WIRE 300mm
100
AcDbText
  0
DIMENSION
  5
E5
102
{ACAD_XDICTIONARY
360
E6
102
}
102
{ACAD_REACTORS
330
E7
102
}
330
2
100
AcDbEntity
  8
0
100
AcDbDimension
  2
*D35
 10
59.30382269825168
 20
-54.23542351185187
 30
0.0
 11
46.80382269825168
 21
-54.23542351185187
 31
0.0
 70
   160
  3
STANDARD
100
AcDbAlignedDimension
 13
34.30382269825168
 23
-69.26380958573736
 33
0.0
 14
59.30382269825168
 24
-68.26380958573736
 34
0.0
100
AcDbRotatedDimension
  0
DIMENSION
  5
F4
330
2
100
AcDbEntity
  8
0
100
AcDbDimension
  2
*D34
 10
66.30382269825168
 20
1.083235232028981
 30
0.0
 11
50.30382269825167
 21
1.083235232028981
 31
0.0
 70
   160
  3
STANDARD
100
AcDbAlignedDimension
 13
34.30382269825168
 23
-68.26380958573736
 33
0.0
 14
66.30382269825168
 24
-32.26380958573735
 34
0.0
100
AcDbRotatedDimension
  0
ARC
  5
101
330
2
100
AcDbEntity
  8
0
 48
0.6
100
AcDbCircle
 10
-33.86160126988943
 20
-59.343742095994
 30
0.0
 40
2.644799999999999
100
AcDbArc
 50
321.9486744806221
 51
26.36567250321681
  0
DIMENSION
  5
102
330
2
100
AcDbEntity
  8
0
100
AcDbDimension
  2
*D33
 10
12.27699080280216
 20
-76.26380958573735
 30
0.0
 11
12.27699080280217
 21
-72.26380958573734
 31
0.0
 70
   160
  1
\A1;%%c<>{\H0.7x;\S+0^ -0.015;}(h7)
  3
STANDARD
100
AcDbAlignedDimension
 13
59.30382269825168
 23
-68.26380958573736
 33
0.0
 14
34.30382269825168
 24
-76.26380958573736
 34
0.0
 50
90.0
100
AcDbRotatedDimension
  0
LINE
  5
10F
102
{ACAD_REACTORS
330
E7
102
}
330
2
100
AcDbEntity
  8
CL
  6
BYBLOCK
 62
     0
100
AcDbLine
 10
64.30382269825168
 20
-68.26380958573736
 30
0.0
 11
59.30382269825168
 21
-68.26380958573736
 31
0.0
  0
LINE
  5
112
330
2
100
AcDbEntity
  8
0
100
AcDbLine
 10
59.30382269825168
 20
-68.26380958573736
 30
0.0
 11
59.30382269825168
 21
-69.26380958573736
 31
0.0
  0
LINE
  5
113
102
{ACAD_REACTORS
330
E7
330
11C
102
}
330
2
100
AcDbEntity
  8
0
100
AcDbLine
 10
34.30382269825168
 20
-69.26380958573736
 30
0.0
 11
34.30382269825168
 21
-76.26380958573736
 31
0.0
  0
LINE
  5
114
102
{ACAD_REACTORS
330
11C
102
}
330
2
100
AcDbEntity
  8
CL
  6
BYBLOCK
 62
     0
100
AcDbLine
 10
64.30382269825168
 20
-76.26380958573736
 30
0.0
 11
34.30382269825168
 21
-76.26380958573736
 31
0.0
  0
LINE
  5
115
330
2
100
AcDbEntity
  8
CL
  6
BYBLOCK
 62
     0
100
AcDbLine
 10
59.30382269825168
 20
-69.26380958573736
 30
0.0
 11
34.30382269825168
 21
-69.26380958573736
 31
0.0
  0
ARC
  5
116
330
2
100
AcDbEntity
  8
0
 48
0.6
100
AcDbCircle
 10
-59.92810981823095
 20
-72.26380958573736
 30
0.0
 40
29.09279999999998
100
AcDbArc
 50
342.2801918472013
 51
17.71980815279839
  0
ARC
  5
117
330
2
100
AcDbEntity
  8
0
 48
0.6
100
AcDbCircle
 10
-29.69625852228819
 20
-62.60407765464788
 30
0.0
 40
2.644799999999999
100
AcDbArc
 50
141.9486744806222
 51
197.7198081527984
  0
ARC
  5
118
330
2
100
AcDbEntity
  8
0
 48
0.6
100
AcDbCircle
 10
-33.86160126988943
 20
-85.18387707548072
 30
0.0
 40
2.644799999999999
100
AcDbArc
 50
333.6343274967831
 51
38.05132551937779
  0
ARC
  5
119
330
2
100
AcDbEntity
  8
0
 48
0.6
100
AcDbCircle
 10
-29.69625852228819
 20
-81.9235415168273
 30
0.0
 40
2.644799999999999
100
AcDbArc
 50
162.2801918472015
 51
218.0513255193776
  0
DIMENSION
  5
11A
102
{ACAD_XDICTIONARY
360
11B
102
}
102
{ACAD_REACTORS
330
11C
102
}
330
2
100
AcDbEntity
  8
0
100
AcDbDimension
  2
*D32
 10
21.31389465926985
 20
-69.26380958573735
 30
0.0
 11
21.31389465926985
 21
-72.76380958573736
 31
0.0
 70
   160
  3
STANDARD
100
AcDbAlignedDimension
 13
34.30382269825168
 23
-76.26380958573736
 33
0.0
 14
34.30382269825168
 24
-69.26380958573736
 34
0.0
 50
90.0
100
AcDbRotatedDimension
  0
LINE
  5
129
330
2
100
AcDbEntity
  8
0
100
AcDbLine
 10
66.30382269825168
 20
-32.26380958573735
 30
0.0
 11
72.40382269825204
 21
-32.26380958573735
 31
0.0
  0
LINE
  5
12A
330
2
100
AcDbEntity
  8
0
100
AcDbLine
 10
66.30382269825168
 20
-35.76380958573735
 30
0.0
 11
64.30382269825168
 21
-35.76380958573735
 31
0.0
  0
LINE
  5
12B
102
{ACAD_REACTORS
330
13F
102
}
330
2
100
AcDbEntity
  8
0
100
AcDbLine
 10
72.40382269825204
 20
-33.66507224420866
 30
0.0
 11
73.30382269825169
 21
-33.66507224420866
 31
0.0
  0
LINE
  5
12C
330
2
100
AcDbEntity
  8
0
100
AcDbLine
 10
72.40382269825204
 20
-41.36507224420802
 30
0.0
 11
73.30382269825169
 21
-41.36507224420802
 31
0.0
  0
LINE
  5
12D
330
2
100
AcDbEntity
  8
0
100
AcDbLine
 10
73.30382269825169
 20
-41.36507224420802
 30
0.0
 11
73.30382269825169
 21
-33.66507224420866
 31
0.0
  0
DIMENSION
  5
12E
330
2
100
AcDbEntity
  8
0
100
AcDbDimension
  2
*D31
 10
66.30382269825168
 20
-20.05547625240523
 30
0.0
 11
65.30382269825167
 21
-20.05547625240523
 31
0.0
 70
   160
  3
STANDARD
100
AcDbAlignedDimension
 13
64.30382269825168
 23
-35.76380958573735
 33
0.0
 14
66.30382269825168
 24
-32.26380958573735
 34
0.0
100
AcDbRotatedDimension
  0
DIMENSION
  5
13D
102
{ACAD_XDICTIONARY
360
13E
102
}
102
{ACAD_REACTORS
330
13F
102
}
330
2
100
AcDbEntity
  8
0
100
AcDbDimension
  2
*D30
 10
73.30382269825169
 20
-10.46539456935396
 30
0.0
 11
69.80382269825168
 21
-10.46539456935396
 31
0.0
 70
   160
  3
STANDARD
100
AcDbAlignedDimension
 13
66.30382269825168
 23
-28.05547625240524
 33
0.0
 14
73.30382269825169
 24
-33.66507224420866
 34
0.0
100
AcDbRotatedDimension
  0
ARC
  5
14C
102
{ACAD_REACTORS
330
163
102
}
330
2
100
AcDbEntity
  8
0
 48
0.6
100
AcDbCircle
 10
-24.89533995474812
 20
-37.26380958573735
 30
0.0
 40
5.0
100
AcDbArc
 50
0.0
 51
90.0
  0
ARC
  5
14D
330
2
100
AcDbEntity
  8
0
 48
0.6
100
AcDbCircle
 10
-85.99461836655974
 20
-59.343742095994
 30
0.0
 40
2.644799999999999
100
AcDbArc
 50
153.634327496783
 51
218.0513255193776
  0
CIRCLE
  5
14E
330
2
100
AcDbEntity
  8
0
 48
0.6
100
AcDbCircle
 10
-59.8953399547481
 20
-72.26380958573736
 30
0.0
 40
13.0
  0
ARC
  5
14F
330
2
100
AcDbEntity
  8
0
 48
0.6
100
AcDbCircle
 10
-59.92810981823095
 20
-72.26380958573736
 30
0.0
 40
29.09279999999998
100
AcDbArc
 50
162.2801918472015
 51
197.7198081527984
  0
ARC
  5
150
330
2
100
AcDbEntity
  8
0
 48
0.6
100
AcDbCircle
 10
-90.15996111415915
 20
-62.60407765464788
 30
0.0
 40
2.644799999999999
100
AcDbArc
 50
342.2801918472013
 51
38.05132551937779
  0
ARC
  5
151
330
2
100
AcDbEntity
  8
0
 48
0.6
100
AcDbCircle
 10
-85.99461836655974
 20
-85.18387707548072
 30
0.0
 40
2.644799999999999
100
AcDbArc
 50
141.9486744806222
 51
206.3656725032168
  0
ARC
  5
152
330
2
100
AcDbEntity
  8
0
 48
0.6
100
AcDbCircle
 10
-90.15996111415915
 20
-81.9235415168273
 30
0.0
 40
2.644799999999999
100
AcDbArc
 50
321.9486744806221
 51
17.71980815279839
  0
CIRCLE
  5
153
330
2
100
AcDbEntity
  8
0
 48
0.6
100
AcDbCircle
 10
-59.8953399547481
 20
-72.26380958573736
 30
0.0
 40
4.0
  0
CIRCLE
  5
154
330
2
100
AcDbEntity
  8
0
100
AcDbCircle
 10
-59.92559168037949
 20
-72.26380958573736
 30
0.0
 40
3.604999999999998
  0
LWPOLYLINE
  5
155
330
2
100
AcDbEntity
  8
3
100
AcDbPolyline
 90
        4
 70
     1
 43
0.0
 10
-65.53810072956912
 20
-16.25827037717225
 10
-62.23810072958077
 20
-16.25827037717225
 10
-62.23810072958077
 20
-12.75827037717226
 10
-65.53810072956912
 20
-12.75827037717226
  0
ARC
  5
157
330
2
100
AcDbEntity
  8
0
 48
0.6
100
AcDbCircle
 10
-50.26837788713964
 20
-42.03195828980279
 30
0.0
 40
2.644799999999999
100
AcDbArc
 50
252.2801918471949
 51
308.0513255193868
  0
ARC
  5
158
330
2
100
AcDbEntity
  8
0
 48
0.6
100
AcDbCircle
 10
-59.92810981823095
 20
-72.26380958573736
 30
0.0
 40
31.73759999999999
100
AcDbArc
 50
116.3656725032109
 51
153.634327496783
  0
ARC
  5
159
330
2
100
AcDbEntity
  8
0
 48
0.6
100
AcDbCircle
 10
-72.84817730796929
 20
-46.19730103740221
 30
0.0
 40
2.644799999999999
100
AcDbArc
 50
51.94867448061305
 51
116.3656725032109
  0
ARC
  5
15A
330
2
100
AcDbEntity
  8
0
 48
0.6
100
AcDbCircle
 10
-69.58784174930952
 20
-42.03195828980279
 30
0.0
 40
2.644799999999999
100
AcDbArc
 50
231.948674480613
 51
287.7198081528051
  0
ARC
  5
15B
330
2
100
AcDbEntity
  8
0
 48
0.6
100
AcDbCircle
 10
-59.92810981823095
 20
-72.26380958573736
 30
0.0
 40
29.09279999999998
100
AcDbArc
 50
72.28019184719491
 51
107.7198081528049
  0
ARC
  5
15C
330
2
100
AcDbEntity
  8
0
 48
0.6
100
AcDbCircle
 10
-47.00804232847985
 20
-46.19730103740221
 30
0.0
 40
2.644799999999999
100
AcDbArc
 50
63.63432749678904
 51
128.0513255193867
  0
ARC
  5
15D
102
{ACAD_REACTORS
330
163
102
}
330
2
100
AcDbEntity
  8
0
 48
0.6
100
AcDbCircle
 10
-94.89533995474811
 20
-37.26380958573735
 30
0.0
 40
5.0
100
AcDbArc
 50
90.0
 51
180.0
  0
LINE
  5
15E
330
2
100
AcDbEntity
  8
CEN
 48
0.6
100
AcDbLine
 10
-103.9723296803404
 20
-72.26380958573736
 30
0.0
 11
-15.81835022914856
 21
-72.26380958573736
 31
0.0
  0
ARC
  5
15F
330
2
100
AcDbEntity
  8
0
 48
0.6
100
AcDbCircle
 10
-59.92810981823095
 20
-72.26380958573736
 30
0.0
 40
31.73759999999999
100
AcDbArc
 50
26.36567250321681
 51
63.63432749678904
  0
LINE
  5
160
330
2
100
AcDbEntity
  8
0
 48
0.6
100
AcDbLine
 10
-94.89533995474811
 20
-32.26380958573735
 30
0.0
 11
-24.89533995474812
 21
-32.26380958573735
 31
0.0
  0
DIMENSION
  5
161
102
{ACAD_XDICTIONARY
360
162
102
}
102
{ACAD_REACTORS
330
163
102
}
330
2
100
AcDbEntity
  8
0
100
AcDbDimension
  2
*D29
 10
-19.89533995474812
 20
-17.5357199379191
 30
0.0
 11
-57.83120956180937
 21
-17.5357199379191
 31
0.0
 70
   160
  3
STANDARD
100
AcDbAlignedDimension
 13
-99.89533995474811
 23
-37.26380958573735
 33
0.0
 14
-19.89533995474812
 24
-37.26380958573735
 34
0.0
100
AcDbRotatedDimension
  0
MTEXT
  5
170
102
{ACAD_REACTORS
330
171
102
}
330
2
100
AcDbEntity
  8
0
 62
     3
100
AcDbMText
 10
-39.70789352505925
 20
-8.403031397374887
 30
0.0
 40
3.0
 41
0.0
 71
     9
 72
     1
  1
4-%%C5.5 hole
1001
ACAD
1000
MTEXTBEGIN
1070
    73
1070
     1
1070
    44
1040
1.0
1070
    74
1070
     0
1000
MTEXTEND
1000
MTEXTBEGIN
1070
    73
1070
     1
1070
    44
1040
1.0
1070
    74
1070
     0
1000
MTEXTEND
1000
MTEXTBEGIN
1070
    73
1070
     1
1070
    44
1040
1.0
1070
    74
1070
     0
1000
MTEXTEND
  0
LEADER
  5
171
330
2
100
AcDbEntity
  8
0
100
AcDbLeader
  3
STANDARD
 73
     0
 75
     1
 40
3.0
 41
26.65178571428571
 76
     3
 10
-26.66132123898023
 20
-36.27979086996993
 30
0.0
 10
-36.20789352505925
 20
-9.403031397374887
 30
0.0
 10
-38.70789352505925
 20
-9.403031397374887
 30
0.0
340
170
1001
ACAD
1000
DSTYLE
1002
{
1070
     5
1000

1070
   342
1005
0
1002
}
  0
LINE
  5
172
330
2
100
AcDbEntity
  8
0
100
AcDbLine
 10
73.30382269825169
 20
-103.1625469272666
 30
0.0
 11
73.30382269825169
 21
-110.8625469272665
 31
0.0
  0
LINE
  5
173
330
2
100
AcDbEntity
  8
0
100
AcDbLine
 10
66.30382269825168
 20
-112.2638095857373
 30
0.0
 11
72.40382269825204
 21
-112.2638095857373
 31
0.0
  0
LINE
  5
174
330
2
100
AcDbEntity
  8
0
100
AcDbLine
 10
66.30382269825168
 20
-108.7638095857373
 30
0.0
 11
64.30382269825168
 21
-108.7638095857373
 31
0.0
  0
ARC
  5
175
330
2
100
AcDbEntity
  8
0
100
AcDbCircle
 10
73.80382269825169
 20
-112.2638095857373
 30
0.0
 40
0.5
100
AcDbArc
 50
180.0
 51
270.0
  0
LINE
  5
176
330
2
100
AcDbEntity
  8
0
100
AcDbLine
 10
73.30382269825169
 20
-111.7638095857373
 30
0.0
 11
73.30382269825169
 21
-112.2638095857373
 31
0.0
  0
LINE
  5
177
330
2
100
AcDbEntity
  8
0
100
AcDbLine
 10
72.40382269825204
 20
-110.8625469272665
 30
0.0
 11
73.30382269825169
 21
-110.8625469272665
 31
0.0
  0
LINE
  5
178
330
2
100
AcDbEntity
  8
0
100
AcDbLine
 10
72.40382269825204
 20
-103.1625469272666
 30
0.0
 11
73.30382269825169
 21
-103.1625469272666
 31
0.0
  0
ARC
  5
179
330
2
100
AcDbEntity
  8
0
 48
0.6
100
AcDbCircle
 10
-24.89533995474812
 20
-107.2638095857373
 30
0.0
 40
5.0
100
AcDbArc
 50
270.0
 51
0.0
  0
ARC
  5
17A
330
2
100
AcDbEntity
  8
0
 48
0.6
100
AcDbCircle
 10
-8.516665753348206
 20
-97.44854011584994
 30
0.0
 40
33.95579199999998
100
AcDbArc
 50
205.86871404083
 51
220.5962187217288
  0
LWPOLYLINE
  5
17B
330
2
100
AcDbEntity
  8
0
100
AcDbPolyline
 90
      548
 70
     0
 43
0.0
 10
-41.11058437310929
 20
-122.3825711705138
 10
-41.10756895799021
 20
-122.3679977557299
 10
-41.10402050665834
 20
-122.3513380670609
 10
-41.10039308848899
 20
-122.3347850215946
 10
-41.09668695820983
 20
-122.318338263462
 10
-41.09290237059028
 20
-122.3019974367856
 10
-41.089039580389
 20
-122.2857621856969
 10
-41.0850988423699
 20
-122.269632154321
 10
-41.08108041127889
 20
-122.2536069867856
 10
-41.07698454187993
 20
-122.2376863272159
 10
-41.07281148892979
 20
-122.2218698197415
 10
-41.06856150717976
 20
-122.2061571084889
 10
-41.0642348513993
 20
-122.190547837586
 10
-41.05983177633969
 20
-122.1750416511572
 10
-41.05535253674861
 20
-122.1596381933329
 10
-41.05079738741006
 20
-122.1443371082391
 10
-41.04616658304802
 20
-122.129138040001
 10
-41.04146037844839
 20
-122.114040632749
 10
-41.03667902835877
 20
-122.09904453061
 10
-41.03182278752863
 20
-122.0841493777045
 10
-41.02689191071839
 20
-122.0693548181698
 10
-41.02188665269931
 20
-122.0546604961275
 10
-41.01680726820997
 20
-122.0400660557029
 10
-41.01165401201979
 20
-122.0255711410276
 10
-41.00642713888919
 20
-122.0111753962264
 10
-41.00112690356035
 20
-121.9968784654287
 10
-40.99575356079911
 20
-121.9826799927582
 10
-40.99030736536952
 20
-121.9685796223447
 10
-40.98478857201917
 20
-121.9545769983128
 10
-40.97919743550845
 20
-121.9406717647909
 10
-40.97353421059778
 20
-121.9268635659085
 10
-40.96779915204932
 20
-121.9131520457888
 10
-40.96199251459802
 20
-121.899536848563
 10
-40.95611455302969
 20
-121.886017618356
 10
-40.95016552208835
 20
-121.8725939992918
 10
-40.94414567653984
 20
-121.8592656355039
 10
-40.93805527111908
 20
-121.8460321711147
 10
-40.9318945606101
 20
-121.8328932502529
 10
-40.92566379976051
 20
-121.8198485170469
 10
-40.91936324331982
 20
-121.8068976156218
 10
-40.91299314604838
 20
-121.794040190106
 10
-40.90655376271935
 20
-121.7812758846257
 10
-40.90004534806939
 20
-121.768604343309
 10
-40.89346815686986
 20
-121.7560252102816
 10
-40.88682244387928
 20
-121.743538129674
 10
-40.88010846383986
 20
-121.7311427456087
 10
-40.87332647151924
 20
-121.7188387022145
 10
-40.86647672167964
 20
-121.706625643624
 10
-40.8595594690687
 20
-121.694503213955
 10
-40.85257496844859
 20
-121.6824710573387
 10
-40.84552347457974
 20
-121.6705288179057
 10
-40.83840524221886
 20
-121.6586761397775
 10
-40.83122052611907
 20
-121.6469126670876
 10
-40.8239695810389
 20
-121.6352380439565
 10
-40.81665266174058
 20
-121.6236519145172
 10
-40.80927002296811
 20
-121.6121539228915
 10
-40.80182191949824
 20
-121.6007437132087
 10
-40.79430860608043
 20
-121.5894209295987
 10
-40.78673033746054
 20
-121.578185216184
 10
-40.7790873684189
 20
-121.5670362170939
 10
-40.77137995368866
 20
-121.5559735764566
 10
-40.76360834804837
 20
-121.5449969383989
 10
-40.75577280623838
 20
-121.5341059470451
 10
-40.74787358303001
 20
-121.5233002465269
 10
-40.73991093317999
 20
-121.512579480969
 10
-40.73188511143053
 20
-121.5019432944981
 10
-40.72379637256017
 20
-121.491391331242
 10
-40.71564497129839
 20
-121.4809232353259
 10
-40.70743116243829
 20
-121.4705386508817
 10
-40.69915520070935
 20
-121.4602372220326
 10
-40.69081734088103
 20
-121.4500185929068
 10
-40.68241783769916
 20
-121.4398824076313
 10
-40.67395694593868
 20
-121.4298283103306
 10
-40.66543492034907
 20
-121.4198559451401
 10
-40.65685201569065
 20
-121.4099649561771
 10
-40.64820848671843
 20
-121.4001549875761
 10
-40.63950458817997
 20
-121.390425683458
 10
-40.63074057484846
 20
-121.3807766879554
 10
-40.62191670148059
 20
-121.3712076451919
 10
-40.61303322281854
 20
-121.3617181992981
 10
-40.60409039363912
 20
-121.3523079943995
 10
-40.59508846868992
 20
-121.3429766746203
 10
-40.58602770271863
 20
-121.3337238840908
 10
-40.57690835049834
 20
-121.3245492669375
 10
-40.56773066678032
 20
-121.3154524672884
 10
-40.55849490631771
 20
-121.3064331292696
 10
-40.54920132388907
 20
-121.2974908970066
 10
-40.53985017422928
 20
-121.288625414631
 10
-40.53044171209875
 20
-121.2798363262667
 10
-40.52097619225969
 20
-121.2711232760416
 10
-40.51145386946882
 20
-121.2624859080809
 10
-40.50187499848834
 20
-121.2539238665157
 10
-40.49223983406955
 20
-121.2454367954694
 10
-40.48254863096917
 20
-121.2370243390737
 10
-40.47280164394942
 20
-121.2286861414467
 10
-40.46299912775976
 20
-121.2204218467272
 10
-40.45314133716964
 20
-121.2122310990348
 10
-40.44322852693039
 20
-121.2041135424992
 10
-40.43326095178963
 20
-121.196068821246
 10
-40.42323886651865
 20
-121.1880965794047
 10
-40.41316252587967
 20
-121.1801964611007
 10
-40.4030321846185
 20
-121.1723681104617
 10
-40.39284809749005
 20
-121.1646111716147
 10
-40.38261051925839
 20
-121.1569252886855
 10
-40.37231970468019
 20
-121.1493101058048
 10
-40.36197590851952
 20
-121.1417652670957
 10
-40.35157938551856
 20
-121.1342904166881
 10
-40.3411303904486
 20
-121.1268851987078
 10
-40.33062917805909
 20
-121.1195492572805
 10
-40.32007600310861
 20
-121.1122822365391
 10
-40.30947112036119
 20
-121.1050837806042
 10
-40.2988147845699
 20
-121.0979535336059
 10
-40.2881072504897
 20
-121.0908911396723
 10
-40.27734877287912
 20
-121.0838962429269
 10
-40.26653960649855
 20
-121.0769684875017
 10
-40.25568000609928
 20
-121.070107517521
 10
-40.24477022644896
 20
-121.0633129771108
 10
-40.23381052228979
 20
-121.0565845104017
 10
-40.2228011483985
 20
-121.0499217615179
 10
-40.21174235951912
 20
-121.0433243745874
 10
-40.20063441041929
 20
-121.0367919937389
 10
-40.1894775558394
 20
-121.0303242630961
 10
-40.17827205055982
 20
-121.0239208267887
 10
-40.16701814931912
 20
-121.0175813289429
 10
-40.15571610687946
 20
-121.0113054136882
 10
-40.14436617799765
 20
-121.0050927251486
 10
-40.13296861743947
 20
-120.998942907453
 10
-40.12152367995986
 20
-120.9928556047284
 10
-40.11003162031011
 20
-120.9868304611022
 10
-40.09849269324877
 20
-120.9808671206978
 10
-40.08690715353987
 20
-120.974965227648
 10
-40.07527525593832
 20
-120.969124426077
 10
-40.06359725519906
 20
-120.9633443601128
 10
-40.05187340608062
 20
-120.9576246738797
 10
-40.04010396333067
 20
-120.9519650115097
 10
-40.02828918172963
 20
-120.9463650171282
 10
-40.01642931601053
 20
-120.9408243348589
 10
-40.00452462094836
 20
-120.9353426088328
 10
-39.99257535129982
 20
-120.9299194831769
 10
-39.98058176180892
 20
-120.9245546020178
 10
-39.96854410723971
 20
-120.9192476094799
 10
-39.95646264235984
 20
-120.913998149696
 10
-39.94433762190963
 20
-120.908805866788
 10
-39.93216930065864
 20
-120.9036704048839
 10
-39.91995793335989
 20
-120.898591408114
 10
-39.9077037747811
 20
-120.8935685206015
 10
-39.89540707965897
 20
-120.8886013864767
 10
-39.88306810275935
 20
-120.883689649866
 10
-39.87068709884988
 20
-120.8788329548937
 10
-39.85826432268004
 20
-120.8740309456934
 10
-39.8458000290102
 20
-120.8692832663855
 10
-39.83329447259892
 20
-120.864589561098
 10
-39.82074790819024
 20
-120.8599494739622
 10
-39.80816059055904
 20
-120.855362649102
 10
-39.79553277446028
 20
-120.8508287306435
 10
-39.78286471463978
 20
-120.8463473627202
 10
-39.77015666586884
 20
-120.8419181894519
 10
-39.75740888288965
 20
-120.8375408549684
 10
-39.74462162048075
 20
-120.833215003397
 10
-39.73179513338072
 20
-120.8289402788668
 10
-39.71892967634992
 20
-120.8247163255027
 10
-39.7060255041597
 20
-120.8205427874309
 10
-39.69308287154854
 20
-120.8164193087795
 10
-39.68010203328049
 20
-120.8123455336794
 10
-39.66708324413048
 20
-120.8083211062517
 10
-39.65402675882979
 20
-120.8043456706259
 10
-39.64093283214788
 20
-120.8004188709319
 10
-39.62780171883969
 20
-120.7965403512907
 10
-39.61463367366923
 20
-120.7927097558358
 10
-39.60142895138961
 20
-120.788926728693
 10
-39.58818780675938
 20
-120.785190913983
 10
-39.57491049452983
 20
-120.7815019558429
 10
-39.56159726946862
 20
-120.7778594983938
 10
-39.54824838632885
 20
-120.774263185762
 10
-39.53486409985996
 20
-120.7707126620789
 10
-39.52144466482968
 20
-120.7672075714704
 10
-39.50799033599833
 20
-120.76374755806
 10
-39.49450136810992
 20
-120.7603322659781
 10
-39.4809780159394
 20
-120.7569613393536
 10
-39.46742053423077
 20
-120.7536344223112
 10
-39.45382917773895
 20
-120.7503511589752
 10
-39.44020420122979
 20
-120.7471111934782
 10
-39.42654585946002
 20
-120.7439141699437
 10
-39.4128544071882
 20
-120.7407597325
 10
-39.39913009916926
 20
-120.7376475252758
 10
-39.38537319015995
 20
-120.7345771923965
 10
-39.37158393491881
 20
-120.7315483779879
 10
-39.35776258819895
 20
-120.7285607261809
 10
-39.34390940476987
 20
-120.7256138810979
 10
-39.330024639381
 20
-120.72270748687
 10
-39.31610854678
 20
-120.7198411876237
 10
-39.3021613817491
 20
-120.7170146274836
 10
-39.28818339901953
 20
-120.7142274505794
 10
-39.2741748533699
 20
-120.7114793010368
 10
-39.26013599954058
 20
-120.708769822987
 10
-39.24606709229919
 20
-120.7060986605509
 10
-39.23196838639887
 20
-120.7034654578587
 10
-39.21784013661088
 20
-120.7008698590392
 10
-39.20368259766837
 20
-120.6983115082157
 10
-39.18949602434803
 20
-120.695790049519
 10
-39.17528067139937
 20
-120.6933051270719
 10
-39.16103679358093
 20
-120.690856385007
 10
-39.14676464564763
 20
-120.6884434674465
 10
-39.13246448235986
 20
-120.6860660185237
 10
-39.11813655847982
 20
-120.683723682358
 10
-39.1037811287606
 20
-120.681416103082
 10
-39.08939844795895
 20
-120.679142924821
 10
-39.07498877082979
 20
-120.6769037917019
 10
-39.06055235213898
 20
-120.6746983478517
 10
-39.0460894466305
 20
-120.672526237401
 10
-39.03160030906838
 20
-120.6703871044706
 10
-39.01708519422935
 20
-120.6682805931932
 10
-39.00254435683928
 20
-120.6662063476951
 10
-38.98797805168033
 20
-120.6641640120988
 10
-38.97338653348924
 20
-120.6621532305369
 10
-38.95877005703005
 20
-120.6601736471347
 10
-38.94412887707949
 20
-120.6582249060197
 10
-38.92946324836884
 20
-120.6563066513181
 10
-38.91477342566941
 20
-120.6544185271563
 10
-38.90005966372882
 20
-120.6525601776638
 10
-38.8853222173202
 20
-120.6507312469657
 10
-38.87056134118938
 20
-120.6489313791897
 10
-38.85577729009856
 20
-120.6471602184647
 10
-38.84097031879901
 20
-120.6454174089158
 10
-38.82614068206021
 20
-120.6437025946706
 10
-38.81128863462981
 20
-120.6420154198571
 10
-38.7964144312591
 20
-120.6403555286019
 10
-38.78151832671935
 20
-120.6387225650308
 10
-38.76660057576918
 20
-120.6371161732716
 10
-38.75166143314891
 20
-120.6355359974559
 10
-38.73670115362983
 20
-120.6339816817026
 10
-38.72171999196871
 20
-120.6324528701452
 10
-38.70671820291864
 20
-120.630949206909
 10
-38.69169604124909
 20
-120.6294703361209
 10
-38.67665376169862
 20
-120.6280159019047
 10
-38.66159161902942
 20
-120.6265855483948
 10
-38.64650986800914
 20
-120.625178919713
 10
-38.63140876338912
 20
-120.6237956599889
 10
-38.61628855993149
 20
-120.6224354133486
 10
-38.60114951238029
 20
-120.6210978239177
 10
-38.58599187550861
 20
-120.6197825358285
 10
-38.57081590406959
 20
-120.6184891932029
 10
-38.55562185281085
 20
-120.6172174401699
 10
-38.54040997650008
 20
-120.6159669208535
 10
-38.52518052989942
 20
-120.6147372793874
 10
-38.50993376774932
 20
-120.6135281598949
 10
-38.49466994483009
 20
-120.6123392065032
 10
-38.47938931588032
 20
-120.6111700633377
 10
-38.46409213565856
 20
-120.6100203745309
 10
-38.44877865892886
 20
-120.6088897842059
 10
-38.4334491404479
 20
-120.6077779364889
 10
-38.41810383497977
 20
-120.6066844755076
 10
-38.40274299727025
 20
-120.6056090453939
 10
-38.38736688207971
 20
-120.6045512902701
 10
-38.37197574416859
 20
-120.6035108542651
 10
-38.35656983828993
 20
-120.602487381503
 10
-38.3411494192096
 20
-120.6014805161147
 10
-38.3257147416698
 20
-120.6004899022268
 10
-38.31026606044906
 20
-120.5995151839642
 10
-38.29480363028959
 20
-120.5985560054582
 10
-38.27932770595907
 20
-120.5976120108315
 10
-38.26383854219784
 20
-120.5966828442132
 10
-38.24833639378994
 20
-120.5957681497302
 10
-38.23282151545936
 20
-120.5948675715099
 10
-38.21729416199922
 20
-120.593980753679
 10
-38.20175458813901
 20
-120.5931073403667
 10
-38.18620304864817
 20
-120.5922469756955
 10
-38.17063979827981
 20
-120.5913993037979
 10
-38.15506509179795
 20
-120.5905639687997
 10
-38.13947918395934
 20
-120.589740614824
 10
-38.12388232951889
 20
-120.5889288860021
 10
-38.10827478324063
 20
-120.5881284264578
 10
-38.09265679985946
 20
-120.5873388803236
 10
-38.07702863415943
 20
-120.5865598917229
 10
-38.06139054088815
 20
-120.5857911047837
 10
-38.04574277479878
 20
-120.5850321636319
 10
-38.03008559064799
 20
-120.5842827123946
 10
-38.01441924320897
 20
-120.5835423952015
 10
-37.99874398722022
 20
-120.5828108561771
 10
-37.98306007744939
 20
-120.5820877394512
 10
-37.96736776864964
 20
-120.5813726891474
 10
-37.95166731557946
 20
-120.5806653493967
 10
-37.93595897299747
 20
-120.579965364323
 10
-37.92024299566946
 20
-120.5792723780549
 10
-37.90451963833948
 20
-120.5785860347208
 10
-37.8887891557697
 20
-120.5779059784445
 10
-37.87305180271868
 20
-120.5772318533568
 10
-37.85730783393955
 20
-120.5765633035807
 10
-37.84155750419813
 20
-120.5758999732479
 10
-37.82580106824934
 20
-120.5752415064844
 10
-37.81003878083902
 20
-120.5745875474139
 10
-37.79427089674027
 20
-120.5739377401678
 10
-37.77849767070984
 20
-120.5732917288719
 10
-37.7627193574899
 20
-120.5726491576529
 10
-37.74693621185906
 20
-120.5720096706359
 10
-37.73114848854857
 20
-120.5713729119542
 10
-37.71535644233881
 20
-120.5707385257269
 10
-37.69956032799017
 20
-120.5701061560864
 10
-37.68376040023939
 20
-120.5694754471587
 10
-37.66795691384868
 20
-120.568846043071
 10
-37.65215012358931
 20
-120.5682175879492
 10
-37.63634028420892
 20
-120.5675897259252
 10
-37.62052765046972
 20
-120.5669621011191
 10
-37.60471247711938
 20
-120.5663343576609
 10
-37.58889501892918
 20
-120.56570613968
 10
-37.57307553064856
 20
-120.5650770913015
 10
-37.55725426703065
 20
-120.5644468566551
 10
-37.54143148283947
 20
-120.563815079863
 10
-37.52560743283902
 20
-120.5631814050547
 10
-37.50978237176969
 20
-120.562545476358
 10
-37.49395655439911
 20
-120.5619069378988
 10
-37.47813023548951
 20
-120.5612654338076
 10
-37.46230366978852
 20
-120.5606206082093
 10
-37.44647711206014
 20
-120.5599721052281
 10
-37.43065081705935
 20
-120.5593195689971
 10
-37.41482503954829
 20
-120.5586626436383
 10
-37.3990000342801
 20
-120.5580009732811
 10
-37.38317605600968
 20
-120.5573342020547
 10
-37.36735335949925
 20
-120.5566619740807
 10
-37.35153219949825
 20
-120.555983933491
 10
-37.33571283076889
 20
-120.5552997244108
 10
-37.31989550808064
 20
-120.5546089909679
 10
-37.30408048618118
 20
-120.5539113772909
 10
-37.28826801981995
 20
-120.5532065275028
 10
-37.27245836375914
 20
-120.5524940857328
 10
-37.25665177276096
 20
-120.5517736961104
 10
-37.24084850158942
 20
-120.55104500276
 10
-37.22504880497945
 20
-120.5503076498112
 10
-37.2092529377096
 20
-120.549561281387
 10
-37.19346115452935
 20
-120.548805541618
 10
-37.17767371021
 20
-120.548040074631
 10
-37.16189085948099
 20
-120.5472645245499
 10
-37.14611285711908
 20
-120.5464785355075
 10
-37.13033995787919
 20
-120.5456817516277
 10
-37.11457241651078
 20
-120.5448738170369
 10
-37.0988104877797
 20
-120.5440543758639
 10
-37.08305442644996
 20
-120.5432230722335
 10
-37.06730448726011
 20
-120.5423795502756
 10
-37.05156092498873
 20
-120.5415234541177
 10
-37.03582399437982
 20
-120.5406544278829
 10
-37.02009395019013
 20
-120.5397721157028
 10
-37.00437104718911
 20
-120.538876161704
 10
-36.98865554011899
 20
-120.5379662100102
 10
-36.97294768374013
 20
-120.5370419047508
 10
-36.95724773281836
 20
-120.5361028900514
 10
-36.94155594211042
 20
-120.535148810043
 10
-36.92587256636942
 20
-120.5341793088499
 10
-36.9101978603612
 20
-120.5331940305991
 10
-36.89453207881888
 20
-120.5321926194199
 10
-36.87887547653007
 20
-120.5311747194359
 10
-36.86322830824065
 20
-120.530139974777
 10
-36.84759082869822
 20
-120.5290880295699
 10
-36.83196329266865
 20
-120.5280185279415
 10
-36.8163459549196
 20
-120.5269311140189
 10
-36.80073907018959
 20
-120.5258254319269
 10
-36.78514289324812
 20
-120.524701125797
 10
-36.76955767884829
 20
-120.5235578397555
 10
-36.75398368174865
 20
-120.522395217927
 10
-36.73842115671869
 20
-120.5212129044402
 10
-36.72287035848967
 20
-120.520010543421
 10
-36.70733154184015
 20
-120.5187877789976
 10
-36.69180496151966
 20
-120.5175442552999
 10
-36.67629087228851
 20
-120.5162796164509
 10
-36.66078952889984
 20
-120.5149935065769
 10
-36.64530118611946
 20
-120.51368556981
 10
-36.62982609868959
 20
-120.512355450272
 10
-36.61436452138878
 20
-120.5110027920945
 10
-36.59891670896104
 20
-120.5096272394047
 10
-36.58348291615947
 20
-120.5082284363237
 10
-36.56806339776085
 20
-120.5068060269854
 10
-36.55265840849824
 20
-120.5053596555138
 10
-36.5372682031484
 20
-120.5038889660362
 10
-36.5218930364499
 20
-120.5023936026818
 10
-36.50653316319039
 20
-120.500873209575
 10
-36.4911888380975
 20
-120.499327430844
 10
-36.47586031593891
 20
-120.4977559106154
 10
-36.46054785148043
 20
-120.4961582930182
 10
-36.44525169946973
 20
-120.4945342221757
 10
-36.4299721146599
 20
-120.4928833422209
 10
-36.41470935182951
 20
-120.4912052972757
 10
-36.39946366570984
 20
-120.4894997314698
 10
-36.38423531108128
 20
-120.4877662889312
 10
-36.36902454268056
 20
-120.486004613784
 10
-36.35383161527897
 20
-120.4842143501559
 10
-36.33865678363145
 20
-120.4823951421758
 10
-36.32350030248925
 20
-120.480546633972
 10
-36.30836242662917
 20
-120.4786684696673
 10
-36.29324341078063
 20
-120.4767602933938
 10
-36.27814350971856
 20
-120.4748217492741
 10
-36.26306297819792
 20
-120.472852481439
 10
-36.24800207098086
 20
-120.4708521340138
 10
-36.23296104281871
 20
-120.4688203511259
 10
-36.21794014845909
 20
-120.4667567768997
 10
-36.20293964268057
 20
-120.464661055469
 10
-36.18795978021807
 20
-120.4625328309556
 10
-36.17300081584835
 20
-120.4603717474874
 10
-36.15806300432996
 20
-120.458177449193
 10
-36.14314660039963
 20
-120.4559495801984
 10
-36.12825185882865
 20
-120.4536877846343
 10
-36.11337903437925
 20
-120.4513917066194
 10
-36.09852838179904
 20
-120.4490609902894
 10
-36.08370015584842
 20
-120.4466952797665
 10
-36.06889461128956
 20
-120.4442942191822
 10
-36.05411200287925
 20
-120.441857452658
 10
-36.03935258536876
 20
-120.4393846243259
 10
-36.02461661352025
 20
-120.4368753783123
 10
-36.00990434207961
 20
-120.434329358742
 10
-35.9952160258199
 20
-120.4317462097427
 10
-35.98055191949788
 20
-120.4291255754399
 10
-35.9659122778612
 20
-120.4264670999654
 10
-35.95129735567934
 20
-120.423770427446
 10
-35.93670740769992
 20
-120.4210352020058
 10
-35.92214268867974
 20
-120.4182610677721
 10
-35.90760345338821
 20
-120.4154476688731
 10
-35.89308995656029
 20
-120.4125946494355
 10
-35.87860245297997
 20
-120.4097016535887
 10
-35.86414119738947
 20
-120.4067683254552
 10
-35.84970644454914
 20
-120.4037943091666
 10
-35.8352984492194
 20
-120.4007792488487
 10
-35.82091746614969
 20
-120.3977227886271
 10
-35.80656375010949
 20
-120.3946245726297
 10
-35.79223755583916
 20
-120.3914842449858
 10
-35.77793913811911
 20
-120.3883014498176
 10
-35.76366875168968
 20
-120.3850758312592
 10
-35.74942665131857
 20
-120.3818070334317
 10
-35.73521309174793
 20
-120.3784947004649
 10
-35.72102832774907
 20
-120.3751384764859
 10
-35.70687261408056
 20
-120.3717380056214
 10
-35.69274620549004
 20
-120.3682929319988
 10
-35.6786493567397
 20
-120.3648028997444
 10
-35.66458232258992
 20
-120.3612675529871
 10
-35.65054535779017
 20
-120.3576865358517
 10
-35.63653871710993
 20
-120.3540594924678
 10
-35.62256265529867
 20
-120.3503860669606
 10
-35.60861742711859
 20
-120.3466659034587
 10
-35.59470328731911
 20
-120.342898646088
 10
-35.58082049065886
 20
-120.3390839389767
 10
-35.56696929190911
 20
-120.3352214262527
 10
-35.55314994581022
 20
-120.3313107520397
 10
-35.53936270712984
 20
-120.3273515604668
 10
-35.52560783061926
 20
-120.3233434956637
 10
-35.51188557103886
 20
-120.319286201754
 10
-35.49819618315996
 20
-120.3151793228662
 10
-35.48453992170834
 20
-120.3110225031277
 10
-35.47091704146804
 20
-120.3068153866629
 10
-35.45732779718854
 20
-120.3025576176045
 10
-35.44377244363021
 20
-120.2982488400748
 10
-35.43025123553888
 20
-120.2938886982046
 10
-35.41676442768039
 20
-120.2894768361165
 10
-35.40331227481872
 20
-120.2850128979415
 10
-35.38989503169796
 20
-120.2804965278051
 10
-35.37651295308931
 20
-120.2759273698368
 10
-35.3631662937496
 20
-120.2713050681603
 10
-35.34985530841913
 20
-120.2666292669018
 10
-35.33658025186922
 20
-120.2618996101969
 10
-35.32334137886028
 20
-120.2571157421612
 10
-35.31013894413991
 20
-120.2522773069299
 10
-35.29697320247032
 20
-120.2473839486269
 10
-35.28384440861009
 20
-120.2424353113792
 10
-35.27075281731049
 20
-120.2374310393155
 10
-35.25769868333918
 20
-120.2323707765613
 10
-35.24468226144017
 20
-120.2272541672471
 10
-35.23170380639021
 20
-120.2220808554961
 10
-35.21876357292967
 20
-120.2168504854364
 10
-35.20586181582984
 20
-120.2115627011961
 10
-35.1929987898311
 20
-120.2062171469046
 10
-35.18017474969929
 20
-120.2008134666837
 10
-35.16738995019841
 20
-120.1953513046642
 10
-35.15464464607976
 20
-120.189830304972
 10
-35.14193909209823
 20
-120.1842501117321
 10
-35.12927354301973
 20
-120.1786103690783
 10
-35.11664825359911
 20
-120.1729107211306
 10
-35.10406347858042
 20
-120.1671508120202
 10
-35.09151947273856
 20
-120.1613302858741
 10
-35.07901649083033
 20
-120.155448786817
 10
-35.06655478759967
 20
-120.1495059589788
 10
-35.05413461781972
 20
-120.143501446485
 10
-35.04175623622904
 20
-120.1374348934628
 10
-35.02941989759893
 20
-120.1313059440398
 10
-35.01712585668974
 20
-120.125114242343
 10
-35.00487436824915
 20
-120.1188594324999
 10
-34.99266568704843
 20
-120.1125411586365
 10
-34.98050006782978
 20
-120.106159064881
 10
-34.96837776534994
 20
-120.09971279536
 10
-34.95629903438019
 20
-120.0932019942019
 10
-34.94426412967003
 20
-120.0866263055327
 10
-34.93227330596893
 20
-120.07998537348
 10
-34.92032681805904
 20
-120.073278842171
 10
-34.90842492066986
 20
-120.0665063557316
 10
-34.89656786857995
 20
-120.0596675582895
 10
-34.88475591652967
 20
-120.0527620939733
 10
-34.87298931929035
 20
-120.0457896069101
 10
-34.86126833160961
 20
-120.0387497412229
 10
-34.84959320825874
 20
-120.0316421410447
 10
-34.83796420397993
 20
-120.024466450498
 10
-34.82638157352994
 20
-120.0172223137133
 10
-34.81484557168005
 20
-120.0099093748162
 10
-34.80335645317973
 20
-120.0025272779339
 10
-34.79191447278935
 20
-119.9950756671942
 10
-34.78051988526022
 20
-119.9875541867227
 10
-34.76917294535997
 20
-119.9799624806482
 10
-34.75787390783988
 20
-119.9723001930951
 10
-34.74662302744945
 20
-119.964566968194
 10
-34.73542055895995
 20
-119.9567624500704
 10
-34.72426675712995
 20
-119.9488862828536
 10
-34.71316187669799
 20
-119.9409381106684
 10
-34.70210617243902
 20
-119.9329175776405
 10
-34.69109989910975
 20
-119.9248243279007
 10
-34.68014331144877
 20
-119.9166580055715
 10
-34.66923666424735
 20
-119.9084182547849
 10
-34.65838021223135
 20
-119.900104719666
 10
-34.6475742101793
 20
-119.8917170443432
 10
-34.63681891282976
 20
-119.883254872941
 10
-34.6261145749595
 20
-119.8747178495872
 10
-34.61546145131797
 20
-119.86610561841
 10
-34.60485979665826
 20
-119.8574178235398
 10
-34.59430986574079
 20
-119.8486541090978
 10
-34.58381191332954
 20
-119.8398141192132
 10
-34.57336619416855
 20
-119.8308974980136
 10
-34.56297296301817
 20
-119.821903889624
 10
-34.5526324746479
 20
-119.8128329381765
 10
-34.54234498381811
 20
-119.8036842877959
 10
-34.53211074526915
 20
-119.7944575826077
 10
-34.52193001375963
 20
-119.785152466741
 10
-34.51180304406079
 20
-119.7757685843211
 10
-34.50173009092031
 20
-119.7663055794769
 10
-34.49171140908946
 20
-119.756763096334
 10
-34.48174725333955
 20
-119.7471407790208
 10
-34.47183787843096
 20
-119.7374382716627
 10
-34.46198353909856
 20
-119.7276552183911
 10
-34.45218449011917
 20
-119.7177912633283
 10
-34.44244098624948
 20
-119.7078460506017
 10
-34.43275328223899
 20
-119.6978192243449
 10
-34.42312163284987
 20
-119.6877104286771
 10
-34.41354629283885
 20
-119.6775193077268
 10
-34.40402751695909
 20
-119.6672455056259
 10
-34.39456555998003
 20
-119.6568886664977
 10
-34.38516067664932
 20
-119.6464484344687
 10
-34.37581312172915
 20
-119.6359244536711
 10
-34.366523149969
 20
-119.6253163682281
 10
-34.35729101613105
 20
-119.6146238222649
 10
-34.34811697497934
 20
-119.6038464599118
 10
-34.33900128125969
 20
-119.592983925294
 10
-34.32994418973976
 20
-119.5820358625419
 10
-34.320945955169
 20
-119.5710019157782
 10
-34.31200683230962
 20
-119.5598817291352
 10
-34.3031270759202
 20
-119.548674946735
 10
-34.29978262540862
 20
-119.5443925481308
  0
ARC
  5
17C
330
2
100
AcDbEntity
  8
0
 48
0.6
100
AcDbCircle
 10
-94.89533995474811
 20
-107.2638095857373
 30
0.0
 40
5.0
100
AcDbArc
 50
180.0
 51
270.0
  0
ARC
  5
17D
330
2
100
AcDbEntity
  8
0
 48
0.6
100
AcDbCircle
 10
-50.26837788713964
 20
-102.4956608816723
 30
0.0
 40
2.644799999999999
100
AcDbArc
 50
51.94867448061305
 51
107.7198081528049
  0
ARC
  5
17E
330
2
100
AcDbEntity
  8
0
 48
0.6
100
AcDbCircle
 10
-72.84817730796929
 20
-98.33031813407295
 30
0.0
 40
2.644799999999999
100
AcDbArc
 50
243.634327496789
 51
308.0513255193868
  0
ARC
  5
17F
330
2
100
AcDbEntity
  8
0
 48
0.6
100
AcDbCircle
 10
-69.58784174930952
 20
-102.4956608816723
 30
0.0
 40
2.644799999999999
100
AcDbArc
 50
72.28019184719491
 51
128.0513255193867
  0
ARC
  5
180
330
2
100
AcDbEntity
  8
0
 48
0.6
100
AcDbCircle
 10
-59.92810981823095
 20
-72.26380958573736
 30
0.0
 40
29.09279999999998
100
AcDbArc
 50
252.2801918471949
 51
287.7198081528051
  0
ARC
  5
181
330
2
100
AcDbEntity
  8
0
 48
0.6
100
AcDbCircle
 10
-47.00804232847985
 20
-98.33031813407295
 30
0.0
 40
2.644799999999999
100
AcDbArc
 50
231.948674480613
 51
296.3656725032108
  0
ARC
  5
182
330
2
100
AcDbEntity
  8
0
 48
0.6
100
AcDbCircle
 10
-9.65023246021883
 20
-97.95325693719723
 30
0.0
 40
39.15579199999999
100
AcDbArc
 50
201.4369589999595
 51
205.6205866778139
  0
LINE
  5
183
330
2
100
AcDbEntity
  8
0
 48
0.6
100
AcDbLine
 10
-94.89533995474811
 20
-112.2638095857373
 30
0.0
 11
-24.89533995474812
 21
-112.2638095857373
 31
0.0
  0
LINE
  5
184
330
2
100
AcDbEntity
  8
0
 48
0.6
100
AcDbLine
 10
-40.44315199118864
 20
-112.2638095857373
 30
0.0
 11
-46.18420221770975
 21
-112.2638095857373
 31
0.0
  0
LINE
  5
185
330
2
100
AcDbEntity
  8
0
100
AcDbLine
 10
-45.55571665872046
 20
-115.1515726273269
 30
0.0
 11
-39.06995691619886
 21
-112.2638095857373
 31
0.0
  0
ARC
  5
186
330
2
100
AcDbEntity
  8
0
 48
0.6
100
AcDbCircle
 10
-8.88746084126069
 20
-97.5921751874198
 30
0.0
 40
40.655792
100
AcDbArc
 50
205.5608116567376
 51
217.572365246424
  0
LINE
  5
187
102
{ACAD_REACTORS
330
1AF
102
}
330
2
100
AcDbEntity
  8
0
100
AcDbLine
 10
64.30382269825168
 20
-35.76380958573735
 30
0.0
 11
64.30382269825168
 21
-108.7638095857373
 31
0.0
  0
LINE
  5
188
330
2
100
AcDbEntity
  8
0
100
AcDbLine
 10
66.30382269825168
 20
-32.26380958573735
 30
0.0
 11
66.30382269825168
 21
-112.2638095857373
 31
0.0
  0
LINE
  5
189
330
2
100
AcDbEntity
  8
0
100
AcDbLine
 10
72.40382269825204
 20
-32.26380958573735
 30
0.0
 11
72.40382269825204
 21
-112.2638095857373
 31
0.0
  0
INSERT
  5
18A
330
2
100
AcDbEntity
  8
0
100
AcDbBlockReference
  2
5
 10
-59.92559168036859
 20
-72.26380958573736
 30
0.0
  0
LINE
  5
1A8
330
2
100
AcDbEntity
  8
0
 48
0.6
100
AcDbLine
 10
-19.89533995474812
 20
-37.26380958573735
 30
0.0
 11
-19.89533995474812
 21
-107.2638095857373
 31
0.0
  0
LINE
  5
1A9
330
2
100
AcDbEntity
  8
0
 48
0.6
100
AcDbLine
 10
-99.89533995474811
 20
-37.26380958573735
 30
0.0
 11
-99.89533995474811
 21
-107.2638095857373
 31
0.0
  0
LINE
  5
1AA
102
{ACAD_REACTORS
330
D3
102
}
330
2
100
AcDbEntity
  8
CEN
 48
0.6
100
AcDbLine
 10
-59.8953399547481
 20
-119.4359327941338
 30
0.0
 11
-59.8953399547481
 21
-25.09168637733864
 31
0.0
  0
CIRCLE
  5
1AB
330
2
100
AcDbEntity
  8
0
 48
0.6
100
AcDbCircle
 10
-59.8953399547481
 20
-72.26380958573736
 30
0.0
 40
38.5
  0
CIRCLE
  5
1AC
330
2
100
AcDbEntity
  8
0
 48
0.6
100
AcDbCircle
 10
-59.8953399547481
 20
-72.26380958573736
 30
0.0
 40
37.00000000000005
  0
DIMENSION
  5
1AD
102
{ACAD_XDICTIONARY
360
1AE
102
}
102
{ACAD_REACTORS
330
1AF
102
}
330
2
100
AcDbEntity
  8
0
100
AcDbDimension
  2
*D28
 10
-0.294260524347939
 20
-108.7638095857373
 30
0.0
 11
-0.2942605243479193
 21
-72.26380958573736
 31
0.0
 70
   160
  1
\A1;{\f??|b0|i0|c0|p49;%%C73\H0.7x;\S+0^ -0.030;\H1.429x;(h7)}
  3
STANDARD
100
AcDbAlignedDimension
 13
64.30382269825168
 23
-35.76380958573735
 33
0.0
 14
64.30382269825168
 24
-108.7638095857373
 34
0.0
 50
90.0
100
AcDbRotatedDimension
  0
ARC
  5
1BC
330
2
100
AcDbEntity
  8
0
 48
0.6
100
AcDbCircle
 10
-59.92810981823095
 20
-72.26380958573736
 30
0.0
 40
31.73759999999999
100
AcDbArc
 50
206.3656725032168
 51
243.634327496789
  0
LINE
  5
1BD
102
{ACAD_REACTORS
330
D3
102
}
330
2
100
AcDbEntity
  8
CEN
 48
0.6
100
AcDbLine
 10
-43.32679745983114
 20
-112.2638095857373
 30
0.0
 11
-59.8953399547481
 21
-72.26380958573736
 31
0.0
  0
ARC
  5
1BE
330
2
100
AcDbEntity
  8
0
 48
0.6
100
AcDbCircle
 10
-59.92810981823095
 20
-72.26380958573736
 30
0.0
 40
31.73759999999999
100
AcDbArc
 50
296.3656725032108
 51
333.6343274967831
  0
ARC
  5
1BF
330
2
100
AcDbEntity
  8
0
 48
0.6
100
AcDbCircle
 10
198.538400183211
 20
84.76704917732304
 30
0.0
 40
136.667762881011
100
AcDbArc
 50
195.2652351184808
 51
202.4616570698507
  0
ARC
  5
1C0
330
2
100
AcDbEntity
  8
0
100
AcDbCircle
 10
71.48552580547039
 20
48.2085866673101
 30
0.0
 40
1.318158315128889
100
AcDbArc
 50
89.65642249345519
 51
172.1237927370686
  0
LEADER
  5
1C1
330
2
100
AcDbEntity
  8
0
100
AcDbLeader
  3
STANDARD
 74
     0
 40
13.0
 41
28.50892857142855
 76
     2
 10
68.27126484085965
 20
42.96588217144425
 30
0.0
 10
59.15451444868086
 20
27.67106254105101
 30
0.0
1001
ACAD
1000
DSTYLE
1002
{
1070
     5
1000

1070
   342
1005
0
1002
}
  0
LWPOLYLINE
  5
1C2
330
2
100
AcDbEntity
  8
0
100
AcDbPolyline
 90
      548
 70
     0
 43
0.0
 10
-5.914835087589381
 20
41.74011628198377
 10
-5.911819672479396
 20
41.75468969676876
 10
-5.908271221149332
 20
41.77134938543713
 10
-5.904643802969076
 20
41.78790243090542
 10
-5.900937672689906
 20
41.80434918903711
 10
-5.897153085068566
 20
41.8206900157129
 10
-5.893290294869073
 20
41.83692526680171
 10
-5.889349556848173
 20
41.85305529817831
 10
-5.885331125758964
 20
41.86908046571306
 10
-5.881235256360012
 20
41.8850011252839
 10
-5.877062203409877
 20
41.90081763275702
 10
-5.872812221668937
 20
41.91653034400996
 10
-5.868485565881201
 20
41.93213961491392
 10
-5.864082490819781
 20
41.94764580134233
 10
-5.859603251239605
 20
41.9630492591659
 10
-5.855048101899227
 20
41.97835034425998
 10
-5.850417297539022
 20
41.99354941249839
 10
-5.845711092939382
 20
42.00864681975008
 10
-5.840929742838852
 20
42.02364292188986
 10
-5.83607350200873
 20
42.03853807479389
 10
-5.831142625209393
 20
42.05333263432794
 10
-5.826137367181217
 20
42.06802695637088
 10
-5.821057982699127
 20
42.08262139679572
 10
-5.81590472651078
 20
42.09711631147
 10
-5.810677853369267
 20
42.1115120562722
 10
-5.805377618040437
 20
42.12580898706982
 10
-5.800004275290119
 20
42.14000745974089
 10
-5.794558079849592
 20
42.15410783015386
 10
-5.789039286499246
 20
42.16811045418579
 10
-5.783448149988544
 20
42.18201568770837
 10
-5.777784925088781
 20
42.19582388659
 10
-5.772049866529414
 20
42.20953540671053
 10
-5.766243229089011
 20
42.22315060393611
 10
-5.760365267518862
 20
42.23666983414339
 10
-5.754416236579344
 20
42.25009345320677
 10
-5.748396391019922
 20
42.26342181699465
 10
-5.742305985610072
 20
42.27665528138504
 10
-5.736145275099262
 20
42.28979420224685
 10
-5.72991451424059
 20
42.30283893545172
 10
-5.723613957799897
 20
42.31578983687677
 10
-5.717243860539382
 20
42.32864726239313
 10
-5.710804477199418
 20
42.34141156787427
 10
-5.704296062560388
 20
42.35408310919092
 10
-5.697718871360847
 20
42.36666224221699
 10
-5.691073158359357
 20
42.37914932282592
 10
-5.684359178330852
 20
42.39154470689117
 10
-5.677577186010236
 20
42.40384875028392
 10
-5.670727436168816
 20
42.41606180887584
 10
-5.663810183559687
 20
42.42818423854487
 10
-5.656825682939597
 20
42.44021639515993
 10
-5.649774189068919
 20
42.45215863459316
 10
-5.642655956709856
 20
42.46401131272114
 10
-5.635471240610057
 20
42.47577478541098
 10
-5.628220295529898
 20
42.48744940854203
 10
-5.620903376229762
 20
42.49903553798094
 10
-5.61352073745911
 20
42.51053352960707
 10
-5.606072633989242
 20
42.52194373929023
 10
-5.598559320558706
 20
42.53326652289977
 10
-5.590981051947891
 20
42.54450223631464
 10
-5.58333808289899
 20
42.55565123540555
 10
-5.575630668179655
 20
42.56671387604182
 10
-5.56785906253026
 20
42.57769051409922
 10
-5.560023520729372
 20
42.58858150545438
 10
-5.552124297519183
 20
42.59938720597165
 10
-5.544161647660075
 20
42.6101079715304
 10
-5.536135825919699
 20
42.62074415800134
 10
-5.528047087040247
 20
42.63129612125704
 10
-5.519895685789379
 20
42.6417642171732
 10
-5.511681876918371
 20
42.65214880161693
 10
-5.503405915189431
 20
42.66245023046574
 10
-5.495068055361114
 20
42.6726688595918
 10
-5.486668552188346
 20
42.6828050448671
 10
-5.478207660429688
 20
42.69285914216789
 10
-5.469685634838242
 20
42.70283150735894
 10
-5.461102730179844
 20
42.71272249632192
 10
-5.452459201198506
 20
42.722532464923
 10
-5.44375530266916
 20
42.73226176904109
 10
-5.43499128933945
 20
42.74191076454417
 10
-5.426167415958841
 20
42.75147980730617
 10
-5.417283937309546
 20
42.76096925320096
 10
-5.408341108119201
 20
42.77037945810024
 10
-5.399339183170011
 20
42.77971077787924
 10
-5.390278417198715
 20
42.78896356840824
 10
-5.381159064980238
 20
42.79813818556113
 10
-5.371981381267686
 20
42.80723498521001
 10
-5.362745620808709
 20
42.81625432322878
 10
-5.353452038380053
 20
42.82519655549186
 10
-5.344100888709363
 20
42.83406203786808
 10
-5.334692426580659
 20
42.84285112623183
 10
-5.325226906748866
 20
42.85156417645703
 10
-5.315704583959814
 20
42.86020154441803
 10
-5.306125712968421
 20
42.86876358598236
 10
-5.296490548549627
 20
42.87725065703035
 10
-5.286799345447433
 20
42.88566311342584
 10
-5.277052358429499
 20
42.89400131105094
 10
-5.267249842248928
 20
42.90226560577229
 10
-5.257392051649731
 20
42.91045635346381
 10
-5.247479241410472
 20
42.91857390999893
 10
-5.237511666278804
 20
42.92661863125339
 10
-5.227489581009648
 20
42.93459087309384
 10
-5.217413240359745
 20
42.94249099139778
 10
-5.207282899098571
 20
42.95031934203688
 10
-5.197098811981048
 20
42.95807628088414
 10
-5.186861233749366
 20
42.96576216381299
 10
-5.176570419169363
 20
42.97337734669372
 10
-5.166226622997783
 20
42.98092218540296
 10
-5.15583010000955
 20
42.98839703581188
 10
-5.145381104930493
 20
42.99580225379123
 10
-5.134879892539172
 20
43.00313819521806
 10
-5.124326717599615
 20
43.01040521596085
 10
-5.113721834848545
 20
43.01760367189443
 10
-5.103065499049987
 20
43.02473391889407
 10
-5.092357964969777
 20
43.03179631282728
 10
-5.081599487359198
 20
43.03879120957208
 10
-5.070790320980449
 20
43.04571896499692
 10
-5.059930720579358
 20
43.05257993497797
 10
-5.049020940930858
 20
43.05937447538826
 10
-5.038061236780777
 20
43.06610294209713
 10
-5.027051862889493
 20
43.07276569098076
 10
-5.01599307401011
 20
43.07936307791215
 10
-5.004885124899374
 20
43.0858954587611
 10
-4.993728270330393
 20
43.09236318940384
 10
-4.982522765039901
 20
43.09876662571014
 10
-4.971268863799195
 20
43.1051061235562
 10
-4.959966821368652
 20
43.11138203881137
 10
-4.948616892488643
 20
43.11759472735002
 10
-4.937219331930464
 20
43.12374454504606
 10
-4.925774394449033
 20
43.12983184777158
 10
-4.914282334799281
 20
43.13585699139728
 10
-4.902743407739761
 20
43.14182033180121
 10
-4.891157868030858
 20
43.14772222485134
 10
-4.879525970429313
 20
43.15356302642292
 10
-4.86784796968095
 20
43.15934309238581
 10
-4.856124120558886
 20
43.16506277861889
 10
-4.844354677818045
 20
43.17072244098882
 10
-4.832539896209707
 20
43.17632243537127
 10
-4.820680030497896
 20
43.1818631176393
 10
-4.808775335439347
 20
43.18734484366586
 10
-4.796826065779896
 20
43.19276796932217
 10
-4.784832476299923
 20
43.19813285048121
 10
-4.772794821730713
 20
43.20343984301871
 10
-4.760713356839914
 20
43.20868930280266
 10
-4.748588336398825
 20
43.21388158571108
 10
-4.736420015138717
 20
43.21901704761603
 10
-4.724208647849081
 20
43.22409604438507
 10
-4.711954489259369
 20
43.22911893189711
 10
-4.699657794139056
 20
43.23408606602195
 10
-4.687318817248523
 20
43.23899780263309
 10
-4.674937813339056
 20
43.24385449760528
 10
-4.662515037169212
 20
43.24865650680657
 10
-4.650050743499376
 20
43.25340418611403
 10
-4.637545187080831
 20
43.25809789140204
 10
-4.624998622679412
 20
43.26273797853718
 10
-4.612411305048226
 20
43.2673248033966
 10
-4.599783488938554
 20
43.27185872185509
 10
-4.587115429128971
 20
43.2763400897793
 10
-4.57440738034893
 20
43.2807692630472
 10
-4.561659597380637
 20
43.28514659752864
 10
-4.548872334960833
 20
43.28947244910248
 10
-4.536045847860805
 20
43.29374717363225
 10
-4.523180390839115
 20
43.29797112699725
 10
-4.510276218639774
 20
43.30214466506776
 10
-4.497333586030434
 20
43.30626814371908
 10
-4.484352747769662
 20
43.31034191882054
 10
-4.471333958610556
 20
43.31436634624695
 10
-4.458277473309863
 20
43.31834178187317
 10
-4.445183546629777
 20
43.32226858156809
 10
-4.432052433330682
 20
43.32614710120924
 10
-4.418884388160221
 20
43.32997769666278
 10
-4.405679665880597
 20
43.33376072380632
 10
-4.392438521248548
 20
43.33749653851555
 10
-4.379161209019001
 20
43.34118549665618
 10
-4.365847983959611
 20
43.34482795410531
 10
-4.352499100808926
 20
43.34842426673595
 10
-4.339114814349158
 20
43.35197479042017
 10
-4.325695379318856
 20
43.35547988102915
 10
-4.312241050480222
 20
43.35893989443912
 10
-4.298752082599094
 20
43.36235518651983
 10
-4.285228730419476
 20
43.36572611314475
 10
-4.271671248710845
 20
43.36905303018875
 10
-4.258079892219028
 20
43.37233629352431
 10
-4.244454915718961
 20
43.37557625902127
 10
-4.230796573949191
 20
43.3787732825549
 10
-4.21710512166828
 20
43.3819277199982
 10
-4.203380813649346
 20
43.38503992722278
 10
-4.189623904638208
 20
43.38811026010307
 10
-4.175834649398892
 20
43.3911390745111
 10
-4.162013302689954
 20
43.39412672631806
 10
-4.148160119259046
 20
43.39707357140104
 10
-4.134275353859266
 20
43.39997996562895
 10
-4.120359261269186
 20
43.40284626487481
 10
-4.106412096229178
 20
43.40567282501432
 10
-4.092434113510535
 20
43.4084600019205
 10
-4.07842556784999
 20
43.41120815146132
 10
-4.064386714029751
 20
43.41391762951206
 10
-4.050317806790189
 20
43.41658879194755
 10
-4.036219100888046
 20
43.41922199463988
 10
-4.02209085108916
 20
43.4218175934602
 10
-4.007933312148451
 20
43.42437594428427
 10
-3.993746738829941
 20
43.42689740298101
 10
-3.979531385879453
 20
43.42938232542656
 10
-3.965287508059191
 20
43.43183106749211
 10
-3.951015360129531
 20
43.43424398505203
 10
-3.936715196849036
 20
43.43662143397478
 10
-3.92238727296899
 20
43.43896377014107
 10
-3.908031843240678
 20
43.44127134941709
 10
-3.893649162439031
 20
43.44354452767766
 10
-3.879239485309881
 20
43.44578366079711
 10
-3.86480306661906
 20
43.44798910464668
 10
-3.850340161119675
 20
43.45016121509797
 10
-3.835851023559371
 20
43.45230034802805
 10
-3.821335908709443
 20
43.45440685930634
 10
-3.80679507133027
 20
43.45648110480442
 10
-3.792228766160404
 20
43.45852344040122
 10
-3.777637247969323
 20
43.46053422196201
 10
-3.76302077151922
 20
43.46251380536386
 10
-3.748379591559568
 20
43.46446254647889
 10
-3.733713962848923
 20
43.466380801181
 10
-3.719024140149485
 20
43.46826892534181
 10
-3.704310378219815
 20
43.47012727483525
 10
-3.689572931809379
 20
43.47195620553293
 10
-3.674812055680376
 20
43.47375607330877
 10
-3.660028004580451
 20
43.47552723403395
 10
-3.645221033289998
 20
43.47727004358239
 10
-3.630391396549383
 20
43.47898485782798
 10
-3.615539349109893
 20
43.48067203264188
 10
-3.600665145748279
 20
43.48233192389715
 10
-3.585769041210368
 20
43.48396488746766
 10
-3.570851290249265
 20
43.48557127922685
 10
-3.555912147639901
 20
43.48715145504274
 10
-3.540951868119008
 20
43.48870577079742
 10
-3.525970706459701
 20
43.49023458235431
 10
-3.510968917409627
 20
43.49173824558966
 10
-3.495946755730983
 20
43.49321711637822
 10
-3.480904476180511
 20
43.49467155059392
 10
-3.465842333520412
 20
43.49610190410429
 10
-3.450760582498332
 20
43.49750853278556
 10
-3.435659477880107
 20
43.49889179250975
 10
-3.420539274418841
 20
43.50025203914992
 10
-3.405400226869458
 20
43.50158962858086
 10
-3.390242589999616
 20
43.5029049166701
 10
-3.375066618549681
 20
43.50419825929566
 10
-3.359872567298225
 20
43.50547001232917
 10
-3.344660690989258
 20
43.50672053164497
 10
-3.329431244379518
 20
43.5079501731111
 10
-3.314184482238488
 20
43.50915929260373
 10
-3.298920659310169
 20
43.51034824599675
 10
-3.283640030360401
 20
43.51151738916087
 10
-3.268342850138651
 20
43.5126670779682
 10
-3.253029373419848
 20
43.51379766829313
 10
-3.237699854938908
 20
43.51490951601089
 10
-3.22235454945985
 20
43.51600297699087
 10
-3.206993711748508
 20
43.51707840710512
 10
-3.191617596559808
 20
43.51813616222896
 10
-3.176226458648669
 20
43.51917659823492
 10
-3.160820552779112
 20
43.52020007099599
 10
-3.14540013368969
 20
43.52120693638517
 10
-3.129965456160788
 20
43.52219755027181
 10
-3.114516774930961
 20
43.52317226853529
 10
-3.099054344780595
 20
43.52413144704132
 10
-3.083578420439152
 20
43.52507544166701
 10
-3.068089256688836
 20
43.52600460828623
 10
-3.052587108270016
 20
43.52691930276932
 10
-3.037072229948535
 20
43.52781988098877
 10
-3.021544876479308
 20
43.52870669882077
 10
-3.006005302619087
 20
43.52958011213194
 10
-2.990453763130062
 20
43.53044047680303
 10
-2.974890512768977
 20
43.53128814870115
 10
-2.959315806288941
 20
43.53212348369877
 10
-2.943729898448509
 20
43.53294683767535
 10
-2.928133044009881
 20
43.53375856649743
 10
-2.912525497718886
 20
43.53455902604082
 10
-2.896907514348638
 20
43.53534857217619
 10
-2.881279348648602
 20
43.53612756077608
 10
-2.865641255368245
 20
43.53689634771624
 10
-2.849993489289771
 20
43.53765528886742
 10
-2.834336305139002
 20
43.53840474010531
 10
-2.818669957689053
 20
43.53914505729699
 10
-2.802994701709393
 20
43.5398765963223
 10
-2.787310791929483
 20
43.54059971304695
 10
-2.771618483140627
 20
43.54131476335213
 10
-2.755918030068642
 20
43.54202210310178
 10
-2.740209687488458
 20
43.54272208817564
 10
-2.724493710160459
 20
43.54341507444405
 10
-2.708770352819556
 20
43.54410141777771
 10
-2.693039870249775
 20
43.54478147405552
 10
-2.677302517198766
 20
43.54545559914185
 10
-2.661558548430548
 20
43.54612414891789
 10
-2.645808218680029
 20
43.54678747924981
 10
-2.630051782729423
 20
43.54744594601513
 10
-2.61428949533001
 20
43.5480999050851
 10
-2.598521611229443
 20
43.54874971233084
 10
-2.582748385189916
 20
43.54939572362673
 10
-2.566970071980904
 20
43.55003829484711
 10
-2.551186926339141
 20
43.55067778186274
 10
-2.53539920303956
 20
43.5513145405457
 10
-2.519607156829806
 20
43.55194892677218
 10
-2.503811042470259
 20
43.55258129641197
 10
-2.488011114719482
 20
43.5532120053399
 10
-2.472207628339673
 20
43.55384140942804
 10
-2.456400838080298
 20
43.55446986455034
 10
-2.440590998698098
 20
43.55509772657431
 10
-2.424778364960729
 20
43.55572535138025
 10
-2.40896319161038
 20
43.55635309483885
 10
-2.393145733420169
 20
43.55698131281861
 10
-2.377326245130459
 20
43.55761036119702
 10
-2.36150498151801
 20
43.55824059584484
 10
-2.34568219733046
 20
43.55887237263639
 10
-2.3298581473191
 20
43.55950604744385
 10
-2.314033086260678
 20
43.56014197614103
 10
-2.298207268890108
 20
43.56078051459962
 10
-2.282380949978685
 20
43.56142201869078
 10
-2.266554384279515
 20
43.56206684429023
 10
-2.250727826549336
 20
43.56271534727102
 10
-2.234901531548529
 20
43.56336788350247
 10
-2.219075754039295
 20
43.56402480886116
 10
-2.203250748769278
 20
43.56468647921838
 10
-2.187426770489764
 20
43.56535325044387
 10
-2.171604073979324
 20
43.56602547841794
 10
-2.155782913980146
 20
43.5667035190072
 10
-2.139963545259888
 20
43.56738772808784
 10
-2.124146222568014
 20
43.56807846153103
 10
-2.108331200659449
 20
43.56877607520845
 10
-2.092518734298209
 20
43.56948092499715
 10
-2.076709078248313
 20
43.57019336676603
 10
-2.060902487248313
 20
43.57091375638811
 10
-2.0450992160695
 20
43.5716424497391
 10
-2.02929951946862
 20
43.57237980268791
 10
-2.013503652198778
 20
43.57312617111211
 10
-1.997711869018529
 20
43.57388191088102
 10
-1.981924424688259
 20
43.57464737786677
 10
-1.966141573961065
 20
43.57542292794824
 10
-1.950363571599154
 20
43.57620891699116
 10
-1.934590672359263
 20
43.57700570087128
 10
-1.918823130998134
 20
43.57781363546201
 10
-1.90306120226887
 20
43.57863307663546
 10
-1.887305140939133
 20
43.57946438026599
 10
-1.871555201747469
 20
43.580307902223
 10
-1.855811639479725
 20
43.58116399838081
 10
-1.840074708868995
 20
43.58203302461514
 10
-1.82434466468112
 20
43.58291533679586
 10
-1.8086217616692
 20
43.58381129079497
 10
-1.792906254599073
 20
43.58472124248917
 10
-1.7771983982293
 20
43.58564554774782
 10
-1.76149844730935
 20
43.5865845624471
 10
-1.745806656599597
 20
43.58753864245636
 10
-1.730123280860424
 20
43.58850814364814
 10
-1.714448574839479
 20
43.58949342189997
 10
-1.698782793309874
 20
43.5904948330799
 10
-1.683126191019255
 20
43.59151273306268
 10
-1.667479022729819
 20
43.59254747772228
 10
-1.651841543180124
 20
43.59359942292985
 10
-1.63621400715965
 20
43.59466892455839
 10
-1.620596669408769
 20
43.59575633847952
 10
-1.604989784680581
 20
43.59686202057083
 10
-1.589393607739109
 20
43.59798632670162
 10
-1.573808393339275
 20
43.59912961274313
 10
-1.558234396239639
 20
43.60029223457241
 10
-1.542671871198763
 20
43.60147454805928
 10
-1.52712107298066
 20
43.60267690907902
 10
-1.511582256318431
 20
43.603899673501
 10
-1.496055676008834
 20
43.60514319719913
 10
-1.480541586768594
 20
43.60640783604913
 10
-1.465040243389011
 20
43.6076939459217
 10
-1.449551900597725
 20
43.60900188268852
 10
-1.43407681318058
 20
43.61033200222709
 10
-1.418615235868855
 20
43.61168466040408
 10
-1.403167423439299
 20
43.61306021309382
 10
-1.387733630648654
 20
43.61445901617526
 10
-1.372314112239109
 20
43.6158814255141
 10
-1.356909122980139
 20
43.61732779698512
 10
-1.341518917630309
 20
43.61879848646322
 10
-1.32614375093908
 20
43.62029384981815
 10
-1.310783877668654
 20
43.62181424292475
 10
-1.295439552579409
 20
43.62336002165557
 10
-1.280111030429907
 20
43.62493154188314
 10
-1.264798565969613
 20
43.62652915948138
 10
-1.249502413949812
 20
43.62815323032189
 10
-1.234222829149075
 20
43.62980411027773
 10
-1.21896006630959
 20
43.63148215522278
 10
-1.203714380199014
 20
43.6331877210291
 10
-1.188486025559541
 20
43.63492116356836
 10
-1.173275257169734
 20
43.63668283871493
 10
-1.158082329769966
 20
43.63847310234314
 10
-1.142907498118802
 20
43.64029231032418
 10
-1.127751016980254
 20
43.64214081852696
 10
-1.11261314110925
 20
43.64401898283222
 10
-1.097494125267985
 20
43.64592715910521
 10
-1.082394224209564
 20
43.64786570322393
 10
-1.06731369268891
 20
43.64983497106049
 10
-1.052252785468225
 20
43.65183531848606
 10
-1.03721175729879
 20
43.65386710137271
 10
-1.022190862948264
 20
43.65593067559894
 10
-1.007190357158832
 20
43.65802639702997
 10
-0.9922104947090698
 20
43.66015462154289
 10
-0.9772515303393447
 20
43.66231570501121
 10
-0.9623137188100372
 20
43.6645100033056
 10
-0.9473973148888036
 20
43.66673787229999
 10
-0.9325025733196524
 20
43.66899966786514
 10
-0.9176297488684211
 20
43.67129574587897
 10
-0.9027790962900326
 20
43.67362646220906
 10
-0.8879508703394094
 20
43.67599217273209
 10
-0.8731453257805695
 20
43.67839323331691
 10
-0.8583627173593413
 20
43.68082999984197
 10
-0.843603299848837
 20
43.6833028281726
 10
-0.8288673279985232
 20
43.68581207418765
 10
-0.8141550565687794
 20
43.68835809375696
 10
-0.7994667403108906
 20
43.69094124275578
 10
-0.7848026339797798
 20
43.69356187705897
 10
-0.7701629923485598
 20
43.69622035253313
 10
-0.7555480701594206
 20
43.69891702505309
 10
-0.7409581221800181
 20
43.70165225049322
 10
-0.7263934031689132
 20
43.70442638472787
 10
-0.711854167868296
 20
43.70723978362502
 10
-0.6973406710494601
 20
43.7100928030627
 10
-0.6828531674691476
 20
43.7129857989089
 10
-0.6683919118695485
 20
43.71591912704434
 10
-0.6539571590292326
 20
43.71889314333202
 10
-0.6395491636994848
 20
43.72190820364994
 10
-0.6251681806406852
 20
43.72496466387199
 10
-0.6108144645895665
 20
43.72806287986896
 10
-0.5964882703301555
 20
43.73120320751421
 10
-0.5821898526100995
 20
43.73438600268081
 10
-0.5679194661806834
 20
43.73761162123992
 10
-0.5536773657986487
 20
43.7408804190668
 10
-0.5394638062298327
 20
43.744192752034
 10
-0.5252790422382532
 20
43.74754897601313
 10
-0.5111233285606433
 20
43.75094944687814
 10
-0.4969969199701155
 20
43.75439452050023
 10
-0.482900071219774
 20
43.75788455275414
 10
-0.4688330370809127
 20
43.76141989951292
 10
-0.4547960722811695
 20
43.76500091664683
 10
-0.4407894315991145
 20
43.76862796003115
 10
-0.4268133697896701
 20
43.77230138553795
 10
-0.4128681415986648
 20
43.77602154904025
 10
-0.3989540017992112
 20
43.77978880641149
 10
-0.3850712051498704
 20
43.78360351352329
 10
-0.3712200063891942
 20
43.78746602624596
 10
-0.3574006602993904
 20
43.7913767004602
 10
-0.3436134216099163
 20
43.79533589203083
 10
-0.3298585451102554
 20
43.79934395683539
 10
-0.3161362855298648
 20
43.80340125074463
 10
-0.3024468976400385
 20
43.80750812963379
 10
-0.2887906361884234
 20
43.81166494937088
 10
-0.2751677559481322
 20
43.81587206583617
 10
-0.2615785116686311
 20
43.82012983489402
 10
-0.2480231581084809
 20
43.82443861242518
 10
-0.2345019500189664
 20
43.82879875429398
 10
-0.2210151421695627
 20
43.83321061638207
 10
-0.2075629893097357
 20
43.83767455455836
 10
-0.1941457461889513
 20
43.84219092469357
 10
-0.1807636675803223
 20
43.84676008266295
 10
-0.1674170082296769
 20
43.8513823843391
 10
-0.1541060229083087
 20
43.85605818559723
 10
-0.1408309663602267
 20
43.86078784230313
 10
-0.127592093338535
 20
43.86557171033836
 10
-0.1143896586199844
 20
43.87041014557008
 10
-0.1012239169594977
 20
43.87530350387215
 10
-0.0880951230901701
 20
43.88025214112031
 10
-0.0750035317978473
 20
43.88525641318302
 10
-0.0619493978301762
 20
43.89031667593825
 10
-0.0489329759311659
 20
43.89543328525223
 10
-0.0359545208684722
 20
43.90060659700337
 10
-0.0230142874188459
 20
43.90583696706197
 10
-0.0101125303099252
 20
43.9111247513033
 10
0.0027504956815392
 20
43.91647030559396
 10
0.0155745358097193
 20
43.92187398581471
 10
0.028359335319692
 20
43.92733614783582
 10
0.0411046394310688
 20
43.9328571475271
 10
0.0538101934107544
 20
43.93843734076653
 10
0.0664757424892741
 20
43.94407708342122
 10
0.0791010319207999
 20
43.94977673136781
 10
0.0916858069303999
 20
43.95553664047793
 10
0.1042298127704271
 20
43.96135716662501
 10
0.1167327946895966
 20
43.96723866568208
 10
0.1291944979111577
 20
43.97318149352122
 10
0.1416146677020151
 20
43.97918600601406
 10
0.1539930492799613
 20
43.98525255903586
 10
0.166329387911901
 20
43.9913815084592
 10
0.1786234288192645
 20
43.99757321015568
 10
0.1908749172598618
 20
44.00382801999874
 10
0.203083598469675
 20
44.01014629386189
 10
0.2152492176901433
 20
44.01652838761811
 10
0.2273715201608866
 20
44.02297465713899
 10
0.239450251139715
 20
44.02948545829713
 10
0.2514851558498776
 20
44.03606114696595
 10
0.2634759795400896
 20
44.04270207901983
 10
0.2754224674608849
 20
44.04940861032899
 10
0.2873243648391508
 20
44.05618109676697
 10
0.2991814169399731
 20
44.06301989420899
 10
0.3109933689811442
 20
44.06992535852622
 10
0.3227599662204739
 20
44.07689784558897
 10
0.3344809539012203
 20
44.08393771127564
 10
0.3461560772611847
 20
44.09104531145384
 10
0.357785081539987
 20
44.09822100200107
 10
0.3693677119808854
 20
44.10546513878625
 10
0.3809037138307758
 20
44.11277807768327
 10
0.3923928323310974
 20
44.12016017456517
 10
0.4038348127196514
 20
44.12761178530534
 10
0.4152294002506097
 20
44.13513326577596
 10
0.4265763401617735
 20
44.14272497185129
 10
0.4378753776800295
 20
44.15038725940394
 10
0.4491262580595503
 20
44.15812048430415
 10
0.46032872655087
 20
44.16592500242813
 10
0.4714825283899702
 20
44.17380116964477
 10
0.482587408820109
 20
44.18174934183116
 10
0.493643113069993
 20
44.18976987485803
 10
0.5046493864101649
 20
44.19786312459929
 10
0.5156059740602359
 20
44.206029446927
 10
0.5265126212707401
 20
44.21426919771329
 10
0.5373690732812975
 20
44.22258273283295
 10
0.5481750753406232
 20
44.23097040815628
 10
0.5589303726810613
 20
44.23943257955807
 10
0.5696347105513269
 20
44.24796960291224
 10
0.580287834201954
 20
44.25658183408813
 10
0.5908894888616488
 20
44.26526962895876
 10
0.6014394197700314
 20
44.27403334340215
 10
0.6119373721903685
 20
44.28287333328671
 10
0.6223830913513666
 20
44.29178995448499
 10
0.6327763224908268
 20
44.30078356287411
 10
0.6431168108611021
 20
44.30985451432206
 10
0.6534043017018121
 20
44.31900316470271
 10
0.6636385402507587
 20
44.32822986989049
 10
0.6738192717511993
 20
44.33753498575835
 10
0.6839462414609443
 20
44.34691886817835
 10
0.6940191946014238
 20
44.35638187302219
 10
0.7040378764304478
 20
44.36592435616467
 10
0.7140020321694465
 20
44.37554667347922
 10
0.7239114070907818
 20
44.38524918083611
 10
0.7337657464195218
 20
44.39503223410793
 10
0.7435647953898297
 20
44.40489618917172
 10
0.7533082992704295
 20
44.41484140189731
 10
0.7629960032700183
 20
44.42486822815363
 10
0.7726276526609582
 20
44.43497702382273
 10
0.7822029926701362
 20
44.44516814477172
 10
0.7917217685499054
 20
44.45544194687317
 10
0.8011837255307908
 20
44.46579878600096
 10
0.8105886088615077
 20
44.4762390180299
 10
0.8199361637907712
 20
44.48676299882843
 10
0.8292261355509252
 20
44.49737108427187
 10
0.83845826938159
 20
44.50806363023412
 10
0.8476323105405754
 20
44.51884099258677
 10
0.8567480042602253
 20
44.52970352720512
 10
0.8658050957801606
 20
44.54065158995809
 10
0.8748033303509146
 20
44.55168553672137
 10
0.8837424532102884
 20
44.5628057233648
 10
0.8926222095997218
 20
44.57401250576411
 10
0.8959666601003846
 20
44.57829490436778
  0
ARC
  5
1C3
330
2
100
AcDbEntity
  8
0
 48
0.6
100
AcDbCircle
 10
26.30828844425194
 20
66.53051226507887
 30
0.0
 40
40.655792
100
AcDbArc
 50
205.5608116567376
 51
217.572365246424
  0
LINE
  5
1C4
330
2
100
AcDbEntity
  8
0
 62
   123
 48
0.6
100
AcDbLine
 10
59.15451444868086
 20
27.67106254105101
 30
0.0
 11
-0.0996433786895068
 21
27.67106254105101
 31
0.0
  0
TEXT
  5
1C5
330
2
100
AcDbEntity
  8
DIM
100
AcDbText
 10
1.270376672300697
 20
29.67106254105101
 30
0.0
 40
3.5
  1
 LEAD WIRE 300mm
100
AcDbText
  0
ARC
  5
1C6
330
2
100
AcDbEntity
  8
0
 48
0.6
100
AcDbCircle
 10
253.5417287131255
 20
-60.15240113583511
 30
0.0
 40
180.745695868503
100
AcDbArc
 50
199.5239152105463
 51
204.0127512398744
  0
ARC
  5
1C7
330
2
100
AcDbEntity
  8
0
 48
0.6
100
AcDbCircle
 10
244.5952693452263
 20
-63.9440027865492
 30
0.0
 40
177.8768800376923
100
AcDbArc
 50
196.7941146662994
 51
203.1018486814986
  0
LWPOLYLINE
  5
1C8
330
2
100
AcDbEntity
  8
0
100
AcDbPolyline
 90
      467
 70
     0
 43
0.0
 10
80.98254303582164
 20
-133.7369841066412
 10
80.98474131790156
 20
-133.7359090208598
 10
81.00498556814113
 20
-133.726106920218
 10
81.02520503352044
 20
-133.716415016347
 10
81.04539975714235
 20
-133.7068328670314
 10
81.06556978211321
 20
-133.6973600300627
 10
81.08571515155039
 20
-133.687996063227
 10
81.10583590856208
 20
-133.6787405243169
 10
81.12593209626195
 20
-133.6695929711202
 10
81.14600375776189
 20
-133.6605529614214
 10
81.16605093616113
 20
-133.6516200530138
 10
81.18607367459139
 20
-133.642793803686
 10
81.20607201615188
 20
-133.6340737712264
 10
81.22604600395083
 20
-133.6254595134221
 10
81.24599568110189
 20
-133.6169505880633
 10
81.26592109072246
 20
-133.6085465529385
 10
81.28582227592071
 20
-133.6002469658375
 10
81.30569927981218
 20
-133.5920513845461
 10
81.32555214549233
 20
-133.583959366855
 10
81.34538091608211
 20
-133.5759704705572
 10
81.36518563470259
 20
-133.5680842534333
 10
81.38496634445095
 20
-133.5603002732794
 10
81.40472308845184
 20
-133.5526180878803
 10
81.42445590980264
 20
-133.5450372550252
 10
81.4441648516224
 20
-133.5375573325042
 10
81.46384995701211
 20
-133.5301778781043
 10
81.48351126910183
 20
-133.5228984496158
 10
81.50314883098166
 20
-133.5157186048279
 10
81.52276268578154
 20
-133.508637901529
 10
81.54235287660069
 20
-133.5016558975073
 10
81.56191944656187
 20
-133.4947721505494
 10
81.58146243876236
 20
-133.4879862184491
 10
81.60098189632137
 20
-133.4812976589921
 10
81.62047786235254
 20
-133.4747060299672
 10
81.63995037996231
 20
-133.4682108891651
 10
81.65939949226252
 20
-133.4618117943721
 10
81.67882524236324
 20
-133.4555083033786
 10
81.69822767337086
 20
-133.4492999739735
 10
81.71760682841179
 20
-133.4431863639454
 10
81.73696275059247
 20
-133.4371670310823
 10
81.75629548301207
 20
-133.4312415331723
 10
81.77560506879144
 20
-133.4254094280062
 10
81.7948915510426
 20
-133.4196702733742
 10
81.81415497288275
 20
-133.4140236270598
 10
81.83339537740195
 20
-133.4084690468574
 10
81.85261280773213
 20
-133.4030060905522
 10
81.8718073069815
 20
-133.3976343159345
 10
81.89097891825097
 20
-133.3923532807941
 10
81.91012768465247
 20
-133.3871625429168
 10
81.92925364931237
 20
-133.382061660094
 10
81.94835685533346
 20
-133.3770501901129
 10
81.96743734582033
 20
-133.3721276907642
 10
81.98649516389217
 20
-133.3672937198342
 10
82.00553035266262
 20
-133.3625478351144
 10
82.02454295523258
 20
-133.3578895943921
 10
82.04353301471222
 20
-133.3533185554559
 10
82.0625005742333
 20
-133.3488342760964
 10
82.08144567688234
 20
-133.3444363141004
 10
82.10036836579114
 20
-133.3401242272559
 10
82.11926868406244
 20
-133.3358975733538
 10
82.13814667479184
 20
-133.3317559101817
 10
82.15700238112207
 20
-133.3276987955313
 10
82.1758358461413
 20
-133.3237257871866
 10
82.19464711296151
 20
-133.3198364429396
 10
82.21343622471271
 20
-133.3160303205793
 10
82.23220322448126
 20
-133.3123069778934
 10
82.25094815539181
 20
-133.3086659726717
 10
82.26967106056166
 20
-133.3051068627002
 10
82.28837198309177
 20
-133.301629205772
 10
82.3070509660922
 20
-133.2982325596725
 10
82.32570805268208
 20
-133.29491648219
 10
82.34434328596236
 20
-133.2916805311173
 10
82.36295670906129
 20
-133.2885242642422
 10
82.38154836507078
 20
-133.2854472393494
 10
82.40011829712079
 20
-133.2824490142309
 10
82.41866654830142
 20
-133.2795291466762
 10
82.43719316174084
 20
-133.276687194472
 10
82.45569818055104
 20
-133.2739227154104
 10
82.47418164782194
 20
-133.2712352672741
 10
82.492643606691
 20
-133.2686244078585
 10
82.51108410026267
 20
-133.2660896949499
 10
82.52950317163252
 20
-133.2636306863361
 10
82.54790086393244
 20
-133.2612469398053
 10
82.5662772202615
 20
-133.2589380131497
 10
82.5846322837317
 20
-133.2567034641559
 10
82.60296609746204
 20
-133.2545428506134
 10
82.62127870455172
 20
-133.2524557303102
 10
82.6395701481217
 20
-133.2504416610339
 10
82.65784047128203
 20
-133.2485002005763
 10
82.67608971714272
 20
-133.2466309067257
 10
82.69431792881206
 20
-133.2448333372683
 10
82.71252514940192
 20
-133.2431070499964
 10
82.73071142203137
 20
-133.2414516026959
 10
82.74887678980142
 20
-133.2398665531549
 10
82.76702129583119
 20
-133.2383514591668
 10
82.78514498322168
 20
-133.2369058785164
 10
82.80324789510109
 20
-133.2355293689932
 10
82.82133007456307
 20
-133.2342214883895
 10
82.83939156472134
 20
-133.2329817944872
 10
82.85743240870054
 20
-133.2318098450825
 10
82.87545264960156
 20
-133.2307051979585
 10
82.89345233054175
 20
-133.2296674109064
 10
82.911431494633
 20
-133.2286960417162
 10
82.92939018497078
 20
-133.2277906481752
 10
82.94732844468146
 20
-133.2269507880731
 10
82.96524631687153
 20
-133.2261760191975
 10
82.98314384465106
 20
-133.2254658993358
 10
83.00102107114275
 20
-133.2248199862812
 10
83.01887803944211
 20
-133.2242378378179
 10
83.03671479266105
 20
-133.22371901174
 10
83.05453137392236
 20
-133.223263065831
 10
83.0723278263324
 20
-133.2228695578822
 10
83.09010419300124
 20
-133.2225380456832
 10
83.10786051704255
 20
-133.2222680870202
 10
83.1255968415628
 20
-133.2220592396851
 10
83.14331320968289
 20
-133.2219110614653
 10
83.16100966449106
 20
-133.2218231101472
 10
83.17868624913375
 20
-133.2217949435243
 10
83.19634300669189
 20
-133.2218261193824
 10
83.21397998029189
 20
-133.2219161955102
 10
83.23159721304206
 20
-133.2220647296973
 10
83.24919474804138
 20
-133.2222712797332
 10
83.26677262843281
 20
-133.2225354034042
 10
83.28433089729172
 20
-133.2228566585033
 10
83.30186959775186
 20
-133.2232346028152
 10
83.31938877292143
 20
-133.2236687941302
 10
83.33688846590142
 20
-133.2241587902379
 10
83.35436871981277
 20
-133.224704148927
 10
83.37182957776189
 20
-133.2253044279854
 10
83.38927108286247
 20
-133.2259591852033
 10
83.40669327822274
 20
-133.2266679783651
 10
83.4240962069618
 20
-133.227430365266
 10
83.44147991218255
 20
-133.2282459036917
 10
83.45884443700219
 20
-133.2291141514313
 10
83.4761898245217
 20
-133.2300346662735
 10
83.49351611787119
 20
-133.231007006006
 10
83.51082336014245
 20
-133.232030728418
 10
83.52811159446195
 20
-133.2331053913015
 10
83.54538086392151
 20
-133.2342305524401
 10
83.56263121165124
 20
-133.2354057696283
 10
83.57986268076293
 20
-133.2366306006494
 10
83.59707531435217
 20
-133.2379046032953
 10
83.61426915554169
 20
-133.239227335355
 10
83.63144424744154
 20
-133.2405983546163
 10
83.64860063315084
 20
-133.2420172188693
 10
83.66573835581242
 20
-133.2434834859002
 10
83.68285745850172
 20
-133.2449967135014
 10
83.69995798434159
 20
-133.2465564594573
 10
83.71703997646203
 20
-133.2481622815602
 10
83.73410347794218
 20
-133.2498137375971
 10
83.75114853192302
 20
-133.2515103853573
 10
83.76817518149277
 20
-133.2532517826322
 10
83.78518346978147
 20
-133.2550374872068
 10
83.80217343988283
 20
-133.2568670568714
 10
83.81914513492141
 20
-133.2587400494142
 10
83.83609859800184
 20
-133.2606560226252
 10
83.85303387224142
 20
-133.2626145342945
 10
83.86995100075202
 20
-133.2646151422067
 10
83.88685002663281
 20
-133.2666574041516
 10
83.90373099300106
 20
-133.2687408779213
 10
83.92059394297234
 20
-133.2708651213017
 10
83.93743891966209
 20
-133.2730296920842
 10
83.95426596617125
 20
-133.275234148056
 10
83.97107512561181
 20
-133.2774780470053
 10
83.98786644110099
 20
-133.27976094672
 10
84.00463995574158
 20
-133.2820824049919
 10
84.02139571265092
 20
-133.2844419796082
 10
84.03813375494264
 20
-133.286839228357
 10
84.05485412572145
 20
-133.289273709029
 10
84.07155686811185
 20
-133.2917449794125
 10
84.08824202521122
 20
-133.2942525972952
 10
84.10490964013318
 20
-133.2967961204664
 10
84.12155975599146
 20
-133.2993751067139
 10
84.13819241589244
 20
-133.3019891138282
 10
84.15480766295171
 20
-133.3046376995982
 10
84.17140554029193
 20
-133.3073204218105
 10
84.18798609100141
 20
-133.3100368382577
 10
84.20454935821203
 20
-133.3127865067243
 10
84.22109538501194
 20
-133.3155689850011
 10
84.23762421454211
 20
-133.3183838308789
 10
84.2541358898927
 20
-133.3212306021426
 10
84.27063045417183
 20
-133.3241088565839
 10
84.28710795051141
 20
-133.3270181519905
 10
84.3035684220124
 20
-133.3299580461523
 10
84.32001191177208
 20
-133.3329280968562
 10
84.33643846292238
 20
-133.3359278618921
 10
84.35284811856238
 20
-133.338956899049
 10
84.3692409218131
 20
-133.3420147661153
 10
84.38561691577183
 20
-133.3451010208804
 10
84.40197614356312
 20
-133.3482152211312
 10
84.41831864829168
 20
-133.3513569246596
 10
84.43464447307292
 20
-133.3545256892529
 10
84.45095366101325
 20
-133.3577210726992
 10
84.46724625523186
 20
-133.3609426327869
 10
84.48352229882242
 20
-133.3641899273073
 10
84.49978183492225
 20
-133.3674625140474
 10
84.51602490662137
 20
-133.3707599507955
 10
84.53225155703171
 20
-133.3740817953414
 10
84.54846182928324
 20
-133.3774276054744
 10
84.56465576646243
 20
-133.3807969389833
 10
84.58083341170114
 20
-133.3841893536554
 10
84.59699480810217
 20
-133.3876044072793
 10
84.61313999877187
 20
-133.3910416576461
 10
84.62926902683305
 20
-133.3945006625439
 10
84.64538193539214
 20
-133.3979809797614
 10
84.66147876755007
 20
-133.4014821670851
 10
84.67755956643328
 20
-133.4050037823082
 10
84.69362437514268
 20
-133.4085453832156
 10
84.7096732368011
 20
-133.4121065275965
 10
84.72570619451309
 20
-133.4156867732434
 10
84.74172329138331
 20
-133.4192856779402
 10
84.75772457053265
 20
-133.4229027994799
 10
84.7737100750621
 20
-133.4265376956472
 10
84.78967984810173
 20
-133.430189924234
 10
84.80563393274334
 20
-133.4338590430304
 10
84.82157237210069
 20
-133.4375446098194
 10
84.83749520929107
 20
-133.4412461823952
 10
84.85340248743181
 20
-133.4449633185447
 10
84.86929424962204
 20
-133.4486955760574
 10
84.88517053898268
 20
-133.4524425127209
 10
84.90103139861297
 20
-133.456203686325
 10
84.91687687164107
 20
-133.4599786546595
 10
84.93270700116246
 20
-133.4637669755092
 10
84.94852183029271
 20
-133.467568206667
 10
84.96432140215096
 20
-133.471381905921
 10
84.98010575984173
 20
-133.4752076310586
 10
84.99587494647148
 20
-133.4790449398713
 10
85.01162900516122
 20
-133.4828933901434
 10
85.02736797901183
 20
-133.4867525396674
 10
85.04309191115156
 20
-133.4906219462313
 10
85.05880084467047
 20
-133.4945011676217
 10
85.07449482270043
 20
-133.4983897616305
 10
85.09017388834239
 20
-133.5022872860453
 10
85.10583808470093
 20
-133.5061932986562
 10
85.12148745489161
 20
-133.5101073572495
 10
85.13712204204258
 20
-133.5140290196147
 10
85.15274188924214
 20
-133.517957843543
 10
85.16834703961308
 20
-133.5218933868193
 10
85.18393753625081
 20
-133.5258352072372
 10
85.19951342229274
 20
-133.5297828625795
 10
85.2150747408325
 20
-133.5337359106409
 10
85.23062153499289
 20
-133.5376939092059
 10
85.24615384787123
 20
-133.5416564160663
 10
85.26167172259214
 20
-133.5456229890093
 10
85.27717520225108
 20
-133.5495931858234
 10
85.29266432998175
 20
-133.5535665642995
 10
85.30813914887245
 20
-133.5575426822221
 10
85.32359970205128
 20
-133.5615210973853
 10
85.33904603262111
 20
-133.5655013675763
 10
85.35447818369197
 20
-133.5694830505806
 10
85.36989619837024
 20
-133.5734657041913
 10
85.38530011979149
 20
-133.5774488861945
 10
85.40068999104208
 20
-133.581432154381
 10
85.41606585524297
 20
-133.5854150665372
 10
85.43142775550062
 20
-133.5893971804555
 10
85.44677573493229
 20
-133.5933780539205
 10
85.46210983665172
 20
-133.5973572447231
 10
85.47743010376164
 20
-133.6013343106532
 10
85.49273657938305
 20
-133.6053088094971
 10
85.5080293066114
 20
-133.6092802990455
 10
85.52330832857135
 20
-133.6132483370846
 10
85.5385736883711
 20
-133.6172124814081
 10
85.55382542912251
 20
-133.6211722898012
 10
85.56906359393201
 20
-133.6251273200531
 10
85.58428822591324
 20
-133.629077129953
 10
85.59949936818361
 20
-133.6330212772893
 10
85.61469706384217
 20
-133.6369593198521
 10
85.62988135602084
 20
-133.6408908154292
 10
85.64505228781149
 20
-133.644815321809
 10
85.66020990233321
 20
-133.6487323967807
 10
85.67535424269244
 20
-133.6526415981342
 10
85.69048535200108
 20
-133.6565424836561
 10
85.70560327338192
 20
-133.6604346111374
 10
85.72070804993222
 20
-133.6643175383663
 10
85.73579972476203
 20
-133.66819082313
 10
85.75087834100143
 20
-133.6720540232188
 10
85.76594394174227
 20
-133.6759066964215
 10
85.7809965701001
 20
-133.6797484005262
 10
85.79603626919219
 20
-133.6835786933235
 10
85.81106308212133
 20
-133.6873971326015
 10
85.8260770520121
 20
-133.6912032761478
 10
85.84107822196186
 20
-133.6949966817512
 10
85.85606663509153
 20
-133.6987769072018
 10
85.87104233451304
 20
-133.7025435102854
 10
85.88600536332181
 20
-133.7062960487954
 10
85.90095576465158
 20
-133.7100340805184
 10
85.91589358160147
 20
-133.7137571632422
 10
85.93081885727064
 20
-133.7174648547583
 10
85.9457316348018
 20
-133.7211567128535
 10
85.9606319572706
 20
-133.7248322953147
 10
85.97551986782148
 20
-133.7284911599352
 10
85.99039540954093
 20
-133.7321328645
 10
86.00525862555171
 20
-133.7357569668014
 10
86.02010955896206
 20
-133.7393630246253
 10
86.03494825288201
 20
-133.7429505957615
 10
86.04977475042161
 20
-133.746519237998
 10
86.06458909470189
 20
-133.7500685091262
 10
86.07939132882185
 20
-133.7535979669312
 10
86.09418149590077
 20
-133.7571071692044
 10
86.10895963905043
 20
-133.760595673734
 10
86.12372580137181
 20
-133.7640630383095
 10
86.13848002599139
 20
-133.767508820719
 10
86.15322235601366
 20
-133.7709325787494
 10
86.16795283454139
 20
-133.7743338701928
 10
86.18267150469202
 20
-133.7777122528372
 10
86.19737840958281
 20
-133.7810672844713
 10
86.21207359232197
 20
-133.7843985228823
 10
86.2267570960123
 20
-133.7877055258583
 10
86.24142896378202
 20
-133.7909878511922
 10
86.25608923872118
 20
-133.7942450566701
 10
86.27073796396166
 20
-133.7974767000825
 10
86.28537518260072
 20
-133.800682339214
 10
86.30000093776128
 20
-133.8038615318594
 10
86.31461527253327
 20
-133.8070138358019
 10
86.32921823005039
 20
-133.8101388088355
 10
86.3438098534209
 20
-133.8132360087441
 10
86.35839018574205
 20
-133.8163049933203
 10
86.37295927013314
 20
-133.8193453203504
 10
86.38751714971318
 20
-133.8223565476262
 10
86.40206386758313
 20
-133.8253382329325
 10
86.41659946686216
 20
-133.8282899340601
 10
86.43112399064213
 20
-133.8312112087999
 10
86.44563748206222
 20
-133.8341016149385
 10
86.46013998422153
 20
-133.8369607102624
 10
86.47463154022103
 20
-133.8397880525652
 10
86.48911219319256
 20
-133.842583199633
 10
86.50358198623164
 20
-133.8453457092543
 10
86.51804096245019
 20
-133.8480751392193
 10
86.53248916497089
 20
-133.8507710473143
 10
86.54692663689111
 20
-133.8534329913324
 10
86.56135342133188
 20
-133.8560605290593
 10
86.57576956140133
 20
-133.8586532182842
 10
86.59017510021135
 20
-133.8612106167951
 10
86.60457008087197
 20
-133.863732282384
 10
86.61895454649332
 20
-133.8662177728369
 10
86.63332854018356
 20
-133.8686666459422
 10
86.64769210506184
 20
-133.871078459492
 10
86.66204528424186
 20
-133.8734527712719
 10
86.67638812082095
 20
-133.8757891390712
 10
86.69072065793283
 20
-133.8780871206793
 10
86.70504293866201
 20
-133.8803462738848
 10
86.71935500613312
 20
-133.8825661564781
 10
86.73365690346349
 20
-133.8847463262452
 10
86.74794867375039
 20
-133.8868863409772
 10
86.76223036012219
 20
-133.888985758462
 10
86.77650200567244
 20
-133.891044136488
 10
86.79076365352214
 20
-133.8930610328455
 10
86.80501534678318
 20
-133.895036005321
 10
86.81925712856193
 20
-133.8969686117055
 10
86.83348904197215
 20
-133.8988584097873
 10
86.84771113012194
 20
-133.9007049573531
 10
86.86192343613241
 20
-133.9025078121943
 10
86.8761260031008
 20
-133.9042665320984
 10
86.8903188741517
 20
-133.9059806748553
 10
86.90450209239157
 20
-133.907649798252
 10
86.9186757009322
 20
-133.9092734600811
 10
86.93283974287098
 20
-133.910851218125
 10
86.94699426134162
 20
-133.9123826301795
 10
86.96113929944131
 20
-133.9138672540274
 10
86.97527490029299
 20
-133.9153046474633
 10
86.98940110699208
 20
-133.9166943682716
 10
87.00351796266135
 20
-133.9180359742416
 10
87.01762551041269
 20
-133.9193290231641
 10
87.0317237933416
 20
-133.9205730728269
 10
87.04581285458173
 20
-133.9217676810174
 10
87.05989273723231
 20
-133.9229124055262
 10
87.07396348440147
 20
-133.9240068041424
 10
87.08802513921204
 20
-133.9250504346563
 10
87.10207774476314
 20
-133.9260428548507
 10
87.11612134417213
 20
-133.9269836225182
 10
87.13015598054175
 20
-133.9278722954508
 10
87.14418169700207
 20
-133.9287084314322
 10
87.15819853665037
 20
-133.9294915882522
 10
87.17220654260037
 20
-133.9302213237014
 10
87.18620575796215
 20
-133.930897195568
 10
87.20019622585118
 20
-133.93151876164
 10
87.21417798937201
 20
-133.9320855797071
 10
87.22815109164207
 20
-133.9325972075593
 10
87.24211557577131
 20
-133.9330532029823
 10
87.25607148487164
 20
-133.9334531237656
 10
87.2700188620513
 20
-133.9337965277015
 10
87.28395775043303
 20
-133.9340829725746
 10
87.29788819310144
 20
-133.9343120161764
 10
87.31181023319207
 20
-133.9344832162922
 10
87.32572391381131
 20
-133.9345961307162
 10
87.3396292780619
 20
-133.9346503172321
 10
87.35352636907213
 20
-133.9346453336309
 10
87.36741522993197
 20
-133.9345807377038
 10
87.38129590377161
 20
-133.9344560872353
 10
87.39516843369187
 20
-133.934270940016
 10
87.40903286280104
 20
-133.9340248538362
 10
87.42288923421275
 20
-133.9337173864822
 10
87.43673759104259
 20
-133.933348095744
 10
87.45057797640058
 20
-133.9329165394113
 10
87.46441043340219
 20
-133.9324222752706
 10
87.47823500515027
 20
-133.9318648611121
 10
87.49205173477113
 20
-133.9312438547257
 10
87.50586066535126
 20
-133.9305588138989
 10
87.51966184002069
 20
-133.9298092964193
 10
87.53345530188218
 20
-133.9289948600792
 10
87.54724109405129
 20
-133.9281150626632
 10
87.56101925963251
 20
-133.9271694619641
 10
87.57478984175053
 20
-133.926157615769
 10
87.58855288351353
 20
-133.9250790818652
 10
87.60230842802249
 20
-133.9239334180431
 10
87.6160565183911
 20
-133.9227201820911
 10
87.62979719773303
 20
-133.9214389317991
 10
87.64353050917108
 20
-133.9200892249552
 10
87.65725649579167
 20
-133.9186706193453
 10
87.67097520073205
 20
-133.9171826727646
 10
87.68468666708235
 20
-133.9156249429949
 10
87.69839093797257
 20
-133.9139969878322
 10
87.71208805650188
 20
-133.912298365058
 10
87.72577806578215
 20
-133.9105286324654
 10
87.73946100892155
 20
-133.908687347843
 10
87.75313692904296
 20
-133.9067740689801
 10
87.76680586925087
 20
-133.9047883536634
 10
87.78046787266267
 20
-133.9027297596812
 10
87.79412298237206
 20
-133.9005978448241
 10
87.80777124151269
 20
-133.8983921668831
 10
87.82141269318364
 20
-133.8961122836433
 10
87.83504738049144
 20
-133.8937577528948
 10
87.84867534656244
 20
-133.891328132426
 10
87.86229663449216
 20
-133.8888229800262
 10
87.87591128740151
 20
-133.8862418534835
 10
87.88951934840246
 20
-133.8835843105893
 10
87.90312086060133
 20
-133.880849909129
 10
87.91671586710092
 20
-133.8780382068924
 10
87.93030441104219
 20
-133.8751487616681
 10
87.94388653550072
 20
-133.8721811312469
 10
87.9574622836137
 20
-133.8691348734161
 10
87.97103169848218
 20
-133.8660095459644
 10
87.98459482321254
 20
-133.8628047066819
 10
87.99815170092207
 20
-133.8595199133554
 10
88.0117023747209
 20
-133.8561547237744
 10
88.02524688773358
 20
-133.8527086957282
 10
88.03878528304103
 20
-133.8491813870076
 10
88.0523176037825
 20
-133.845572355395
 10
88.06584389306246
 20
-133.841881158686
 10
88.07936419398195
 20
-133.8381073546673
 10
88.09287854965099
 20
-133.8342505011276
 10
88.10638700320145
 20
-133.8303101558534
 10
88.11988959773247
 20
-133.8262858766368
 10
88.13338637634315
 20
-133.8221772212654
 10
88.14687738217093
 20
-133.8179837475262
 10
88.16036265830211
 20
-133.8137050132112
 10
88.17384224786129
 20
-133.8093405761084
 10
88.18731619396222
 20
-133.8048899940037
 10
88.20078453970221
 20
-133.8003528246894
 10
88.21424732821311
 20
-133.7957286259542
 10
88.22770460258309
 20
-133.7910169555843
 10
88.24115640593142
 20
-133.7862173713705
 10
88.25460278139166
 20
-133.781329431101
 10
88.26804377204117
 20
-133.7763526925639
 10
88.28147942101187
 20
-133.7712867135504
 10
88.29490977140107
 20
-133.7661310518464
 10
88.30833486633331
 20
-133.7608852652421
 10
88.32175474892231
 20
-133.7555489115259
 10
88.33516946226358
 20
-133.7501215484891
 10
88.34857904947261
 20
-133.7446027339173
 10
88.36198355367217
 20
-133.7389920255998
 10
88.37538301796143
 20
-133.7332889813249
 10
88.3887774854613
 20
-133.7274931588843
 10
88.4021669992728
 20
-133.7216041160663
 10
88.4155516025223
 20
-133.7156214106552
 10
88.4289313383017
 20
-133.7095446004449
 10
88.43868439829224
 20
-133.7050444123496
  0
LINE
  5
1C9
330
2
100
AcDbEntity
  8
0
 48
0.6
100
AcDbLine
 10
206.3038226982516
 20
-49.76380958573736
 30
0.0
 11
206.3038226982516
 21
-94.76380958573736
 31
0.0
  0
DIMENSION
  5
1CA
102
{ACAD_XDICTIONARY
360
1CB
102
}
102
{ACAD_REACTORS
330
1CC
102
}
330
2
100
AcDbEntity
  8
0
100
AcDbDimension
  2
*D38
 10
218.3153464866808
 20
-95.76380958573691
 30
0.0
 11
218.3153464866808
 21
-72.30391681265428
 31
0.0
 70
   160
  1
%%c<>
  3
STANDARD
100
AcDbAlignedDimension
 13
205.3038226982516
 23
-48.76380958573736
 33
0.0
 14
205.3038226982516
 24
-95.76380958573691
 34
0.0
 50
90.0
100
AcDbRotatedDimension
  0
LINE
  5
1D9
330
2
100
AcDbEntity
  8
0
100
AcDbLine
 10
199.3038226982516
 20
-97.56380958573799
 30
0.0
 11
199.3038226982516
 21
-96.76380958573737
 31
0.0
  0
ARC
  5
1DA
330
2
100
AcDbEntity
  8
0
100
AcDbCircle
 10
198.8038226982516
 20
-95.76380958573736
 30
0.0
 40
1.0
100
AcDbArc
 50
180.0
 51
270.0
  0
ARC
  5
1DB
102
{ACAD_REACTORS
330
1CC
102
}
330
2
100
AcDbEntity
  8
0
 48
0.6
100
AcDbCircle
 10
205.3038226982516
 20
-94.76380958573736
 30
0.0
 40
1.0
100
AcDbArc
 50
270.0
 51
0.0
  0
LINE
  5
1DC
330
2
100
AcDbEntity
  8
0
100
AcDbLine
 10
198.8038226982516
 20
-97.56380958573799
 30
0.0
 11
203.8038226982517
 21
-97.56380958573799
 31
0.0
  0
LINE
  5
1DD
330
2
100
AcDbEntity
  8
0
100
AcDbLine
 10
203.3038226982516
 20
-97.56380958573799
 30
0.0
 11
203.3038226982516
 21
-96.76380958573737
 31
0.0
  0
LINE
  5
1DE
330
2
100
AcDbEntity
  8
0
100
AcDbLine
 10
201.3038226982516
 20
-97.56380958573799
 30
0.0
 11
201.3038226982516
 21
-96.76380958573737
 31
0.0
  0
ARC
  5
1DF
330
2
100
AcDbEntity
  8
0
100
AcDbCircle
 10
203.8038226982517
 20
-95.76380958573736
 30
0.0
 40
1.0
100
AcDbArc
 50
270.0
 51
0.0
  0
LINE
  5
1E0
330
2
100
AcDbEntity
  8
0
100
AcDbLine
 10
198.8038226982516
 20
-96.76380958573737
 30
0.0
 11
203.8038226982517
 21
-96.76380958573737
 31
0.0
  0
LINE
  5
1E1
330
2
100
AcDbEntity
  8
0
 48
0.6
100
AcDbLine
 10
205.3038226982516
 20
-95.76380958573736
 30
0.0
 11
196.3038226982516
 21
-95.76380958573736
 31
0.0
  0
LINE
  5
1E2
330
2
100
AcDbEntity
  8
0
100
AcDbLine
 10
144.3038226982515
 20
-31.86380958573773
 30
0.0
 11
194.8041621031696
 21
-32.7619019135027
 31
0.0
  0
DIMENSION
  5
1E3
102
{ACAD_XDICTIONARY
360
1E4
102
}
102
{ACAD_REACTORS
330
1E5
102
}
330
2
100
AcDbEntity
  8
0
100
AcDbDimension
  2
*D37
 10
196.3038226982516
 20
1.083235232028981
 30
0.0
 11
201.3038226982516
 21
1.083235232028981
 31
0.0
 70
   160
  3
STANDARD
100
AcDbAlignedDimension
 13
206.3038226982516
 23
-49.76380958573736
 33
0.0
 14
196.3038226982516
 24
-34.29380958573711
 34
0.0
100
AcDbRotatedDimension
  0
ARC
  5
1F2
102
{ACAD_REACTORS
330
1CC
330
1E5
102
}
330
2
100
AcDbEntity
  8
0
 48
0.6
100
AcDbCircle
 10
205.3038226982516
 20
-49.76380958573736
 30
0.0
 40
1.0
100
AcDbArc
 50
0.0
 51
90.0
  0
LINE
  5
1F3
330
2
100
AcDbEntity
  8
0
 48
0.6
100
AcDbLine
 10
205.3038226982516
 20
-48.76380958573782
 30
0.0
 11
196.3038226982516
 21
-48.76380958573782
 31
0.0
  0
LINE
  5
1F4
330
2
100
AcDbEntity
  8
0
100
AcDbLine
 10
194.8041621031696
 20
-32.7619019135027
 30
0.0
 11
196.3038226982516
 21
-34.29380958573711
 31
0.0
  0
LINE
  5
1F5
102
{ACAD_REACTORS
330
208
102
}
330
2
100
AcDbEntity
  8
0
100
AcDbLine
 10
144.3038226982515
 20
-112.663809585737
 30
0.0
 11
194.8041621031696
 21
-111.7657172579743
 31
0.0
  0
LINE
  5
1F6
330
2
100
AcDbEntity
  8
0
100
AcDbLine
 10
83.46037674179024
 20
-119.6063323614479
 30
0.0
 11
197.8038226982516
 21
-119.6063323614488
 31
0.0
  0
LINE
  5
1F7
330
2
100
AcDbEntity
  8
0
100
AcDbLine
 10
79.10631601049136
 20
-114.606332361453
 30
0.0
 11
195.8038226982516
 21
-114.6063323614439
 31
0.0
  0
ARC
  5
1F8
330
2
100
AcDbEntity
  8
0
100
AcDbCircle
 10
82.80382269825167
 20
-112.2638095857373
 30
0.0
 40
0.5
100
AcDbArc
 50
270.0
 51
0.0
  0
LINE
  5
1F9
330
2
100
AcDbEntity
  8
0
100
AcDbLine
 10
83.3038226982517
 20
-111.7638095857373
 30
0.0
 11
83.3038226982517
 21
-112.2638095857373
 31
0.0
  0
ARC
  5
1FA
330
2
100
AcDbEntity
  8
0
 48
0.6
100
AcDbCircle
 10
114.6065446982519
 20
-112.8524555857369
 30
0.0
 40
39.15579199999999
100
AcDbArc
 50
179.8702870000233
 51
183.6102158837779
  0
ARC
  5
1FB
330
2
100
AcDbEntity
  8
0
100
AcDbCircle
 10
79.0978713689201
 20
-115.914100785189
 30
0.0
 40
1.318158315128889
100
AcDbArc
 50
89.65642249345519
 51
172.1237927370686
  0
ARC
  5
1FC
330
2
100
AcDbEntity
  8
0
 48
0.6
100
AcDbCircle
 10
114.9027506341407
 20
-112.927844061588
 30
0.0
 40
37.855792
100
AcDbArc
 50
179.8658330000312
 51
183.9724199931055
  0
ARC
  5
1FD
330
2
100
AcDbEntity
  8
0
 48
0.6
100
AcDbCircle
 10
114.3140506450307
 20
-112.7661444767309
 30
0.0
 40
35.255792
100
AcDbArc
 50
179.9962054631615
 51
182.9919319862273
  0
ARC
  5
1FE
330
2
100
AcDbEntity
  8
0
 48
0.6
100
AcDbCircle
 10
114.6065446982519
 20
-112.8524555857369
 30
0.0
 40
33.95579199999998
100
AcDbArc
 50
179.85042300002
 51
182.9607459492086
  0
ARC
  5
1FF
330
2
100
AcDbEntity
  8
0
100
AcDbCircle
 10
83.46037674179024
 20
-120.106332361448
 30
0.0
 40
0.5
100
AcDbArc
 50
90.0
 51
177.9685271120391
  0
ARC
  5
200
330
2
100
AcDbEntity
  8
0
100
AcDbCircle
 10
75.06595402513994
 20
-124.2133336295945
 30
0.0
 40
8.907313409310658
100
AcDbArc
 50
24.23072274293526
 51
94.90087069773977
  0
ARC
  5
201
330
2
100
AcDbEntity
  8
0
100
AcDbCircle
 10
197.8038226982516
 20
-113.6063323614498
 30
0.0
 40
6.0
100
AcDbArc
 50
270.0
 51
0.0
  0
ARC
  5
202
330
2
100
AcDbEntity
  8
0
100
AcDbCircle
 10
195.8038226982516
 20
-111.6063323614479
 30
0.0
 40
3.0
100
AcDbArc
 50
270.0
 51
0.0
  0
LINE
  5
203
330
2
100
AcDbEntity
  8
0
100
AcDbLine
 10
196.3038226982516
 20
-110.2338095857374
 30
0.0
 11
194.8041621031696
 21
-111.7657172579743
 31
0.0
  0
LINE
  5
204
102
{ACAD_REACTORS
330
1E5
102
}
330
2
100
AcDbEntity
  8
0
100
AcDbLine
 10
196.3038226982516
 20
-34.29380958573711
 30
0.0
 11
196.3038226982516
 21
-110.2338095857374
 31
0.0
  0
LINE
  5
205
330
2
100
AcDbEntity
  8
0
100
AcDbLine
 10
144.3038226982515
 20
-31.86380958573773
 30
0.0
 11
144.3038226982515
 21
-112.663809585737
 31
0.0
  0
DIMENSION
  5
206
102
{ACAD_XDICTIONARY
360
207
102
}
102
{ACAD_REACTORS
330
208
102
}
330
2
100
AcDbEntity
  8
0
100
AcDbDimension
  2
*D36
 10
229.3910350863296
 20
-111.7657172579743
 30
0.0
 11
229.3910350863296
 21
-71.87202452254678
 31
0.0
 70
   160
  1
%%C<>
  3
STANDARD
100
AcDbAlignedDimension
 13
194.8041621031696
 23
-32.7619019135027
 33
0.0
 14
194.8041621031696
 24
-111.7657172579743
 34
0.0
 50
90.0
100
AcDbRotatedDimension
  0
LINE
  5
215
330
2
100
AcDbEntity
  8
0
100
AcDbLine
 10
203.8038226982517
 20
-97.56380958573799
 30
0.0
 11
203.8038226982517
 21
-113.6063323614498
 31
0.0
  0
LINE
  5
216
330
2
100
AcDbEntity
  8
0
100
AcDbLine
 10
198.8038226982516
 20
-97.56380958573799
 30
0.0
 11
198.8038226982516
 21
-111.6063323614479
 31
0.0
  0
ARC
  5
217
330
2
100
AcDbEntity
  8
0
100
AcDbCircle
 10
75.84803117834053
 20
44.01635509105108
 30
0.0
 40
0.5
100
AcDbArc
 50
90.0
 51
177.9685271120391
  0
ARC
  5
218
330
2
100
AcDbEntity
  8
0
 48
0.6
100
AcDbCircle
 10
193.6910097690088
 20
81.60088852375531
 30
0.0
 40
124.088024952184
100
AcDbArc
 50
197.8498303065328
 51
203.2675367431209
  0
LINE
  5
219
330
2
100
AcDbEntity
  8
0
100
AcDbLine
 10
75.84803117834053
 20
44.51635509105199
 30
0.0
 11
190.1914771348001
 21
44.51635509104971
 31
0.0
  0
LINE
  5
21A
330
2
100
AcDbEntity
  8
0
100
AcDbLine
 10
136.6914771347999
 20
131.358877866762
 30
0.0
 11
64.79147713480052
 21
131.358877866762
 31
0.0
  0
DIMENSION
  5
21B
330
2
100
AcDbEntity
  8
0
100
AcDbDimension
  2
*D39
 10
188.6914771348001
 20
156.2389445248279
 30
0.0
 11
123.6914771347999
 21
156.2389445248279
 31
0.0
 70
   160
  3
STANDARD
100
AcDbAlignedDimension
 13
58.69147713480014
 23
151.958877866761
 33
0.0
 14
188.6914771348001
 24
129.8288778667611
 34
0.0
100
AcDbRotatedDimension
  0
LINE
  5
228
330
2
100
AcDbEntity
  8
0
100
AcDbLine
 10
75.19147713480015
 20
51.35887786676221
 30
0.0
 11
66.19147713480015
 21
51.35887786676221
 31
0.0
  0
LINE
  5
229
330
2
100
AcDbEntity
  8
0
100
AcDbLine
 10
136.6914771347999
 20
52.35887786676221
 30
0.0
 11
64.79147713480052
 21
52.35887786676221
 31
0.0
  0
LINE
  5
22A
330
2
100
AcDbEntity
  8
CEN
 48
0.6
100
AcDbLine
 10
203.746513921551
 20
91.85887786676222
 30
0.0
 11
37.57939629571046
 21
91.85887786676222
 31
0.0
  0
DIMENSION
  5
22B
330
2
100
AcDbEntity
  8
0
100
AcDbDimension
  2
*D44
 10
58.69147713480014
 20
156.2389445248279
 30
0.0
 11
51.94147713480013
 21
156.2389445248279
 31
0.0
 70
   160
  3
STANDARD
100
AcDbAlignedDimension
 13
45.19147713480013
 23
94.96387786676086
 33
0.0
 14
58.69147713480014
 24
131.858877866762
 34
0.0
100
AcDbRotatedDimension
  0
LINE
  5
238
330
2
100
AcDbEntity
  8
2
100
AcDbLine
 10
51.69147713480015
 20
93.77887786675913
 30
0.0
 11
45.69147713480013
 21
90.60345138621729
 31
0.0
  0
LINE
  5
23A
330
2
100
AcDbEntity
  8
2
100
AcDbLine
 10
51.24537414502082
 20
94.56387786675895
 30
0.0
 11
45.69147713480013
 21
91.75815192459731
 31
0.0
  0
LINE
  5
23B
330
2
100
AcDbEntity
  8
2
100
AcDbLine
 10
45.69147713480013
 20
95.46387786676088
 30
0.0
 11
45.69147713480013
 21
88.25387786675994
 31
0.0
  0
LINE
  5
23C
330
2
100
AcDbEntity
  8
0
100
AcDbLine
 10
45.19147713480013
 20
94.96387786676086
 30
0.0
 11
45.19147713480013
 21
88.75387786675901
 31
0.0
  0
LINE
  5
23D
330
2
100
AcDbEntity
  8
2
100
AcDbLine
 10
51.69147713480015
 20
94.56387786675895
 30
0.0
 11
51.69147713480015
 21
89.15387786675911
 31
0.0
  0
LINE
  5
23E
330
2
100
AcDbEntity
  8
2
100
AcDbLine
 10
51.69147713480015
 20
92.62417732838093
 30
0.0
 11
45.69147713480013
 21
89.49632606362499
 31
0.0
  0
LINE
  5
23F
330
2
100
AcDbEntity
  8
0
100
AcDbLine
 10
45.19147713480013
 20
89.15387786675911
 30
0.0
 11
51.69147713480015
 21
89.15387786675911
 31
0.0
  0
LINE
  5
240
330
2
100
AcDbEntity
  8
0
100
AcDbLine
 10
45.19147713480013
 20
88.75387786675901
 30
0.0
 11
45.69147713480013
 21
88.25387786675994
 31
0.0
  0
LINE
  5
241
330
2
100
AcDbEntity
  8
0
100
AcDbLine
 10
45.19147713480013
 20
94.56387786675895
 30
0.0
 11
51.69147713480015
 21
94.56387786675895
 31
0.0
  0
LINE
  5
242
330
2
100
AcDbEntity
  8
0
100
AcDbLine
 10
45.69147713480013
 20
95.46387786676088
 30
0.0
 11
45.19147713480013
 21
94.96387786676086
 31
0.0
  0
LINE
  5
243
330
2
100
AcDbEntity
  8
CEN
 48
0.6
100
AcDbLine
 10
42.82100099149102
 20
88.76437786675976
 30
0.0
 11
59.69147713480015
 21
88.76437786675976
 31
0.0
  0
LINE
  5
244
330
2
100
AcDbEntity
  8
0
100
AcDbLine
 10
45.69147713480013
 20
88.25387786675994
 30
0.0
 11
56.69147713480015
 21
88.25387786675994
 31
0.0
  0
LINE
  5
245
330
2
100
AcDbEntity
  8
CEN
 48
0.6
100
AcDbLine
 10
42.82100099149102
 20
94.95337786676101
 30
0.0
 11
59.69147713480015
 21
94.95337786676101
 31
0.0
  0
LINE
  5
246
330
2
100
AcDbEntity
  8
0
100
AcDbLine
 10
45.69147713480013
 20
95.46387786676088
 30
0.0
 11
56.69147713480015
 21
95.46387786676088
 31
0.0
  0
ARC
  5
247
330
2
100
AcDbEntity
  8
0
100
AcDbCircle
 10
51.73466404563078
 20
62.33764697770993
 30
0.0
 40
26.81626566478071
100
AcDbArc
 50
79.34799026067249
 51
90.09227342919791
  0
ARC
  5
248
330
2
100
AcDbEntity
  8
0
100
AcDbCircle
 10
51.73466404563078
 20
121.3801087557802
 30
0.0
 40
26.81626566475105
100
AcDbArc
 50
269.907726570802
 51
280.6520097393284
  0
LINE
  5
249
330
2
100
AcDbEntity
  8
0
100
AcDbLine
 10
65.69147713480015
 20
122.7576152082914
 30
0.0
 11
65.69147713480015
 21
130.4576152082899
 31
0.0
  0
LINE
  5
24A
330
2
100
AcDbEntity
  8
0
100
AcDbLine
 10
64.79147713480052
 20
122.7576152082914
 30
0.0
 11
65.69147713480015
 21
122.7576152082914
 31
0.0
  0
LINE
  5
24B
102
{ACAD_REACTORS
330
24F
102
}
330
2
100
AcDbEntity
  8
0
100
AcDbLine
 10
64.79147713480052
 20
130.4576152082899
 30
0.0
 11
65.69147713480015
 21
130.4576152082899
 31
0.0
  0
LINE
  5
24C
330
2
100
AcDbEntity
  8
0
100
AcDbLine
 10
58.69147713480014
 20
128.358877866762
 30
0.0
 11
56.69147713480015
 21
128.358877866762
 31
0.0
  0
DIMENSION
  5
24D
102
{ACAD_XDICTIONARY
360
24E
102
}
102
{ACAD_REACTORS
330
24F
102
}
330
2
100
AcDbEntity
  8
0
100
AcDbDimension
  2
*D43
 10
65.69147713480015
 20
144.0672112000943
 30
0.0
 11
62.44147713480014
 21
144.0672112000943
 31
0.0
 70
   160
  3
STANDARD
100
AcDbAlignedDimension
 13
58.69147713480014
 23
136.0672112000943
 33
0.0
 14
65.69147713480015
 24
130.4576152082899
 34
0.0
100
AcDbRotatedDimension
  0
DIMENSION
  5
25C
330
2
100
AcDbEntity
  8
0
100
AcDbDimension
  2
*D42
 10
58.69147713480014
 20
144.0672112000943
 30
0.0
 11
49.69147713480015
 21
144.0672112000943
 31
0.0
 70
   160
  3
STANDARD
100
AcDbAlignedDimension
 13
56.69147713480015
 23
128.358877866762
 33
0.0
 14
58.69147713480014
 24
131.858877866762
 34
0.0
100
AcDbRotatedDimension
  0
LINE
  5
26B
330
2
100
AcDbEntity
  8
0
100
AcDbLine
 10
58.69147713480014
 20
131.858877866762
 30
0.0
 11
64.79147713480052
 21
131.858877866762
 31
0.0
  0
LINE
  5
26C
330
2
100
AcDbEntity
  8
0
100
AcDbLine
 10
64.79147713480052
 20
60.96014052523333
 30
0.0
 11
65.69147713480015
 21
60.96014052523333
 31
0.0
  0
LINE
  5
26D
330
2
100
AcDbEntity
  8
0
100
AcDbLine
 10
64.79147713480052
 20
53.26014052523214
 30
0.0
 11
65.69147713480015
 21
53.26014052523214
 31
0.0
  0
LINE
  5
26E
330
2
100
AcDbEntity
  8
0
100
AcDbLine
 10
65.69147713480015
 20
52.35887786676221
 30
0.0
 11
65.69147713480015
 21
51.85887786676222
 31
0.0
  0
ARC
  5
26F
330
2
100
AcDbEntity
  8
0
100
AcDbCircle
 10
66.19147713480015
 20
51.85887786676222
 30
0.0
 40
0.5
100
AcDbArc
 50
180.0
 51
270.0
  0
LINE
  5
270
330
2
100
AcDbEntity
  8
0
100
AcDbLine
 10
58.69147713480014
 20
55.35887786676219
 30
0.0
 11
56.69147713480015
 21
55.35887786676219
 31
0.0
  0
LINE
  5
271
330
2
100
AcDbEntity
  8
0
100
AcDbLine
 10
58.69147713480014
 20
51.85887786676222
 30
0.0
 11
64.79147713480052
 21
51.85887786676222
 31
0.0
  0
LINE
  5
272
330
2
100
AcDbEntity
  8
0
100
AcDbLine
 10
65.69147713480015
 20
60.96014052523333
 30
0.0
 11
65.69147713480015
 21
53.26014052523214
 31
0.0
  0
LINE
  5
273
330
2
100
AcDbEntity
  8
0
100
AcDbLine
 10
64.79147713480052
 20
131.858877866762
 30
0.0
 11
64.79147713480052
 21
51.85887786676222
 31
0.0
  0
LINE
  5
274
330
2
100
AcDbEntity
  8
0
100
AcDbLine
 10
58.69147713480014
 20
131.858877866762
 30
0.0
 11
58.69147713480014
 21
51.85887786676222
 31
0.0
  0
LINE
  5
275
102
{ACAD_REACTORS
330
2B3
102
}
330
2
100
AcDbEntity
  8
0
100
AcDbLine
 10
56.69147713480015
 20
128.358877866762
 30
0.0
 11
56.69147713480015
 21
55.35887786676219
 31
0.0
  0
ARC
  5
276
330
2
100
AcDbEntity
  8
0
 48
0.6
100
AcDbCircle
 10
1.334148015630489
 20
104.778945356506
 30
0.0
 40
2.644799999999999
100
AcDbArc
 50
321.9486744806221
 51
26.36567250321681
  0
ARC
  5
277
330
2
100
AcDbEntity
  8
0
 48
0.6
100
AcDbCircle
 10
-50.7988690810489
 20
104.778945356506
 30
0.0
 40
2.644799999999999
100
AcDbArc
 50
153.634327496783
 51
218.0513255193776
  0
CIRCLE
  5
278
330
2
100
AcDbEntity
  8
0
 48
0.6
100
AcDbCircle
 10
-24.69959066923001
 20
91.85887786676222
 30
0.0
 40
13.0
  0
LINE
  5
279
330
2
100
AcDbEntity
  8
CEN
 48
0.6
100
AcDbLine
 10
-68.7765803948314
 20
91.85887786676222
 30
0.0
 11
19.37739905636044
 21
91.85887786676222
 31
0.0
  0
ARC
  5
27A
330
2
100
AcDbEntity
  8
0
 48
0.6
100
AcDbCircle
 10
-24.73236053271103
 20
91.85887786676222
 30
0.0
 40
29.09279999999998
100
AcDbArc
 50
342.2801918472013
 51
17.71980815279839
  0
ARC
  5
27B
330
2
100
AcDbEntity
  8
0
 48
0.6
100
AcDbCircle
 10
5.499490763231731
 20
101.518609797851
 30
0.0
 40
2.644799999999999
100
AcDbArc
 50
141.9486744806222
 51
197.7198081527984
  0
ARC
  5
27C
330
2
100
AcDbEntity
  8
0
 48
0.6
100
AcDbCircle
 10
1.334148015630489
 20
78.93881037701793
 30
0.0
 40
2.644799999999999
100
AcDbArc
 50
333.6343274967831
 51
38.05132551937779
  0
ARC
  5
27D
330
2
100
AcDbEntity
  8
0
 48
0.6
100
AcDbCircle
 10
5.499490763231731
 20
82.19914593567228
 30
0.0
 40
2.644799999999999
100
AcDbArc
 50
162.2801918472015
 51
218.0513255193776
  0
ARC
  5
27E
330
2
100
AcDbEntity
  8
0
 48
0.6
100
AcDbCircle
 10
-24.73236053271103
 20
91.85887786676222
 30
0.0
 40
29.09279999999998
100
AcDbArc
 50
162.2801918472015
 51
197.7198081527984
  0
ARC
  5
27F
330
2
100
AcDbEntity
  8
0
 48
0.6
100
AcDbCircle
 10
-54.96421182863922
 20
101.518609797851
 30
0.0
 40
2.644799999999999
100
AcDbArc
 50
342.2801918472013
 51
38.05132551937779
  0
ARC
  5
280
330
2
100
AcDbEntity
  8
0
 48
0.6
100
AcDbCircle
 10
-50.7988690810489
 20
78.93881037701793
 30
0.0
 40
2.644799999999999
100
AcDbArc
 50
141.9486744806222
 51
206.3656725032168
  0
ARC
  5
281
330
2
100
AcDbEntity
  8
0
 48
0.6
100
AcDbCircle
 10
-54.96421182863922
 20
82.19914593567228
 30
0.0
 40
2.644799999999999
100
AcDbArc
 50
321.9486744806221
 51
17.71980815279839
  0
CIRCLE
  5
282
330
2
100
AcDbEntity
  8
0
 48
0.6
100
AcDbCircle
 10
-24.69959066923001
 20
91.85887786676222
 30
0.0
 40
4.0
  0
CIRCLE
  5
283
330
2
100
AcDbEntity
  8
0
100
AcDbCircle
 10
-24.72984239485958
 20
91.85887786676222
 30
0.0
 40
3.604999999999998
  0
ARC
  5
284
102
{ACAD_REACTORS
330
287
102
}
330
2
100
AcDbEntity
  8
0
 48
0.6
100
AcDbCircle
 10
-59.69959066923002
 20
126.858877866762
 30
0.0
 40
5.0
100
AcDbArc
 50
90.0
 51
180.0
  0
DIMENSION
  5
285
102
{ACAD_XDICTIONARY
360
286
102
}
102
{ACAD_REACTORS
330
287
102
}
330
2
100
AcDbEntity
  8
0
100
AcDbDimension
  2
*D41
 10
15.30040933076998
 20
146.58696751458
 30
0.0
 11
-22.63546027629853
 21
146.58696751458
 31
0.0
 70
   160
  3
STANDARD
100
AcDbAlignedDimension
 13
-64.69959066923002
 23
126.858877866762
 33
0.0
 14
15.30040933076998
 24
126.858877866762
 34
0.0
100
AcDbRotatedDimension
  0
ARC
  5
294
102
{ACAD_REACTORS
330
287
102
}
330
2
100
AcDbEntity
  8
0
 48
0.6
100
AcDbCircle
 10
10.30040933076998
 20
126.858877866762
 30
0.0
 40
5.0
100
AcDbArc
 50
0.0
 51
90.0
  0
ARC
  5
295
330
2
100
AcDbEntity
  8
0
 48
0.6
100
AcDbCircle
 10
-15.07262860161972
 20
122.0907291626972
 30
0.0
 40
2.644799999999999
100
AcDbArc
 50
252.2801918471949
 51
308.0513255193868
  0
ARC
  5
296
330
2
100
AcDbEntity
  8
0
 48
0.6
100
AcDbCircle
 10
-24.73236053271103
 20
91.85887786676222
 30
0.0
 40
31.73759999999999
100
AcDbArc
 50
116.3656725032109
 51
153.634327496783
  0
ARC
  5
297
330
2
100
AcDbEntity
  8
0
 48
0.6
100
AcDbCircle
 10
-37.6524280224603
 20
117.9253864150971
 30
0.0
 40
2.644799999999999
100
AcDbArc
 50
51.94867448061305
 51
116.3656725032109
  0
ARC
  5
298
330
2
100
AcDbEntity
  8
0
 48
0.6
100
AcDbCircle
 10
-34.39209246379869
 20
122.0907291626972
 30
0.0
 40
2.644799999999999
100
AcDbArc
 50
231.948674480613
 51
287.7198081528051
  0
ARC
  5
299
330
2
100
AcDbEntity
  8
0
 48
0.6
100
AcDbCircle
 10
-24.73236053271103
 20
91.85887786676222
 30
0.0
 40
29.09279999999998
100
AcDbArc
 50
72.28019184719491
 51
107.7198081528049
  0
ARC
  5
29A
330
2
100
AcDbEntity
  8
0
 48
0.6
100
AcDbCircle
 10
-11.81229304296903
 20
117.9253864150971
 30
0.0
 40
2.644799999999999
100
AcDbArc
 50
63.63432749678904
 51
128.0513255193867
  0
LWPOLYLINE
  5
29B
330
2
100
AcDbEntity
  8
3
100
AcDbPolyline
 90
        4
 70
     1
 43
0.0
 10
-30.34235144406011
 20
147.8644170753273
 10
-27.04235144406084
 20
147.8644170753273
 10
-27.04235144406084
 20
151.3644170753273
 10
-30.34235144406011
 20
151.3644170753273
  0
MTEXT
  5
29C
102
{ACAD_REACTORS
330
29F
102
}
330
2
100
AcDbEntity
  8
0
 62
     3
100
AcDbMText
 10
-4.512144239539336
 20
155.7196560551251
 30
0.0
 40
3.0
 41
0.0
 71
     9
 72
     1
  1
4-%%C5.5 hole
1001
ACAD
1000
MTEXTBEGIN
1070
    73
1070
     1
1070
    44
1040
1.0
1070
    74
1070
     0
1000
MTEXTEND
1000
MTEXTBEGIN
1070
    73
1070
     1
1070
    44
1040
1.0
1070
    74
1070
     0
1000
MTEXTEND
1000
MTEXTBEGIN
1070
    73
1070
     1
1070
    44
1040
1.0
1070
    74
1070
     0
1000
MTEXTEND
  0
ARC
  5
29D
330
2
100
AcDbEntity
  8
0
 48
0.6
100
AcDbCircle
 10
-24.73236053271103
 20
91.85887786676222
 30
0.0
 40
31.73759999999999
100
AcDbArc
 50
26.36567250321681
 51
63.63432749678904
  0
LINE
  5
29E
330
2
100
AcDbEntity
  8
0
 48
0.6
100
AcDbLine
 10
-59.69959066923002
 20
131.858877866762
 30
0.0
 11
10.30040933076998
 21
131.858877866762
 31
0.0
  0
LEADER
  5
29F
330
2
100
AcDbEntity
  8
0
100
AcDbLeader
  3
STANDARD
 73
     0
 75
     1
 40
3.0
 41
26.65178571428571
 76
     3
 10
8.534428046539687
 20
127.8428965825287
 30
0.0
 10
-1.012144239539336
 20
154.7196560551251
 30
0.0
 10
-3.512144239539336
 20
154.7196560551251
 30
0.0
340
29C
1001
ACAD
1000
DSTYLE
1002
{
1070
     5
1000

1070
   342
1005
0
1002
}
  0
ARC
  5
2A0
330
2
100
AcDbEntity
  8
0
 48
0.6
100
AcDbCircle
 10
-59.69959066923002
 20
56.85887786676222
 30
0.0
 40
5.0
100
AcDbArc
 50
180.0
 51
270.0
  0
LINE
  5
2A1
330
2
100
AcDbEntity
  8
0
 48
0.6
100
AcDbLine
 10
-5.247402705668719
 20
51.85887786676222
 30
0.0
 11
-10.98845293219891
 21
51.85887786676222
 31
0.0
  0
ARC
  5
2A2
330
2
100
AcDbEntity
  8
0
 48
0.6
100
AcDbCircle
 10
10.30040933076998
 20
56.85887786676222
 30
0.0
 40
5.0
100
AcDbArc
 50
270.0
 51
0.0
  0
ARC
  5
2A3
330
2
100
AcDbEntity
  8
0
 48
0.6
100
AcDbCircle
 10
-15.07262860161972
 20
61.62702657082718
 30
0.0
 40
2.644799999999999
100
AcDbArc
 50
51.94867448061305
 51
107.7198081528049
  0
ARC
  5
2A4
330
2
100
AcDbEntity
  8
0
 48
0.6
100
AcDbCircle
 10
-37.6524280224603
 20
65.79236931842615
 30
0.0
 40
2.644799999999999
100
AcDbArc
 50
243.634327496789
 51
308.0513255193868
  0
ARC
  5
2A5
330
2
100
AcDbEntity
  8
0
 48
0.6
100
AcDbCircle
 10
-34.39209246379869
 20
61.62702657082718
 30
0.0
 40
2.644799999999999
100
AcDbArc
 50
72.28019184719491
 51
128.0513255193867
  0
ARC
  5
2A6
330
2
100
AcDbEntity
  8
0
 48
0.6
100
AcDbCircle
 10
-24.73236053271103
 20
91.85887786676222
 30
0.0
 40
29.09279999999998
100
AcDbArc
 50
252.2801918471949
 51
287.7198081528051
  0
ARC
  5
2A7
330
2
100
AcDbEntity
  8
0
 48
0.6
100
AcDbCircle
 10
-11.81229304296903
 20
65.79236931842615
 30
0.0
 40
2.644799999999999
100
AcDbArc
 50
231.948674480613
 51
296.3656725032108
  0
LINE
  5
2A8
330
2
100
AcDbEntity
  8
0
 48
0.6
100
AcDbLine
 10
-59.69959066923002
 20
51.85887786676222
 30
0.0
 11
10.30040933076998
 21
51.85887786676222
 31
0.0
  0
LINE
  5
2A9
330
2
100
AcDbEntity
  8
0
 48
0.6
100
AcDbLine
 10
15.30040933076998
 20
126.858877866762
 30
0.0
 11
15.30040933076998
 21
56.85887786676222
 31
0.0
  0
LINE
  5
2AA
330
2
100
AcDbEntity
  8
0
 48
0.6
100
AcDbLine
 10
-64.69959066923002
 20
126.858877866762
 30
0.0
 11
-64.69959066923002
 21
56.85887786676222
 31
0.0
  0
CIRCLE
  5
2AB
330
2
100
AcDbEntity
  8
0
 48
0.6
100
AcDbCircle
 10
-24.69959066923001
 20
91.85887786676222
 30
0.0
 40
38.5
  0
CIRCLE
  5
2AC
330
2
100
AcDbEntity
  8
0
 48
0.6
100
AcDbCircle
 10
-24.69959066923001
 20
91.85887786676222
 30
0.0
 40
37.00000000000005
  0
INSERT
  5
2AD
330
2
100
AcDbEntity
  8
0
100
AcDbBlockReference
  2
5
 10
-24.72984239485958
 20
91.85887786676266
 30
0.0
  0
ARC
  5
2AE
330
2
100
AcDbEntity
  8
0
 48
0.6
100
AcDbCircle
 10
-24.73236053271103
 20
91.85887786676222
 30
0.0
 40
31.73759999999999
100
AcDbArc
 50
206.3656725032168
 51
243.634327496789
  0
LINE
  5
2AF
102
{ACAD_REACTORS
330
AB
102
}
330
2
100
AcDbEntity
  8
CEN
 48
0.6
100
AcDbLine
 10
-8.131048174309398
 20
51.85887786676222
 30
0.0
 11
-24.69959066923001
 21
91.85887786676222
 31
0.0
  0
ARC
  5
2B0
330
2
100
AcDbEntity
  8
0
 48
0.6
100
AcDbCircle
 10
-24.73236053271103
 20
91.85887786676222
 30
0.0
 40
31.73759999999999
100
AcDbArc
 50
296.3656725032108
 51
333.6343274967831
  0
DIMENSION
  5
2B1
102
{ACAD_XDICTIONARY
360
2B2
102
}
102
{ACAD_REACTORS
330
2B3
102
}
330
2
100
AcDbEntity
  8
0
100
AcDbDimension
  2
*D40
 10
34.22996577541926
 20
55.35887786676222
 30
0.0
 11
34.22996577541926
 21
91.85887786676222
 31
0.0
 70
   160
  1
\A1;{\f??|b0|i0|c0|p49;%%C73\H0.7x;\S+0^ -0.030;\H1.429x;(h7)}
  3
STANDARD
100
AcDbAlignedDimension
 13
56.69147713480015
 23
128.358877866762
 33
0.0
 14
56.69147713480015
 24
55.35887786676219
 34
0.0
 50
90.0
100
AcDbRotatedDimension
  0
DIMENSION
  5
2C0
102
{ACAD_XDICTIONARY
360
2C1
102
}
102
{ACAD_REACTORS
330
2C2
102
}
330
2
100
AcDbEntity
  8
0
100
AcDbDimension
  2
*D47
 10
210.7030009232203
 20
68.35887786676221
 30
0.0
 11
210.7030009232203
 21
91.81877063984392
 31
0.0
 70
   160
  1
%%c<>
  3
STANDARD
100
AcDbAlignedDimension
 13
197.6914771348001
 23
115.358877866762
 33
0.0
 14
197.6914771348001
 24
68.35887786676221
 34
0.0
 50
90.0
100
AcDbRotatedDimension
  0
LINE
  5
2CF
102
{ACAD_REACTORS
330
2DB
102
}
330
2
100
AcDbEntity
  8
0
 48
0.6
100
AcDbLine
 10
198.6914771348001
 20
114.358877866762
 30
0.0
 11
198.6914771348001
 21
69.35887786676222
 31
0.0
  0
LINE
  5
2D0
330
2
100
AcDbEntity
  8
0
 48
0.6
100
AcDbLine
 10
197.6914771348001
 20
68.35887786676221
 30
0.0
 11
188.6914771348001
 21
68.35887786676221
 31
0.0
  0
LINE
  5
2D1
330
2
100
AcDbEntity
  8
0
100
AcDbLine
 10
191.1914771348001
 20
67.35887786676221
 30
0.0
 11
196.1914771348001
 21
67.35887786676221
 31
0.0
  0
ARC
  5
2D2
330
2
100
AcDbEntity
  8
0
100
AcDbCircle
 10
196.1914771348001
 20
68.35887786676221
 30
0.0
 40
1.0
100
AcDbArc
 50
270.0
 51
0.0
  0
LINE
  5
2D3
330
2
100
AcDbEntity
  8
0
100
AcDbLine
 10
193.6914771348001
 20
66.55887786676112
 30
0.0
 11
193.6914771348001
 21
67.35887786676221
 31
0.0
  0
LINE
  5
2D4
330
2
100
AcDbEntity
  8
0
100
AcDbLine
 10
195.6914771348001
 20
66.55887786676112
 30
0.0
 11
195.6914771348001
 21
67.35887786676221
 31
0.0
  0
LINE
  5
2D5
330
2
100
AcDbEntity
  8
0
100
AcDbLine
 10
191.1914771348001
 20
66.55887786676112
 30
0.0
 11
196.1914771348001
 21
66.55887786676112
 31
0.0
  0
ARC
  5
2D6
102
{ACAD_REACTORS
330
2C2
102
}
330
2
100
AcDbEntity
  8
0
 48
0.6
100
AcDbCircle
 10
197.6914771348001
 20
69.35887786676222
 30
0.0
 40
1.0
100
AcDbArc
 50
270.0
 51
0.0
  0
ARC
  5
2D7
330
2
100
AcDbEntity
  8
0
100
AcDbCircle
 10
191.1914771348001
 20
68.35887786676221
 30
0.0
 40
1.0
100
AcDbArc
 50
180.0
 51
270.0
  0
LINE
  5
2D8
330
2
100
AcDbEntity
  8
0
100
AcDbLine
 10
191.6914771348001
 20
66.55887786676112
 30
0.0
 11
191.6914771348001
 21
67.35887786676221
 31
0.0
  0
DIMENSION
  5
2D9
102
{ACAD_XDICTIONARY
360
2DA
102
}
102
{ACAD_REACTORS
330
2DB
102
}
330
2
100
AcDbEntity
  8
0
100
AcDbDimension
  2
*D46
 10
188.6914771348001
 20
156.2389445248279
 30
0.0
 11
193.7841659703298
 21
156.2389445248279
 31
0.0
 70
   160
  3
STANDARD
100
AcDbAlignedDimension
 13
198.6914771348001
 23
114.358877866762
 33
0.0
 14
188.6914771348001
 24
129.8288778667611
 34
0.0
100
AcDbRotatedDimension
  0
LINE
  5
2E8
330
2
100
AcDbEntity
  8
0
100
AcDbLine
 10
187.191816539711
 20
131.3607855389972
 30
0.0
 11
188.6914771348001
 21
129.8288778667611
 31
0.0
  0
LINE
  5
2E9
330
2
100
AcDbEntity
  8
0
 48
0.6
100
AcDbLine
 10
197.6914771348001
 20
115.358877866762
 30
0.0
 11
188.6914771348001
 21
115.358877866762
 31
0.0
  0
ARC
  5
2EA
102
{ACAD_REACTORS
330
2C2
102
}
330
2
100
AcDbEntity
  8
0
 48
0.6
100
AcDbCircle
 10
197.6914771348001
 20
114.358877866762
 30
0.0
 40
1.0
100
AcDbArc
 50
0.0
 51
90.0
  0
LINE
  5
2EB
330
2
100
AcDbEntity
  8
0
100
AcDbLine
 10
136.6914771347999
 20
132.2588778667609
 30
0.0
 11
187.191816539711
 21
131.3607855389972
 31
0.0
  0
LINE
  5
2EC
330
2
100
AcDbEntity
  8
0
100
AcDbLine
 10
188.6914771348001
 20
53.88887786676104
 30
0.0
 11
187.191816539711
 21
52.35697019452526
 31
0.0
  0
LINE
  5
2ED
102
{ACAD_REACTORS
330
2F3
102
}
330
2
100
AcDbEntity
  8
0
100
AcDbLine
 10
136.6914771347999
 20
51.45887786676212
 30
0.0
 11
187.191816539711
 21
52.35697019452526
 31
0.0
  0
LINE
  5
2EE
330
2
100
AcDbEntity
  8
0
100
AcDbLine
 10
75.69147713480015
 20
52.35887786676221
 30
0.0
 11
75.69147713480015
 21
51.85887786676222
 31
0.0
  0
ARC
  5
2EF
330
2
100
AcDbEntity
  8
0
100
AcDbCircle
 10
75.19147713480015
 20
51.85887786676222
 30
0.0
 40
0.5
100
AcDbArc
 50
270.0
 51
0.0
  0
LINE
  5
2F0
102
{ACAD_REACTORS
330
2DB
102
}
330
2
100
AcDbEntity
  8
0
100
AcDbLine
 10
188.6914771348001
 20
129.8288778667611
 30
0.0
 11
188.6914771348001
 21
53.88887786676104
 31
0.0
  0
DIMENSION
  5
2F1
102
{ACAD_XDICTIONARY
360
2F2
102
}
102
{ACAD_REACTORS
330
2F3
102
}
330
2
100
AcDbEntity
  8
0
100
AcDbDimension
  2
*D45
 10
221.7786895228801
 20
52.35697019452526
 30
0.0
 11
221.7786895228801
 21
92.25066292995142
 31
0.0
 70
   160
  1
%%C<>
  3
STANDARD
100
AcDbAlignedDimension
 13
187.191816539711
 23
131.3607855389972
 33
0.0
 14
187.191816539711
 24
52.35697019452526
 34
0.0
 50
90.0
100
AcDbRotatedDimension
  0
LINE
  5
300
330
2
100
AcDbEntity
  8
0
100
AcDbLine
 10
136.6914771347999
 20
132.2588778667609
 30
0.0
 11
136.6914771347999
 21
51.45887786676212
 31
0.0
  0
LINE
  5
301
330
2
100
AcDbEntity
  8
0
100
AcDbLine
 10
191.1914771348001
 20
66.55887786676112
 30
0.0
 11
191.1914771348001
 21
52.51635509105108
 31
0.0
  0
LINE
  5
302
330
2
100
AcDbEntity
  8
0
100
AcDbLine
 10
196.1914771348001
 20
66.55887786676112
 30
0.0
 11
196.1914771348001
 21
50.51635509104972
 31
0.0
  0
ENDSEC
  0
SECTION
  2
OBJECTS
  0
DICTIONARY
  5
9
330
0
100
AcDbDictionary
  3
ACAD_GROUP
350
98
  3
ACAD_LAYOUT
350
D
  3
ACAD_MLINESTYLE
350
99
  3
ACAD_PLOTSETTINGS
350
9A
  3
ACAD_PLOTSTYLENAME
350
8
  3
ACDBHEADERROUNDTRIPXREC
350
4CB
  3
ACDBVARIABLEDICTIONARY
350
303
  0
DICTIONARY
  5
15
330
14
100
AcDbDictionary
280
     1
  3
ACAD_LAYERFILTERS
360
16
  3
ACAD_LAYERSTATES
360
89
  0
DICTIONARY
  5
3
330
2
100
AcDbDictionary
280
     1
  3
ACAD_LAYOUTSELFREF
360
4EC
  0
DICTIONARY
  5
F
330
E
100
AcDbDictionary
280
     1
  3
ACAD_LAYOUTSELFREF
360
4ED
  0
DICTIONARY
  5
190
330
18F
100
AcDbDictionary
280
     1
  3
ACAD_DIMASSOC
360
191
  0
DICTIONARY
  5
AA
330
A9
100
AcDbDictionary
280
     1
  3
ACAD_DIMASSOC
360
AB
  0
DICTIONARY
  5
D2
330
D1
100
AcDbDictionary
280
     1
  3
ACAD_DIMASSOC
360
D3
  0
DICTIONARY
  5
E6
330
E5
100
AcDbDictionary
280
     1
  3
ACAD_DIMASSOC
360
E7
  0
DICTIONARY
  5
11B
330
11A
100
AcDbDictionary
280
     1
  3
ACAD_DIMASSOC
360
11C
  0
DICTIONARY
  5
13E
330
13D
100
AcDbDictionary
280
     1
  3
ACAD_DIMASSOC
360
13F
  0
DICTIONARY
  5
162
330
161
100
AcDbDictionary
280
     1
  3
ACAD_DIMASSOC
360
163
  0
DICTIONARY
  5
1AE
330
1AD
100
AcDbDictionary
280
     1
  3
ACAD_DIMASSOC
360
1AF
  0
DICTIONARY
  5
1CB
330
1CA
100
AcDbDictionary
280
     1
  3
ACAD_DIMASSOC
360
1CC
  0
DICTIONARY
  5
1E4
330
1E3
100
AcDbDictionary
280
     1
  3
ACAD_DIMASSOC
360
1E5
  0
DICTIONARY
  5
207
330
206
100
AcDbDictionary
280
     1
  3
ACAD_DIMASSOC
360
208
  0
DICTIONARY
  5
24E
330
24D
100
AcDbDictionary
280
     1
  3
ACAD_DIMASSOC
360
24F
  0
DICTIONARY
  5
286
330
285
100
AcDbDictionary
280
     1
  3
ACAD_DIMASSOC
360
287
  0
DICTIONARY
  5
2B2
330
2B1
100
AcDbDictionary
280
     1
  3
ACAD_DIMASSOC
360
2B3
  0
DICTIONARY
  5
2C1
330
2C0
100
AcDbDictionary
280
     1
  3
ACAD_DIMASSOC
360
2C2
  0
DICTIONARY
  5
2DA
330
2D9
100
AcDbDictionary
280
     1
  3
ACAD_DIMASSOC
360
2DB
  0
DICTIONARY
  5
2F2
330
2F1
100
AcDbDictionary
280
     1
  3
ACAD_DIMASSOC
360
2F3
  0
DICTIONARY
  5
98
102
{ACAD_REACTORS
330
9
102
}
330
9
100
AcDbDictionary
  0
DICTIONARY
  5
D
102
{ACAD_REACTORS
330
9
102
}
330
9
100
AcDbDictionary
  0
DICTIONARY
  5
99
102
{ACAD_REACTORS
330
9
102
}
330
9
100
AcDbDictionary
  3
STANDARD
350
9B
  0
DICTIONARY
  5
9A
102
{ACAD_REACTORS
330
9
102
}
330
9
100
AcDbDictionary
  0
ACDBDICTIONARYWDFLT
  5
8
102
{ACAD_REACTORS
330
9
102
}
330
9
100
AcDbDictionary
281
     1
  3
Normal
350
7
100
AcDbDictionaryWithDefault
340
7
  0
DICTIONARY
  5
4CB
102
{ACAD_REACTORS
330
9
102
}
330
9
100
AcDbDictionary
  3
CEPSNTYPE
350
4D5
  3
DIMSTYLEDATA
350
4D9
  3
FINGERPRINTGUID
350
4D6
  3
HYPERLINKBASE
350
4CE
  3
INSUNITS
350
4D4
  3
LAYOUTDICT
350
4D0
  3
LWETCUNION
350
4D3
  3
PLOTSETDICT
350
4D1
  3
PLOTSTYLNAMDICT
350
4D2
  3
PSVPSCALE
350
4D8
  3
PUCSBASE
350
4DC
  3
PUCSORGBACK
350
4E2
  3
PUCSORGBOTTOM
350
4DE
  3
PUCSORGFRONT
350
4E1
  3
PUCSORGLEFT
350
4DF
  3
PUCSORGRIGHT
350
4E0
  3
PUCSORGTOP
350
4DD
  3
PUCSORTHOREF
350
4DA
  3
PUCSORTHOVIEW
350
4DB
  3
STYLESHEET
350
4CF
  3
TSTACKALIGN
350
4CC
  3
TSTACKSIZE
350
4CD
  3
UCSBASE
350
4E5
  3
UCSORGBACK
350
4EB
  3
UCSORGBOTTOM
350
4E7
  3
UCSORGFRONT
350
4EA
  3
UCSORGLEFT
350
4E8
  3
UCSORGRIGHT
350
4E9
  3
UCSORGTOP
350
4E6
  3
UCSORTHOREF
350
4E3
  3
UCSORTHOVIEW
350
4E4
  3
VERSIONGUID
350
4D7
  0
DICTIONARY
  5
303
102
{ACAD_REACTORS
330
9
102
}
330
9
100
AcDbDictionary
  3
DIMASSOC
350
305
  3
HIDETEXT
350
304
  0
DICTIONARY
  5
16
102
{ACAD_REACTORS
330
15
102
}
330
15
100
AcDbDictionary
280
     1
  3
$LAYERS
360
17
  3
-_UND_0
360
18
  3
-PEGC
360
19
  3
101
360
1A
  3
102
360
1B
  3
1DUC
360
1C
  3
1EQ
360
1D
  3
1TUB
360
1E
  3
2
360
1F
  3
2000
360
20
  3
50
360
21
  3
58J
360
22
  3
65
360
23
  3
AA
360
24
  3
ACABADOS
360
25
  3
AGUA_Y_DREN
360
26
  3
AIRE
360
27
  3
ALLE_AUS
360
28
  3
ALLES_MIT_S
360
29
  3
AMARILLO
360
2A
  3
APAGADOS
360
2B
  3
ARR
360
2C
  3
BA
360
2D
  3
BACKS
360
2E
  3
BASE
360
2F
  3
BLOQ_INUTIL
360
30
  3
CADKON
360
31
  3
CARPINTERIA
360
32
  3
CERRADOS
360
33
  3
COL
360
34
  3
COLOR
360
35
  3
COLOR_250
360
36
  3
COLORES
360
37
  3
CONGELADOS
360
38
  3
CONJUNTO
360
39
  3
D1
360
3A
  3
DA_
360
3B
  3
DET-
360
3C
  3
DOR-H
360
3D
  3
EJES
360
3E
  3
ELECTRICO
360
3F
  3
F1
360
40
  3
FROZEN
360
41
  3
GRID
360
42
  3
GRIDTXT
360
43
  3
HATCH
360
44
  3
HCAD
360
45
  3
INSTALACIONES
360
46
  3
JIZNI
360
47
  3
KCK
360
48
  3
KKK
360
49
  3
LAY
360
4A
  3
LAYER-0
360
4E
  3
LAYER-1
360
4F
  3
LAYER_1_UND_0
360
4B
  3
LAYER_2_UND_0
360
4C
  3
LAYER_9_UND_0_SCHRAFFUR
360
4D
  3
LOCK
360
50
  3
LOCKED
360
51
  3
LOTES
360
52
  3
LUNAR
360
53
  3
LUNAR2
360
54
  3
M
360
55
  3
MIS_LAYERS
360
56
  3
MRKCK
360
57
  3
NECADKON
360
58
  3
NI_LH
360
59
  3
NI_RH
360
5A
  3
NUM
360
5B
  3
OFF
360
5C
  3
ON
360
5D
  3
PBASE
360
5E
  3
PEGC
360
5F
  3
PEGCT
360
60
  3
PFRAME
360
61
  3
PGRID
360
62
  3
PGRIDT
360
63
  3
PLAFONES
360
64
  3
PLANTAS
360
65
  3
PLOT
360
66
  3
PRENDIDAS
360
67
  3
PRENDIDOS
360
68
  3
PRINT
360
69
  3
PT
360
6A
  3
PTH
360
6B
  3
PVGRID
360
6C
  3
RED_DE_AGUA_POTABLE
360
6D
  3
RED_DE_ENERGIA_ELECTRICA
360
6E
  3
SEVERNI
360
6F
  3
SHIN
360
70
  3
SHOW_ALL_LAYER
360
71
  3
SIN
360
72
  3
STORAGE-CART
360
73
  3
T
360
74
  3
TEXTOS
360
75
  3
TEXTURAS
360
76
  3
TUBERIAS
360
77
  3
UNFRZ
360
78
  3
V\U+0160ECHNY_NEPOU\U+017D\U+00CDVAN\U+00C9
360
79
  3
VA
360
7A
  3
VENTILACI\U+00D3N
360
7B
  3
VYHODNI
360
7C
  3
YO
360
7D
  3
ZAPADNI
360
7E
  3
사용
360
7F
  3
신규
360
80
  3
실박스
360
81
  3
우리토목
360
82
  3
주차
360
83
  3
지상정밀
360
84
  3
쩜선
360
85
  3
플로터_작업층
360
86
  3
현재_작업층
360
87
  3
현재_잠금
360
88
  0
DICTIONARY
  5
89
102
{ACAD_REACTORS
330
15
102
}
330
15
100
AcDbDictionary
  0
XRECORD
  5
4EC
102
{ACAD_REACTORS
330
3
102
}
330
3
100
AcDbXrecord
340
2
  0
XRECORD
  5
4ED
102
{ACAD_REACTORS
330
F
102
}
330
F
100
AcDbXrecord
340
E
  0
DIMASSOC
  5
191
102
{ACAD_REACTORS
330
190
102
}
330
190
100
AcDbDimAssoc
330
18F
 90
        2
 70
     0
 71
     0
  1
AcDbOsnapPointRef
 72
     3
331
18E
 73
     2
 91
        0
 40
0.0
 10
-0.0000000000009095
 20
0.0
 30
0.0
 75
     0
  0
DIMASSOC
  5
AB
102
{ACAD_REACTORS
330
AA
102
}
330
AA
100
AcDbDimAssoc
330
A9
 90
       15
 70
     0
 71
     0
  1
AcDbOsnapPointRef
 72
    13
331
2AF
 73
     2
 91
        0
 40
0.0
 10
-8.131048174309398
 20
51.85887786676222
 30
0.0
 75
     0
  1
AcDbOsnapPointRef
 72
     1
331
2AF
 73
     2
 91
        0
 40
1.0
 10
-24.69959066923001
 20
91.85887786676222
 30
0.0
 75
     0
  1
AcDbOsnapPointRef
 72
    13
331
A6
 73
     2
 91
        0
 40
0.0
 10
-24.69959066923911
 20
44.68675465836621
 30
0.0
 75
     0
  1
AcDbOsnapPointRef
 72
     1
331
A6
 73
     2
 91
        0
 40
1.0
 10
-24.69959066923911
 20
139.0310010751585
 30
0.0
 75
     0
  0
DIMASSOC
  5
D3
102
{ACAD_REACTORS
330
D2
102
}
330
D2
100
AcDbDimAssoc
330
D1
 90
       15
 70
     0
 71
     0
  1
AcDbOsnapPointRef
 72
    13
331
1BD
 73
     2
 91
        0
 40
0.0
 10
-43.32679745983114
 20
-112.2638095857373
 30
0.0
 75
     0
  1
AcDbOsnapPointRef
 72
     1
331
1BD
 73
     2
 91
        0
 40
1.0
 10
-59.8953399547481
 20
-72.26380958573736
 30
0.0
 75
     0
  1
AcDbOsnapPointRef
 72
    13
331
1AA
 73
     2
 91
        0
 40
0.0
 10
-59.8953399547481
 20
-119.4359327941338
 30
0.0
 75
     0
  1
AcDbOsnapPointRef
 72
     1
331
1AA
 73
     2
 91
        0
 40
1.0
 10
-59.8953399547481
 20
-25.09168637733864
 30
0.0
 75
     0
  0
DIMASSOC
  5
E7
102
{ACAD_REACTORS
330
E6
102
}
330
E6
100
AcDbDimAssoc
330
E5
 90
        3
 70
     0
 71
     0
  1
AcDbOsnapPointRef
 72
    13
331
113
 73
     2
 91
        0
 40
0.0
 10
34.30382269825168
 20
-69.26380958573736
 30
0.0
 75
     0
  1
AcDbOsnapPointRef
 72
     1
331
10F
 73
     2
 91
        0
 40
1.0
 10
59.30382269825168
 20
-68.26380958573736
 30
0.0
 75
     0
  0
DIMASSOC
  5
11C
102
{ACAD_REACTORS
330
11B
102
}
330
11B
100
AcDbDimAssoc
330
11A
 90
        3
 70
     0
 71
     0
  1
AcDbOsnapPointRef
 72
     1
331
114
 73
     2
 91
        0
 40
1.0
 10
34.30382269825168
 20
-76.26380958573736
 30
0.0
 75
     0
  1
AcDbOsnapPointRef
 72
    13
331
113
 73
     2
 91
        0
 40
0.0
 10
34.30382269825168
 20
-69.26380958573736
 30
0.0
 75
     0
  0
DIMASSOC
  5
13F
102
{ACAD_REACTORS
330
13E
102
}
330
13E
100
AcDbDimAssoc
330
13D
 90
        2
 70
     0
 71
     0
  1
AcDbOsnapPointRef
 72
     1
331
12B
 73
     2
 91
        0
 40
1.0
 10
73.30382269825169
 20
-33.66507224420866
 30
0.0
 75
     0
  0
DIMASSOC
  5
163
102
{ACAD_REACTORS
330
162
102
}
330
162
100
AcDbDimAssoc
330
161
 90
        3
 70
     0
 71
     0
  1
AcDbOsnapPointRef
 72
     1
331
15D
 73
     2
 91
        0
 40
3.141592653589792
 10
-99.89533995474811
 20
-37.26380958573735
 30
0.0
 75
     0
  1
AcDbOsnapPointRef
 72
    13
331
14C
 73
     2
 91
        0
 40
0.0
 10
-19.89533995474812
 20
-37.26380958573735
 30
0.0
 75
     0
  0
DIMASSOC
  5
1AF
102
{ACAD_REACTORS
330
1AE
102
}
330
1AE
100
AcDbDimAssoc
330
1AD
 90
        3
 70
     0
 71
     0
  1
AcDbOsnapPointRef
 72
    13
331
187
 73
     2
 91
        0
 40
0.0
 10
64.30382269825168
 20
-35.76380958573735
 30
0.0
 75
     0
  1
AcDbOsnapPointRef
 72
     1
331
187
 73
     2
 91
        0
 40
1.0
 10
64.30382269825168
 20
-108.7638095857373
 30
0.0
 75
     0
  0
DIMASSOC
  5
1CC
102
{ACAD_REACTORS
330
1CB
102
}
330
1CB
100
AcDbDimAssoc
330
1CA
 90
        3
 70
     0
 71
     0
  1
AcDbOsnapPointRef
 72
     1
331
1F2
 73
     2
 91
        0
 40
1.570796326794896
 10
205.3038226982516
 20
-48.76380958573736
 30
0.0
 75
     0
  1
AcDbOsnapPointRef
 72
    13
331
1DB
 73
     2
 91
        0
 40
4.712388980384688
 10
205.3038226982516
 20
-95.76380958573736
 30
0.0
 75
     0
  0
DIMASSOC
  5
1E5
102
{ACAD_REACTORS
330
1E4
102
}
330
1E4
100
AcDbDimAssoc
330
1E3
 90
        3
 70
     0
 71
     0
  1
AcDbOsnapPointRef
 72
    13
331
1F2
 73
     2
 91
        0
 40
0.0
 10
206.3038226982516
 20
-49.76380958573736
 30
0.0
 75
     0
  1
AcDbOsnapPointRef
 72
    13
331
204
 73
     2
 91
        0
 40
0.0
 10
196.3038226982516
 20
-34.29380958573711
 30
0.0
 75
     0
  0
DIMASSOC
  5
208
102
{ACAD_REACTORS
330
207
102
}
330
207
100
AcDbDimAssoc
330
206
 90
        2
 70
     0
 71
     0
  1
AcDbOsnapPointRef
 72
     1
331
1F5
 73
     2
 91
        0
 40
0.9999999999999998
 10
194.8041621031696
 20
-111.7657172579743
 30
0.0
 75
     0
  0
DIMASSOC
  5
24F
102
{ACAD_REACTORS
330
24E
102
}
330
24E
100
AcDbDimAssoc
330
24D
 90
        2
 70
     0
 71
     0
  1
AcDbOsnapPointRef
 72
     1
331
24B
 73
     2
 91
        0
 40
1.0
 10
65.69147713480015
 20
130.4576152082899
 30
0.0
 75
     0
  0
DIMASSOC
  5
287
102
{ACAD_REACTORS
330
286
102
}
330
286
100
AcDbDimAssoc
330
285
 90
        3
 70
     0
 71
     0
  1
AcDbOsnapPointRef
 72
     1
331
284
 73
     2
 91
        0
 40
3.141592653589792
 10
-64.69959066923002
 20
126.858877866762
 30
0.0
 75
     0
  1
AcDbOsnapPointRef
 72
    13
331
294
 73
     2
 91
        0
 40
0.0
 10
15.30040933076998
 20
126.858877866762
 30
0.0
 75
     0
  0
DIMASSOC
  5
2B3
102
{ACAD_REACTORS
330
2B2
102
}
330
2B2
100
AcDbDimAssoc
330
2B1
 90
        3
 70
     0
 71
     0
  1
AcDbOsnapPointRef
 72
    13
331
275
 73
     2
 91
        0
 40
0.0
 10
56.69147713480015
 20
128.358877866762
 30
0.0
 75
     0
  1
AcDbOsnapPointRef
 72
     1
331
275
 73
     2
 91
        0
 40
1.0
 10
56.69147713480015
 20
55.35887786676219
 30
0.0
 75
     0
  0
DIMASSOC
  5
2C2
102
{ACAD_REACTORS
330
2C1
102
}
330
2C1
100
AcDbDimAssoc
330
2C0
 90
        3
 70
     0
 71
     0
  1
AcDbOsnapPointRef
 72
     1
331
2EA
 73
     2
 91
        0
 40
1.570796326794896
 10
197.6914771348001
 20
115.358877866762
 30
0.0
 75
     0
  1
AcDbOsnapPointRef
 72
    13
331
2D6
 73
     2
 91
        0
 40
4.712388980384688
 10
197.6914771348001
 20
68.35887786676221
 30
0.0
 75
     0
  0
DIMASSOC
  5
2DB
102
{ACAD_REACTORS
330
2DA
102
}
330
2DA
100
AcDbDimAssoc
330
2D9
 90
        3
 70
     0
 71
     0
  1
AcDbOsnapPointRef
 72
    13
331
2CF
 73
     2
 91
        0
 40
0.0
 10
198.6914771348001
 20
114.358877866762
 30
0.0
 75
     0
  1
AcDbOsnapPointRef
 72
    13
331
2F0
 73
     2
 91
        0
 40
0.0
 10
188.6914771348001
 20
129.8288778667611
 30
0.0
 75
     0
  0
DIMASSOC
  5
2F3
102
{ACAD_REACTORS
330
2F2
102
}
330
2F2
100
AcDbDimAssoc
330
2F1
 90
        2
 70
     0
 71
     0
  1
AcDbOsnapPointRef
 72
     1
331
2ED
 73
     2
 91
        0
 40
0.9999999999999998
 10
187.191816539711
 20
52.35697019452526
 30
0.0
 75
     0
  0
MLINESTYLE
  5
9B
102
{ACAD_REACTORS
330
99
102
}
330
99
100
AcDbMlineStyle
  2
STANDARD
 70
     0
  3

 62
   256
 51
90.0
 52
90.0
 71
     2
 49
0.5
 62
   256
  6
BYLAYER
 49
-0.5
 62
   256
  6
BYLAYER
  0
ACDBPLACEHOLDER
  5
7
102
{ACAD_REACTORS
330
8
102
}
330
8
100
AcDbPlaceHolder
280
     0
  0
XRECORD
  5
4D5
102
{ACAD_REACTORS
330
4CB
102
}
330
4CB
100
AcDbXrecord
 90
        0
  0
XRECORD
  5
4D9
102
{ACAD_REACTORS
330
4CB
102
}
330
4CB
100
AcDbXrecord
1000
DSTYLE
1002
{
1070
    79
 70
     2
1070
   179
 70
     1
1002
}
  0
XRECORD
  5
4D6
102
{ACAD_REACTORS
330
4CB
102
}
330
4CB
100
AcDbXrecord
  1
{FDEAD578-A652-11D2-9A35-0060089B3A3F}
  0
XRECORD
  5
4CE
102
{ACAD_REACTORS
330
4CB
102
}
330
4CB
100
AcDbXrecord
  1

  0
XRECORD
  5
4D4
102
{ACAD_REACTORS
330
4CB
102
}
330
4CB
100
AcDbXrecord
 90
        4
  0
XRECORD
  5
4D0
102
{ACAD_REACTORS
330
4CB
102
}
330
4CB
100
AcDbXrecord
340
D
  0
XRECORD
  5
4D3
102
{ACAD_REACTORS
330
4CB
102
}
330
4CB
100
AcDbXrecord
 90
    10781
  0
XRECORD
  5
4D1
102
{ACAD_REACTORS
330
4CB
102
}
330
4CB
100
AcDbXrecord
340
9A
  0
XRECORD
  5
4D2
102
{ACAD_REACTORS
330
4CB
102
}
330
4CB
100
AcDbXrecord
340
8
  0
XRECORD
  5
4D8
102
{ACAD_REACTORS
330
4CB
102
}
330
4CB
100
AcDbXrecord
 40
0.0
  0
XRECORD
  5
4DC
102
{ACAD_REACTORS
330
4CB
102
}
330
4CB
100
AcDbXrecord
340
0
  0
XRECORD
  5
4E2
102
{ACAD_REACTORS
330
4CB
102
}
330
4CB
100
AcDbXrecord
 10
0.0
 20
0.0
 30
0.0
  0
XRECORD
  5
4DE
102
{ACAD_REACTORS
330
4CB
102
}
330
4CB
100
AcDbXrecord
 10
0.0
 20
0.0
 30
0.0
  0
XRECORD
  5
4E1
102
{ACAD_REACTORS
330
4CB
102
}
330
4CB
100
AcDbXrecord
 10
0.0
 20
0.0
 30
0.0
  0
XRECORD
  5
4DF
102
{ACAD_REACTORS
330
4CB
102
}
330
4CB
100
AcDbXrecord
 10
0.0
 20
0.0
 30
0.0
  0
XRECORD
  5
4E0
102
{ACAD_REACTORS
330
4CB
102
}
330
4CB
100
AcDbXrecord
 10
0.0
 20
0.0
 30
0.0
  0
XRECORD
  5
4DD
102
{ACAD_REACTORS
330
4CB
102
}
330
4CB
100
AcDbXrecord
 10
0.0
 20
0.0
 30
0.0
  0
XRECORD
  5
4DA
102
{ACAD_REACTORS
330
4CB
102
}
330
4CB
100
AcDbXrecord
340
0
  0
XRECORD
  5
4DB
102
{ACAD_REACTORS
330
4CB
102
}
330
4CB
100
AcDbXrecord
 70
     0
  0
XRECORD
  5
4CF
102
{ACAD_REACTORS
330
4CB
102
}
330
4CB
100
AcDbXrecord
  1

  0
XRECORD
  5
4CC
102
{ACAD_REACTORS
330
4CB
102
}
330
4CB
100
AcDbXrecord
 90
        1
  0
XRECORD
  5
4CD
102
{ACAD_REACTORS
330
4CB
102
}
330
4CB
100
AcDbXrecord
 90
       70
  0
XRECORD
  5
4E5
102
{ACAD_REACTORS
330
4CB
102
}
330
4CB
100
AcDbXrecord
340
0
  0
XRECORD
  5
4EB
102
{ACAD_REACTORS
330
4CB
102
}
330
4CB
100
AcDbXrecord
 10
0.0
 20
0.0
 30
0.0
  0
XRECORD
  5
4E7
102
{ACAD_REACTORS
330
4CB
102
}
330
4CB
100
AcDbXrecord
 10
0.0
 20
0.0
 30
0.0
  0
XRECORD
  5
4EA
102
{ACAD_REACTORS
330
4CB
102
}
330
4CB
100
AcDbXrecord
 10
0.0
 20
0.0
 30
0.0
  0
XRECORD
  5
4E8
102
{ACAD_REACTORS
330
4CB
102
}
330
4CB
100
AcDbXrecord
 10
0.0
 20
0.0
 30
0.0
  0
XRECORD
  5
4E9
102
{ACAD_REACTORS
330
4CB
102
}
330
4CB
100
AcDbXrecord
 10
0.0
 20
0.0
 30
0.0
  0
XRECORD
  5
4E6
102
{ACAD_REACTORS
330
4CB
102
}
330
4CB
100
AcDbXrecord
 10
0.0
 20
0.0
 30
0.0
  0
XRECORD
  5
4E3
102
{ACAD_REACTORS
330
4CB
102
}
330
4CB
100
AcDbXrecord
340
0
  0
XRECORD
  5
4E4
102
{ACAD_REACTORS
330
4CB
102
}
330
4CB
100
AcDbXrecord
 70
     0
  0
XRECORD
  5
4D7
102
{ACAD_REACTORS
330
4CB
102
}
330
4CB
100
AcDbXrecord
  1
{D5D84C4D-B5AF-4C2A-854C-28DF01B93774}
  0
DICTIONARYVAR
  5
305
102
{ACAD_REACTORS
330
303
102
}
330
303
100
DictionaryVariables
280
     0
  1
2
  0
DICTIONARYVAR
  5
304
102
{ACAD_REACTORS
330
303
102
}
330
303
100
DictionaryVariables
280
     0
  1
1
  0
XRECORD
  5
17
102
{ACAD_REACTORS
330
16
102
}
330
16
100
AcDbXrecord
  1
$layers
  1
*
  1
*
  1
*
 70
     0
  1
*
  1
*
  0
XRECORD
  5
18
102
{ACAD_REACTORS
330
16
102
}
330
16
100
AcDbXrecord
  1
- und 0
  1
-*,0
  1
*
  1
*
 70
     0
  1
*
  1
*
  0
XRECORD
  5
19
102
{ACAD_REACTORS
330
16
102
}
330
16
100
AcDbXrecord
  1
-pegc
  1
*-pegc
  1
*
  1
*
 70
     0
  1
*
  1
*
  0
XRECORD
  5
1A
102
{ACAD_REACTORS
330
16
102
}
330
16
100
AcDbXrecord
  1
101
  1
*101
  1
*
  1
*
 70
   256
  1
*
  1
*
  0
XRECORD
  5
1B
102
{ACAD_REACTORS
330
16
102
}
330
16
100
AcDbXrecord
  1
102
  1
102*
  1
*
  1
*
 70
     0
  1
*
  1
*
  0
XRECORD
  5
1C
102
{ACAD_REACTORS
330
16
102
}
330
16
100
AcDbXrecord
  1
1duc
  1
*1duc*
  1
*
  1
*
 70
     0
  1
*
  1
*
  0
XRECORD
  5
1D
102
{ACAD_REACTORS
330
16
102
}
330
16
100
AcDbXrecord
  1
1eq
  1
*1eq*
  1
*
  1
*
 70
     0
  1
*
  1
*
  0
XRECORD
  5
1E
102
{ACAD_REACTORS
330
16
102
}
330
16
100
AcDbXrecord
  1
1tub
  1
*1t*
  1
*
  1
*
 70
     0
  1
*
  1
*
  0
XRECORD
  5
1F
102
{ACAD_REACTORS
330
16
102
}
330
16
100
AcDbXrecord
  1
2
  1
*
  1
2
  1
*
 70
     0
  1
*
  1
*
  0
XRECORD
  5
20
102
{ACAD_REACTORS
330
16
102
}
330
16
100
AcDbXrecord
  1
2000
  1
2000*
  1
*
  1
*
 70
     0
  1
*
  1
*
  0
XRECORD
  5
21
102
{ACAD_REACTORS
330
16
102
}
330
16
100
AcDbXrecord
  1
50
  1
*-50
  1
*
  1
*
 70
     0
  1
*
  1
*
  0
XRECORD
  5
22
102
{ACAD_REACTORS
330
16
102
}
330
16
100
AcDbXrecord
  1
58J
  1
*58*
  1
*
  1
*
 70
     0
  1
*
  1
*
  0
XRECORD
  5
23
102
{ACAD_REACTORS
330
16
102
}
330
16
100
AcDbXrecord
  1
65
  1
*65
  1
*
  1
*
 70
     0
  1
*
  1
*
  0
XRECORD
  5
24
102
{ACAD_REACTORS
330
16
102
}
330
16
100
AcDbXrecord
  1
aa
  1
aa*
  1
*
  1
*
 70
     0
  1
*
  1
*
  0
XRECORD
  5
25
102
{ACAD_REACTORS
330
16
102
}
330
16
100
AcDbXrecord
  1
acabados
  1
a-*
  1
*
  1
*
 70
     5
  1
*
  1
*
  0
XRECORD
  5
26
102
{ACAD_REACTORS
330
16
102
}
330
16
100
AcDbXrecord
  1
AGUA Y DREN
  1
A-DS-*
  1
*
  1
*
 70
     0
  1
*
  1
*
  0
XRECORD
  5
27
102
{ACAD_REACTORS
330
16
102
}
330
16
100
AcDbXrecord
  1
Aire
  1
*
  1
*
  1
*
 70
     0
  1
*
  1
*
  0
XRECORD
  5
28
102
{ACAD_REACTORS
330
16
102
}
330
16
100
AcDbXrecord
  1
alle aus
  1
99999999999
  1
*
  1
*
 70
     0
  1
*
  1
*
  0
XRECORD
  5
29
102
{ACAD_REACTORS
330
16
102
}
330
16
100
AcDbXrecord
  1
Alles mit S
  1
s*
  1
*
  1
*
 70
     0
  1
*
  1
*
  0
XRECORD
  5
2A
102
{ACAD_REACTORS
330
16
102
}
330
16
100
AcDbXrecord
  1
amarillo
  1
*
  1
yellow
  1
*
 70
     0
  1
*
  1
*
  0
XRECORD
  5
2B
102
{ACAD_REACTORS
330
16
102
}
330
16
100
AcDbXrecord
  1
APAGADOS
  1
*
  1
*
  1
*
 70
     4
  1
*
  1
*
  0
XRECORD
  5
2C
102
{ACAD_REACTORS
330
16
102
}
330
16
100
AcDbXrecord
  1
ARR
  1
ARR*
  1
*
  1
*
 70
     0
  1
*
  1
*
  0
XRECORD
  5
2D
102
{ACAD_REACTORS
330
16
102
}
330
16
100
AcDbXrecord
  1
ba
  1
*
  1
*
  1
*
 70
     0
  1
*
  1
*
  0
XRECORD
  5
2E
102
{ACAD_REACTORS
330
16
102
}
330
16
100
AcDbXrecord
  1
BACKS
  1
*-H
  1
*
  1
*
 70
     0
  1
*
  1
*
  0
XRECORD
  5
2F
102
{ACAD_REACTORS
330
16
102
}
330
16
100
AcDbXrecord
  1
BASE
  1
*-PBASE
  1
*
  1
*
 70
     0
  1
*
  1
*
  0
XRECORD
  5
30
102
{ACAD_REACTORS
330
16
102
}
330
16
100
AcDbXrecord
  1
BLOQ_INUTIL
  1
*
  1
*
  1
*
 70
     0
  1
*
  1
*
  0
XRECORD
  5
31
102
{ACAD_REACTORS
330
16
102
}
330
16
100
AcDbXrecord
  1
CADKON
  1
?[KAHBSM]?????[23M],?[KAHBSM]?????[23M][1456A-DGHILN-SU-Z]
  1
*
  1
*
 70
     0
  1
*
  1
*
  0
XRECORD
  5
32
102
{ACAD_REACTORS
330
16
102
}
330
16
100
AcDbXrecord
  1
carpinteria
  1
carp*
  1
*
  1
*
 70
     0
  1
*
  1
*
  0
XRECORD
  5
33
102
{ACAD_REACTORS
330
16
102
}
330
16
100
AcDbXrecord
  1
cerrados
  1
*
  1
*
  1
*
 70
   256
  1
*
  1
*
  0
XRECORD
  5
34
102
{ACAD_REACTORS
330
16
102
}
330
16
100
AcDbXrecord
  1
COL
  1
*
  1
*
  1
*
 70
     1
  1
*
  1
*
  0
XRECORD
  5
35
102
{ACAD_REACTORS
330
16
102
}
330
16
100
AcDbXrecord
  1
COLOR
  1
*
  1
253
  1
*
 70
     0
  1
*
  1
*
  0
XRECORD
  5
36
102
{ACAD_REACTORS
330
16
102
}
330
16
100
AcDbXrecord
  1
color 250
  1
*
  1
250
  1
*
 70
     0
  1
*
  1
*
  0
XRECORD
  5
37
102
{ACAD_REACTORS
330
16
102
}
330
16
100
AcDbXrecord
  1
COLORES
  1
*
  1
6
  1
*
 70
     0
  1
*
  1
*
  0
XRECORD
  5
38
102
{ACAD_REACTORS
330
16
102
}
330
16
100
AcDbXrecord
  1
Congelados
  1
*
  1
*
  1
*
 70
     4
  1
*
  1
*
  0
XRECORD
  5
39
102
{ACAD_REACTORS
330
16
102
}
330
16
100
AcDbXrecord
  1
CONJUNTO
  1
CON-*
  1
*
  1
*
 70
     0
  1
*
  1
*
  0
XRECORD
  5
3A
102
{ACAD_REACTORS
330
16
102
}
330
16
100
AcDbXrecord
  1
d1
  1
achurados
  1
*
  1
*
 70
     0
  1
*
  1
*
  0
XRECORD
  5
3B
102
{ACAD_REACTORS
330
16
102
}
330
16
100
AcDbXrecord
  1
DA_
  1
DA*
  1
*
  1
*
 70
     0
  1
*
  1
*
  0
XRECORD
  5
3C
102
{ACAD_REACTORS
330
16
102
}
330
16
100
AcDbXrecord
  1
DET-
  1
*
  1
*
  1
*
 70
     0
  1
*
  1
*
  0
XRECORD
  5
3D
102
{ACAD_REACTORS
330
16
102
}
330
16
100
AcDbXrecord
  1
DOR-H
  1
*
  1
7
  1
*
 70
     0
  1
*
  1
*
  0
XRECORD
  5
3E
102
{ACAD_REACTORS
330
16
102
}
330
16
100
AcDbXrecord
  1
ejes
  1
eje*
  1
*
  1
*
 70
     0
  1
*
  1
*
  0
XRECORD
  5
3F
102
{ACAD_REACTORS
330
16
102
}
330
16
100
AcDbXrecord
  1
ELECTRICO
  1
ELEC-*
  1
*
  1
*
 70
     0
  1
*
  1
*
  0
XRECORD
  5
40
102
{ACAD_REACTORS
330
16
102
}
330
16
100
AcDbXrecord
  1
F1
  1
Halaxref*
  1
*
  1
*
 70
     0
  1
*
  1
*
  0
XRECORD
  5
41
102
{ACAD_REACTORS
330
16
102
}
330
16
100
AcDbXrecord
  1
frozen
  1
*
  1
*
  1
*
 70
     4
  1
*
  1
*
  0
XRECORD
  5
42
102
{ACAD_REACTORS
330
16
102
}
330
16
100
AcDbXrecord
  1
grid
  1
*-PGRID
  1
*
  1
*
 70
     1
  1
*
  1
*
  0
XRECORD
  5
43
102
{ACAD_REACTORS
330
16
102
}
330
16
100
AcDbXrecord
  1
GRIDTXT
  1
*-PGRIDT
  1
*
  1
*
 70
     0
  1
*
  1
*
  0
XRECORD
  5
44
102
{ACAD_REACTORS
330
16
102
}
330
16
100
AcDbXrecord
  1
HATCH
  1
HAT*
  1
*
  1
*
 70
     0
  1
*
  1
*
  0
XRECORD
  5
45
102
{ACAD_REACTORS
330
16
102
}
330
16
100
AcDbXrecord
  1
HCAD
  1
1HCAD-*
  1
*
  1
*
 70
    13
  1
*
  1
*
  0
XRECORD
  5
46
102
{ACAD_REACTORS
330
16
102
}
330
16
100
AcDbXrecord
  1
INSTALACIONES
  1
I-*
  1
*
  1
*
 70
     0
  1
*
  1
*
  0
XRECORD
  5
47
102
{ACAD_REACTORS
330
16
102
}
330
16
100
AcDbXrecord
  1
JIZNI
  1
*-J
  1
*
  1
*
 70
     0
  1
*
  1
*
  0
XRECORD
  5
48
102
{ACAD_REACTORS
330
16
102
}
330
16
100
AcDbXrecord
  1
kck
  1
*
  1
*
  1
*
 70
     0
  1
*
  1
*
  0
XRECORD
  5
49
102
{ACAD_REACTORS
330
16
102
}
330
16
100
AcDbXrecord
  1
kkk
  1
k
  1
*
  1
*
 70
     0
  1
*
  1
*
  0
XRECORD
  5
4A
102
{ACAD_REACTORS
330
16
102
}
330
16
100
AcDbXrecord
  1
lay
  1
??-*
  1
*
  1
*
 70
     0
  1
*
  1
*
  0
XRECORD
  5
4E
102
{ACAD_REACTORS
330
16
102
}
330
16
100
AcDbXrecord
  1
Layer-0
  1
0*
  1
*
  1
*
 70
     0
  1
*
  1
*
  0
XRECORD
  5
4F
102
{ACAD_REACTORS
330
16
102
}
330
16
100
AcDbXrecord
  1
Layer-1
  1
1*
  1
*
  1
*
 70
     0
  1
*
  1
*
  0
XRECORD
  5
4B
102
{ACAD_REACTORS
330
16
102
}
330
16
100
AcDbXrecord
  1
Layer 1 und 0
  1
1*,0
  1
*
  1
*
 70
     0
  1
*
  1
*
  0
XRECORD
  5
4C
102
{ACAD_REACTORS
330
16
102
}
330
16
100
AcDbXrecord
  1
Layer 2 und 0
  1
2*,0
  1
*
  1
*
 70
     0
  1
*
  1
*
  0
XRECORD
  5
4D
102
{ACAD_REACTORS
330
16
102
}
330
16
100
AcDbXrecord
  1
Layer 9 und 0 Schraffur
  1
9*,0
  1
*
  1
*
 70
     0
  1
*
  1
*
  0
XRECORD
  5
50
102
{ACAD_REACTORS
330
16
102
}
330
16
100
AcDbXrecord
  1
LOCK
  1
*
  1
*
  1
*
 70
   256
  1
*
  1
*
  0
XRECORD
  5
51
102
{ACAD_REACTORS
330
16
102
}
330
16
100
AcDbXrecord
  1
locked
  1
*
  1
*
  1
*
 70
   256
  1
*
  1
*
  0
XRECORD
  5
52
102
{ACAD_REACTORS
330
16
102
}
330
16
100
AcDbXrecord
  1
Lotes
  1
*
  1
*
  1
*
 70
     1
  1
*
  1
*
  0
XRECORD
  5
53
102
{ACAD_REACTORS
330
16
102
}
330
16
100
AcDbXrecord
  1
LUNAR
  1
*
  1
*
  1
*
 70
    48
  1
*
  1
*
  0
XRECORD
  5
54
102
{ACAD_REACTORS
330
16
102
}
330
16
100
AcDbXrecord
  1
LUNAR2
  1
*
  1
*
  1
*
 70
    12
  1
*
  1
*
  0
XRECORD
  5
55
102
{ACAD_REACTORS
330
16
102
}
330
16
100
AcDbXrecord
  1
M
  1
M*
  1
*
  1
*
 70
     0
  1
*
  1
*
  0
XRECORD
  5
56
102
{ACAD_REACTORS
330
16
102
}
330
16
100
AcDbXrecord
  1
mis_layers
  1
mis_*
  1
*
  1
*
 70
     0
  1
*
  1
*
  0
XRECORD
  5
57
102
{ACAD_REACTORS
330
16
102
}
330
16
100
AcDbXrecord
  1
MRKCK
  1
*
  1
*
  1
*
 70
     0
  1
*
  1
*
  0
XRECORD
  5
58
102
{ACAD_REACTORS
330
16
102
}
330
16
100
AcDbXrecord
  1
NECADKON
  1
~*?[KAHBSM]?????[23M]*
  1
*
  1
*
 70
     0
  1
*
  1
*
  0
XRECORD
  5
59
102
{ACAD_REACTORS
330
16
102
}
330
16
100
AcDbXrecord
  1
NI_LH
  1
NI_LH*
  1
*
  1
*
 70
     0
  1
*
  1
*
  0
XRECORD
  5
5A
102
{ACAD_REACTORS
330
16
102
}
330
16
100
AcDbXrecord
  1
NI_RH
  1
NI_RH*
  1
*
  1
*
 70
     0
  1
*
  1
*
  0
XRECORD
  5
5B
102
{ACAD_REACTORS
330
16
102
}
330
16
100
AcDbXrecord
  1
NUM
  1
NUM*
  1
*
  1
*
 70
     0
  1
*
  1
*
  0
XRECORD
  5
5C
102
{ACAD_REACTORS
330
16
102
}
330
16
100
AcDbXrecord
  1
off
  1
*
  1
*
  1
*
 70
     3
  1
*
  1
*
  0
XRECORD
  5
5D
102
{ACAD_REACTORS
330
16
102
}
330
16
100
AcDbXrecord
  1
on
  1
*
  1
*
  1
*
 70
     0
  1
*
  1
*
  0
XRECORD
  5
5E
102
{ACAD_REACTORS
330
16
102
}
330
16
100
AcDbXrecord
  1
PBASE
  1
*PBASE
  1
*
  1
*
 70
     0
  1
*
  1
*
  0
XRECORD
  5
5F
102
{ACAD_REACTORS
330
16
102
}
330
16
100
AcDbXrecord
  1
PEGC
  1
*PEGC
  1
*
  1
*
 70
     0
  1
*
  1
*
  0
XRECORD
  5
60
102
{ACAD_REACTORS
330
16
102
}
330
16
100
AcDbXrecord
  1
PEGCT
  1
*PEGCT
  1
*
  1
*
 70
     0
  1
*
  1
*
  0
XRECORD
  5
61
102
{ACAD_REACTORS
330
16
102
}
330
16
100
AcDbXrecord
  1
PFRAME
  1
PFRAME*
  1
*
  1
*
 70
     0
  1
*
  1
*
  0
XRECORD
  5
62
102
{ACAD_REACTORS
330
16
102
}
330
16
100
AcDbXrecord
  1
PGRID
  1
*PGRID
  1
*
  1
*
 70
     0
  1
*
  1
*
  0
XRECORD
  5
63
102
{ACAD_REACTORS
330
16
102
}
330
16
100
AcDbXrecord
  1
PGRIDT
  1
*PGRIDT
  1
*
  1
*
 70
     0
  1
*
  1
*
  0
XRECORD
  5
64
102
{ACAD_REACTORS
330
16
102
}
330
16
100
AcDbXrecord
  1
PLAFONES
  1
0-*
  1
*
  1
*
 70
     0
  1
*
  1
*
  0
XRECORD
  5
65
102
{ACAD_REACTORS
330
16
102
}
330
16
100
AcDbXrecord
  1
PLANTAS
  1
P-*
  1
*
  1
*
 70
     0
  1
*
  1
*
  0
XRECORD
  5
66
102
{ACAD_REACTORS
330
16
102
}
330
16
100
AcDbXrecord
  1
Plot
  1
*
  1
*
  1
*
 70
  1024
  1
*
  1
*
  0
XRECORD
  5
67
102
{ACAD_REACTORS
330
16
102
}
330
16
100
AcDbXrecord
  1
PRENDIDAS
  1
*
  1
*
  1
*
 70
    13
  1
*
  1
*
  0
XRECORD
  5
68
102
{ACAD_REACTORS
330
16
102
}
330
16
100
AcDbXrecord
  1
PRENDIDOS
  1
*
  1
*
  1
*
 70
    12
  1
*
  1
*
  0
XRECORD
  5
69
102
{ACAD_REACTORS
330
16
102
}
330
16
100
AcDbXrecord
  1
print
  1
*
  1
7
  1
*
 70
  1280
  1
*
  1
*
  0
XRECORD
  5
6A
102
{ACAD_REACTORS
330
16
102
}
330
16
100
AcDbXrecord
  1
PT
  1
PT-*
  1
*
  1
*
 70
     0
  1
*
  1
*
  0
XRECORD
  5
6B
102
{ACAD_REACTORS
330
16
102
}
330
16
100
AcDbXrecord
  1
PTH
  1
PTH*
  1
*
  1
*
 70
     0
  1
*
  1
*
  0
XRECORD
  5
6C
102
{ACAD_REACTORS
330
16
102
}
330
16
100
AcDbXrecord
  1
PVGRID
  1
*PVGRID
  1
*
  1
*
 70
     0
  1
*
  1
*
  0
XRECORD
  5
6D
102
{ACAD_REACTORS
330
16
102
}
330
16
100
AcDbXrecord
  1
Red de Agua Potable
  1
Red de Agua Potable
  1
*
  1
*
 70
     1
  1
*
  1
*
  0
XRECORD
  5
6E
102
{ACAD_REACTORS
330
16
102
}
330
16
100
AcDbXrecord
  1
Red de Energia Electrica
  1
Lotes
  1
*
  1
*
 70
     1
  1
*
  1
*
  0
XRECORD
  5
6F
102
{ACAD_REACTORS
330
16
102
}
330
16
100
AcDbXrecord
  1
SEVERNI
  1
*-S
  1
*
  1
*
 70
     0
  1
*
  1
*
  0
XRECORD
  5
70
102
{ACAD_REACTORS
330
16
102
}
330
16
100
AcDbXrecord
  1
shin
  1
일*
  1
*
  1
*
 70
     0
  1
*
  1
*
  0
XRECORD
  5
71
102
{ACAD_REACTORS
330
16
102
}
330
16
100
AcDbXrecord
  1
SHOW ALL LAYER
  1
*
  1
*
  1
*
 70
     0
  1
*
  1
*
  0
XRECORD
  5
72
102
{ACAD_REACTORS
330
16
102
}
330
16
100
AcDbXrecord
  1
sin
  1
sin
  1
*
  1
*
 70
     0
  1
*
  1
*
  0
XRECORD
  5
73
102
{ACAD_REACTORS
330
16
102
}
330
16
100
AcDbXrecord
  1
STORAGE-CART
  1
STORAGE-CART*
  1
*
  1
*
 70
     0
  1
*
  1
*
  0
XRECORD
  5
74
102
{ACAD_REACTORS
330
16
102
}
330
16
100
AcDbXrecord
  1
T
  1
T*
  1
*
  1
*
 70
     0
  1
*
  1
*
  0
XRECORD
  5
75
102
{ACAD_REACTORS
330
16
102
}
330
16
100
AcDbXrecord
  1
TEXTOS
  1
TXT*
  1
*
  1
*
 70
     0
  1
*
  1
*
  0
XRECORD
  5
76
102
{ACAD_REACTORS
330
16
102
}
330
16
100
AcDbXrecord
  1
TEXTURAS
  1
*TEXTURAS
  1
*
  1
*
 70
     0
  1
*
  1
*
  0
XRECORD
  5
77
102
{ACAD_REACTORS
330
16
102
}
330
16
100
AcDbXrecord
  1
TUBERIAS
  1
T*
  1
*
  1
*
 70
     0
  1
*
  1
*
  0
XRECORD
  5
78
102
{ACAD_REACTORS
330
16
102
}
330
16
100
AcDbXrecord
  1
UNFRZ
  1
*
  1
*
  1
*
 70
    12
  1
*
  1
*
  0
XRECORD
  5
79
102
{ACAD_REACTORS
330
16
102
}
330
16
100
AcDbXrecord
  1
v\U+0161echny nepou\U+017E\U+00EDvan\U+00E9
  1
*
  1
*
  1
*
 70
     0
  1
*
  1
*
  0
XRECORD
  5
7A
102
{ACAD_REACTORS
330
16
102
}
330
16
100
AcDbXrecord
  1
VA
  1
VA*
  1
*
  1
*
 70
     0
  1
*
  1
*
  0
XRECORD
  5
7B
102
{ACAD_REACTORS
330
16
102
}
330
16
100
AcDbXrecord
  1
Ventilaci\U+00F3n
  1
*
  1
*
  1
*
 70
     0
  1
*
  1
*
  0
XRECORD
  5
7C
102
{ACAD_REACTORS
330
16
102
}
330
16
100
AcDbXrecord
  1
VYHODNI
  1
*-V
  1
*
  1
*
 70
     0
  1
*
  1
*
  0
XRECORD
  5
7D
102
{ACAD_REACTORS
330
16
102
}
330
16
100
AcDbXrecord
  1
Yo
  1
Muros
  1
*
  1
*
 70
     0
  1
*
  1
*
  0
XRECORD
  5
7E
102
{ACAD_REACTORS
330
16
102
}
330
16
100
AcDbXrecord
  1
ZAPADNI
  1
*-Z
  1
*
  1
*
 70
     0
  1
*
  1
*
  0
XRECORD
  5
7F
102
{ACAD_REACTORS
330
16
102
}
330
16
100
AcDbXrecord
  1
사용
  1
*
  1
*
  1
*
 70
   256
  1
*
  1
*
  0
XRECORD
  5
80
102
{ACAD_REACTORS
330
16
102
}
330
16
100
AcDbXrecord
  1
신규
  1
신규
  1
*
  1
*
 70
     0
  1
*
  1
*
  0
XRECORD
  5
81
102
{ACAD_REACTORS
330
16
102
}
330
16
100
AcDbXrecord
  1
실박스
  1
BLO,SYM,SYM1,SYM2
  1
*
  1
*
 70
     0
  1
*
  1
*
  0
XRECORD
  5
82
102
{ACAD_REACTORS
330
16
102
}
330
16
100
AcDbXrecord
  1
우리토목
  1
w-*
  1
*
  1
*
 70
     0
  1
*
  1
*
  0
XRECORD
  5
83
102
{ACAD_REACTORS
330
16
102
}
330
16
100
AcDbXrecord
  1
주차
  1
car*
  1
*
  1
*
 70
     0
  1
*
  1
*
  0
XRECORD
  5
84
102
{ACAD_REACTORS
330
16
102
}
330
16
100
AcDbXrecord
  1
지상정밀
  1
*
  1
*
  1
*
 70
     0
  1
*
  1
*
  0
XRECORD
  5
85
102
{ACAD_REACTORS
330
16
102
}
330
16
100
AcDbXrecord
  1
쩜선
  1
*
  1
*
  1
*
 70
     0
  1
*
  1
*
  0
XRECORD
  5
86
102
{ACAD_REACTORS
330
16
102
}
330
16
100
AcDbXrecord
  1
플로터 작업층
  1
*
  1
*
  1
*
 70
  1025
  1
*
  1
*
  0
XRECORD
  5
87
102
{ACAD_REACTORS
330
16
102
}
330
16
100
AcDbXrecord
  1
현재 작업층
  1
*
  1
*
  1
*
 70
     1
  1
*
  1
*
  0
XRECORD
  5
88
102
{ACAD_REACTORS
330
16
102
}
330
16
100
AcDbXrecord
  1
현재 잠금
  1
*
  1
*
  1
*
 70
   257
  1
*
  1
*
  0
ENDSEC
  0
EOF
