  0
SECTION
  2
HEADER
  9
$ACADVER
  1
AC1015
  9
$ACADMAINTVER
 70
    18
  9
$DWGCODEPAGE
  3
ANSI_949
  9
$INSBASE
 10
0.0
 20
0.0
 30
0.0
  9
$EXTMIN
 10
-7000.304749600502
 20
-3802.19822253397
 30
-0.0000091545749633
  9
$EXTMAX
 10
49176.66895198058
 20
2208.649092311158
 30
0.3000091559719402
  9
$LIMMIN
 10
0.0
 20
0.0
  9
$LIMMAX
 10
420.0
 20
297.0
  9
$ORTHOMODE
 70
     1
  9
$REGENMODE
 70
     1
  9
$FILLMODE
 70
     1
  9
$QTEXTMODE
 70
     0
  9
$MIRRTEXT
 70
     0
  9
$LTSCALE
 40
1.0
  9
$ATTMODE
 70
     1
  9
$TEXTSIZE
 40
2.5
  9
$TRACEWID
 40
1.0
  9
$TEXTSTYLE
  7
Standard
  9
$CLAYER
  8
0
  9
$CELTYPE
  6
ByLayer
  9
$CECOLOR
 62
   256
  9
$CELTSCALE
 40
1.0
  9
$DISPSILH
 70
     0
  9
$DIMSCALE
 40
1.0
  9
$DIMASZ
 40
4.0
  9
$DIMEXO
 40
1.0
  9
$DIMDLI
 40
10.0
  9
$DIMRND
 40
0.0
  9
$DIMDLE
 40
0.0
  9
$DIMEXE
 40
0.6
  9
$DIMTP
 40
0.0
  9
$DIMTM
 40
0.0
  9
$DIMTXT
 40
5.0
  9
$DIMCEN
 40
0.09
  9
$DIMTSZ
 40
0.0
  9
$DIMTOL
 70
     0
  9
$DIMLIM
 70
     0
  9
$DIMTIH
 70
     0
  9
$DIMTOH
 70
     0
  9
$DIMSE1
 70
     0
  9
$DIMSE2
 70
     0
  9
$DIMTAD
 70
     1
  9
$DIMZIN
 70
     8
  9
$DIMBLK
  1

  9
$DIMASO
 70
     1
  9
$DIMSHO
 70
     1
  9
$DIMPOST
  1

  9
$DIMAPOST
  1

  9
$DIMALT
 70
     0
  9
$DIMALTD
 70
     2
  9
$DIMALTF
 40
25.4
  9
$DIMLFAC
 40
1.0
  9
$DIMTOFL
 70
     1
  9
$DIMTVP
 40
0.0
  9
$DIMTIX
 70
     1
  9
$DIMSOXD
 70
     0
  9
$DIMSAH
 70
     0
  9
$DIMBLK1
  1

  9
$DIMBLK2
  1

  9
$DIMSTYLE
  2
STANDARD
  9
$DIMCLRD
 70
   123
  9
$DIMCLRE
 70
   123
  9
$DIMCLRT
 70
     3
  9
$DIMTFAC
 40
1.0
  9
$DIMGAP
 40
1.5
  9
$DIMJUST
 70
     0
  9
$DIMSD1
 70
     0
  9
$DIMSD2
 70
     0
  9
$DIMTOLJ
 70
     1
  9
$DIMTZIN
 70
     0
  9
$DIMALTZ
 70
     0
  9
$DIMALTTZ
 70
     0
  9
$DIMUPT
 70
     1
  9
$DIMDEC
 70
     2
  9
$DIMTDEC
 70
     2
  9
$DIMALTU
 70
     2
  9
$DIMALTTD
 70
     2
  9
$DIMTXSTY
  7
Standard
  9
$DIMAUNIT
 70
     1
  9
$DIMADEC
 70
     1
  9
$DIMALTRND
 40
0.0
  9
$DIMAZIN
 70
     2
  9
$DIMDSEP
 70
    46
  9
$DIMATFIT
 70
     0
  9
$DIMFRAC
 70
     0
  9
$DIMLDRBLK
  1

  9
$DIMLUNIT
 70
     2
  9
$DIMLWD
 70
    -2
  9
$DIMLWE
 70
    -2
  9
$DIMTMOVE
 70
     0
  9
$LUNITS
 70
     2
  9
$LUPREC
 70
     4
  9
$SKETCHINC
 40
1.0
  9
$FILLETRAD
 40
0.3
  9
$AUNITS
 70
     0
  9
$AUPREC
 70
     0
  9
$MENU
  1
.
  9
$ELEVATION
 40
0.0
  9
$PELEVATION
 40
0.0
  9
$THICKNESS
 40
0.0
  9
$LIMCHECK
 70
     0
  9
$CHAMFERA
 40
0.5
  9
$CHAMFERB
 40
0.5
  9
$CHAMFERC
 40
0.0
  9
$CHAMFERD
 40
0.0
  9
$SKPOLY
 70
     0
  9
$TDCREATE
 40
2455638.478663565
  9
$TDUCREATE
 40
2455638.103663565
  9
$TDUPDATE
 40
2455911.740032732
  9
$TDUUPDATE
 40
2455911.365032731
  9
$TDINDWG
 40
3.5211410417
  9
$TDUSRTIMER
 40
3.5211410417
  9
$USRTIMER
 70
     1
  9
$ANGBASE
 50
0.0
  9
$ANGDIR
 70
     0
  9
$PDMODE
 70
     0
  9
$PDSIZE
 40
0.0
  9
$PLINEWID
 40
0.0
  9
$SPLFRAME
 70
     0
  9
$SPLINETYPE
 70
     6
  9
$SPLINESEGS
 70
     8
  9
$HANDSEED
  5
5BA
  9
$SURFTAB1
 70
     6
  9
$SURFTAB2
 70
     6
  9
$SURFTYPE
 70
     6
  9
$SURFU
 70
     6
  9
$SURFV
 70
     6
  9
$UCSBASE
  2

  9
$UCSNAME
  2

  9
$UCSORG
 10
0.0
 20
0.0
 30
0.0
  9
$UCSXDIR
 10
1.0
 20
0.0
 30
0.0
  9
$UCSYDIR
 10
0.0
 20
1.0
 30
0.0
  9
$UCSORTHOREF
  2

  9
$UCSORTHOVIEW
 70
     0
  9
$UCSORGTOP
 10
0.0
 20
0.0
 30
0.0
  9
$UCSORGBOTTOM
 10
0.0
 20
0.0
 30
0.0
  9
$UCSORGLEFT
 10
0.0
 20
0.0
 30
0.0
  9
$UCSORGRIGHT
 10
0.0
 20
0.0
 30
0.0
  9
$UCSORGFRONT
 10
0.0
 20
0.0
 30
0.0
  9
$UCSORGBACK
 10
0.0
 20
0.0
 30
0.0
  9
$PUCSBASE
  2

  9
$PUCSNAME
  2

  9
$PUCSORG
 10
0.0
 20
0.0
 30
0.0
  9
$PUCSXDIR
 10
1.0
 20
0.0
 30
0.0
  9
$PUCSYDIR
 10
0.0
 20
1.0
 30
0.0
  9
$PUCSORTHOREF
  2

  9
$PUCSORTHOVIEW
 70
     0
  9
$PUCSORGTOP
 10
0.0
 20
0.0
 30
0.0
  9
$PUCSORGBOTTOM
 10
0.0
 20
0.0
 30
0.0
  9
$PUCSORGLEFT
 10
0.0
 20
0.0
 30
0.0
  9
$PUCSORGRIGHT
 10
0.0
 20
0.0
 30
0.0
  9
$PUCSORGFRONT
 10
0.0
 20
0.0
 30
0.0
  9
$PUCSORGBACK
 10
0.0
 20
0.0
 30
0.0
  9
$USERI1
 70
     0
  9
$USERI2
 70
     0
  9
$USERI3
 70
     0
  9
$USERI4
 70
     0
  9
$USERI5
 70
     0
  9
$USERR1
 40
0.0
  9
$USERR2
 40
0.0
  9
$USERR3
 40
0.0
  9
$USERR4
 40
0.0
  9
$USERR5
 40
0.0
  9
$WORLDVIEW
 70
     1
  9
$SHADEDGE
 70
     3
  9
$SHADEDIF
 70
    70
  9
$TILEMODE
 70
     1
  9
$MAXACTVP
 70
    48
  9
$PINSBASE
 10
0.0
 20
0.0
 30
0.0
  9
$PLIMCHECK
 70
     0
  9
$PEXTMIN
 10
0.0
 20
0.0
 30
0.0
  9
$PEXTMAX
 10
0.0
 20
0.0
 30
0.0
  9
$PLIMMIN
 10
0.0
 20
0.0
  9
$PLIMMAX
 10
12.0
 20
9.0
  9
$UNITMODE
 70
     0
  9
$VISRETAIN
 70
     1
  9
$PLINEGEN
 70
     0
  9
$PSLTSCALE
 70
     1
  9
$TREEDEPTH
 70
  3020
  9
$CMLSTYLE
  2
Standard
  9
$CMLJUST
 70
     0
  9
$CMLSCALE
 40
20.0
  9
$PROXYGRAPHICS
 70
     1
  9
$MEASUREMENT
 70
     1
  9
$CELWEIGHT
370
    -1
  9
$ENDCAPS
280
     0
  9
$JOINSTYLE
280
     0
  9
$LWDISPLAY
290
     0
  9
$INSUNITS
 70
     4
  9
$HYPERLINKBASE
  1

  9
$STYLESHEET
  1

  9
$XEDIT
290
     1
  9
$CEPSNTYPE
380
     0
  9
$PSTYLEMODE
290
     1
  9
$FINGERPRINTGUID
  2
{C88C8CBC-E9B6-4185-89E5-7AAFB530B124}
  9
$VERSIONGUID
  2
{9617A0B3-7FE8-4F73-8F9E-5ECF62B87F99}
  9
$EXTNAMES
290
     1
  9
$PSVPSCALE
 40
0.0
  9
$OLESTARTUP
290
     0
  0
ENDSEC
  0
SECTION
  2
CLASSES
  0
CLASS
  1
ACDBDICTIONARYWDFLT
  2
AcDbDictionaryWithDefault
  3
ObjectDBX Classes
 90
        0
280
     0
281
     0
  0
CLASS
  1
ACDBPLACEHOLDER
  2
AcDbPlaceHolder
  3
ObjectDBX Classes
 90
        0
280
     0
281
     0
  0
CLASS
  1
LAYOUT
  2
AcDbLayout
  3
ObjectDBX Classes
 90
        0
280
     0
281
     0
  0
CLASS
  1
DICTIONARYVAR
  2
AcDbDictionaryVar
  3
ObjectDBX Classes
 90
        0
280
     0
281
     0
  0
CLASS
  1
TABLESTYLE
  2
AcDbTableStyle
  3
ObjectDBX Classes
 90
     4095
280
     0
281
     0
  0
CLASS
  1
MATERIAL
  2
AcDbMaterial
  3
ObjectDBX Classes
 90
     1153
280
     0
281
     0
  0
CLASS
  1
VISUALSTYLE
  2
AcDbVisualStyle
  3
ObjectDBX Classes
 90
     4095
280
     0
281
     0
  0
CLASS
  1
SCALE
  2
AcDbScale
  3
ObjectDBX Classes
 90
     1153
280
     0
281
     0
  0
CLASS
  1
MLEADERSTYLE
  2
AcDbMLeaderStyle
  3
ACDB_MLEADERSTYLE_CLASS
 90
    36863
280
     0
281
     0
  0
CLASS
  1
CELLSTYLEMAP
  2
AcDbCellStyleMap
  3
ObjectDBX Classes
 90
     1152
280
     0
281
     0
  0
CLASS
  1
DIMASSOC
  2
AcDbDimAssoc
  3
"AcDbDimAssoc|Product Desc:     AcDim ARX App For Dimension|Company:          Autodesk, Inc.|WEB Address:      www.autodesk.com"
 90
        0
280
     0
281
     0
  0
CLASS
  1
SORTENTSTABLE
  2
AcDbSortentsTable
  3
ObjectDBX Classes
 90
        0
280
     0
281
     0
  0
CLASS
  1
BREAKDATA
  2
AcDbBreakData
  3
ObjectDBX Classes
 90
    33792
280
     0
281
     0
  0
CLASS
  1
EXACXREFPANELOBJECT
  2
ExAcXREFPanelObject
  3
EXAC_ESW
 90
    33793
280
     0
281
     0
  0
CLASS
  1
NPOCOLLECTION
  2
AcDbImpNonPersistentObjectsCollection
  3
ObjectDBX Classes
 90
    33921
280
     0
281
     0
  0
CLASS
  1
SOLID_BACKGROUND
  2
AcDbSolidBackground
  3
SCENEOE
 90
    36863
280
     0
281
     0
  0
ENDSEC
  0
SECTION
  2
TABLES
  0
TABLE
  2
VPORT
  5
2B
102
{ACAD_XDICTIONARY
360
2F
102
}
330
0
100
AcDbSymbolTable
 70
     1
  0
VPORT
  5
2C
330
2B
100
AcDbSymbolTableRecord
100
AcDbViewportTableRecord
  2
*Active
 70
     0
 10
0.0
 20
0.0
 11
1.0
 21
1.0
 12
21861.34257926576
 22
-1114.681772851349
 13
0.0
 23
0.0
 14
10.0
 24
10.0
 15
10.0
 25
10.0
 16
0.0
 26
0.0
 36
1.0
 17
0.0
 27
0.0
 37
0.0
 40
1011.504864378585
 41
1.712519319938176
 42
50.0
 43
0.0
 44
0.0
 50
0.0
 51
0.0
 71
     0
 72
  1000
 73
     1
 74
     3
 75
     0
 76
     0
 77
     0
 78
     0
281
     0
 65
     1
110
0.0
120
0.0
130
0.0
111
1.0
121
0.0
131
0.0
112
0.0
122
1.0
132
0.0
 79
     0
146
0.0
  0
ENDTAB
  0
TABLE
  2
LTYPE
  5
26
330
0
100
AcDbSymbolTable
 70
     2
  0
LTYPE
  5
27
330
26
100
AcDbSymbolTableRecord
100
AcDbLinetypeTableRecord
  2
ByBlock
 70
     0
  3

 72
    65
 73
     0
 40
0.0
  0
LTYPE
  5
28
330
26
100
AcDbSymbolTableRecord
100
AcDbLinetypeTableRecord
  2
ByLayer
 70
     0
  3

 72
    65
 73
     0
 40
0.0
  0
LTYPE
  5
15
330
26
100
AcDbSymbolTableRecord
100
AcDbLinetypeTableRecord
  2
Continuous
 70
     0
  3
Solid line
 72
    65
 73
     0
 40
0.0
  0
LTYPE
  5
77
330
26
100
AcDbSymbolTableRecord
100
AcDbLinetypeTableRecord
  2
CENTER
 70
     0
  3
Center ____ _ ____ _ ____ _ ____ _ ____ _ ____
 72
    65
 73
     4
 40
50.8
 49
31.75
 74
     0
 49
-6.349999999999999
 74
     0
 49
6.349999999999999
 74
     0
 49
-6.349999999999999
 74
     0
  0
ENDTAB
  0
TABLE
  2
LAYER
  5
20
102
{ACAD_XDICTIONARY
360
21
102
}
330
0
100
AcDbSymbolTable
 70
     2
  0
LAYER
  5
7
102
{ACAD_XDICTIONARY
360
8
102
}
330
20
100
AcDbSymbolTableRecord
100
AcDbLayerTableRecord
  2
0
 70
     0
 62
     7
  6
Continuous
370
    -3
390
A
  0
LAYER
  5
72
330
20
100
AcDbSymbolTableRecord
100
AcDbLayerTableRecord
  2
Defpoints
 70
     0
 62
     7
  6
Continuous
290
     0
370
    -3
390
A
  0
ENDTAB
  0
TABLE
  2
STYLE
  5
23
330
0
100
AcDbSymbolTable
 70
     1
  0
STYLE
  5
24
330
23
100
AcDbSymbolTableRecord
100
AcDbTextStyleTableRecord
  2
Standard
 70
     0
 40
0.0
 41
1.0
 50
0.0
 71
     0
 42
2.5
  3
romans.shx
  4
whgtxt.shx
  0
ENDTAB
  0
TABLE
  2
VIEW
  5
29
330
0
100
AcDbSymbolTable
 70
     0
  0
ENDTAB
  0
TABLE
  2
UCS
  5
2A
330
0
100
AcDbSymbolTable
 70
     0
  0
ENDTAB
  0
TABLE
  2
APPID
  5
30
330
0
100
AcDbSymbolTable
 70
     4
  0
APPID
  5
14
330
30
100
AcDbSymbolTableRecord
100
AcDbRegAppTableRecord
  2
ACAD
 70
     0
  0
APPID
  5
19
330
30
100
AcDbSymbolTableRecord
100
AcDbRegAppTableRecord
  2
ACAD_PSEXT
 70
     0
  0
APPID
  5
33
330
30
100
AcDbSymbolTableRecord
100
AcDbRegAppTableRecord
  2
ACAD_DSTYLE_DIMJAG
 70
     0
  0
APPID
  5
34
330
30
100
AcDbSymbolTableRecord
100
AcDbRegAppTableRecord
  2
ACAD_DSTYLE_DIMTALN
 70
     0
  0
ENDTAB
  0
TABLE
  2
DIMSTYLE
  5
31
330
0
100
AcDbSymbolTable
 70
     1
100
AcDbDimStyleTable
 71
     1
340
32
  0
DIMSTYLE
105
32
102
{ACAD_REACTORS
330
579
330
564
330
553
330
541
330
530
330
521
330
511
330
305
330
2F5
330
2F3
330
BB
330
A3
330
68
330
64
102
}
330
31
100
AcDbSymbolTableRecord
100
AcDbDimStyleTableRecord
  2
STANDARD
 70
     0
 41
4.0
 42
1.0
 43
10.0
 44
0.6
 73
     0
 74
     0
 77
     1
 78
     8
 79
     2
140
5.0
147
1.5
172
     1
174
     1
176
   123
177
   123
178
     3
179
     1
271
     2
272
     2
275
     1
288
     1
289
     0
340
24
1001
ACAD_DSTYLE_DIMJAG
1070
   388
1040
1.5
1001
ACAD_DSTYLE_DIMTALN
1070
   392
1070
     0
  0
ENDTAB
  0
TABLE
  2
BLOCK_RECORD
  5
1
330
0
100
AcDbSymbolTable
 70
    12
  0
BLOCK_RECORD
  5
2
102
{ACAD_XDICTIONARY
360
3
102
}
330
1
100
AcDbSymbolTableRecord
100
AcDbBlockTableRecord
  2
*Model_Space
340
17
  0
BLOCK_RECORD
  5
1A
102
{ACAD_XDICTIONARY
360
1B
102
}
330
1
100
AcDbSymbolTableRecord
100
AcDbBlockTableRecord
  2
*Paper_Space
340
1F
  0
BLOCK_RECORD
  5
565
330
1
100
AcDbSymbolTableRecord
100
AcDbBlockTableRecord
  2
*D0
340
0
  0
BLOCK_RECORD
  5
57A
330
1
100
AcDbSymbolTableRecord
100
AcDbBlockTableRecord
  2
*D1
340
0
  0
BLOCK_RECORD
  5
2F6
330
1
100
AcDbSymbolTableRecord
100
AcDbBlockTableRecord
  2
*D2
340
0
  0
BLOCK_RECORD
  5
69
330
1
100
AcDbSymbolTableRecord
100
AcDbBlockTableRecord
  2
*D3
340
0
  0
BLOCK_RECORD
  5
BC
330
1
100
AcDbSymbolTableRecord
100
AcDbBlockTableRecord
  2
*D4
340
0
  0
BLOCK_RECORD
  5
514
330
1
100
AcDbSymbolTableRecord
100
AcDbBlockTableRecord
  2
*D5
340
0
  0
BLOCK_RECORD
  5
524
330
1
100
AcDbSymbolTableRecord
100
AcDbBlockTableRecord
  2
*D6
340
0
  0
BLOCK_RECORD
  5
533
330
1
100
AcDbSymbolTableRecord
100
AcDbBlockTableRecord
  2
*D7
340
0
  0
BLOCK_RECORD
  5
544
330
1
100
AcDbSymbolTableRecord
100
AcDbBlockTableRecord
  2
*D8
340
0
  0
BLOCK_RECORD
  5
556
330
1
100
AcDbSymbolTableRecord
100
AcDbBlockTableRecord
  2
*D9
340
0
  0
BLOCK_RECORD
  5
308
330
1
100
AcDbSymbolTableRecord
100
AcDbBlockTableRecord
  2
*D10
340
0
  0
BLOCK_RECORD
  5
A6
330
1
100
AcDbSymbolTableRecord
100
AcDbBlockTableRecord
  2
*D11
340
0
  0
ENDTAB
  0
ENDSEC
  0
SECTION
  2
BLOCKS
  0
BLOCK
  5
6
330
2
100
AcDbEntity
  8
0
100
AcDbBlockBegin
  2
*Model_Space
 70
     0
 10
0.0
 20
0.0
 30
0.0
  3
*Model_Space
  1

  0
ENDBLK
  5
16
330
2
100
AcDbEntity
  8
0
100
AcDbBlockEnd
  0
BLOCK
  5
1D
330
1A
100
AcDbEntity
 67
     1
  8
0
100
AcDbBlockBegin
  2
*Paper_Space
 70
     0
 10
0.0
 20
0.0
 30
0.0
  3
*Paper_Space
  1

  0
ENDBLK
  5
1E
330
1A
100
AcDbEntity
 67
     1
  8
0
100
AcDbBlockEnd
  0
BLOCK
  5
566
330
565
100
AcDbEntity
  8
0
100
AcDbBlockBegin
  2
*D0
 70
     1
 10
0.0
 20
0.0
 30
0.0
  3
*D0
  1

  0
LINE
  5
567
330
565
100
AcDbEntity
  8
0
 62
   123
370
    -2
100
AcDbLine
 10
21830.69814410397
 20
-1179.624397583437
 30
0.0
 11
21830.69814410397
 21
-1140.645182586886
 31
0.0
  0
LINE
  5
568
330
565
100
AcDbEntity
  8
0
 62
   123
370
    -2
100
AcDbLine
 10
22066.69886659466
 20
-1183.124397583438
 30
0.0
 11
22066.69886659466
 21
-1140.645182586886
 31
0.0
  0
LINE
  5
569
330
565
100
AcDbEntity
  8
0
 62
   123
370
    -2
100
AcDbLine
 10
21834.69814410397
 20
-1141.245182586885
 30
0.0
 11
22062.69886659466
 21
-1141.245182586885
 31
0.0
  0
SOLID
  5
56A
330
565
100
AcDbEntity
  8
0
 62
   123
100
AcDbTrace
 10
21834.69814410397
 20
-1140.578515920219
 30
0.0
 11
21834.69814410397
 21
-1141.911849253552
 31
0.0
 12
21830.69814410397
 22
-1141.245182586885
 32
0.0
 13
21830.69814410397
 23
-1141.245182586885
 33
0.0
  0
SOLID
  5
56B
330
565
100
AcDbEntity
  8
0
 62
   123
100
AcDbTrace
 10
22062.69886659466
 20
-1140.578515920219
 30
0.0
 11
22062.69886659466
 21
-1141.911849253552
 31
0.0
 12
22066.69886659466
 22
-1141.245182586885
 32
0.0
 13
22066.69886659466
 23
-1141.245182586885
 33
0.0
  0
MTEXT
  5
56C
330
565
100
AcDbEntity
  8
0
 62
     3
100
AcDbMText
 10
21948.69850534932
 20
-1137.245182586886
 30
0.0
 40
5.0
 41
0.0
 71
     5
 72
     1
  1
\A1;236
 73
     1
 44
1.0
1001
ACAD
1000
MTEXTBEGIN
1070
    73
1070
     1
1070
    44
1040
1.0
1070
    74
1070
     0
1000
MTEXTEND
  0
POINT
  5
56D
330
565
100
AcDbEntity
  8
Defpoints
 62
     0
100
AcDbPoint
 10
21830.69814410397
 20
-1180.624397583438
 30
0.0
  0
POINT
  5
56E
330
565
100
AcDbEntity
  8
Defpoints
 62
     0
100
AcDbPoint
 10
22066.69886659466
 20
-1184.124397583437
 30
0.0
  0
POINT
  5
56F
330
565
100
AcDbEntity
  8
Defpoints
 62
     0
100
AcDbPoint
 10
22066.69886659466
 20
-1141.245182586885
 30
0.0
  0
ENDBLK
  5
570
330
565
100
AcDbEntity
  8
0
100
AcDbBlockEnd
  0
BLOCK
  5
57B
330
57A
100
AcDbEntity
  8
0
100
AcDbBlockBegin
  2
*D1
 70
     1
 10
0.0
 20
0.0
 30
0.0
  3
*D1
  1

  0
LINE
  5
57C
330
57A
100
AcDbEntity
  8
0
 62
   123
370
    -2
100
AcDbLine
 10
21828.69814410397
 20
-1183.124397583438
 30
0.0
 11
21828.69814410397
 21
-1166.4179081864
 31
0.0
  0
LINE
  5
57D
330
57A
100
AcDbEntity
  8
0
 62
   123
370
    -2
100
AcDbLine
 10
21830.69814410397
 20
-1179.624397583437
 30
0.0
 11
21830.69814410397
 21
-1166.4179081864
 31
0.0
  0
LINE
  5
57E
330
57A
100
AcDbEntity
  8
0
 62
   123
370
    -2
100
AcDbLine
 10
21834.69814410397
 20
-1167.0179081864
 30
0.0
 11
21838.69814410398
 21
-1167.0179081864
 31
0.0
  0
LINE
  5
57F
330
57A
100
AcDbEntity
  8
0
 62
   123
370
    -2
100
AcDbLine
 10
21824.69814410398
 20
-1167.0179081864
 30
0.0
 11
21812.43360658298
 21
-1167.0179081864
 31
0.0
  0
LINE
  5
580
330
57A
100
AcDbEntity
  8
0
 62
   123
370
    -2
100
AcDbLine
 10
21830.69814410397
 20
-1167.0179081864
 30
0.0
 11
21828.69814410397
 21
-1167.0179081864
 31
0.0
  0
SOLID
  5
581
330
57A
100
AcDbEntity
  8
0
 62
   123
100
AcDbTrace
 10
21834.69814410397
 20
-1166.351241519734
 30
0.0
 11
21834.69814410397
 21
-1167.684574853067
 31
0.0
 12
21830.69814410397
 22
-1167.0179081864
 32
0.0
 13
21830.69814410397
 23
-1167.0179081864
 33
0.0
  0
SOLID
  5
582
330
57A
100
AcDbEntity
  8
0
 62
   123
100
AcDbTrace
 10
21824.69814410398
 20
-1166.351241519734
 30
0.0
 11
21824.69814410398
 21
-1167.684574853067
 31
0.0
 12
21828.69814410397
 22
-1167.0179081864
 32
0.0
 13
21828.69814410397
 23
-1167.0179081864
 33
0.0
  0
MTEXT
  5
583
330
57A
100
AcDbEntity
  8
0
 62
     3
100
AcDbMText
 10
21815.60027324964
 20
-1163.0179081864
 30
0.0
 40
5.0
 41
0.0
 71
     5
 72
     1
  1
\A1;2
 73
     1
 44
1.0
1001
ACAD
1000
MTEXTBEGIN
1070
    73
1070
     1
1070
    44
1040
1.0
1070
    74
1070
     0
1000
MTEXTEND
  0
POINT
  5
584
330
57A
100
AcDbEntity
  8
Defpoints
 62
     0
100
AcDbPoint
 10
21828.69814410397
 20
-1184.124397583437
 30
0.0
  0
POINT
  5
585
330
57A
100
AcDbEntity
  8
Defpoints
 62
     0
100
AcDbPoint
 10
21830.69814410397
 20
-1180.624397583438
 30
0.0
  0
POINT
  5
586
330
57A
100
AcDbEntity
  8
Defpoints
 62
     0
100
AcDbPoint
 10
21830.69814410397
 20
-1167.0179081864
 30
0.0
  0
ENDBLK
  5
587
330
57A
100
AcDbEntity
  8
0
100
AcDbBlockEnd
  0
BLOCK
  5
2F7
330
2F6
100
AcDbEntity
  8
0
100
AcDbBlockBegin
  2
*D2
 70
     1
 10
0.0
 20
0.0
 30
0.0
  3
*D2
  1

  0
LINE
  5
2F8
330
2F6
100
AcDbEntity
  8
0
 62
   123
370
    -2
100
AcDbLine
 10
22064.19886659466
 20
-1180.624397583438
 30
0.0
 11
22088.89346998418
 21
-1180.624397583438
 31
0.0
  0
LINE
  5
2F9
330
2F6
100
AcDbEntity
  8
0
 62
   123
370
    -2
100
AcDbLine
 10
22064.19886659466
 20
-1270.624397583438
 30
0.0
 11
22088.89346998418
 21
-1270.624397583438
 31
0.0
  0
LINE
  5
2FA
330
2F6
100
AcDbEntity
  8
0
 62
   123
370
    -2
100
AcDbLine
 10
22088.29346998418
 20
-1184.624397583438
 30
0.0
 11
22088.29346998418
 21
-1266.624397583437
 31
0.0
  0
SOLID
  5
2FB
330
2F6
100
AcDbEntity
  8
0
 62
   123
100
AcDbTrace
 10
22087.62680331751
 20
-1184.624397583438
 30
0.0
 11
22088.96013665085
 21
-1184.624397583438
 31
0.0
 12
22088.29346998418
 22
-1180.624397583438
 32
0.0
 13
22088.29346998418
 23
-1180.624397583438
 33
0.0
  0
SOLID
  5
2FC
330
2F6
100
AcDbEntity
  8
0
 62
   123
100
AcDbTrace
 10
22087.62680331751
 20
-1266.624397583437
 30
0.0
 11
22088.96013665085
 21
-1266.624397583437
 31
0.0
 12
22088.29346998418
 22
-1270.624397583438
 32
0.0
 13
22088.29346998418
 23
-1270.624397583438
 33
0.0
  0
MTEXT
  5
2FD
330
2F6
100
AcDbEntity
  8
0
 62
     3
100
AcDbMText
 10
22084.29346998418
 20
-1225.617607611199
 30
0.0
 40
5.0
 41
0.0
 71
     5
 72
     1
  1
\A1;90
 11
0.0000000000000001
 21
1.0
 31
0.0
 73
     1
 44
1.0
1001
ACAD
1000
MTEXTBEGIN
1070
    73
1070
     1
1070
    44
1040
1.0
1070
    74
1070
     0
1000
MTEXTEND
  0
POINT
  5
2FE
330
2F6
100
AcDbEntity
  8
Defpoints
 62
     0
100
AcDbPoint
 10
22063.19886659466
 20
-1180.624397583438
 30
0.0
  0
POINT
  5
2FF
330
2F6
100
AcDbEntity
  8
Defpoints
 62
     0
100
AcDbPoint
 10
22063.19886659466
 20
-1270.624397583438
 30
0.0
  0
POINT
  5
300
330
2F6
100
AcDbEntity
  8
Defpoints
 62
     0
100
AcDbPoint
 10
22088.29346998418
 20
-1270.624397583438
 30
0.0
  0
ENDBLK
  5
301
330
2F6
100
AcDbEntity
  8
0
100
AcDbBlockEnd
  0
BLOCK
  5
6A
330
69
100
AcDbEntity
  8
0
100
AcDbBlockBegin
  2
*D3
 70
     1
 10
0.0
 20
0.0
 30
0.0
  3
*D3
  1

  0
LINE
  5
6B
330
69
100
AcDbEntity
  8
0
 62
   123
370
    -2
100
AcDbLine
 10
21635.82543307591
 20
-1184.667191342233
 30
0.0
 11
21635.82543307591
 21
-1143.791510790288
 31
0.0
  0
LINE
  5
6C
330
69
100
AcDbEntity
  8
0
 62
   123
370
    -2
100
AcDbLine
 10
21725.82543307591
 20
-1184.667191342233
 30
0.0
 11
21725.82543307591
 21
-1143.791510790288
 31
0.0
  0
LINE
  5
6D
330
69
100
AcDbEntity
  8
0
 62
   123
370
    -2
100
AcDbLine
 10
21639.82543307591
 20
-1144.391510790288
 30
0.0
 11
21721.82543307591
 21
-1144.391510790288
 31
0.0
  0
SOLID
  5
6E
330
69
100
AcDbEntity
  8
0
 62
   123
100
AcDbTrace
 10
21639.82543307591
 20
-1143.724844123621
 30
0.0
 11
21639.82543307591
 21
-1145.058177456954
 31
0.0
 12
21635.82543307591
 22
-1144.391510790288
 32
0.0
 13
21635.82543307591
 23
-1144.391510790288
 33
0.0
  0
SOLID
  5
6F
330
69
100
AcDbEntity
  8
0
 62
   123
100
AcDbTrace
 10
21721.82543307591
 20
-1143.724844123621
 30
0.0
 11
21721.82543307591
 21
-1145.058177456954
 31
0.0
 12
21725.82543307591
 22
-1144.391510790288
 32
0.0
 13
21725.82543307591
 23
-1144.391510790288
 33
0.0
  0
MTEXT
  5
70
330
69
100
AcDbEntity
  8
0
 62
     3
100
AcDbMText
 10
21680.82543307591
 20
-1140.391510790287
 30
0.0
 40
5.0
 41
0.0
 71
     5
 72
     1
  1
\A1;90
 73
     1
 44
1.0
1001
ACAD
1000
MTEXTBEGIN
1070
    73
1070
     1
1070
    44
1040
1.0
1070
    74
1070
     0
1000
MTEXTEND
  0
POINT
  5
71
330
69
100
AcDbEntity
  8
Defpoints
 62
     0
100
AcDbPoint
 10
21635.82543307591
 20
-1185.667191342233
 30
0.0
  0
POINT
  5
73
330
69
100
AcDbEntity
  8
Defpoints
 62
     0
100
AcDbPoint
 10
21725.82543307591
 20
-1185.667191342233
 30
0.0
  0
POINT
  5
74
330
69
100
AcDbEntity
  8
Defpoints
 62
     0
100
AcDbPoint
 10
21725.82543307591
 20
-1144.391510790288
 30
0.0
  0
ENDBLK
  5
75
330
69
100
AcDbEntity
  8
0
100
AcDbBlockEnd
  0
BLOCK
  5
BD
330
BC
100
AcDbEntity
  8
0
100
AcDbBlockBegin
  2
*D4
 70
     1
 10
0.0
 20
0.0
 30
0.0
  3
*D4
  1

  0
LINE
  5
BE
330
BC
100
AcDbEntity
  8
0
 62
   123
 48
0.6
100
AcDbLine
 10
21680.81921540501
 20
-1280.27593922658
 30
0.0
 11
21680.81921540501
 21
-1298.694526620075
 31
0.0
  0
LINE
  5
BF
330
BC
100
AcDbEntity
  8
0
 62
   123
 48
0.6
100
AcDbLine
 10
21699.84783576562
 20
-1271.569628859009
 30
0.0
 11
21708.78171365647
 21
-1293.130725827679
 31
0.0
  0
ARC
  5
C0
330
BC
100
AcDbEntity
  8
0
 62
   123
 48
0.6
100
AcDbCircle
 10
21680.81921540501
 20
-1225.645794462833
 30
0.0
 40
72.4487321572435
100
AcDbArc
 50
273.163785346987
 51
289.3429715504202
  0
SOLID
  5
C1
330
BC
100
AcDbEntity
  8
0
 62
   123
 48
0.6
100
AcDbTrace
 10
21684.8360947808
 20
-1298.650516300581
 30
0.0
 11
21684.79928714335
 21
-1297.317691114895
 31
0.0
 12
21680.81921540501
 22
-1298.094526620076
 32
0.0
 13
21680.81921540501
 23
-1298.094526620076
 33
0.0
  0
SOLID
  5
C2
330
BC
100
AcDbEntity
  8
0
 62
   123
 48
0.6
100
AcDbTrace
 10
21704.57774434138
 20
-1293.382298974995
 30
0.0
 11
21705.0539355087
 21
-1294.627698408887
 31
0.0
 12
21708.55203822672
 22
-1292.576425189966
 32
0.0
 13
21708.55203822672
 23
-1292.576425189966
 33
0.0
  0
MTEXT
  5
C3
330
BC
100
AcDbEntity
  8
0
 62
     3
 48
0.6
100
AcDbMText
 10
21694.08393141864
 20
-1292.311480776408
 30
0.0
 40
5.0
 41
0.0
 71
     5
 72
     1
  1
\A1;22°30'
 11
0.9807737751869385
 21
0.1951481537334144
 31
0.0
 73
     1
 44
1.0
1001
ACAD
1000
MTEXTBEGIN
1070
    73
1070
     1
1070
    44
1040
1.0
1070
    74
1070
     0
1000
MTEXTEND
  0
POINT
  5
C4
330
BC
100
AcDbEntity
  8
Defpoints
 62
     0
 48
0.6
100
AcDbPoint
 10
21690.27849613489
 20
-1297.474345884014
 30
0.0
  0
POINT
  5
C5
330
BC
100
AcDbEntity
  8
Defpoints
 62
     0
 48
0.6
100
AcDbPoint
 10
21680.81921540501
 20
-1279.27593922658
 30
0.0
  0
POINT
  5
C6
330
BC
100
AcDbEntity
  8
Defpoints
 62
     0
 48
0.6
100
AcDbPoint
 10
21680.81921540501
 20
-1225.645794462828
 30
0.0
  0
POINT
  5
C7
330
BC
100
AcDbEntity
  8
Defpoints
 62
     0
 48
0.6
100
AcDbPoint
 10
21699.4650433827
 20
-1270.645794462821
 30
0.0
  0
POINT
  5
C8
330
BC
100
AcDbEntity
  8
Defpoints
 62
     0
 48
0.6
100
AcDbPoint
 10
21680.81921540501
 20
-1172.015649699075
 30
0.0
  0
ENDBLK
  5
C9
330
BC
100
AcDbEntity
  8
0
100
AcDbBlockEnd
  0
BLOCK
  5
515
330
514
100
AcDbEntity
  8
0
100
AcDbBlockBegin
  2
*D5
 70
     1
 10
0.0
 20
0.0
 30
0.0
  3
*D5
  1

  0
LINE
  5
516
330
514
100
AcDbEntity
  8
0
 62
   123
370
    -2
100
AcDbLine
 10
21793.69814410398
 20
-1219.624397583437
 30
0.0
 11
21793.69814410398
 21
-1140.645182586886
 31
0.0
  0
LINE
  5
517
330
514
100
AcDbEntity
  8
0
 62
   123
370
    -2
100
AcDbLine
 10
21830.69814410397
 20
-1179.624397583437
 30
0.0
 11
21830.69814410397
 21
-1140.645182586886
 31
0.0
  0
LINE
  5
518
330
514
100
AcDbEntity
  8
0
 62
   123
370
    -2
100
AcDbLine
 10
21797.69814410398
 20
-1141.245182586885
 30
0.0
 11
21826.69814410397
 21
-1141.245182586885
 31
0.0
  0
SOLID
  5
519
330
514
100
AcDbEntity
  8
0
 62
   123
100
AcDbTrace
 10
21797.69814410398
 20
-1140.578515920219
 30
0.0
 11
21797.69814410398
 21
-1141.911849253552
 31
0.0
 12
21793.69814410398
 22
-1141.245182586885
 32
0.0
 13
21793.69814410398
 23
-1141.245182586885
 33
0.0
  0
SOLID
  5
51A
330
514
100
AcDbEntity
  8
0
 62
   123
100
AcDbTrace
 10
21826.69814410397
 20
-1140.578515920219
 30
0.0
 11
21826.69814410397
 21
-1141.911849253552
 31
0.0
 12
21830.69814410397
 22
-1141.245182586885
 32
0.0
 13
21830.69814410397
 23
-1141.245182586885
 33
0.0
  0
MTEXT
  5
51B
330
514
100
AcDbEntity
  8
0
 62
     3
100
AcDbMText
 10
21812.19814410398
 20
-1137.245182586886
 30
0.0
 40
5.0
 41
0.0
 71
     5
 72
     1
  1
\A1;37
 73
     1
 44
1.0
1001
ACAD
1000
MTEXTBEGIN
1070
    73
1070
     1
1070
    44
1040
1.0
1070
    74
1070
     0
1000
MTEXTEND
  0
POINT
  5
51C
330
514
100
AcDbEntity
  8
Defpoints
 62
     0
100
AcDbPoint
 10
21793.69814410398
 20
-1220.624397583438
 30
0.0
  0
POINT
  5
51D
330
514
100
AcDbEntity
  8
Defpoints
 62
     0
100
AcDbPoint
 10
21830.69814410397
 20
-1180.624397583438
 30
0.0
  0
POINT
  5
51E
330
514
100
AcDbEntity
  8
Defpoints
 62
     0
100
AcDbPoint
 10
21830.69814410397
 20
-1141.245182586885
 30
0.0
  0
ENDBLK
  5
51F
330
514
100
AcDbEntity
  8
0
100
AcDbBlockEnd
  0
BLOCK
  5
525
330
524
100
AcDbEntity
  8
0
100
AcDbBlockBegin
  2
*D6
 70
     1
 10
0.0
 20
0.0
 30
0.0
  3
*D6
  1

  0
LINE
  5
526
330
524
100
AcDbEntity
  8
0
 62
   123
370
    -2
100
AcDbLine
 10
21792.69814410397
 20
-1231.624397583438
 30
0.0
 11
21769.76118234256
 21
-1231.624397583438
 31
0.0
  0
LINE
  5
527
330
524
100
AcDbEntity
  8
0
 62
   123
370
    -2
100
AcDbLine
 10
21822.69814410398
 20
-1219.624397583437
 30
0.0
 11
21769.76118234256
 21
-1219.624397583437
 31
0.0
  0
LINE
  5
528
330
524
100
AcDbEntity
  8
0
 62
   123
370
    -2
100
AcDbLine
 10
21770.36118234256
 20
-1227.624397583437
 30
0.0
 11
21770.36118234256
 21
-1223.624397583437
 31
0.0
  0
SOLID
  5
529
330
524
100
AcDbEntity
  8
0
 62
   123
100
AcDbTrace
 10
21769.69451567589
 20
-1227.624397583437
 30
0.0
 11
21771.02784900923
 21
-1227.624397583437
 31
0.0
 12
21770.36118234256
 22
-1231.624397583438
 32
0.0
 13
21770.36118234256
 23
-1231.624397583438
 33
0.0
  0
SOLID
  5
52A
330
524
100
AcDbEntity
  8
0
 62
   123
100
AcDbTrace
 10
21769.69451567589
 20
-1223.624397583437
 30
0.0
 11
21771.02784900923
 21
-1223.624397583437
 31
0.0
 12
21770.36118234256
 22
-1219.624397583437
 32
0.0
 13
21770.36118234256
 23
-1219.624397583437
 33
0.0
  0
MTEXT
  5
52B
330
524
100
AcDbEntity
  8
0
 62
     3
100
AcDbMText
 10
21763.94426567589
 20
-1225.624397583434
 30
0.0
 40
5.0
 41
0.0
 71
     5
 72
     1
  1
\A1;\A1;{\f??|b0|i0|c0|p49;%%C}12{\f??|b0|i0|c0|p49;\H0.7x;\S+0^ -0.018;\H1.429x;(h}7{\f??|b0|i0|c0|p49;)}
 11
0.0000000000000001
 21
1.0
 31
0.0
 73
     1
 44
1.0
1001
ACAD
1000
MTEXTBEGIN
1070
    73
1070
     1
1070
    44
1040
1.0
1070
    74
1070
     0
1000
MTEXTEND
  0
POINT
  5
52C
330
524
100
AcDbEntity
  8
Defpoints
 62
     0
100
AcDbPoint
 10
21793.69814410398
 20
-1231.624397583438
 30
0.0
  0
POINT
  5
52D
330
524
100
AcDbEntity
  8
Defpoints
 62
     0
100
AcDbPoint
 10
21823.69814410398
 20
-1219.624397583437
 30
0.0
  0
POINT
  5
52E
330
524
100
AcDbEntity
  8
Defpoints
 62
     0
100
AcDbPoint
 10
21770.36118234256
 20
-1219.624397583437
 30
0.0
  0
ENDBLK
  5
52F
330
524
100
AcDbEntity
  8
0
100
AcDbBlockEnd
  0
BLOCK
  5
534
330
533
100
AcDbEntity
  8
0
100
AcDbBlockBegin
  2
*D7
 70
     1
 10
0.0
 20
0.0
 30
0.0
  3
*D7
  1

  0
LINE
  5
535
330
533
100
AcDbEntity
  8
0
 62
   123
370
    -2
100
AcDbLine
 10
21793.69814410398
 20
-1219.624397583437
 30
0.0
 11
21793.69814410398
 21
-1198.192962243217
 31
0.0
  0
LINE
  5
536
330
533
100
AcDbEntity
  8
0
 62
   123
370
    -2
100
AcDbLine
 10
21823.69814410398
 20
-1218.624397583438
 30
0.0
 11
21823.69814410398
 21
-1198.192962243217
 31
0.0
  0
LINE
  5
537
330
533
100
AcDbEntity
  8
0
 62
   123
370
    -2
100
AcDbLine
 10
21797.69814410398
 20
-1198.792962243217
 30
0.0
 11
21819.69814410398
 21
-1198.792962243217
 31
0.0
  0
SOLID
  5
538
330
533
100
AcDbEntity
  8
0
 62
   123
100
AcDbTrace
 10
21797.69814410398
 20
-1198.126295576551
 30
0.0
 11
21797.69814410398
 21
-1199.459628909884
 31
0.0
 12
21793.69814410398
 22
-1198.792962243217
 32
0.0
 13
21793.69814410398
 23
-1198.792962243217
 33
0.0
  0
SOLID
  5
539
330
533
100
AcDbEntity
  8
0
 62
   123
100
AcDbTrace
 10
21819.69814410398
 20
-1198.126295576551
 30
0.0
 11
21819.69814410398
 21
-1199.459628909884
 31
0.0
 12
21823.69814410398
 22
-1198.792962243217
 32
0.0
 13
21823.69814410398
 23
-1198.792962243217
 33
0.0
  0
MTEXT
  5
53A
330
533
100
AcDbEntity
  8
0
 62
     3
100
AcDbMText
 10
21808.96540145115
 20
-1194.792962243217
 30
0.0
 40
5.0
 41
0.0
 71
     5
 72
     1
  1
\A1;30
 73
     1
 44
1.0
1001
ACAD
1000
MTEXTBEGIN
1070
    73
1070
     1
1070
    44
1040
1.0
1070
    74
1070
     0
1000
MTEXTEND
  0
POINT
  5
53B
330
533
100
AcDbEntity
  8
Defpoints
 62
     0
100
AcDbPoint
 10
21793.69814410398
 20
-1220.624397583438
 30
0.0
  0
POINT
  5
53C
330
533
100
AcDbEntity
  8
Defpoints
 62
     0
100
AcDbPoint
 10
21823.69814410398
 20
-1219.624397583437
 30
0.0
  0
POINT
  5
53D
330
533
100
AcDbEntity
  8
Defpoints
 62
     0
100
AcDbPoint
 10
21823.69814410398
 20
-1198.792962243217
 30
0.0
  0
ENDBLK
  5
53E
330
533
100
AcDbEntity
  8
0
100
AcDbBlockEnd
  0
BLOCK
  5
545
330
544
100
AcDbEntity
  8
0
100
AcDbBlockBegin
  2
*D8
 70
     1
 10
0.0
 20
0.0
 30
0.0
  3
*D8
  1

  0
LINE
  5
546
330
544
100
AcDbEntity
  8
0
 62
   123
370
    -2
100
AcDbLine
 10
21792.69814410397
 20
-1231.624397583438
 30
0.0
 11
21780.62966322327
 21
-1231.624397583438
 31
0.0
  0
LINE
  5
547
330
544
100
AcDbEntity
  8
0
 62
   123
370
    -2
100
AcDbLine
 10
21792.69814410397
 20
-1220.624397583438
 30
0.0
 11
21780.62966322327
 21
-1220.624397583438
 31
0.0
  0
LINE
  5
548
330
544
100
AcDbEntity
  8
0
 62
   123
370
    -2
100
AcDbLine
 10
21781.22966322327
 20
-1227.624397583437
 30
0.0
 11
21781.22966322327
 21
-1224.624397583437
 31
0.0
  0
SOLID
  5
549
330
544
100
AcDbEntity
  8
0
 62
   123
100
AcDbTrace
 10
21780.5629965566
 20
-1227.624397583437
 30
0.0
 11
21781.89632988993
 21
-1227.624397583437
 31
0.0
 12
21781.22966322327
 22
-1231.624397583438
 32
0.0
 13
21781.22966322327
 23
-1231.624397583438
 33
0.0
  0
SOLID
  5
54A
330
544
100
AcDbEntity
  8
0
 62
   123
100
AcDbTrace
 10
21780.5629965566
 20
-1224.624397583437
 30
0.0
 11
21781.89632988993
 21
-1224.624397583437
 31
0.0
 12
21781.22966322327
 22
-1220.624397583438
 32
0.0
 13
21781.22966322327
 23
-1220.624397583438
 33
0.0
  0
MTEXT
  5
54B
330
544
100
AcDbEntity
  8
0
 62
     3
100
AcDbMText
 10
21777.22966322327
 20
-1226.124397583437
 30
0.0
 40
5.0
 41
0.0
 71
     5
 72
     1
  1
\A1;11
 11
0.0000000000000001
 21
1.0
 31
0.0
 73
     1
 44
1.0
1001
ACAD
1000
MTEXTBEGIN
1070
    73
1070
     1
1070
    44
1040
1.0
1070
    74
1070
     0
1000
MTEXTEND
  0
POINT
  5
54C
330
544
100
AcDbEntity
  8
Defpoints
 62
     0
100
AcDbPoint
 10
21793.69814410398
 20
-1231.624397583438
 30
0.0
  0
POINT
  5
54D
330
544
100
AcDbEntity
  8
Defpoints
 62
     0
100
AcDbPoint
 10
21793.69814410398
 20
-1220.624397583438
 30
0.0
  0
POINT
  5
54E
330
544
100
AcDbEntity
  8
Defpoints
 62
     0
100
AcDbPoint
 10
21781.22966322327
 20
-1220.624397583438
 30
0.0
  0
ENDBLK
  5
54F
330
544
100
AcDbEntity
  8
0
100
AcDbBlockEnd
  0
BLOCK
  5
557
330
556
100
AcDbEntity
  8
0
100
AcDbBlockBegin
  2
*D9
 70
     1
 10
0.0
 20
0.0
 30
0.0
  3
*D9
  1

  0
LINE
  5
558
330
556
100
AcDbEntity
  8
0
 62
   123
370
    -2
100
AcDbLine
 10
21830.69814410397
 20
-1179.624397583437
 30
0.0
 11
21830.69814410397
 21
-1154.411418789363
 31
0.0
  0
LINE
  5
559
330
556
100
AcDbEntity
  8
0
 62
   123
370
    -2
100
AcDbLine
 10
21838.19814410397
 20
-1181.025660241908
 30
0.0
 11
21838.19814410397
 21
-1154.411418789363
 31
0.0
  0
LINE
  5
55A
330
556
100
AcDbEntity
  8
0
 62
   123
370
    -2
100
AcDbLine
 10
21826.69814410397
 20
-1155.011418789363
 30
0.0
 11
21822.69814410398
 21
-1155.011418789363
 31
0.0
  0
LINE
  5
55B
330
556
100
AcDbEntity
  8
0
 62
   123
370
    -2
100
AcDbLine
 10
21842.19814410397
 20
-1155.011418789363
 30
0.0
 11
21859.67433458017
 21
-1155.011418789363
 31
0.0
  0
LINE
  5
55C
330
556
100
AcDbEntity
  8
0
 62
   123
370
    -2
100
AcDbLine
 10
21830.69814410397
 20
-1155.011418789363
 30
0.0
 11
21838.19814410397
 21
-1155.011418789363
 31
0.0
  0
SOLID
  5
55D
330
556
100
AcDbEntity
  8
0
 62
   123
100
AcDbTrace
 10
21826.69814410397
 20
-1154.344752122696
 30
0.0
 11
21826.69814410397
 21
-1155.67808545603
 31
0.0
 12
21830.69814410397
 22
-1155.011418789363
 32
0.0
 13
21830.69814410397
 23
-1155.011418789363
 33
0.0
  0
SOLID
  5
55E
330
556
100
AcDbEntity
  8
0
 62
   123
100
AcDbTrace
 10
21842.19814410397
 20
-1154.344752122696
 30
0.0
 11
21842.19814410397
 21
-1155.67808545603
 31
0.0
 12
21838.19814410397
 22
-1155.011418789363
 32
0.0
 13
21838.19814410397
 23
-1155.011418789363
 33
0.0
  0
MTEXT
  5
55F
330
556
100
AcDbEntity
  8
0
 62
     3
100
AcDbMText
 10
21852.93623934207
 20
-1151.011418789363
 30
0.0
 40
5.0
 41
0.0
 71
     5
 72
     1
  1
\A1;7.5
 73
     1
 44
1.0
1001
ACAD
1000
MTEXTBEGIN
1070
    73
1070
     1
1070
    44
1040
1.0
1070
    74
1070
     0
1000
MTEXTEND
  0
POINT
  5
560
330
556
100
AcDbEntity
  8
Defpoints
 62
     0
100
AcDbPoint
 10
21830.69814410397
 20
-1180.624397583438
 30
0.0
  0
POINT
  5
561
330
556
100
AcDbEntity
  8
Defpoints
 62
     0
100
AcDbPoint
 10
21838.19814410397
 20
-1182.025660241907
 30
0.0
  0
POINT
  5
562
330
556
100
AcDbEntity
  8
Defpoints
 62
     0
100
AcDbPoint
 10
21838.19814410397
 20
-1155.011418789363
 30
0.0
  0
ENDBLK
  5
563
330
556
100
AcDbEntity
  8
0
100
AcDbBlockEnd
  0
BLOCK
  5
309
330
308
100
AcDbEntity
  8
0
100
AcDbBlockBegin
  2
*D10
 70
     1
 10
0.0
 20
0.0
 30
0.0
  3
*D10
  1

  0
LINE
  5
30A
330
308
100
AcDbEntity
  8
0
 62
   123
370
    -2
100
AcDbLine
 10
21827.69814410398
 20
-1184.124397583437
 30
0.0
 11
21754.44210207366
 21
-1184.124397583437
 31
0.0
  0
LINE
  5
30B
330
308
100
AcDbEntity
  8
0
 62
   123
370
    -2
100
AcDbLine
 10
21827.69814410398
 20
-1267.124397583438
 30
0.0
 11
21754.44210207366
 21
-1267.124397583438
 31
0.0
  0
LINE
  5
30C
330
308
100
AcDbEntity
  8
0
 62
   123
370
    -2
100
AcDbLine
 10
21755.04210207366
 20
-1188.124397583438
 30
0.0
 11
21755.04210207366
 21
-1263.124397583438
 31
0.0
  0
SOLID
  5
30D
330
308
100
AcDbEntity
  8
0
 62
   123
100
AcDbTrace
 10
21754.37543540699
 20
-1188.124397583438
 30
0.0
 11
21755.70876874032
 21
-1188.124397583438
 31
0.0
 12
21755.04210207366
 22
-1184.124397583437
 32
0.0
 13
21755.04210207366
 23
-1184.124397583437
 33
0.0
  0
SOLID
  5
30E
330
308
100
AcDbEntity
  8
0
 62
   123
100
AcDbTrace
 10
21754.37543540699
 20
-1263.124397583438
 30
0.0
 11
21755.70876874032
 21
-1263.124397583438
 31
0.0
 12
21755.04210207366
 22
-1267.124397583438
 32
0.0
 13
21755.04210207366
 23
-1267.124397583438
 33
0.0
  0
MTEXT
  5
30F
330
308
100
AcDbEntity
  8
0
 62
     3
100
AcDbMText
 10
21748.62518540699
 20
-1224.259440950686
 30
0.0
 40
5.0
 41
0.0
 71
     5
 72
     1
  1
\A1;\A1;{\f??|b0|i0|c0|p49;%%C}83{\f??|b0|i0|c0|p49;\H0.7x;\S+0^ -0.035;\H1.429x;(h}7{\f??|b0|i0|c0|p49;)}
 11
0.0000000000000001
 21
1.0
 31
0.0
 73
     1
 44
1.0
1001
ACAD
1000
MTEXTBEGIN
1070
    73
1070
     1
1070
    44
1040
1.0
1070
    74
1070
     0
1000
MTEXTEND
  0
POINT
  5
310
330
308
100
AcDbEntity
  8
Defpoints
 62
     0
100
AcDbPoint
 10
21828.69814410397
 20
-1184.124397583437
 30
0.0
  0
POINT
  5
311
330
308
100
AcDbEntity
  8
Defpoints
 62
     0
100
AcDbPoint
 10
21828.69814410397
 20
-1267.124397583438
 30
0.0
  0
POINT
  5
312
330
308
100
AcDbEntity
  8
Defpoints
 62
     0
100
AcDbPoint
 10
21755.04210207366
 20
-1267.124397583438
 30
0.0
  0
ENDBLK
  5
313
330
308
100
AcDbEntity
  8
0
100
AcDbBlockEnd
  0
BLOCK
  5
A7
330
A6
100
AcDbEntity
  8
0
100
AcDbBlockBegin
  2
*D11
 70
     1
 10
0.0
 20
0.0
 30
0.0
  3
*D11
  1

  0
LINE
  5
A8
330
A6
100
AcDbEntity
  8
0
 62
   123
100
AcDbLine
 10
21764.83651584897
 20
-1159.021612255477
 30
0.0
 11
21724.70809082121
 21
-1190.834853907092
 31
0.0
  0
LINE
  5
A9
330
A6
100
AcDbEntity
  8
0
 62
   123
100
AcDbLine
 10
21636.9427753306
 20
-1260.413941259789
 30
0.0
 11
21633.80829977736
 21
-1262.898908665244
 31
0.0
  0
MTEXT
  5
AA
102
{ACAD_XDICTIONARY
360
5B8
102
}
330
A6
100
AcDbEntity
  8
0
 62
     3
100
AcDbMText
 10
21747.27621363986
 20
-1167.838646604659
 30
0.0
 40
5.0
 41
0.0
 71
     5
 72
     1
  1
\A1;\U+2205104%%P0.5
 11
0.7836188883090028
 21
0.62124185136335
 31
0.0
 73
     1
 44
1.0
1001
ACAD
1000
MTEXTBEGIN
1070
    73
1070
     1
1070
    44
1040
1.0
1070
    74
1070
     0
1000
MTEXTEND
  0
LINE
  5
AB
330
A6
100
AcDbEntity
  8
0
 62
   123
100
AcDbLine
 10
21640.07725088383
 20
-1257.928973854335
 30
0.0
 11
21721.57361526798
 21
-1193.319821312545
 31
0.0
  0
SOLID
  5
AC
330
A6
100
AcDbEntity
  8
0
 62
   123
100
AcDbTrace
 10
21636.52861409636
 20
-1259.891528667582
 30
0.0
 11
21637.35693656485
 21
-1260.936353851994
 31
0.0
 12
21640.07725088383
 22
-1257.928973854335
 32
0.0
 13
21640.07725088383
 23
-1257.928973854335
 33
0.0
  0
SOLID
  5
AD
330
A6
100
AcDbEntity
  8
0
 62
   123
100
AcDbTrace
 10
21724.29392958697
 20
-1190.312441314885
 30
0.0
 11
21725.12225205545
 21
-1191.357266499297
 31
0.0
 12
21721.57361526798
 22
-1193.319821312545
 32
0.0
 13
21721.57361526798
 23
-1193.319821312545
 33
0.0
  0
POINT
  5
AE
330
A6
100
AcDbEntity
  8
Defpoints
 62
     0
100
AcDbPoint
 10
21721.57361526798
 20
-1193.319821312545
 30
0.0
  0
POINT
  5
AF
330
A6
100
AcDbEntity
  8
Defpoints
 62
     0
100
AcDbPoint
 10
21640.07725088383
 20
-1257.928973854335
 30
0.0
  0
ENDBLK
  5
B0
330
A6
100
AcDbEntity
  8
0
100
AcDbBlockEnd
  0
ENDSEC
  0
SECTION
  2
ENTITIES
  0
LEADER
  5
64
330
2
100
AcDbEntity
  8
0
100
AcDbLeader
  3
STANDARD
 76
     2
 10
21717.61962627234
 20
-1185.70522313063
 30
0.0
 10
21707.8296433294
 20
-1159.571794987228
 30
0.0
1001
ACAD
1000
DSTYLE
1002
{
1070
     5
1000

1002
}
  0
ARC
  5
65
330
2
100
AcDbEntity
  8
0
 48
0.6
100
AcDbCircle
 10
21695.73724704983
 20
-1195.387247667365
 30
0.0
 40
3.067967999999999
100
AcDbArc
 50
63.63432749696379
 51
128.0513255192987
  0
ARC
  5
66
330
2
100
AcDbEntity
  8
0
 48
0.6
100
AcDbCircle
 10
21695.73724704983
 20
-1255.861547499503
 30
0.0
 40
3.067967999999999
100
AcDbArc
 50
231.9486744807012
 51
296.3656725030362
  0
MTEXT
  5
67
102
{ACAD_REACTORS
330
64
102
}
330
2
100
AcDbEntity
  8
0
 62
     3
100
AcDbMText
 10
21706.8296433294
 20
-1158.013005332112
 30
0.0
 40
5.0
 41
0.0
 71
     9
 72
     1
  1
4-%%C6.5 hole
 73
     1
 44
1.0
1001
ACAD
1000
MTEXTBEGIN
1070
    73
1070
     1
1070
    44
1040
1.0
1070
    74
1070
     0
1000
MTEXTEND
  0
DIMENSION
  5
68
330
2
100
AcDbEntity
  8
0
100
AcDbDimension
  2
*D3
 10
21725.82543307591
 20
-1144.391510790288
 30
0.0
 11
21680.82543307591
 21
-1144.391510790288
 31
0.0
 70
   128
 71
     5
 42
-1.0
  3
STANDARD
100
AcDbAlignedDimension
 13
21635.82543307591
 23
-1185.667191342233
 33
0.0
 14
21725.82543307591
 24
-1185.667191342233
 34
0.0
100
AcDbRotatedDimension
  0
LINE
  5
76
330
2
100
AcDbEntity
  8
0
  6
CENTER
 62
     1
 48
0.6
100
AcDbLine
 10
21631.57215686151
 20
-1225.624397583438
 30
0.0
 11
21730.0787092903
 21
-1225.624397583438
 31
0.0
  0
CIRCLE
  5
78
330
2
100
AcDbEntity
  8
0
 48
0.6
100
AcDbCircle
 10
21680.82543307591
 20
-1225.624397583438
 30
0.0
 40
43.5
  0
CIRCLE
  5
79
330
2
100
AcDbEntity
  8
0
 48
0.6
100
AcDbCircle
 10
21680.82543307591
 20
-1225.624397583438
 30
0.0
 40
42.00000000000005
  0
CIRCLE
  5
7A
330
2
100
AcDbEntity
  8
0
 48
0.6
100
AcDbCircle
 10
21680.82543307591
 20
-1225.624397583438
 30
0.0
 40
20.0
  0
LINE
  5
7B
330
2
100
AcDbEntity
  8
0
  6
CENTER
 62
     1
 48
0.6
100
AcDbLine
 10
21680.82543307591
 20
-1277.393831629423
 30
0.0
 11
21680.82543307591
 21
-1173.854963537452
 31
0.0
  0
ARC
  5
7C
330
2
100
AcDbEntity
  8
0
 48
0.6
100
AcDbCircle
 10
21650.51281884566
 20
-1240.611675871537
 30
0.0
 40
3.067967999999999
100
AcDbArc
 50
141.9486744805927
 51
206.3656725032692
  0
ARC
  5
7D
330
2
100
AcDbEntity
  8
0
 48
0.6
100
AcDbCircle
 10
21665.76269047363
 20
-1255.861547499503
 30
0.0
 40
3.067967999999999
100
AcDbArc
 50
243.6343274969638
 51
308.0513255192987
  0
ARC
  5
7E
330
2
100
AcDbEntity
  8
0
 48
0.6
100
AcDbCircle
 10
21680.74996876173
 20
-1225.624397583438
 30
0.0
 40
36.81561599999999
100
AcDbArc
 50
206.3656725032692
 51
243.6343274969638
  0
ARC
  5
7F
330
2
100
AcDbEntity
  8
0
 48
0.6
100
AcDbCircle
 10
21680.74996876173
 20
-1225.624397583438
 30
0.0
 40
33.74764799999999
100
AcDbArc
 50
252.2801918470848
 51
287.7198081529152
  0
ARC
  5
80
330
2
100
AcDbEntity
  8
0
 48
0.6
100
AcDbCircle
 10
21669.54467972166
 20
-1260.693345086723
 30
0.0
 40
3.067967999999999
100
AcDbArc
 50
72.28019184708481
 51
128.0513255192987
  0
ARC
  5
81
330
2
100
AcDbEntity
  8
0
 48
0.6
100
AcDbCircle
 10
21691.95525780179
 20
-1260.693345086723
 30
0.0
 40
3.067967999999999
100
AcDbArc
 50
51.9486744807013
 51
107.7198081529152
  0
ARC
  5
82
330
2
100
AcDbEntity
  8
0
 48
0.6
100
AcDbCircle
 10
21665.76269047363
 20
-1195.387247667365
 30
0.0
 40
3.067967999999999
100
AcDbArc
 50
51.9486744807013
 51
116.3656725030362
  0
ARC
  5
83
330
2
100
AcDbEntity
  8
0
 48
0.6
100
AcDbCircle
 10
21650.51281884566
 20
-1210.637119295338
 30
0.0
 40
3.067967999999999
100
AcDbArc
 50
153.6343274967308
 51
218.0513255194072
  0
ARC
  5
84
330
2
100
AcDbEntity
  8
0
 48
0.6
100
AcDbCircle
 10
21680.74996876173
 20
-1225.624397583438
 30
0.0
 40
33.74764799999999
100
AcDbArc
 50
162.280191847523
 51
197.719808152477
  0
ARC
  5
85
330
2
100
AcDbEntity
  8
0
 48
0.6
100
AcDbCircle
 10
21645.68102125845
 20
-1236.829686623504
 30
0.0
 40
3.067967999999999
100
AcDbArc
 50
321.9486744805927
 51
17.71980815247704
  0
ARC
  5
86
330
2
100
AcDbEntity
  8
0
 48
0.6
100
AcDbCircle
 10
21645.68102125845
 20
-1214.419108543371
 30
0.0
 40
3.067967999999999
100
AcDbArc
 50
342.2801918475229
 51
38.05132551940732
  0
ARC
  5
87
330
2
100
AcDbEntity
  8
0
 48
0.6
100
AcDbCircle
 10
21680.74996876173
 20
-1225.624397583438
 30
0.0
 40
36.81561599999999
100
AcDbArc
 50
116.3656725030362
 51
153.6343274967308
  0
CIRCLE
  5
88
330
2
100
AcDbEntity
  8
0
 48
0.6
100
AcDbCircle
 10
21680.82543307591
 20
-1225.624397583438
 30
0.0
 40
6.0
  0
LINE
  5
89
330
2
100
AcDbEntity
  8
0
 48
0.6
100
AcDbLine
 10
21677.50880828555
 20
-1220.624397583438
 30
0.0
 11
21684.14205786627
 21
-1220.624397583438
 31
0.0
  0
ARC
  5
8A
330
2
100
AcDbEntity
  8
0
 48
0.6
100
AcDbCircle
 10
21680.74996876173
 20
-1225.624397583438
 30
0.0
 40
33.74764799999999
100
AcDbArc
 50
72.28019184708481
 51
107.7198081529152
  0
ARC
  5
8B
330
2
100
AcDbEntity
  8
0
 48
0.6
100
AcDbCircle
 10
21669.54467972166
 20
-1190.555450080152
 30
0.0
 40
3.067967999999999
100
AcDbArc
 50
231.9486744807012
 51
287.7198081529152
  0
ARC
  5
8C
330
2
100
AcDbEntity
  8
0
 48
0.6
100
AcDbCircle
 10
21691.95525780179
 20
-1190.555450080152
 30
0.0
 40
3.067967999999999
100
AcDbArc
 50
252.2801918470848
 51
308.0513255192987
  0
LINE
  5
8D
330
2
100
AcDbEntity
  8
0
 62
     3
100
AcDbLine
 10
21670.37029088295
 20
-1142.532184628872
 30
0.0
 11
21674.00029088295
 21
-1142.532184628872
 31
0.0
  0
LINE
  5
8E
330
2
100
AcDbEntity
  8
0
 62
     3
100
AcDbLine
 10
21674.00029088295
 20
-1142.532184628872
 30
0.0
 11
21674.00029088295
 21
-1138.682184628872
 31
0.0
  0
LINE
  5
8F
330
2
100
AcDbEntity
  8
0
 62
     3
100
AcDbLine
 10
21674.00029088295
 20
-1138.682184628872
 30
0.0
 11
21670.37029088295
 21
-1138.682184628872
 31
0.0
  0
LINE
  5
90
330
2
100
AcDbEntity
  8
0
 62
     3
100
AcDbLine
 10
21670.37029088295
 20
-1138.682184628872
 30
0.0
 11
21670.37029088295
 21
-1142.532184628872
 31
0.0
  0
ARC
  5
91
330
2
100
AcDbEntity
  8
0
 48
0.6
100
AcDbCircle
 10
21710.9871186778
 20
-1240.611675871537
 30
0.0
 40
3.067967999999999
100
AcDbArc
 50
333.6343274967307
 51
38.05132551940732
  0
ARC
  5
92
330
2
100
AcDbEntity
  8
0
 48
0.6
100
AcDbCircle
 10
21680.74996876173
 20
-1225.624397583438
 30
0.0
 40
36.81561599999999
100
AcDbArc
 50
296.3656725030362
 51
333.6343274967307
  0
ARC
  5
93
330
2
100
AcDbEntity
  8
0
 48
0.6
100
AcDbCircle
 10
21710.9871186778
 20
-1210.637119295338
 30
0.0
 40
3.067967999999999
100
AcDbArc
 50
321.9486744805927
 51
26.36567250326921
  0
ARC
  5
94
330
2
100
AcDbEntity
  8
0
 48
0.6
100
AcDbCircle
 10
21680.74996876173
 20
-1225.624397583438
 30
0.0
 40
33.74764799999999
100
AcDbArc
 50
342.2801918475229
 51
17.71980815247704
  0
ARC
  5
95
330
2
100
AcDbEntity
  8
0
 48
0.6
100
AcDbCircle
 10
21715.81891626502
 20
-1236.829686623504
 30
0.0
 40
3.067967999999999
100
AcDbArc
 50
162.280191847523
 51
218.0513255194072
  0
ARC
  5
96
330
2
100
AcDbEntity
  8
0
 48
0.6
100
AcDbCircle
 10
21715.81891626502
 20
-1214.419108543371
 30
0.0
 40
3.067967999999999
100
AcDbArc
 50
141.9486744805927
 51
197.719808152477
  0
ARC
  5
97
330
2
100
AcDbEntity
  8
0
 48
0.6
100
AcDbCircle
 10
21680.74996876173
 20
-1225.624397583438
 30
0.0
 40
36.81561599999999
100
AcDbArc
 50
26.36567250326921
 51
63.63432749696379
  0
LINE
  5
98
330
2
100
AcDbEntity
  8
0
100
AcDbLine
 10
21640.82543307591
 20
-1270.624397583438
 30
0.0
 11
21720.82543307591
 21
-1270.624397583438
 31
0.0
  0
ARC
  5
99
330
2
100
AcDbEntity
  8
0
100
AcDbCircle
 10
21720.82543307591
 20
-1265.624397583438
 30
0.0
 40
5.0
100
AcDbArc
 50
270.0
 51
0.0
  0
LINE
  5
9A
330
2
100
AcDbEntity
  8
0
100
AcDbLine
 10
21725.82543307591
 20
-1265.624397583438
 30
0.0
 11
21725.82543307591
 21
-1185.624397583437
 31
0.0
  0
ARC
  5
9B
330
2
100
AcDbEntity
  8
0
100
AcDbCircle
 10
21720.82543307591
 20
-1185.624397583437
 30
0.0
 40
5.0
100
AcDbArc
 50
0.0
 51
90.0
  0
LINE
  5
9C
330
2
100
AcDbEntity
  8
0
100
AcDbLine
 10
21720.82543307591
 20
-1180.624397583438
 30
0.0
 11
21640.82543307591
 21
-1180.624397583438
 31
0.0
  0
ARC
  5
9D
330
2
100
AcDbEntity
  8
0
100
AcDbCircle
 10
21640.82543307591
 20
-1185.624397583437
 30
0.0
 40
5.0
100
AcDbArc
 50
90.0
 51
180.0
  0
LINE
  5
9E
330
2
100
AcDbEntity
  8
0
100
AcDbLine
 10
21635.82543307591
 20
-1185.624397583437
 30
0.0
 11
21635.82543307591
 21
-1265.624397583438
 31
0.0
  0
ARC
  5
9F
330
2
100
AcDbEntity
  8
0
100
AcDbCircle
 10
21640.82543307591
 20
-1265.624397583438
 30
0.0
 40
5.0
100
AcDbArc
 50
180.0
 51
270.0
  0
CIRCLE
  5
A0
330
2
100
AcDbEntity
  8
0
100
AcDbCircle
 10
21717.59498569761
 20
-1188.854844961738
 30
0.0
 40
3.25
  0
LINE
  5
A1
330
2
100
AcDbEntity
  8
0
  6
CENTER
 62
     1
 48
0.6
100
AcDbLine
 10
21713.88267509638
 20
-1192.567155562968
 30
0.0
 11
21721.30729629884
 21
-1185.142534360509
 31
0.0
  0
ARC
  5
A2
102
{ACAD_REACTORS
330
A5
102
}
330
2
100
AcDbEntity
  8
0
  6
CENTER
 62
     1
 48
0.6
100
AcDbCircle
 10
21680.82543307591
 20
-1225.624397583438
 30
0.0
 40
51.9999999999996
100
AcDbArc
 50
35.90024337545624
 51
54.09975662481031
  0
DIMENSION
  5
A3
102
{ACAD_XDICTIONARY
360
A4
102
}
102
{ACAD_REACTORS
330
A5
102
}
330
2
100
AcDbEntity
  8
0
100
AcDbDimension
  2
*D11
 10
21640.07725088383
 20
-1257.928973854335
 30
0.0
 11
21749.76118104531
 21
-1170.973122157897
 31
0.0
 70
   131
  1
<>%%P0.5
 71
     5
 42
-1.0
  3
STANDARD
100
AcDbDiametricDimension
 15
21721.57361526798
 25
-1193.319821312545
 35
0.0
 40
0.0
1001
ACAD
1000
DSTYLE
1002
{
1070
   287
1070
     4
1070
   287
1070
     4
1070
   287
1070
     4
1070
   287
1070
     4
1070
   287
1070
     4
1070
   287
1070
     4
1070
   279
1070
     1
1070
   289
1070
     3
1002
}
  0
ARC
  5
B1
330
2
100
AcDbEntity
  8
0
  6
CENTER
 62
     1
 48
0.6
100
AcDbCircle
 10
21680.82543307591
 20
-1225.624397583438
 30
0.0
 40
52.0
100
AcDbArc
 50
129.2128702779166
 51
140.7871297218659
  0
LINE
  5
B2
330
2
100
AcDbEntity
  8
0
  6
CENTER
 62
     1
 48
0.6
100
AcDbLine
 10
21647.76819105544
 20
-1192.567155562968
 30
0.0
 11
21640.34356985298
 21
-1185.142534360509
 31
0.0
  0
CIRCLE
  5
B3
330
2
100
AcDbEntity
  8
0
100
AcDbCircle
 10
21644.05588045421
 20
-1188.854844961738
 30
0.0
 40
3.25
  0
LINE
  5
B4
330
2
100
AcDbEntity
  8
0
  6
CENTER
 62
     1
 48
0.6
100
AcDbLine
 10
21647.76819105544
 20
-1258.681639603907
 30
0.0
 11
21640.34356985298
 21
-1266.106260806366
 31
0.0
  0
CIRCLE
  5
B5
330
2
100
AcDbEntity
  8
0
100
AcDbCircle
 10
21644.05588045421
 20
-1262.393950205137
 30
0.0
 40
3.25
  0
ARC
  5
B6
330
2
100
AcDbEntity
  8
0
  6
CENTER
 62
     1
 48
0.6
100
AcDbCircle
 10
21680.82543307591
 20
-1225.624397583438
 30
0.0
 40
51.9999999999996
100
AcDbArc
 50
215.9002433754562
 51
234.0997566248103
  0
ARC
  5
B7
330
2
100
AcDbEntity
  8
0
  6
CENTER
 62
     1
 48
0.6
100
AcDbCircle
 10
21680.82543307591
 20
-1225.624397583438
 30
0.0
 40
52.0
100
AcDbArc
 50
309.2128702779165
 51
320.787129721866
  0
LINE
  5
B8
330
2
100
AcDbEntity
  8
0
  6
CENTER
 62
     1
 48
0.6
100
AcDbLine
 10
21713.88267509638
 20
-1258.681639603907
 30
0.0
 11
21721.30729629884
 21
-1266.106260806366
 31
0.0
  0
CIRCLE
  5
B9
330
2
100
AcDbEntity
  8
0
100
AcDbCircle
 10
21717.59498569761
 20
-1262.393950205137
 30
0.0
 40
3.25
  0
LINE
  5
BA
330
2
100
AcDbEntity
  8
0
  6
CENTER
 62
     1
 48
0.6
100
AcDbLine
 10
21699.4650433827
 20
-1270.624397583423
 30
0.0
 11
21680.8254330759
 21
-1225.62439758343
 31
0.0
  0
DIMENSION
  5
BB
330
2
100
AcDbEntity
  8
0
 48
0.6
100
AcDbDimension
  2
*D4
 10
21680.81921540501
 20
-1172.015649699075
 30
0.0
 11
21694.08393141864
 21
-1292.311480776407
 31
0.0
 70
     2
  1
<>
 71
     5
 42
-1.0
  3
STANDARD
100
AcDb2LineAngularDimension
 13
21680.81921540501
 23
-1225.645794462828
 33
0.0
 14
21699.4650433827
 24
-1270.645794462821
 34
0.0
 15
21680.81921540501
 25
-1279.275939226581
 35
0.0
 16
21690.27849613489
 26
-1297.474345884014
 36
0.0
1001
ACAD
1000
DSTYLE
1002
{
1070
   271
1070
     1
1070
   271
1070
     1
1070
   271
1070
     1
1070
   271
1070
     1
1070
   271
1070
     1
1070
   271
1070
     1
1070
   271
1070
     1
1002
}
  0
LINE
  5
CA
330
2
100
AcDbEntity
  8
0
 62
   123
100
AcDbLine
 10
21707.8296433294
 20
-1159.571794987228
 30
0.0
 11
21662.32767934253
 21
-1159.571794987228
 31
0.0
  0
ARC
  5
CB
330
2
100
AcDbEntity
  8
0
 48
0.6
100
AcDbCircle
 10
21799.21016295741
 20
-1216.498123109048
 30
0.0
 40
116.9686661741608
100
AcDbArc
 50
210.1560153535602
 51
216.2412691602647
  0
LINE
  5
CC
330
2
100
AcDbEntity
  8
0
100
AcDbLine
 10
21698.07195371284
 20
-1275.258071180522
 30
0.0
 11
21704.56408505838
 21
-1272.367471203792
 31
0.0
  0
ARC
  5
CD
330
2
100
AcDbEntity
  8
0
 48
0.6
100
AcDbCircle
 10
21732.98163792336
 20
-1256.313844934901
 30
0.0
 40
39.155792
100
AcDbArc
 50
201.4369589999597
 51
208.5517089162833
  0
ARC
  5
CE
330
2
100
AcDbEntity
  8
0
 48
0.6
100
AcDbCircle
 10
21665.64934737315
 20
-1284.213096200279
 30
0.0
 40
39.155792
100
AcDbArc
 50
16.6539105076228
 51
20.30648800595472
  0
ARC
  5
CF
330
2
100
AcDbEntity
  8
0
 48
0.6
100
AcDbCircle
 10
21787.15170774135
 20
-1223.724490779046
 30
0.0
 40
95.84808274048764
100
AcDbArc
 50
210.4975034246346
 51
218.0575295674928
  0
LINE
  5
D0
330
2
100
AcDbEntity
  8
0
100
AcDbLine
 10
21704.87087489959
 20
-1285.648449177011
 30
0.0
 11
21704.87389031471
 21
-1285.63387576223
 31
0.0
  0
LINE
  5
D1
330
2
100
AcDbEntity
  8
0
100
AcDbLine
 10
21704.87389031471
 20
-1285.63387576223
 30
0.0
 11
21704.87743876603
 21
-1285.61721607356
 31
0.0
  0
LINE
  5
D2
330
2
100
AcDbEntity
  8
0
100
AcDbLine
 10
21704.87743876603
 20
-1285.61721607356
 30
0.0
 11
21704.88106618421
 21
-1285.600663028092
 31
0.0
  0
LINE
  5
D3
330
2
100
AcDbEntity
  8
0
100
AcDbLine
 10
21704.88106618421
 20
-1285.600663028092
 30
0.0
 11
21704.8847723145
 21
-1285.584216269961
 31
0.0
  0
LINE
  5
D4
330
2
100
AcDbEntity
  8
0
100
AcDbLine
 10
21704.8847723145
 20
-1285.584216269961
 30
0.0
 11
21704.88855690211
 21
-1285.567875443283
 31
0.0
  0
LINE
  5
D5
330
2
100
AcDbEntity
  8
0
100
AcDbLine
 10
21704.88855690211
 20
-1285.567875443283
 30
0.0
 11
21704.89241969231
 21
-1285.551640192194
 31
0.0
  0
LINE
  5
D6
330
2
100
AcDbEntity
  8
0
100
AcDbLine
 10
21704.89241969231
 20
-1285.551640192194
 30
0.0
 11
21704.89636043033
 21
-1285.53551016082
 31
0.0
  0
LINE
  5
D7
330
2
100
AcDbEntity
  8
0
100
AcDbLine
 10
21704.89636043033
 20
-1285.53551016082
 30
0.0
 11
21704.90037886143
 21
-1285.519484993283
 31
0.0
  0
LINE
  5
D8
330
2
100
AcDbEntity
  8
0
100
AcDbLine
 10
21704.90037886143
 20
-1285.519484993283
 30
0.0
 11
21704.90447473082
 21
-1285.503564333712
 31
0.0
  0
LINE
  5
D9
330
2
100
AcDbEntity
  8
0
100
AcDbLine
 10
21704.90447473082
 20
-1285.503564333712
 30
0.0
 11
21704.90864778377
 21
-1285.48774782624
 31
0.0
  0
LINE
  5
DA
330
2
100
AcDbEntity
  8
0
100
AcDbLine
 10
21704.90864778377
 20
-1285.48774782624
 30
0.0
 11
21704.91289776552
 21
-1285.47203511499
 31
0.0
  0
LINE
  5
DB
330
2
100
AcDbEntity
  8
0
100
AcDbLine
 10
21704.91289776552
 20
-1285.47203511499
 30
0.0
 11
21704.9172244213
 21
-1285.456425844082
 31
0.0
  0
LINE
  5
DC
330
2
100
AcDbEntity
  8
0
100
AcDbLine
 10
21704.9172244213
 20
-1285.456425844082
 30
0.0
 11
21704.92162749636
 21
-1285.440919657654
 31
0.0
  0
LINE
  5
DD
330
2
100
AcDbEntity
  8
0
100
AcDbLine
 10
21704.92162749636
 20
-1285.440919657654
 30
0.0
 11
21704.92610673595
 21
-1285.425516199832
 31
0.0
  0
LINE
  5
DE
330
2
100
AcDbEntity
  8
0
100
AcDbLine
 10
21704.92610673595
 20
-1285.425516199832
 30
0.0
 11
21704.93066188529
 21
-1285.410215114736
 31
0.0
  0
LINE
  5
DF
330
2
100
AcDbEntity
  8
0
100
AcDbLine
 10
21704.93066188529
 20
-1285.410215114736
 30
0.0
 11
21704.93529268964
 21
-1285.395016046497
 31
0.0
  0
LINE
  5
E0
330
2
100
AcDbEntity
  8
0
100
AcDbLine
 10
21704.93529268964
 20
-1285.395016046497
 30
0.0
 11
21704.93999889425
 21
-1285.379918639248
 31
0.0
  0
LINE
  5
E1
330
2
100
AcDbEntity
  8
0
100
AcDbLine
 10
21704.93999889425
 20
-1285.379918639248
 30
0.0
 11
21704.94478024434
 21
-1285.364922537106
 31
0.0
  0
LINE
  5
E2
330
2
100
AcDbEntity
  8
0
100
AcDbLine
 10
21704.94478024434
 20
-1285.364922537106
 30
0.0
 11
21704.94963648517
 21
-1285.350027384202
 31
0.0
  0
LINE
  5
E3
330
2
100
AcDbEntity
  8
0
100
AcDbLine
 10
21704.94963648517
 20
-1285.350027384202
 30
0.0
 11
21704.95456736198
 21
-1285.335232824671
 31
0.0
  0
LINE
  5
E4
330
2
100
AcDbEntity
  8
0
100
AcDbLine
 10
21704.95456736198
 20
-1285.335232824671
 30
0.0
 11
21704.95957262
 21
-1285.320538502625
 31
0.0
  0
LINE
  5
E5
330
2
100
AcDbEntity
  8
0
100
AcDbLine
 10
21704.95957262
 20
-1285.320538502625
 30
0.0
 11
21704.96465200449
 21
-1285.305944062203
 31
0.0
  0
LINE
  5
E6
330
2
100
AcDbEntity
  8
0
100
AcDbLine
 10
21704.96465200449
 20
-1285.305944062203
 30
0.0
 11
21704.96980526068
 21
-1285.291449147526
 31
0.0
  0
LINE
  5
E7
330
2
100
AcDbEntity
  8
0
100
AcDbLine
 10
21704.96980526068
 20
-1285.291449147526
 30
0.0
 11
21704.97503213381
 21
-1285.277053402724
 31
0.0
  0
LINE
  5
E8
330
2
100
AcDbEntity
  8
0
100
AcDbLine
 10
21704.97503213381
 20
-1285.277053402724
 30
0.0
 11
21704.98033236914
 21
-1285.262756471928
 31
0.0
  0
LINE
  5
E9
330
2
100
AcDbEntity
  8
0
100
AcDbLine
 10
21704.98033236914
 20
-1285.262756471928
 30
0.0
 11
21704.9857057119
 21
-1285.248557999259
 31
0.0
  0
LINE
  5
EA
330
2
100
AcDbEntity
  8
0
100
AcDbLine
 10
21704.9857057119
 20
-1285.248557999259
 30
0.0
 11
21704.99115190733
 21
-1285.234457628843
 31
0.0
  0
LINE
  5
EB
330
2
100
AcDbEntity
  8
0
100
AcDbLine
 10
21704.99115190733
 20
-1285.234457628843
 30
0.0
 11
21704.99667070068
 21
-1285.220455004814
 31
0.0
  0
LINE
  5
EC
330
2
100
AcDbEntity
  8
0
100
AcDbLine
 10
21704.99667070068
 20
-1285.220455004814
 30
0.0
 11
21705.00226183719
 21
-1285.206549771292
 31
0.0
  0
LINE
  5
ED
330
2
100
AcDbEntity
  8
0
100
AcDbLine
 10
21705.00226183719
 20
-1285.206549771292
 30
0.0
 11
21705.0079250621
 21
-1285.192741572408
 31
0.0
  0
LINE
  5
EE
330
2
100
AcDbEntity
  8
0
100
AcDbLine
 10
21705.0079250621
 20
-1285.192741572408
 30
0.0
 11
21705.01366012065
 21
-1285.179030052286
 31
0.0
  0
LINE
  5
EF
330
2
100
AcDbEntity
  8
0
100
AcDbLine
 10
21705.01366012065
 20
-1285.179030052286
 30
0.0
 11
21705.01946675809
 21
-1285.16541485506
 31
0.0
  0
LINE
  5
F0
330
2
100
AcDbEntity
  8
0
100
AcDbLine
 10
21705.01946675809
 20
-1285.16541485506
 30
0.0
 11
21705.02534471967
 21
-1285.151895624853
 31
0.0
  0
LINE
  5
F1
330
2
100
AcDbEntity
  8
0
100
AcDbLine
 10
21705.02534471967
 20
-1285.151895624853
 30
0.0
 11
21705.0312937506
 21
-1285.138472005792
 31
0.0
  0
LINE
  5
F2
330
2
100
AcDbEntity
  8
0
100
AcDbLine
 10
21705.0312937506
 20
-1285.138472005792
 30
0.0
 11
21705.03731359616
 21
-1285.125143642001
 31
0.0
  0
LINE
  5
F3
330
2
100
AcDbEntity
  8
0
100
AcDbLine
 10
21705.03731359616
 20
-1285.125143642001
 30
0.0
 11
21705.04340400158
 21
-1285.111910177615
 31
0.0
  0
LINE
  5
F4
330
2
100
AcDbEntity
  8
0
100
AcDbLine
 10
21705.04340400158
 20
-1285.111910177615
 30
0.0
 11
21705.04956471209
 21
-1285.098771256753
 31
0.0
  0
LINE
  5
F5
330
2
100
AcDbEntity
  8
0
100
AcDbLine
 10
21705.04956471209
 20
-1285.098771256753
 30
0.0
 11
21705.05579547294
 21
-1285.085726523544
 31
0.0
  0
LINE
  5
F6
330
2
100
AcDbEntity
  8
0
100
AcDbLine
 10
21705.05579547294
 20
-1285.085726523544
 30
0.0
 11
21705.06209602938
 21
-1285.072775622118
 31
0.0
  0
LINE
  5
F7
330
2
100
AcDbEntity
  8
0
100
AcDbLine
 10
21705.06209602938
 20
-1285.072775622118
 30
0.0
 11
21705.06846612665
 21
-1285.059918196604
 31
0.0
  0
LINE
  5
F8
330
2
100
AcDbEntity
  8
0
100
AcDbLine
 10
21705.06846612665
 20
-1285.059918196604
 30
0.0
 11
21705.07490550998
 21
-1285.047153891124
 31
0.0
  0
LINE
  5
F9
330
2
100
AcDbEntity
  8
0
100
AcDbLine
 10
21705.07490550998
 20
-1285.047153891124
 30
0.0
 11
21705.08141392462
 21
-1285.034482349807
 31
0.0
  0
LINE
  5
FA
330
2
100
AcDbEntity
  8
0
100
AcDbLine
 10
21705.08141392462
 20
-1285.034482349807
 30
0.0
 11
21705.08799111583
 21
-1285.021903216782
 31
0.0
  0
LINE
  5
FB
330
2
100
AcDbEntity
  8
0
100
AcDbLine
 10
21705.08799111583
 20
-1285.021903216782
 30
0.0
 11
21705.09463682882
 21
-1285.009416136172
 31
0.0
  0
LINE
  5
FC
330
2
100
AcDbEntity
  8
0
100
AcDbLine
 10
21705.09463682882
 20
-1285.009416136172
 30
0.0
 11
21705.10135080886
 21
-1284.997020752105
 31
0.0
  0
LINE
  5
FD
330
2
100
AcDbEntity
  8
0
100
AcDbLine
 10
21705.10135080886
 20
-1284.997020752105
 30
0.0
 11
21705.10813280118
 21
-1284.984716708715
 31
0.0
  0
LINE
  5
FE
330
2
100
AcDbEntity
  8
0
100
AcDbLine
 10
21705.10813280118
 20
-1284.984716708715
 30
0.0
 11
21705.11498255102
 21
-1284.97250365012
 31
0.0
  0
LINE
  5
FF
330
2
100
AcDbEntity
  8
0
100
AcDbLine
 10
21705.11498255102
 20
-1284.97250365012
 30
0.0
 11
21705.12189980363
 21
-1284.960381220453
 31
0.0
  0
LINE
  5
100
330
2
100
AcDbEntity
  8
0
100
AcDbLine
 10
21705.12189980363
 20
-1284.960381220453
 30
0.0
 11
21705.12888430425
 21
-1284.948349063839
 31
0.0
  0
LINE
  5
101
330
2
100
AcDbEntity
  8
0
100
AcDbLine
 10
21705.12888430425
 20
-1284.948349063839
 30
0.0
 11
21705.13593579812
 21
-1284.936406824405
 31
0.0
  0
LINE
  5
102
330
2
100
AcDbEntity
  8
0
100
AcDbLine
 10
21705.13593579812
 20
-1284.936406824405
 30
0.0
 11
21705.14305403048
 21
-1284.924554146275
 31
0.0
  0
LINE
  5
103
330
2
100
AcDbEntity
  8
0
100
AcDbLine
 10
21705.14305403048
 20
-1284.924554146275
 30
0.0
 11
21705.15023874658
 21
-1284.912790673586
 31
0.0
  0
LINE
  5
104
330
2
100
AcDbEntity
  8
0
100
AcDbLine
 10
21705.15023874658
 20
-1284.912790673586
 30
0.0
 11
21705.15748969166
 21
-1284.901116050454
 31
0.0
  0
LINE
  5
105
330
2
100
AcDbEntity
  8
0
100
AcDbLine
 10
21705.15748969166
 20
-1284.901116050454
 30
0.0
 11
21705.16480661096
 21
-1284.889529921014
 31
0.0
  0
LINE
  5
106
330
2
100
AcDbEntity
  8
0
100
AcDbLine
 10
21705.16480661096
 20
-1284.889529921014
 30
0.0
 11
21705.17218924973
 21
-1284.878031929389
 31
0.0
  0
LINE
  5
107
330
2
100
AcDbEntity
  8
0
100
AcDbLine
 10
21705.17218924973
 20
-1284.878031929389
 30
0.0
 11
21705.1796373532
 21
-1284.866621719707
 31
0.0
  0
LINE
  5
108
330
2
100
AcDbEntity
  8
0
100
AcDbLine
 10
21705.1796373532
 20
-1284.866621719707
 30
0.0
 11
21705.18715066662
 21
-1284.855298936096
 31
0.0
  0
LINE
  5
109
330
2
100
AcDbEntity
  8
0
100
AcDbLine
 10
21705.18715066662
 20
-1284.855298936096
 30
0.0
 11
21705.19472893523
 21
-1284.844063222683
 31
0.0
  0
LINE
  5
10A
330
2
100
AcDbEntity
  8
0
100
AcDbLine
 10
21705.19472893523
 20
-1284.844063222683
 30
0.0
 11
21705.20237190428
 21
-1284.832914223591
 31
0.0
  0
LINE
  5
10B
330
2
100
AcDbEntity
  8
0
100
AcDbLine
 10
21705.20237190428
 20
-1284.832914223591
 30
0.0
 11
21705.21007931901
 21
-1284.821851582956
 31
0.0
  0
LINE
  5
10C
330
2
100
AcDbEntity
  8
0
100
AcDbLine
 10
21705.21007931901
 20
-1284.821851582956
 30
0.0
 11
21705.21785092465
 21
-1284.810874944896
 31
0.0
  0
LINE
  5
10D
330
2
100
AcDbEntity
  8
0
100
AcDbLine
 10
21705.21785092465
 20
-1284.810874944896
 30
0.0
 11
21705.22568646646
 21
-1284.799983953542
 31
0.0
  0
LINE
  5
10E
330
2
100
AcDbEntity
  8
0
100
AcDbLine
 10
21705.22568646646
 20
-1284.799983953542
 30
0.0
 11
21705.23358568967
 21
-1284.789178253026
 31
0.0
  0
LINE
  5
10F
330
2
100
AcDbEntity
  8
0
100
AcDbLine
 10
21705.23358568967
 20
-1284.789178253026
 30
0.0
 11
21705.24154833952
 21
-1284.778457487469
 31
0.0
  0
LINE
  5
110
330
2
100
AcDbEntity
  8
0
100
AcDbLine
 10
21705.24154833952
 20
-1284.778457487469
 30
0.0
 11
21705.24957416127
 21
-1284.767821300995
 31
0.0
  0
LINE
  5
111
330
2
100
AcDbEntity
  8
0
100
AcDbLine
 10
21705.24957416127
 20
-1284.767821300995
 30
0.0
 11
21705.25766290015
 21
-1284.757269337738
 31
0.0
  0
LINE
  5
112
330
2
100
AcDbEntity
  8
0
100
AcDbLine
 10
21705.25766290015
 20
-1284.757269337738
 30
0.0
 11
21705.2658143014
 21
-1284.746801241827
 31
0.0
  0
LINE
  5
113
330
2
100
AcDbEntity
  8
0
100
AcDbLine
 10
21705.2658143014
 20
-1284.746801241827
 30
0.0
 11
21705.27402811027
 21
-1284.736416657381
 31
0.0
  0
LINE
  5
114
330
2
100
AcDbEntity
  8
0
100
AcDbLine
 10
21705.27402811027
 20
-1284.736416657381
 30
0.0
 11
21705.28230407199
 21
-1284.72611522853
 31
0.0
  0
LINE
  5
115
330
2
100
AcDbEntity
  8
0
100
AcDbLine
 10
21705.28230407199
 20
-1284.72611522853
 30
0.0
 11
21705.29064193182
 21
-1284.715896599404
 31
0.0
  0
LINE
  5
116
330
2
100
AcDbEntity
  8
0
100
AcDbLine
 10
21705.29064193182
 20
-1284.715896599404
 30
0.0
 11
21705.299041435
 21
-1284.705760414128
 31
0.0
  0
LINE
  5
117
330
2
100
AcDbEntity
  8
0
100
AcDbLine
 10
21705.299041435
 20
-1284.705760414128
 30
0.0
 11
21705.30750232676
 21
-1284.695706316832
 31
0.0
  0
LINE
  5
118
330
2
100
AcDbEntity
  8
0
100
AcDbLine
 10
21705.30750232676
 20
-1284.695706316832
 30
0.0
 11
21705.31602435235
 21
-1284.685733951637
 31
0.0
  0
LINE
  5
119
330
2
100
AcDbEntity
  8
0
100
AcDbLine
 10
21705.31602435235
 20
-1284.685733951637
 30
0.0
 11
21705.32460725701
 21
-1284.675842962673
 31
0.0
  0
LINE
  5
11A
330
2
100
AcDbEntity
  8
0
100
AcDbLine
 10
21705.32460725701
 20
-1284.675842962673
 30
0.0
 11
21705.33325078598
 21
-1284.666032994073
 31
0.0
  0
LINE
  5
11B
330
2
100
AcDbEntity
  8
0
100
AcDbLine
 10
21705.33325078598
 20
-1284.666032994073
 30
0.0
 11
21705.34195468452
 21
-1284.656303689955
 31
0.0
  0
LINE
  5
11C
330
2
100
AcDbEntity
  8
0
100
AcDbLine
 10
21705.34195468452
 20
-1284.656303689955
 30
0.0
 11
21705.35071869785
 21
-1284.646654694452
 31
0.0
  0
LINE
  5
11D
330
2
100
AcDbEntity
  8
0
100
AcDbLine
 10
21705.35071869785
 20
-1284.646654694452
 30
0.0
 11
21705.35954257122
 21
-1284.63708565169
 31
0.0
  0
LINE
  5
11E
330
2
100
AcDbEntity
  8
0
100
AcDbLine
 10
21705.35954257122
 20
-1284.63708565169
 30
0.0
 11
21705.36842604988
 21
-1284.627596205797
 31
0.0
  0
LINE
  5
11F
330
2
100
AcDbEntity
  8
0
100
AcDbLine
 10
21705.36842604988
 20
-1284.627596205797
 30
0.0
 11
21705.37736887907
 21
-1284.618186000896
 31
0.0
  0
LINE
  5
120
330
2
100
AcDbEntity
  8
0
100
AcDbLine
 10
21705.37736887907
 20
-1284.618186000896
 30
0.0
 11
21705.38637080402
 21
-1284.608854681117
 31
0.0
  0
LINE
  5
121
330
2
100
AcDbEntity
  8
0
100
AcDbLine
 10
21705.38637080402
 20
-1284.608854681117
 30
0.0
 11
21705.39543156998
 21
-1284.599601890588
 31
0.0
  0
LINE
  5
122
330
2
100
AcDbEntity
  8
0
100
AcDbLine
 10
21705.39543156998
 20
-1284.599601890588
 30
0.0
 11
21705.4045509222
 21
-1284.590427273435
 31
0.0
  0
LINE
  5
123
330
2
100
AcDbEntity
  8
0
100
AcDbLine
 10
21705.4045509222
 20
-1284.590427273435
 30
0.0
 11
21705.41372860592
 21
-1284.581330473787
 31
0.0
  0
LINE
  5
124
330
2
100
AcDbEntity
  8
0
100
AcDbLine
 10
21705.41372860592
 20
-1284.581330473787
 30
0.0
 11
21705.42296436638
 21
-1284.572311135767
 31
0.0
  0
LINE
  5
125
330
2
100
AcDbEntity
  8
0
100
AcDbLine
 10
21705.42296436638
 20
-1284.572311135767
 30
0.0
 11
21705.43225794881
 21
-1284.563368903504
 31
0.0
  0
LINE
  5
126
330
2
100
AcDbEntity
  8
0
100
AcDbLine
 10
21705.43225794881
 20
-1284.563368903504
 30
0.0
 11
21705.44160909847
 21
-1284.55450342113
 31
0.0
  0
LINE
  5
127
330
2
100
AcDbEntity
  8
0
100
AcDbLine
 10
21705.44160909847
 20
-1284.55450342113
 30
0.0
 11
21705.4510175606
 21
-1284.545714332764
 31
0.0
  0
LINE
  5
128
330
2
100
AcDbEntity
  8
0
100
AcDbLine
 10
21705.4510175606
 20
-1284.545714332764
 30
0.0
 11
21705.46048308044
 21
-1284.537001282538
 31
0.0
  0
LINE
  5
129
330
2
100
AcDbEntity
  8
0
100
AcDbLine
 10
21705.46048308044
 20
-1284.537001282538
 30
0.0
 11
21705.47000540322
 21
-1284.52836391458
 31
0.0
  0
LINE
  5
12A
330
2
100
AcDbEntity
  8
0
100
AcDbLine
 10
21705.47000540322
 20
-1284.52836391458
 30
0.0
 11
21705.47958427421
 21
-1284.519801873013
 31
0.0
  0
LINE
  5
12B
330
2
100
AcDbEntity
  8
0
100
AcDbLine
 10
21705.47958427421
 20
-1284.519801873013
 30
0.0
 11
21705.48921943863
 21
-1284.511314801968
 31
0.0
  0
LINE
  5
12C
330
2
100
AcDbEntity
  8
0
100
AcDbLine
 10
21705.48921943863
 20
-1284.511314801968
 30
0.0
 11
21705.49891064173
 21
-1284.50290234557
 31
0.0
  0
LINE
  5
12D
330
2
100
AcDbEntity
  8
0
100
AcDbLine
 10
21705.49891064173
 20
-1284.50290234557
 30
0.0
 11
21705.50865762876
 21
-1284.494564147944
 31
0.0
  0
LINE
  5
12E
330
2
100
AcDbEntity
  8
0
100
AcDbLine
 10
21705.50865762876
 20
-1284.494564147944
 30
0.0
 11
21705.51846014494
 21
-1284.486299853228
 31
0.0
  0
LINE
  5
12F
330
2
100
AcDbEntity
  8
0
100
AcDbLine
 10
21705.51846014494
 20
-1284.486299853228
 30
0.0
 11
21705.52831793553
 21
-1284.478109105535
 31
0.0
  0
LINE
  5
130
330
2
100
AcDbEntity
  8
0
100
AcDbLine
 10
21705.52831793553
 20
-1284.478109105535
 30
0.0
 11
21705.53823074577
 21
-1284.469991549
 31
0.0
  0
LINE
  5
131
330
2
100
AcDbEntity
  8
0
100
AcDbLine
 10
21705.53823074577
 20
-1284.469991549
 30
0.0
 11
21705.54819832091
 21
-1284.461946827747
 31
0.0
  0
LINE
  5
132
330
2
100
AcDbEntity
  8
0
100
AcDbLine
 10
21705.54819832091
 20
-1284.461946827747
 30
0.0
 11
21705.55822040618
 21
-1284.453974585902
 31
0.0
  0
LINE
  5
133
330
2
100
AcDbEntity
  8
0
100
AcDbLine
 10
21705.55822040618
 20
-1284.453974585902
 30
0.0
 11
21705.56829674682
 21
-1284.446074467598
 31
0.0
  0
LINE
  5
134
330
2
100
AcDbEntity
  8
0
100
AcDbLine
 10
21705.56829674682
 20
-1284.446074467598
 30
0.0
 11
21705.57842708809
 21
-1284.438246116961
 31
0.0
  0
LINE
  5
135
330
2
100
AcDbEntity
  8
0
100
AcDbLine
 10
21705.57842708809
 20
-1284.438246116961
 30
0.0
 11
21705.58861117521
 21
-1284.430489178112
 31
0.0
  0
LINE
  5
136
330
2
100
AcDbEntity
  8
0
100
AcDbLine
 10
21705.58861117521
 20
-1284.430489178112
 30
0.0
 11
21705.59884875344
 21
-1284.422803295185
 31
0.0
  0
LINE
  5
137
330
2
100
AcDbEntity
  8
0
100
AcDbLine
 10
21705.59884875344
 20
-1284.422803295185
 30
0.0
 11
21705.60913956802
 21
-1284.415188112305
 31
0.0
  0
LINE
  5
138
330
2
100
AcDbEntity
  8
0
100
AcDbLine
 10
21705.60913956802
 20
-1284.415188112305
 30
0.0
 11
21705.61948336418
 21
-1284.407643273594
 31
0.0
  0
LINE
  5
139
330
2
100
AcDbEntity
  8
0
100
AcDbLine
 10
21705.61948336418
 20
-1284.407643273594
 30
0.0
 11
21705.62987988718
 21
-1284.400168423186
 31
0.0
  0
LINE
  5
13A
330
2
100
AcDbEntity
  8
0
100
AcDbLine
 10
21705.62987988718
 20
-1284.400168423186
 30
0.0
 11
21705.64032888225
 21
-1284.392763205205
 31
0.0
  0
LINE
  5
13B
330
2
100
AcDbEntity
  8
0
100
AcDbLine
 10
21705.64032888225
 20
-1284.392763205205
 30
0.0
 11
21705.65083009464
 21
-1284.385427263778
 31
0.0
  0
LINE
  5
13C
330
2
100
AcDbEntity
  8
0
100
AcDbLine
 10
21705.65083009464
 20
-1284.385427263778
 30
0.0
 11
21705.66138326959
 21
-1284.378160243037
 31
0.0
  0
LINE
  5
13D
330
2
100
AcDbEntity
  8
0
100
AcDbLine
 10
21705.66138326959
 20
-1284.378160243037
 30
0.0
 11
21705.67198815234
 21
-1284.370961787101
 31
0.0
  0
LINE
  5
13E
330
2
100
AcDbEntity
  8
0
100
AcDbLine
 10
21705.67198815234
 20
-1284.370961787101
 30
0.0
 11
21705.68264448813
 21
-1284.363831540106
 31
0.0
  0
LINE
  5
13F
330
2
100
AcDbEntity
  8
0
100
AcDbLine
 10
21705.68264448813
 20
-1284.363831540106
 30
0.0
 11
21705.69335202221
 21
-1284.35676914617
 31
0.0
  0
LINE
  5
140
330
2
100
AcDbEntity
  8
0
100
AcDbLine
 10
21705.69335202221
 20
-1284.35676914617
 30
0.0
 11
21705.70411049983
 21
-1284.349774249424
 31
0.0
  0
LINE
  5
141
330
2
100
AcDbEntity
  8
0
100
AcDbLine
 10
21705.70411049983
 20
-1284.349774249424
 30
0.0
 11
21705.71491966621
 21
-1284.342846494002
 31
0.0
  0
LINE
  5
142
330
2
100
AcDbEntity
  8
0
100
AcDbLine
 10
21705.71491966621
 20
-1284.342846494002
 30
0.0
 11
21705.7257792666
 21
-1284.335985524021
 31
0.0
  0
LINE
  5
143
330
2
100
AcDbEntity
  8
0
100
AcDbLine
 10
21705.7257792666
 20
-1284.335985524021
 30
0.0
 11
21705.73668904625
 21
-1284.32919098361
 31
0.0
  0
LINE
  5
144
330
2
100
AcDbEntity
  8
0
100
AcDbLine
 10
21705.73668904625
 20
-1284.32919098361
 30
0.0
 11
21705.74764875041
 21
-1284.3224625169
 31
0.0
  0
LINE
  5
145
330
2
100
AcDbEntity
  8
0
100
AcDbLine
 10
21705.74764875041
 20
-1284.3224625169
 30
0.0
 11
21705.7586581243
 21
-1284.315799768015
 31
0.0
  0
LINE
  5
146
330
2
100
AcDbEntity
  8
0
100
AcDbLine
 10
21705.7586581243
 20
-1284.315799768015
 30
0.0
 11
21705.76971691318
 21
-1284.309202381084
 31
0.0
  0
LINE
  5
147
330
2
100
AcDbEntity
  8
0
100
AcDbLine
 10
21705.76971691318
 20
-1284.309202381084
 30
0.0
 11
21705.78082486228
 21
-1284.302670000236
 31
0.0
  0
LINE
  5
148
330
2
100
AcDbEntity
  8
0
100
AcDbLine
 10
21705.78082486228
 20
-1284.302670000236
 30
0.0
 11
21705.79198171686
 21
-1284.296202269596
 31
0.0
  0
LINE
  5
149
330
2
100
AcDbEntity
  8
0
100
AcDbLine
 10
21705.79198171686
 20
-1284.296202269596
 30
0.0
 11
21705.80318722215
 21
-1284.289798833286
 31
0.0
  0
LINE
  5
14A
330
2
100
AcDbEntity
  8
0
100
AcDbLine
 10
21705.80318722215
 20
-1284.289798833286
 30
0.0
 11
21705.81444112338
 21
-1284.283459335443
 31
0.0
  0
LINE
  5
14B
330
2
100
AcDbEntity
  8
0
100
AcDbLine
 10
21705.81444112338
 20
-1284.283459335443
 30
0.0
 11
21705.82574316582
 21
-1284.277183420187
 31
0.0
  0
LINE
  5
14C
330
2
100
AcDbEntity
  8
0
100
AcDbLine
 10
21705.82574316582
 20
-1284.277183420187
 30
0.0
 11
21705.83709309469
 21
-1284.270970731648
 31
0.0
  0
LINE
  5
14D
330
2
100
AcDbEntity
  8
0
100
AcDbLine
 10
21705.83709309469
 20
-1284.270970731648
 30
0.0
 11
21705.84849065526
 21
-1284.264820913953
 31
0.0
  0
LINE
  5
14E
330
2
100
AcDbEntity
  8
0
100
AcDbLine
 10
21705.84849065526
 20
-1284.264820913953
 30
0.0
 11
21705.85993559274
 21
-1284.258733611228
 31
0.0
  0
LINE
  5
14F
330
2
100
AcDbEntity
  8
0
100
AcDbLine
 10
21705.85993559274
 20
-1284.258733611228
 30
0.0
 11
21705.87142765239
 21
-1284.252708467598
 31
0.0
  0
LINE
  5
150
330
2
100
AcDbEntity
  8
0
100
AcDbLine
 10
21705.87142765239
 20
-1284.252708467598
 30
0.0
 11
21705.88296657944
 21
-1284.246745127197
 31
0.0
  0
LINE
  5
151
330
2
100
AcDbEntity
  8
0
100
AcDbLine
 10
21705.88296657944
 20
-1284.246745127197
 30
0.0
 11
21705.89455211916
 21
-1284.240843234145
 31
0.0
  0
LINE
  5
152
330
2
100
AcDbEntity
  8
0
100
AcDbLine
 10
21705.89455211916
 20
-1284.240843234145
 30
0.0
 11
21705.90618401676
 21
-1284.235002432573
 31
0.0
  0
LINE
  5
153
330
2
100
AcDbEntity
  8
0
100
AcDbLine
 10
21705.90618401676
 20
-1284.235002432573
 30
0.0
 11
21705.9178620175
 21
-1284.22922236661
 31
0.0
  0
LINE
  5
154
330
2
100
AcDbEntity
  8
0
100
AcDbLine
 10
21705.9178620175
 20
-1284.22922236661
 30
0.0
 11
21705.92958586663
 21
-1284.223502680377
 31
0.0
  0
LINE
  5
155
330
2
100
AcDbEntity
  8
0
100
AcDbLine
 10
21705.92958586663
 20
-1284.223502680377
 30
0.0
 11
21705.94135530937
 21
-1284.217843018008
 31
0.0
  0
LINE
  5
156
330
2
100
AcDbEntity
  8
0
100
AcDbLine
 10
21705.94135530937
 20
-1284.217843018008
 30
0.0
 11
21705.95317009097
 21
-1284.212243023625
 31
0.0
  0
LINE
  5
157
330
2
100
AcDbEntity
  8
0
100
AcDbLine
 10
21705.95317009097
 20
-1284.212243023625
 30
0.0
 11
21705.96502995669
 21
-1284.206702341356
 31
0.0
  0
LINE
  5
158
330
2
100
AcDbEntity
  8
0
100
AcDbLine
 10
21705.96502995669
 20
-1284.206702341356
 30
0.0
 11
21705.97693465174
 21
-1284.201220615332
 31
0.0
  0
LINE
  5
159
330
2
100
AcDbEntity
  8
0
100
AcDbLine
 10
21705.97693465174
 20
-1284.201220615332
 30
0.0
 11
21705.9888839214
 21
-1284.195797489674
 31
0.0
  0
LINE
  5
15A
330
2
100
AcDbEntity
  8
0
100
AcDbLine
 10
21705.9888839214
 20
-1284.195797489674
 30
0.0
 11
21706.00087751089
 21
-1284.190432608515
 31
0.0
  0
LINE
  5
15B
330
2
100
AcDbEntity
  8
0
100
AcDbLine
 10
21706.00087751089
 20
-1284.190432608515
 30
0.0
 11
21706.01291516546
 21
-1284.185125615981
 31
0.0
  0
LINE
  5
15C
330
2
100
AcDbEntity
  8
0
100
AcDbLine
 10
21706.01291516546
 20
-1284.185125615981
 30
0.0
 11
21706.02499663034
 21
-1284.179876156193
 31
0.0
  0
LINE
  5
15D
330
2
100
AcDbEntity
  8
0
100
AcDbLine
 10
21706.02499663034
 20
-1284.179876156193
 30
0.0
 11
21706.03712165079
 21
-1284.174683873285
 31
0.0
  0
LINE
  5
15E
330
2
100
AcDbEntity
  8
0
100
AcDbLine
 10
21706.03712165079
 20
-1284.174683873285
 30
0.0
 11
21706.04928997204
 21
-1284.169548411382
 31
0.0
  0
LINE
  5
15F
330
2
100
AcDbEntity
  8
0
100
AcDbLine
 10
21706.04928997204
 20
-1284.169548411382
 30
0.0
 11
21706.06150133933
 21
-1284.164469414611
 31
0.0
  0
LINE
  5
160
330
2
100
AcDbEntity
  8
0
100
AcDbLine
 10
21706.06150133933
 20
-1284.164469414611
 30
0.0
 11
21706.07375549792
 21
-1284.159446527099
 31
0.0
  0
LINE
  5
161
330
2
100
AcDbEntity
  8
0
100
AcDbLine
 10
21706.07375549792
 20
-1284.159446527099
 30
0.0
 11
21706.08605219304
 21
-1284.154479392973
 31
0.0
  0
LINE
  5
162
330
2
100
AcDbEntity
  8
0
100
AcDbLine
 10
21706.08605219304
 20
-1284.154479392973
 30
0.0
 11
21706.09839116994
 21
-1284.149567656363
 31
0.0
  0
LINE
  5
163
330
2
100
AcDbEntity
  8
0
100
AcDbLine
 10
21706.09839116994
 20
-1284.149567656363
 30
0.0
 11
21706.11077217385
 21
-1284.144710961393
 31
0.0
  0
LINE
  5
164
330
2
100
AcDbEntity
  8
0
100
AcDbLine
 10
21706.11077217385
 20
-1284.144710961393
 30
0.0
 11
21706.12319495002
 21
-1284.139908952189
 31
0.0
  0
LINE
  5
165
330
2
100
AcDbEntity
  8
0
100
AcDbLine
 10
21706.12319495002
 20
-1284.139908952189
 30
0.0
 11
21706.13565924369
 21
-1284.135161272881
 31
0.0
  0
LINE
  5
166
330
2
100
AcDbEntity
  8
0
100
AcDbLine
 10
21706.13565924369
 20
-1284.135161272881
 30
0.0
 11
21706.1481648001
 21
-1284.130467567594
 31
0.0
  0
LINE
  5
167
330
2
100
AcDbEntity
  8
0
100
AcDbLine
 10
21706.1481648001
 20
-1284.130467567594
 30
0.0
 11
21706.1607113645
 21
-1284.125827480458
 31
0.0
  0
LINE
  5
168
330
2
100
AcDbEntity
  8
0
100
AcDbLine
 10
21706.1607113645
 20
-1284.125827480458
 30
0.0
 11
21706.17329868214
 21
-1284.121240655602
 31
0.0
  0
LINE
  5
169
330
2
100
AcDbEntity
  8
0
100
AcDbLine
 10
21706.17329868214
 20
-1284.121240655602
 30
0.0
 11
21706.18592649824
 21
-1284.116706737144
 31
0.0
  0
LINE
  5
16A
330
2
100
AcDbEntity
  8
0
100
AcDbLine
 10
21706.18592649824
 20
-1284.116706737144
 30
0.0
 11
21706.19859455806
 21
-1284.112225369217
 31
0.0
  0
LINE
  5
16B
330
2
100
AcDbEntity
  8
0
100
AcDbLine
 10
21706.19859455806
 20
-1284.112225369217
 30
0.0
 11
21706.21130260683
 21
-1284.107796195951
 31
0.0
  0
LINE
  5
16C
330
2
100
AcDbEntity
  8
0
100
AcDbLine
 10
21706.21130260683
 20
-1284.107796195951
 30
0.0
 11
21706.22405038981
 21
-1284.103418861467
 31
0.0
  0
LINE
  5
16D
330
2
100
AcDbEntity
  8
0
100
AcDbLine
 10
21706.22405038981
 20
-1284.103418861467
 30
0.0
 11
21706.23683765222
 21
-1284.099093009894
 31
0.0
  0
LINE
  5
16E
330
2
100
AcDbEntity
  8
0
100
AcDbLine
 10
21706.23683765222
 20
-1284.099093009894
 30
0.0
 11
21706.24966413932
 21
-1284.094818285366
 31
0.0
  0
LINE
  5
16F
330
2
100
AcDbEntity
  8
0
100
AcDbLine
 10
21706.24966413932
 20
-1284.094818285366
 30
0.0
 11
21706.26252959635
 21
-1284.090594332001
 31
0.0
  0
LINE
  5
170
330
2
100
AcDbEntity
  8
0
100
AcDbLine
 10
21706.26252959635
 20
-1284.090594332001
 30
0.0
 11
21706.27543376854
 21
-1284.086420793932
 31
0.0
  0
LINE
  5
171
330
2
100
AcDbEntity
  8
0
100
AcDbLine
 10
21706.27543376854
 20
-1284.086420793932
 30
0.0
 11
21706.28837640115
 21
-1284.082297315277
 31
0.0
  0
LINE
  5
172
330
2
100
AcDbEntity
  8
0
100
AcDbLine
 10
21706.28837640115
 20
-1284.082297315277
 30
0.0
 11
21706.30135723941
 21
-1284.078223540176
 31
0.0
  0
LINE
  5
173
330
2
100
AcDbEntity
  8
0
100
AcDbLine
 10
21706.30135723941
 20
-1284.078223540176
 30
0.0
 11
21706.31437602857
 21
-1284.074199112752
 31
0.0
  0
LINE
  5
174
330
2
100
AcDbEntity
  8
0
100
AcDbLine
 10
21706.31437602857
 20
-1284.074199112752
 30
0.0
 11
21706.32743251387
 21
-1284.070223677127
 31
0.0
  0
LINE
  5
175
330
2
100
AcDbEntity
  8
0
100
AcDbLine
 10
21706.32743251387
 20
-1284.070223677127
 30
0.0
 11
21706.34052644055
 21
-1284.066296877428
 31
0.0
  0
LINE
  5
176
330
2
100
AcDbEntity
  8
0
100
AcDbLine
 10
21706.34052644055
 20
-1284.066296877428
 30
0.0
 11
21706.35365755386
 21
-1284.062418357791
 31
0.0
  0
LINE
  5
177
330
2
100
AcDbEntity
  8
0
100
AcDbLine
 10
21706.35365755386
 20
-1284.062418357791
 30
0.0
 11
21706.36682559903
 21
-1284.058587762332
 31
0.0
  0
LINE
  5
178
330
2
100
AcDbEntity
  8
0
100
AcDbLine
 10
21706.36682559903
 20
-1284.058587762332
 30
0.0
 11
21706.38003032131
 21
-1284.054804735189
 31
0.0
  0
LINE
  5
179
330
2
100
AcDbEntity
  8
0
100
AcDbLine
 10
21706.38003032131
 20
-1284.054804735189
 30
0.0
 11
21706.39327146594
 21
-1284.051068920484
 31
0.0
  0
LINE
  5
17A
330
2
100
AcDbEntity
  8
0
100
AcDbLine
 10
21706.39327146594
 20
-1284.051068920484
 30
0.0
 11
21706.40654877816
 21
-1284.047379962341
 31
0.0
  0
LINE
  5
17B
330
2
100
AcDbEntity
  8
0
100
AcDbLine
 10
21706.40654877816
 20
-1284.047379962341
 30
0.0
 11
21706.41986200323
 21
-1284.043737504891
 31
0.0
  0
LINE
  5
17C
330
2
100
AcDbEntity
  8
0
100
AcDbLine
 10
21706.41986200323
 20
-1284.043737504891
 30
0.0
 11
21706.43321088637
 21
-1284.040141192259
 31
0.0
  0
LINE
  5
17D
330
2
100
AcDbEntity
  8
0
100
AcDbLine
 10
21706.43321088637
 20
-1284.040141192259
 30
0.0
 11
21706.44659517284
 21
-1284.036590668578
 31
0.0
  0
LINE
  5
17E
330
2
100
AcDbEntity
  8
0
100
AcDbLine
 10
21706.44659517284
 20
-1284.036590668578
 30
0.0
 11
21706.46001460787
 21
-1284.03308557797
 31
0.0
  0
LINE
  5
17F
330
2
100
AcDbEntity
  8
0
100
AcDbLine
 10
21706.46001460787
 20
-1284.03308557797
 30
0.0
 11
21706.4734689367
 21
-1284.029625564561
 31
0.0
  0
LINE
  5
180
330
2
100
AcDbEntity
  8
0
100
AcDbLine
 10
21706.4734689367
 20
-1284.029625564561
 30
0.0
 11
21706.48695790459
 21
-1284.026210272475
 31
0.0
  0
LINE
  5
181
330
2
100
AcDbEntity
  8
0
100
AcDbLine
 10
21706.48695790459
 20
-1284.026210272475
 30
0.0
 11
21706.50048125676
 21
-1284.022839345855
 31
0.0
  0
LINE
  5
182
330
2
100
AcDbEntity
  8
0
100
AcDbLine
 10
21706.50048125676
 20
-1284.022839345855
 30
0.0
 11
21706.51403873848
 21
-1284.019512428809
 31
0.0
  0
LINE
  5
183
330
2
100
AcDbEntity
  8
0
100
AcDbLine
 10
21706.51403873848
 20
-1284.019512428809
 30
0.0
 11
21706.52763009496
 21
-1284.016229165472
 31
0.0
  0
LINE
  5
184
330
2
100
AcDbEntity
  8
0
100
AcDbLine
 10
21706.52763009496
 20
-1284.016229165472
 30
0.0
 11
21706.54125507147
 21
-1284.012989199976
 31
0.0
  0
LINE
  5
185
330
2
100
AcDbEntity
  8
0
100
AcDbLine
 10
21706.54125507147
 20
-1284.012989199976
 30
0.0
 11
21706.55491341324
 21
-1284.009792176441
 31
0.0
  0
LINE
  5
186
330
2
100
AcDbEntity
  8
0
100
AcDbLine
 10
21706.55491341324
 20
-1284.009792176441
 30
0.0
 11
21706.56860486551
 21
-1284.006637738997
 31
0.0
  0
LINE
  5
187
330
2
100
AcDbEntity
  8
0
100
AcDbLine
 10
21706.56860486551
 20
-1284.006637738997
 30
0.0
 11
21706.58232917353
 21
-1284.003525531772
 31
0.0
  0
LINE
  5
188
330
2
100
AcDbEntity
  8
0
100
AcDbLine
 10
21706.58232917353
 20
-1284.003525531772
 30
0.0
 11
21706.59608608254
 21
-1284.000455198895
 31
0.0
  0
LINE
  5
189
330
2
100
AcDbEntity
  8
0
100
AcDbLine
 10
21706.59608608254
 20
-1284.000455198895
 30
0.0
 11
21706.60987533779
 21
-1283.997426384487
 31
0.0
  0
LINE
  5
18A
330
2
100
AcDbEntity
  8
0
100
AcDbLine
 10
21706.60987533779
 20
-1283.997426384487
 30
0.0
 11
21706.6236966845
 21
-1283.994438732678
 31
0.0
  0
LINE
  5
18B
330
2
100
AcDbEntity
  8
0
100
AcDbLine
 10
21706.6236966845
 20
-1283.994438732678
 30
0.0
 11
21706.63754986793
 21
-1283.991491887596
 31
0.0
  0
LINE
  5
18C
330
2
100
AcDbEntity
  8
0
100
AcDbLine
 10
21706.63754986793
 20
-1283.991491887596
 30
0.0
 11
21706.65143463332
 21
-1283.988585493369
 31
0.0
  0
LINE
  5
18D
330
2
100
AcDbEntity
  8
0
100
AcDbLine
 10
21706.65143463332
 20
-1283.988585493369
 30
0.0
 11
21706.66535072591
 21
-1283.985719194121
 31
0.0
  0
LINE
  5
18E
330
2
100
AcDbEntity
  8
0
100
AcDbLine
 10
21706.66535072591
 20
-1283.985719194121
 30
0.0
 11
21706.67929789095
 21
-1283.982892633985
 31
0.0
  0
LINE
  5
18F
330
2
100
AcDbEntity
  8
0
100
AcDbLine
 10
21706.67929789095
 20
-1283.982892633985
 30
0.0
 11
21706.69327587368
 21
-1283.98010545708
 31
0.0
  0
LINE
  5
190
330
2
100
AcDbEntity
  8
0
100
AcDbLine
 10
21706.69327587368
 20
-1283.98010545708
 30
0.0
 11
21706.70728441933
 21
-1283.977357307538
 31
0.0
  0
LINE
  5
191
330
2
100
AcDbEntity
  8
0
100
AcDbLine
 10
21706.70728441933
 20
-1283.977357307538
 30
0.0
 11
21706.72132327316
 21
-1283.974647829485
 31
0.0
  0
LINE
  5
192
330
2
100
AcDbEntity
  8
0
100
AcDbLine
 10
21706.72132327316
 20
-1283.974647829485
 30
0.0
 11
21706.7353921804
 21
-1283.971976667048
 31
0.0
  0
LINE
  5
193
330
2
100
AcDbEntity
  8
0
100
AcDbLine
 10
21706.7353921804
 20
-1283.971976667048
 30
0.0
 11
21706.7494908863
 21
-1283.969343464358
 31
0.0
  0
LINE
  5
194
330
2
100
AcDbEntity
  8
0
100
AcDbLine
 10
21706.7494908863
 20
-1283.969343464358
 30
0.0
 11
21706.76361913609
 21
-1283.966747865537
 31
0.0
  0
LINE
  5
195
330
2
100
AcDbEntity
  8
0
100
AcDbLine
 10
21706.76361913609
 20
-1283.966747865537
 30
0.0
 11
21706.77777667503
 21
-1283.964189514716
 31
0.0
  0
LINE
  5
196
330
2
100
AcDbEntity
  8
0
100
AcDbLine
 10
21706.77777667503
 20
-1283.964189514716
 30
0.0
 11
21706.79196324835
 21
-1283.961668056015
 31
0.0
  0
LINE
  5
197
330
2
100
AcDbEntity
  8
0
100
AcDbLine
 10
21706.79196324835
 20
-1283.961668056015
 30
0.0
 11
21706.8061786013
 21
-1283.959183133573
 31
0.0
  0
LINE
  5
198
330
2
100
AcDbEntity
  8
0
100
AcDbLine
 10
21706.8061786013
 20
-1283.959183133573
 30
0.0
 11
21706.82042247912
 21
-1283.956734391506
 31
0.0
  0
LINE
  5
199
330
2
100
AcDbEntity
  8
0
100
AcDbLine
 10
21706.82042247912
 20
-1283.956734391506
 30
0.0
 11
21706.83469462705
 21
-1283.954321473948
 31
0.0
  0
LINE
  5
19A
330
2
100
AcDbEntity
  8
0
100
AcDbLine
 10
21706.83469462705
 20
-1283.954321473948
 30
0.0
 11
21706.84899479033
 21
-1283.95194402502
 31
0.0
  0
LINE
  5
19B
330
2
100
AcDbEntity
  8
0
100
AcDbLine
 10
21706.84899479033
 20
-1283.95194402502
 30
0.0
 11
21706.86332271422
 21
-1283.949601688857
 31
0.0
  0
LINE
  5
19C
330
2
100
AcDbEntity
  8
0
100
AcDbLine
 10
21706.86332271422
 20
-1283.949601688857
 30
0.0
 11
21706.87767814394
 21
-1283.947294109583
 31
0.0
  0
LINE
  5
19D
330
2
100
AcDbEntity
  8
0
100
AcDbLine
 10
21706.87767814394
 20
-1283.947294109583
 30
0.0
 11
21706.89206082474
 21
-1283.94502093132
 31
0.0
  0
LINE
  5
19E
330
2
100
AcDbEntity
  8
0
100
AcDbLine
 10
21706.89206082474
 20
-1283.94502093132
 30
0.0
 11
21706.90647050187
 21
-1283.942781798201
 31
0.0
  0
LINE
  5
19F
330
2
100
AcDbEntity
  8
0
100
AcDbLine
 10
21706.90647050187
 20
-1283.942781798201
 30
0.0
 11
21706.92090692056
 21
-1283.940576354349
 31
0.0
  0
LINE
  5
1A0
330
2
100
AcDbEntity
  8
0
100
AcDbLine
 10
21706.92090692056
 20
-1283.940576354349
 30
0.0
 11
21706.93536982607
 21
-1283.938404243899
 31
0.0
  0
LINE
  5
1A1
330
2
100
AcDbEntity
  8
0
100
AcDbLine
 10
21706.93536982607
 20
-1283.938404243899
 30
0.0
 11
21706.94985896362
 21
-1283.936265110971
 31
0.0
  0
LINE
  5
1A2
330
2
100
AcDbEntity
  8
0
100
AcDbLine
 10
21706.94985896362
 20
-1283.936265110971
 30
0.0
 11
21706.96437407847
 21
-1283.93415859969
 31
0.0
  0
LINE
  5
1A3
330
2
100
AcDbEntity
  8
0
100
AcDbLine
 10
21706.96437407847
 20
-1283.93415859969
 30
0.0
 11
21706.97891491586
 21
-1283.932084354192
 31
0.0
  0
LINE
  5
1A4
330
2
100
AcDbEntity
  8
0
100
AcDbLine
 10
21706.97891491586
 20
-1283.932084354192
 30
0.0
 11
21706.99348122103
 21
-1283.930042018599
 31
0.0
  0
LINE
  5
1A5
330
2
100
AcDbEntity
  8
0
100
AcDbLine
 10
21706.99348122103
 20
-1283.930042018599
 30
0.0
 11
21707.00807273922
 21
-1283.928031237034
 31
0.0
  0
LINE
  5
1A6
330
2
100
AcDbEntity
  8
0
100
AcDbLine
 10
21707.00807273922
 20
-1283.928031237034
 30
0.0
 11
21707.02268921567
 21
-1283.926051653632
 31
0.0
  0
LINE
  5
1A7
330
2
100
AcDbEntity
  8
0
100
AcDbLine
 10
21707.02268921567
 20
-1283.926051653632
 30
0.0
 11
21707.03733039562
 21
-1283.92410291252
 31
0.0
  0
LINE
  5
1A8
330
2
100
AcDbEntity
  8
0
100
AcDbLine
 10
21707.03733039562
 20
-1283.92410291252
 30
0.0
 11
21707.05199602433
 21
-1283.922184657816
 31
0.0
  0
LINE
  5
1A9
330
2
100
AcDbEntity
  8
0
100
AcDbLine
 10
21707.05199602433
 20
-1283.922184657816
 30
0.0
 11
21707.06668584703
 21
-1283.920296533654
 31
0.0
  0
LINE
  5
1AA
330
2
100
AcDbEntity
  8
0
100
AcDbLine
 10
21707.06668584703
 20
-1283.920296533654
 30
0.0
 11
21707.08139960897
 21
-1283.918438184164
 31
0.0
  0
LINE
  5
1AB
330
2
100
AcDbEntity
  8
0
100
AcDbLine
 10
21707.08139960897
 20
-1283.918438184164
 30
0.0
 11
21707.09613705537
 21
-1283.916609253467
 31
0.0
  0
LINE
  5
1AC
330
2
100
AcDbEntity
  8
0
100
AcDbLine
 10
21707.09613705537
 20
-1283.916609253467
 30
0.0
 11
21707.11089793151
 21
-1283.914809385687
 31
0.0
  0
LINE
  5
1AD
330
2
100
AcDbEntity
  8
0
100
AcDbLine
 10
21707.11089793151
 20
-1283.914809385687
 30
0.0
 11
21707.1256819826
 21
-1283.913038224966
 31
0.0
  0
LINE
  5
1AE
330
2
100
AcDbEntity
  8
0
100
AcDbLine
 10
21707.1256819826
 20
-1283.913038224966
 30
0.0
 11
21707.1404889539
 21
-1283.911295415413
 31
0.0
  0
LINE
  5
1AF
330
2
100
AcDbEntity
  8
0
100
AcDbLine
 10
21707.1404889539
 20
-1283.911295415413
 30
0.0
 11
21707.15531859064
 21
-1283.90958060117
 31
0.0
  0
LINE
  5
1B0
330
2
100
AcDbEntity
  8
0
100
AcDbLine
 10
21707.15531859064
 20
-1283.90958060117
 30
0.0
 11
21707.17017063807
 21
-1283.907893426354
 31
0.0
  0
LINE
  5
1B1
330
2
100
AcDbEntity
  8
0
100
AcDbLine
 10
21707.17017063807
 20
-1283.907893426354
 30
0.0
 11
21707.18504484144
 21
-1283.906233535099
 31
0.0
  0
LINE
  5
1B2
330
2
100
AcDbEntity
  8
0
100
AcDbLine
 10
21707.18504484144
 20
-1283.906233535099
 30
0.0
 11
21707.19994094598
 21
-1283.90460057153
 31
0.0
  0
LINE
  5
1B3
330
2
100
AcDbEntity
  8
0
100
AcDbLine
 10
21707.19994094598
 20
-1283.90460057153
 30
0.0
 11
21707.21485869693
 21
-1283.902994179772
 31
0.0
  0
LINE
  5
1B4
330
2
100
AcDbEntity
  8
0
100
AcDbLine
 10
21707.21485869693
 20
-1283.902994179772
 30
0.0
 11
21707.22979783955
 21
-1283.901414003952
 31
0.0
  0
LINE
  5
1B5
330
2
100
AcDbEntity
  8
0
100
AcDbLine
 10
21707.22979783955
 20
-1283.901414003952
 30
0.0
 11
21707.24475811907
 21
-1283.899859688203
 31
0.0
  0
LINE
  5
1B6
330
2
100
AcDbEntity
  8
0
100
AcDbLine
 10
21707.24475811907
 20
-1283.899859688203
 30
0.0
 11
21707.25973928073
 21
-1283.898330876642
 31
0.0
  0
LINE
  5
1B7
330
2
100
AcDbEntity
  8
0
100
AcDbLine
 10
21707.25973928073
 20
-1283.898330876642
 30
0.0
 11
21707.27474106977
 21
-1283.896827213406
 31
0.0
  0
LINE
  5
1B8
330
2
100
AcDbEntity
  8
0
100
AcDbLine
 10
21707.27474106977
 20
-1283.896827213406
 30
0.0
 11
21707.28976323145
 21
-1283.895348342617
 31
0.0
  0
LINE
  5
1B9
330
2
100
AcDbEntity
  8
0
100
AcDbLine
 10
21707.28976323145
 20
-1283.895348342617
 30
0.0
 11
21707.304805511
 21
-1283.893893908405
 31
0.0
  0
LINE
  5
1BA
330
2
100
AcDbEntity
  8
0
100
AcDbLine
 10
21707.304805511
 20
-1283.893893908405
 30
0.0
 11
21707.31986765367
 21
-1283.892463554892
 31
0.0
  0
LINE
  5
1BB
330
2
100
AcDbEntity
  8
0
100
AcDbLine
 10
21707.31986765367
 20
-1283.892463554892
 30
0.0
 11
21707.33494940469
 21
-1283.89105692621
 31
0.0
  0
LINE
  5
1BC
330
2
100
AcDbEntity
  8
0
100
AcDbLine
 10
21707.33494940469
 20
-1283.89105692621
 30
0.0
 11
21707.35005050931
 21
-1283.889673666488
 31
0.0
  0
LINE
  5
1BD
330
2
100
AcDbEntity
  8
0
100
AcDbLine
 10
21707.35005050931
 20
-1283.889673666488
 30
0.0
 11
21707.36517071277
 21
-1283.888313419849
 31
0.0
  0
LINE
  5
1BE
330
2
100
AcDbEntity
  8
0
100
AcDbLine
 10
21707.36517071277
 20
-1283.888313419849
 30
0.0
 11
21707.38030976032
 21
-1283.886975830415
 31
0.0
  0
LINE
  5
1BF
330
2
100
AcDbEntity
  8
0
100
AcDbLine
 10
21707.38030976032
 20
-1283.886975830415
 30
0.0
 11
21707.39546739719
 21
-1283.885660542326
 31
0.0
  0
LINE
  5
1C0
330
2
100
AcDbEntity
  8
0
100
AcDbLine
 10
21707.39546739719
 20
-1283.885660542326
 30
0.0
 11
21707.41064336863
 21
-1283.8843671997
 31
0.0
  0
LINE
  5
1C1
330
2
100
AcDbEntity
  8
0
100
AcDbLine
 10
21707.41064336863
 20
-1283.8843671997
 30
0.0
 11
21707.42583741989
 21
-1283.883095446667
 31
0.0
  0
LINE
  5
1C2
330
2
100
AcDbEntity
  8
0
100
AcDbLine
 10
21707.42583741989
 20
-1283.883095446667
 30
0.0
 11
21707.4410492962
 21
-1283.881844927355
 31
0.0
  0
LINE
  5
1C3
330
2
100
AcDbEntity
  8
0
100
AcDbLine
 10
21707.4410492962
 20
-1283.881844927355
 30
0.0
 11
21707.4562787428
 21
-1283.880615285887
 31
0.0
  0
LINE
  5
1C4
330
2
100
AcDbEntity
  8
0
100
AcDbLine
 10
21707.4562787428
 20
-1283.880615285887
 30
0.0
 11
21707.47152550494
 21
-1283.879406166396
 31
0.0
  0
LINE
  5
1C5
330
2
100
AcDbEntity
  8
0
100
AcDbLine
 10
21707.47152550494
 20
-1283.879406166396
 30
0.0
 11
21707.48678932787
 21
-1283.878217213003
 31
0.0
  0
LINE
  5
1C6
330
2
100
AcDbEntity
  8
0
100
AcDbLine
 10
21707.48678932787
 20
-1283.878217213003
 30
0.0
 11
21707.50206995682
 21
-1283.877048069838
 31
0.0
  0
LINE
  5
1C7
330
2
100
AcDbEntity
  8
0
100
AcDbLine
 10
21707.50206995682
 20
-1283.877048069838
 30
0.0
 11
21707.51736713704
 21
-1283.875898381027
 31
0.0
  0
LINE
  5
1C8
330
2
100
AcDbEntity
  8
0
100
AcDbLine
 10
21707.51736713704
 20
-1283.875898381027
 30
0.0
 11
21707.53268061377
 21
-1283.874767790703
 31
0.0
  0
LINE
  5
1C9
330
2
100
AcDbEntity
  8
0
100
AcDbLine
 10
21707.53268061377
 20
-1283.874767790703
 30
0.0
 11
21707.54801013225
 21
-1283.873655942987
 31
0.0
  0
LINE
  5
1CA
330
2
100
AcDbEntity
  8
0
100
AcDbLine
 10
21707.54801013225
 20
-1283.873655942987
 30
0.0
 11
21707.56335543773
 21
-1283.872562482009
 31
0.0
  0
LINE
  5
1CB
330
2
100
AcDbEntity
  8
0
100
AcDbLine
 10
21707.56335543773
 20
-1283.872562482009
 30
0.0
 11
21707.57871627543
 21
-1283.871487051891
 31
0.0
  0
LINE
  5
1CC
330
2
100
AcDbEntity
  8
0
100
AcDbLine
 10
21707.57871627543
 20
-1283.871487051891
 30
0.0
 11
21707.59409239062
 21
-1283.870429296769
 31
0.0
  0
LINE
  5
1CD
330
2
100
AcDbEntity
  8
0
100
AcDbLine
 10
21707.59409239062
 20
-1283.870429296769
 30
0.0
 11
21707.60948352854
 21
-1283.869388860761
 31
0.0
  0
LINE
  5
1CE
330
2
100
AcDbEntity
  8
0
100
AcDbLine
 10
21707.60948352854
 20
-1283.869388860761
 30
0.0
 11
21707.62488943441
 21
-1283.868365388001
 31
0.0
  0
LINE
  5
1CF
330
2
100
AcDbEntity
  8
0
100
AcDbLine
 10
21707.62488943441
 20
-1283.868365388001
 30
0.0
 11
21707.64030985349
 21
-1283.867358522615
 31
0.0
  0
LINE
  5
1D0
330
2
100
AcDbEntity
  8
0
100
AcDbLine
 10
21707.64030985349
 20
-1283.867358522615
 30
0.0
 11
21707.65574453103
 21
-1283.866367908724
 31
0.0
  0
LINE
  5
1D1
330
2
100
AcDbEntity
  8
0
100
AcDbLine
 10
21707.65574453103
 20
-1283.866367908724
 30
0.0
 11
21707.67119321225
 21
-1283.865393190464
 31
0.0
  0
LINE
  5
1D2
330
2
100
AcDbEntity
  8
0
100
AcDbLine
 10
21707.67119321225
 20
-1283.865393190464
 30
0.0
 11
21707.68665564241
 21
-1283.864434011955
 31
0.0
  0
LINE
  5
1D3
330
2
100
AcDbEntity
  8
0
100
AcDbLine
 10
21707.68665564241
 20
-1283.864434011955
 30
0.0
 11
21707.70213156675
 21
-1283.863490017329
 31
0.0
  0
LINE
  5
1D4
330
2
100
AcDbEntity
  8
0
100
AcDbLine
 10
21707.70213156675
 20
-1283.863490017329
 30
0.0
 11
21707.7176207305
 21
-1283.862560850712
 31
0.0
  0
LINE
  5
1D5
330
2
100
AcDbEntity
  8
0
100
AcDbLine
 10
21707.7176207305
 20
-1283.862560850712
 30
0.0
 11
21707.73312287892
 21
-1283.861646156229
 31
0.0
  0
LINE
  5
1D6
330
2
100
AcDbEntity
  8
0
100
AcDbLine
 10
21707.73312287892
 20
-1283.861646156229
 30
0.0
 11
21707.74863775724
 21
-1283.860745578009
 31
0.0
  0
LINE
  5
1D7
330
2
100
AcDbEntity
  8
0
100
AcDbLine
 10
21707.74863775724
 20
-1283.860745578009
 30
0.0
 11
21707.76416511071
 21
-1283.859858760175
 31
0.0
  0
LINE
  5
1D8
330
2
100
AcDbEntity
  8
0
100
AcDbLine
 10
21707.76416511071
 20
-1283.859858760175
 30
0.0
 11
21707.77970468456
 21
-1283.858985346864
 31
0.0
  0
LINE
  5
1D9
330
2
100
AcDbEntity
  8
0
100
AcDbLine
 10
21707.77970468456
 20
-1283.858985346864
 30
0.0
 11
21707.79525622405
 21
-1283.858124982196
 31
0.0
  0
LINE
  5
1DA
330
2
100
AcDbEntity
  8
0
100
AcDbLine
 10
21707.79525622405
 20
-1283.858124982196
 30
0.0
 11
21707.81081947442
 21
-1283.857277310295
 31
0.0
  0
LINE
  5
1DB
330
2
100
AcDbEntity
  8
0
100
AcDbLine
 10
21707.81081947442
 20
-1283.857277310295
 30
0.0
 11
21707.8263941809
 21
-1283.856441975296
 31
0.0
  0
LINE
  5
1DC
330
2
100
AcDbEntity
  8
0
100
AcDbLine
 10
21707.8263941809
 20
-1283.856441975296
 30
0.0
 11
21707.84198008874
 21
-1283.855618621323
 31
0.0
  0
LINE
  5
1DD
330
2
100
AcDbEntity
  8
0
100
AcDbLine
 10
21707.84198008874
 20
-1283.855618621323
 30
0.0
 11
21707.85757694318
 21
-1283.854806892503
 31
0.0
  0
LINE
  5
1DE
330
2
100
AcDbEntity
  8
0
100
AcDbLine
 10
21707.85757694318
 20
-1283.854806892503
 30
0.0
 11
21707.87318448946
 21
-1283.854006432959
 31
0.0
  0
LINE
  5
1DF
330
2
100
AcDbEntity
  8
0
100
AcDbLine
 10
21707.87318448946
 20
-1283.854006432959
 30
0.0
 11
21707.88880247284
 21
-1283.85321688682
 31
0.0
  0
LINE
  5
1E0
330
2
100
AcDbEntity
  8
0
100
AcDbLine
 10
21707.88880247284
 20
-1283.85321688682
 30
0.0
 11
21707.90443063854
 21
-1283.85243789822
 31
0.0
  0
LINE
  5
1E1
330
2
100
AcDbEntity
  8
0
100
AcDbLine
 10
21707.90443063854
 20
-1283.85243789822
 30
0.0
 11
21707.92006873181
 21
-1283.851669111284
 31
0.0
  0
LINE
  5
1E2
330
2
100
AcDbEntity
  8
0
100
AcDbLine
 10
21707.92006873181
 20
-1283.851669111284
 30
0.0
 11
21707.9357164979
 21
-1283.850910170129
 31
0.0
  0
LINE
  5
1E3
330
2
100
AcDbEntity
  8
0
100
AcDbLine
 10
21707.9357164979
 20
-1283.850910170129
 30
0.0
 11
21707.95137368205
 21
-1283.850160718893
 31
0.0
  0
LINE
  5
1E4
330
2
100
AcDbEntity
  8
0
100
AcDbLine
 10
21707.95137368205
 20
-1283.850160718893
 30
0.0
 11
21707.96704002949
 21
-1283.849420401699
 31
0.0
  0
LINE
  5
1E5
330
2
100
AcDbEntity
  8
0
100
AcDbLine
 10
21707.96704002949
 20
-1283.849420401699
 30
0.0
 11
21707.98271528548
 21
-1283.848688862674
 31
0.0
  0
LINE
  5
1E6
330
2
100
AcDbEntity
  8
0
100
AcDbLine
 10
21707.98271528548
 20
-1283.848688862674
 30
0.0
 11
21707.99839919525
 21
-1283.847965745948
 31
0.0
  0
LINE
  5
1E7
330
2
100
AcDbEntity
  8
0
100
AcDbLine
 10
21707.99839919525
 20
-1283.847965745948
 30
0.0
 11
21708.01409150405
 21
-1283.847250695648
 31
0.0
  0
LINE
  5
1E8
330
2
100
AcDbEntity
  8
0
100
AcDbLine
 10
21708.01409150405
 20
-1283.847250695648
 30
0.0
 11
21708.02979195712
 21
-1283.846543355894
 31
0.0
  0
LINE
  5
1E9
330
2
100
AcDbEntity
  8
0
100
AcDbLine
 10
21708.02979195712
 20
-1283.846543355894
 30
0.0
 11
21708.04550029969
 21
-1283.84584337082
 31
0.0
  0
LINE
  5
1EA
330
2
100
AcDbEntity
  8
0
100
AcDbLine
 10
21708.04550029969
 20
-1283.84584337082
 30
0.0
 11
21708.06121627703
 21
-1283.845150384552
 31
0.0
  0
LINE
  5
1EB
330
2
100
AcDbEntity
  8
0
100
AcDbLine
 10
21708.06121627703
 20
-1283.845150384552
 30
0.0
 11
21708.07693963436
 21
-1283.844464041218
 31
0.0
  0
LINE
  5
1EC
330
2
100
AcDbEntity
  8
0
100
AcDbLine
 10
21708.07693963436
 20
-1283.844464041218
 30
0.0
 11
21708.09267011693
 21
-1283.843783984945
 31
0.0
  0
LINE
  5
1ED
330
2
100
AcDbEntity
  8
0
100
AcDbLine
 10
21708.09267011693
 20
-1283.843783984945
 30
0.0
 11
21708.10840746998
 21
-1283.843109859854
 31
0.0
  0
LINE
  5
1EE
330
2
100
AcDbEntity
  8
0
100
AcDbLine
 10
21708.10840746998
 20
-1283.843109859854
 30
0.0
 11
21708.12415143876
 21
-1283.842441310082
 31
0.0
  0
LINE
  5
1EF
330
2
100
AcDbEntity
  8
0
100
AcDbLine
 10
21708.12415143876
 20
-1283.842441310082
 30
0.0
 11
21708.1399017685
 21
-1283.841777979747
 31
0.0
  0
LINE
  5
1F0
330
2
100
AcDbEntity
  8
0
100
AcDbLine
 10
21708.1399017685
 20
-1283.841777979747
 30
0.0
 11
21708.15565820445
 21
-1283.841119512983
 31
0.0
  0
LINE
  5
1F1
330
2
100
AcDbEntity
  8
0
100
AcDbLine
 10
21708.15565820445
 20
-1283.841119512983
 30
0.0
 11
21708.17142049186
 21
-1283.840465553914
 31
0.0
  0
LINE
  5
1F2
330
2
100
AcDbEntity
  8
0
100
AcDbLine
 10
21708.17142049186
 20
-1283.840465553914
 30
0.0
 11
21708.18718837596
 21
-1283.839815746667
 31
0.0
  0
LINE
  5
1F3
330
2
100
AcDbEntity
  8
0
100
AcDbLine
 10
21708.18718837596
 20
-1283.839815746667
 30
0.0
 11
21708.20296160199
 21
-1283.839169735371
 31
0.0
  0
LINE
  5
1F4
330
2
100
AcDbEntity
  8
0
100
AcDbLine
 10
21708.20296160199
 20
-1283.839169735371
 30
0.0
 11
21708.21873991521
 21
-1283.838527164151
 31
0.0
  0
LINE
  5
1F5
330
2
100
AcDbEntity
  8
0
100
AcDbLine
 10
21708.21873991521
 20
-1283.838527164151
 30
0.0
 11
21708.23452306084
 21
-1283.837887677133
 31
0.0
  0
LINE
  5
1F6
330
2
100
AcDbEntity
  8
0
100
AcDbLine
 10
21708.23452306084
 20
-1283.837887677133
 30
0.0
 11
21708.25031078414
 21
-1283.83725091845
 31
0.0
  0
LINE
  5
1F7
330
2
100
AcDbEntity
  8
0
100
AcDbLine
 10
21708.25031078414
 20
-1283.83725091845
 30
0.0
 11
21708.26610283035
 21
-1283.836616532224
 31
0.0
  0
LINE
  5
1F8
330
2
100
AcDbEntity
  8
0
100
AcDbLine
 10
21708.26610283035
 20
-1283.836616532224
 30
0.0
 11
21708.28189894471
 21
-1283.835984162584
 31
0.0
  0
LINE
  5
1F9
330
2
100
AcDbEntity
  8
0
100
AcDbLine
 10
21708.28189894471
 20
-1283.835984162584
 30
0.0
 11
21708.29769887246
 21
-1283.835353453656
 31
0.0
  0
LINE
  5
1FA
330
2
100
AcDbEntity
  8
0
100
AcDbLine
 10
21708.29769887246
 20
-1283.835353453656
 30
0.0
 11
21708.31350235884
 21
-1283.834724049569
 31
0.0
  0
LINE
  5
1FB
330
2
100
AcDbEntity
  8
0
100
AcDbLine
 10
21708.31350235884
 20
-1283.834724049569
 30
0.0
 11
21708.32930914911
 21
-1283.834095594446
 31
0.0
  0
LINE
  5
1FC
330
2
100
AcDbEntity
  8
0
100
AcDbLine
 10
21708.32930914911
 20
-1283.834095594446
 30
0.0
 11
21708.34511898849
 21
-1283.833467732422
 31
0.0
  0
LINE
  5
1FD
330
2
100
AcDbEntity
  8
0
100
AcDbLine
 10
21708.34511898849
 20
-1283.833467732422
 30
0.0
 11
21708.36093162223
 21
-1283.832840107616
 31
0.0
  0
LINE
  5
1FE
330
2
100
AcDbEntity
  8
0
100
AcDbLine
 10
21708.36093162223
 20
-1283.832840107616
 30
0.0
 11
21708.37674679557
 21
-1283.832212364157
 31
0.0
  0
LINE
  5
1FF
330
2
100
AcDbEntity
  8
0
100
AcDbLine
 10
21708.37674679557
 20
-1283.832212364157
 30
0.0
 11
21708.39256425377
 21
-1283.831584146179
 31
0.0
  0
LINE
  5
200
330
2
100
AcDbEntity
  8
0
100
AcDbLine
 10
21708.39256425377
 20
-1283.831584146179
 30
0.0
 11
21708.40838374205
 21
-1283.830955097799
 31
0.0
  0
LINE
  5
201
330
2
100
AcDbEntity
  8
0
100
AcDbLine
 10
21708.40838374205
 20
-1283.830955097799
 30
0.0
 11
21708.42420500567
 21
-1283.830324863151
 31
0.0
  0
LINE
  5
202
330
2
100
AcDbEntity
  8
0
100
AcDbLine
 10
21708.42420500567
 20
-1283.830324863151
 30
0.0
 11
21708.44002778986
 21
-1283.82969308636
 31
0.0
  0
LINE
  5
203
330
2
100
AcDbEntity
  8
0
100
AcDbLine
 10
21708.44002778986
 20
-1283.82969308636
 30
0.0
 11
21708.45585183986
 21
-1283.829059411551
 31
0.0
  0
LINE
  5
204
330
2
100
AcDbEntity
  8
0
100
AcDbLine
 10
21708.45585183986
 20
-1283.829059411551
 30
0.0
 11
21708.47167690093
 21
-1283.828423482855
 31
0.0
  0
LINE
  5
205
330
2
100
AcDbEntity
  8
0
100
AcDbLine
 10
21708.47167690093
 20
-1283.828423482855
 30
0.0
 11
21708.4875027183
 21
-1283.8277849444
 31
0.0
  0
LINE
  5
206
330
2
100
AcDbEntity
  8
0
100
AcDbLine
 10
21708.4875027183
 20
-1283.8277849444
 30
0.0
 11
21708.50332903721
 21
-1283.827143440309
 31
0.0
  0
LINE
  5
207
330
2
100
AcDbEntity
  8
0
100
AcDbLine
 10
21708.50332903721
 20
-1283.827143440309
 30
0.0
 11
21708.51915560291
 21
-1283.826498614706
 31
0.0
  0
LINE
  5
208
330
2
100
AcDbEntity
  8
0
100
AcDbLine
 10
21708.51915560291
 20
-1283.826498614706
 30
0.0
 11
21708.53498216063
 21
-1283.825850111725
 31
0.0
  0
LINE
  5
209
330
2
100
AcDbEntity
  8
0
100
AcDbLine
 10
21708.53498216063
 20
-1283.825850111725
 30
0.0
 11
21708.55080845563
 21
-1283.825197575495
 31
0.0
  0
LINE
  5
20A
330
2
100
AcDbEntity
  8
0
100
AcDbLine
 10
21708.55080845563
 20
-1283.825197575495
 30
0.0
 11
21708.56663423315
 21
-1283.824540650139
 31
0.0
  0
LINE
  5
20B
330
2
100
AcDbEntity
  8
0
100
AcDbLine
 10
21708.56663423315
 20
-1283.824540650139
 30
0.0
 11
21708.58245923842
 21
-1283.823878979778
 31
0.0
  0
LINE
  5
20C
330
2
100
AcDbEntity
  8
0
100
AcDbLine
 10
21708.58245923842
 20
-1283.823878979778
 30
0.0
 11
21708.59828321669
 21
-1283.823212208552
 31
0.0
  0
LINE
  5
20D
330
2
100
AcDbEntity
  8
0
100
AcDbLine
 10
21708.59828321669
 20
-1283.823212208552
 30
0.0
 11
21708.6141059132
 21
-1283.82253998058
 31
0.0
  0
LINE
  5
20E
330
2
100
AcDbEntity
  8
0
100
AcDbLine
 10
21708.6141059132
 20
-1283.82253998058
 30
0.0
 11
21708.6299270732
 21
-1283.82186193999
 31
0.0
  0
LINE
  5
20F
330
2
100
AcDbEntity
  8
0
100
AcDbLine
 10
21708.6299270732
 20
-1283.82186193999
 30
0.0
 11
21708.64574644193
 21
-1283.82117773091
 31
0.0
  0
LINE
  5
210
330
2
100
AcDbEntity
  8
0
100
AcDbLine
 10
21708.64574644193
 20
-1283.82117773091
 30
0.0
 11
21708.66156376462
 21
-1283.820486997467
 31
0.0
  0
LINE
  5
211
330
2
100
AcDbEntity
  8
0
100
AcDbLine
 10
21708.66156376462
 20
-1283.820486997467
 30
0.0
 11
21708.67737878653
 21
-1283.819789383788
 31
0.0
  0
LINE
  5
212
330
2
100
AcDbEntity
  8
0
100
AcDbLine
 10
21708.67737878653
 20
-1283.819789383788
 30
0.0
 11
21708.69319125288
 21
-1283.819084534001
 31
0.0
  0
LINE
  5
213
330
2
100
AcDbEntity
  8
0
100
AcDbLine
 10
21708.69319125288
 20
-1283.819084534001
 30
0.0
 11
21708.70900090894
 21
-1283.818372092233
 31
0.0
  0
LINE
  5
214
330
2
100
AcDbEntity
  8
0
100
AcDbLine
 10
21708.70900090894
 20
-1283.818372092233
 30
0.0
 11
21708.72480749993
 21
-1283.817651702609
 31
0.0
  0
LINE
  5
215
330
2
100
AcDbEntity
  8
0
100
AcDbLine
 10
21708.72480749993
 20
-1283.817651702609
 30
0.0
 11
21708.74061077111
 21
-1283.816923009259
 31
0.0
  0
LINE
  5
216
330
2
100
AcDbEntity
  8
0
100
AcDbLine
 10
21708.74061077111
 20
-1283.816923009259
 30
0.0
 11
21708.75641046772
 21
-1283.816185656311
 31
0.0
  0
LINE
  5
217
330
2
100
AcDbEntity
  8
0
100
AcDbLine
 10
21708.75641046772
 20
-1283.816185656311
 30
0.0
 11
21708.77220633498
 21
-1283.815439287887
 31
0.0
  0
LINE
  5
218
330
2
100
AcDbEntity
  8
0
100
AcDbLine
 10
21708.77220633498
 20
-1283.815439287887
 30
0.0
 11
21708.78799811816
 21
-1283.814683548118
 31
0.0
  0
LINE
  5
219
330
2
100
AcDbEntity
  8
0
100
AcDbLine
 10
21708.78799811816
 20
-1283.814683548118
 30
0.0
 11
21708.80378556249
 21
-1283.813918081128
 31
0.0
  0
LINE
  5
21A
330
2
100
AcDbEntity
  8
0
100
AcDbLine
 10
21708.80378556249
 20
-1283.813918081128
 30
0.0
 11
21708.81956841322
 21
-1283.813142531051
 31
0.0
  0
LINE
  5
21B
330
2
100
AcDbEntity
  8
0
100
AcDbLine
 10
21708.81956841322
 20
-1283.813142531051
 30
0.0
 11
21708.83534641558
 21
-1283.812356542004
 31
0.0
  0
LINE
  5
21C
330
2
100
AcDbEntity
  8
0
100
AcDbLine
 10
21708.83534641558
 20
-1283.812356542004
 30
0.0
 11
21708.85111931482
 21
-1283.811559758125
 31
0.0
  0
LINE
  5
21D
330
2
100
AcDbEntity
  8
0
100
AcDbLine
 10
21708.85111931482
 20
-1283.811559758125
 30
0.0
 11
21708.86688685619
 21
-1283.810751823535
 31
0.0
  0
LINE
  5
21E
330
2
100
AcDbEntity
  8
0
100
AcDbLine
 10
21708.86688685619
 20
-1283.810751823535
 30
0.0
 11
21708.88264878492
 21
-1283.809932382364
 31
0.0
  0
LINE
  5
21F
330
2
100
AcDbEntity
  8
0
100
AcDbLine
 10
21708.88264878492
 20
-1283.809932382364
 30
0.0
 11
21708.89840484625
 21
-1283.809101078734
 31
0.0
  0
LINE
  5
220
330
2
100
AcDbEntity
  8
0
100
AcDbLine
 10
21708.89840484625
 20
-1283.809101078734
 30
0.0
 11
21708.91415478544
 21
-1283.808257556777
 31
0.0
  0
LINE
  5
221
330
2
100
AcDbEntity
  8
0
100
AcDbLine
 10
21708.91415478544
 20
-1283.808257556777
 30
0.0
 11
21708.92989834771
 21
-1283.807401460615
 31
0.0
  0
LINE
  5
222
330
2
100
AcDbEntity
  8
0
100
AcDbLine
 10
21708.92989834771
 20
-1283.807401460615
 30
0.0
 11
21708.94563527832
 21
-1283.806532434382
 31
0.0
  0
LINE
  5
223
330
2
100
AcDbEntity
  8
0
100
AcDbLine
 10
21708.94563527832
 20
-1283.806532434382
 30
0.0
 11
21708.96136532251
 21
-1283.805650122203
 31
0.0
  0
LINE
  5
224
330
2
100
AcDbEntity
  8
0
100
AcDbLine
 10
21708.96136532251
 20
-1283.805650122203
 30
0.0
 11
21708.97708822551
 21
-1283.804754168201
 31
0.0
  0
LINE
  5
225
330
2
100
AcDbEntity
  8
0
100
AcDbLine
 10
21708.97708822551
 20
-1283.804754168201
 30
0.0
 11
21708.99280373259
 21
-1283.803844216507
 31
0.0
  0
LINE
  5
226
330
2
100
AcDbEntity
  8
0
100
AcDbLine
 10
21708.99280373259
 20
-1283.803844216507
 30
0.0
 11
21709.00851158896
 21
-1283.802919911248
 31
0.0
  0
LINE
  5
227
330
2
100
AcDbEntity
  8
0
100
AcDbLine
 10
21709.00851158896
 20
-1283.802919911248
 30
0.0
 11
21709.02421153988
 21
-1283.801980896549
 31
0.0
  0
LINE
  5
228
330
2
100
AcDbEntity
  8
0
100
AcDbLine
 10
21709.02421153988
 20
-1283.801980896549
 30
0.0
 11
21709.03990333059
 21
-1283.80102681654
 31
0.0
  0
LINE
  5
229
330
2
100
AcDbEntity
  8
0
100
AcDbLine
 10
21709.03990333059
 20
-1283.80102681654
 30
0.0
 11
21709.05558670633
 21
-1283.800057315349
 31
0.0
  0
LINE
  5
22A
330
2
100
AcDbEntity
  8
0
100
AcDbLine
 10
21709.05558670633
 20
-1283.800057315349
 30
0.0
 11
21709.07126141234
 21
-1283.799072037096
 31
0.0
  0
LINE
  5
22B
330
2
100
AcDbEntity
  8
0
100
AcDbLine
 10
21709.07126141234
 20
-1283.799072037096
 30
0.0
 11
21709.08692719387
 21
-1283.79807062592
 31
0.0
  0
LINE
  5
22C
330
2
100
AcDbEntity
  8
0
100
AcDbLine
 10
21709.08692719387
 20
-1283.79807062592
 30
0.0
 11
21709.10258379617
 21
-1283.797052725933
 31
0.0
  0
LINE
  5
22D
330
2
100
AcDbEntity
  8
0
100
AcDbLine
 10
21709.10258379617
 20
-1283.797052725933
 30
0.0
 11
21709.11823096446
 21
-1283.796017981274
 31
0.0
  0
LINE
  5
22E
330
2
100
AcDbEntity
  8
0
100
AcDbLine
 10
21709.11823096446
 20
-1283.796017981274
 30
0.0
 11
21709.133868444
 21
-1283.79496603607
 31
0.0
  0
LINE
  5
22F
330
2
100
AcDbEntity
  8
0
100
AcDbLine
 10
21709.133868444
 20
-1283.79496603607
 30
0.0
 11
21709.14949598003
 21
-1283.793896534438
 31
0.0
  0
LINE
  5
230
330
2
100
AcDbEntity
  8
0
100
AcDbLine
 10
21709.14949598003
 20
-1283.793896534438
 30
0.0
 11
21709.16511331778
 21
-1283.792809120516
 31
0.0
  0
LINE
  5
231
330
2
100
AcDbEntity
  8
0
100
AcDbLine
 10
21709.16511331778
 20
-1283.792809120516
 30
0.0
 11
21709.18072020251
 21
-1283.791703438424
 31
0.0
  0
LINE
  5
232
330
2
100
AcDbEntity
  8
0
100
AcDbLine
 10
21709.18072020251
 20
-1283.791703438424
 30
0.0
 11
21709.19631637945
 21
-1283.790579132294
 31
0.0
  0
LINE
  5
233
330
2
100
AcDbEntity
  8
0
100
AcDbLine
 10
21709.19631637945
 20
-1283.790579132294
 30
0.0
 11
21709.21190159385
 21
-1283.789435846253
 31
0.0
  0
LINE
  5
234
330
2
100
AcDbEntity
  8
0
100
AcDbLine
 10
21709.21190159385
 20
-1283.789435846253
 30
0.0
 11
21709.22747559095
 21
-1283.788273224427
 31
0.0
  0
LINE
  5
235
330
2
100
AcDbEntity
  8
0
100
AcDbLine
 10
21709.22747559095
 20
-1283.788273224427
 30
0.0
 11
21709.24303811598
 21
-1283.787090910939
 31
0.0
  0
LINE
  5
236
330
2
100
AcDbEntity
  8
0
100
AcDbLine
 10
21709.24303811598
 20
-1283.787090910939
 30
0.0
 11
21709.25858891421
 21
-1283.785888549917
 31
0.0
  0
LINE
  5
237
330
2
100
AcDbEntity
  8
0
100
AcDbLine
 10
21709.25858891421
 20
-1283.785888549917
 30
0.0
 11
21709.27412773086
 21
-1283.784665785499
 31
0.0
  0
LINE
  5
238
330
2
100
AcDbEntity
  8
0
100
AcDbLine
 10
21709.27412773086
 20
-1283.784665785499
 30
0.0
 11
21709.28965431118
 21
-1283.783422261798
 31
0.0
  0
LINE
  5
239
330
2
100
AcDbEntity
  8
0
100
AcDbLine
 10
21709.28965431118
 20
-1283.783422261798
 30
0.0
 11
21709.30516840041
 21
-1283.782157622949
 31
0.0
  0
LINE
  5
23A
330
2
100
AcDbEntity
  8
0
100
AcDbLine
 10
21709.30516840041
 20
-1283.782157622949
 30
0.0
 11
21709.3206697438
 21
-1283.780871513076
 31
0.0
  0
LINE
  5
23B
330
2
100
AcDbEntity
  8
0
100
AcDbLine
 10
21709.3206697438
 20
-1283.780871513076
 30
0.0
 11
21709.33615808658
 21
-1283.779563576308
 31
0.0
  0
LINE
  5
23C
330
2
100
AcDbEntity
  8
0
100
AcDbLine
 10
21709.33615808658
 20
-1283.779563576308
 30
0.0
 11
21709.351633174
 21
-1283.778233456769
 31
0.0
  0
LINE
  5
23D
330
2
100
AcDbEntity
  8
0
100
AcDbLine
 10
21709.351633174
 20
-1283.778233456769
 30
0.0
 11
21709.36709475131
 21
-1283.776880798594
 31
0.0
  0
LINE
  5
23E
330
2
100
AcDbEntity
  8
0
100
AcDbLine
 10
21709.36709475131
 20
-1283.776880798594
 30
0.0
 11
21709.38254256374
 21
-1283.775505245901
 31
0.0
  0
LINE
  5
23F
330
2
100
AcDbEntity
  8
0
100
AcDbLine
 10
21709.38254256374
 20
-1283.775505245901
 30
0.0
 11
21709.39797635654
 21
-1283.774106442821
 31
0.0
  0
LINE
  5
240
330
2
100
AcDbEntity
  8
0
100
AcDbLine
 10
21709.39797635654
 20
-1283.774106442821
 30
0.0
 11
21709.41339587495
 21
-1283.772684033482
 31
0.0
  0
LINE
  5
241
330
2
100
AcDbEntity
  8
0
100
AcDbLine
 10
21709.41339587495
 20
-1283.772684033482
 30
0.0
 11
21709.4288008642
 21
-1283.771237662013
 31
0.0
  0
LINE
  5
242
330
2
100
AcDbEntity
  8
0
100
AcDbLine
 10
21709.4288008642
 20
-1283.771237662013
 30
0.0
 11
21709.44419106955
 21
-1283.769766972533
 31
0.0
  0
LINE
  5
243
330
2
100
AcDbEntity
  8
0
100
AcDbLine
 10
21709.44419106955
 20
-1283.769766972533
 30
0.0
 11
21709.45956623624
 21
-1283.768271609182
 31
0.0
  0
LINE
  5
244
330
2
100
AcDbEntity
  8
0
100
AcDbLine
 10
21709.45956623624
 20
-1283.768271609182
 30
0.0
 11
21709.47492610951
 21
-1283.766751216071
 31
0.0
  0
LINE
  5
245
330
2
100
AcDbEntity
  8
0
100
AcDbLine
 10
21709.47492610951
 20
-1283.766751216071
 30
0.0
 11
21709.4902704346
 21
-1283.765205437341
 31
0.0
  0
LINE
  5
246
330
2
100
AcDbEntity
  8
0
100
AcDbLine
 10
21709.4902704346
 20
-1283.765205437341
 30
0.0
 11
21709.50559895676
 21
-1283.763633917113
 31
0.0
  0
LINE
  5
247
330
2
100
AcDbEntity
  8
0
100
AcDbLine
 10
21709.50559895676
 20
-1283.763633917113
 30
0.0
 11
21709.52091142122
 21
-1283.762036299517
 31
0.0
  0
LINE
  5
248
330
2
100
AcDbEntity
  8
0
100
AcDbLine
 10
21709.52091142122
 20
-1283.762036299517
 30
0.0
 11
21709.53620757323
 21
-1283.760412228674
 31
0.0
  0
LINE
  5
249
330
2
100
AcDbEntity
  8
0
100
AcDbLine
 10
21709.53620757323
 20
-1283.760412228674
 30
0.0
 11
21709.55148715803
 21
-1283.758761348721
 31
0.0
  0
LINE
  5
24A
330
2
100
AcDbEntity
  8
0
100
AcDbLine
 10
21709.55148715803
 20
-1283.758761348721
 30
0.0
 11
21709.56674992087
 21
-1283.757083303773
 31
0.0
  0
LINE
  5
24B
330
2
100
AcDbEntity
  8
0
100
AcDbLine
 10
21709.56674992087
 20
-1283.757083303773
 30
0.0
 11
21709.58199560699
 21
-1283.755377737967
 31
0.0
  0
LINE
  5
24C
330
2
100
AcDbEntity
  8
0
100
AcDbLine
 10
21709.58199560699
 20
-1283.755377737967
 30
0.0
 11
21709.59722396162
 21
-1283.753644295428
 31
0.0
  0
LINE
  5
24D
330
2
100
AcDbEntity
  8
0
100
AcDbLine
 10
21709.59722396162
 20
-1283.753644295428
 30
0.0
 11
21709.61243473002
 21
-1283.751882620281
 31
0.0
  0
LINE
  5
24E
330
2
100
AcDbEntity
  8
0
100
AcDbLine
 10
21709.61243473002
 20
-1283.751882620281
 30
0.0
 11
21709.62762765742
 21
-1283.750092356657
 31
0.0
  0
LINE
  5
24F
330
2
100
AcDbEntity
  8
0
100
AcDbLine
 10
21709.62762765742
 20
-1283.750092356657
 30
0.0
 11
21709.64280248907
 21
-1283.748273148676
 31
0.0
  0
LINE
  5
250
330
2
100
AcDbEntity
  8
0
100
AcDbLine
 10
21709.64280248907
 20
-1283.748273148676
 30
0.0
 11
21709.6579589702
 21
-1283.746424640472
 31
0.0
  0
LINE
  5
251
330
2
100
AcDbEntity
  8
0
100
AcDbLine
 10
21709.6579589702
 20
-1283.746424640472
 30
0.0
 11
21709.67309684607
 21
-1283.744546476164
 31
0.0
  0
LINE
  5
252
330
2
100
AcDbEntity
  8
0
100
AcDbLine
 10
21709.67309684607
 20
-1283.744546476164
 30
0.0
 11
21709.68821586192
 21
-1283.742638299891
 31
0.0
  0
LINE
  5
253
330
2
100
AcDbEntity
  8
0
100
AcDbLine
 10
21709.68821586192
 20
-1283.742638299891
 30
0.0
 11
21709.70331576298
 21
-1283.740699755772
 31
0.0
  0
LINE
  5
254
330
2
100
AcDbEntity
  8
0
100
AcDbLine
 10
21709.70331576298
 20
-1283.740699755772
 30
0.0
 11
21709.7183962945
 21
-1283.738730487939
 31
0.0
  0
LINE
  5
255
330
2
100
AcDbEntity
  8
0
100
AcDbLine
 10
21709.7183962945
 20
-1283.738730487939
 30
0.0
 11
21709.73345720172
 21
-1283.736730140512
 31
0.0
  0
LINE
  5
256
330
2
100
AcDbEntity
  8
0
100
AcDbLine
 10
21709.73345720172
 20
-1283.736730140512
 30
0.0
 11
21709.74849822989
 21
-1283.734698357623
 31
0.0
  0
LINE
  5
257
330
2
100
AcDbEntity
  8
0
100
AcDbLine
 10
21709.74849822989
 20
-1283.734698357623
 30
0.0
 11
21709.76351912424
 21
-1283.732634783397
 31
0.0
  0
LINE
  5
258
330
2
100
AcDbEntity
  8
0
100
AcDbLine
 10
21709.76351912424
 20
-1283.732634783397
 30
0.0
 11
21709.77851963002
 21
-1283.730539061967
 31
0.0
  0
LINE
  5
259
330
2
100
AcDbEntity
  8
0
100
AcDbLine
 10
21709.77851963002
 20
-1283.730539061967
 30
0.0
 11
21709.79349949248
 21
-1283.728410837453
 31
0.0
  0
LINE
  5
25A
330
2
100
AcDbEntity
  8
0
100
AcDbLine
 10
21709.79349949248
 20
-1283.728410837453
 30
0.0
 11
21709.80845845685
 21
-1283.726249753987
 31
0.0
  0
LINE
  5
25B
330
2
100
AcDbEntity
  8
0
100
AcDbLine
 10
21709.80845845685
 20
-1283.726249753987
 30
0.0
 11
21709.82339626837
 21
-1283.724055455694
 31
0.0
  0
LINE
  5
25C
330
2
100
AcDbEntity
  8
0
100
AcDbLine
 10
21709.82339626837
 20
-1283.724055455694
 30
0.0
 11
21709.8383126723
 21
-1283.7218275867
 31
0.0
  0
LINE
  5
25D
330
2
100
AcDbEntity
  8
0
100
AcDbLine
 10
21709.8383126723
 20
-1283.7218275867
 30
0.0
 11
21709.85320741387
 21
-1283.719565791131
 31
0.0
  0
LINE
  5
25E
330
2
100
AcDbEntity
  8
0
100
AcDbLine
 10
21709.85320741387
 20
-1283.719565791131
 30
0.0
 11
21709.86808023832
 21
-1283.717269713119
 31
0.0
  0
LINE
  5
25F
330
2
100
AcDbEntity
  8
0
100
AcDbLine
 10
21709.86808023832
 20
-1283.717269713119
 30
0.0
 11
21709.8829308909
 21
-1283.714938996787
 31
0.0
  0
LINE
  5
260
330
2
100
AcDbEntity
  8
0
100
AcDbLine
 10
21709.8829308909
 20
-1283.714938996787
 30
0.0
 11
21709.89775911684
 21
-1283.712573286264
 31
0.0
  0
LINE
  5
261
330
2
100
AcDbEntity
  8
0
100
AcDbLine
 10
21709.89775911684
 20
-1283.712573286264
 30
0.0
 11
21709.91256466141
 21
-1283.710172225679
 31
0.0
  0
LINE
  5
262
330
2
100
AcDbEntity
  8
0
100
AcDbLine
 10
21709.91256466141
 20
-1283.710172225679
 30
0.0
 11
21709.92734726982
 21
-1283.707735459155
 31
0.0
  0
LINE
  5
263
330
2
100
AcDbEntity
  8
0
100
AcDbLine
 10
21709.92734726982
 20
-1283.707735459155
 30
0.0
 11
21709.94210668733
 21
-1283.705262630823
 31
0.0
  0
LINE
  5
264
330
2
100
AcDbEntity
  8
0
100
AcDbLine
 10
21709.94210668733
 20
-1283.705262630823
 30
0.0
 11
21709.95684265919
 21
-1283.70275338481
 31
0.0
  0
LINE
  5
265
330
2
100
AcDbEntity
  8
0
100
AcDbLine
 10
21709.95684265919
 20
-1283.70275338481
 30
0.0
 11
21709.97155493062
 21
-1283.700207365238
 31
0.0
  0
LINE
  5
266
330
2
100
AcDbEntity
  8
0
100
AcDbLine
 10
21709.97155493062
 20
-1283.700207365238
 30
0.0
 11
21709.98624324688
 21
-1283.69762421624
 31
0.0
  0
LINE
  5
267
330
2
100
AcDbEntity
  8
0
100
AcDbLine
 10
21709.98624324688
 20
-1283.69762421624
 30
0.0
 11
21710.0009073532
 21
-1283.695003581941
 31
0.0
  0
LINE
  5
268
330
2
100
AcDbEntity
  8
0
100
AcDbLine
 10
21710.0009073532
 20
-1283.695003581941
 30
0.0
 11
21710.01554699484
 21
-1283.692345106467
 31
0.0
  0
LINE
  5
269
330
2
100
AcDbEntity
  8
0
100
AcDbLine
 10
21710.01554699484
 20
-1283.692345106467
 30
0.0
 11
21710.03016191702
 21
-1283.689648433947
 31
0.0
  0
LINE
  5
26A
330
2
100
AcDbEntity
  8
0
100
AcDbLine
 10
21710.03016191702
 20
-1283.689648433947
 30
0.0
 11
21710.044751865
 21
-1283.686913208506
 31
0.0
  0
LINE
  5
26B
330
2
100
AcDbEntity
  8
0
100
AcDbLine
 10
21710.044751865
 20
-1283.686913208506
 30
0.0
 11
21710.05931658402
 21
-1283.684139074272
 31
0.0
  0
LINE
  5
26C
330
2
100
AcDbEntity
  8
0
100
AcDbLine
 10
21710.05931658402
 20
-1283.684139074272
 30
0.0
 11
21710.07385581932
 21
-1283.681325675372
 31
0.0
  0
LINE
  5
26D
330
2
100
AcDbEntity
  8
0
100
AcDbLine
 10
21710.07385581932
 20
-1283.681325675372
 30
0.0
 11
21710.08836931613
 21
-1283.678472655936
 31
0.0
  0
LINE
  5
26E
330
2
100
AcDbEntity
  8
0
100
AcDbLine
 10
21710.08836931613
 20
-1283.678472655936
 30
0.0
 11
21710.10285681972
 21
-1283.675579660086
 31
0.0
  0
LINE
  5
26F
330
2
100
AcDbEntity
  8
0
100
AcDbLine
 10
21710.10285681972
 20
-1283.675579660086
 30
0.0
 11
21710.11731807531
 21
-1283.672646331952
 31
0.0
  0
LINE
  5
270
330
2
100
AcDbEntity
  8
0
100
AcDbLine
 10
21710.11731807531
 20
-1283.672646331952
 30
0.0
 11
21710.13175282815
 21
-1283.669672315665
 31
0.0
  0
LINE
  5
271
330
2
100
AcDbEntity
  8
0
100
AcDbLine
 10
21710.13175282815
 20
-1283.669672315665
 30
0.0
 11
21710.14616082348
 21
-1283.666657255346
 31
0.0
  0
LINE
  5
272
330
2
100
AcDbEntity
  8
0
100
AcDbLine
 10
21710.14616082348
 20
-1283.666657255346
 30
0.0
 11
21710.16054180655
 21
-1283.663600795125
 31
0.0
  0
LINE
  5
273
330
2
100
AcDbEntity
  8
0
100
AcDbLine
 10
21710.16054180655
 20
-1283.663600795125
 30
0.0
 11
21710.17489552259
 21
-1283.66050257913
 31
0.0
  0
LINE
  5
274
330
2
100
AcDbEntity
  8
0
100
AcDbLine
 10
21710.17489552259
 20
-1283.66050257913
 30
0.0
 11
21710.18922171685
 21
-1283.657362251482
 31
0.0
  0
LINE
  5
275
330
2
100
AcDbEntity
  8
0
100
AcDbLine
 10
21710.18922171685
 20
-1283.657362251482
 30
0.0
 11
21710.20352013458
 21
-1283.654179456318
 31
0.0
  0
LINE
  5
276
330
2
100
AcDbEntity
  8
0
100
AcDbLine
 10
21710.20352013458
 20
-1283.654179456318
 30
0.0
 11
21710.21779052101
 21
-1283.650953837759
 31
0.0
  0
LINE
  5
277
330
2
100
AcDbEntity
  8
0
100
AcDbLine
 10
21710.21779052101
 20
-1283.650953837759
 30
0.0
 11
21710.23203262139
 21
-1283.647685039928
 31
0.0
  0
LINE
  5
278
330
2
100
AcDbEntity
  8
0
100
AcDbLine
 10
21710.23203262139
 20
-1283.647685039928
 30
0.0
 11
21710.24624618095
 21
-1283.644372706965
 31
0.0
  0
LINE
  5
279
330
2
100
AcDbEntity
  8
0
100
AcDbLine
 10
21710.24624618095
 20
-1283.644372706965
 30
0.0
 11
21710.26043094495
 21
-1283.641016482985
 31
0.0
  0
LINE
  5
27A
330
2
100
AcDbEntity
  8
0
100
AcDbLine
 10
21710.26043094495
 20
-1283.641016482985
 30
0.0
 11
21710.27458665862
 21
-1283.63761601212
 31
0.0
  0
LINE
  5
27B
330
2
100
AcDbEntity
  8
0
100
AcDbLine
 10
21710.27458665862
 20
-1283.63761601212
 30
0.0
 11
21710.28871306721
 21
-1283.634170938496
 31
0.0
  0
LINE
  5
27C
330
2
100
AcDbEntity
  8
0
100
AcDbLine
 10
21710.28871306721
 20
-1283.634170938496
 30
0.0
 11
21710.30280991596
 21
-1283.630680906242
 31
0.0
  0
LINE
  5
27D
330
2
100
AcDbEntity
  8
0
100
AcDbLine
 10
21710.30280991596
 20
-1283.630680906242
 30
0.0
 11
21710.31687695011
 21
-1283.627145559485
 31
0.0
  0
LINE
  5
27E
330
2
100
AcDbEntity
  8
0
100
AcDbLine
 10
21710.31687695011
 20
-1283.627145559485
 30
0.0
 11
21710.33091391491
 21
-1283.623564542353
 31
0.0
  0
LINE
  5
27F
330
2
100
AcDbEntity
  8
0
100
AcDbLine
 10
21710.33091391491
 20
-1283.623564542353
 30
0.0
 11
21710.34492055559
 21
-1283.619937498968
 31
0.0
  0
LINE
  5
280
330
2
100
AcDbEntity
  8
0
100
AcDbLine
 10
21710.34492055559
 20
-1283.619937498968
 30
0.0
 11
21710.3588966174
 21
-1283.61626407346
 31
0.0
  0
LINE
  5
281
330
2
100
AcDbEntity
  8
0
100
AcDbLine
 10
21710.3588966174
 20
-1283.61626407346
 30
0.0
 11
21710.37284184558
 21
-1283.612543909958
 31
0.0
  0
LINE
  5
282
330
2
100
AcDbEntity
  8
0
100
AcDbLine
 10
21710.37284184558
 20
-1283.612543909958
 30
0.0
 11
21710.38675598538
 21
-1283.608776652587
 31
0.0
  0
LINE
  5
283
330
2
100
AcDbEntity
  8
0
100
AcDbLine
 10
21710.38675598538
 20
-1283.608776652587
 30
0.0
 11
21710.40063878204
 21
-1283.604961945473
 31
0.0
  0
LINE
  5
284
330
2
100
AcDbEntity
  8
0
100
AcDbLine
 10
21710.40063878204
 20
-1283.604961945473
 30
0.0
 11
21710.41448998079
 21
-1283.60109943275
 31
0.0
  0
LINE
  5
285
330
2
100
AcDbEntity
  8
0
100
AcDbLine
 10
21710.41448998079
 20
-1283.60109943275
 30
0.0
 11
21710.42830932689
 21
-1283.597188758538
 31
0.0
  0
LINE
  5
286
330
2
100
AcDbEntity
  8
0
100
AcDbLine
 10
21710.42830932689
 20
-1283.597188758538
 30
0.0
 11
21710.44209656557
 21
-1283.593229566964
 31
0.0
  0
LINE
  5
287
330
2
100
AcDbEntity
  8
0
100
AcDbLine
 10
21710.44209656557
 20
-1283.593229566964
 30
0.0
 11
21710.45585144208
 21
-1283.589221502161
 31
0.0
  0
LINE
  5
288
330
2
100
AcDbEntity
  8
0
100
AcDbLine
 10
21710.45585144208
 20
-1283.589221502161
 30
0.0
 11
21710.46957370166
 21
-1283.585164208251
 31
0.0
  0
LINE
  5
289
330
2
100
AcDbEntity
  8
0
100
AcDbLine
 10
21710.46957370166
 20
-1283.585164208251
 30
0.0
 11
21710.48326308954
 21
-1283.581057329366
 31
0.0
  0
LINE
  5
28A
330
2
100
AcDbEntity
  8
0
100
AcDbLine
 10
21710.48326308954
 20
-1283.581057329366
 30
0.0
 11
21710.49691935099
 21
-1283.576900509624
 31
0.0
  0
LINE
  5
28B
330
2
100
AcDbEntity
  8
0
100
AcDbLine
 10
21710.49691935099
 20
-1283.576900509624
 30
0.0
 11
21710.51054223123
 21
-1283.57269339316
 31
0.0
  0
LINE
  5
28C
330
2
100
AcDbEntity
  8
0
100
AcDbLine
 10
21710.51054223123
 20
-1283.57269339316
 30
0.0
 11
21710.52413147551
 21
-1283.568435624105
 31
0.0
  0
LINE
  5
28D
330
2
100
AcDbEntity
  8
0
100
AcDbLine
 10
21710.52413147551
 20
-1283.568435624105
 30
0.0
 11
21710.53768682907
 21
-1283.564126846571
 31
0.0
  0
LINE
  5
28E
330
2
100
AcDbEntity
  8
0
100
AcDbLine
 10
21710.53768682907
 20
-1283.564126846571
 30
0.0
 11
21710.55120803716
 21
-1283.559766704702
 31
0.0
  0
LINE
  5
28F
330
2
100
AcDbEntity
  8
0
100
AcDbLine
 10
21710.55120803716
 20
-1283.559766704702
 30
0.0
 11
21710.56469484502
 21
-1283.555354842616
 31
0.0
  0
LINE
  5
290
330
2
100
AcDbEntity
  8
0
100
AcDbLine
 10
21710.56469484502
 20
-1283.555354842616
 30
0.0
 11
21710.57814699788
 21
-1283.550890904438
 31
0.0
  0
LINE
  5
291
330
2
100
AcDbEntity
  8
0
100
AcDbLine
 10
21710.57814699788
 20
-1283.550890904438
 30
0.0
 11
21710.59156424099
 21
-1283.546374534302
 31
0.0
  0
LINE
  5
292
330
2
100
AcDbEntity
  8
0
100
AcDbLine
 10
21710.59156424099
 20
-1283.546374534302
 30
0.0
 11
21710.60494631961
 21
-1283.541805376337
 31
0.0
  0
LINE
  5
293
330
2
100
AcDbEntity
  8
0
100
AcDbLine
 10
21710.60494631961
 20
-1283.541805376337
 30
0.0
 11
21710.61829297896
 21
-1283.537183074661
 31
0.0
  0
LINE
  5
294
330
2
100
AcDbEntity
  8
0
100
AcDbLine
 10
21710.61829297896
 20
-1283.537183074661
 30
0.0
 11
21710.63160396428
 21
-1283.532507273399
 31
0.0
  0
LINE
  5
295
330
2
100
AcDbEntity
  8
0
100
AcDbLine
 10
21710.63160396428
 20
-1283.532507273399
 30
0.0
 11
21710.64487902083
 21
-1283.527777616693
 31
0.0
  0
LINE
  5
296
330
2
100
AcDbEntity
  8
0
100
AcDbLine
 10
21710.64487902083
 20
-1283.527777616693
 30
0.0
 11
21710.65811789384
 21
-1283.52299374866
 31
0.0
  0
LINE
  5
297
330
2
100
AcDbEntity
  8
0
100
AcDbLine
 10
21710.65811789384
 20
-1283.52299374866
 30
0.0
 11
21710.67132032856
 21
-1283.518155313426
 31
0.0
  0
LINE
  5
298
330
2
100
AcDbEntity
  8
0
100
AcDbLine
 10
21710.67132032856
 20
-1283.518155313426
 30
0.0
 11
21710.68448607023
 21
-1283.513261955124
 31
0.0
  0
LINE
  5
299
330
2
100
AcDbEntity
  8
0
100
AcDbLine
 10
21710.68448607023
 20
-1283.513261955124
 30
0.0
 11
21710.6976148641
 21
-1283.508313317879
 31
0.0
  0
LINE
  5
29A
330
2
100
AcDbEntity
  8
0
100
AcDbLine
 10
21710.6976148641
 20
-1283.508313317879
 30
0.0
 11
21710.71070645539
 21
-1283.503309045815
 31
0.0
  0
LINE
  5
29B
330
2
100
AcDbEntity
  8
0
100
AcDbLine
 10
21710.71070645539
 20
-1283.503309045815
 30
0.0
 11
21710.72376058936
 21
-1283.498248783058
 31
0.0
  0
LINE
  5
29C
330
2
100
AcDbEntity
  8
0
100
AcDbLine
 10
21710.72376058936
 20
-1283.498248783058
 30
0.0
 11
21710.73677701126
 21
-1283.493132173747
 31
0.0
  0
LINE
  5
29D
330
2
100
AcDbEntity
  8
0
100
AcDbLine
 10
21710.73677701126
 20
-1283.493132173747
 30
0.0
 11
21710.74975546631
 21
-1283.487958861997
 31
0.0
  0
LINE
  5
29E
330
2
100
AcDbEntity
  8
0
100
AcDbLine
 10
21710.74975546631
 20
-1283.487958861997
 30
0.0
 11
21710.76269569977
 21
-1283.482728491935
 31
0.0
  0
LINE
  5
29F
330
2
100
AcDbEntity
  8
0
100
AcDbLine
 10
21710.76269569977
 20
-1283.482728491935
 30
0.0
 11
21710.77559745687
 21
-1283.477440707693
 31
0.0
  0
LINE
  5
2A0
330
2
100
AcDbEntity
  8
0
100
AcDbLine
 10
21710.77559745687
 20
-1283.477440707693
 30
0.0
 11
21710.78846048287
 21
-1283.472095153402
 31
0.0
  0
LINE
  5
2A1
330
2
100
AcDbEntity
  8
0
100
AcDbLine
 10
21710.78846048287
 20
-1283.472095153402
 30
0.0
 11
21710.801284523
 21
-1283.46669147318
 31
0.0
  0
LINE
  5
2A2
330
2
100
AcDbEntity
  8
0
100
AcDbLine
 10
21710.801284523
 20
-1283.46669147318
 30
0.0
 11
21710.8140693225
 21
-1283.461229311162
 31
0.0
  0
LINE
  5
2A3
330
2
100
AcDbEntity
  8
0
100
AcDbLine
 10
21710.8140693225
 20
-1283.461229311162
 30
0.0
 11
21710.82681462662
 21
-1283.455708311469
 31
0.0
  0
LINE
  5
2A4
330
2
100
AcDbEntity
  8
0
100
AcDbLine
 10
21710.82681462662
 20
-1283.455708311469
 30
0.0
 11
21710.8395201806
 21
-1283.450128118233
 31
0.0
  0
LINE
  5
2A5
330
2
100
AcDbEntity
  8
0
100
AcDbLine
 10
21710.8395201806
 20
-1283.450128118233
 30
0.0
 11
21710.85218572968
 21
-1283.444488375577
 31
0.0
  0
LINE
  5
2A6
330
2
100
AcDbEntity
  8
0
100
AcDbLine
 10
21710.85218572968
 20
-1283.444488375577
 30
0.0
 11
21710.8648110191
 21
-1283.43878872763
 31
0.0
  0
LINE
  5
2A7
330
2
100
AcDbEntity
  8
0
100
AcDbLine
 10
21710.8648110191
 20
-1283.43878872763
 30
0.0
 11
21710.87739579411
 21
-1283.433028818517
 31
0.0
  0
LINE
  5
2A8
330
2
100
AcDbEntity
  8
0
100
AcDbLine
 10
21710.87739579411
 20
-1283.433028818517
 30
0.0
 11
21710.88993979996
 21
-1283.427208292373
 31
0.0
  0
LINE
  5
2A9
330
2
100
AcDbEntity
  8
0
100
AcDbLine
 10
21710.88993979996
 20
-1283.427208292373
 30
0.0
 11
21710.90244278187
 21
-1283.421326793317
 31
0.0
  0
LINE
  5
2AA
330
2
100
AcDbEntity
  8
0
100
AcDbLine
 10
21710.90244278187
 20
-1283.421326793317
 30
0.0
 11
21710.9149044851
 21
-1283.415383965477
 31
0.0
  0
LINE
  5
2AB
330
2
100
AcDbEntity
  8
0
100
AcDbLine
 10
21710.9149044851
 20
-1283.415383965477
 30
0.0
 11
21710.92732465488
 21
-1283.409379452985
 31
0.0
  0
LINE
  5
2AC
330
2
100
AcDbEntity
  8
0
100
AcDbLine
 10
21710.92732465488
 20
-1283.409379452985
 30
0.0
 11
21710.93970303647
 21
-1283.40331289996
 31
0.0
  0
LINE
  5
2AD
330
2
100
AcDbEntity
  8
0
100
AcDbLine
 10
21710.93970303647
 20
-1283.40331289996
 30
0.0
 11
21710.9520393751
 21
-1283.397183950537
 31
0.0
  0
LINE
  5
2AE
330
2
100
AcDbEntity
  8
0
100
AcDbLine
 10
21710.9520393751
 20
-1283.397183950537
 30
0.0
 11
21710.96433341601
 21
-1283.39099224884
 31
0.0
  0
LINE
  5
2AF
330
2
100
AcDbEntity
  8
0
100
AcDbLine
 10
21710.96433341601
 20
-1283.39099224884
 30
0.0
 11
21710.97658490444
 21
-1283.384737438997
 31
0.0
  0
LINE
  5
2B0
330
2
100
AcDbEntity
  8
0
100
AcDbLine
 10
21710.97658490444
 20
-1283.384737438997
 30
0.0
 11
21710.98879358565
 21
-1283.378419165137
 31
0.0
  0
LINE
  5
2B1
330
2
100
AcDbEntity
  8
0
100
AcDbLine
 10
21710.98879358565
 20
-1283.378419165137
 30
0.0
 11
21711.00095920488
 21
-1283.37203707138
 31
0.0
  0
LINE
  5
2B2
330
2
100
AcDbEntity
  8
0
100
AcDbLine
 10
21711.00095920488
 20
-1283.37203707138
 30
0.0
 11
21711.01308150735
 21
-1283.365590801857
 31
0.0
  0
LINE
  5
2B3
330
2
100
AcDbEntity
  8
0
100
AcDbLine
 10
21711.01308150735
 20
-1283.365590801857
 30
0.0
 11
21711.02516023832
 21
-1283.359080000702
 31
0.0
  0
LINE
  5
2B4
330
2
100
AcDbEntity
  8
0
100
AcDbLine
 10
21711.02516023832
 20
-1283.359080000702
 30
0.0
 11
21711.03719514303
 21
-1283.352504312033
 31
0.0
  0
LINE
  5
2B5
330
2
100
AcDbEntity
  8
0
100
AcDbLine
 10
21711.03719514303
 20
-1283.352504312033
 30
0.0
 11
21711.04918596673
 21
-1283.345863379976
 31
0.0
  0
LINE
  5
2B6
330
2
100
AcDbEntity
  8
0
100
AcDbLine
 10
21711.04918596673
 20
-1283.345863379976
 30
0.0
 11
21711.06113245464
 21
-1283.339156848671
 31
0.0
  0
LINE
  5
2B7
330
2
100
AcDbEntity
  8
0
100
AcDbLine
 10
21711.06113245464
 20
-1283.339156848671
 30
0.0
 11
21711.07303435203
 21
-1283.332384362229
 31
0.0
  0
LINE
  5
2B8
330
2
100
AcDbEntity
  8
0
100
AcDbLine
 10
21711.07303435203
 20
-1283.332384362229
 30
0.0
 11
21711.08489140412
 21
-1283.32554556479
 31
0.0
  0
LINE
  5
2B9
330
2
100
AcDbEntity
  8
0
100
AcDbLine
 10
21711.08489140412
 20
-1283.32554556479
 30
0.0
 11
21711.09670335617
 21
-1283.318640100473
 31
0.0
  0
LINE
  5
2BA
330
2
100
AcDbEntity
  8
0
100
AcDbLine
 10
21711.09670335617
 20
-1283.318640100473
 30
0.0
 11
21711.10846995341
 21
-1283.311667613407
 31
0.0
  0
LINE
  5
2BB
330
2
100
AcDbEntity
  8
0
100
AcDbLine
 10
21711.10846995341
 20
-1283.311667613407
 30
0.0
 11
21711.12019094108
 21
-1283.30462774772
 31
0.0
  0
LINE
  5
2BC
330
2
100
AcDbEntity
  8
0
100
AcDbLine
 10
21711.12019094108
 20
-1283.30462774772
 30
0.0
 11
21711.13186606445
 21
-1283.297520147544
 31
0.0
  0
LINE
  5
2BD
330
2
100
AcDbEntity
  8
0
100
AcDbLine
 10
21711.13186606445
 20
-1283.297520147544
 30
0.0
 11
21711.14349506872
 21
-1283.290344456998
 31
0.0
  0
LINE
  5
2BE
330
2
100
AcDbEntity
  8
0
100
AcDbLine
 10
21711.14349506872
 20
-1283.290344456998
 30
0.0
 11
21711.15507769917
 21
-1283.28310032021
 31
0.0
  0
LINE
  5
2BF
330
2
100
AcDbEntity
  8
0
100
AcDbLine
 10
21711.15507769917
 20
-1283.28310032021
 30
0.0
 11
21711.16661370101
 21
-1283.275787381315
 31
0.0
  0
LINE
  5
2C0
330
2
100
AcDbEntity
  8
0
100
AcDbLine
 10
21711.16661370101
 20
-1283.275787381315
 30
0.0
 11
21711.17810281951
 21
-1283.268405284432
 31
0.0
  0
LINE
  5
2C1
330
2
100
AcDbEntity
  8
0
100
AcDbLine
 10
21711.17810281951
 20
-1283.268405284432
 30
0.0
 11
21711.18954479991
 21
-1283.260953673694
 31
0.0
  0
LINE
  5
2C2
330
2
100
AcDbEntity
  8
0
100
AcDbLine
 10
21711.18954479991
 20
-1283.260953673694
 30
0.0
 11
21711.20093938744
 21
-1283.25343219322
 31
0.0
  0
LINE
  5
2C3
330
2
100
AcDbEntity
  8
0
100
AcDbLine
 10
21711.20093938744
 20
-1283.25343219322
 30
0.0
 11
21711.21228632734
 21
-1283.245840487145
 31
0.0
  0
LINE
  5
2C4
330
2
100
AcDbEntity
  8
0
100
AcDbLine
 10
21711.21228632734
 20
-1283.245840487145
 30
0.0
 11
21711.22358536486
 21
-1283.238178199595
 31
0.0
  0
LINE
  5
2C5
330
2
100
AcDbEntity
  8
0
100
AcDbLine
 10
21711.22358536486
 20
-1283.238178199595
 30
0.0
 11
21711.23483624525
 21
-1283.230444974693
 31
0.0
  0
LINE
  5
2C6
330
2
100
AcDbEntity
  8
0
100
AcDbLine
 10
21711.23483624525
 20
-1283.230444974693
 30
0.0
 11
21711.24603871374
 21
-1283.222640456568
 31
0.0
  0
LINE
  5
2C7
330
2
100
AcDbEntity
  8
0
100
AcDbLine
 10
21711.24603871374
 20
-1283.222640456568
 30
0.0
 11
21711.25719251558
 21
-1283.214764289352
 31
0.0
  0
LINE
  5
2C8
330
2
100
AcDbEntity
  8
0
100
AcDbLine
 10
21711.25719251558
 20
-1283.214764289352
 30
0.0
 11
21711.268297396
 21
-1283.206816117165
 31
0.0
  0
LINE
  5
2C9
330
2
100
AcDbEntity
  8
0
100
AcDbLine
 10
21711.268297396
 20
-1283.206816117165
 30
0.0
 11
21711.27935310026
 21
-1283.198795584137
 31
0.0
  0
LINE
  5
2CA
330
2
100
AcDbEntity
  8
0
100
AcDbLine
 10
21711.27935310026
 20
-1283.198795584137
 30
0.0
 11
21711.29035937359
 21
-1283.190702334397
 31
0.0
  0
LINE
  5
2CB
330
2
100
AcDbEntity
  8
0
100
AcDbLine
 10
21711.29035937359
 20
-1283.190702334397
 30
0.0
 11
21711.30131596124
 21
-1283.182536012073
 31
0.0
  0
LINE
  5
2CC
330
2
100
AcDbEntity
  8
0
100
AcDbLine
 10
21711.30131596124
 20
-1283.182536012073
 30
0.0
 11
21711.31222260845
 21
-1283.174296261286
 31
0.0
  0
LINE
  5
2CD
330
2
100
AcDbEntity
  8
0
100
AcDbLine
 10
21711.31222260845
 20
-1283.174296261286
 30
0.0
 11
21711.32307906046
 21
-1283.165982726163
 31
0.0
  0
LINE
  5
2CE
330
2
100
AcDbEntity
  8
0
100
AcDbLine
 10
21711.32307906046
 20
-1283.165982726163
 30
0.0
 11
21711.33388506252
 21
-1283.157595050843
 31
0.0
  0
LINE
  5
2CF
330
2
100
AcDbEntity
  8
0
100
AcDbLine
 10
21711.33388506252
 20
-1283.157595050843
 30
0.0
 11
21711.34464035986
 21
-1283.149132879438
 31
0.0
  0
LINE
  5
2D0
330
2
100
AcDbEntity
  8
0
100
AcDbLine
 10
21711.34464035986
 20
-1283.149132879438
 30
0.0
 11
21711.35534469774
 21
-1283.140595856088
 31
0.0
  0
LINE
  5
2D1
330
2
100
AcDbEntity
  8
0
100
AcDbLine
 10
21711.35534469774
 20
-1283.140595856088
 30
0.0
 11
21711.36599782138
 21
-1283.131983624911
 31
0.0
  0
LINE
  5
2D2
330
2
100
AcDbEntity
  8
0
100
AcDbLine
 10
21711.36599782138
 20
-1283.131983624911
 30
0.0
 11
21711.37659947604
 21
-1283.123295830037
 31
0.0
  0
LINE
  5
2D3
330
2
100
AcDbEntity
  8
0
100
AcDbLine
 10
21711.37659947604
 20
-1283.123295830037
 30
0.0
 11
21711.38714940696
 21
-1283.114532115594
 31
0.0
  0
LINE
  5
2D4
330
2
100
AcDbEntity
  8
0
100
AcDbLine
 10
21711.38714940696
 20
-1283.114532115594
 30
0.0
 11
21711.39764735938
 21
-1283.105692125713
 31
0.0
  0
LINE
  5
2D5
330
2
100
AcDbEntity
  8
0
100
AcDbLine
 10
21711.39764735938
 20
-1283.105692125713
 30
0.0
 11
21711.40809307853
 21
-1283.096775504511
 31
0.0
  0
LINE
  5
2D6
330
2
100
AcDbEntity
  8
0
100
AcDbLine
 10
21711.40809307853
 20
-1283.096775504511
 30
0.0
 11
21711.41848630968
 21
-1283.087781896125
 31
0.0
  0
LINE
  5
2D7
330
2
100
AcDbEntity
  8
0
100
AcDbLine
 10
21711.41848630968
 20
-1283.087781896125
 30
0.0
 11
21711.42882679804
 21
-1283.078710944677
 31
0.0
  0
LINE
  5
2D8
330
2
100
AcDbEntity
  8
0
100
AcDbLine
 10
21711.42882679804
 20
-1283.078710944677
 30
0.0
 11
21711.43911428888
 21
-1283.069562294296
 31
0.0
  0
LINE
  5
2D9
330
2
100
AcDbEntity
  8
0
100
AcDbLine
 10
21711.43911428888
 20
-1283.069562294296
 30
0.0
 11
21711.44934852743
 21
-1283.060335589109
 31
0.0
  0
LINE
  5
2DA
330
2
100
AcDbEntity
  8
0
100
AcDbLine
 10
21711.44934852743
 20
-1283.060335589109
 30
0.0
 11
21711.45952925894
 21
-1283.05103047324
 31
0.0
  0
LINE
  5
2DB
330
2
100
AcDbEntity
  8
0
100
AcDbLine
 10
21711.45952925894
 20
-1283.05103047324
 30
0.0
 11
21711.46965622865
 21
-1283.041646590822
 31
0.0
  0
LINE
  5
2DC
330
2
100
AcDbEntity
  8
0
100
AcDbLine
 10
21711.46965622865
 20
-1283.041646590822
 30
0.0
 11
21711.47972918178
 21
-1283.032183585974
 31
0.0
  0
LINE
  5
2DD
330
2
100
AcDbEntity
  8
0
100
AcDbLine
 10
21711.47972918178
 20
-1283.032183585974
 30
0.0
 11
21711.48974786361
 21
-1283.022641102832
 31
0.0
  0
LINE
  5
2DE
330
2
100
AcDbEntity
  8
0
100
AcDbLine
 10
21711.48974786361
 20
-1283.022641102832
 30
0.0
 11
21711.49971201936
 21
-1283.013018785519
 31
0.0
  0
LINE
  5
2DF
330
2
100
AcDbEntity
  8
0
100
AcDbLine
 10
21711.49971201936
 20
-1283.013018785519
 30
0.0
 11
21711.50962139428
 21
-1283.003316278163
 31
0.0
  0
LINE
  5
2E0
330
2
100
AcDbEntity
  8
0
100
AcDbLine
 10
21711.50962139428
 20
-1283.003316278163
 30
0.0
 11
21711.5194757336
 21
-1282.993533224888
 31
0.0
  0
LINE
  5
2E1
330
2
100
AcDbEntity
  8
0
100
AcDbLine
 10
21711.5194757336
 20
-1282.993533224888
 30
0.0
 11
21711.52927478258
 21
-1282.983669269824
 31
0.0
  0
LINE
  5
2E2
330
2
100
AcDbEntity
  8
0
100
AcDbLine
 10
21711.52927478258
 20
-1282.983669269824
 30
0.0
 11
21711.53901828645
 21
-1282.973724057099
 31
0.0
  0
LINE
  5
2E3
330
2
100
AcDbEntity
  8
0
100
AcDbLine
 10
21711.53901828645
 20
-1282.973724057099
 30
0.0
 11
21711.54870599046
 21
-1282.963697230842
 31
0.0
  0
LINE
  5
2E4
330
2
100
AcDbEntity
  8
0
100
AcDbLine
 10
21711.54870599046
 20
-1282.963697230842
 30
0.0
 11
21711.55833763985
 21
-1282.953588435173
 31
0.0
  0
LINE
  5
2E5
330
2
100
AcDbEntity
  8
0
100
AcDbLine
 10
21711.55833763985
 20
-1282.953588435173
 30
0.0
 11
21711.56791297986
 21
-1282.943397314224
 31
0.0
  0
LINE
  5
2E6
330
2
100
AcDbEntity
  8
0
100
AcDbLine
 10
21711.56791297986
 20
-1282.943397314224
 30
0.0
 11
21711.57743175573
 21
-1282.933123512123
 31
0.0
  0
LINE
  5
2E7
330
2
100
AcDbEntity
  8
0
100
AcDbLine
 10
21711.57743175573
 20
-1282.933123512123
 30
0.0
 11
21711.58689371272
 21
-1282.922766672995
 31
0.0
  0
LINE
  5
2E8
330
2
100
AcDbEntity
  8
0
100
AcDbLine
 10
21711.58689371272
 20
-1282.922766672995
 30
0.0
 11
21711.59629859605
 21
-1282.912326440966
 31
0.0
  0
LINE
  5
2E9
330
2
100
AcDbEntity
  8
0
100
AcDbLine
 10
21711.59629859605
 20
-1282.912326440966
 30
0.0
 11
21711.60564615097
 21
-1282.90180246017
 31
0.0
  0
LINE
  5
2EA
330
2
100
AcDbEntity
  8
0
100
AcDbLine
 10
21711.60564615097
 20
-1282.90180246017
 30
0.0
 11
21711.61493612273
 21
-1282.891194374724
 31
0.0
  0
LINE
  5
2EB
330
2
100
AcDbEntity
  8
0
100
AcDbLine
 10
21711.61493612273
 20
-1282.891194374724
 30
0.0
 11
21711.62416825657
 21
-1282.880501828762
 31
0.0
  0
LINE
  5
2EC
330
2
100
AcDbEntity
  8
0
100
AcDbLine
 10
21711.62416825657
 20
-1282.880501828762
 30
0.0
 11
21711.63334229772
 21
-1282.869724466409
 31
0.0
  0
LINE
  5
2ED
330
2
100
AcDbEntity
  8
0
100
AcDbLine
 10
21711.63334229772
 20
-1282.869724466409
 30
0.0
 11
21711.64245799144
 21
-1282.858861931791
 31
0.0
  0
LINE
  5
2EE
330
2
100
AcDbEntity
  8
0
100
AcDbLine
 10
21711.64245799144
 20
-1282.858861931791
 30
0.0
 11
21711.65151508296
 21
-1282.84791386904
 31
0.0
  0
LINE
  5
2EF
330
2
100
AcDbEntity
  8
0
100
AcDbLine
 10
21711.65151508296
 20
-1282.84791386904
 30
0.0
 11
21711.66051331753
 21
-1282.836879922275
 31
0.0
  0
LINE
  5
2F0
330
2
100
AcDbEntity
  8
0
100
AcDbLine
 10
21711.66051331753
 20
-1282.836879922275
 30
0.0
 11
21711.66945244039
 21
-1282.825759735633
 31
0.0
  0
LINE
  5
2F1
330
2
100
AcDbEntity
  8
0
100
AcDbLine
 10
21711.66945244039
 20
-1282.825759735633
 30
0.0
 11
21711.67833219678
 21
-1282.814552953236
 31
0.0
  0
LINE
  5
2F2
330
2
100
AcDbEntity
  8
0
100
AcDbLine
 10
21711.67833219678
 20
-1282.814552953236
 30
0.0
 11
21711.68167664729
 21
-1282.810270554628
 31
0.0
  0
LEADER
  5
2F3
330
2
100
AcDbEntity
  8
0
100
AcDbLeader
  3
STANDARD
 74
     0
 76
     2
 10
21840.79025221722
 20
-1280.011417142644
 30
0.0
 10
21830.68923604789
 20
-1294.226747422333
 30
0.0
1001
ACAD
1000
DSTYLE
1002
{
1070
     5
1000

1002
}
  0
ARC
  5
2F4
330
2
100
AcDbEntity
  8
0
100
AcDbCircle
 10
22066.81019524155
 20
-1261.754560727989
 30
0.0
 40
2.282879329572159
100
AcDbArc
 50
34.10884998158311
 51
92.79523867891287
  0
DIMENSION
  5
2F5
330
2
100
AcDbEntity
  8
0
100
AcDbDimension
  2
*D2
 10
22088.29346998418
 20
-1270.624397583438
 30
0.0
 11
22088.29346998418
 21
-1225.617607611199
 31
0.0
 70
   128
 71
     5
 42
-1.0
  3
STANDARD
100
AcDbAlignedDimension
 13
22063.19886659466
 23
-1180.624397583438
 33
0.0
 14
22063.19886659466
 24
-1270.624397583438
 34
0.0
 50
90.0
100
AcDbRotatedDimension
  0
LINE
  5
302
330
2
100
AcDbEntity
  8
0
100
AcDbLine
 10
22066.69886659467
 20
-1184.124397583437
 30
0.0
 11
22066.69886659467
 21
-1267.124397583438
 31
0.0
  0
LINE
  5
303
330
2
100
AcDbEntity
  8
0
100
AcDbLine
 10
21992.69886659467
 20
-1270.624397583438
 30
0.0
 11
21992.69886659467
 21
-1180.624397583438
 31
0.0
  0
LINE
  5
304
330
2
100
AcDbEntity
  8
0
100
AcDbLine
 10
21960.69886659467
 20
-1270.624397583438
 30
0.0
 11
21960.69886659467
 21
-1180.624397583438
 31
0.0
  0
DIMENSION
  5
305
102
{ACAD_XDICTIONARY
360
306
102
}
102
{ACAD_REACTORS
330
307
102
}
330
2
100
AcDbEntity
  8
0
100
AcDbDimension
  2
*D10
 10
21755.04210207366
 20
-1267.124397583438
 30
0.0
 11
21755.04210207366
 21
-1224.259440950686
 31
0.0
 70
   128
  1
\A1;{\f??|b0|i0|c0|p49;%%C}<>{\f??|b0|i0|c0|p49;\H0.7x;\S+0^ -0.035;\H1.429x;(h}7{\f??|b0|i0|c0|p49;)}
 71
     5
 42
-1.0
  3
STANDARD
100
AcDbAlignedDimension
 13
21828.69814410397
 23
-1184.124397583437
 33
0.0
 14
21828.69814410397
 24
-1267.124397583438
 34
0.0
 50
90.0
100
AcDbRotatedDimension
  0
LINE
  5
314
330
2
100
AcDbEntity
  8
0
100
AcDbLine
 10
21837.29814410397
 20
-1180.624397583438
 30
0.0
 11
21837.29814410397
 21
-1270.624397583437
 31
0.0
  0
LINE
  5
315
102
{ACAD_REACTORS
330
307
102
}
330
2
100
AcDbEntity
  8
0
100
AcDbLine
 10
21828.69814410397
 20
-1184.124397583437
 30
0.0
 11
21828.69814410397
 21
-1267.124397583438
 31
0.0
  0
LINE
  5
316
330
2
100
AcDbEntity
  8
0
100
AcDbLine
 10
21830.69814410397
 20
-1180.624397583438
 30
0.0
 11
21830.69814410398
 21
-1270.624397583437
 31
0.0
  0
TEXT
  5
317
330
2
100
AcDbEntity
  8
0
 62
     3
100
AcDbText
 10
21753.9716322941
 20
-1292.226747422333
 30
0.0
 40
5.0
  1
 LEAD WIRE 250mm
100
AcDbText
  0
LINE
  5
318
330
2
100
AcDbEntity
  8
0
 62
   123
 48
0.6
100
AcDbLine
 10
21830.68923604789
 20
-1294.226747422333
 30
0.0
 11
21752.6016122431
 21
-1294.226747422333
 31
0.0
  0
LINE
  5
319
330
2
100
AcDbEntity
  8
0
  6
CENTER
 62
     1
 48
0.6
100
AcDbLine
 10
22005.69886659466
 20
-1268.054759657246
 30
0.0
 11
22005.69886659466
 21
-1275.01328997474
 31
0.0
  0
LINE
  5
31A
330
2
100
AcDbEntity
  8
0
  6
CENTER
 62
     1
 48
0.6
100
AcDbLine
 10
22070.70035934996
 20
-1261.624397583438
 30
0.0
 11
22064.69886659467
 21
-1261.624397583438
 31
0.0
  0
ARC
  5
31B
330
2
100
AcDbEntity
  8
0
100
AcDbCircle
 10
22066.81019524155
 20
-1261.494234438888
 30
0.0
 40
2.282879329571919
100
AcDbArc
 50
267.2047613210871
 51
325.8911500184116
  0
LINE
  5
31C
330
2
100
AcDbEntity
  8
0
100
AcDbLine
 10
22068.70035934996
 20
-1260.474397583438
 30
0.0
 11
22068.70035934996
 21
-1262.774397583439
 31
0.0
  0
ARC
  5
31D
330
2
100
AcDbEntity
  8
0
100
AcDbCircle
 10
22005.82648416897
 20
-1270.735588796284
 30
0.0
 40
2.280330085890314
100
AcDbArc
 50
177.2050912589677
 51
235.9250110951441
  0
ARC
  5
31E
330
2
100
AcDbEntity
  8
0
100
AcDbCircle
 10
22005.57124902036
 20
-1270.735588796284
 30
0.0
 40
2.280330085889914
100
AcDbArc
 50
304.0749889048559
 51
2.794908741032265
  0
LINE
  5
31F
330
2
100
AcDbEntity
  8
0
100
AcDbLine
 10
22006.84886659467
 20
-1272.624397583437
 30
0.0
 11
22004.54886659466
 21
-1272.624397583437
 31
0.0
  0
LINE
  5
320
330
2
100
AcDbEntity
  8
0
100
AcDbLine
 10
21844.36254914061
 20
-1272.224721787958
 30
0.0
 11
21977.75987502061
 21
-1272.224721787955
 31
0.0
  0
LINE
  5
321
330
2
100
AcDbEntity
  8
0
100
AcDbLine
 10
21847.66825804565
 20
-1277.224721787953
 30
0.0
 11
21981.25968011488
 21
-1277.224721787953
 31
0.0
  0
LINE
  5
322
330
2
100
AcDbEntity
  8
0
100
AcDbLine
 10
21980.41334589242
 20
-1270.624397583438
 30
0.0
 11
21830.69814410398
 21
-1270.624397583437
 31
0.0
  0
LINE
  5
323
330
2
100
AcDbEntity
  8
0
100
AcDbLine
 10
22063.19886659467
 20
-1270.624397583438
 30
0.0
 11
21988.25968011488
 21
-1270.624397583438
 31
0.0
  0
ARC
  5
324
330
2
100
AcDbEntity
  8
0
100
AcDbCircle
 10
22063.19886659467
 20
-1267.124397583438
 30
0.0
 40
3.5
100
AcDbArc
 50
270.0
 51
0.0
  0
LINE
  5
325
330
2
100
AcDbEntity
  8
0
100
AcDbLine
 10
21983.75987502062
 20
-1265.624397583438
 30
0.0
 11
21992.69886659466
 21
-1265.624397583438
 31
0.0
  0
ARC
  5
326
330
2
100
AcDbEntity
  8
0
100
AcDbCircle
 10
21981.24265726834
 20
-1273.183625000972
 30
0.0
 40
4.041132640617097
100
AcDbArc
 50
270.2413531633276
 51
353.7382029890075
  0
ARC
  5
327
330
2
100
AcDbEntity
  8
0
100
AcDbCircle
 10
21988.25968011488
 20
-1273.624397583438
 30
0.0
 40
3.0
100
AcDbArc
 50
90.0
 51
180.0
  0
ARC
  5
328
330
2
100
AcDbEntity
  8
0
100
AcDbCircle
 10
21977.75987502061
 20
-1269.224721787955
 30
0.0
 40
3.0
100
AcDbArc
 50
270.0
 51
0.0
  0
LINE
  5
329
330
2
100
AcDbEntity
  8
0
100
AcDbLine
 10
21980.75987502062
 20
-1268.624397583438
 30
0.0
 11
21980.75987502062
 21
-1269.224721787955
 31
0.0
  0
ARC
  5
32A
330
2
100
AcDbEntity
  8
0
100
AcDbCircle
 10
21983.75987502062
 20
-1268.624397583438
 30
0.0
 40
3.0
100
AcDbArc
 50
90.0
 51
180.0
  0
LINE
  5
32B
330
2
100
AcDbEntity
  8
0
100
AcDbLine
 10
21842.89403095167
 20
-1285.658310526626
 30
0.0
 11
21842.89622923374
 21
-1285.657235440844
 31
0.0
  0
LINE
  5
32C
330
2
100
AcDbEntity
  8
0
100
AcDbLine
 10
21842.89622923374
 20
-1285.657235440844
 30
0.0
 11
21842.91647348399
 21
-1285.647433340203
 31
0.0
  0
LINE
  5
32D
330
2
100
AcDbEntity
  8
0
100
AcDbLine
 10
21842.91647348399
 20
-1285.647433340203
 30
0.0
 11
21842.93669294937
 21
-1285.637741436331
 31
0.0
  0
LINE
  5
32E
330
2
100
AcDbEntity
  8
0
100
AcDbLine
 10
21842.93669294937
 20
-1285.637741436331
 30
0.0
 11
21842.95688767299
 21
-1285.628159287015
 31
0.0
  0
LINE
  5
32F
330
2
100
AcDbEntity
  8
0
100
AcDbLine
 10
21842.95688767299
 20
-1285.628159287015
 30
0.0
 11
21842.97705769796
 21
-1285.618686450046
 31
0.0
  0
LINE
  5
330
330
2
100
AcDbEntity
  8
0
100
AcDbLine
 10
21842.97705769796
 20
-1285.618686450046
 30
0.0
 11
21842.9972030674
 21
-1285.609322483212
 31
0.0
  0
LINE
  5
331
330
2
100
AcDbEntity
  8
0
100
AcDbLine
 10
21842.9972030674
 20
-1285.609322483212
 30
0.0
 11
21843.0173238244
 21
-1285.600066944301
 31
0.0
  0
LINE
  5
332
330
2
100
AcDbEntity
  8
0
100
AcDbLine
 10
21843.0173238244
 20
-1285.600066944301
 30
0.0
 11
21843.03742001211
 21
-1285.590919391104
 31
0.0
  0
LINE
  5
333
330
2
100
AcDbEntity
  8
0
100
AcDbLine
 10
21843.03742001211
 20
-1285.590919391104
 30
0.0
 11
21843.0574916736
 21
-1285.581879381406
 31
0.0
  0
LINE
  5
334
330
2
100
AcDbEntity
  8
0
100
AcDbLine
 10
21843.0574916736
 20
-1285.581879381406
 30
0.0
 11
21843.077538852
 21
-1285.572946472998
 31
0.0
  0
LINE
  5
335
330
2
100
AcDbEntity
  8
0
100
AcDbLine
 10
21843.077538852
 20
-1285.572946472998
 30
0.0
 11
21843.09756159043
 21
-1285.56412022367
 31
0.0
  0
LINE
  5
336
330
2
100
AcDbEntity
  8
0
100
AcDbLine
 10
21843.09756159043
 20
-1285.56412022367
 30
0.0
 11
21843.11755993199
 21
-1285.55540019121
 31
0.0
  0
LINE
  5
337
330
2
100
AcDbEntity
  8
0
100
AcDbLine
 10
21843.11755993199
 20
-1285.55540019121
 30
0.0
 11
21843.13753391979
 21
-1285.546785933407
 31
0.0
  0
LINE
  5
338
330
2
100
AcDbEntity
  8
0
100
AcDbLine
 10
21843.13753391979
 20
-1285.546785933407
 30
0.0
 11
21843.15748359694
 21
-1285.538277008048
 31
0.0
  0
LINE
  5
339
330
2
100
AcDbEntity
  8
0
100
AcDbLine
 10
21843.15748359694
 20
-1285.538277008048
 30
0.0
 11
21843.17740900657
 21
-1285.529872972923
 31
0.0
  0
LINE
  5
33A
330
2
100
AcDbEntity
  8
0
100
AcDbLine
 10
21843.17740900657
 20
-1285.529872972923
 30
0.0
 11
21843.19731019176
 21
-1285.521573385821
 31
0.0
  0
LINE
  5
33B
330
2
100
AcDbEntity
  8
0
100
AcDbLine
 10
21843.19731019176
 20
-1285.521573385821
 30
0.0
 11
21843.21718719565
 21
-1285.51337780453
 31
0.0
  0
LINE
  5
33C
330
2
100
AcDbEntity
  8
0
100
AcDbLine
 10
21843.21718719565
 20
-1285.51337780453
 30
0.0
 11
21843.23704006133
 21
-1285.50528578684
 31
0.0
  0
LINE
  5
33D
330
2
100
AcDbEntity
  8
0
100
AcDbLine
 10
21843.23704006133
 20
-1285.50528578684
 30
0.0
 11
21843.25686883193
 21
-1285.497296890541
 31
0.0
  0
LINE
  5
33E
330
2
100
AcDbEntity
  8
0
100
AcDbLine
 10
21843.25686883193
 20
-1285.497296890541
 30
0.0
 11
21843.27667355054
 21
-1285.489410673418
 31
0.0
  0
LINE
  5
33F
330
2
100
AcDbEntity
  8
0
100
AcDbLine
 10
21843.27667355054
 20
-1285.489410673418
 30
0.0
 11
21843.2964542603
 21
-1285.481626693264
 31
0.0
  0
LINE
  5
340
330
2
100
AcDbEntity
  8
0
100
AcDbLine
 10
21843.2964542603
 20
-1285.481626693264
 30
0.0
 11
21843.31621100429
 21
-1285.473944507864
 31
0.0
  0
LINE
  5
341
330
2
100
AcDbEntity
  8
0
100
AcDbLine
 10
21843.31621100429
 20
-1285.473944507864
 30
0.0
 11
21843.33594382564
 21
-1285.466363675009
 31
0.0
  0
LINE
  5
342
330
2
100
AcDbEntity
  8
0
100
AcDbLine
 10
21843.33594382564
 20
-1285.466363675009
 30
0.0
 11
21843.35565276746
 21
-1285.458883752487
 31
0.0
  0
LINE
  5
343
330
2
100
AcDbEntity
  8
0
100
AcDbLine
 10
21843.35565276746
 20
-1285.458883752487
 30
0.0
 11
21843.37533787286
 21
-1285.451504298088
 31
0.0
  0
LINE
  5
344
330
2
100
AcDbEntity
  8
0
100
AcDbLine
 10
21843.37533787286
 20
-1285.451504298088
 30
0.0
 11
21843.39499918494
 21
-1285.4442248696
 31
0.0
  0
LINE
  5
345
330
2
100
AcDbEntity
  8
0
100
AcDbLine
 10
21843.39499918494
 20
-1285.4442248696
 30
0.0
 11
21843.41463674683
 21
-1285.437045024812
 31
0.0
  0
LINE
  5
346
330
2
100
AcDbEntity
  8
0
100
AcDbLine
 10
21843.41463674683
 20
-1285.437045024812
 30
0.0
 11
21843.43425060163
 21
-1285.429964321513
 31
0.0
  0
LINE
  5
347
330
2
100
AcDbEntity
  8
0
100
AcDbLine
 10
21843.43425060163
 20
-1285.429964321513
 30
0.0
 11
21843.45384079245
 21
-1285.422982317491
 31
0.0
  0
LINE
  5
348
330
2
100
AcDbEntity
  8
0
100
AcDbLine
 10
21843.45384079245
 20
-1285.422982317491
 30
0.0
 11
21843.4734073624
 21
-1285.416098570534
 31
0.0
  0
LINE
  5
349
330
2
100
AcDbEntity
  8
0
100
AcDbLine
 10
21843.4734073624
 20
-1285.416098570534
 30
0.0
 11
21843.49295035461
 21
-1285.409312638433
 31
0.0
  0
LINE
  5
34A
330
2
100
AcDbEntity
  8
0
100
AcDbLine
 10
21843.49295035461
 20
-1285.409312638433
 30
0.0
 11
21843.51246981217
 21
-1285.402624078976
 31
0.0
  0
LINE
  5
34B
330
2
100
AcDbEntity
  8
0
100
AcDbLine
 10
21843.51246981217
 20
-1285.402624078976
 30
0.0
 11
21843.5319657782
 21
-1285.396032449952
 31
0.0
  0
LINE
  5
34C
330
2
100
AcDbEntity
  8
0
100
AcDbLine
 10
21843.5319657782
 20
-1285.396032449952
 30
0.0
 11
21843.5514382958
 21
-1285.38953730915
 31
0.0
  0
LINE
  5
34D
330
2
100
AcDbEntity
  8
0
100
AcDbLine
 10
21843.5514382958
 20
-1285.38953730915
 30
0.0
 11
21843.5708874081
 21
-1285.383138214357
 31
0.0
  0
LINE
  5
34E
330
2
100
AcDbEntity
  8
0
100
AcDbLine
 10
21843.5708874081
 20
-1285.383138214357
 30
0.0
 11
21843.5903131582
 21
-1285.376834723362
 31
0.0
  0
LINE
  5
34F
330
2
100
AcDbEntity
  8
0
100
AcDbLine
 10
21843.5903131582
 20
-1285.376834723362
 30
0.0
 11
21843.60971558922
 21
-1285.370626393957
 31
0.0
  0
LINE
  5
350
330
2
100
AcDbEntity
  8
0
100
AcDbLine
 10
21843.60971558922
 20
-1285.370626393957
 30
0.0
 11
21843.62909474426
 21
-1285.364512783929
 31
0.0
  0
LINE
  5
351
330
2
100
AcDbEntity
  8
0
100
AcDbLine
 10
21843.62909474426
 20
-1285.364512783929
 30
0.0
 11
21843.64845066643
 21
-1285.358493451066
 31
0.0
  0
LINE
  5
352
330
2
100
AcDbEntity
  8
0
100
AcDbLine
 10
21843.64845066643
 20
-1285.358493451066
 30
0.0
 11
21843.66778339885
 21
-1285.352567953157
 31
0.0
  0
LINE
  5
353
330
2
100
AcDbEntity
  8
0
100
AcDbLine
 10
21843.66778339885
 20
-1285.352567953157
 30
0.0
 11
21843.68709298464
 21
-1285.346735847991
 31
0.0
  0
LINE
  5
354
330
2
100
AcDbEntity
  8
0
100
AcDbLine
 10
21843.68709298464
 20
-1285.346735847991
 30
0.0
 11
21843.70637946689
 21
-1285.340996693358
 31
0.0
  0
LINE
  5
355
330
2
100
AcDbEntity
  8
0
100
AcDbLine
 10
21843.70637946689
 20
-1285.340996693358
 30
0.0
 11
21843.72564288872
 21
-1285.335350047045
 31
0.0
  0
LINE
  5
356
330
2
100
AcDbEntity
  8
0
100
AcDbLine
 10
21843.72564288872
 20
-1285.335350047045
 30
0.0
 11
21843.74488329325
 21
-1285.329795466842
 31
0.0
  0
LINE
  5
357
330
2
100
AcDbEntity
  8
0
100
AcDbLine
 10
21843.74488329325
 20
-1285.329795466842
 30
0.0
 11
21843.76410072357
 21
-1285.324332510537
 31
0.0
  0
LINE
  5
358
330
2
100
AcDbEntity
  8
0
100
AcDbLine
 10
21843.76410072357
 20
-1285.324332510537
 30
0.0
 11
21843.78329522282
 21
-1285.318960735919
 31
0.0
  0
LINE
  5
359
330
2
100
AcDbEntity
  8
0
100
AcDbLine
 10
21843.78329522282
 20
-1285.318960735919
 30
0.0
 11
21843.80246683409
 21
-1285.313679700778
 31
0.0
  0
LINE
  5
35A
330
2
100
AcDbEntity
  8
0
100
AcDbLine
 10
21843.80246683409
 20
-1285.313679700778
 30
0.0
 11
21843.8216156005
 21
-1285.308488962902
 31
0.0
  0
LINE
  5
35B
330
2
100
AcDbEntity
  8
0
100
AcDbLine
 10
21843.8216156005
 20
-1285.308488962902
 30
0.0
 11
21843.84074156516
 21
-1285.303388080078
 31
0.0
  0
LINE
  5
35C
330
2
100
AcDbEntity
  8
0
100
AcDbLine
 10
21843.84074156516
 20
-1285.303388080078
 30
0.0
 11
21843.85984477117
 21
-1285.298376610098
 31
0.0
  0
LINE
  5
35D
330
2
100
AcDbEntity
  8
0
100
AcDbLine
 10
21843.85984477117
 20
-1285.298376610098
 30
0.0
 11
21843.87892526166
 21
-1285.293454110749
 31
0.0
  0
LINE
  5
35E
330
2
100
AcDbEntity
  8
0
100
AcDbLine
 10
21843.87892526166
 20
-1285.293454110749
 30
0.0
 11
21843.89798307973
 21
-1285.288620139819
 31
0.0
  0
LINE
  5
35F
330
2
100
AcDbEntity
  8
0
100
AcDbLine
 10
21843.89798307973
 20
-1285.288620139819
 30
0.0
 11
21843.9170182685
 21
-1285.283874255098
 31
0.0
  0
LINE
  5
360
330
2
100
AcDbEntity
  8
0
100
AcDbLine
 10
21843.9170182685
 20
-1285.283874255098
 30
0.0
 11
21843.93603087107
 21
-1285.279216014377
 31
0.0
  0
LINE
  5
361
330
2
100
AcDbEntity
  8
0
100
AcDbLine
 10
21843.93603087107
 20
-1285.279216014377
 30
0.0
 11
21843.95502093056
 21
-1285.27464497544
 31
0.0
  0
LINE
  5
362
330
2
100
AcDbEntity
  8
0
100
AcDbLine
 10
21843.95502093056
 20
-1285.27464497544
 30
0.0
 11
21843.97398849007
 21
-1285.270160696081
 31
0.0
  0
LINE
  5
363
330
2
100
AcDbEntity
  8
0
100
AcDbLine
 10
21843.97398849007
 20
-1285.270160696081
 30
0.0
 11
21843.99293359273
 21
-1285.265762734084
 31
0.0
  0
LINE
  5
364
330
2
100
AcDbEntity
  8
0
100
AcDbLine
 10
21843.99293359273
 20
-1285.265762734084
 30
0.0
 11
21844.01185628163
 21
-1285.261450647239
 31
0.0
  0
LINE
  5
365
330
2
100
AcDbEntity
  8
0
100
AcDbLine
 10
21844.01185628163
 20
-1285.261450647239
 30
0.0
 11
21844.03075659989
 21
-1285.257223993339
 31
0.0
  0
LINE
  5
366
330
2
100
AcDbEntity
  8
0
100
AcDbLine
 10
21844.03075659989
 20
-1285.257223993339
 30
0.0
 11
21844.04963459064
 21
-1285.253082330167
 31
0.0
  0
LINE
  5
367
330
2
100
AcDbEntity
  8
0
100
AcDbLine
 10
21844.04963459064
 20
-1285.253082330167
 30
0.0
 11
21844.06849029696
 21
-1285.249025215516
 31
0.0
  0
LINE
  5
368
330
2
100
AcDbEntity
  8
0
100
AcDbLine
 10
21844.06849029696
 20
-1285.249025215516
 30
0.0
 11
21844.08732376198
 21
-1285.245052207171
 31
0.0
  0
LINE
  5
369
330
2
100
AcDbEntity
  8
0
100
AcDbLine
 10
21844.08732376198
 20
-1285.245052207171
 30
0.0
 11
21844.10613502881
 21
-1285.241162862924
 31
0.0
  0
LINE
  5
36A
330
2
100
AcDbEntity
  8
0
100
AcDbLine
 10
21844.10613502881
 20
-1285.241162862924
 30
0.0
 11
21844.12492414055
 21
-1285.237356740564
 31
0.0
  0
LINE
  5
36B
330
2
100
AcDbEntity
  8
0
100
AcDbLine
 10
21844.12492414055
 20
-1285.237356740564
 30
0.0
 11
21844.14369114032
 21
-1285.233633397877
 31
0.0
  0
LINE
  5
36C
330
2
100
AcDbEntity
  8
0
100
AcDbLine
 10
21844.14369114032
 20
-1285.233633397877
 30
0.0
 11
21844.16243607124
 21
-1285.229992392656
 31
0.0
  0
LINE
  5
36D
330
2
100
AcDbEntity
  8
0
100
AcDbLine
 10
21844.16243607124
 20
-1285.229992392656
 30
0.0
 11
21844.1811589764
 21
-1285.226433282684
 31
0.0
  0
LINE
  5
36E
330
2
100
AcDbEntity
  8
0
100
AcDbLine
 10
21844.1811589764
 20
-1285.226433282684
 30
0.0
 11
21844.19985989893
 21
-1285.222955625756
 31
0.0
  0
LINE
  5
36F
330
2
100
AcDbEntity
  8
0
100
AcDbLine
 10
21844.19985989893
 20
-1285.222955625756
 30
0.0
 11
21844.21853888193
 21
-1285.219558979656
 31
0.0
  0
LINE
  5
370
330
2
100
AcDbEntity
  8
0
100
AcDbLine
 10
21844.21853888193
 20
-1285.219558979656
 30
0.0
 11
21844.23719596852
 21
-1285.216242902174
 31
0.0
  0
LINE
  5
371
330
2
100
AcDbEntity
  8
0
100
AcDbLine
 10
21844.23719596852
 20
-1285.216242902174
 30
0.0
 11
21844.25583120181
 21
-1285.213006951101
 31
0.0
  0
LINE
  5
372
330
2
100
AcDbEntity
  8
0
100
AcDbLine
 10
21844.25583120181
 20
-1285.213006951101
 30
0.0
 11
21844.2744446249
 21
-1285.209850684226
 31
0.0
  0
LINE
  5
373
330
2
100
AcDbEntity
  8
0
100
AcDbLine
 10
21844.2744446249
 20
-1285.209850684226
 30
0.0
 11
21844.29303628091
 21
-1285.206773659333
 31
0.0
  0
LINE
  5
374
330
2
100
AcDbEntity
  8
0
100
AcDbLine
 10
21844.29303628091
 20
-1285.206773659333
 30
0.0
 11
21844.31160621296
 21
-1285.203775434215
 31
0.0
  0
LINE
  5
375
330
2
100
AcDbEntity
  8
0
100
AcDbLine
 10
21844.31160621296
 20
-1285.203775434215
 30
0.0
 11
21844.33015446415
 21
-1285.20085556666
 31
0.0
  0
LINE
  5
376
330
2
100
AcDbEntity
  8
0
100
AcDbLine
 10
21844.33015446415
 20
-1285.20085556666
 30
0.0
 11
21844.34868107758
 21
-1285.198013614456
 31
0.0
  0
LINE
  5
377
330
2
100
AcDbEntity
  8
0
100
AcDbLine
 10
21844.34868107758
 20
-1285.198013614456
 30
0.0
 11
21844.36718609639
 21
-1285.195249135392
 31
0.0
  0
LINE
  5
378
330
2
100
AcDbEntity
  8
0
100
AcDbLine
 10
21844.36718609639
 20
-1285.195249135392
 30
0.0
 11
21844.38566956367
 21
-1285.192561687259
 31
0.0
  0
LINE
  5
379
330
2
100
AcDbEntity
  8
0
100
AcDbLine
 10
21844.38566956367
 20
-1285.192561687259
 30
0.0
 11
21844.40413152253
 21
-1285.189950827843
 31
0.0
  0
LINE
  5
37A
330
2
100
AcDbEntity
  8
0
100
AcDbLine
 10
21844.40413152253
 20
-1285.189950827843
 30
0.0
 11
21844.4225720161
 21
-1285.187416114932
 31
0.0
  0
LINE
  5
37B
330
2
100
AcDbEntity
  8
0
100
AcDbLine
 10
21844.4225720161
 20
-1285.187416114932
 30
0.0
 11
21844.44099108747
 21
-1285.18495710632
 31
0.0
  0
LINE
  5
37C
330
2
100
AcDbEntity
  8
0
100
AcDbLine
 10
21844.44099108747
 20
-1285.18495710632
 30
0.0
 11
21844.45938877978
 21
-1285.18257335979
 31
0.0
  0
LINE
  5
37D
330
2
100
AcDbEntity
  8
0
100
AcDbLine
 10
21844.45938877978
 20
-1285.18257335979
 30
0.0
 11
21844.4777651361
 21
-1285.180264433134
 31
0.0
  0
LINE
  5
37E
330
2
100
AcDbEntity
  8
0
100
AcDbLine
 10
21844.4777651361
 20
-1285.180264433134
 30
0.0
 11
21844.49612019958
 21
-1285.178029884141
 31
0.0
  0
LINE
  5
37F
330
2
100
AcDbEntity
  8
0
100
AcDbLine
 10
21844.49612019958
 20
-1285.178029884141
 30
0.0
 11
21844.5144540133
 21
-1285.175869270598
 31
0.0
  0
LINE
  5
380
330
2
100
AcDbEntity
  8
0
100
AcDbLine
 10
21844.5144540133
 20
-1285.175869270598
 30
0.0
 11
21844.53276662039
 21
-1285.173782150295
 31
0.0
  0
LINE
  5
381
330
2
100
AcDbEntity
  8
0
100
AcDbLine
 10
21844.53276662039
 20
-1285.173782150295
 30
0.0
 11
21844.55105806396
 21
-1285.171768081019
 31
0.0
  0
LINE
  5
382
330
2
100
AcDbEntity
  8
0
100
AcDbLine
 10
21844.55105806396
 20
-1285.171768081019
 30
0.0
 11
21844.56932838712
 21
-1285.169826620561
 31
0.0
  0
LINE
  5
383
330
2
100
AcDbEntity
  8
0
100
AcDbLine
 10
21844.56932838712
 20
-1285.169826620561
 30
0.0
 11
21844.58757763298
 21
-1285.167957326709
 31
0.0
  0
LINE
  5
384
330
2
100
AcDbEntity
  8
0
100
AcDbLine
 10
21844.58757763298
 20
-1285.167957326709
 30
0.0
 11
21844.60580584465
 21
-1285.166159757252
 31
0.0
  0
LINE
  5
385
330
2
100
AcDbEntity
  8
0
100
AcDbLine
 10
21844.60580584465
 20
-1285.166159757252
 30
0.0
 11
21844.62401306524
 21
-1285.164433469978
 31
0.0
  0
LINE
  5
386
330
2
100
AcDbEntity
  8
0
100
AcDbLine
 10
21844.62401306524
 20
-1285.164433469978
 30
0.0
 11
21844.64219933787
 21
-1285.162778022678
 31
0.0
  0
LINE
  5
387
330
2
100
AcDbEntity
  8
0
100
AcDbLine
 10
21844.64219933787
 20
-1285.162778022678
 30
0.0
 11
21844.66036470564
 21
-1285.16119297314
 31
0.0
  0
LINE
  5
388
330
2
100
AcDbEntity
  8
0
100
AcDbLine
 10
21844.66036470564
 20
-1285.16119297314
 30
0.0
 11
21844.67850921167
 21
-1285.159677879151
 31
0.0
  0
LINE
  5
389
330
2
100
AcDbEntity
  8
0
100
AcDbLine
 10
21844.67850921167
 20
-1285.159677879151
 30
0.0
 11
21844.69663289906
 21
-1285.1582322985
 31
0.0
  0
LINE
  5
38A
330
2
100
AcDbEntity
  8
0
100
AcDbLine
 10
21844.69663289906
 20
-1285.1582322985
 30
0.0
 11
21844.71473581094
 21
-1285.156855788978
 31
0.0
  0
LINE
  5
38B
330
2
100
AcDbEntity
  8
0
100
AcDbLine
 10
21844.71473581094
 20
-1285.156855788978
 30
0.0
 11
21844.7328179904
 21
-1285.155547908373
 31
0.0
  0
LINE
  5
38C
330
2
100
AcDbEntity
  8
0
100
AcDbLine
 10
21844.7328179904
 20
-1285.155547908373
 30
0.0
 11
21844.75087948057
 21
-1285.154308214472
 31
0.0
  0
LINE
  5
38D
330
2
100
AcDbEntity
  8
0
100
AcDbLine
 10
21844.75087948057
 20
-1285.154308214472
 30
0.0
 11
21844.76892032455
 21
-1285.153136265066
 31
0.0
  0
LINE
  5
38E
330
2
100
AcDbEntity
  8
0
100
AcDbLine
 10
21844.76892032455
 20
-1285.153136265066
 30
0.0
 11
21844.78694056545
 21
-1285.152031617942
 31
0.0
  0
LINE
  5
38F
330
2
100
AcDbEntity
  8
0
100
AcDbLine
 10
21844.78694056545
 20
-1285.152031617942
 30
0.0
 11
21844.80494024639
 21
-1285.150993830891
 31
0.0
  0
LINE
  5
390
330
2
100
AcDbEntity
  8
0
100
AcDbLine
 10
21844.80494024639
 20
-1285.150993830891
 30
0.0
 11
21844.82291941047
 21
-1285.1500224617
 31
0.0
  0
LINE
  5
391
330
2
100
AcDbEntity
  8
0
100
AcDbLine
 10
21844.82291941047
 20
-1285.1500224617
 30
0.0
 11
21844.84087810081
 21
-1285.149117068159
 31
0.0
  0
LINE
  5
392
330
2
100
AcDbEntity
  8
0
100
AcDbLine
 10
21844.84087810081
 20
-1285.149117068159
 30
0.0
 11
21844.85881636053
 21
-1285.148277208057
 31
0.0
  0
LINE
  5
393
330
2
100
AcDbEntity
  8
0
100
AcDbLine
 10
21844.85881636053
 20
-1285.148277208057
 30
0.0
 11
21844.87673423271
 21
-1285.147502439181
 31
0.0
  0
LINE
  5
394
330
2
100
AcDbEntity
  8
0
100
AcDbLine
 10
21844.87673423271
 20
-1285.147502439181
 30
0.0
 11
21844.8946317605
 21
-1285.14679231932
 31
0.0
  0
LINE
  5
395
330
2
100
AcDbEntity
  8
0
100
AcDbLine
 10
21844.8946317605
 20
-1285.14679231932
 30
0.0
 11
21844.91250898698
 21
-1285.146146406266
 31
0.0
  0
LINE
  5
396
330
2
100
AcDbEntity
  8
0
100
AcDbLine
 10
21844.91250898698
 20
-1285.146146406266
 30
0.0
 11
21844.93036595528
 21
-1285.145564257803
 31
0.0
  0
LINE
  5
397
330
2
100
AcDbEntity
  8
0
100
AcDbLine
 10
21844.93036595528
 20
-1285.145564257803
 30
0.0
 11
21844.9482027085
 21
-1285.145045431725
 31
0.0
  0
LINE
  5
398
330
2
100
AcDbEntity
  8
0
100
AcDbLine
 10
21844.9482027085
 20
-1285.145045431725
 30
0.0
 11
21844.96601928977
 21
-1285.144589485816
 31
0.0
  0
LINE
  5
399
330
2
100
AcDbEntity
  8
0
100
AcDbLine
 10
21844.96601928977
 20
-1285.144589485816
 30
0.0
 11
21844.98381574218
 21
-1285.144195977867
 31
0.0
  0
LINE
  5
39A
330
2
100
AcDbEntity
  8
0
100
AcDbLine
 10
21844.98381574218
 20
-1285.144195977867
 30
0.0
 11
21845.00159210884
 21
-1285.143864465667
 31
0.0
  0
LINE
  5
39B
330
2
100
AcDbEntity
  8
0
100
AcDbLine
 10
21845.00159210884
 20
-1285.143864465667
 30
0.0
 11
21845.01934843289
 21
-1285.143594507005
 31
0.0
  0
LINE
  5
39C
330
2
100
AcDbEntity
  8
0
100
AcDbLine
 10
21845.01934843289
 20
-1285.143594507005
 30
0.0
 11
21845.03708475741
 21
-1285.143385659669
 31
0.0
  0
LINE
  5
39D
330
2
100
AcDbEntity
  8
0
100
AcDbLine
 10
21845.03708475741
 20
-1285.143385659669
 30
0.0
 11
21845.05480112552
 21
-1285.143237481447
 31
0.0
  0
LINE
  5
39E
330
2
100
AcDbEntity
  8
0
100
AcDbLine
 10
21845.05480112552
 20
-1285.143237481447
 30
0.0
 11
21845.07249758034
 21
-1285.143149530132
 31
0.0
  0
LINE
  5
39F
330
2
100
AcDbEntity
  8
0
100
AcDbLine
 10
21845.07249758034
 20
-1285.143149530132
 30
0.0
 11
21845.09017416497
 21
-1285.143121363509
 31
0.0
  0
LINE
  5
3A0
330
2
100
AcDbEntity
  8
0
100
AcDbLine
 10
21845.09017416497
 20
-1285.143121363509
 30
0.0
 11
21845.10783092254
 21
-1285.143152539366
 31
0.0
  0
LINE
  5
3A1
330
2
100
AcDbEntity
  8
0
100
AcDbLine
 10
21845.10783092254
 20
-1285.143152539366
 30
0.0
 11
21845.12546789613
 21
-1285.143242615494
 31
0.0
  0
LINE
  5
3A2
330
2
100
AcDbEntity
  8
0
100
AcDbLine
 10
21845.12546789613
 20
-1285.143242615494
 30
0.0
 11
21845.14308512888
 21
-1285.143391149681
 31
0.0
  0
LINE
  5
3A3
330
2
100
AcDbEntity
  8
0
100
AcDbLine
 10
21845.14308512888
 20
-1285.143391149681
 30
0.0
 11
21845.16068266389
 21
-1285.143597699717
 31
0.0
  0
LINE
  5
3A4
330
2
100
AcDbEntity
  8
0
100
AcDbLine
 10
21845.16068266389
 20
-1285.143597699717
 30
0.0
 11
21845.17826054427
 21
-1285.143861823389
 31
0.0
  0
LINE
  5
3A5
330
2
100
AcDbEntity
  8
0
100
AcDbLine
 10
21845.17826054427
 20
-1285.143861823389
 30
0.0
 11
21845.19581881314
 21
-1285.144183078487
 31
0.0
  0
LINE
  5
3A6
330
2
100
AcDbEntity
  8
0
100
AcDbLine
 10
21845.19581881314
 20
-1285.144183078487
 30
0.0
 11
21845.2133575136
 21
-1285.144561022799
 31
0.0
  0
LINE
  5
3A7
330
2
100
AcDbEntity
  8
0
100
AcDbLine
 10
21845.2133575136
 20
-1285.144561022799
 30
0.0
 11
21845.23087668876
 21
-1285.144995214114
 31
0.0
  0
LINE
  5
3A8
330
2
100
AcDbEntity
  8
0
100
AcDbLine
 10
21845.23087668876
 20
-1285.144995214114
 30
0.0
 11
21845.24837638174
 21
-1285.145485210222
 31
0.0
  0
LINE
  5
3A9
330
2
100
AcDbEntity
  8
0
100
AcDbLine
 10
21845.24837638174
 20
-1285.145485210222
 30
0.0
 11
21845.26585663566
 21
-1285.146030568911
 31
0.0
  0
LINE
  5
3AA
330
2
100
AcDbEntity
  8
0
100
AcDbLine
 10
21845.26585663566
 20
-1285.146030568911
 30
0.0
 11
21845.2833174936
 21
-1285.146630847969
 31
0.0
  0
LINE
  5
3AB
330
2
100
AcDbEntity
  8
0
100
AcDbLine
 10
21845.2833174936
 20
-1285.146630847969
 30
0.0
 11
21845.3007589987
 21
-1285.147285605185
 31
0.0
  0
LINE
  5
3AC
330
2
100
AcDbEntity
  8
0
100
AcDbLine
 10
21845.3007589987
 20
-1285.147285605185
 30
0.0
 11
21845.31818119407
 21
-1285.147994398349
 31
0.0
  0
LINE
  5
3AD
330
2
100
AcDbEntity
  8
0
100
AcDbLine
 10
21845.31818119407
 20
-1285.147994398349
 30
0.0
 11
21845.3355841228
 21
-1285.14875678525
 31
0.0
  0
LINE
  5
3AE
330
2
100
AcDbEntity
  8
0
100
AcDbLine
 10
21845.3355841228
 20
-1285.14875678525
 30
0.0
 11
21845.35296782803
 21
-1285.149572323676
 31
0.0
  0
LINE
  5
3AF
330
2
100
AcDbEntity
  8
0
100
AcDbLine
 10
21845.35296782803
 20
-1285.149572323676
 30
0.0
 11
21845.37033235285
 21
-1285.150440571416
 31
0.0
  0
LINE
  5
3B0
330
2
100
AcDbEntity
  8
0
100
AcDbLine
 10
21845.37033235285
 20
-1285.150440571416
 30
0.0
 11
21845.38767774037
 21
-1285.151361086257
 31
0.0
  0
LINE
  5
3B1
330
2
100
AcDbEntity
  8
0
100
AcDbLine
 10
21845.38767774037
 20
-1285.151361086257
 30
0.0
 11
21845.40500403371
 21
-1285.15233342599
 31
0.0
  0
LINE
  5
3B2
330
2
100
AcDbEntity
  8
0
100
AcDbLine
 10
21845.40500403371
 20
-1285.15233342599
 30
0.0
 11
21845.42231127599
 21
-1285.153357148402
 31
0.0
  0
LINE
  5
3B3
330
2
100
AcDbEntity
  8
0
100
AcDbLine
 10
21845.42231127599
 20
-1285.153357148402
 30
0.0
 11
21845.4395995103
 21
-1285.154431811285
 31
0.0
  0
LINE
  5
3B4
330
2
100
AcDbEntity
  8
0
100
AcDbLine
 10
21845.4395995103
 20
-1285.154431811285
 30
0.0
 11
21845.45686877977
 21
-1285.155556972425
 31
0.0
  0
LINE
  5
3B5
330
2
100
AcDbEntity
  8
0
100
AcDbLine
 10
21845.45686877977
 20
-1285.155556972425
 30
0.0
 11
21845.47411912749
 21
-1285.156732189612
 31
0.0
  0
LINE
  5
3B6
330
2
100
AcDbEntity
  8
0
100
AcDbLine
 10
21845.47411912749
 20
-1285.156732189612
 30
0.0
 11
21845.4913505966
 21
-1285.157957020633
 31
0.0
  0
LINE
  5
3B7
330
2
100
AcDbEntity
  8
0
100
AcDbLine
 10
21845.4913505966
 20
-1285.157957020633
 30
0.0
 11
21845.50856323019
 21
-1285.15923102328
 31
0.0
  0
LINE
  5
3B8
330
2
100
AcDbEntity
  8
0
100
AcDbLine
 10
21845.50856323019
 20
-1285.15923102328
 30
0.0
 11
21845.52575707138
 21
-1285.160553755339
 31
0.0
  0
LINE
  5
3B9
330
2
100
AcDbEntity
  8
0
100
AcDbLine
 10
21845.52575707138
 20
-1285.160553755339
 30
0.0
 11
21845.54293216328
 21
-1285.161924774601
 31
0.0
  0
LINE
  5
3BA
330
2
100
AcDbEntity
  8
0
100
AcDbLine
 10
21845.54293216328
 20
-1285.161924774601
 30
0.0
 11
21845.560088549
 21
-1285.163343638852
 31
0.0
  0
LINE
  5
3BB
330
2
100
AcDbEntity
  8
0
100
AcDbLine
 10
21845.560088549
 20
-1285.163343638852
 30
0.0
 11
21845.57722627165
 21
-1285.164809905885
 31
0.0
  0
LINE
  5
3BC
330
2
100
AcDbEntity
  8
0
100
AcDbLine
 10
21845.57722627165
 20
-1285.164809905885
 30
0.0
 11
21845.59434537434
 21
-1285.166323133483
 31
0.0
  0
LINE
  5
3BD
330
2
100
AcDbEntity
  8
0
100
AcDbLine
 10
21845.59434537434
 20
-1285.166323133483
 30
0.0
 11
21845.61144590019
 21
-1285.16788287944
 31
0.0
  0
LINE
  5
3BE
330
2
100
AcDbEntity
  8
0
100
AcDbLine
 10
21845.61144590019
 20
-1285.16788287944
 30
0.0
 11
21845.6285278923
 21
-1285.169488701545
 31
0.0
  0
LINE
  5
3BF
330
2
100
AcDbEntity
  8
0
100
AcDbLine
 10
21845.6285278923
 20
-1285.169488701545
 30
0.0
 11
21845.64559139379
 21
-1285.171140157582
 31
0.0
  0
LINE
  5
3C0
330
2
100
AcDbEntity
  8
0
100
AcDbLine
 10
21845.64559139379
 20
-1285.171140157582
 30
0.0
 11
21845.66263644776
 21
-1285.172836805342
 31
0.0
  0
LINE
  5
3C1
330
2
100
AcDbEntity
  8
0
100
AcDbLine
 10
21845.66263644776
 20
-1285.172836805342
 30
0.0
 11
21845.67966309733
 21
-1285.174578202616
 31
0.0
  0
LINE
  5
3C2
330
2
100
AcDbEntity
  8
0
100
AcDbLine
 10
21845.67966309733
 20
-1285.174578202616
 30
0.0
 11
21845.69667138562
 21
-1285.176363907191
 31
0.0
  0
LINE
  5
3C3
330
2
100
AcDbEntity
  8
0
100
AcDbLine
 10
21845.69667138562
 20
-1285.176363907191
 30
0.0
 11
21845.71366135573
 21
-1285.178193476856
 31
0.0
  0
LINE
  5
3C4
330
2
100
AcDbEntity
  8
0
100
AcDbLine
 10
21845.71366135573
 20
-1285.178193476856
 30
0.0
 11
21845.73063305077
 21
-1285.180066469399
 31
0.0
  0
LINE
  5
3C5
330
2
100
AcDbEntity
  8
0
100
AcDbLine
 10
21845.73063305077
 20
-1285.180066469399
 30
0.0
 11
21845.74758651385
 21
-1285.18198244261
 31
0.0
  0
LINE
  5
3C6
330
2
100
AcDbEntity
  8
0
100
AcDbLine
 10
21845.74758651385
 20
-1285.18198244261
 30
0.0
 11
21845.76452178808
 21
-1285.183940954278
 31
0.0
  0
LINE
  5
3C7
330
2
100
AcDbEntity
  8
0
100
AcDbLine
 10
21845.76452178808
 20
-1285.183940954278
 30
0.0
 11
21845.78143891659
 21
-1285.18594156219
 31
0.0
  0
LINE
  5
3C8
330
2
100
AcDbEntity
  8
0
100
AcDbLine
 10
21845.78143891659
 20
-1285.18594156219
 30
0.0
 11
21845.79833794248
 21
-1285.187983824136
 31
0.0
  0
LINE
  5
3C9
330
2
100
AcDbEntity
  8
0
100
AcDbLine
 10
21845.79833794248
 20
-1285.187983824136
 30
0.0
 11
21845.81521890884
 21
-1285.190067297905
 31
0.0
  0
LINE
  5
3CA
330
2
100
AcDbEntity
  8
0
100
AcDbLine
 10
21845.81521890884
 20
-1285.190067297905
 30
0.0
 11
21845.83208185882
 21
-1285.192191541287
 31
0.0
  0
LINE
  5
3CB
330
2
100
AcDbEntity
  8
0
100
AcDbLine
 10
21845.83208185882
 20
-1285.192191541287
 30
0.0
 11
21845.84892683551
 21
-1285.194356112069
 31
0.0
  0
LINE
  5
3CC
330
2
100
AcDbEntity
  8
0
100
AcDbLine
 10
21845.84892683551
 20
-1285.194356112069
 30
0.0
 11
21845.86575388201
 21
-1285.196560568039
 31
0.0
  0
LINE
  5
3CD
330
2
100
AcDbEntity
  8
0
100
AcDbLine
 10
21845.86575388201
 20
-1285.196560568039
 30
0.0
 11
21845.88256304145
 21
-1285.198804466989
 31
0.0
  0
LINE
  5
3CE
330
2
100
AcDbEntity
  8
0
100
AcDbLine
 10
21845.88256304145
 20
-1285.198804466989
 30
0.0
 11
21845.89935435694
 21
-1285.201087366705
 31
0.0
  0
LINE
  5
3CF
330
2
100
AcDbEntity
  8
0
100
AcDbLine
 10
21845.89935435694
 20
-1285.201087366705
 30
0.0
 11
21845.91612787158
 21
-1285.203408824975
 31
0.0
  0
LINE
  5
3D0
330
2
100
AcDbEntity
  8
0
100
AcDbLine
 10
21845.91612787158
 20
-1285.203408824975
 30
0.0
 11
21845.9328836285
 21
-1285.205768399593
 31
0.0
  0
LINE
  5
3D1
330
2
100
AcDbEntity
  8
0
100
AcDbLine
 10
21845.9328836285
 20
-1285.205768399593
 30
0.0
 11
21845.94962167079
 21
-1285.208165648341
 31
0.0
  0
LINE
  5
3D2
330
2
100
AcDbEntity
  8
0
100
AcDbLine
 10
21845.94962167079
 20
-1285.208165648341
 30
0.0
 11
21845.96634204157
 21
-1285.210600129013
 31
0.0
  0
LINE
  5
3D3
330
2
100
AcDbEntity
  8
0
100
AcDbLine
 10
21845.96634204157
 20
-1285.210600129013
 30
0.0
 11
21845.98304478395
 21
-1285.213071399396
 31
0.0
  0
LINE
  5
3D4
330
2
100
AcDbEntity
  8
0
100
AcDbLine
 10
21845.98304478395
 20
-1285.213071399396
 30
0.0
 11
21845.99972994105
 21
-1285.215579017279
 31
0.0
  0
LINE
  5
3D5
330
2
100
AcDbEntity
  8
0
100
AcDbLine
 10
21845.99972994105
 20
-1285.215579017279
 30
0.0
 11
21846.01639755597
 21
-1285.21812254045
 31
0.0
  0
LINE
  5
3D6
330
2
100
AcDbEntity
  8
0
100
AcDbLine
 10
21846.01639755597
 20
-1285.21812254045
 30
0.0
 11
21846.03304767183
 21
-1285.220701526698
 31
0.0
  0
LINE
  5
3D7
330
2
100
AcDbEntity
  8
0
100
AcDbLine
 10
21846.03304767183
 20
-1285.220701526698
 30
0.0
 11
21846.04968033174
 21
-1285.223315533811
 31
0.0
  0
LINE
  5
3D8
330
2
100
AcDbEntity
  8
0
100
AcDbLine
 10
21846.04968033174
 20
-1285.223315533811
 30
0.0
 11
21846.0662955788
 21
-1285.225964119582
 31
0.0
  0
LINE
  5
3D9
330
2
100
AcDbEntity
  8
0
100
AcDbLine
 10
21846.0662955788
 20
-1285.225964119582
 30
0.0
 11
21846.08289345613
 21
-1285.228646841794
 31
0.0
  0
LINE
  5
3DA
330
2
100
AcDbEntity
  8
0
100
AcDbLine
 10
21846.08289345613
 20
-1285.228646841794
 30
0.0
 11
21846.09947400684
 21
-1285.231363258242
 31
0.0
  0
LINE
  5
3DB
330
2
100
AcDbEntity
  8
0
100
AcDbLine
 10
21846.09947400684
 20
-1285.231363258242
 30
0.0
 11
21846.11603727405
 21
-1285.234112926709
 31
0.0
  0
LINE
  5
3DC
330
2
100
AcDbEntity
  8
0
100
AcDbLine
 10
21846.11603727405
 20
-1285.234112926709
 30
0.0
 11
21846.13258330086
 21
-1285.236895404986
 31
0.0
  0
LINE
  5
3DD
330
2
100
AcDbEntity
  8
0
100
AcDbLine
 10
21846.13258330086
 20
-1285.236895404986
 30
0.0
 11
21846.14911213038
 21
-1285.239710250863
 31
0.0
  0
LINE
  5
3DE
330
2
100
AcDbEntity
  8
0
100
AcDbLine
 10
21846.14911213038
 20
-1285.239710250863
 30
0.0
 11
21846.16562380573
 21
-1285.242557022127
 31
0.0
  0
LINE
  5
3DF
330
2
100
AcDbEntity
  8
0
100
AcDbLine
 10
21846.16562380573
 20
-1285.242557022127
 30
0.0
 11
21846.18211837002
 21
-1285.245435276568
 31
0.0
  0
LINE
  5
3E0
330
2
100
AcDbEntity
  8
0
100
AcDbLine
 10
21846.18211837002
 20
-1285.245435276568
 30
0.0
 11
21846.19859586635
 21
-1285.248344571974
 31
0.0
  0
LINE
  5
3E1
330
2
100
AcDbEntity
  8
0
100
AcDbLine
 10
21846.19859586635
 20
-1285.248344571974
 30
0.0
 11
21846.21505633784
 21
-1285.251284466137
 31
0.0
  0
LINE
  5
3E2
330
2
100
AcDbEntity
  8
0
100
AcDbLine
 10
21846.21505633784
 20
-1285.251284466137
 30
0.0
 11
21846.23149982761
 21
-1285.254254516841
 31
0.0
  0
LINE
  5
3E3
330
2
100
AcDbEntity
  8
0
100
AcDbLine
 10
21846.23149982761
 20
-1285.254254516841
 30
0.0
 11
21846.24792637876
 21
-1285.257254281875
 31
0.0
  0
LINE
  5
3E4
330
2
100
AcDbEntity
  8
0
100
AcDbLine
 10
21846.24792637876
 20
-1285.257254281875
 30
0.0
 11
21846.2643360344
 21
-1285.260283319033
 31
0.0
  0
LINE
  5
3E5
330
2
100
AcDbEntity
  8
0
100
AcDbLine
 10
21846.2643360344
 20
-1285.260283319033
 30
0.0
 11
21846.28072883765
 21
-1285.2633411861
 31
0.0
  0
LINE
  5
3E6
330
2
100
AcDbEntity
  8
0
100
AcDbLine
 10
21846.28072883765
 20
-1285.2633411861
 30
0.0
 11
21846.29710483162
 21
-1285.266427440864
 31
0.0
  0
LINE
  5
3E7
330
2
100
AcDbEntity
  8
0
100
AcDbLine
 10
21846.29710483162
 20
-1285.266427440864
 30
0.0
 11
21846.31346405941
 21
-1285.269541641116
 31
0.0
  0
LINE
  5
3E8
330
2
100
AcDbEntity
  8
0
100
AcDbLine
 10
21846.31346405941
 20
-1285.269541641116
 30
0.0
 11
21846.32980656413
 21
-1285.272683344644
 31
0.0
  0
LINE
  5
3E9
330
2
100
AcDbEntity
  8
0
100
AcDbLine
 10
21846.32980656413
 20
-1285.272683344644
 30
0.0
 11
21846.34613238892
 21
-1285.275852109237
 31
0.0
  0
LINE
  5
3EA
330
2
100
AcDbEntity
  8
0
100
AcDbLine
 10
21846.34613238892
 20
-1285.275852109237
 30
0.0
 11
21846.36244157686
 21
-1285.279047492683
 31
0.0
  0
LINE
  5
3EB
330
2
100
AcDbEntity
  8
0
100
AcDbLine
 10
21846.36244157686
 20
-1285.279047492683
 30
0.0
 11
21846.37873417107
 21
-1285.282269052771
 31
0.0
  0
LINE
  5
3EC
330
2
100
AcDbEntity
  8
0
100
AcDbLine
 10
21846.37873417107
 20
-1285.282269052771
 30
0.0
 11
21846.39501021467
 21
-1285.285516347291
 31
0.0
  0
LINE
  5
3ED
330
2
100
AcDbEntity
  8
0
100
AcDbLine
 10
21846.39501021467
 20
-1285.285516347291
 30
0.0
 11
21846.41126975076
 21
-1285.288788934032
 31
0.0
  0
LINE
  5
3EE
330
2
100
AcDbEntity
  8
0
100
AcDbLine
 10
21846.41126975076
 20
-1285.288788934032
 30
0.0
 11
21846.42751282246
 21
-1285.292086370779
 31
0.0
  0
LINE
  5
3EF
330
2
100
AcDbEntity
  8
0
100
AcDbLine
 10
21846.42751282246
 20
-1285.292086370779
 30
0.0
 11
21846.44373947287
 21
-1285.295408215325
 31
0.0
  0
LINE
  5
3F0
330
2
100
AcDbEntity
  8
0
100
AcDbLine
 10
21846.44373947287
 20
-1285.295408215325
 30
0.0
 11
21846.45994974512
 21
-1285.298754025459
 31
0.0
  0
LINE
  5
3F1
330
2
100
AcDbEntity
  8
0
100
AcDbLine
 10
21846.45994974512
 20
-1285.298754025459
 30
0.0
 11
21846.4761436823
 21
-1285.302123358967
 31
0.0
  0
LINE
  5
3F2
330
2
100
AcDbEntity
  8
0
100
AcDbLine
 10
21846.4761436823
 20
-1285.302123358967
 30
0.0
 11
21846.49232132754
 21
-1285.305515773639
 31
0.0
  0
LINE
  5
3F3
330
2
100
AcDbEntity
  8
0
100
AcDbLine
 10
21846.49232132754
 20
-1285.305515773639
 30
0.0
 11
21846.50848272394
 21
-1285.308930827264
 31
0.0
  0
LINE
  5
3F4
330
2
100
AcDbEntity
  8
0
100
AcDbLine
 10
21846.50848272394
 20
-1285.308930827264
 30
0.0
 11
21846.52462791462
 21
-1285.312368077631
 31
0.0
  0
LINE
  5
3F5
330
2
100
AcDbEntity
  8
0
100
AcDbLine
 10
21846.52462791462
 20
-1285.312368077631
 30
0.0
 11
21846.54075694268
 21
-1285.315827082529
 31
0.0
  0
LINE
  5
3F6
330
2
100
AcDbEntity
  8
0
100
AcDbLine
 10
21846.54075694268
 20
-1285.315827082529
 30
0.0
 11
21846.55686985123
 21
-1285.319307399745
 31
0.0
  0
LINE
  5
3F7
330
2
100
AcDbEntity
  8
0
100
AcDbLine
 10
21846.55686985123
 20
-1285.319307399745
 30
0.0
 11
21846.57296668339
 21
-1285.32280858707
 31
0.0
  0
LINE
  5
3F8
330
2
100
AcDbEntity
  8
0
100
AcDbLine
 10
21846.57296668339
 20
-1285.32280858707
 30
0.0
 11
21846.58904748228
 21
-1285.326330202292
 31
0.0
  0
LINE
  5
3F9
330
2
100
AcDbEntity
  8
0
100
AcDbLine
 10
21846.58904748228
 20
-1285.326330202292
 30
0.0
 11
21846.60511229099
 21
-1285.329871803199
 31
0.0
  0
LINE
  5
3FA
330
2
100
AcDbEntity
  8
0
100
AcDbLine
 10
21846.60511229099
 20
-1285.329871803199
 30
0.0
 11
21846.62116115264
 21
-1285.333432947581
 31
0.0
  0
LINE
  5
3FB
330
2
100
AcDbEntity
  8
0
100
AcDbLine
 10
21846.62116115264
 20
-1285.333432947581
 30
0.0
 11
21846.63719411035
 21
-1285.337013193227
 31
0.0
  0
LINE
  5
3FC
330
2
100
AcDbEntity
  8
0
100
AcDbLine
 10
21846.63719411035
 20
-1285.337013193227
 30
0.0
 11
21846.65321120722
 21
-1285.340612097924
 31
0.0
  0
LINE
  5
3FD
330
2
100
AcDbEntity
  8
0
100
AcDbLine
 10
21846.65321120722
 20
-1285.340612097924
 30
0.0
 11
21846.66921248637
 21
-1285.344229219464
 31
0.0
  0
LINE
  5
3FE
330
2
100
AcDbEntity
  8
0
100
AcDbLine
 10
21846.66921248637
 20
-1285.344229219464
 30
0.0
 11
21846.68519799091
 21
-1285.347864115631
 31
0.0
  0
LINE
  5
3FF
330
2
100
AcDbEntity
  8
0
100
AcDbLine
 10
21846.68519799091
 20
-1285.347864115631
 30
0.0
 11
21846.70116776394
 21
-1285.351516344218
 31
0.0
  0
LINE
  5
400
330
2
100
AcDbEntity
  8
0
100
AcDbLine
 10
21846.70116776394
 20
-1285.351516344218
 30
0.0
 11
21846.71712184858
 21
-1285.355185463014
 31
0.0
  0
LINE
  5
401
330
2
100
AcDbEntity
  8
0
100
AcDbLine
 10
21846.71712184858
 20
-1285.355185463014
 30
0.0
 11
21846.73306028794
 21
-1285.358871029803
 31
0.0
  0
LINE
  5
402
330
2
100
AcDbEntity
  8
0
100
AcDbLine
 10
21846.73306028794
 20
-1285.358871029803
 30
0.0
 11
21846.74898312514
 21
-1285.362572602379
 31
0.0
  0
LINE
  5
403
330
2
100
AcDbEntity
  8
0
100
AcDbLine
 10
21846.74898312514
 20
-1285.362572602379
 30
0.0
 11
21846.76489040328
 21
-1285.36628973853
 31
0.0
  0
LINE
  5
404
330
2
100
AcDbEntity
  8
0
100
AcDbLine
 10
21846.76489040328
 20
-1285.36628973853
 30
0.0
 11
21846.78078216546
 21
-1285.370021996042
 31
0.0
  0
LINE
  5
405
330
2
100
AcDbEntity
  8
0
100
AcDbLine
 10
21846.78078216546
 20
-1285.370021996042
 30
0.0
 11
21846.79665845482
 21
-1285.373768932705
 31
0.0
  0
LINE
  5
406
330
2
100
AcDbEntity
  8
0
100
AcDbLine
 10
21846.79665845482
 20
-1285.373768932705
 30
0.0
 11
21846.81251931446
 21
-1285.377530106309
 31
0.0
  0
LINE
  5
407
330
2
100
AcDbEntity
  8
0
100
AcDbLine
 10
21846.81251931446
 20
-1285.377530106309
 30
0.0
 11
21846.82836478748
 21
-1285.381305074644
 31
0.0
  0
LINE
  5
408
330
2
100
AcDbEntity
  8
0
100
AcDbLine
 10
21846.82836478748
 20
-1285.381305074644
 30
0.0
 11
21846.844194917
 21
-1285.385093395493
 31
0.0
  0
LINE
  5
409
330
2
100
AcDbEntity
  8
0
100
AcDbLine
 10
21846.844194917
 20
-1285.385093395493
 30
0.0
 11
21846.86000974613
 21
-1285.388894626651
 31
0.0
  0
LINE
  5
40A
330
2
100
AcDbEntity
  8
0
100
AcDbLine
 10
21846.86000974613
 20
-1285.388894626651
 30
0.0
 11
21846.87580931799
 21
-1285.392708325905
 31
0.0
  0
LINE
  5
40B
330
2
100
AcDbEntity
  8
0
100
AcDbLine
 10
21846.87580931799
 20
-1285.392708325905
 30
0.0
 11
21846.89159367568
 21
-1285.396534051043
 31
0.0
  0
LINE
  5
40C
330
2
100
AcDbEntity
  8
0
100
AcDbLine
 10
21846.89159367568
 20
-1285.396534051043
 30
0.0
 11
21846.90736286231
 21
-1285.400371359855
 31
0.0
  0
LINE
  5
40D
330
2
100
AcDbEntity
  8
0
100
AcDbLine
 10
21846.90736286231
 20
-1285.400371359855
 30
0.0
 11
21846.92311692101
 21
-1285.404219810128
 31
0.0
  0
LINE
  5
40E
330
2
100
AcDbEntity
  8
0
100
AcDbLine
 10
21846.92311692101
 20
-1285.404219810128
 30
0.0
 11
21846.93885589485
 21
-1285.408078959651
 31
0.0
  0
LINE
  5
40F
330
2
100
AcDbEntity
  8
0
100
AcDbLine
 10
21846.93885589485
 20
-1285.408078959651
 30
0.0
 11
21846.95457982699
 21
-1285.411948366215
 31
0.0
  0
LINE
  5
410
330
2
100
AcDbEntity
  8
0
100
AcDbLine
 10
21846.95457982699
 20
-1285.411948366215
 30
0.0
 11
21846.97028876052
 21
-1285.415827587606
 31
0.0
  0
LINE
  5
411
330
2
100
AcDbEntity
  8
0
100
AcDbLine
 10
21846.97028876052
 20
-1285.415827587606
 30
0.0
 11
21846.98598273854
 21
-1285.419716181614
 31
0.0
  0
LINE
  5
412
330
2
100
AcDbEntity
  8
0
100
AcDbLine
 10
21846.98598273854
 20
-1285.419716181614
 30
0.0
 11
21847.00166180418
 21
-1285.423613706029
 31
0.0
  0
LINE
  5
413
330
2
100
AcDbEntity
  8
0
100
AcDbLine
 10
21847.00166180418
 20
-1285.423613706029
 30
0.0
 11
21847.01732600054
 21
-1285.427519718641
 31
0.0
  0
LINE
  5
414
330
2
100
AcDbEntity
  8
0
100
AcDbLine
 10
21847.01732600054
 20
-1285.427519718641
 30
0.0
 11
21847.03297537074
 21
-1285.431433777233
 31
0.0
  0
LINE
  5
415
330
2
100
AcDbEntity
  8
0
100
AcDbLine
 10
21847.03297537074
 20
-1285.431433777233
 30
0.0
 11
21847.04860995788
 21
-1285.435355439599
 31
0.0
  0
LINE
  5
416
330
2
100
AcDbEntity
  8
0
100
AcDbLine
 10
21847.04860995788
 20
-1285.435355439599
 30
0.0
 11
21847.06422980508
 21
-1285.439284263527
 31
0.0
  0
LINE
  5
417
330
2
100
AcDbEntity
  8
0
100
AcDbLine
 10
21847.06422980508
 20
-1285.439284263527
 30
0.0
 11
21847.07983495544
 21
-1285.443219806803
 31
0.0
  0
LINE
  5
418
330
2
100
AcDbEntity
  8
0
100
AcDbLine
 10
21847.07983495544
 20
-1285.443219806803
 30
0.0
 11
21847.0954254521
 21
-1285.447161627221
 31
0.0
  0
LINE
  5
419
330
2
100
AcDbEntity
  8
0
100
AcDbLine
 10
21847.0954254521
 20
-1285.447161627221
 30
0.0
 11
21847.11100133814
 21
-1285.451109282564
 31
0.0
  0
LINE
  5
41A
330
2
100
AcDbEntity
  8
0
100
AcDbLine
 10
21847.11100133814
 20
-1285.451109282564
 30
0.0
 11
21847.12656265668
 21
-1285.455062330625
 31
0.0
  0
LINE
  5
41B
330
2
100
AcDbEntity
  8
0
100
AcDbLine
 10
21847.12656265668
 20
-1285.455062330625
 30
0.0
 11
21847.14210945083
 21
-1285.459020329191
 31
0.0
  0
LINE
  5
41C
330
2
100
AcDbEntity
  8
0
100
AcDbLine
 10
21847.14210945083
 20
-1285.459020329191
 30
0.0
 11
21847.15764176372
 21
-1285.462982836049
 31
0.0
  0
LINE
  5
41D
330
2
100
AcDbEntity
  8
0
100
AcDbLine
 10
21847.15764176372
 20
-1285.462982836049
 30
0.0
 11
21847.17315963843
 21
-1285.466949408993
 31
0.0
  0
LINE
  5
41E
330
2
100
AcDbEntity
  8
0
100
AcDbLine
 10
21847.17315963843
 20
-1285.466949408993
 30
0.0
 11
21847.1886631181
 21
-1285.470919605807
 31
0.0
  0
LINE
  5
41F
330
2
100
AcDbEntity
  8
0
100
AcDbLine
 10
21847.1886631181
 20
-1285.470919605807
 30
0.0
 11
21847.20415224583
 21
-1285.474892984283
 31
0.0
  0
LINE
  5
420
330
2
100
AcDbEntity
  8
0
100
AcDbLine
 10
21847.20415224583
 20
-1285.474892984283
 30
0.0
 11
21847.21962706472
 21
-1285.478869102206
 31
0.0
  0
LINE
  5
421
330
2
100
AcDbEntity
  8
0
100
AcDbLine
 10
21847.21962706472
 20
-1285.478869102206
 30
0.0
 11
21847.23508761789
 21
-1285.48284751737
 31
0.0
  0
LINE
  5
422
330
2
100
AcDbEntity
  8
0
100
AcDbLine
 10
21847.23508761789
 20
-1285.48284751737
 30
0.0
 11
21847.25053394846
 21
-1285.48682778756
 31
0.0
  0
LINE
  5
423
330
2
100
AcDbEntity
  8
0
100
AcDbLine
 10
21847.25053394846
 20
-1285.48682778756
 30
0.0
 11
21847.26596609953
 21
-1285.490809470565
 31
0.0
  0
LINE
  5
424
330
2
100
AcDbEntity
  8
0
100
AcDbLine
 10
21847.26596609953
 20
-1285.490809470565
 30
0.0
 11
21847.28138411422
 21
-1285.494792124175
 31
0.0
  0
LINE
  5
425
330
2
100
AcDbEntity
  8
0
100
AcDbLine
 10
21847.28138411422
 20
-1285.494792124175
 30
0.0
 11
21847.29678803563
 21
-1285.498775306179
 31
0.0
  0
LINE
  5
426
330
2
100
AcDbEntity
  8
0
100
AcDbLine
 10
21847.29678803563
 20
-1285.498775306179
 30
0.0
 11
21847.31217790688
 21
-1285.502758574365
 31
0.0
  0
LINE
  5
427
330
2
100
AcDbEntity
  8
0
100
AcDbLine
 10
21847.31217790688
 20
-1285.502758574365
 30
0.0
 11
21847.32755377109
 21
-1285.506741486521
 31
0.0
  0
LINE
  5
428
330
2
100
AcDbEntity
  8
0
100
AcDbLine
 10
21847.32755377109
 20
-1285.506741486521
 30
0.0
 11
21847.34291567135
 21
-1285.510723600438
 31
0.0
  0
LINE
  5
429
330
2
100
AcDbEntity
  8
0
100
AcDbLine
 10
21847.34291567135
 20
-1285.510723600438
 30
0.0
 11
21847.35826365078
 21
-1285.514704473903
 31
0.0
  0
LINE
  5
42A
330
2
100
AcDbEntity
  8
0
100
AcDbLine
 10
21847.35826365078
 20
-1285.514704473903
 30
0.0
 11
21847.37359775249
 21
-1285.518683664707
 31
0.0
  0
LINE
  5
42B
330
2
100
AcDbEntity
  8
0
100
AcDbLine
 10
21847.37359775249
 20
-1285.518683664707
 30
0.0
 11
21847.38891801961
 21
-1285.522660730636
 31
0.0
  0
LINE
  5
42C
330
2
100
AcDbEntity
  8
0
100
AcDbLine
 10
21847.38891801961
 20
-1285.522660730636
 30
0.0
 11
21847.40422449522
 21
-1285.526635229481
 31
0.0
  0
LINE
  5
42D
330
2
100
AcDbEntity
  8
0
100
AcDbLine
 10
21847.40422449522
 20
-1285.526635229481
 30
0.0
 11
21847.41951722245
 21
-1285.530606719029
 31
0.0
  0
LINE
  5
42E
330
2
100
AcDbEntity
  8
0
100
AcDbLine
 10
21847.41951722245
 20
-1285.530606719029
 30
0.0
 11
21847.43479624441
 21
-1285.534574757069
 31
0.0
  0
LINE
  5
42F
330
2
100
AcDbEntity
  8
0
100
AcDbLine
 10
21847.43479624441
 20
-1285.534574757069
 30
0.0
 11
21847.45006160421
 21
-1285.538538901392
 31
0.0
  0
LINE
  5
430
330
2
100
AcDbEntity
  8
0
100
AcDbLine
 10
21847.45006160421
 20
-1285.538538901392
 30
0.0
 11
21847.46531334496
 21
-1285.542498709786
 31
0.0
  0
LINE
  5
431
330
2
100
AcDbEntity
  8
0
100
AcDbLine
 10
21847.46531334496
 20
-1285.542498709786
 30
0.0
 11
21847.48055150977
 21
-1285.546453740037
 31
0.0
  0
LINE
  5
432
330
2
100
AcDbEntity
  8
0
100
AcDbLine
 10
21847.48055150977
 20
-1285.546453740037
 30
0.0
 11
21847.49577614176
 21
-1285.550403549937
 31
0.0
  0
LINE
  5
433
330
2
100
AcDbEntity
  8
0
100
AcDbLine
 10
21847.49577614176
 20
-1285.550403549937
 30
0.0
 11
21847.51098728403
 21
-1285.554347697273
 31
0.0
  0
LINE
  5
434
330
2
100
AcDbEntity
  8
0
100
AcDbLine
 10
21847.51098728403
 20
-1285.554347697273
 30
0.0
 11
21847.52618497969
 21
-1285.558285739836
 31
0.0
  0
LINE
  5
435
330
2
100
AcDbEntity
  8
0
100
AcDbLine
 10
21847.52618497969
 20
-1285.558285739836
 30
0.0
 11
21847.54136927186
 21
-1285.562217235413
 31
0.0
  0
LINE
  5
436
330
2
100
AcDbEntity
  8
0
100
AcDbLine
 10
21847.54136927186
 20
-1285.562217235413
 30
0.0
 11
21847.55654020365
 21
-1285.566141741793
 31
0.0
  0
LINE
  5
437
330
2
100
AcDbEntity
  8
0
100
AcDbLine
 10
21847.55654020365
 20
-1285.566141741793
 30
0.0
 11
21847.57169781817
 21
-1285.570058816764
 31
0.0
  0
LINE
  5
438
330
2
100
AcDbEntity
  8
0
100
AcDbLine
 10
21847.57169781817
 20
-1285.570058816764
 30
0.0
 11
21847.58684215853
 21
-1285.573968018119
 31
0.0
  0
LINE
  5
439
330
2
100
AcDbEntity
  8
0
100
AcDbLine
 10
21847.58684215853
 20
-1285.573968018119
 30
0.0
 11
21847.60197326784
 21
-1285.57786890364
 31
0.0
  0
LINE
  5
43A
330
2
100
AcDbEntity
  8
0
100
AcDbLine
 10
21847.60197326784
 20
-1285.57786890364
 30
0.0
 11
21847.61709118922
 21
-1285.581761031121
 31
0.0
  0
LINE
  5
43B
330
2
100
AcDbEntity
  8
0
100
AcDbLine
 10
21847.61709118922
 20
-1285.581761031121
 30
0.0
 11
21847.63219596577
 21
-1285.58564395835
 31
0.0
  0
LINE
  5
43C
330
2
100
AcDbEntity
  8
0
100
AcDbLine
 10
21847.63219596577
 20
-1285.58564395835
 30
0.0
 11
21847.64728764061
 21
-1285.589517243115
 31
0.0
  0
LINE
  5
43D
330
2
100
AcDbEntity
  8
0
100
AcDbLine
 10
21847.64728764061
 20
-1285.589517243115
 30
0.0
 11
21847.66236625684
 21
-1285.593380443203
 31
0.0
  0
LINE
  5
43E
330
2
100
AcDbEntity
  8
0
100
AcDbLine
 10
21847.66236625684
 20
-1285.593380443203
 30
0.0
 11
21847.67743185758
 21
-1285.597233116406
 31
0.0
  0
LINE
  5
43F
330
2
100
AcDbEntity
  8
0
100
AcDbLine
 10
21847.67743185758
 20
-1285.597233116406
 30
0.0
 11
21847.69248448594
 21
-1285.601074820511
 31
0.0
  0
LINE
  5
440
330
2
100
AcDbEntity
  8
0
100
AcDbLine
 10
21847.69248448594
 20
-1285.601074820511
 30
0.0
 11
21847.70752418503
 21
-1285.604905113308
 31
0.0
  0
LINE
  5
441
330
2
100
AcDbEntity
  8
0
100
AcDbLine
 10
21847.70752418503
 20
-1285.604905113308
 30
0.0
 11
21847.72255099797
 21
-1285.608723552585
 31
0.0
  0
LINE
  5
442
330
2
100
AcDbEntity
  8
0
100
AcDbLine
 10
21847.72255099797
 20
-1285.608723552585
 30
0.0
 11
21847.73756496785
 21
-1285.61252969613
 31
0.0
  0
LINE
  5
443
330
2
100
AcDbEntity
  8
0
100
AcDbLine
 10
21847.73756496785
 20
-1285.61252969613
 30
0.0
 11
21847.75256613781
 21
-1285.616323101735
 31
0.0
  0
LINE
  5
444
330
2
100
AcDbEntity
  8
0
100
AcDbLine
 10
21847.75256613781
 20
-1285.616323101735
 30
0.0
 11
21847.76755455093
 21
-1285.620103327184
 31
0.0
  0
LINE
  5
445
330
2
100
AcDbEntity
  8
0
100
AcDbLine
 10
21847.76755455093
 20
-1285.620103327184
 30
0.0
 11
21847.78253025036
 21
-1285.623869930269
 31
0.0
  0
LINE
  5
446
330
2
100
AcDbEntity
  8
0
100
AcDbLine
 10
21847.78253025036
 20
-1285.623869930269
 30
0.0
 11
21847.79749327917
 21
-1285.62762246878
 31
0.0
  0
LINE
  5
447
330
2
100
AcDbEntity
  8
0
100
AcDbLine
 10
21847.79749327917
 20
-1285.62762246878
 30
0.0
 11
21847.81244368049
 21
-1285.631360500502
 31
0.0
  0
LINE
  5
448
330
2
100
AcDbEntity
  8
0
100
AcDbLine
 10
21847.81244368049
 20
-1285.631360500502
 30
0.0
 11
21847.82738149744
 21
-1285.635083583226
 31
0.0
  0
LINE
  5
449
330
2
100
AcDbEntity
  8
0
100
AcDbLine
 10
21847.82738149744
 20
-1285.635083583226
 30
0.0
 11
21847.84230677311
 21
-1285.638791274742
 31
0.0
  0
LINE
  5
44A
330
2
100
AcDbEntity
  8
0
100
AcDbLine
 10
21847.84230677311
 20
-1285.638791274742
 30
0.0
 11
21847.85721955064
 21
-1285.642483132838
 31
0.0
  0
LINE
  5
44B
330
2
100
AcDbEntity
  8
0
100
AcDbLine
 10
21847.85721955064
 20
-1285.642483132838
 30
0.0
 11
21847.87211987312
 21
-1285.6461587153
 31
0.0
  0
LINE
  5
44C
330
2
100
AcDbEntity
  8
0
100
AcDbLine
 10
21847.87211987312
 20
-1285.6461587153
 30
0.0
 11
21847.88700778366
 21
-1285.64981757992
 31
0.0
  0
LINE
  5
44D
330
2
100
AcDbEntity
  8
0
100
AcDbLine
 10
21847.88700778366
 20
-1285.64981757992
 30
0.0
 11
21847.90188332538
 21
-1285.653459284485
 31
0.0
  0
LINE
  5
44E
330
2
100
AcDbEntity
  8
0
100
AcDbLine
 10
21847.90188332538
 20
-1285.653459284485
 30
0.0
 11
21847.91674654139
 21
-1285.657083386785
 31
0.0
  0
LINE
  5
44F
330
2
100
AcDbEntity
  8
0
100
AcDbLine
 10
21847.91674654139
 20
-1285.657083386785
 30
0.0
 11
21847.9315974748
 21
-1285.660689444609
 31
0.0
  0
LINE
  5
450
330
2
100
AcDbEntity
  8
0
100
AcDbLine
 10
21847.9315974748
 20
-1285.660689444609
 30
0.0
 11
21847.94643616872
 21
-1285.664277015746
 31
0.0
  0
LINE
  5
451
330
2
100
AcDbEntity
  8
0
100
AcDbLine
 10
21847.94643616872
 20
-1285.664277015746
 30
0.0
 11
21847.96126266626
 21
-1285.667845657982
 31
0.0
  0
LINE
  5
452
330
2
100
AcDbEntity
  8
0
100
AcDbLine
 10
21847.96126266626
 20
-1285.667845657982
 30
0.0
 11
21847.97607701054
 21
-1285.67139492911
 31
0.0
  0
LINE
  5
453
330
2
100
AcDbEntity
  8
0
100
AcDbLine
 10
21847.97607701054
 20
-1285.67139492911
 30
0.0
 11
21847.99087924467
 21
-1285.674924386915
 31
0.0
  0
LINE
  5
454
330
2
100
AcDbEntity
  8
0
100
AcDbLine
 10
21847.99087924467
 20
-1285.674924386915
 30
0.0
 11
21848.00566941174
 21
-1285.678433589189
 31
0.0
  0
LINE
  5
455
330
2
100
AcDbEntity
  8
0
100
AcDbLine
 10
21848.00566941174
 20
-1285.678433589189
 30
0.0
 11
21848.02044755489
 21
-1285.681922093719
 31
0.0
  0
LINE
  5
456
330
2
100
AcDbEntity
  8
0
100
AcDbLine
 10
21848.02044755489
 20
-1285.681922093719
 30
0.0
 11
21848.03521371722
 21
-1285.685389458294
 31
0.0
  0
LINE
  5
457
330
2
100
AcDbEntity
  8
0
100
AcDbLine
 10
21848.03521371722
 20
-1285.685389458294
 30
0.0
 11
21848.04996794184
 21
-1285.688835240703
 31
0.0
  0
LINE
  5
458
330
2
100
AcDbEntity
  8
0
100
AcDbLine
 10
21848.04996794184
 20
-1285.688835240703
 30
0.0
 11
21848.06471027185
 21
-1285.692258998734
 31
0.0
  0
LINE
  5
459
330
2
100
AcDbEntity
  8
0
100
AcDbLine
 10
21848.06471027185
 20
-1285.692258998734
 30
0.0
 11
21848.07944075038
 21
-1285.695660290178
 31
0.0
  0
LINE
  5
45A
330
2
100
AcDbEntity
  8
0
100
AcDbLine
 10
21848.07944075038
 20
-1285.695660290178
 30
0.0
 11
21848.09415942054
 21
-1285.699038672822
 31
0.0
  0
LINE
  5
45B
330
2
100
AcDbEntity
  8
0
100
AcDbLine
 10
21848.09415942054
 20
-1285.699038672822
 30
0.0
 11
21848.10886632543
 21
-1285.702393704455
 31
0.0
  0
LINE
  5
45C
330
2
100
AcDbEntity
  8
0
100
AcDbLine
 10
21848.10886632543
 20
-1285.702393704455
 30
0.0
 11
21848.12356150816
 21
-1285.705724942866
 31
0.0
  0
LINE
  5
45D
330
2
100
AcDbEntity
  8
0
100
AcDbLine
 10
21848.12356150816
 20
-1285.705724942866
 30
0.0
 11
21848.13824501186
 21
-1285.709031945843
 31
0.0
  0
LINE
  5
45E
330
2
100
AcDbEntity
  8
0
100
AcDbLine
 10
21848.13824501186
 20
-1285.709031945843
 30
0.0
 11
21848.15291687963
 21
-1285.712314271176
 31
0.0
  0
LINE
  5
45F
330
2
100
AcDbEntity
  8
0
100
AcDbLine
 10
21848.15291687963
 20
-1285.712314271176
 30
0.0
 11
21848.16757715457
 21
-1285.715571476655
 31
0.0
  0
LINE
  5
460
330
2
100
AcDbEntity
  8
0
100
AcDbLine
 10
21848.16757715457
 20
-1285.715571476655
 30
0.0
 11
21848.18222587981
 21
-1285.718803120065
 31
0.0
  0
LINE
  5
461
330
2
100
AcDbEntity
  8
0
100
AcDbLine
 10
21848.18222587981
 20
-1285.718803120065
 30
0.0
 11
21848.19686309844
 21
-1285.722008759198
 31
0.0
  0
LINE
  5
462
330
2
100
AcDbEntity
  8
0
100
AcDbLine
 10
21848.19686309844
 20
-1285.722008759198
 30
0.0
 11
21848.2114888536
 21
-1285.725187951843
 31
0.0
  0
LINE
  5
463
330
2
100
AcDbEntity
  8
0
100
AcDbLine
 10
21848.2114888536
 20
-1285.725187951843
 30
0.0
 11
21848.22610318838
 21
-1285.728340255787
 31
0.0
  0
LINE
  5
464
330
2
100
AcDbEntity
  8
0
100
AcDbLine
 10
21848.22610318838
 20
-1285.728340255787
 30
0.0
 11
21848.2407061459
 21
-1285.731465228819
 31
0.0
  0
LINE
  5
465
330
2
100
AcDbEntity
  8
0
100
AcDbLine
 10
21848.2407061459
 20
-1285.731465228819
 30
0.0
 11
21848.25529776926
 21
-1285.734562428729
 31
0.0
  0
LINE
  5
466
330
2
100
AcDbEntity
  8
0
100
AcDbLine
 10
21848.25529776926
 20
-1285.734562428729
 30
0.0
 11
21848.26987810158
 21
-1285.737631413304
 31
0.0
  0
LINE
  5
467
330
2
100
AcDbEntity
  8
0
100
AcDbLine
 10
21848.26987810158
 20
-1285.737631413304
 30
0.0
 11
21848.28444718598
 21
-1285.740671740335
 31
0.0
  0
LINE
  5
468
330
2
100
AcDbEntity
  8
0
100
AcDbLine
 10
21848.28444718598
 20
-1285.740671740335
 30
0.0
 11
21848.29900506555
 21
-1285.743682967609
 31
0.0
  0
LINE
  5
469
330
2
100
AcDbEntity
  8
0
100
AcDbLine
 10
21848.29900506555
 20
-1285.743682967609
 30
0.0
 11
21848.31355178342
 21
-1285.746664652916
 31
0.0
  0
LINE
  5
46A
330
2
100
AcDbEntity
  8
0
100
AcDbLine
 10
21848.31355178342
 20
-1285.746664652916
 30
0.0
 11
21848.3280873827
 21
-1285.749616354044
 31
0.0
  0
LINE
  5
46B
330
2
100
AcDbEntity
  8
0
100
AcDbLine
 10
21848.3280873827
 20
-1285.749616354044
 30
0.0
 11
21848.34261190649
 21
-1285.752537628784
 31
0.0
  0
LINE
  5
46C
330
2
100
AcDbEntity
  8
0
100
AcDbLine
 10
21848.34261190649
 20
-1285.752537628784
 30
0.0
 11
21848.3571253979
 21
-1285.755428034922
 31
0.0
  0
LINE
  5
46D
330
2
100
AcDbEntity
  8
0
100
AcDbLine
 10
21848.3571253979
 20
-1285.755428034922
 30
0.0
 11
21848.37162790006
 21
-1285.758287130246
 31
0.0
  0
LINE
  5
46E
330
2
100
AcDbEntity
  8
0
100
AcDbLine
 10
21848.37162790006
 20
-1285.758287130246
 30
0.0
 11
21848.38611945607
 21
-1285.76111447255
 31
0.0
  0
LINE
  5
46F
330
2
100
AcDbEntity
  8
0
100
AcDbLine
 10
21848.38611945607
 20
-1285.76111447255
 30
0.0
 11
21848.40060010903
 21
-1285.763909619615
 31
0.0
  0
LINE
  5
470
330
2
100
AcDbEntity
  8
0
100
AcDbLine
 10
21848.40060010903
 20
-1285.763909619615
 30
0.0
 11
21848.41506990207
 21
-1285.766672129238
 31
0.0
  0
LINE
  5
471
330
2
100
AcDbEntity
  8
0
100
AcDbLine
 10
21848.41506990207
 20
-1285.766672129238
 30
0.0
 11
21848.42952887829
 21
-1285.769401559203
 31
0.0
  0
LINE
  5
472
330
2
100
AcDbEntity
  8
0
100
AcDbLine
 10
21848.42952887829
 20
-1285.769401559203
 30
0.0
 11
21848.44397708081
 21
-1285.772097467298
 31
0.0
  0
LINE
  5
473
330
2
100
AcDbEntity
  8
0
100
AcDbLine
 10
21848.44397708081
 20
-1285.772097467298
 30
0.0
 11
21848.45841455274
 21
-1285.774759411316
 31
0.0
  0
LINE
  5
474
330
2
100
AcDbEntity
  8
0
100
AcDbLine
 10
21848.45841455274
 20
-1285.774759411316
 30
0.0
 11
21848.47284133717
 21
-1285.777386949044
 31
0.0
  0
LINE
  5
475
330
2
100
AcDbEntity
  8
0
100
AcDbLine
 10
21848.47284133717
 20
-1285.777386949044
 30
0.0
 11
21848.48725747724
 21
-1285.779979638269
 31
0.0
  0
LINE
  5
476
330
2
100
AcDbEntity
  8
0
100
AcDbLine
 10
21848.48725747724
 20
-1285.779979638269
 30
0.0
 11
21848.50166301605
 21
-1285.78253703678
 31
0.0
  0
LINE
  5
477
330
2
100
AcDbEntity
  8
0
100
AcDbLine
 10
21848.50166301605
 20
-1285.78253703678
 30
0.0
 11
21848.51605799671
 21
-1285.785058702368
 31
0.0
  0
LINE
  5
478
330
2
100
AcDbEntity
  8
0
100
AcDbLine
 10
21848.51605799671
 20
-1285.785058702368
 30
0.0
 11
21848.53044246233
 21
-1285.787544192822
 31
0.0
  0
LINE
  5
479
330
2
100
AcDbEntity
  8
0
100
AcDbLine
 10
21848.53044246233
 20
-1285.787544192822
 30
0.0
 11
21848.54481645603
 21
-1285.789993065927
 31
0.0
  0
LINE
  5
47A
330
2
100
AcDbEntity
  8
0
100
AcDbLine
 10
21848.54481645603
 20
-1285.789993065927
 30
0.0
 11
21848.55918002091
 21
-1285.792404879476
 31
0.0
  0
LINE
  5
47B
330
2
100
AcDbEntity
  8
0
100
AcDbLine
 10
21848.55918002091
 20
-1285.792404879476
 30
0.0
 11
21848.57353320008
 21
-1285.794779191256
 31
0.0
  0
LINE
  5
47C
330
2
100
AcDbEntity
  8
0
100
AcDbLine
 10
21848.57353320008
 20
-1285.794779191256
 30
0.0
 11
21848.58787603667
 21
-1285.797115559056
 31
0.0
  0
LINE
  5
47D
330
2
100
AcDbEntity
  8
0
100
AcDbLine
 10
21848.58787603667
 20
-1285.797115559056
 30
0.0
 11
21848.60220857377
 21
-1285.799413540663
 31
0.0
  0
LINE
  5
47E
330
2
100
AcDbEntity
  8
0
100
AcDbLine
 10
21848.60220857377
 20
-1285.799413540663
 30
0.0
 11
21848.6165308545
 21
-1285.80167269387
 31
0.0
  0
LINE
  5
47F
330
2
100
AcDbEntity
  8
0
100
AcDbLine
 10
21848.6165308545
 20
-1285.80167269387
 30
0.0
 11
21848.63084292198
 21
-1285.803892576462
 31
0.0
  0
LINE
  5
480
330
2
100
AcDbEntity
  8
0
100
AcDbLine
 10
21848.63084292198
 20
-1285.803892576462
 30
0.0
 11
21848.6451448193
 21
-1285.80607274623
 31
0.0
  0
LINE
  5
481
330
2
100
AcDbEntity
  8
0
100
AcDbLine
 10
21848.6451448193
 20
-1285.80607274623
 30
0.0
 11
21848.6594365896
 21
-1285.808212760962
 31
0.0
  0
LINE
  5
482
330
2
100
AcDbEntity
  8
0
100
AcDbLine
 10
21848.6594365896
 20
-1285.808212760962
 30
0.0
 11
21848.67371827596
 21
-1285.810312178447
 31
0.0
  0
LINE
  5
483
330
2
100
AcDbEntity
  8
0
100
AcDbLine
 10
21848.67371827596
 20
-1285.810312178447
 30
0.0
 11
21848.68798992151
 21
-1285.812370556473
 31
0.0
  0
LINE
  5
484
330
2
100
AcDbEntity
  8
0
100
AcDbLine
 10
21848.68798992151
 20
-1285.812370556473
 30
0.0
 11
21848.70225156936
 21
-1285.814387452829
 31
0.0
  0
LINE
  5
485
330
2
100
AcDbEntity
  8
0
100
AcDbLine
 10
21848.70225156936
 20
-1285.814387452829
 30
0.0
 11
21848.71650326262
 21
-1285.816362425306
 31
0.0
  0
LINE
  5
486
330
2
100
AcDbEntity
  8
0
100
AcDbLine
 10
21848.71650326262
 20
-1285.816362425306
 30
0.0
 11
21848.7307450444
 21
-1285.81829503169
 31
0.0
  0
LINE
  5
487
330
2
100
AcDbEntity
  8
0
100
AcDbLine
 10
21848.7307450444
 20
-1285.81829503169
 30
0.0
 11
21848.74497695781
 21
-1285.820184829771
 31
0.0
  0
LINE
  5
488
330
2
100
AcDbEntity
  8
0
100
AcDbLine
 10
21848.74497695781
 20
-1285.820184829771
 30
0.0
 11
21848.75919904596
 21
-1285.822031377337
 31
0.0
  0
LINE
  5
489
330
2
100
AcDbEntity
  8
0
100
AcDbLine
 10
21848.75919904596
 20
-1285.822031377337
 30
0.0
 11
21848.77341135197
 21
-1285.823834232179
 31
0.0
  0
LINE
  5
48A
330
2
100
AcDbEntity
  8
0
100
AcDbLine
 10
21848.77341135197
 20
-1285.823834232179
 30
0.0
 11
21848.78761391895
 21
-1285.825592952083
 31
0.0
  0
LINE
  5
48B
330
2
100
AcDbEntity
  8
0
100
AcDbLine
 10
21848.78761391895
 20
-1285.825592952083
 30
0.0
 11
21848.80180679
 21
-1285.827307094839
 31
0.0
  0
LINE
  5
48C
330
2
100
AcDbEntity
  8
0
100
AcDbLine
 10
21848.80180679
 20
-1285.827307094839
 30
0.0
 11
21848.81599000823
 21
-1285.828976218236
 31
0.0
  0
LINE
  5
48D
330
2
100
AcDbEntity
  8
0
100
AcDbLine
 10
21848.81599000823
 20
-1285.828976218236
 30
0.0
 11
21848.83016361677
 21
-1285.830599880065
 31
0.0
  0
LINE
  5
48E
330
2
100
AcDbEntity
  8
0
100
AcDbLine
 10
21848.83016361677
 20
-1285.830599880065
 30
0.0
 11
21848.84432765872
 21
-1285.83217763811
 31
0.0
  0
LINE
  5
48F
330
2
100
AcDbEntity
  8
0
100
AcDbLine
 10
21848.84432765872
 20
-1285.83217763811
 30
0.0
 11
21848.85848217719
 21
-1285.833709050163
 31
0.0
  0
LINE
  5
490
330
2
100
AcDbEntity
  8
0
100
AcDbLine
 10
21848.85848217719
 20
-1285.833709050163
 30
0.0
 11
21848.87262721529
 21
-1285.835193674012
 31
0.0
  0
LINE
  5
491
330
2
100
AcDbEntity
  8
0
100
AcDbLine
 10
21848.87262721529
 20
-1285.835193674012
 30
0.0
 11
21848.88676281613
 21
-1285.836631067447
 31
0.0
  0
LINE
  5
492
330
2
100
AcDbEntity
  8
0
100
AcDbLine
 10
21848.88676281613
 20
-1285.836631067447
 30
0.0
 11
21848.90088902283
 21
-1285.838020788255
 31
0.0
  0
LINE
  5
493
330
2
100
AcDbEntity
  8
0
100
AcDbLine
 10
21848.90088902283
 20
-1285.838020788255
 30
0.0
 11
21848.9150058785
 21
-1285.839362394226
 31
0.0
  0
LINE
  5
494
330
2
100
AcDbEntity
  8
0
100
AcDbLine
 10
21848.9150058785
 20
-1285.839362394226
 30
0.0
 11
21848.92911342625
 21
-1285.840655443148
 31
0.0
  0
LINE
  5
495
330
2
100
AcDbEntity
  8
0
100
AcDbLine
 10
21848.92911342625
 20
-1285.840655443148
 30
0.0
 11
21848.94321170919
 21
-1285.841899492811
 31
0.0
  0
LINE
  5
496
330
2
100
AcDbEntity
  8
0
100
AcDbLine
 10
21848.94321170919
 20
-1285.841899492811
 30
0.0
 11
21848.95730077042
 21
-1285.843094101002
 31
0.0
  0
LINE
  5
497
330
2
100
AcDbEntity
  8
0
100
AcDbLine
 10
21848.95730077042
 20
-1285.843094101002
 30
0.0
 11
21848.97138065307
 21
-1285.844238825511
 31
0.0
  0
LINE
  5
498
330
2
100
AcDbEntity
  8
0
100
AcDbLine
 10
21848.97138065307
 20
-1285.844238825511
 30
0.0
 11
21848.98545140025
 21
-1285.845333224127
 31
0.0
  0
LINE
  5
499
330
2
100
AcDbEntity
  8
0
100
AcDbLine
 10
21848.98545140025
 20
-1285.845333224127
 30
0.0
 11
21848.99951305505
 21
-1285.84637685464
 31
0.0
  0
LINE
  5
49A
330
2
100
AcDbEntity
  8
0
100
AcDbLine
 10
21848.99951305505
 20
-1285.84637685464
 30
0.0
 11
21849.0135656606
 21
-1285.847369274835
 31
0.0
  0
LINE
  5
49B
330
2
100
AcDbEntity
  8
0
100
AcDbLine
 10
21849.0135656606
 20
-1285.847369274835
 30
0.0
 11
21849.02760926001
 21
-1285.848310042503
 31
0.0
  0
LINE
  5
49C
330
2
100
AcDbEntity
  8
0
100
AcDbLine
 10
21849.02760926001
 20
-1285.848310042503
 30
0.0
 11
21849.04164389639
 21
-1285.849198715435
 31
0.0
  0
LINE
  5
49D
330
2
100
AcDbEntity
  8
0
100
AcDbLine
 10
21849.04164389639
 20
-1285.849198715435
 30
0.0
 11
21849.05566961284
 21
-1285.850034851416
 31
0.0
  0
LINE
  5
49E
330
2
100
AcDbEntity
  8
0
100
AcDbLine
 10
21849.05566961284
 20
-1285.850034851416
 30
0.0
 11
21849.06968645249
 21
-1285.850818008236
 31
0.0
  0
LINE
  5
49F
330
2
100
AcDbEntity
  8
0
100
AcDbLine
 10
21849.06968645249
 20
-1285.850818008236
 30
0.0
 11
21849.08369445844
 21
-1285.851547743686
 31
0.0
  0
LINE
  5
4A0
330
2
100
AcDbEntity
  8
0
100
AcDbLine
 10
21849.08369445844
 20
-1285.851547743686
 30
0.0
 11
21849.09769367381
 21
-1285.852223615552
 31
0.0
  0
LINE
  5
4A1
330
2
100
AcDbEntity
  8
0
100
AcDbLine
 10
21849.09769367381
 20
-1285.852223615552
 30
0.0
 11
21849.11168414169
 21
-1285.852845181624
 31
0.0
  0
LINE
  5
4A2
330
2
100
AcDbEntity
  8
0
100
AcDbLine
 10
21849.11168414169
 20
-1285.852845181624
 30
0.0
 11
21849.12566590522
 21
-1285.853411999692
 31
0.0
  0
LINE
  5
4A3
330
2
100
AcDbEntity
  8
0
100
AcDbLine
 10
21849.12566590522
 20
-1285.853411999692
 30
0.0
 11
21849.13963900749
 21
-1285.853923627543
 31
0.0
  0
LINE
  5
4A4
330
2
100
AcDbEntity
  8
0
100
AcDbLine
 10
21849.13963900749
 20
-1285.853923627543
 30
0.0
 11
21849.15360349161
 21
-1285.854379622967
 31
0.0
  0
LINE
  5
4A5
330
2
100
AcDbEntity
  8
0
100
AcDbLine
 10
21849.15360349161
 20
-1285.854379622967
 30
0.0
 11
21849.16755940072
 21
-1285.854779543751
 31
0.0
  0
LINE
  5
4A6
330
2
100
AcDbEntity
  8
0
100
AcDbLine
 10
21849.16755940072
 20
-1285.854779543751
 30
0.0
 11
21849.18150677789
 21
-1285.855122947686
 31
0.0
  0
LINE
  5
4A7
330
2
100
AcDbEntity
  8
0
100
AcDbLine
 10
21849.18150677789
 20
-1285.855122947686
 30
0.0
 11
21849.19544566627
 21
-1285.855409392558
 31
0.0
  0
LINE
  5
4A8
330
2
100
AcDbEntity
  8
0
100
AcDbLine
 10
21849.19544566627
 20
-1285.855409392558
 30
0.0
 11
21849.20937610895
 21
-1285.855638436159
 31
0.0
  0
LINE
  5
4A9
330
2
100
AcDbEntity
  8
0
100
AcDbLine
 10
21849.20937610895
 20
-1285.855638436159
 30
0.0
 11
21849.22329814904
 21
-1285.855809636277
 31
0.0
  0
LINE
  5
4AA
330
2
100
AcDbEntity
  8
0
100
AcDbLine
 10
21849.22329814904
 20
-1285.855809636277
 30
0.0
 11
21849.23721182966
 21
-1285.8559225507
 31
0.0
  0
LINE
  5
4AB
330
2
100
AcDbEntity
  8
0
100
AcDbLine
 10
21849.23721182966
 20
-1285.8559225507
 30
0.0
 11
21849.25111719391
 21
-1285.855976737216
 31
0.0
  0
LINE
  5
4AC
330
2
100
AcDbEntity
  8
0
100
AcDbLine
 10
21849.25111719391
 20
-1285.855976737216
 30
0.0
 11
21849.26501428491
 21
-1285.855971753616
 31
0.0
  0
LINE
  5
4AD
330
2
100
AcDbEntity
  8
0
100
AcDbLine
 10
21849.26501428491
 20
-1285.855971753616
 30
0.0
 11
21849.27890314578
 21
-1285.855907157688
 31
0.0
  0
LINE
  5
4AE
330
2
100
AcDbEntity
  8
0
100
AcDbLine
 10
21849.27890314578
 20
-1285.855907157688
 30
0.0
 11
21849.29278381961
 21
-1285.855782507219
 31
0.0
  0
LINE
  5
4AF
330
2
100
AcDbEntity
  8
0
100
AcDbLine
 10
21849.29278381961
 20
-1285.855782507219
 30
0.0
 11
21849.30665634953
 21
-1285.85559736
 31
0.0
  0
LINE
  5
4B0
330
2
100
AcDbEntity
  8
0
100
AcDbLine
 10
21849.30665634953
 20
-1285.85559736
 30
0.0
 11
21849.32052077864
 21
-1285.855351273819
 31
0.0
  0
LINE
  5
4B1
330
2
100
AcDbEntity
  8
0
100
AcDbLine
 10
21849.32052077864
 20
-1285.855351273819
 30
0.0
 11
21849.33437715006
 21
-1285.855043806465
 31
0.0
  0
LINE
  5
4B2
330
2
100
AcDbEntity
  8
0
100
AcDbLine
 10
21849.33437715006
 20
-1285.855043806465
 30
0.0
 11
21849.34822550689
 21
-1285.854674515728
 31
0.0
  0
LINE
  5
4B3
330
2
100
AcDbEntity
  8
0
100
AcDbLine
 10
21849.34822550689
 20
-1285.854674515728
 30
0.0
 11
21849.36206589225
 21
-1285.854242959395
 31
0.0
  0
LINE
  5
4B4
330
2
100
AcDbEntity
  8
0
100
AcDbLine
 10
21849.36206589225
 20
-1285.854242959395
 30
0.0
 11
21849.37589834925
 21
-1285.853748695254
 31
0.0
  0
LINE
  5
4B5
330
2
100
AcDbEntity
  8
0
100
AcDbLine
 10
21849.37589834925
 20
-1285.853748695254
 30
0.0
 11
21849.389722921
 21
-1285.853191281097
 31
0.0
  0
LINE
  5
4B6
330
2
100
AcDbEntity
  8
0
100
AcDbLine
 10
21849.389722921
 20
-1285.853191281097
 30
0.0
 11
21849.40353965061
 21
-1285.852570274709
 31
0.0
  0
LINE
  5
4B7
330
2
100
AcDbEntity
  8
0
100
AcDbLine
 10
21849.40353965061
 20
-1285.852570274709
 30
0.0
 11
21849.41734858119
 21
-1285.851885233883
 31
0.0
  0
LINE
  5
4B8
330
2
100
AcDbEntity
  8
0
100
AcDbLine
 10
21849.41734858119
 20
-1285.851885233883
 30
0.0
 11
21849.43114975586
 21
-1285.851135716403
 31
0.0
  0
LINE
  5
4B9
330
2
100
AcDbEntity
  8
0
100
AcDbLine
 10
21849.43114975586
 20
-1285.851135716403
 30
0.0
 11
21849.44494321772
 21
-1285.850321280063
 31
0.0
  0
LINE
  5
4BA
330
2
100
AcDbEntity
  8
0
100
AcDbLine
 10
21849.44494321772
 20
-1285.850321280063
 30
0.0
 11
21849.4587290099
 21
-1285.849441482648
 31
0.0
  0
LINE
  5
4BB
330
2
100
AcDbEntity
  8
0
100
AcDbLine
 10
21849.4587290099
 20
-1285.849441482648
 30
0.0
 11
21849.47250717548
 21
-1285.848495881947
 31
0.0
  0
LINE
  5
4BC
330
2
100
AcDbEntity
  8
0
100
AcDbLine
 10
21849.47250717548
 20
-1285.848495881947
 30
0.0
 11
21849.4862777576
 21
-1285.847484035753
 31
0.0
  0
LINE
  5
4BD
330
2
100
AcDbEntity
  8
0
100
AcDbLine
 10
21849.4862777576
 20
-1285.847484035753
 30
0.0
 11
21849.50004079935
 21
-1285.846405501849
 31
0.0
  0
LINE
  5
4BE
330
2
100
AcDbEntity
  8
0
100
AcDbLine
 10
21849.50004079935
 20
-1285.846405501849
 30
0.0
 11
21849.51379634386
 21
-1285.845259838027
 31
0.0
  0
LINE
  5
4BF
330
2
100
AcDbEntity
  8
0
100
AcDbLine
 10
21849.51379634386
 20
-1285.845259838027
 30
0.0
 11
21849.52754443423
 21
-1285.844046602075
 31
0.0
  0
LINE
  5
4C0
330
2
100
AcDbEntity
  8
0
100
AcDbLine
 10
21849.52754443423
 20
-1285.844046602075
 30
0.0
 11
21849.54128511358
 21
-1285.842765351784
 31
0.0
  0
LINE
  5
4C1
330
2
100
AcDbEntity
  8
0
100
AcDbLine
 10
21849.54128511358
 20
-1285.842765351784
 30
0.0
 11
21849.55501842501
 21
-1285.841415644939
 31
0.0
  0
LINE
  5
4C2
330
2
100
AcDbEntity
  8
0
100
AcDbLine
 10
21849.55501842501
 20
-1285.841415644939
 30
0.0
 11
21849.56874441164
 21
-1285.83999703933
 31
0.0
  0
LINE
  5
4C3
330
2
100
AcDbEntity
  8
0
100
AcDbLine
 10
21849.56874441164
 20
-1285.83999703933
 30
0.0
 11
21849.58246311658
 21
-1285.838509092748
 31
0.0
  0
LINE
  5
4C4
330
2
100
AcDbEntity
  8
0
100
AcDbLine
 10
21849.58246311658
 20
-1285.838509092748
 30
0.0
 11
21849.59617458293
 21
-1285.836951362979
 31
0.0
  0
LINE
  5
4C5
330
2
100
AcDbEntity
  8
0
100
AcDbLine
 10
21849.59617458293
 20
-1285.836951362979
 30
0.0
 11
21849.60987885382
 21
-1285.835323407816
 31
0.0
  0
LINE
  5
4C6
330
2
100
AcDbEntity
  8
0
100
AcDbLine
 10
21849.60987885382
 20
-1285.835323407816
 30
0.0
 11
21849.62357597234
 21
-1285.833624785043
 31
0.0
  0
LINE
  5
4C7
330
2
100
AcDbEntity
  8
0
100
AcDbLine
 10
21849.62357597234
 20
-1285.833624785043
 30
0.0
 11
21849.63726598162
 21
-1285.83185505245
 31
0.0
  0
LINE
  5
4C8
330
2
100
AcDbEntity
  8
0
100
AcDbLine
 10
21849.63726598162
 20
-1285.83185505245
 30
0.0
 11
21849.65094892477
 21
-1285.830013767828
 31
0.0
  0
LINE
  5
4C9
330
2
100
AcDbEntity
  8
0
100
AcDbLine
 10
21849.65094892477
 20
-1285.830013767828
 30
0.0
 11
21849.66462484489
 21
-1285.828100488964
 31
0.0
  0
LINE
  5
4CA
330
2
100
AcDbEntity
  8
0
100
AcDbLine
 10
21849.66462484489
 20
-1285.828100488964
 30
0.0
 11
21849.6782937851
 21
-1285.826114773647
 31
0.0
  0
LINE
  5
4CB
330
2
100
AcDbEntity
  8
0
100
AcDbLine
 10
21849.6782937851
 20
-1285.826114773647
 30
0.0
 11
21849.69195578851
 21
-1285.824056179665
 31
0.0
  0
LINE
  5
4CC
330
2
100
AcDbEntity
  8
0
100
AcDbLine
 10
21849.69195578851
 20
-1285.824056179665
 30
0.0
 11
21849.70561089822
 21
-1285.821924264809
 31
0.0
  0
LINE
  5
4CD
330
2
100
AcDbEntity
  8
0
100
AcDbLine
 10
21849.70561089822
 20
-1285.821924264809
 30
0.0
 11
21849.71925915736
 21
-1285.819718586867
 31
0.0
  0
LINE
  5
4CE
330
2
100
AcDbEntity
  8
0
100
AcDbLine
 10
21849.71925915736
 20
-1285.819718586867
 30
0.0
 11
21849.73290060902
 21
-1285.817438703628
 31
0.0
  0
LINE
  5
4CF
330
2
100
AcDbEntity
  8
0
100
AcDbLine
 10
21849.73290060902
 20
-1285.817438703628
 30
0.0
 11
21849.74653529633
 21
-1285.815084172879
 31
0.0
  0
LINE
  5
4D0
330
2
100
AcDbEntity
  8
0
100
AcDbLine
 10
21849.74653529633
 20
-1285.815084172879
 30
0.0
 11
21849.7601632624
 21
-1285.812654552411
 31
0.0
  0
LINE
  5
4D1
330
2
100
AcDbEntity
  8
0
100
AcDbLine
 10
21849.7601632624
 20
-1285.812654552411
 30
0.0
 11
21849.77378455034
 21
-1285.81014940001
 31
0.0
  0
LINE
  5
4D2
330
2
100
AcDbEntity
  8
0
100
AcDbLine
 10
21849.77378455034
 20
-1285.81014940001
 30
0.0
 11
21849.78739920325
 21
-1285.807568273468
 31
0.0
  0
LINE
  5
4D3
330
2
100
AcDbEntity
  8
0
100
AcDbLine
 10
21849.78739920325
 20
-1285.807568273468
 30
0.0
 11
21849.80100726424
 21
-1285.804910730573
 31
0.0
  0
LINE
  5
4D4
330
2
100
AcDbEntity
  8
0
100
AcDbLine
 10
21849.80100726424
 20
-1285.804910730573
 30
0.0
 11
21849.81460877644
 21
-1285.802176329112
 31
0.0
  0
LINE
  5
4D5
330
2
100
AcDbEntity
  8
0
100
AcDbLine
 10
21849.81460877644
 20
-1285.802176329112
 30
0.0
 11
21849.82820378295
 21
-1285.799364626876
 31
0.0
  0
LINE
  5
4D6
330
2
100
AcDbEntity
  8
0
100
AcDbLine
 10
21849.82820378295
 20
-1285.799364626876
 30
0.0
 11
21849.84179232688
 21
-1285.796475181653
 31
0.0
  0
LINE
  5
4D7
330
2
100
AcDbEntity
  8
0
100
AcDbLine
 10
21849.84179232688
 20
-1285.796475181653
 30
0.0
 11
21849.85537445135
 21
-1285.793507551231
 31
0.0
  0
LINE
  5
4D8
330
2
100
AcDbEntity
  8
0
100
AcDbLine
 10
21849.85537445135
 20
-1285.793507551231
 30
0.0
 11
21849.86895019945
 21
-1285.790461293401
 31
0.0
  0
LINE
  5
4D9
330
2
100
AcDbEntity
  8
0
100
AcDbLine
 10
21849.86895019945
 20
-1285.790461293401
 30
0.0
 11
21849.88251961432
 21
-1285.787335965949
 31
0.0
  0
LINE
  5
4DA
330
2
100
AcDbEntity
  8
0
100
AcDbLine
 10
21849.88251961432
 20
-1285.787335965949
 30
0.0
 11
21849.89608273906
 21
-1285.784131126666
 31
0.0
  0
LINE
  5
4DB
330
2
100
AcDbEntity
  8
0
100
AcDbLine
 10
21849.89608273906
 20
-1285.784131126666
 30
0.0
 11
21849.90963961677
 21
-1285.780846333339
 31
0.0
  0
LINE
  5
4DC
330
2
100
AcDbEntity
  8
0
100
AcDbLine
 10
21849.90963961677
 20
-1285.780846333339
 30
0.0
 11
21849.92319029057
 21
-1285.777481143758
 31
0.0
  0
LINE
  5
4DD
330
2
100
AcDbEntity
  8
0
100
AcDbLine
 10
21849.92319029057
 20
-1285.777481143758
 30
0.0
 11
21849.93673480357
 21
-1285.774035115712
 31
0.0
  0
LINE
  5
4DE
330
2
100
AcDbEntity
  8
0
100
AcDbLine
 10
21849.93673480357
 20
-1285.774035115712
 30
0.0
 11
21849.95027319888
 21
-1285.770507806991
 31
0.0
  0
LINE
  5
4DF
330
2
100
AcDbEntity
  8
0
100
AcDbLine
 10
21849.95027319888
 20
-1285.770507806991
 30
0.0
 11
21849.96380551963
 21
-1285.766898775379
 31
0.0
  0
LINE
  5
4E0
330
2
100
AcDbEntity
  8
0
100
AcDbLine
 10
21849.96380551963
 20
-1285.766898775379
 30
0.0
 11
21849.9773318089
 21
-1285.76320757867
 31
0.0
  0
LINE
  5
4E1
330
2
100
AcDbEntity
  8
0
100
AcDbLine
 10
21849.9773318089
 20
-1285.76320757867
 30
0.0
 11
21849.99085210982
 21
-1285.759433774651
 31
0.0
  0
LINE
  5
4E2
330
2
100
AcDbEntity
  8
0
100
AcDbLine
 10
21849.99085210982
 20
-1285.759433774651
 30
0.0
 11
21850.0043664655
 21
-1285.755576921111
 31
0.0
  0
LINE
  5
4E3
330
2
100
AcDbEntity
  8
0
100
AcDbLine
 10
21850.0043664655
 20
-1285.755576921111
 30
0.0
 11
21850.01787491905
 21
-1285.751636575837
 31
0.0
  0
LINE
  5
4E4
330
2
100
AcDbEntity
  8
0
100
AcDbLine
 10
21850.01787491905
 20
-1285.751636575837
 30
0.0
 11
21850.03137751357
 21
-1285.747612296621
 31
0.0
  0
LINE
  5
4E5
330
2
100
AcDbEntity
  8
0
100
AcDbLine
 10
21850.03137751357
 20
-1285.747612296621
 30
0.0
 11
21850.04487429219
 21
-1285.743503641249
 31
0.0
  0
LINE
  5
4E6
330
2
100
AcDbEntity
  8
0
100
AcDbLine
 10
21850.04487429219
 20
-1285.743503641249
 30
0.0
 11
21850.05836529801
 21
-1285.73931016751
 31
0.0
  0
LINE
  5
4E7
330
2
100
AcDbEntity
  8
0
100
AcDbLine
 10
21850.05836529801
 20
-1285.73931016751
 30
0.0
 11
21850.07185057415
 21
-1285.735031433195
 31
0.0
  0
LINE
  5
4E8
330
2
100
AcDbEntity
  8
0
100
AcDbLine
 10
21850.07185057415
 20
-1285.735031433195
 30
0.0
 11
21850.0853301637
 21
-1285.730666996092
 31
0.0
  0
LINE
  5
4E9
330
2
100
AcDbEntity
  8
0
100
AcDbLine
 10
21850.0853301637
 20
-1285.730666996092
 30
0.0
 11
21850.0988041098
 21
-1285.726216413987
 31
0.0
  0
LINE
  5
4EA
330
2
100
AcDbEntity
  8
0
100
AcDbLine
 10
21850.0988041098
 20
-1285.726216413987
 30
0.0
 11
21850.11227245555
 21
-1285.721679244673
 31
0.0
  0
LINE
  5
4EB
330
2
100
AcDbEntity
  8
0
100
AcDbLine
 10
21850.11227245555
 20
-1285.721679244673
 30
0.0
 11
21850.12573524405
 21
-1285.717055045938
 31
0.0
  0
LINE
  5
4EC
330
2
100
AcDbEntity
  8
0
100
AcDbLine
 10
21850.12573524405
 20
-1285.717055045938
 30
0.0
 11
21850.13919251842
 21
-1285.712343375569
 31
0.0
  0
LINE
  5
4ED
330
2
100
AcDbEntity
  8
0
100
AcDbLine
 10
21850.13919251842
 20
-1285.712343375569
 30
0.0
 11
21850.15264432178
 21
-1285.707543791354
 31
0.0
  0
LINE
  5
4EE
330
2
100
AcDbEntity
  8
0
100
AcDbLine
 10
21850.15264432178
 20
-1285.707543791354
 30
0.0
 11
21850.16609069723
 21
-1285.702655851085
 31
0.0
  0
LINE
  5
4EF
330
2
100
AcDbEntity
  8
0
100
AcDbLine
 10
21850.16609069723
 20
-1285.702655851085
 30
0.0
 11
21850.17953168788
 21
-1285.697679112548
 31
0.0
  0
LINE
  5
4F0
330
2
100
AcDbEntity
  8
0
100
AcDbLine
 10
21850.17953168788
 20
-1285.697679112548
 30
0.0
 11
21850.19296733685
 21
-1285.692613133534
 31
0.0
  0
LINE
  5
4F1
330
2
100
AcDbEntity
  8
0
100
AcDbLine
 10
21850.19296733685
 20
-1285.692613133534
 30
0.0
 11
21850.20639768724
 21
-1285.68745747183
 31
0.0
  0
LINE
  5
4F2
330
2
100
AcDbEntity
  8
0
100
AcDbLine
 10
21850.20639768724
 20
-1285.68745747183
 30
0.0
 11
21850.21982278218
 21
-1285.682211685226
 31
0.0
  0
LINE
  5
4F3
330
2
100
AcDbEntity
  8
0
100
AcDbLine
 10
21850.21982278218
 20
-1285.682211685226
 30
0.0
 11
21850.23324266476
 21
-1285.676875331511
 31
0.0
  0
LINE
  5
4F4
330
2
100
AcDbEntity
  8
0
100
AcDbLine
 10
21850.23324266476
 20
-1285.676875331511
 30
0.0
 11
21850.2466573781
 21
-1285.671447968473
 31
0.0
  0
LINE
  5
4F5
330
2
100
AcDbEntity
  8
0
100
AcDbLine
 10
21850.2466573781
 20
-1285.671447968473
 30
0.0
 11
21850.26006696531
 21
-1285.665929153901
 31
0.0
  0
LINE
  5
4F6
330
2
100
AcDbEntity
  8
0
100
AcDbLine
 10
21850.26006696531
 20
-1285.665929153901
 30
0.0
 11
21850.27347146951
 21
-1285.660318445583
 31
0.0
  0
LINE
  5
4F7
330
2
100
AcDbEntity
  8
0
100
AcDbLine
 10
21850.27347146951
 20
-1285.660318445583
 30
0.0
 11
21850.28687093381
 21
-1285.654615401309
 31
0.0
  0
LINE
  5
4F8
330
2
100
AcDbEntity
  8
0
100
AcDbLine
 10
21850.28687093381
 20
-1285.654615401309
 30
0.0
 11
21850.3002654013
 21
-1285.648819578869
 31
0.0
  0
LINE
  5
4F9
330
2
100
AcDbEntity
  8
0
100
AcDbLine
 10
21850.3002654013
 20
-1285.648819578869
 30
0.0
 11
21850.31365491512
 21
-1285.64293053605
 31
0.0
  0
LINE
  5
4FA
330
2
100
AcDbEntity
  8
0
100
AcDbLine
 10
21850.31365491512
 20
-1285.64293053605
 30
0.0
 11
21850.32703951836
 21
-1285.636947830639
 31
0.0
  0
LINE
  5
4FB
330
2
100
AcDbEntity
  8
0
100
AcDbLine
 10
21850.32703951836
 20
-1285.636947830639
 30
0.0
 11
21850.34041925414
 21
-1285.630871020429
 31
0.0
  0
LINE
  5
4FC
330
2
100
AcDbEntity
  8
0
100
AcDbLine
 10
21850.34041925414
 20
-1285.630871020429
 30
0.0
 11
21850.35017231413
 21
-1285.626370832332
 31
0.0
  0
LINE
  5
4FD
330
2
100
AcDbEntity
  8
0
100
AcDbLine
 10
21838.19814410397
 20
-1261.523134924967
 30
0.0
 11
21838.19814410397
 21
-1269.223134924968
 31
0.0
  0
ARC
  5
4FE
330
2
100
AcDbEntity
  8
0
 48
0.6
100
AcDbCircle
 10
21879.20837205075
 20
-1271.626732474432
 30
0.0
 40
35.255792
100
AcDbArc
 50
179.9962054631616
 51
181.0943561937651
  0
ARC
  5
4FF
330
2
100
AcDbEntity
  8
0
100
AcDbCircle
 10
21847.69814410397
 20
-1271.124397583438
 30
0.0
 40
0.5
100
AcDbArc
 50
270.0
 51
0.0
  0
LINE
  5
500
330
2
100
AcDbEntity
  8
0
100
AcDbLine
 10
21848.19814410397
 20
-1270.624397583438
 30
0.0
 11
21848.19814410397
 21
-1271.124397583438
 31
0.0
  0
ARC
  5
501
330
2
100
AcDbEntity
  8
0
 48
0.6
100
AcDbCircle
 10
21879.50086610398
 20
-1271.713043583438
 30
0.0
 40
33.955792
100
AcDbArc
 50
179.85042300002
 51
180.8634200380008
  0
ARC
  5
502
330
2
100
AcDbEntity
  8
0
100
AcDbCircle
 10
21847.66825804565
 20
-1277.724721787953
 30
0.0
 40
0.5
100
AcDbArc
 50
90.0
 51
177.9685271120394
  0
ARC
  5
503
330
2
100
AcDbEntity
  8
0
 48
0.6
100
AcDbCircle
 10
21886.14050073625
 20
-1269.037008970771
 30
0.0
 40
39.44812461369086
100
AcDbArc
 50
195.25776166648
 51
204.8684405629855
  0
LINE
  5
504
330
2
100
AcDbEntity
  8
0
100
AcDbLine
 10
21847.16857229278
 20
-1277.706997556798
 30
0.0
 11
21847.16857229278
 21
-1277.841265655204
 31
0.0
  0
ARC
  5
505
330
2
100
AcDbEntity
  8
0
100
AcDbCircle
 10
21838.69814410398
 20
-1271.124397583438
 30
0.0
 40
0.5
100
AcDbArc
 50
180.0
 51
270.0
  0
LINE
  5
506
330
2
100
AcDbEntity
  8
0
100
AcDbLine
 10
21838.19814410397
 20
-1270.624397583438
 30
0.0
 11
21838.19814410397
 21
-1271.124397583438
 31
0.0
  0
ARC
  5
507
330
2
100
AcDbEntity
  8
0
 48
0.6
100
AcDbCircle
 10
21879.50086610398
 20
-1271.713043583438
 30
0.0
 40
39.155792
100
AcDbArc
 50
179.8702870000233
 51
183.6102158837714
  0
ARC
  5
508
330
2
100
AcDbEntity
  8
0
 48
0.6
100
AcDbCircle
 10
21879.79707203987
 20
-1271.788432059288
 30
0.0
 40
37.855792
100
AcDbArc
 50
179.8658330000312
 51
183.9724199931055
  0
LINE
  5
509
330
2
100
AcDbEntity
  8
0
100
AcDbLine
 10
21837.29814410397
 20
-1269.223134924968
 30
0.0
 11
21838.19814410397
 21
-1269.223134924968
 31
0.0
  0
LINE
  5
50A
330
2
100
AcDbEntity
  8
0
100
AcDbLine
 10
21842.68646936757
 20
-1273.972958027264
 30
0.0
 11
21842.68646936757
 21
-1274.594057312864
 31
0.0
  0
LINE
  5
50B
330
2
100
AcDbEntity
  8
0
100
AcDbLine
 10
21830.69814410397
 20
-1267.124397583438
 30
0.0
 11
21828.69814410397
 21
-1267.124397583438
 31
0.0
  0
LINE
  5
50C
330
2
100
AcDbEntity
  8
0
100
AcDbLine
 10
21847.69814410397
 20
-1271.624397583438
 30
0.0
 11
21838.69814410398
 21
-1271.624397583438
 31
0.0
  0
ARC
  5
50D
330
2
100
AcDbEntity
  8
0
100
AcDbCircle
 10
21844.48980867103
 20
-1274.024297686882
 30
0.0
 40
1.804069955425966
100
AcDbArc
 50
94.04501748588252
 51
178.3692744375838
  0
ARC
  5
50E
330
2
100
AcDbEntity
  8
0
100
AcDbCircle
 10
21839.96027543086
 20
-1283.073921627295
 30
0.0
 40
8.907313409310658
100
AcDbArc
 50
24.23072274293118
 51
94.90087069769113
  0
ARC
  5
50F
330
2
100
AcDbEntity
  8
0
 48
0.6
100
AcDbCircle
 10
21904.93156836785
 20
-1259.330578308106
 30
0.0
 40
67.39291900811399
100
AcDbArc
 50
192.7457730550604
 51
202.995586132711
  0
LINE
  5
510
330
2
100
AcDbEntity
  8
0
100
AcDbLine
 10
21837.29814410397
 20
-1261.523134924967
 30
0.0
 11
21838.19814410397
 21
-1261.523134924967
 31
0.0
  0
DIMENSION
  5
511
102
{ACAD_XDICTIONARY
360
512
102
}
102
{ACAD_REACTORS
330
513
102
}
330
2
100
AcDbEntity
  8
0
100
AcDbDimension
  2
*D5
 10
21830.69814410397
 20
-1141.245182586885
 30
0.0
 11
21812.19814410398
 21
-1141.245182586885
 31
0.0
 70
   128
 71
     5
 42
-1.0
  3
STANDARD
100
AcDbAlignedDimension
 13
21793.69814410398
 23
-1220.624397583438
 33
0.0
 14
21830.69814410397
 24
-1180.624397583438
 34
0.0
100
AcDbRotatedDimension
  0
LINE
  5
520
330
2
100
AcDbEntity
  8
0
  6
CENTER
 62
     1
 48
0.6
100
AcDbLine
 10
22077.15373909885
 20
-1225.624397583438
 30
0.0
 11
21785.84814755464
 21
-1225.624397583438
 31
0.0
  0
DIMENSION
  5
521
102
{ACAD_XDICTIONARY
360
522
102
}
102
{ACAD_REACTORS
330
523
102
}
330
2
100
AcDbEntity
  8
0
100
AcDbDimension
  2
*D6
 10
21770.36118234256
 20
-1219.624397583437
 30
0.0
 11
21770.36118234256
 21
-1225.624397583434
 31
0.0
 70
   128
  1
\A1;{\f??|b0|i0|c0|p49;%%C}12{\f??|b0|i0|c0|p49;\H0.7x;\S+0^ -0.018;\H1.429x;(h}7{\f??|b0|i0|c0|p49;)}
 71
     5
 42
-1.0
  3
STANDARD
100
AcDbAlignedDimension
 13
21793.69814410398
 23
-1231.624397583438
 33
0.0
 14
21823.69814410398
 24
-1219.624397583437
 34
0.0
 50
90.0
100
AcDbRotatedDimension
  0
DIMENSION
  5
530
102
{ACAD_XDICTIONARY
360
531
102
}
102
{ACAD_REACTORS
330
532
102
}
330
2
100
AcDbEntity
  8
0
100
AcDbDimension
  2
*D7
 10
21823.69814410398
 20
-1198.792962243217
 30
0.0
 11
21808.96540145115
 21
-1198.792962243217
 31
0.0
 70
   128
 71
     5
 42
-1.0
  3
STANDARD
100
AcDbAlignedDimension
 13
21793.69814410398
 23
-1220.624397583438
 33
0.0
 14
21823.69814410398
 24
-1219.624397583437
 34
0.0
100
AcDbRotatedDimension
  0
LINE
  5
53F
102
{ACAD_REACTORS
330
543
330
523
102
}
330
2
100
AcDbEntity
  8
0
  6
ByBlock
 62
     0
100
AcDbLine
 10
21828.69814410397
 20
-1231.624397583438
 30
0.0
 11
21793.69814410398
 21
-1231.624397583438
 31
0.0
  0
LINE
  5
540
102
{ACAD_REACTORS
330
532
330
543
330
513
102
}
330
2
100
AcDbEntity
  8
0
  6
ByBlock
 62
     0
100
AcDbLine
 10
21823.69814410398
 20
-1220.624397583438
 30
0.0
 11
21793.69814410398
 21
-1220.624397583438
 31
0.0
  0
DIMENSION
  5
541
102
{ACAD_XDICTIONARY
360
542
102
}
102
{ACAD_REACTORS
330
543
102
}
330
2
100
AcDbEntity
  8
0
100
AcDbDimension
  2
*D8
 10
21781.22966322327
 20
-1220.624397583438
 30
0.0
 11
21781.22966322327
 21
-1226.124397583437
 31
0.0
 70
   128
  1
<>
 71
     5
 42
-1.0
  3
STANDARD
100
AcDbAlignedDimension
 13
21793.69814410398
 23
-1231.624397583438
 33
0.0
 14
21793.69814410398
 24
-1220.624397583438
 34
0.0
 50
90.0
100
AcDbRotatedDimension
  0
LINE
  5
550
330
2
100
AcDbEntity
  8
0
100
AcDbLine
 10
21793.69814410398
 20
-1220.624397583438
 30
0.0
 11
21793.69814410398
 21
-1231.624397583438
 31
0.0
  0
LINE
  5
551
330
2
100
AcDbEntity
  8
0
  6
CENTER
 62
     1
 48
0.6
100
AcDbLine
 10
22005.69886659466
 20
-1177.140632077399
 30
0.0
 11
22005.69886659466
 21
-1183.721488790135
 31
0.0
  0
LINE
  5
552
330
2
100
AcDbEntity
  8
0
  6
CENTER
 62
     1
 48
0.6
100
AcDbLine
 10
22070.70035934996
 20
-1189.624397583437
 30
0.0
 11
22064.69886659467
 21
-1189.624397583437
 31
0.0
  0
DIMENSION
  5
553
102
{ACAD_XDICTIONARY
360
554
102
}
102
{ACAD_REACTORS
330
555
102
}
330
2
100
AcDbEntity
  8
0
100
AcDbDimension
  2
*D9
 10
21838.19814410397
 20
-1155.011418789363
 30
0.0
 11
21852.93623934207
 21
-1155.011418789363
 31
0.0
 70
   128
 71
     5
 42
-1.0
  3
STANDARD
100
AcDbAlignedDimension
 13
21830.69814410397
 23
-1180.624397583438
 33
0.0
 14
21838.19814410397
 24
-1182.025660241907
 34
0.0
100
AcDbRotatedDimension
  0
DIMENSION
  5
564
330
2
100
AcDbEntity
  8
0
100
AcDbDimension
  2
*D0
 10
22066.69886659466
 20
-1141.245182586885
 30
0.0
 11
21948.69850534932
 21
-1141.245182586885
 31
0.0
 70
   128
 71
     5
 42
-1.0
  3
STANDARD
100
AcDbAlignedDimension
 13
21830.69814410397
 23
-1180.624397583438
 33
0.0
 14
22066.69886659466
 24
-1184.124397583437
 34
0.0
100
AcDbRotatedDimension
  0
LINE
  5
571
330
2
100
AcDbEntity
  8
0
100
AcDbLine
 10
22068.70035934996
 20
-1190.774397583439
 30
0.0
 11
22068.70035934996
 21
-1188.474397583438
 31
0.0
  0
ARC
  5
572
330
2
100
AcDbEntity
  8
0
100
AcDbCircle
 10
22066.81019524155
 20
-1189.754560727989
 30
0.0
 40
2.282879329571919
100
AcDbArc
 50
34.10884998158311
 51
92.79523867891287
  0
ARC
  5
573
330
2
100
AcDbEntity
  8
0
100
AcDbCircle
 10
22066.81019524155
 20
-1189.494234438886
 30
0.0
 40
2.282879329572159
100
AcDbArc
 50
267.2047613210871
 51
325.8911500184116
  0
ARC
  5
574
330
2
100
AcDbEntity
  8
0
100
AcDbCircle
 10
22005.57124902036
 20
-1180.513206370592
 30
0.0
 40
2.280330085890314
100
AcDbArc
 50
357.2050912589677
 51
55.92501109514413
  0
ARC
  5
575
330
2
100
AcDbEntity
  8
0
100
AcDbCircle
 10
22005.82648416897
 20
-1180.513206370592
 30
0.0
 40
2.280330085889914
100
AcDbArc
 50
124.0749889048558
 51
182.7949087410322
  0
LINE
  5
576
330
2
100
AcDbEntity
  8
0
100
AcDbLine
 10
22006.84886659467
 20
-1178.624397583438
 30
0.0
 11
22004.54886659466
 21
-1178.624397583438
 31
0.0
  0
LINE
  5
577
330
2
100
AcDbEntity
  8
0
100
AcDbLine
 10
21830.69814410397
 20
-1180.624397583438
 30
0.0
 11
22063.19886659467
 21
-1180.624397583438
 31
0.0
  0
ARC
  5
578
330
2
100
AcDbEntity
  8
0
100
AcDbCircle
 10
22063.19886659467
 20
-1184.124397583437
 30
0.0
 40
3.5
100
AcDbArc
 50
0.0
 51
90.0
  0
DIMENSION
  5
579
330
2
100
AcDbEntity
  8
0
100
AcDbDimension
  2
*D1
 10
21830.69814410397
 20
-1167.0179081864
 30
0.0
 11
21815.60027324964
 21
-1167.0179081864
 31
0.0
 70
   128
 71
     5
 42
-1.0
  3
STANDARD
100
AcDbAlignedDimension
 13
21828.69814410397
 23
-1184.124397583437
 33
0.0
 14
21830.69814410397
 24
-1180.624397583438
 34
0.0
100
AcDbRotatedDimension
  0
LINE
  5
588
102
{ACAD_REACTORS
330
532
330
523
102
}
330
2
100
AcDbEntity
  8
0
  6
ByBlock
 62
     0
100
AcDbLine
 10
21828.69814410397
 20
-1219.624397583437
 30
0.0
 11
21823.69814410398
 21
-1219.624397583437
 31
0.0
  0
LINE
  5
589
330
2
100
AcDbEntity
  8
0
100
AcDbLine
 10
21823.69814410398
 20
-1219.624397583437
 30
0.0
 11
21823.69814410398
 21
-1220.624397583438
 31
0.0
  0
LINE
  5
58A
102
{ACAD_REACTORS
330
555
102
}
330
2
100
AcDbEntity
  8
0
100
AcDbLine
 10
21837.29814410397
 20
-1182.025660241907
 30
0.0
 11
21838.19814410397
 21
-1182.025660241907
 31
0.0
  0
LINE
  5
58B
330
2
100
AcDbEntity
  8
0
100
AcDbLine
 10
21837.29814410397
 20
-1189.725660241908
 30
0.0
 11
21838.19814410397
 21
-1189.725660241908
 31
0.0
  0
LINE
  5
58C
330
2
100
AcDbEntity
  8
0
100
AcDbLine
 10
21838.19814410397
 20
-1189.725660241908
 30
0.0
 11
21838.19814410397
 21
-1182.025660241907
 31
0.0
  0
LINE
  5
58D
330
2
100
AcDbEntity
  8
0
100
AcDbLine
 10
21830.69814410397
 20
-1184.124397583437
 30
0.0
 11
21828.69814410397
 21
-1184.124397583437
 31
0.0
  0
LINE
  5
58E
330
2
100
AcDbEntity
  8
0
 62
     3
100
AcDbLine
 10
22084.24845833989
 20
-1232.420399457497
 30
0.0
 11
22087.23618611355
 21
-1232.420399457497
 31
0.0
  0
LINE
  5
58F
330
2
100
AcDbEntity
  8
0
 62
     3
100
AcDbLine
 10
22087.23618611355
 20
-1232.420399457497
 30
0.0
 11
22087.23618611355
 21
-1229.775275703102
 31
0.0
  0
LINE
  5
590
330
2
100
AcDbEntity
  8
0
 62
     3
100
AcDbLine
 10
22087.23618611355
 20
-1229.775275703102
 30
0.0
 11
22084.24845833989
 21
-1229.775275703102
 31
0.0
  0
LINE
  5
591
330
2
100
AcDbEntity
  8
0
 62
     3
100
AcDbLine
 10
22084.24845833989
 20
-1229.775275703102
 30
0.0
 11
22084.24845833989
 21
-1232.420399457497
 31
0.0
  0
LINE
  5
592
330
2
100
AcDbEntity
  8
0
  6
CENTER
 62
     1
100
AcDbLine
 10
22005.69886659467
 20
-1229.07719491413
 30
0.0
 11
22005.69886659467
 21
-1222.171600252745
 31
0.0
  0
CIRCLE
  5
593
330
2
100
AcDbEntity
  8
0
100
AcDbCircle
 10
22005.69886659467
 20
-1225.624397583438
 30
0.0
 40
2.2
  0
LINE
  5
594
330
2
100
AcDbEntity
  8
0
100
AcDbLine
 10
22005.19886659467
 20
-1225.124397583437
 30
0.0
 11
22005.19886659467
 21
-1223.750898183919
 31
0.0
  0
LINE
  5
595
330
2
100
AcDbEntity
  8
0
100
AcDbLine
 10
22005.19886659467
 20
-1225.124397583437
 30
0.0
 11
22003.82536719515
 21
-1225.124397583438
 31
0.0
  0
LINE
  5
596
330
2
100
AcDbEntity
  8
0
100
AcDbLine
 10
22006.19886659465
 20
-1225.124397583445
 30
0.0
 11
22006.19886659468
 21
-1223.750898183928
 31
0.0
  0
LINE
  5
597
330
2
100
AcDbEntity
  8
0
100
AcDbLine
 10
22006.19886659465
 20
-1225.124397583445
 30
0.0
 11
22007.57236599418
 21
-1225.12439758347
 31
0.0
  0
LINE
  5
598
330
2
100
AcDbEntity
  8
0
100
AcDbLine
 10
22005.19886659466
 20
-1226.124397583438
 30
0.0
 11
22005.19886659466
 21
-1227.497896982956
 31
0.0
  0
LINE
  5
599
330
2
100
AcDbEntity
  8
0
100
AcDbLine
 10
22005.19886659466
 20
-1226.124397583438
 30
0.0
 11
22003.82536719514
 21
-1226.124397583437
 31
0.0
  0
LINE
  5
59A
330
2
100
AcDbEntity
  8
0
100
AcDbLine
 10
22006.19886659465
 20
-1226.12439758343
 30
0.0
 11
22006.19886659468
 21
-1227.497896982948
 31
0.0
  0
LINE
  5
59B
330
2
100
AcDbEntity
  8
0
100
AcDbLine
 10
22006.19886659465
 20
-1226.12439758343
 30
0.0
 11
22007.57236599417
 21
-1226.124397583406
 31
0.0
  0
ENDSEC
  0
SECTION
  2
OBJECTS
  0
DICTIONARY
  5
C
330
0
100
AcDbDictionary
281
     1
  3
ACAD_COLOR
350
3B
  3
ACAD_GROUP
350
36
  3
ACAD_LAYOUT
350
18
  3
ACAD_MATERIAL
350
E
  3
ACAD_MLINESTYLE
350
37
  3
ACAD_PLOTSETTINGS
350
38
  3
ACAD_PLOTSTYLENAME
350
B
  3
ACAD_SCALELIST
350
3C
  3
ACAD_TABLESTYLE
350
3D
  3
ACAD_VISUALSTYLE
350
2E
  3
ACDB_RECOMPOSE_DATA
350
5AD
  3
AcDbVariableDictionary
350
5A0
  0
DICTIONARY
  5
2F
330
2B
100
AcDbDictionary
280
     1
281
     1
  0
DICTIONARY
  5
21
330
20
100
AcDbDictionary
280
     1
281
     1
  3
ACAD_LAYERSTATES
360
22
  0
DICTIONARY
  5
8
330
7
100
AcDbDictionary
280
     1
281
     1
  3
ADSK_XREC_LAYER_RECONCILED
360
9
  0
DICTIONARY
  5
3
330
2
100
AcDbDictionary
280
     1
281
     1
  3
ACAD_LAYOUTSELFREF
360
4
  3
ACAD_SORTENTS
360
59C
  0
DICTIONARY
  5
1B
330
1A
100
AcDbDictionary
280
     1
281
     1
  3
ACAD_LAYOUTSELFREF
360
1C
  0
DICTIONARY
  5
5B8
330
AA
100
AcDbDictionary
280
     1
281
     1
  3
ACAD_MTEXT_RT
360
5B9
  0
DICTIONARY
  5
A4
330
A3
100
AcDbDictionary
280
     1
281
     1
  3
ACAD_DIMASSOC
360
A5
  0
DICTIONARY
  5
306
330
305
100
AcDbDictionary
280
     1
281
     1
  3
ACAD_DIMASSOC
360
307
  0
DICTIONARY
  5
512
330
511
100
AcDbDictionary
280
     1
281
     1
  3
ACAD_DIMASSOC
360
513
  0
DICTIONARY
  5
522
330
521
100
AcDbDictionary
280
     1
281
     1
  3
ACAD_DIMASSOC
360
523
  0
DICTIONARY
  5
531
330
530
100
AcDbDictionary
280
     1
281
     1
  3
ACAD_DIMASSOC
360
532
  0
DICTIONARY
  5
542
330
541
100
AcDbDictionary
280
     1
281
     1
  3
ACAD_DIMASSOC
360
543
  0
DICTIONARY
  5
554
330
553
100
AcDbDictionary
280
     1
281
     1
  3
ACAD_DIMASSOC
360
555
  0
DICTIONARY
  5
3B
102
{ACAD_REACTORS
330
C
102
}
330
C
100
AcDbDictionary
281
     1
  0
DICTIONARY
  5
36
102
{ACAD_REACTORS
330
C
102
}
330
C
100
AcDbDictionary
281
     1
  0
DICTIONARY
  5
18
102
{ACAD_REACTORS
330
C
102
}
330
C
100
AcDbDictionary
281
     1
  3
Model
350
17
  3
배치1
350
1F
  0
DICTIONARY
  5
E
102
{ACAD_REACTORS
330
C
102
}
330
C
100
AcDbDictionary
281
     1
  3
ByBlock
350
3A
  3
ByLayer
350
39
  3
Global
350
D
  0
DICTIONARY
  5
37
102
{ACAD_REACTORS
330
C
102
}
330
C
100
AcDbDictionary
281
     1
  3
Standard
350
3E
  0
DICTIONARY
  5
38
102
{ACAD_REACTORS
330
C
102
}
330
C
100
AcDbDictionary
281
     1
  0
ACDBDICTIONARYWDFLT
  5
B
102
{ACAD_REACTORS
330
C
102
}
330
C
100
AcDbDictionary
281
     1
  3
Normal
350
A
100
AcDbDictionaryWithDefault
340
A
  0
DICTIONARY
  5
3C
102
{ACAD_REACTORS
330
C
102
}
330
C
100
AcDbDictionary
281
     1
  3
A0
350
43
  3
A1
350
44
  3
A2
350
45
  3
A3
350
46
  3
A4
350
47
  3
A5
350
48
  3
A6
350
49
  3
A7
350
4A
  3
A8
350
4B
  3
A9
350
4C
  3
B0
350
4D
  3
B1
350
4E
  3
B2
350
4F
  3
B3
350
50
  3
B4
350
51
  3
B5
350
52
  3
B6
350
53
  3
B7
350
54
  3
B8
350
55
  3
B9
350
56
  3
C0
350
57
  3
C1
350
58
  3
C2
350
59
  3
C3
350
5A
  3
C4
350
5B
  3
C5
350
5C
  3
C6
350
5D
  3
C7
350
5E
  3
C8
350
5F
  3
C9
350
60
  3
D0
350
61
  3
D1
350
62
  3
D2
350
63
  0
DICTIONARY
  5
3D
102
{ACAD_REACTORS
330
C
102
}
330
C
100
AcDbDictionary
281
     1
  3
Standard
350
3F
  0
DICTIONARY
  5
2E
102
{ACAD_REACTORS
330
C
102
}
330
C
100
AcDbDictionary
281
     1
  3
2dWireframe
350
2D
  3
3dWireframe
350
42
  3
Realistic
350
41
  0
XRECORD
  5
5AD
102
{ACAD_REACTORS
330
C
102
}
330
C
100
AcDbXrecord
280
     1
 90
        1
330
3F
330
A3
  0
DICTIONARY
  5
5A0
102
{ACAD_REACTORS
330
C
102
}
330
C
100
AcDbDictionary
281
     1
  3
CANNOSCALE
350
5A4
  3
CMLEADERSTYLE
350
5A2
  3
CTABLESTYLE
350
5A1
  3
DIMASSOC
350
5A9
  3
HIDETEXT
350
5A8
  3
INDEXCTL
350
5A7
  3
LIGHTINGUNITS
350
5A5
  3
MSLTSCALE
350
5A3
  3
PSOLHEIGHT
350
5AB
  3
PSOLWIDTH
350
5AA
  3
SORTENTS
350
5A6
  0
DICTIONARY
  5
22
102
{ACAD_REACTORS
330
21
102
}
330
21
100
AcDbDictionary
281
     1
  0
XRECORD
  5
9
102
{ACAD_REACTORS
330
8
102
}
330
8
100
AcDbXrecord
280
     1
290
     1
  0
XRECORD
  5
4
102
{ACAD_REACTORS
330
3
102
}
330
3
100
AcDbXrecord
280
     1
340
2
  0
SORTENTSTABLE
  5
59C
102
{ACAD_REACTORS
330
3
102
}
330
3
100
AcDbSortentsTable
330
2
  0
XRECORD
  5
1C
102
{ACAD_REACTORS
330
1B
102
}
330
1B
100
AcDbXrecord
280
     1
340
1A
  0
XRECORD
  5
5B9
102
{ACAD_REACTORS
330
5B8
102
}
330
5B8
100
AcDbXrecord
280
     1
 40
11034.0
  1
\A1;\U+2205104%%P0.5
  0
DIMASSOC
  5
A5
102
{ACAD_REACTORS
330
A4
102
}
330
A4
100
AcDbDimAssoc
330
A3
 90
        2
 70
     0
 71
     0
  1
AcDbOsnapPointRef
 72
     3
331
A2
 73
     2
 91
        0
 40
0.0
 10
0.0
 20
0.0
 30
0.0
 75
     0
  0
DIMASSOC
  5
307
102
{ACAD_REACTORS
330
306
102
}
330
306
100
AcDbDimAssoc
330
305
 90
        3
 70
     0
 71
     0
  1
AcDbOsnapPointRef
 72
    13
331
315
 73
     2
 91
        0
 40
0.0
 10
-13415.1909693057
 20
-4052.550979178138
 30
0.0
 75
     0
  1
AcDbOsnapPointRef
 72
     1
331
315
 73
     2
 91
        0
 40
1.0
 10
-13415.1909693057
 20
-4135.550979178138
 30
0.0
 75
     0
  0
DIMASSOC
  5
513
102
{ACAD_REACTORS
330
512
102
}
330
512
100
AcDbDimAssoc
330
511
 90
        1
 70
     0
 71
     0
  1
AcDbOsnapPointRef
 72
     1
331
540
 73
     2
 91
        0
 40
1.0
 10
-13450.1909693057
 20
-4089.050979178138
 30
0.0
 75
     0
  0
DIMASSOC
  5
523
102
{ACAD_REACTORS
330
522
102
}
330
522
100
AcDbDimAssoc
330
521
 90
        3
 70
     0
 71
     0
  1
AcDbOsnapPointRef
 72
     1
331
53F
 73
     2
 91
        0
 40
1.0
 10
-13450.1909693057
 20
-4100.050979178138
 30
0.0
 75
     0
  1
AcDbOsnapPointRef
 72
     1
331
588
 73
     2
 91
        0
 40
1.0
 10
-13420.1909693057
 20
-4088.050979178138
 30
0.0
 75
     0
  0
DIMASSOC
  5
532
102
{ACAD_REACTORS
330
531
102
}
330
531
100
AcDbDimAssoc
330
530
 90
        3
 70
     0
 71
     0
  1
AcDbOsnapPointRef
 72
     1
331
540
 73
     2
 91
        0
 40
1.0
 10
-13450.1909693057
 20
-4089.050979178138
 30
0.0
 75
     0
  1
AcDbOsnapPointRef
 72
     1
331
588
 73
     2
 91
        0
 40
1.0
 10
-13420.1909693057
 20
-4088.050979178138
 30
0.0
 75
     0
  0
DIMASSOC
  5
543
102
{ACAD_REACTORS
330
542
102
}
330
542
100
AcDbDimAssoc
330
541
 90
        3
 70
     0
 71
     0
  1
AcDbOsnapPointRef
 72
     1
331
53F
 73
     2
 91
        0
 40
1.0
 10
-13450.1909693057
 20
-4100.050979178138
 30
0.0
 75
     0
  1
AcDbOsnapPointRef
 72
     1
331
540
 73
     2
 91
        0
 40
1.0
 10
-13450.1909693057
 20
-4089.050979178138
 30
0.0
 75
     0
  0
DIMASSOC
  5
555
102
{ACAD_REACTORS
330
554
102
}
330
554
100
AcDbDimAssoc
330
553
 90
        2
 70
     0
 71
     0
  1
AcDbOsnapPointRef
 72
     1
331
58A
 73
     2
 91
        0
 40
1.0
 10
-13405.6909693057
 20
-4050.452241836608
 30
0.0
 75
     0
  0
LAYOUT
  5
17
102
{ACAD_XDICTIONARY
360
5AF
102
}
102
{ACAD_REACTORS
330
18
102
}
330
18
100
AcDbPlotSettings
  1

  2
none_device
  4
ISO_A4_(210.00_x_297.00_MM)
  6

 40
7.5
 41
20.0
 42
7.5
 43
20.0
 44
210.0
 45
297.0
 46
11.54999923706054
 47
-13.65000009536743
 48
0.0
 49
0.0
140
0.0
141
0.0
142
1.0
143
8.704084754739808
 70
 11952
 72
     1
 73
     0
 74
     0
  7

 75
     0
147
0.1148885871608098
148
0.0
149
0.0
100
AcDbLayout
  1
Model
 70
     1
 71
     0
 10
0.0
 20
0.0
 11
12.0
 21
9.0
 12
0.0
 22
0.0
 32
0.0
 14
0.0
 24
0.0
 34
0.0
 15
0.0
 25
0.0
 35
0.0
146
0.0
 13
0.0
 23
0.0
 33
0.0
 16
1.0
 26
0.0
 36
0.0
 17
0.0
 27
1.0
 37
0.0
 76
     0
330
2
331
2C
1001
ACAD_PSEXT
1000
None
1000
None
1000
Not applicable
1000
The layout will not be plotted unless a new plotter configuration name is selected.
1070
     0
  0
LAYOUT
  5
1F
102
{ACAD_XDICTIONARY
360
5B1
102
}
102
{ACAD_REACTORS
330
18
102
}
330
18
100
AcDbPlotSettings
  1

  2
C:\Documents and Settings\basas\Application Data\Autodesk\AutoCAD 2005\R16.1\enu\plotters\Default Windows System Printer.pc3
  4

  6

 40
0.0
 41
0.0
 42
0.0
 43
0.0
 44
0.0
 45
0.0
 46
0.0
 47
0.0
 48
0.0
 49
0.0
140
0.0
141
0.0
142
1.0
143
1.0
 70
   688
 72
     0
 73
     0
 74
     5
  7

 75
    16
147
1.0
148
0.0
149
0.0
100
AcDbLayout
  1
배치1
 70
     1
 71
     1
 10
0.0
 20
0.0
 11
12.0
 21
9.0
 12
0.0
 22
0.0
 32
0.0
 14
0.0
 24
0.0
 34
0.0
 15
0.0
 25
0.0
 35
0.0
146
0.0
 13
0.0
 23
0.0
 33
0.0
 16
1.0
 26
0.0
 36
0.0
 17
0.0
 27
1.0
 37
0.0
 76
     0
330
1A
  0
MATERIAL
  5
3A
102
{ACAD_XDICTIONARY
360
5B5
102
}
102
{ACAD_REACTORS
330
E
102
}
330
E
100
AcDbMaterial
  1
ByBlock
  0
MATERIAL
  5
39
102
{ACAD_XDICTIONARY
360
5B3
102
}
102
{ACAD_REACTORS
330
E
102
}
330
E
100
AcDbMaterial
  1
ByLayer
  0
MATERIAL
  5
D
102
{ACAD_XDICTIONARY
360
F
102
}
102
{ACAD_REACTORS
330
E
102
}
330
E
100
AcDbMaterial
  1
Global
 43
0.0007999999797903
 43
0.0
 43
0.0
 43
0.0
 43
0.0
 43
0.0007999999797903
 43
0.0
 43
0.0
 43
0.0
 43
0.0
 43
1.0
 43
0.0
 43
0.0
 43
0.0
 43
0.0
 43
1.0
 49
0.0007999999797903
 49
0.0
 49
0.0
 49
0.0
 49
0.0
 49
0.0007999999797903
 49
0.0
 49
0.0
 49
0.0
 49
0.0
 49
1.0
 49
0.0
 49
0.0
 49
0.0
 49
0.0
 49
1.0
142
0.0007999999797903
142
0.0
142
0.0
142
0.0
142
0.0
142
0.0007999999797903
142
0.0
142
0.0
142
0.0
142
0.0
142
1.0
142
0.0
142
0.0
142
0.0
142
0.0
142
1.0
144
0.0007999999797903
144
0.0
144
0.0
144
0.0
144
0.0
144
0.0007999999797903
144
0.0
144
0.0
144
0.0
144
0.0
144
1.0
144
0.0
144
0.0
144
0.0
144
0.0
144
1.0
1001
ACAD
1070
    -1
1070
     3
1070
     0
1000

1071
        0
1070
     0
  0
MLINESTYLE
  5
3E
102
{ACAD_REACTORS
330
37
102
}
330
37
100
AcDbMlineStyle
  2
STANDARD
 70
     0
  3

 62
   256
 51
90.0
 52
90.0
 71
     2
 49
0.5
 62
   256
  6
BYLAYER
 49
-0.5
 62
   256
  6
BYLAYER
  0
ACDBPLACEHOLDER
  5
A
102
{ACAD_REACTORS
330
B
102
}
330
B
  0
SCALE
  5
43
102
{ACAD_REACTORS
330
3C
102
}
330
3C
100
AcDbScale
 70
     0
300
1:1
140
1.0
141
1.0
290
     1
  0
SCALE
  5
44
102
{ACAD_REACTORS
330
3C
102
}
330
3C
100
AcDbScale
 70
     0
300
1:2
140
1.0
141
2.0
290
     0
  0
SCALE
  5
45
102
{ACAD_REACTORS
330
3C
102
}
330
3C
100
AcDbScale
 70
     0
300
1:4
140
1.0
141
4.0
290
     0
  0
SCALE
  5
46
102
{ACAD_REACTORS
330
3C
102
}
330
3C
100
AcDbScale
 70
     0
300
1:5
140
1.0
141
5.0
290
     0
  0
SCALE
  5
47
102
{ACAD_REACTORS
330
3C
102
}
330
3C
100
AcDbScale
 70
     0
300
1:8
140
1.0
141
8.0
290
     0
  0
SCALE
  5
48
102
{ACAD_REACTORS
330
3C
102
}
330
3C
100
AcDbScale
 70
     0
300
1:10
140
1.0
141
10.0
290
     0
  0
SCALE
  5
49
102
{ACAD_REACTORS
330
3C
102
}
330
3C
100
AcDbScale
 70
     0
300
1:16
140
1.0
141
16.0
290
     0
  0
SCALE
  5
4A
102
{ACAD_REACTORS
330
3C
102
}
330
3C
100
AcDbScale
 70
     0
300
1:20
140
1.0
141
20.0
290
     0
  0
SCALE
  5
4B
102
{ACAD_REACTORS
330
3C
102
}
330
3C
100
AcDbScale
 70
     0
300
1:30
140
1.0
141
30.0
290
     0
  0
SCALE
  5
4C
102
{ACAD_REACTORS
330
3C
102
}
330
3C
100
AcDbScale
 70
     0
300
1:40
140
1.0
141
40.0
290
     0
  0
SCALE
  5
4D
102
{ACAD_REACTORS
330
3C
102
}
330
3C
100
AcDbScale
 70
     0
300
1:50
140
1.0
141
50.0
290
     0
  0
SCALE
  5
4E
102
{ACAD_REACTORS
330
3C
102
}
330
3C
100
AcDbScale
 70
     0
300
1:100
140
1.0
141
100.0
290
     0
  0
SCALE
  5
4F
102
{ACAD_REACTORS
330
3C
102
}
330
3C
100
AcDbScale
 70
     0
300
2:1
140
2.0
141
1.0
290
     0
  0
SCALE
  5
50
102
{ACAD_REACTORS
330
3C
102
}
330
3C
100
AcDbScale
 70
     0
300
4:1
140
4.0
141
1.0
290
     0
  0
SCALE
  5
51
102
{ACAD_REACTORS
330
3C
102
}
330
3C
100
AcDbScale
 70
     0
300
8:1
140
8.0
141
1.0
290
     0
  0
SCALE
  5
52
102
{ACAD_REACTORS
330
3C
102
}
330
3C
100
AcDbScale
 70
     0
300
10:1
140
10.0
141
1.0
290
     0
  0
SCALE
  5
53
102
{ACAD_REACTORS
330
3C
102
}
330
3C
100
AcDbScale
 70
     0
300
100:1
140
100.0
141
1.0
290
     0
  0
SCALE
  5
54
102
{ACAD_REACTORS
330
3C
102
}
330
3C
100
AcDbScale
 70
     0
300
1/128" = 1'-0"
140
0.0078125
141
12.0
290
     0
  0
SCALE
  5
55
102
{ACAD_REACTORS
330
3C
102
}
330
3C
100
AcDbScale
 70
     0
300
1/64" = 1'-0"
140
0.015625
141
12.0
290
     0
  0
SCALE
  5
56
102
{ACAD_REACTORS
330
3C
102
}
330
3C
100
AcDbScale
 70
     0
300
1/32" = 1'-0"
140
0.03125
141
12.0
290
     0
  0
SCALE
  5
57
102
{ACAD_REACTORS
330
3C
102
}
330
3C
100
AcDbScale
 70
     0
300
1/16" = 1'-0"
140
0.0625
141
12.0
290
     0
  0
SCALE
  5
58
102
{ACAD_REACTORS
330
3C
102
}
330
3C
100
AcDbScale
 70
     0
300
3/32" = 1'-0"
140
0.09375
141
12.0
290
     0
  0
SCALE
  5
59
102
{ACAD_REACTORS
330
3C
102
}
330
3C
100
AcDbScale
 70
     0
300
1/8" = 1'-0"
140
0.125
141
12.0
290
     0
  0
SCALE
  5
5A
102
{ACAD_REACTORS
330
3C
102
}
330
3C
100
AcDbScale
 70
     0
300
3/16" = 1'-0"
140
0.1875
141
12.0
290
     0
  0
SCALE
  5
5B
102
{ACAD_REACTORS
330
3C
102
}
330
3C
100
AcDbScale
 70
     0
300
1/4" = 1'-0"
140
0.25
141
12.0
290
     0
  0
SCALE
  5
5C
102
{ACAD_REACTORS
330
3C
102
}
330
3C
100
AcDbScale
 70
     0
300
3/8" = 1'-0"
140
0.375
141
12.0
290
     0
  0
SCALE
  5
5D
102
{ACAD_REACTORS
330
3C
102
}
330
3C
100
AcDbScale
 70
     0
300
1/2" = 1'-0"
140
0.5
141
12.0
290
     0
  0
SCALE
  5
5E
102
{ACAD_REACTORS
330
3C
102
}
330
3C
100
AcDbScale
 70
     0
300
3/4" = 1'-0"
140
0.75
141
12.0
290
     0
  0
SCALE
  5
5F
102
{ACAD_REACTORS
330
3C
102
}
330
3C
100
AcDbScale
 70
     0
300
1" = 1'-0"
140
1.0
141
12.0
290
     0
  0
SCALE
  5
60
102
{ACAD_REACTORS
330
3C
102
}
330
3C
100
AcDbScale
 70
     0
300
1-1/2" = 1'-0"
140
1.5
141
12.0
290
     0
  0
SCALE
  5
61
102
{ACAD_REACTORS
330
3C
102
}
330
3C
100
AcDbScale
 70
     0
300
3" = 1'-0"
140
3.0
141
12.0
290
     0
  0
SCALE
  5
62
102
{ACAD_REACTORS
330
3C
102
}
330
3C
100
AcDbScale
 70
     0
300
6" = 1'-0"
140
6.0
141
12.0
290
     0
  0
SCALE
  5
63
102
{ACAD_REACTORS
330
3C
102
}
330
3C
100
AcDbScale
 70
     0
300
1'-0" = 1'-0"
140
12.0
141
12.0
290
     0
  0
TABLESTYLE
  5
3F
102
{ACAD_XDICTIONARY
360
40
102
}
102
{ACAD_REACTORS
330
3D
102
}
330
3D
100
AcDbTableStyle
  3
Standard
 70
     0
 71
     0
 40
1.5
 41
1.5
280
     0
281
     0
  7
Standard
140
4.5
170
     2
 62
     0
 63
     7
283
     0
274
    -2
284
     1
 64
     0
275
    -2
285
     1
 65
     0
276
    -2
286
     1
 66
     0
277
    -2
287
     1
 67
     0
278
    -2
288
     1
 68
     0
279
    -2
289
     1
 69
     0
  7
Standard
140
6.0
170
     5
 62
     0
 63
     7
283
     0
274
    -2
284
     1
 64
     0
275
    -2
285
     1
 65
     0
276
    -2
286
     1
 66
     0
277
    -2
287
     1
 67
     0
278
    -2
288
     1
 68
     0
279
    -2
289
     1
 69
     0
  7
Standard
140
4.5
170
     5
 62
     0
 63
     7
283
     0
274
    -2
284
     1
 64
     0
275
    -2
285
     1
 65
     0
276
    -2
286
     1
 66
     0
277
    -2
287
     1
 67
     0
278
    -2
288
     1
 68
     0
279
    -2
289
     1
 69
     0
  0
VISUALSTYLE
  5
2D
102
{ACAD_REACTORS
330
2E
102
}
330
2E
100
AcDbVisualStyle
  2
2dWireframe
 70
     4
 71
     0
 72
     2
 73
     1
 90
        0
 40
-0.6
 41
-30.0
 62
     5
 63
     7
 74
     1
 91
        4
 64
     7
 65
   257
 75
     1
175
     1
 42
1.0
 92
        0
 66
   257
 43
1.0
 76
     1
 77
     6
 78
     2
 67
     7
 79
     5
170
     0
171
     0
290
     0
174
     0
 93
        1
 44
0.0
173
     0
291
     0
 45
0.0
1001
ACAD
1000
AcDbSavedByObjectVersion
1070
     0
  0
VISUALSTYLE
  5
42
102
{ACAD_REACTORS
330
2E
102
}
330
2E
100
AcDbVisualStyle
  2
3dWireframe
 70
     5
 71
     0
 72
     2
 73
     1
 90
        0
 40
-0.6
 41
-30.0
 62
     5
 63
     7
 74
     1
 91
        4
 64
     7
 65
   257
 75
     1
175
     1
 42
1.0
 92
        0
 66
   257
 43
1.0
 76
     1
 77
     6
 78
     2
 67
     7
 79
     5
170
     0
171
     0
290
     0
174
     0
 93
        1
 44
0.0
173
     0
291
     0
 45
0.0
1001
ACAD
1000
AcDbSavedByObjectVersion
1070
     0
  0
VISUALSTYLE
  5
41
102
{ACAD_REACTORS
330
2E
102
}
330
2E
100
AcDbVisualStyle
  2
Realistic
 70
     8
 71
     2
 72
     2
 73
     1
 90
        0
 40
-0.6
 41
-30.0
 62
     5
 63
     7
 74
     1
 91
        0
 64
     7
 65
   257
 75
     1
175
     1
 42
1.0
 92
        8
 66
     8
 43
1.0
 76
     1
 77
     6
 78
     2
 67
     7
 79
     5
170
     0
171
     0
290
     0
174
     0
 93
       13
 44
0.0
173
     0
291
     0
 45
0.0
1001
ACAD
1000
AcDbSavedByObjectVersion
1070
     0
  0
DICTIONARYVAR
  5
5A4
102
{ACAD_REACTORS
330
5A0
102
}
330
5A0
100
DictionaryVariables
280
     0
  1
1:1
  0
DICTIONARYVAR
  5
5A2
102
{ACAD_REACTORS
330
5A0
102
}
330
5A0
100
DictionaryVariables
280
     0
  1
STANDARD
  0
DICTIONARYVAR
  5
5A1
102
{ACAD_REACTORS
330
5A0
102
}
330
5A0
100
DictionaryVariables
280
     0
  1
STANDARD
  0
DICTIONARYVAR
  5
5A9
102
{ACAD_REACTORS
330
5A0
102
}
330
5A0
100
DictionaryVariables
280
     0
  1
2
  0
DICTIONARYVAR
  5
5A8
102
{ACAD_REACTORS
330
5A0
102
}
330
5A0
100
DictionaryVariables
280
     0
  1
1
  0
DICTIONARYVAR
  5
5A7
102
{ACAD_REACTORS
330
5A0
102
}
330
5A0
100
DictionaryVariables
280
     0
  1
0
  0
DICTIONARYVAR
  5
5A5
102
{ACAD_REACTORS
330
5A0
102
}
330
5A0
100
DictionaryVariables
280
     0
  1
2
  0
DICTIONARYVAR
  5
5A3
102
{ACAD_REACTORS
330
5A0
102
}
330
5A0
100
DictionaryVariables
280
     0
  1
1
  0
DICTIONARYVAR
  5
5AB
102
{ACAD_REACTORS
330
5A0
102
}
330
5A0
100
DictionaryVariables
280
     0
  1
80.000000
  0
DICTIONARYVAR
  5
5AA
102
{ACAD_REACTORS
330
5A0
102
}
330
5A0
100
DictionaryVariables
280
     0
  1
5.000000
  0
DICTIONARYVAR
  5
5A6
102
{ACAD_REACTORS
330
5A0
102
}
330
5A0
100
DictionaryVariables
280
     0
  1
127
  0
DICTIONARY
  5
5AF
330
17
100
AcDbDictionary
280
     1
281
     1
  3
ACAD_XREC_ROUNDTRIP
360
5B0
  0
DICTIONARY
  5
5B1
330
1F
100
AcDbDictionary
280
     1
281
     1
  3
ACAD_XREC_ROUNDTRIP
360
5B2
  0
DICTIONARY
  5
5B5
330
3A
100
AcDbDictionary
280
     1
281
     1
  3
ACAD_XREC_ROUNDTRIP
360
5B6
  0
DICTIONARY
  5
5B3
330
39
100
AcDbDictionary
280
     1
281
     1
  3
ACAD_XREC_ROUNDTRIP
360
5B4
  0
DICTIONARY
  5
F
330
D
100
AcDbDictionary
280
     1
281
     1
  3
ACAD_XREC_ROUNDTRIP
360
5AE
  3
BUMPTILE
360
10
  3
DIFFUSETILE
360
11
  3
OPACITYTILE
360
12
  3
REFLECTIONTILE
360
13
  0
DICTIONARY
  5
40
330
3F
100
AcDbDictionary
280
     1
281
     1
  3
ACAD_ROUNDTRIP_2008_TABLESTYLE_CELLSTYLEMAP
360
5AC
  3
ACAD_XREC_ROUNDTRIP
360
5B7
  0
XRECORD
  5
5B0
102
{ACAD_REACTORS
330
5AF
102
}
330
5AF
100
AcDbXrecord
280
     1
102
SHADEPLOT
 70
     0
102
SHADEPLOTRESLEVEL
 70
     2
102
SHADEPLOTCUSTOMDPI
 70
   300
  0
XRECORD
  5
5B2
102
{ACAD_REACTORS
330
5B1
102
}
330
5B1
100
AcDbXrecord
280
     1
102
SHADEPLOT
 70
     0
102
SHADEPLOTRESLEVEL
 70
     2
102
SHADEPLOTCUSTOMDPI
 70
   300
  0
XRECORD
  5
5B6
102
{ACAD_REACTORS
330
5B5
102
}
330
5B5
100
AcDbXrecord
280
     1
102
MATERIAL
148
0.0
149
0.0
149
0.0
 93
        0
 94
       63
282
     0
 72
     1
 77
     1
171
     1
175
     1
179
     1
273
     0
  0
XRECORD
  5
5B4
102
{ACAD_REACTORS
330
5B3
102
}
330
5B3
100
AcDbXrecord
280
     1
102
MATERIAL
148
0.0
149
0.0
149
0.0
 93
        0
 94
       63
282
     0
 72
     1
 77
     1
171
     1
175
     1
179
     1
273
     0
  0
XRECORD
  5
5AE
102
{ACAD_REACTORS
330
F
102
}
330
F
100
AcDbXrecord
280
     1
102
MATERIAL
148
0.0
149
0.0
149
0.0
 93
        0
 94
       63
282
     0
 72
     1
 77
     1
171
     1
175
     1
179
     1
273
     0
  0
XRECORD
  5
10
102
{ACAD_REACTORS
330
F
102
}
330
F
100
AcDbXrecord
280
     1
270
     1
271
     1
  0
XRECORD
  5
11
102
{ACAD_REACTORS
330
F
102
}
330
F
100
AcDbXrecord
280
     1
270
     1
271
     1
  0
XRECORD
  5
12
102
{ACAD_REACTORS
330
F
102
}
330
F
100
AcDbXrecord
280
     1
270
     1
271
     1
  0
XRECORD
  5
13
102
{ACAD_REACTORS
330
F
102
}
330
F
100
AcDbXrecord
280
     1
270
     1
271
     1
  0
CELLSTYLEMAP
  5
5AC
102
{ACAD_REACTORS
330
40
102
}
330
40
100
AcDbCellStyleMap
 90
        3
300
CELLSTYLE
  1
TABLEFORMAT_BEGIN
 90
        5
170
     1
 91
        0
 92
    32768
 62
   257
 93
        1
300
CONTENTFORMAT
  1
CONTENTFORMAT_BEGIN
 90
        0
 91
        0
 92
      512
 93
        0
300

 40
0.0
140
1.0
 94
        5
 62
     0
340
24
144
6.0
309
CONTENTFORMAT_END
171
     1
301
MARGIN
  1
CELLMARGIN_BEGIN
 40
1.5
 40
1.5
 40
1.5
 40
1.5
 40
4.5
 40
4.5
309
CELLMARGIN_END
 94
        6
 95
        1
302
GRIDFORMAT
  1
GRIDFORMAT_BEGIN
 90
        0
 91
        1
 62
     0
 92
       -2
340
27
 93
        0
 40
1.125
309
GRIDFORMAT_END
 95
        2
302
GRIDFORMAT
  1
GRIDFORMAT_BEGIN
 90
        0
 91
        1
 62
     0
 92
       -2
340
27
 93
        0
 40
1.125
309
GRIDFORMAT_END
 95
        4
302
GRIDFORMAT
  1
GRIDFORMAT_BEGIN
 90
        0
 91
        1
 62
     0
 92
       -2
340
27
 93
        0
 40
1.125
309
GRIDFORMAT_END
 95
        8
302
GRIDFORMAT
  1
GRIDFORMAT_BEGIN
 90
        0
 91
        1
 62
     0
 92
       -2
340
27
 93
        0
 40
1.125
309
GRIDFORMAT_END
 95
       16
302
GRIDFORMAT
  1
GRIDFORMAT_BEGIN
 90
        0
 91
        1
 62
     0
 92
       -2
340
27
 93
        0
 40
1.125
309
GRIDFORMAT_END
 95
       32
302
GRIDFORMAT
  1
GRIDFORMAT_BEGIN
 90
        0
 91
        1
 62
     0
 92
       -2
340
27
 93
        0
 40
1.125
309
GRIDFORMAT_END
309
TABLEFORMAT_END
  1
CELLSTYLE_BEGIN
 90
        1
 91
        1
300
_TITLE
309
CELLSTYLE_END
300
CELLSTYLE
  1
TABLEFORMAT_BEGIN
 90
        5
170
     1
 91
        0
 92
        0
 62
   257
 93
        1
300
CONTENTFORMAT
  1
CONTENTFORMAT_BEGIN
 90
        0
 91
        0
 92
      512
 93
        0
300

 40
0.0
140
1.0
 94
        5
 62
     0
340
24
144
4.5
309
CONTENTFORMAT_END
171
     1
301
MARGIN
  1
CELLMARGIN_BEGIN
 40
1.5
 40
1.5
 40
1.5
 40
1.5
 40
4.5
 40
4.5
309
CELLMARGIN_END
 94
        6
 95
        1
302
GRIDFORMAT
  1
GRIDFORMAT_BEGIN
 90
        0
 91
        1
 62
     0
 92
       -2
340
27
 93
        0
 40
1.125
309
GRIDFORMAT_END
 95
        2
302
GRIDFORMAT
  1
GRIDFORMAT_BEGIN
 90
        0
 91
        1
 62
     0
 92
       -2
340
27
 93
        0
 40
1.125
309
GRIDFORMAT_END
 95
        4
302
GRIDFORMAT
  1
GRIDFORMAT_BEGIN
 90
        0
 91
        1
 62
     0
 92
       -2
340
27
 93
        0
 40
1.125
309
GRIDFORMAT_END
 95
        8
302
GRIDFORMAT
  1
GRIDFORMAT_BEGIN
 90
        0
 91
        1
 62
     0
 92
       -2
340
27
 93
        0
 40
1.125
309
GRIDFORMAT_END
 95
       16
302
GRIDFORMAT
  1
GRIDFORMAT_BEGIN
 90
        0
 91
        1
 62
     0
 92
       -2
340
27
 93
        0
 40
1.125
309
GRIDFORMAT_END
 95
       32
302
GRIDFORMAT
  1
GRIDFORMAT_BEGIN
 90
        0
 91
        1
 62
     0
 92
       -2
340
27
 93
        0
 40
1.125
309
GRIDFORMAT_END
309
TABLEFORMAT_END
  1
CELLSTYLE_BEGIN
 90
        2
 91
        1
300
_HEADER
309
CELLSTYLE_END
300
CELLSTYLE
  1
TABLEFORMAT_BEGIN
 90
        5
170
     1
 91
        0
 92
        0
 62
   257
 93
        1
300
CONTENTFORMAT
  1
CONTENTFORMAT_BEGIN
 90
        0
 91
        0
 92
      512
 93
        0
300

 40
0.0
140
1.0
 94
        2
 62
     0
340
24
144
4.5
309
CONTENTFORMAT_END
171
     1
301
MARGIN
  1
CELLMARGIN_BEGIN
 40
1.5
 40
1.5
 40
1.5
 40
1.5
 40
4.5
 40
4.5
309
CELLMARGIN_END
 94
        6
 95
        1
302
GRIDFORMAT
  1
GRIDFORMAT_BEGIN
 90
        0
 91
        1
 62
     0
 92
       -2
340
27
 93
        0
 40
1.125
309
GRIDFORMAT_END
 95
        2
302
GRIDFORMAT
  1
GRIDFORMAT_BEGIN
 90
        0
 91
        1
 62
     0
 92
       -2
340
27
 93
        0
 40
1.125
309
GRIDFORMAT_END
 95
        4
302
GRIDFORMAT
  1
GRIDFORMAT_BEGIN
 90
        0
 91
        1
 62
     0
 92
       -2
340
27
 93
        0
 40
1.125
309
GRIDFORMAT_END
 95
        8
302
GRIDFORMAT
  1
GRIDFORMAT_BEGIN
 90
        0
 91
        1
 62
     0
 92
       -2
340
27
 93
        0
 40
1.125
309
GRIDFORMAT_END
 95
       16
302
GRIDFORMAT
  1
GRIDFORMAT_BEGIN
 90
        0
 91
        1
 62
     0
 92
       -2
340
27
 93
        0
 40
1.125
309
GRIDFORMAT_END
 95
       32
302
GRIDFORMAT
  1
GRIDFORMAT_BEGIN
 90
        0
 91
        1
 62
     0
 92
       -2
340
27
 93
        0
 40
1.125
309
GRIDFORMAT_END
309
TABLEFORMAT_END
  1
CELLSTYLE_BEGIN
 90
        3
 91
        2
300
_DATA
309
CELLSTYLE_END
  0
XRECORD
  5
5B7
102
{ACAD_REACTORS
330
40
102
}
330
40
100
AcDbXrecord
280
     1
102
ACAD_ROUNDTRIP_PRE2007_TABLESTYLE
 90
      512
 91
        0
  1

 92
      512
 93
        0
  2

 94
      512
 95
        0
  3

  0
ENDSEC
  0
EOF
