  0
SECTION
  2
HEADER
  9
$ACADVER
  1
AC1014
  9
$ACADMAINTVER
 70
     9
  9
$DWGCODEPAGE
  3
ANSI_949
  9
$INSBASE
 10
0.0
 20
0.0
 30
0.0
  9
$EXTMIN
 10
-2.421152275386702
 20
2.34750435634919
 30
-0.0000000000112498
  9
$EXTMAX
 10
310.1742396479818
 20
288.3305518288754
 30
0.0000000000002956
  9
$LIMMIN
 10
0.0
 20
0.0
  9
$LIMMAX
 10
420.0
 20
297.0
  9
$ORTHOMODE
 70
     0
  9
$REGENMODE
 70
     1
  9
$FILLMODE
 70
     1
  9
$QTEXTMODE
 70
     0
  9
$MIRRTEXT
 70
     0
  9
$DRAGMODE
 70
     2
  9
$LTSCALE
 40
0.2
  9
$OSMODE
 70
  3071
  9
$ATTMODE
 70
     1
  9
$TEXTSIZE
 40
5.777225951253058
  9
$TRACEWID
 40
1.0
  9
$TEXTSTYLE
  7
STANDARD
  9
$CLAYER
  8
0
  9
$CELTYPE
  6
BYLAYER
  9
$CECOLOR
 62
   256
  9
$CELTSCALE
 40
1.0
  9
$DELOBJ
 70
     1
  9
$DISPSILH
 70
     0
  9
$DIMSCALE
 40
1.0
  9
$DIMASZ
 40
3.0
  9
$DIMEXO
 40
1.0
  9
$DIMDLI
 40
10.0
  9
$DIMRND
 40
0.0
  9
$DIMDLE
 40
0.0
  9
$DIMEXE
 40
0.6
  9
$DIMTP
 40
0.0
  9
$DIMTM
 40
0.0
  9
$DIMTXT
 40
3.5
  9
$DIMCEN
 40
0.09
  9
$DIMTSZ
 40
0.0
  9
$DIMTOL
 70
     0
  9
$DIMLIM
 70
     0
  9
$DIMTIH
 70
     0
  9
$DIMTOH
 70
     0
  9
$DIMSE1
 70
     0
  9
$DIMSE2
 70
     0
  9
$DIMTAD
 70
     1
  9
$DIMZIN
 70
     8
  9
$DIMBLK
  1

  9
$DIMASO
 70
     1
  9
$DIMSHO
 70
     1
  9
$DIMPOST
  1

  9
$DIMAPOST
  1

  9
$DIMALT
 70
     0
  9
$DIMALTD
 70
     2
  9
$DIMALTF
 40
25.4
  9
$DIMLFAC
 40
1.0
  9
$DIMTOFL
 70
     1
  9
$DIMTVP
 40
0.0
  9
$DIMTIX
 70
     1
  9
$DIMSOXD
 70
     0
  9
$DIMSAH
 70
     0
  9
$DIMBLK1
  1

  9
$DIMBLK2
  1

  9
$DIMSTYLE
  2
1_1_2
  9
$DIMCLRD
 70
   123
  9
$DIMCLRE
 70
   123
  9
$DIMCLRT
 70
     3
  9
$DIMTFAC
 40
1.0
  9
$DIMGAP
 40
1.0
  9
$DIMJUST
 70
     0
  9
$DIMSD1
 70
     0
  9
$DIMSD2
 70
     0
  9
$DIMTOLJ
 70
     1
  9
$DIMTZIN
 70
     0
  9
$DIMALTZ
 70
     0
  9
$DIMALTTZ
 70
     0
  9
$DIMFIT
 70
     3
  9
$DIMUPT
 70
     1
  9
$DIMUNIT
 70
     2
  9
$DIMDEC
 70
     2
  9
$DIMTDEC
 70
     2
  9
$DIMALTU
 70
     2
  9
$DIMALTTD
 70
     2
  9
$DIMTXSTY
  7
STANDARD
  9
$DIMAUNIT
 70
     1
  9
$LUNITS
 70
     2
  9
$LUPREC
 70
     4
  9
$SKETCHINC
 40
1.0
  9
$FILLETRAD
 40
0.5
  9
$AUNITS
 70
     0
  9
$AUPREC
 70
     0
  9
$MENU
  1
.
  9
$ELEVATION
 40
0.0
  9
$PELEVATION
 40
0.0
  9
$THICKNESS
 40
0.0
  9
$LIMCHECK
 70
     0
  9
$BLIPMODE
 70
     0
  9
$CHAMFERA
 40
1.0
  9
$CHAMFERB
 40
1.0
  9
$CHAMFERC
 40
20.0
  9
$CHAMFERD
 40
0.0
  9
$SKPOLY
 70
     0
  9
$TDCREATE
 40
2452839.586179271
  9
$TDUPDATE
 40
2453385.421198275
  9
$TDINDWG
 40
11.1164392824
  9
$TDUSRTIMER
 40
11.1164389120
  9
$USRTIMER
 70
     1
  9
$ANGBASE
 50
0.0
  9
$ANGDIR
 70
     0
  9
$PDMODE
 70
     0
  9
$PDSIZE
 40
0.0
  9
$PLINEWID
 40
0.0
  9
$COORDS
 70
     1
  9
$SPLFRAME
 70
     0
  9
$SPLINETYPE
 70
     6
  9
$SPLINESEGS
 70
   800
  9
$ATTDIA
 70
     0
  9
$ATTREQ
 70
     1
  9
$HANDLING
 70
 22529
  9
$HANDSEED
  5
4C9
  9
$SURFTAB1
 70
     6
  9
$SURFTAB2
 70
     6
  9
$SURFTYPE
 70
     6
  9
$SURFU
 70
     6
  9
$SURFV
 70
     6
  9
$UCSNAME
  2

  9
$UCSORG
 10
0.0
 20
0.0
 30
0.0
  9
$UCSXDIR
 10
1.0
 20
0.0
 30
0.0
  9
$UCSYDIR
 10
0.0
 20
1.0
 30
0.0
  9
$PUCSNAME
  2

  9
$PUCSORG
 10
0.0
 20
0.0
 30
0.0
  9
$PUCSXDIR
 10
1.0
 20
0.0
 30
0.0
  9
$PUCSYDIR
 10
0.0
 20
1.0
 30
0.0
  9
$USERI1
 70
     0
  9
$USERI2
 70
     0
  9
$USERI3
 70
     0
  9
$USERI4
 70
     0
  9
$USERI5
 70
     0
  9
$USERR1
 40
0.0
  9
$USERR2
 40
0.0
  9
$USERR3
 40
0.0
  9
$USERR4
 40
0.0
  9
$USERR5
 40
0.0
  9
$WORLDVIEW
 70
     1
  9
$SHADEDGE
 70
     3
  9
$SHADEDIF
 70
    70
  9
$TILEMODE
 70
     1
  9
$MAXACTVP
 70
    48
  9
$PINSBASE
 10
0.0
 20
0.0
 30
0.0
  9
$PLIMCHECK
 70
     0
  9
$PEXTMIN
 10
0.0
 20
0.0
 30
0.0
  9
$PEXTMAX
 10
0.0
 20
0.0
 30
0.0
  9
$PLIMMIN
 10
0.0
 20
0.0
  9
$PLIMMAX
 10
12.0
 20
9.0
  9
$UNITMODE
 70
     0
  9
$VISRETAIN
 70
     1
  9
$PLINEGEN
 70
     0
  9
$PSLTSCALE
 70
     1
  9
$TREEDEPTH
 70
  3020
  9
$PICKSTYLE
 70
     1
  9
$CMLSTYLE
  2
STANDARD
  9
$CMLJUST
 70
     0
  9
$CMLSCALE
 40
20.0
  9
$PROXYGRAPHICS
 70
     1
  9
$MEASUREMENT
 70
     1
  0
ENDSEC
  0
SECTION
  2
CLASSES
  0
CLASS
  1
ACDBDICTIONARYWDFLT
  2
AcDbDictionaryWithDefault
  3
AutoCAD 2000
 90
        0
280
     0
281
     0
  0
CLASS
  1
ACDBPLACEHOLDER
  2
AcDbPlaceHolder
  3
AutoCAD 2000
 90
        0
280
     0
281
     0
  0
CLASS
  1
LAYOUT
  2
AcDbLayout
  3
AutoCAD 2000
 90
        0
280
     0
281
     0
  0
CLASS
  1
DICTIONARYVAR
  2
AcDbDictionaryVar
  3
AutoCAD 2000
 90
        0
280
     0
281
     0
  0
CLASS
  1
DIMASSOC
  2
AcDbDimAssoc
  3
"AcDbDimAssoc|Product Desc:     AcDim ARX App For Dimension|Company:          Autodesk, Inc.|WEB Address:      www.autodesk.com"
 90
        0
280
     0
281
     0
  0
CLASS
  1
LONG_TRANSACTION
  2
AcDbLongTransaction
  3
AutoCAD 2000
 90
        0
280
     0
281
     0
  0
CLASS
  1
LWPOLYLINE
  2
AcDbPolyline
  3
AutoCAD 2000
 90
        0
280
     0
281
     1
  0
CLASS
  1
HATCH
  2
AcDbHatch
  3
AutoCAD 2000
 90
        0
280
     0
281
     1
  0
CLASS
  1
XRECORD
  2
AcDbXrecord
  3
AutoCAD 2000
 90
        0
280
     0
281
     0
  0
CLASS
  1
LONG_TRANSACTION
  2
AcDbLongTransaction
  3
AutoCAD 2000
 90
        0
280
     0
281
     0
  0
CLASS
  1
LWPOLYLINE
  2
AcDbPolyline
  3
AutoCAD 2000
 90
        0
280
     0
281
     1
  0
CLASS
  1
HATCH
  2
AcDbHatch
  3
AutoCAD 2000
 90
        0
280
     0
281
     1
  0
CLASS
  1
XRECORD
  2
AcDbXrecord
  3
AutoCAD 2000
 90
        0
280
     0
281
     0
  0
CLASS
  1
LONG_TRANSACTION
  2
AcDbLongTransaction
  3
AutoCAD 2000
 90
        0
280
     0
281
     0
  0
CLASS
  1
LWPOLYLINE
  2
AcDbPolyline
  3
AutoCAD 2000
 90
        0
280
     0
281
     1
  0
CLASS
  1
HATCH
  2
AcDbHatch
  3
AutoCAD 2000
 90
        0
280
     0
281
     1
  0
CLASS
  1
XRECORD
  2
AcDbXrecord
  3
AutoCAD 2000
 90
        0
280
     0
281
     0
  0
CLASS
  1
LONG_TRANSACTION
  2
AcDbLongTransaction
  3
AutoCAD 2000
 90
        0
280
     0
281
     0
  0
CLASS
  1
LWPOLYLINE
  2
AcDbPolyline
  3
AutoCAD 2000
 90
        0
280
     0
281
     1
  0
CLASS
  1
HATCH
  2
AcDbHatch
  3
AutoCAD 2000
 90
        0
280
     0
281
     1
  0
CLASS
  1
XRECORD
  2
AcDbXrecord
  3
AutoCAD 2000
 90
        0
280
     0
281
     0
  0
CLASS
  1
LONG_TRANSACTION
  2
AcDbLongTransaction
  3
AutoCAD 2000
 90
        0
280
     0
281
     0
  0
CLASS
  1
LWPOLYLINE
  2
AcDbPolyline
  3
AutoCAD 2000
 90
        0
280
     0
281
     1
  0
CLASS
  1
HATCH
  2
AcDbHatch
  3
AutoCAD 2000
 90
        0
280
     0
281
     1
  0
CLASS
  1
XRECORD
  2
AcDbXrecord
  3
AutoCAD 2000
 90
        0
280
     0
281
     0
  0
CLASS
  1
LONG_TRANSACTION
  2
AcDbLongTransaction
  3
AutoCAD 2000
 90
        0
280
     0
281
     0
  0
CLASS
  1
LWPOLYLINE
  2
AcDbPolyline
  3
AutoCAD 2000
 90
        0
280
     0
281
     1
  0
CLASS
  1
HATCH
  2
AcDbHatch
  3
AutoCAD 2000
 90
        0
280
     0
281
     1
  0
CLASS
  1
XRECORD
  2
AcDbXrecord
  3
AutoCAD 2000
 90
        0
280
     0
281
     0
  0
CLASS
  1
LONG_TRANSACTION
  2
AcDbLongTransaction
  3
AutoCAD 2000
 90
        0
280
     0
281
     0
  0
CLASS
  1
LWPOLYLINE
  2
AcDbPolyline
  3
AutoCAD 2000
 90
        0
280
     0
281
     1
  0
CLASS
  1
HATCH
  2
AcDbHatch
  3
AutoCAD 2000
 90
        0
280
     0
281
     1
  0
CLASS
  1
XRECORD
  2
AcDbXrecord
  3
AutoCAD 2000
 90
        0
280
     0
281
     0
  0
CLASS
  1
LONG_TRANSACTION
  2
AcDbLongTransaction
  3
AutoCAD 2000
 90
        0
280
     0
281
     0
  0
CLASS
  1
LWPOLYLINE
  2
AcDbPolyline
  3
AutoCAD 2000
 90
        0
280
     0
281
     1
  0
CLASS
  1
HATCH
  2
AcDbHatch
  3
AutoCAD 2000
 90
        0
280
     0
281
     1
  0
CLASS
  1
XRECORD
  2
AcDbXrecord
  3
AutoCAD 2000
 90
        0
280
     0
281
     0
  0
CLASS
  1
LONG_TRANSACTION
  2
AcDbLongTransaction
  3
AutoCAD 2000
 90
        0
280
     0
281
     0
  0
CLASS
  1
LWPOLYLINE
  2
AcDbPolyline
  3
AutoCAD 2000
 90
        0
280
     0
281
     1
  0
CLASS
  1
HATCH
  2
AcDbHatch
  3
AutoCAD 2000
 90
        0
280
     0
281
     1
  0
CLASS
  1
XRECORD
  2
AcDbXrecord
  3
AutoCAD 2000
 90
        0
280
     0
281
     0
  0
CLASS
  1
LONG_TRANSACTION
  2
AcDbLongTransaction
  3
AutoCAD 2000
 90
        0
280
     0
281
     0
  0
CLASS
  1
LWPOLYLINE
  2
AcDbPolyline
  3
AutoCAD 2000
 90
        0
280
     0
281
     1
  0
CLASS
  1
HATCH
  2
AcDbHatch
  3
AutoCAD 2000
 90
        0
280
     0
281
     1
  0
CLASS
  1
XRECORD
  2
AcDbXrecord
  3
AutoCAD 2000
 90
        0
280
     0
281
     0
  0
CLASS
  1
LONG_TRANSACTION
  2
AcDbLongTransaction
  3
AutoCAD 2000
 90
        0
280
     0
281
     0
  0
CLASS
  1
LWPOLYLINE
  2
AcDbPolyline
  3
AutoCAD 2000
 90
        0
280
     0
281
     1
  0
CLASS
  1
HATCH
  2
AcDbHatch
  3
AutoCAD 2000
 90
        0
280
     0
281
     1
  0
CLASS
  1
XRECORD
  2
AcDbXrecord
  3
AutoCAD 2000
 90
        0
280
     0
281
     0
  0
CLASS
  1
LONG_TRANSACTION
  2
AcDbLongTransaction
  3
AutoCAD 2000
 90
        0
280
     0
281
     0
  0
CLASS
  1
LWPOLYLINE
  2
AcDbPolyline
  3
AutoCAD 2000
 90
        0
280
     0
281
     1
  0
CLASS
  1
HATCH
  2
AcDbHatch
  3
AutoCAD 2000
 90
        0
280
     0
281
     1
  0
CLASS
  1
XRECORD
  2
AcDbXrecord
  3
AutoCAD 2000
 90
        0
280
     0
281
     0
  0
CLASS
  1
LONG_TRANSACTION
  2
AcDbLongTransaction
  3
AutoCAD 2000
 90
        0
280
     0
281
     0
  0
CLASS
  1
LWPOLYLINE
  2
AcDbPolyline
  3
AutoCAD 2000
 90
        0
280
     0
281
     1
  0
CLASS
  1
HATCH
  2
AcDbHatch
  3
AutoCAD 2000
 90
        0
280
     0
281
     1
  0
CLASS
  1
XRECORD
  2
AcDbXrecord
  3
AutoCAD 2000
 90
        0
280
     0
281
     0
  0
CLASS
  1
LONG_TRANSACTION
  2
AcDbLongTransaction
  3
AutoCAD 2000
 90
        0
280
     0
281
     0
  0
CLASS
  1
LWPOLYLINE
  2
AcDbPolyline
  3
AutoCAD 2000
 90
        0
280
     0
281
     1
  0
CLASS
  1
HATCH
  2
AcDbHatch
  3
AutoCAD 2000
 90
        0
280
     0
281
     1
  0
CLASS
  1
XRECORD
  2
AcDbXrecord
  3
AutoCAD 2000
 90
        0
280
     0
281
     0
  0
CLASS
  1
LONG_TRANSACTION
  2
AcDbLongTransaction
  3
AutoCAD 2000
 90
        0
280
     0
281
     0
  0
CLASS
  1
LWPOLYLINE
  2
AcDbPolyline
  3
AutoCAD 2000
 90
        0
280
     0
281
     1
  0
CLASS
  1
HATCH
  2
AcDbHatch
  3
AutoCAD 2000
 90
        0
280
     0
281
     1
  0
CLASS
  1
XRECORD
  2
AcDbXrecord
  3
AutoCAD 2000
 90
        0
280
     0
281
     0
  0
CLASS
  1
LONG_TRANSACTION
  2
AcDbLongTransaction
  3
AutoCAD 2000
 90
        0
280
     0
281
     0
  0
CLASS
  1
LWPOLYLINE
  2
AcDbPolyline
  3
AutoCAD 2000
 90
        0
280
     0
281
     1
  0
CLASS
  1
HATCH
  2
AcDbHatch
  3
AutoCAD 2000
 90
        0
280
     0
281
     1
  0
CLASS
  1
XRECORD
  2
AcDbXrecord
  3
AutoCAD 2000
 90
        0
280
     0
281
     0
  0
CLASS
  1
LONG_TRANSACTION
  2
AcDbLongTransaction
  3
AutoCAD 2000
 90
        0
280
     0
281
     0
  0
CLASS
  1
LWPOLYLINE
  2
AcDbPolyline
  3
AutoCAD 2000
 90
        0
280
     0
281
     1
  0
CLASS
  1
HATCH
  2
AcDbHatch
  3
AutoCAD 2000
 90
        0
280
     0
281
     1
  0
CLASS
  1
XRECORD
  2
AcDbXrecord
  3
AutoCAD 2000
 90
        0
280
     0
281
     0
  0
CLASS
  1
LONG_TRANSACTION
  2
AcDbLongTransaction
  3
AutoCAD 2000
 90
        0
280
     0
281
     0
  0
CLASS
  1
LWPOLYLINE
  2
AcDbPolyline
  3
AutoCAD 2000
 90
        0
280
     0
281
     1
  0
CLASS
  1
HATCH
  2
AcDbHatch
  3
AutoCAD 2000
 90
        0
280
     0
281
     1
  0
CLASS
  1
XRECORD
  2
AcDbXrecord
  3
AutoCAD 2000
 90
        0
280
     0
281
     0
  0
CLASS
  1
LONG_TRANSACTION
  2
AcDbLongTransaction
  3
AutoCAD 2000
 90
        0
280
     0
281
     0
  0
CLASS
  1
LWPOLYLINE
  2
AcDbPolyline
  3
AutoCAD 2000
 90
        0
280
     0
281
     1
  0
CLASS
  1
HATCH
  2
AcDbHatch
  3
AutoCAD 2000
 90
        0
280
     0
281
     1
  0
CLASS
  1
XRECORD
  2
AcDbXrecord
  3
AutoCAD 2000
 90
        0
280
     0
281
     0
  0
CLASS
  1
LONG_TRANSACTION
  2
AcDbLongTransaction
  3
AutoCAD 2000
 90
        0
280
     0
281
     0
  0
CLASS
  1
LWPOLYLINE
  2
AcDbPolyline
  3
AutoCAD 2000
 90
        0
280
     0
281
     1
  0
CLASS
  1
HATCH
  2
AcDbHatch
  3
AutoCAD 2000
 90
        0
280
     0
281
     1
  0
CLASS
  1
XRECORD
  2
AcDbXrecord
  3
AutoCAD 2000
 90
        0
280
     0
281
     0
  0
CLASS
  1
LONG_TRANSACTION
  2
AcDbLongTransaction
  3
AutoCAD 2000
 90
        0
280
     0
281
     0
  0
CLASS
  1
LWPOLYLINE
  2
AcDbPolyline
  3
AutoCAD 2000
 90
        0
280
     0
281
     1
  0
CLASS
  1
HATCH
  2
AcDbHatch
  3
AutoCAD 2000
 90
        0
280
     0
281
     1
  0
CLASS
  1
XRECORD
  2
AcDbXrecord
  3
AutoCAD 2000
 90
        0
280
     0
281
     0
  0
CLASS
  1
LONG_TRANSACTION
  2
AcDbLongTransaction
  3
AutoCAD 2000
 90
        0
280
     0
281
     0
  0
CLASS
  1
LWPOLYLINE
  2
AcDbPolyline
  3
AutoCAD 2000
 90
        0
280
     0
281
     1
  0
CLASS
  1
HATCH
  2
AcDbHatch
  3
AutoCAD 2000
 90
        0
280
     0
281
     1
  0
CLASS
  1
XRECORD
  2
AcDbXrecord
  3
AutoCAD 2000
 90
        0
280
     0
281
     0
  0
CLASS
  1
LONG_TRANSACTION
  2
AcDbLongTransaction
  3
AutoCAD 2000
 90
        0
280
     0
281
     0
  0
CLASS
  1
LWPOLYLINE
  2
AcDbPolyline
  3
AutoCAD 2000
 90
        0
280
     0
281
     1
  0
CLASS
  1
HATCH
  2
AcDbHatch
  3
AutoCAD 2000
 90
        0
280
     0
281
     1
  0
CLASS
  1
XRECORD
  2
AcDbXrecord
  3
AutoCAD 2000
 90
        0
280
     0
281
     0
  0
CLASS
  1
LONG_TRANSACTION
  2
AcDbLongTransaction
  3
AutoCAD 2000
 90
        0
280
     0
281
     0
  0
CLASS
  1
LWPOLYLINE
  2
AcDbPolyline
  3
AutoCAD 2000
 90
        0
280
     0
281
     1
  0
CLASS
  1
HATCH
  2
AcDbHatch
  3
AutoCAD 2000
 90
        0
280
     0
281
     1
  0
CLASS
  1
XRECORD
  2
AcDbXrecord
  3
AutoCAD 2000
 90
        0
280
     0
281
     0
  0
CLASS
  1
LONG_TRANSACTION
  2
AcDbLongTransaction
  3
AutoCAD 2000
 90
        0
280
     0
281
     0
  0
CLASS
  1
LWPOLYLINE
  2
AcDbPolyline
  3
AutoCAD 2000
 90
        0
280
     0
281
     1
  0
CLASS
  1
HATCH
  2
AcDbHatch
  3
AutoCAD 2000
 90
        0
280
     0
281
     1
  0
CLASS
  1
XRECORD
  2
AcDbXrecord
  3
AutoCAD 2000
 90
        0
280
     0
281
     0
  0
CLASS
  1
LONG_TRANSACTION
  2
AcDbLongTransaction
  3
AutoCAD 2000
 90
        0
280
     0
281
     0
  0
CLASS
  1
LWPOLYLINE
  2
AcDbPolyline
  3
AutoCAD 2000
 90
        0
280
     0
281
     1
  0
CLASS
  1
HATCH
  2
AcDbHatch
  3
AutoCAD 2000
 90
        0
280
     0
281
     1
  0
CLASS
  1
XRECORD
  2
AcDbXrecord
  3
AutoCAD 2000
 90
        0
280
     0
281
     0
  0
CLASS
  1
LONG_TRANSACTION
  2
AcDbLongTransaction
  3
AutoCAD 2000
 90
        0
280
     0
281
     0
  0
CLASS
  1
LWPOLYLINE
  2
AcDbPolyline
  3
AutoCAD 2000
 90
        0
280
     0
281
     1
  0
CLASS
  1
HATCH
  2
AcDbHatch
  3
AutoCAD 2000
 90
        0
280
     0
281
     1
  0
CLASS
  1
XRECORD
  2
AcDbXrecord
  3
AutoCAD 2000
 90
        0
280
     0
281
     0
  0
CLASS
  1
LONG_TRANSACTION
  2
AcDbLongTransaction
  3
AutoCAD 2000
 90
        0
280
     0
281
     0
  0
CLASS
  1
LWPOLYLINE
  2
AcDbPolyline
  3
AutoCAD 2000
 90
        0
280
     0
281
     1
  0
CLASS
  1
HATCH
  2
AcDbHatch
  3
AutoCAD 2000
 90
        0
280
     0
281
     1
  0
CLASS
  1
XRECORD
  2
AcDbXrecord
  3
AutoCAD 2000
 90
        0
280
     0
281
     0
  0
CLASS
  1
LONG_TRANSACTION
  2
AcDbLongTransaction
  3
AutoCAD 2000
 90
        0
280
     0
281
     0
  0
CLASS
  1
LWPOLYLINE
  2
AcDbPolyline
  3
AutoCAD 2000
 90
        0
280
     0
281
     1
  0
CLASS
  1
HATCH
  2
AcDbHatch
  3
AutoCAD 2000
 90
        0
280
     0
281
     1
  0
CLASS
  1
XRECORD
  2
AcDbXrecord
  3
AutoCAD 2000
 90
        0
280
     0
281
     0
  0
CLASS
  1
LONG_TRANSACTION
  2
AcDbLongTransaction
  3
AutoCAD 2000
 90
        0
280
     0
281
     0
  0
CLASS
  1
LWPOLYLINE
  2
AcDbPolyline
  3
AutoCAD 2000
 90
        0
280
     0
281
     1
  0
CLASS
  1
HATCH
  2
AcDbHatch
  3
AutoCAD 2000
 90
        0
280
     0
281
     1
  0
CLASS
  1
XRECORD
  2
AcDbXrecord
  3
AutoCAD 2000
 90
        0
280
     0
281
     0
  0
CLASS
  1
LONG_TRANSACTION
  2
AcDbLongTransaction
  3
AutoCAD 2000
 90
        0
280
     0
281
     0
  0
CLASS
  1
LWPOLYLINE
  2
AcDbPolyline
  3
AutoCAD 2000
 90
        0
280
     0
281
     1
  0
CLASS
  1
HATCH
  2
AcDbHatch
  3
AutoCAD 2000
 90
        0
280
     0
281
     1
  0
CLASS
  1
XRECORD
  2
AcDbXrecord
  3
AutoCAD 2000
 90
        0
280
     0
281
     0
  0
CLASS
  1
LONG_TRANSACTION
  2
AcDbLongTransaction
  3
AutoCAD 2000
 90
        0
280
     0
281
     0
  0
CLASS
  1
LWPOLYLINE
  2
AcDbPolyline
  3
AutoCAD 2000
 90
        0
280
     0
281
     1
  0
CLASS
  1
HATCH
  2
AcDbHatch
  3
AutoCAD 2000
 90
        0
280
     0
281
     1
  0
CLASS
  1
XRECORD
  2
AcDbXrecord
  3
AutoCAD 2000
 90
        0
280
     0
281
     0
  0
CLASS
  1
LONG_TRANSACTION
  2
AcDbLongTransaction
  3
AutoCAD 2000
 90
        0
280
     0
281
     0
  0
CLASS
  1
LWPOLYLINE
  2
AcDbPolyline
  3
AutoCAD 2000
 90
        0
280
     0
281
     1
  0
CLASS
  1
HATCH
  2
AcDbHatch
  3
AutoCAD 2000
 90
        0
280
     0
281
     1
  0
CLASS
  1
XRECORD
  2
AcDbXrecord
  3
AutoCAD 2000
 90
        0
280
     0
281
     0
  0
CLASS
  1
LONG_TRANSACTION
  2
AcDbLongTransaction
  3
AutoCAD 2000
 90
        0
280
     0
281
     0
  0
CLASS
  1
LWPOLYLINE
  2
AcDbPolyline
  3
AutoCAD 2000
 90
        0
280
     0
281
     1
  0
CLASS
  1
HATCH
  2
AcDbHatch
  3
AutoCAD 2000
 90
        0
280
     0
281
     1
  0
CLASS
  1
XRECORD
  2
AcDbXrecord
  3
AutoCAD 2000
 90
        0
280
     0
281
     0
  0
CLASS
  1
LONG_TRANSACTION
  2
AcDbLongTransaction
  3
AutoCAD 2000
 90
        0
280
     0
281
     0
  0
CLASS
  1
LWPOLYLINE
  2
AcDbPolyline
  3
AutoCAD 2000
 90
        0
280
     0
281
     1
  0
CLASS
  1
HATCH
  2
AcDbHatch
  3
AutoCAD 2000
 90
        0
280
     0
281
     1
  0
CLASS
  1
XRECORD
  2
AcDbXrecord
  3
AutoCAD 2000
 90
        0
280
     0
281
     0
  0
CLASS
  1
LONG_TRANSACTION
  2
AcDbLongTransaction
  3
AutoCAD 2000
 90
        0
280
     0
281
     0
  0
CLASS
  1
LWPOLYLINE
  2
AcDbPolyline
  3
AutoCAD 2000
 90
        0
280
     0
281
     1
  0
CLASS
  1
HATCH
  2
AcDbHatch
  3
AutoCAD 2000
 90
        0
280
     0
281
     1
  0
CLASS
  1
XRECORD
  2
AcDbXrecord
  3
AutoCAD 2000
 90
        0
280
     0
281
     0
  0
CLASS
  1
LONG_TRANSACTION
  2
AcDbLongTransaction
  3
AutoCAD 2000
 90
        0
280
     0
281
     0
  0
CLASS
  1
LWPOLYLINE
  2
AcDbPolyline
  3
AutoCAD 2000
 90
        0
280
     0
281
     1
  0
CLASS
  1
HATCH
  2
AcDbHatch
  3
AutoCAD 2000
 90
        0
280
     0
281
     1
  0
CLASS
  1
XRECORD
  2
AcDbXrecord
  3
AutoCAD 2000
 90
        0
280
     0
281
     0
  0
CLASS
  1
LONG_TRANSACTION
  2
AcDbLongTransaction
  3
AutoCAD 2000
 90
        0
280
     0
281
     0
  0
CLASS
  1
LWPOLYLINE
  2
AcDbPolyline
  3
AutoCAD 2000
 90
        0
280
     0
281
     1
  0
CLASS
  1
HATCH
  2
AcDbHatch
  3
AutoCAD 2000
 90
        0
280
     0
281
     1
  0
CLASS
  1
XRECORD
  2
AcDbXrecord
  3
AutoCAD 2000
 90
        0
280
     0
281
     0
  0
CLASS
  1
LONG_TRANSACTION
  2
AcDbLongTransaction
  3
AutoCAD 2000
 90
        0
280
     0
281
     0
  0
CLASS
  1
LWPOLYLINE
  2
AcDbPolyline
  3
AutoCAD 2000
 90
        0
280
     0
281
     1
  0
CLASS
  1
HATCH
  2
AcDbHatch
  3
AutoCAD 2000
 90
        0
280
     0
281
     1
  0
CLASS
  1
XRECORD
  2
AcDbXrecord
  3
AutoCAD 2000
 90
        0
280
     0
281
     0
  0
CLASS
  1
LONG_TRANSACTION
  2
AcDbLongTransaction
  3
AutoCAD 2000
 90
        0
280
     0
281
     0
  0
CLASS
  1
LWPOLYLINE
  2
AcDbPolyline
  3
AutoCAD 2000
 90
        0
280
     0
281
     1
  0
CLASS
  1
HATCH
  2
AcDbHatch
  3
AutoCAD 2000
 90
        0
280
     0
281
     1
  0
CLASS
  1
XRECORD
  2
AcDbXrecord
  3
AutoCAD 2000
 90
        0
280
     0
281
     0
  0
CLASS
  1
LONG_TRANSACTION
  2
AcDbLongTransaction
  3
AutoCAD 2000
 90
        0
280
     0
281
     0
  0
CLASS
  1
LWPOLYLINE
  2
AcDbPolyline
  3
AutoCAD 2000
 90
        0
280
     0
281
     1
  0
CLASS
  1
HATCH
  2
AcDbHatch
  3
AutoCAD 2000
 90
        0
280
     0
281
     1
  0
CLASS
  1
XRECORD
  2
AcDbXrecord
  3
AutoCAD 2000
 90
        0
280
     0
281
     0
  0
CLASS
  1
LONG_TRANSACTION
  2
AcDbLongTransaction
  3
AutoCAD 2000
 90
        0
280
     0
281
     0
  0
CLASS
  1
LWPOLYLINE
  2
AcDbPolyline
  3
AutoCAD 2000
 90
        0
280
     0
281
     1
  0
CLASS
  1
HATCH
  2
AcDbHatch
  3
AutoCAD 2000
 90
        0
280
     0
281
     1
  0
CLASS
  1
XRECORD
  2
AcDbXrecord
  3
AutoCAD 2000
 90
        0
280
     0
281
     0
  0
CLASS
  1
LONG_TRANSACTION
  2
AcDbLongTransaction
  3
AutoCAD 2000
 90
        0
280
     0
281
     0
  0
CLASS
  1
LWPOLYLINE
  2
AcDbPolyline
  3
AutoCAD 2000
 90
        0
280
     0
281
     1
  0
CLASS
  1
HATCH
  2
AcDbHatch
  3
AutoCAD 2000
 90
        0
280
     0
281
     1
  0
CLASS
  1
XRECORD
  2
AcDbXrecord
  3
AutoCAD 2000
 90
        0
280
     0
281
     0
  0
CLASS
  1
LONG_TRANSACTION
  2
AcDbLongTransaction
  3
AutoCAD 2000
 90
        0
280
     0
281
     0
  0
CLASS
  1
LWPOLYLINE
  2
AcDbPolyline
  3
AutoCAD 2000
 90
        0
280
     0
281
     1
  0
CLASS
  1
HATCH
  2
AcDbHatch
  3
AutoCAD 2000
 90
        0
280
     0
281
     1
  0
CLASS
  1
XRECORD
  2
AcDbXrecord
  3
AutoCAD 2000
 90
        0
280
     0
281
     0
  0
CLASS
  1
LONG_TRANSACTION
  2
AcDbLongTransaction
  3
AutoCAD 2000
 90
        0
280
     0
281
     0
  0
CLASS
  1
LWPOLYLINE
  2
AcDbPolyline
  3
AutoCAD 2000
 90
        0
280
     0
281
     1
  0
CLASS
  1
HATCH
  2
AcDbHatch
  3
AutoCAD 2000
 90
        0
280
     0
281
     1
  0
CLASS
  1
XRECORD
  2
AcDbXrecord
  3
AutoCAD 2000
 90
        0
280
     0
281
     0
  0
CLASS
  1
LONG_TRANSACTION
  2
AcDbLongTransaction
  3
AutoCAD 2000
 90
        0
280
     0
281
     0
  0
CLASS
  1
LWPOLYLINE
  2
AcDbPolyline
  3
AutoCAD 2000
 90
        0
280
     0
281
     1
  0
CLASS
  1
HATCH
  2
AcDbHatch
  3
AutoCAD 2000
 90
        0
280
     0
281
     1
  0
CLASS
  1
XRECORD
  2
AcDbXrecord
  3
AutoCAD 2000
 90
        0
280
     0
281
     0
  0
CLASS
  1
LONG_TRANSACTION
  2
AcDbLongTransaction
  3
AutoCAD 2000
 90
        0
280
     0
281
     0
  0
CLASS
  1
LWPOLYLINE
  2
AcDbPolyline
  3
AutoCAD 2000
 90
        0
280
     0
281
     1
  0
CLASS
  1
HATCH
  2
AcDbHatch
  3
AutoCAD 2000
 90
        0
280
     0
281
     1
  0
CLASS
  1
XRECORD
  2
AcDbXrecord
  3
AutoCAD 2000
 90
        0
280
     0
281
     0
  0
CLASS
  1
LONG_TRANSACTION
  2
AcDbLongTransaction
  3
AutoCAD 2000
 90
        0
280
     0
281
     0
  0
CLASS
  1
LWPOLYLINE
  2
AcDbPolyline
  3
AutoCAD 2000
 90
        0
280
     0
281
     1
  0
CLASS
  1
HATCH
  2
AcDbHatch
  3
AutoCAD 2000
 90
        0
280
     0
281
     1
  0
CLASS
  1
XRECORD
  2
AcDbXrecord
  3
AutoCAD 2000
 90
        0
280
     0
281
     0
  0
CLASS
  1
LONG_TRANSACTION
  2
AcDbLongTransaction
  3
AutoCAD 2000
 90
        0
280
     0
281
     0
  0
CLASS
  1
LWPOLYLINE
  2
AcDbPolyline
  3
AutoCAD 2000
 90
        0
280
     0
281
     1
  0
CLASS
  1
HATCH
  2
AcDbHatch
  3
AutoCAD 2000
 90
        0
280
     0
281
     1
  0
CLASS
  1
XRECORD
  2
AcDbXrecord
  3
AutoCAD 2000
 90
        0
280
     0
281
     0
  0
CLASS
  1
LONG_TRANSACTION
  2
AcDbLongTransaction
  3
AutoCAD 2000
 90
        0
280
     0
281
     0
  0
CLASS
  1
LWPOLYLINE
  2
AcDbPolyline
  3
AutoCAD 2000
 90
        0
280
     0
281
     1
  0
CLASS
  1
HATCH
  2
AcDbHatch
  3
AutoCAD 2000
 90
        0
280
     0
281
     1
  0
CLASS
  1
XRECORD
  2
AcDbXrecord
  3
AutoCAD 2000
 90
        0
280
     0
281
     0
  0
CLASS
  1
LONG_TRANSACTION
  2
AcDbLongTransaction
  3
AutoCAD 2000
 90
        0
280
     0
281
     0
  0
CLASS
  1
LWPOLYLINE
  2
AcDbPolyline
  3
AutoCAD 2000
 90
        0
280
     0
281
     1
  0
CLASS
  1
HATCH
  2
AcDbHatch
  3
AutoCAD 2000
 90
        0
280
     0
281
     1
  0
CLASS
  1
XRECORD
  2
AcDbXrecord
  3
AutoCAD 2000
 90
        0
280
     0
281
     0
  0
CLASS
  1
LONG_TRANSACTION
  2
AcDbLongTransaction
  3
AutoCAD 2000
 90
        0
280
     0
281
     0
  0
CLASS
  1
LWPOLYLINE
  2
AcDbPolyline
  3
AutoCAD 2000
 90
        0
280
     0
281
     1
  0
CLASS
  1
HATCH
  2
AcDbHatch
  3
AutoCAD 2000
 90
        0
280
     0
281
     1
  0
CLASS
  1
XRECORD
  2
AcDbXrecord
  3
AutoCAD 2000
 90
        0
280
     0
281
     0
  0
CLASS
  1
LONG_TRANSACTION
  2
AcDbLongTransaction
  3
AutoCAD 2000
 90
        0
280
     0
281
     0
  0
CLASS
  1
LWPOLYLINE
  2
AcDbPolyline
  3
AutoCAD 2000
 90
        0
280
     0
281
     1
  0
CLASS
  1
HATCH
  2
AcDbHatch
  3
AutoCAD 2000
 90
        0
280
     0
281
     1
  0
CLASS
  1
XRECORD
  2
AcDbXrecord
  3
AutoCAD 2000
 90
        0
280
     0
281
     0
  0
CLASS
  1
LONG_TRANSACTION
  2
AcDbLongTransaction
  3
AutoCAD 2000
 90
        0
280
     0
281
     0
  0
CLASS
  1
LWPOLYLINE
  2
AcDbPolyline
  3
AutoCAD 2000
 90
        0
280
     0
281
     1
  0
CLASS
  1
HATCH
  2
AcDbHatch
  3
AutoCAD 2000
 90
        0
280
     0
281
     1
  0
CLASS
  1
XRECORD
  2
AcDbXrecord
  3
AutoCAD 2000
 90
        0
280
     0
281
     0
  0
CLASS
  1
LONG_TRANSACTION
  2
AcDbLongTransaction
  3
AutoCAD 2000
 90
        0
280
     0
281
     0
  0
CLASS
  1
LWPOLYLINE
  2
AcDbPolyline
  3
AutoCAD 2000
 90
        0
280
     0
281
     1
  0
CLASS
  1
HATCH
  2
AcDbHatch
  3
AutoCAD 2000
 90
        0
280
     0
281
     1
  0
CLASS
  1
XRECORD
  2
AcDbXrecord
  3
AutoCAD 2000
 90
        0
280
     0
281
     0
  0
CLASS
  1
LONG_TRANSACTION
  2
AcDbLongTransaction
  3
AutoCAD 2000
 90
        0
280
     0
281
     0
  0
CLASS
  1
LWPOLYLINE
  2
AcDbPolyline
  3
AutoCAD 2000
 90
        0
280
     0
281
     1
  0
CLASS
  1
HATCH
  2
AcDbHatch
  3
AutoCAD 2000
 90
        0
280
     0
281
     1
  0
CLASS
  1
XRECORD
  2
AcDbXrecord
  3
AutoCAD 2000
 90
        0
280
     0
281
     0
  0
CLASS
  1
LONG_TRANSACTION
  2
AcDbLongTransaction
  3
AutoCAD 2000
 90
        0
280
     0
281
     0
  0
CLASS
  1
LWPOLYLINE
  2
AcDbPolyline
  3
AutoCAD 2000
 90
        0
280
     0
281
     1
  0
CLASS
  1
HATCH
  2
AcDbHatch
  3
AutoCAD 2000
 90
        0
280
     0
281
     1
  0
CLASS
  1
XRECORD
  2
AcDbXrecord
  3
AutoCAD 2000
 90
        0
280
     0
281
     0
  0
CLASS
  1
LONG_TRANSACTION
  2
AcDbLongTransaction
  3
AutoCAD 2000
 90
        0
280
     0
281
     0
  0
CLASS
  1
LWPOLYLINE
  2
AcDbPolyline
  3
AutoCAD 2000
 90
        0
280
     0
281
     1
  0
CLASS
  1
HATCH
  2
AcDbHatch
  3
AutoCAD 2000
 90
        0
280
     0
281
     1
  0
CLASS
  1
XRECORD
  2
AcDbXrecord
  3
AutoCAD 2000
 90
        0
280
     0
281
     0
  0
CLASS
  1
LONG_TRANSACTION
  2
AcDbLongTransaction
  3
AutoCAD 2000
 90
        0
280
     0
281
     0
  0
CLASS
  1
LWPOLYLINE
  2
AcDbPolyline
  3
AutoCAD 2000
 90
        0
280
     0
281
     1
  0
CLASS
  1
HATCH
  2
AcDbHatch
  3
AutoCAD 2000
 90
        0
280
     0
281
     1
  0
CLASS
  1
XRECORD
  2
AcDbXrecord
  3
AutoCAD 2000
 90
        0
280
     0
281
     0
  0
CLASS
  1
LONG_TRANSACTION
  2
AcDbLongTransaction
  3
AutoCAD 2000
 90
        0
280
     0
281
     0
  0
CLASS
  1
LWPOLYLINE
  2
AcDbPolyline
  3
AutoCAD 2000
 90
        0
280
     0
281
     1
  0
CLASS
  1
HATCH
  2
AcDbHatch
  3
AutoCAD 2000
 90
        0
280
     0
281
     1
  0
CLASS
  1
XRECORD
  2
AcDbXrecord
  3
AutoCAD 2000
 90
        0
280
     0
281
     0
  0
CLASS
  1
LONG_TRANSACTION
  2
AcDbLongTransaction
  3
AutoCAD 2000
 90
        0
280
     0
281
     0
  0
CLASS
  1
LWPOLYLINE
  2
AcDbPolyline
  3
AutoCAD 2000
 90
        0
280
     0
281
     1
  0
CLASS
  1
HATCH
  2
AcDbHatch
  3
AutoCAD 2000
 90
        0
280
     0
281
     1
  0
CLASS
  1
XRECORD
  2
AcDbXrecord
  3
AutoCAD 2000
 90
        0
280
     0
281
     0
  0
CLASS
  1
LONG_TRANSACTION
  2
AcDbLongTransaction
  3
AutoCAD 2000
 90
        0
280
     0
281
     0
  0
CLASS
  1
LWPOLYLINE
  2
AcDbPolyline
  3
AutoCAD 2000
 90
        0
280
     0
281
     1
  0
CLASS
  1
HATCH
  2
AcDbHatch
  3
AutoCAD 2000
 90
        0
280
     0
281
     1
  0
CLASS
  1
XRECORD
  2
AcDbXrecord
  3
AutoCAD 2000
 90
        0
280
     0
281
     0
  0
CLASS
  1
LONG_TRANSACTION
  2
AcDbLongTransaction
  3
AutoCAD 2000
 90
        0
280
     0
281
     0
  0
CLASS
  1
LWPOLYLINE
  2
AcDbPolyline
  3
AutoCAD 2000
 90
        0
280
     0
281
     1
  0
CLASS
  1
HATCH
  2
AcDbHatch
  3
AutoCAD 2000
 90
        0
280
     0
281
     1
  0
CLASS
  1
XRECORD
  2
AcDbXrecord
  3
AutoCAD 2000
 90
        0
280
     0
281
     0
  0
CLASS
  1
LONG_TRANSACTION
  2
AcDbLongTransaction
  3
AutoCAD 2000
 90
        0
280
     0
281
     0
  0
CLASS
  1
LWPOLYLINE
  2
AcDbPolyline
  3
AutoCAD 2000
 90
        0
280
     0
281
     1
  0
CLASS
  1
HATCH
  2
AcDbHatch
  3
AutoCAD 2000
 90
        0
280
     0
281
     1
  0
CLASS
  1
XRECORD
  2
AcDbXrecord
  3
AutoCAD 2000
 90
        0
280
     0
281
     0
  0
CLASS
  1
LONG_TRANSACTION
  2
AcDbLongTransaction
  3
AutoCAD 2000
 90
        0
280
     0
281
     0
  0
CLASS
  1
LWPOLYLINE
  2
AcDbPolyline
  3
AutoCAD 2000
 90
        0
280
     0
281
     1
  0
CLASS
  1
HATCH
  2
AcDbHatch
  3
AutoCAD 2000
 90
        0
280
     0
281
     1
  0
CLASS
  1
XRECORD
  2
AcDbXrecord
  3
AutoCAD 2000
 90
        0
280
     0
281
     0
  0
CLASS
  1
LONG_TRANSACTION
  2
AcDbLongTransaction
  3
AutoCAD 2000
 90
        0
280
     0
281
     0
  0
CLASS
  1
LWPOLYLINE
  2
AcDbPolyline
  3
AutoCAD 2000
 90
        0
280
     0
281
     1
  0
CLASS
  1
HATCH
  2
AcDbHatch
  3
AutoCAD 2000
 90
        0
280
     0
281
     1
  0
CLASS
  1
XRECORD
  2
AcDbXrecord
  3
AutoCAD 2000
 90
        0
280
     0
281
     0
  0
CLASS
  1
LONG_TRANSACTION
  2
AcDbLongTransaction
  3
AutoCAD 2000
 90
        0
280
     0
281
     0
  0
CLASS
  1
LWPOLYLINE
  2
AcDbPolyline
  3
AutoCAD 2000
 90
        0
280
     0
281
     1
  0
CLASS
  1
HATCH
  2
AcDbHatch
  3
AutoCAD 2000
 90
        0
280
     0
281
     1
  0
CLASS
  1
XRECORD
  2
AcDbXrecord
  3
AutoCAD 2000
 90
        0
280
     0
281
     0
  0
CLASS
  1
LONG_TRANSACTION
  2
AcDbLongTransaction
  3
AutoCAD 2000
 90
        0
280
     0
281
     0
  0
CLASS
  1
LWPOLYLINE
  2
AcDbPolyline
  3
AutoCAD 2000
 90
        0
280
     0
281
     1
  0
CLASS
  1
HATCH
  2
AcDbHatch
  3
AutoCAD 2000
 90
        0
280
     0
281
     1
  0
CLASS
  1
XRECORD
  2
AcDbXrecord
  3
AutoCAD 2000
 90
        0
280
     0
281
     0
  0
CLASS
  1
LONG_TRANSACTION
  2
AcDbLongTransaction
  3
AutoCAD 2000
 90
        0
280
     0
281
     0
  0
CLASS
  1
LWPOLYLINE
  2
AcDbPolyline
  3
AutoCAD 2000
 90
        0
280
     0
281
     1
  0
CLASS
  1
HATCH
  2
AcDbHatch
  3
AutoCAD 2000
 90
        0
280
     0
281
     1
  0
CLASS
  1
XRECORD
  2
AcDbXrecord
  3
AutoCAD 2000
 90
        0
280
     0
281
     0
  0
CLASS
  1
LONG_TRANSACTION
  2
AcDbLongTransaction
  3
AutoCAD 2000
 90
        0
280
     0
281
     0
  0
CLASS
  1
LWPOLYLINE
  2
AcDbPolyline
  3
AutoCAD 2000
 90
        0
280
     0
281
     1
  0
CLASS
  1
HATCH
  2
AcDbHatch
  3
AutoCAD 2000
 90
        0
280
     0
281
     1
  0
CLASS
  1
XRECORD
  2
AcDbXrecord
  3
AutoCAD 2000
 90
        0
280
     0
281
     0
  0
CLASS
  1
LONG_TRANSACTION
  2
AcDbLongTransaction
  3
AutoCAD 2000
 90
        0
280
     0
281
     0
  0
CLASS
  1
LWPOLYLINE
  2
AcDbPolyline
  3
AutoCAD 2000
 90
        0
280
     0
281
     1
  0
CLASS
  1
HATCH
  2
AcDbHatch
  3
AutoCAD 2000
 90
        0
280
     0
281
     1
  0
CLASS
  1
XRECORD
  2
AcDbXrecord
  3
AutoCAD 2000
 90
        0
280
     0
281
     0
  0
CLASS
  1
LONG_TRANSACTION
  2
AcDbLongTransaction
  3
AutoCAD 2000
 90
        0
280
     0
281
     0
  0
CLASS
  1
LWPOLYLINE
  2
AcDbPolyline
  3
AutoCAD 2000
 90
        0
280
     0
281
     1
  0
CLASS
  1
HATCH
  2
AcDbHatch
  3
AutoCAD 2000
 90
        0
280
     0
281
     1
  0
CLASS
  1
XRECORD
  2
AcDbXrecord
  3
AutoCAD 2000
 90
        0
280
     0
281
     0
  0
CLASS
  1
LONG_TRANSACTION
  2
AcDbLongTransaction
  3
AutoCAD 2000
 90
        0
280
     0
281
     0
  0
CLASS
  1
LWPOLYLINE
  2
AcDbPolyline
  3
AutoCAD 2000
 90
        0
280
     0
281
     1
  0
CLASS
  1
HATCH
  2
AcDbHatch
  3
AutoCAD 2000
 90
        0
280
     0
281
     1
  0
CLASS
  1
XRECORD
  2
AcDbXrecord
  3
AutoCAD 2000
 90
        0
280
     0
281
     0
  0
CLASS
  1
LONG_TRANSACTION
  2
AcDbLongTransaction
  3
AutoCAD 2000
 90
        0
280
     0
281
     0
  0
CLASS
  1
LWPOLYLINE
  2
AcDbPolyline
  3
AutoCAD 2000
 90
        0
280
     0
281
     1
  0
CLASS
  1
HATCH
  2
AcDbHatch
  3
AutoCAD 2000
 90
        0
280
     0
281
     1
  0
CLASS
  1
XRECORD
  2
AcDbXrecord
  3
AutoCAD 2000
 90
        0
280
     0
281
     0
  0
CLASS
  1
LONG_TRANSACTION
  2
AcDbLongTransaction
  3
AutoCAD 2000
 90
        0
280
     0
281
     0
  0
CLASS
  1
LWPOLYLINE
  2
AcDbPolyline
  3
AutoCAD 2000
 90
        0
280
     0
281
     1
  0
CLASS
  1
HATCH
  2
AcDbHatch
  3
AutoCAD 2000
 90
        0
280
     0
281
     1
  0
CLASS
  1
XRECORD
  2
AcDbXrecord
  3
AutoCAD 2000
 90
        0
280
     0
281
     0
  0
CLASS
  1
LONG_TRANSACTION
  2
AcDbLongTransaction
  3
AutoCAD 2000
 90
        0
280
     0
281
     0
  0
CLASS
  1
LWPOLYLINE
  2
AcDbPolyline
  3
AutoCAD 2000
 90
        0
280
     0
281
     1
  0
CLASS
  1
HATCH
  2
AcDbHatch
  3
AutoCAD 2000
 90
        0
280
     0
281
     1
  0
CLASS
  1
XRECORD
  2
AcDbXrecord
  3
AutoCAD 2000
 90
        0
280
     0
281
     0
  0
CLASS
  1
LONG_TRANSACTION
  2
AcDbLongTransaction
  3
AutoCAD 2000
 90
        0
280
     0
281
     0
  0
CLASS
  1
LWPOLYLINE
  2
AcDbPolyline
  3
AutoCAD 2000
 90
        0
280
     0
281
     1
  0
CLASS
  1
HATCH
  2
AcDbHatch
  3
AutoCAD 2000
 90
        0
280
     0
281
     1
  0
CLASS
  1
XRECORD
  2
AcDbXrecord
  3
AutoCAD 2000
 90
        0
280
     0
281
     0
  0
CLASS
  1
LONG_TRANSACTION
  2
AcDbLongTransaction
  3
AutoCAD 2000
 90
        0
280
     0
281
     0
  0
CLASS
  1
LWPOLYLINE
  2
AcDbPolyline
  3
AutoCAD 2000
 90
        0
280
     0
281
     1
  0
CLASS
  1
HATCH
  2
AcDbHatch
  3
AutoCAD 2000
 90
        0
280
     0
281
     1
  0
CLASS
  1
XRECORD
  2
AcDbXrecord
  3
AutoCAD 2000
 90
        0
280
     0
281
     0
  0
CLASS
  1
LONG_TRANSACTION
  2
AcDbLongTransaction
  3
AutoCAD 2000
 90
        0
280
     0
281
     0
  0
CLASS
  1
LWPOLYLINE
  2
AcDbPolyline
  3
AutoCAD 2000
 90
        0
280
     0
281
     1
  0
CLASS
  1
HATCH
  2
AcDbHatch
  3
AutoCAD 2000
 90
        0
280
     0
281
     1
  0
CLASS
  1
XRECORD
  2
AcDbXrecord
  3
AutoCAD 2000
 90
        0
280
     0
281
     0
  0
CLASS
  1
LONG_TRANSACTION
  2
AcDbLongTransaction
  3
AutoCAD 2000
 90
        0
280
     0
281
     0
  0
CLASS
  1
LWPOLYLINE
  2
AcDbPolyline
  3
AutoCAD 2000
 90
        0
280
     0
281
     1
  0
CLASS
  1
HATCH
  2
AcDbHatch
  3
AutoCAD 2000
 90
        0
280
     0
281
     1
  0
CLASS
  1
XRECORD
  2
AcDbXrecord
  3
AutoCAD 2000
 90
        0
280
     0
281
     0
  0
CLASS
  1
LONG_TRANSACTION
  2
AcDbLongTransaction
  3
AutoCAD 2000
 90
        0
280
     0
281
     0
  0
CLASS
  1
LWPOLYLINE
  2
AcDbPolyline
  3
AutoCAD 2000
 90
        0
280
     0
281
     1
  0
CLASS
  1
HATCH
  2
AcDbHatch
  3
AutoCAD 2000
 90
        0
280
     0
281
     1
  0
CLASS
  1
XRECORD
  2
AcDbXrecord
  3
AutoCAD 2000
 90
        0
280
     0
281
     0
  0
CLASS
  1
LONG_TRANSACTION
  2
AcDbLongTransaction
  3
AutoCAD 2000
 90
        0
280
     0
281
     0
  0
CLASS
  1
LWPOLYLINE
  2
AcDbPolyline
  3
AutoCAD 2000
 90
        0
280
     0
281
     1
  0
CLASS
  1
HATCH
  2
AcDbHatch
  3
AutoCAD 2000
 90
        0
280
     0
281
     1
  0
CLASS
  1
XRECORD
  2
AcDbXrecord
  3
AutoCAD 2000
 90
        0
280
     0
281
     0
  0
CLASS
  1
LONG_TRANSACTION
  2
AcDbLongTransaction
  3
AutoCAD 2000
 90
        0
280
     0
281
     0
  0
CLASS
  1
LWPOLYLINE
  2
AcDbPolyline
  3
AutoCAD 2000
 90
        0
280
     0
281
     1
  0
CLASS
  1
HATCH
  2
AcDbHatch
  3
AutoCAD 2000
 90
        0
280
     0
281
     1
  0
CLASS
  1
XRECORD
  2
AcDbXrecord
  3
AutoCAD 2000
 90
        0
280
     0
281
     0
  0
CLASS
  1
LONG_TRANSACTION
  2
AcDbLongTransaction
  3
AutoCAD 2000
 90
        0
280
     0
281
     0
  0
CLASS
  1
LWPOLYLINE
  2
AcDbPolyline
  3
AutoCAD 2000
 90
        0
280
     0
281
     1
  0
CLASS
  1
HATCH
  2
AcDbHatch
  3
AutoCAD 2000
 90
        0
280
     0
281
     1
  0
CLASS
  1
XRECORD
  2
AcDbXrecord
  3
AutoCAD 2000
 90
        0
280
     0
281
     0
  0
CLASS
  1
LONG_TRANSACTION
  2
AcDbLongTransaction
  3
AutoCAD 2000
 90
        0
280
     0
281
     0
  0
CLASS
  1
LWPOLYLINE
  2
AcDbPolyline
  3
AutoCAD 2000
 90
        0
280
     0
281
     1
  0
CLASS
  1
HATCH
  2
AcDbHatch
  3
AutoCAD 2000
 90
        0
280
     0
281
     1
  0
CLASS
  1
XRECORD
  2
AcDbXrecord
  3
AutoCAD 2000
 90
        0
280
     0
281
     0
  0
CLASS
  1
LONG_TRANSACTION
  2
AcDbLongTransaction
  3
AutoCAD 2000
 90
        0
280
     0
281
     0
  0
CLASS
  1
LWPOLYLINE
  2
AcDbPolyline
  3
AutoCAD 2000
 90
        0
280
     0
281
     1
  0
CLASS
  1
HATCH
  2
AcDbHatch
  3
AutoCAD 2000
 90
        0
280
     0
281
     1
  0
CLASS
  1
XRECORD
  2
AcDbXrecord
  3
AutoCAD 2000
 90
        0
280
     0
281
     0
  0
CLASS
  1
LONG_TRANSACTION
  2
AcDbLongTransaction
  3
AutoCAD 2000
 90
        0
280
     0
281
     0
  0
CLASS
  1
LWPOLYLINE
  2
AcDbPolyline
  3
AutoCAD 2000
 90
        0
280
     0
281
     1
  0
CLASS
  1
HATCH
  2
AcDbHatch
  3
AutoCAD 2000
 90
        0
280
     0
281
     1
  0
CLASS
  1
XRECORD
  2
AcDbXrecord
  3
AutoCAD 2000
 90
        0
280
     0
281
     0
  0
CLASS
  1
LONG_TRANSACTION
  2
AcDbLongTransaction
  3
AutoCAD 2000
 90
        0
280
     0
281
     0
  0
CLASS
  1
LWPOLYLINE
  2
AcDbPolyline
  3
AutoCAD 2000
 90
        0
280
     0
281
     1
  0
CLASS
  1
HATCH
  2
AcDbHatch
  3
AutoCAD 2000
 90
        0
280
     0
281
     1
  0
CLASS
  1
XRECORD
  2
AcDbXrecord
  3
AutoCAD 2000
 90
        0
280
     0
281
     0
  0
CLASS
  1
LONG_TRANSACTION
  2
AcDbLongTransaction
  3
AutoCAD 2000
 90
        0
280
     0
281
     0
  0
CLASS
  1
LWPOLYLINE
  2
AcDbPolyline
  3
AutoCAD 2000
 90
        0
280
     0
281
     1
  0
CLASS
  1
HATCH
  2
AcDbHatch
  3
AutoCAD 2000
 90
        0
280
     0
281
     1
  0
CLASS
  1
XRECORD
  2
AcDbXrecord
  3
AutoCAD 2000
 90
        0
280
     0
281
     0
  0
CLASS
  1
LONG_TRANSACTION
  2
AcDbLongTransaction
  3
AutoCAD 2000
 90
        0
280
     0
281
     0
  0
CLASS
  1
LWPOLYLINE
  2
AcDbPolyline
  3
AutoCAD 2000
 90
        0
280
     0
281
     1
  0
CLASS
  1
HATCH
  2
AcDbHatch
  3
AutoCAD 2000
 90
        0
280
     0
281
     1
  0
CLASS
  1
XRECORD
  2
AcDbXrecord
  3
AutoCAD 2000
 90
        0
280
     0
281
     0
  0
CLASS
  1
LONG_TRANSACTION
  2
AcDbLongTransaction
  3
AutoCAD 2000
 90
        0
280
     0
281
     0
  0
CLASS
  1
LWPOLYLINE
  2
AcDbPolyline
  3
AutoCAD 2000
 90
        0
280
     0
281
     1
  0
CLASS
  1
HATCH
  2
AcDbHatch
  3
AutoCAD 2000
 90
        0
280
     0
281
     1
  0
CLASS
  1
XRECORD
  2
AcDbXrecord
  3
AutoCAD 2000
 90
        0
280
     0
281
     0
  0
CLASS
  1
LONG_TRANSACTION
  2
AcDbLongTransaction
  3
AutoCAD 2000
 90
        0
280
     0
281
     0
  0
CLASS
  1
LWPOLYLINE
  2
AcDbPolyline
  3
AutoCAD 2000
 90
        0
280
     0
281
     1
  0
CLASS
  1
HATCH
  2
AcDbHatch
  3
AutoCAD 2000
 90
        0
280
     0
281
     1
  0
CLASS
  1
XRECORD
  2
AcDbXrecord
  3
AutoCAD 2000
 90
        0
280
     0
281
     0
  0
CLASS
  1
LONG_TRANSACTION
  2
AcDbLongTransaction
  3
AutoCAD 2000
 90
        0
280
     0
281
     0
  0
CLASS
  1
LWPOLYLINE
  2
AcDbPolyline
  3
AutoCAD 2000
 90
        0
280
     0
281
     1
  0
CLASS
  1
HATCH
  2
AcDbHatch
  3
AutoCAD 2000
 90
        0
280
     0
281
     1
  0
CLASS
  1
XRECORD
  2
AcDbXrecord
  3
AutoCAD 2000
 90
        0
280
     0
281
     0
  0
CLASS
  1
LONG_TRANSACTION
  2
AcDbLongTransaction
  3
AutoCAD 2000
 90
        0
280
     0
281
     0
  0
CLASS
  1
LWPOLYLINE
  2
AcDbPolyline
  3
AutoCAD 2000
 90
        0
280
     0
281
     1
  0
CLASS
  1
HATCH
  2
AcDbHatch
  3
AutoCAD 2000
 90
        0
280
     0
281
     1
  0
CLASS
  1
XRECORD
  2
AcDbXrecord
  3
AutoCAD 2000
 90
        0
280
     0
281
     0
  0
CLASS
  1
LONG_TRANSACTION
  2
AcDbLongTransaction
  3
AutoCAD 2000
 90
        0
280
     0
281
     0
  0
CLASS
  1
LWPOLYLINE
  2
AcDbPolyline
  3
AutoCAD 2000
 90
        0
280
     0
281
     1
  0
CLASS
  1
HATCH
  2
AcDbHatch
  3
AutoCAD 2000
 90
        0
280
     0
281
     1
  0
CLASS
  1
XRECORD
  2
AcDbXrecord
  3
AutoCAD 2000
 90
        0
280
     0
281
     0
  0
CLASS
  1
LONG_TRANSACTION
  2
AcDbLongTransaction
  3
AutoCAD 2000
 90
        0
280
     0
281
     0
  0
CLASS
  1
LWPOLYLINE
  2
AcDbPolyline
  3
AutoCAD 2000
 90
        0
280
     0
281
     1
  0
CLASS
  1
HATCH
  2
AcDbHatch
  3
AutoCAD 2000
 90
        0
280
     0
281
     1
  0
CLASS
  1
XRECORD
  2
AcDbXrecord
  3
AutoCAD 2000
 90
        0
280
     0
281
     0
  0
CLASS
  1
LONG_TRANSACTION
  2
AcDbLongTransaction
  3
AutoCAD 2000
 90
        0
280
     0
281
     0
  0
CLASS
  1
LWPOLYLINE
  2
AcDbPolyline
  3
AutoCAD 2000
 90
        0
280
     0
281
     1
  0
CLASS
  1
HATCH
  2
AcDbHatch
  3
AutoCAD 2000
 90
        0
280
     0
281
     1
  0
CLASS
  1
XRECORD
  2
AcDbXrecord
  3
AutoCAD 2000
 90
        0
280
     0
281
     0
  0
CLASS
  1
LONG_TRANSACTION
  2
AcDbLongTransaction
  3
AutoCAD 2000
 90
        0
280
     0
281
     0
  0
CLASS
  1
LWPOLYLINE
  2
AcDbPolyline
  3
AutoCAD 2000
 90
        0
280
     0
281
     1
  0
CLASS
  1
HATCH
  2
AcDbHatch
  3
AutoCAD 2000
 90
        0
280
     0
281
     1
  0
CLASS
  1
XRECORD
  2
AcDbXrecord
  3
AutoCAD 2000
 90
        0
280
     0
281
     0
  0
CLASS
  1
LONG_TRANSACTION
  2
AcDbLongTransaction
  3
AutoCAD 2000
 90
        0
280
     0
281
     0
  0
CLASS
  1
LWPOLYLINE
  2
AcDbPolyline
  3
AutoCAD 2000
 90
        0
280
     0
281
     1
  0
CLASS
  1
HATCH
  2
AcDbHatch
  3
AutoCAD 2000
 90
        0
280
     0
281
     1
  0
CLASS
  1
XRECORD
  2
AcDbXrecord
  3
AutoCAD 2000
 90
        0
280
     0
281
     0
  0
CLASS
  1
LONG_TRANSACTION
  2
AcDbLongTransaction
  3
AutoCAD 2000
 90
        0
280
     0
281
     0
  0
CLASS
  1
LWPOLYLINE
  2
AcDbPolyline
  3
AutoCAD 2000
 90
        0
280
     0
281
     1
  0
CLASS
  1
HATCH
  2
AcDbHatch
  3
AutoCAD 2000
 90
        0
280
     0
281
     1
  0
CLASS
  1
XRECORD
  2
AcDbXrecord
  3
AutoCAD 2000
 90
        0
280
     0
281
     0
  0
CLASS
  1
LONG_TRANSACTION
  2
AcDbLongTransaction
  3
AutoCAD 2000
 90
        0
280
     0
281
     0
  0
CLASS
  1
LWPOLYLINE
  2
AcDbPolyline
  3
AutoCAD 2000
 90
        0
280
     0
281
     1
  0
CLASS
  1
HATCH
  2
AcDbHatch
  3
AutoCAD 2000
 90
        0
280
     0
281
     1
  0
CLASS
  1
XRECORD
  2
AcDbXrecord
  3
AutoCAD 2000
 90
        0
280
     0
281
     0
  0
CLASS
  1
LONG_TRANSACTION
  2
AcDbLongTransaction
  3
AutoCAD 2000
 90
        0
280
     0
281
     0
  0
CLASS
  1
LWPOLYLINE
  2
AcDbPolyline
  3
AutoCAD 2000
 90
        0
280
     0
281
     1
  0
CLASS
  1
HATCH
  2
AcDbHatch
  3
AutoCAD 2000
 90
        0
280
     0
281
     1
  0
CLASS
  1
XRECORD
  2
AcDbXrecord
  3
AutoCAD 2000
 90
        0
280
     0
281
     0
  0
ENDSEC
  0
SECTION
  2
TABLES
  0
TABLE
  2
VPORT
  5
92
330
0
100
AcDbSymbolTable
 70
     2
  0
VPORT
  5
48E
330
92
100
AcDbSymbolTableRecord
100
AcDbViewportTableRecord
  2
*ACTIVE
 70
     0
 10
0.0
 20
0.0
 11
1.0
 21
1.0
 12
153.8765436862975
 22
145.3390280926122
 13
0.0
 23
0.0
 14
10.0
 24
10.0
 15
10.0
 25
10.0
 16
0.0
 26
0.0
 36
1.0
 17
0.0
 27
0.0
 37
0.0
 40
288.1468536324696
 41
1.162878787878787
 42
50.0
 43
0.0
 44
0.0
 50
0.0
 51
0.0
 71
     0
 72
 10000
 73
     1
 74
     3
 75
     0
 76
     0
 77
     0
 78
     1
  0
ENDTAB
  0
TABLE
  2
LTYPE
  5
8D
330
0
100
AcDbSymbolTable
 70
     2
  0
LTYPE
  5
8E
330
8D
100
AcDbSymbolTableRecord
100
AcDbLinetypeTableRecord
  2
BYBLOCK
 70
     0
  3

 72
    65
 73
     0
 40
0.0
  0
LTYPE
  5
8F
330
8D
100
AcDbSymbolTableRecord
100
AcDbLinetypeTableRecord
  2
BYLAYER
 70
     0
  3

 72
    65
 73
     0
 40
0.0
  0
LTYPE
  5
A
330
8D
100
AcDbSymbolTableRecord
100
AcDbLinetypeTableRecord
  2
CONTINUOUS
 70
     0
  3
Solid line
 72
    65
 73
     0
 40
0.0
  0
LTYPE
  5
C2
330
8D
100
AcDbSymbolTableRecord
100
AcDbLinetypeTableRecord
  2
CENTER
 70
     0
  3
Center ____ _ ____ _ ____ _ ____ _ ____ _ ____
 72
    65
 73
     4
 40
50.8
 49
31.75
 74
     0
 49
-6.349999999999997
 74
     0
 49
6.349999999999997
 74
     0
 49
-6.349999999999997
 74
     0
  0
ENDTAB
  0
TABLE
  2
LAYER
  5
14
102
{ACAD_XDICTIONARY
360
15
102
}
330
0
100
AcDbSymbolTable
 70
     6
  0
LAYER
  5
6
330
14
100
AcDbSymbolTableRecord
100
AcDbLayerTableRecord
  2
0
 70
     0
 62
     7
  6
CONTINUOUS
  0
LAYER
  5
140
330
14
100
AcDbSymbolTableRecord
100
AcDbLayerTableRecord
  2
3
 70
     0
 62
     3
  6
CONTINUOUS
  0
LAYER
  5
AA
330
14
100
AcDbSymbolTableRecord
100
AcDbLayerTableRecord
  2
DEFPOINTS
 70
     0
 62
     7
  6
CONTINUOUS
  0
LAYER
  5
DE
330
14
100
AcDbSymbolTableRecord
100
AcDbLayerTableRecord
  2
DIM
 70
     0
 62
     3
  6
CONTINUOUS
  0
LAYER
  5
C1
330
14
100
AcDbSymbolTableRecord
100
AcDbLayerTableRecord
  2
CEN
 70
     0
 62
     1
  6
CENTER
  0
LAYER
  5
12B
330
14
100
AcDbSymbolTableRecord
100
AcDbLayerTableRecord
  2
2
 70
     0
 62
     2
  6
CONTINUOUS
  0
ENDTAB
  0
TABLE
  2
STYLE
  5
8A
330
0
100
AcDbSymbolTable
 70
     1
  0
STYLE
  5
8B
330
8A
100
AcDbSymbolTableRecord
100
AcDbTextStyleTableRecord
  2
STANDARD
 70
     0
 40
0.0
 41
1.0
 50
0.0
 71
     0
 42
5.777225951253058
  3
romans.shx
  4
whgtxt.shx
  0
ENDTAB
  0
TABLE
  2
VIEW
  5
90
330
0
100
AcDbSymbolTable
 70
     0
  0
ENDTAB
  0
TABLE
  2
UCS
  5
91
330
0
100
AcDbSymbolTable
 70
     0
  0
ENDTAB
  0
TABLE
  2
APPID
  5
94
330
0
100
AcDbSymbolTable
 70
     2
  0
APPID
  5
95
330
94
100
AcDbSymbolTableRecord
100
AcDbRegAppTableRecord
  2
ACAD
 70
     0
  0
APPID
  5
42E
330
94
100
AcDbSymbolTableRecord
100
AcDbRegAppTableRecord
  2
CONTENTBLOCKICON
 70
     0
  0
ENDTAB
  0
TABLE
  2
DIMSTYLE
  5
96
330
0
100
AcDbSymbolTable
 70
     2
  0
DIMSTYLE
105
9E
102
{ACAD_REACTORS
330
188
330
26D
330
9F
330
253
330
2D7
330
2C8
330
1EC
330
232
330
220
330
211
330
156
330
CA
330
170
330
130
330
1DB
330
117
330
1C9
330
B2
330
F8
330
E9
330
1AB
330
2A3
102
}
330
96
100
AcDbSymbolTableRecord
100
AcDbDimStyleTableRecord
  2
STANDARD
 70
     0
  3

  4

  5

  6

  7

 40
1.0
 41
2.5
 42
1.0
 43
10.0
 44
0.6
 45
0.0
 46
0.0
 47
0.0
 48
0.0
140
3.0
141
0.09
142
0.0
143
25.4
144
1.0
145
0.0
146
1.0
147
1.0
 71
     0
 72
     0
 73
     0
 74
     0
 75
     0
 76
     0
 77
     1
 78
     8
170
     0
171
     2
172
     1
173
     0
174
     1
175
     0
176
   123
177
   123
178
     3
270
     2
271
     2
272
     2
273
     2
274
     2
340
8B
275
     1
280
     0
281
     0
282
     0
283
     1
284
     0
285
     0
286
     0
287
     3
288
     1
  0
DIMSTYLE
105
9C
330
96
100
AcDbSymbolTableRecord
100
AcDbDimStyleTableRecord
  2
1_1_2
 70
     0
  3

  4

  5

  6

  7

 40
1.0
 41
3.0
 42
1.0
 43
10.0
 44
0.6
 45
0.0
 46
0.0
 47
0.0
 48
0.0
140
3.5
141
0.09
142
0.0
143
25.4
144
1.0
145
0.0
146
1.0
147
1.0
 71
     0
 72
     0
 73
     0
 74
     0
 75
     0
 76
     0
 77
     1
 78
     8
170
     0
171
     2
172
     1
173
     0
174
     1
175
     0
176
   123
177
   123
178
     3
270
     2
271
     2
272
     2
273
     2
274
     2
340
8B
275
     1
280
     0
281
     0
282
     0
283
     1
284
     0
285
     0
286
     0
287
     3
288
     1
  0
ENDTAB
  0
TABLE
  2
BLOCK_RECORD
  5
1
330
0
100
AcDbSymbolTable
 70
    44
  0
BLOCK_RECORD
  5
2
102
{ACAD_XDICTIONARY
360
3
102
}
330
1
100
AcDbSymbolTableRecord
100
AcDbBlockTableRecord
  2
*MODEL_SPACE
  0
BLOCK_RECORD
  5
E
102
{ACAD_XDICTIONARY
360
F
102
}
330
1
100
AcDbSymbolTableRecord
100
AcDbBlockTableRecord
  2
*PAPER_SPACE
  0
BLOCK_RECORD
  5
18B
330
1
100
AcDbSymbolTableRecord
100
AcDbBlockTableRecord
  2
*D0
  0
BLOCK_RECORD
  5
187
330
1
100
AcDbSymbolTableRecord
100
AcDbBlockTableRecord
  2
3
1001
ACAD
1000
DesignCenter Data
1002
{
1070
     1
1070
     4
1002
}
1001
CONTENTBLOCKICON
1071
        0
1004
2800000020000000200000000100080000000000000400000000000000000000000000000000000000000000000080000080000000808000800000008000800080800000C0C0C000C0DCC000F0CAA6000020400000206000002080000020A0000020C0000020E00000400000004020000040400000406000004080000040A0
1004
000040C0000040E00000600000006020000060400000606000006080000060A0000060C0000060E00000800000008020000080400000806000008080000080A0000080C0000080E00000A0000000A0200000A0400000A0600000A0800000A0A00000A0C00000A0E00000C0000000C0200000C0400000C0600000C0800000C0
1004
A00000C0C00000C0E00000E0000000E0200000E0400000E0600000E0800000E0A00000E0C00000E0E00040000000400020004000400040006000400080004000A0004000C0004000E00040200000402020004020400040206000402080004020A0004020C0004020E000404000004040200040404000404060004040800040
1004
40A0004040C0004040E00040600000406020004060400040606000406080004060A0004060C0004060E00040800000408020004080400040806000408080004080A0004080C0004080E00040A0000040A0200040A0400040A0600040A0800040A0A00040A0C00040A0E00040C0000040C0200040C0400040C0600040C08000
1004
40C0A00040C0C00040C0E00040E0000040E0200040E0400040E0600040E0800040E0A00040E0C00040E0E00080000000800020008000400080006000800080008000A0008000C0008000E00080200000802020008020400080206000802080008020A0008020C0008020E00080400000804020008040400080406000804080
1004
008040A0008040C0008040E00080600000806020008060400080606000806080008060A0008060C0008060E00080800000808020008080400080806000808080008080A0008080C0008080E00080A0000080A0200080A0400080A0600080A0800080A0A00080A0C00080A0E00080C0000080C0200080C0400080C0600080C0
1004
800080C0A00080C0C00080C0E00080E0000080E0200080E0400080E0600080E0800080E0A00080E0C00080E0E000C0000000C0002000C0004000C0006000C0008000C000A000C000C000C000E000C0200000C0202000C0204000C0206000C0208000C020A000C020C000C020E000C0400000C0402000C0404000C0406000C0
1004
408000C040A000C040C000C040E000C0600000C0602000C0604000C0606000C0608000C060A000C060C000C060E000C0800000C0802000C0804000C0806000C0808000C080A000C080C000C080E000C0A00000C0A02000C0A04000C0A06000C0A08000C0A0A000C0A0C000C0A0E000C0C00000C0C02000C0C04000C0C06000
1004
C0C08000C0C0A000F0FBFF00A4A0A000808080000000FF0000FF000000FFFF00FF000000FF00FF00FFFF0000FFFFFF0000000000000000000000000000000000000000000000000000000000000000000000000000000000000000000000000000000000000000000000000000000000000000000000000000000000000000
1004
00000000000000000000000000000000000000000000000000000000000000000000000000000000000000000000000000000000F90000F90000000000000000000000000000F9FFF9000000000000000000F300FFF9FF00000000000000000000000000000000F9FF00000000000000000000F3FFFFF90000000000000000
1004
00000000000000F9FFF900000000000000000000F900F30000000000000000000000000000000000000000000000000000000000000000F3F30000000000000000000000000000000000000000000000000000000000000000F30000000000000000000000000000000000000000000000000000000000000000F300000000
1004
00000000000000000000000000000000000000000000000000000000F30000000000000000000000000000000000000000000000000000000000000000F3F30000000000000000000000000000000000000000000000000000000000000000F300000000000000000000000000000000000000000000000000000000000000
1004
00F30000000000000000000000000000000000000000000000000000000000000000F30000000000000000000000000000000000000000000000000000000000000000F3F30000000000000000000000000000000000000000000000000000000000000000F300000000000000000000000000000000000000000000000000
1004
00000000000000F30000000000000000000000000000000000000000000000000000000000000000F30000000000000000000000000000000000000000000000000000000000000000F3F30000000000000000000000000000000000000000000000000000000000000000F300F900000000000000000000F900F900000000
1004
0000000000000000000000F9FFF9F300000000000000000000FFF9FF00000000000000000000000000000000FFFF00FA000000000000000000F9FFF9000000000000000000000000000000F9FFF9FAFAFA00000000000000000000000000000000000000000000000000F900000000FAFAFAF3000000000000000000000000
1004
0000000000000000000000000000000000FAFAFAFA0000000000000000000000000000000000000000000000000000000000FAFAFAF300000000000000000000000000000000000000000000000000000000000000000000000000000000000000000000000000000000000000000000000000000000000000000000000000
1004
0000000000000000000000000000000000000000000000000000000000000000000000000000000000000000000000000000000000000000
  0
BLOCK_RECORD
  5
254
330
1
100
AcDbSymbolTableRecord
100
AcDbBlockTableRecord
  2
*D2
  0
BLOCK_RECORD
  5
1ED
330
1
100
AcDbSymbolTableRecord
100
AcDbBlockTableRecord
  2
*D3
  0
BLOCK_RECORD
  5
221
330
1
100
AcDbSymbolTableRecord
100
AcDbBlockTableRecord
  2
*D4
  0
BLOCK_RECORD
  5
212
330
1
100
AcDbSymbolTableRecord
100
AcDbBlockTableRecord
  2
*D5
  0
BLOCK_RECORD
  5
157
330
1
100
AcDbSymbolTableRecord
100
AcDbBlockTableRecord
  2
*D6
  0
BLOCK_RECORD
  5
131
330
1
100
AcDbSymbolTableRecord
100
AcDbBlockTableRecord
  2
*D7
  0
BLOCK_RECORD
  5
118
330
1
100
AcDbSymbolTableRecord
100
AcDbBlockTableRecord
  2
*D8
  0
BLOCK_RECORD
  5
B3
330
1
100
AcDbSymbolTableRecord
100
AcDbBlockTableRecord
  2
*D9
  0
BLOCK_RECORD
  5
F9
330
1
100
AcDbSymbolTableRecord
100
AcDbBlockTableRecord
  2
*D10
  0
BLOCK_RECORD
  5
270
330
1
100
AcDbSymbolTableRecord
100
AcDbBlockTableRecord
  2
*D11
  0
BLOCK_RECORD
  5
A2
330
1
100
AcDbSymbolTableRecord
100
AcDbBlockTableRecord
  2
*D12
  0
BLOCK_RECORD
  5
2DA
330
1
100
AcDbSymbolTableRecord
100
AcDbBlockTableRecord
  2
*D13
  0
BLOCK_RECORD
  5
2CB
330
1
100
AcDbSymbolTableRecord
100
AcDbBlockTableRecord
  2
*D14
  0
BLOCK_RECORD
  5
235
330
1
100
AcDbSymbolTableRecord
100
AcDbBlockTableRecord
  2
*D15
  0
BLOCK_RECORD
  5
CD
330
1
100
AcDbSymbolTableRecord
100
AcDbBlockTableRecord
  2
*D16
  0
BLOCK_RECORD
  5
173
330
1
100
AcDbSymbolTableRecord
100
AcDbBlockTableRecord
  2
*D17
  0
BLOCK_RECORD
  5
1DE
330
1
100
AcDbSymbolTableRecord
100
AcDbBlockTableRecord
  2
*D18
  0
BLOCK_RECORD
  5
1CC
330
1
100
AcDbSymbolTableRecord
100
AcDbBlockTableRecord
  2
*D19
  0
BLOCK_RECORD
  5
EC
330
1
100
AcDbSymbolTableRecord
100
AcDbBlockTableRecord
  2
*D20
  0
BLOCK_RECORD
  5
1AE
330
1
100
AcDbSymbolTableRecord
100
AcDbBlockTableRecord
  2
*D21
  0
BLOCK_RECORD
  5
2A6
330
1
100
AcDbSymbolTableRecord
100
AcDbBlockTableRecord
  2
*D22
  0
BLOCK_RECORD
  5
2EE
330
1
100
AcDbSymbolTableRecord
100
AcDbBlockTableRecord
  2
*D23
  0
BLOCK_RECORD
  5
2FC
330
1
100
AcDbSymbolTableRecord
100
AcDbBlockTableRecord
  2
*D24
  0
BLOCK_RECORD
  5
308
330
1
100
AcDbSymbolTableRecord
100
AcDbBlockTableRecord
  2
*D25
  0
BLOCK_RECORD
  5
314
330
1
100
AcDbSymbolTableRecord
100
AcDbBlockTableRecord
  2
*D26
  0
BLOCK_RECORD
  5
320
330
1
100
AcDbSymbolTableRecord
100
AcDbBlockTableRecord
  2
*D27
  0
BLOCK_RECORD
  5
32C
330
1
100
AcDbSymbolTableRecord
100
AcDbBlockTableRecord
  2
*D28
  0
BLOCK_RECORD
  5
33A
330
1
100
AcDbSymbolTableRecord
100
AcDbBlockTableRecord
  2
*D29
  0
BLOCK_RECORD
  5
348
330
1
100
AcDbSymbolTableRecord
100
AcDbBlockTableRecord
  2
*D30
  0
BLOCK_RECORD
  5
354
330
1
100
AcDbSymbolTableRecord
100
AcDbBlockTableRecord
  2
*D31
  0
BLOCK_RECORD
  5
362
330
1
100
AcDbSymbolTableRecord
100
AcDbBlockTableRecord
  2
*D32
  0
BLOCK_RECORD
  5
36E
330
1
100
AcDbSymbolTableRecord
100
AcDbBlockTableRecord
  2
*D33
  0
BLOCK_RECORD
  5
37A
330
1
100
AcDbSymbolTableRecord
100
AcDbBlockTableRecord
  2
*D34
  0
BLOCK_RECORD
  5
386
330
1
100
AcDbSymbolTableRecord
100
AcDbBlockTableRecord
  2
*D35
  0
BLOCK_RECORD
  5
392
330
1
100
AcDbSymbolTableRecord
100
AcDbBlockTableRecord
  2
*D36
  0
BLOCK_RECORD
  5
39E
330
1
100
AcDbSymbolTableRecord
100
AcDbBlockTableRecord
  2
*D37
  0
BLOCK_RECORD
  5
3AA
330
1
100
AcDbSymbolTableRecord
100
AcDbBlockTableRecord
  2
*D38
  0
BLOCK_RECORD
  5
3B6
330
1
100
AcDbSymbolTableRecord
100
AcDbBlockTableRecord
  2
*D39
  0
BLOCK_RECORD
  5
3C2
330
1
100
AcDbSymbolTableRecord
100
AcDbBlockTableRecord
  2
*D40
  0
BLOCK_RECORD
  5
3D0
330
1
100
AcDbSymbolTableRecord
100
AcDbBlockTableRecord
  2
*D41
  0
BLOCK_RECORD
  5
3DC
330
1
100
AcDbSymbolTableRecord
100
AcDbBlockTableRecord
  2
*D42
  0
BLOCK_RECORD
  5
3E8
330
1
100
AcDbSymbolTableRecord
100
AcDbBlockTableRecord
  2
*D43
  0
ENDTAB
  0
ENDSEC
  0
SECTION
  2
BLOCKS
  0
BLOCK
  5
5
330
2
100
AcDbEntity
  8
0
100
AcDbBlockBegin
  2
*MODEL_SPACE
 70
     0
 10
0.0
 20
0.0
 30
0.0
  3
*MODEL_SPACE
  1

  0
ENDBLK
  5
B
330
2
100
AcDbEntity
  8
0
100
AcDbBlockEnd
  0
BLOCK
  5
11
330
E
100
AcDbEntity
 67
     1
  8
0
100
AcDbBlockBegin
  2
*PAPER_SPACE
 70
     0
 10
0.0
 20
0.0
 30
0.0
  3
*PAPER_SPACE
  1

  0
ENDBLK
  5
12
330
E
100
AcDbEntity
 67
     1
  8
0
100
AcDbBlockEnd
  0
BLOCK
  5
194
330
18B
100
AcDbEntity
  8
0
100
AcDbBlockBegin
  2
*D0
 70
     1
 10
0.0
 20
0.0
 30
0.0
  3
*D0
  1

  0
LINE
  5
18C
330
18B
100
AcDbEntity
  8
0
 62
   123
100
AcDbLine
 10
15629.80488223125
 20
-1733.340049768652
 30
0.0
 11
15627.80633318254
 21
-1734.841982423581
 31
0.0
  0
LINE
  5
18D
330
18B
100
AcDbEntity
  8
0
 62
   123
100
AcDbLine
 10
15699.35438912599
 20
-1681.072793377123
 30
0.0
 11
15717.68393897264
 21
-1667.297925313345
 31
0.0
  0
LINE
  5
18E
330
18B
100
AcDbEntity
  8
0
 62
   123
100
AcDbLine
 10
15631.80343127995
 20
-1731.838117113723
 30
0.0
 11
15697.35584007729
 21
-1682.574726032052
 31
0.0
  0
SOLID
  5
18F
330
18B
100
AcDbEntity
  8
0
 62
   123
100
AcDbTrace
 10
15629.55456012208
 20
-1733.006958260537
 30
0.0
 11
15630.0552043404
 21
-1733.673141276769
 31
0.0
 12
15631.80343127995
 22
-1731.838117113723
 32
0.0
 13
15631.80343127995
 23
-1731.838117113723
 33
0.0
  0
SOLID
  5
190
330
18B
100
AcDbEntity
  8
0
 62
   123
100
AcDbTrace
 10
15699.10406701684
 20
-1680.739701869008
 30
0.0
 11
15699.60471123515
 21
-1681.40588488524
 31
0.0
 12
15697.35584007729
 22
-1682.574726032052
 32
0.0
 13
15697.35584007729
 23
-1682.574726032052
 33
0.0
  0
MTEXT
  5
191
330
18B
100
AcDbEntity
  8
0
 62
     3
100
AcDbMText
 10
15708.01650591874
 20
-1671.435843969068
 30
0.0
 40
3.0
 41
0.0
 71
     5
 72
     1
  1
\A1;\U+220582%%P0.5
 11
0.7994196194798298
 21
0.6007730619715935
 31
0.0
1001
ACAD
1000
MTEXTBEGIN
1070
    73
1070
     1
1070
    44
1040
1.0
1070
    74
1070
     0
1000
MTEXTEND
1000
MTEXTBEGIN
1070
    73
1070
     1
1070
    44
1040
1.0
1070
    74
1070
     0
1000
MTEXTEND
1000
MTEXTBEGIN
1070
    73
1070
     1
1070
    44
1040
1.0
1070
    74
1070
     0
1000
MTEXTEND
  0
POINT
  5
192
330
18B
100
AcDbEntity
  8
DEFPOINTS
 62
     0
100
AcDbPoint
 10
15697.35584007729
 20
-1682.574726032052
 30
0.0
  0
POINT
  5
193
330
18B
100
AcDbEntity
  8
DEFPOINTS
 62
     0
100
AcDbPoint
 10
15631.80343127995
 20
-1731.838117113723
 30
0.0
  0
ENDBLK
  5
195
330
18B
100
AcDbEntity
  8
0
100
AcDbBlockEnd
  0
BLOCK
  5
1A2
330
187
100
AcDbEntity
  8
0
100
AcDbBlockBegin
  2
3
 70
     0
 10
0.0
 20
0.0
 30
0.0
  3
3
  1

  0
DIMENSION
  5
188
102
{ACAD_XDICTIONARY
360
189
102
}
102
{ACAD_REACTORS
330
18A
102
}
330
187
100
AcDbEntity
  8
0
100
AcDbDimension
  2
*D0
 10
-32.77620439867496
 20
-24.63169554083719
 30
0.0
 11
44.93880289504522
 21
33.772028555117
 31
0.0
 12
-15664.57963567861
 22
1707.206421572886
 32
0.0
 70
   131
  1
<>%%P0.5
  3
STANDARD
100
AcDbDiametricDimension
 15
32.77620439867132
 25
24.63169554083401
 35
0.0
 40
0.0
  0
ARC
  5
196
102
{ACAD_REACTORS
330
18A
102
}
330
187
100
AcDbEntity
  8
CEN
 48
0.6
100
AcDbCircle
 10
-0.000000000003638
 20
0.0000000000020464
 30
0.0
 40
41.0
100
AcDbArc
 50
34.15351134749203
 51
55.84648865250797
  0
LINE
  5
197
330
187
100
AcDbEntity
  8
CEN
 48
0.6
100
AcDbLine
 10
25.63262081800167
 20
25.63262081802145
 30
0.0
 11
32.35013523927227
 21
32.35013523929547
 31
0.0
  0
CIRCLE
  5
198
330
187
100
AcDbEntity
  8
0
100
AcDbCircle
 10
28.99137802863515
 20
28.99137802865948
 30
0.0
 40
2.75
  0
CIRCLE
  5
199
330
187
100
AcDbEntity
  8
0
100
AcDbCircle
 10
-28.99137802866608
 20
28.99137802864379
 30
0.0
 40
2.75
  0
LINE
  5
19A
330
187
100
AcDbEntity
  8
CEN
 48
0.6
100
AcDbLine
 10
-25.63262081802895
 20
25.63262081801099
 30
0.0
 11
-32.35013523930319
 21
32.35013523928158
 31
0.0
  0
ARC
  5
19B
330
187
100
AcDbEntity
  8
CEN
 48
0.6
100
AcDbCircle
 10
-0.0000000000090949
 20
0.0000000000047748
 30
0.0
 40
41.0
100
AcDbArc
 50
128.358356428657
 51
141.641643571353
  0
ARC
  5
19C
330
187
100
AcDbEntity
  8
CEN
 48
0.6
100
AcDbCircle
 10
-0.0000000000127329
 20
-0.0000000000009095
 30
0.0
 40
41.0
100
AcDbArc
 50
214.1535113474918
 51
235.8464886525078
  0
CIRCLE
  5
19D
330
187
100
AcDbEntity
  8
0
100
AcDbCircle
 10
-28.99137802865151
 20
-28.99137802865833
 30
0.0
 40
2.75
  0
LINE
  5
19E
330
187
100
AcDbEntity
  8
CEN
 48
0.6
100
AcDbLine
 10
-25.63262081801804
 20
-25.63262081802031
 30
0.0
 11
-32.35013523928865
 21
-32.35013523929433
 31
0.0
  0
CIRCLE
  5
19F
330
187
100
AcDbEntity
  8
0
100
AcDbCircle
 10
28.99137802865151
 20
-28.99137802864446
 30
0.0
 40
2.75
  0
LINE
  5
1A0
330
187
100
AcDbEntity
  8
CEN
 48
0.6
100
AcDbLine
 10
25.63262081801257
 20
-25.63262081801052
 30
0.0
 11
32.35013523928683
 21
-32.35013523928113
 31
0.0
  0
ARC
  5
1A1
330
187
100
AcDbEntity
  8
CEN
 48
0.6
100
AcDbCircle
 10
-0.000000000005457
 20
-0.0000000000056843
 30
0.0
 40
41.0
100
AcDbArc
 50
308.3583564286568
 51
321.6416435713528
  0
ENDBLK
  5
1A3
330
187
100
AcDbEntity
  8
0
100
AcDbBlockEnd
  0
BLOCK
  5
25E
330
254
100
AcDbEntity
  8
0
100
AcDbBlockBegin
  2
*D2
 70
     1
 10
0.0
 20
0.0
 30
0.0
  3
*D2
  1

  0
LINE
  5
255
330
254
100
AcDbEntity
  8
0
 62
   123
100
AcDbLine
 10
-10467.80213698794
 20
-2365.09439743388
 30
0.0
 11
-10491.69136099904
 21
-2365.09439743388
 31
0.0
  0
LINE
  5
256
330
254
100
AcDbEntity
  8
0
 62
   123
100
AcDbLine
 10
-10469.26053627382
 20
-2429.09439743388
 30
0.0
 11
-10491.69136099904
 21
-2429.09439743388
 31
0.0
  0
LINE
  5
257
330
254
100
AcDbEntity
  8
0
 62
   123
100
AcDbLine
 10
-10491.09136099904
 20
-2367.59439743388
 30
0.0
 11
-10491.09136099904
 21
-2426.594397433881
 31
0.0
  0
SOLID
  5
258
330
254
100
AcDbEntity
  8
0
 62
   123
100
AcDbTrace
 10
-10491.50802766571
 20
-2367.59439743388
 30
0.0
 11
-10490.67469433238
 21
-2367.59439743388
 31
0.0
 12
-10491.09136099904
 22
-2365.09439743388
 32
0.0
 13
-10491.09136099904
 23
-2365.09439743388
 33
0.0
  0
SOLID
  5
259
330
254
100
AcDbEntity
  8
0
 62
   123
100
AcDbTrace
 10
-10491.50802766571
 20
-2426.594397433881
 30
0.0
 11
-10490.67469433238
 21
-2426.594397433881
 31
0.0
 12
-10491.09136099904
 22
-2429.09439743388
 32
0.0
 13
-10491.09136099904
 23
-2429.09439743388
 33
0.0
  0
MTEXT
  5
25A
330
254
100
AcDbEntity
  8
0
 62
     3
100
AcDbMText
 10
-10495.04151099904
 20
-2397.09439743388
 30
0.0
 40
3.0
 41
0.0
 71
     5
 72
     1
  1
\A1;\A1;%%C64{\f??|b0|i0|c0|p49;\H0.7x;\S+0^ -0.03;\H1.429x;(h7)} 
 11
0.0000000000000001
 21
1.0
 31
0.0
1001
ACAD
1000
MTEXTBEGIN
1070
    73
1070
     1
1070
    44
1040
1.0
1070
    74
1070
     0
1000
MTEXTEND
1000
MTEXTBEGIN
1070
    73
1070
     1
1070
    44
1040
1.0
1070
    74
1070
     0
1000
MTEXTEND
1000
MTEXTBEGIN
1070
    73
1070
     1
1070
    44
1040
1.0
1070
    74
1070
     0
1000
MTEXTEND
  0
POINT
  5
25B
330
254
100
AcDbEntity
  8
DEFPOINTS
 62
     0
100
AcDbPoint
 10
-10466.80213698794
 20
-2365.09439743388
 30
0.0
  0
POINT
  5
25C
330
254
100
AcDbEntity
  8
DEFPOINTS
 62
     0
100
AcDbPoint
 10
-10468.26053627382
 20
-2429.09439743388
 30
0.0
  0
POINT
  5
25D
330
254
100
AcDbEntity
  8
DEFPOINTS
 62
     0
100
AcDbPoint
 10
-10491.09136099904
 20
-2429.09439743388
 30
0.0
  0
ENDBLK
  5
25F
330
254
100
AcDbEntity
  8
0
100
AcDbBlockEnd
  0
BLOCK
  5
1F7
330
1ED
100
AcDbEntity
  8
0
100
AcDbBlockBegin
  2
*D3
 70
     1
 10
0.0
 20
0.0
 30
0.0
  3
*D3
  1

  0
LINE
  5
1EE
330
1ED
100
AcDbEntity
  8
0
 62
   123
100
AcDbLine
 10
-10464.80213698794
 20
-2338.76567104597
 30
0.0
 11
-10464.80213698794
 21
-2339.165671045968
 31
0.0
  0
LINE
  5
1EF
330
1ED
100
AcDbEntity
  8
0
 62
   123
100
AcDbLine
 10
-10346.80213698794
 20
-2363.12439743388
 30
0.0
 11
-10346.80213698794
 21
-2339.165671045968
 31
0.0
  0
LINE
  5
1F0
330
1ED
100
AcDbEntity
  8
0
 62
   123
100
AcDbLine
 10
-10462.30213698795
 20
-2339.76567104597
 30
0.0
 11
-10349.30213698795
 21
-2339.76567104597
 31
0.0
  0
SOLID
  5
1F1
330
1ED
100
AcDbEntity
  8
0
 62
   123
100
AcDbTrace
 10
-10462.30213698795
 20
-2339.349004379303
 30
0.0
 11
-10462.30213698795
 21
-2340.182337712636
 31
0.0
 12
-10464.80213698794
 22
-2339.76567104597
 32
0.0
 13
-10464.80213698794
 23
-2339.76567104597
 33
0.0
  0
SOLID
  5
1F2
330
1ED
100
AcDbEntity
  8
0
 62
   123
100
AcDbTrace
 10
-10349.30213698795
 20
-2339.349004379303
 30
0.0
 11
-10349.30213698795
 21
-2340.182337712636
 31
0.0
 12
-10346.80213698794
 22
-2339.76567104597
 32
0.0
 13
-10346.80213698794
 23
-2339.76567104597
 33
0.0
  0
MTEXT
  5
1F3
330
1ED
100
AcDbEntity
  8
0
 62
     3
100
AcDbMText
 10
-10405.80213698794
 20
-2337.26567104597
 30
0.0
 40
3.0
 41
0.0
 71
     5
 72
     1
  1
\A1;118
1001
ACAD
1000
MTEXTBEGIN
1070
    73
1070
     1
1070
    44
1040
1.0
1070
    74
1070
     0
1000
MTEXTEND
1000
MTEXTBEGIN
1070
    73
1070
     1
1070
    44
1040
1.0
1070
    74
1070
     0
1000
MTEXTEND
1000
MTEXTBEGIN
1070
    73
1070
     1
1070
    44
1040
1.0
1070
    74
1070
     0
1000
MTEXTEND
  0
POINT
  5
1F4
330
1ED
100
AcDbEntity
  8
DEFPOINTS
 62
     0
100
AcDbPoint
 10
-10464.80213698794
 20
-2339.76567104597
 30
0.0
  0
POINT
  5
1F5
330
1ED
100
AcDbEntity
  8
DEFPOINTS
 62
     0
100
AcDbPoint
 10
-10346.80213698794
 20
-2364.124397433881
 30
0.0
  0
POINT
  5
1F6
330
1ED
100
AcDbEntity
  8
DEFPOINTS
 62
     0
100
AcDbPoint
 10
-10346.80213698794
 20
-2339.76567104597
 30
0.0
  0
ENDBLK
  5
1F8
330
1ED
100
AcDbEntity
  8
0
100
AcDbBlockEnd
  0
BLOCK
  5
22B
330
221
100
AcDbEntity
  8
0
100
AcDbBlockBegin
  2
*D4
 70
     1
 10
0.0
 20
0.0
 30
0.0
  3
*D4
  1

  0
LINE
  5
222
330
221
100
AcDbEntity
  8
0
 62
   123
100
AcDbLine
 10
-10477.80213698795
 20
-2393.427379973239
 30
0.0
 11
-10477.80213698795
 21
-2339.165671045968
 31
0.0
  0
LINE
  5
223
330
221
100
AcDbEntity
  8
0
 62
   123
100
AcDbLine
 10
-10464.80213698794
 20
-2361.09439743388
 30
0.0
 11
-10464.80213698794
 21
-2339.165671045968
 31
0.0
  0
LINE
  5
224
330
221
100
AcDbEntity
  8
0
 62
   123
100
AcDbLine
 10
-10475.30213698794
 20
-2339.76567104597
 30
0.0
 11
-10467.30213698795
 21
-2339.76567104597
 31
0.0
  0
SOLID
  5
225
330
221
100
AcDbEntity
  8
0
 62
   123
100
AcDbTrace
 10
-10475.30213698794
 20
-2339.349004379303
 30
0.0
 11
-10475.30213698794
 21
-2340.182337712636
 31
0.0
 12
-10477.80213698795
 22
-2339.76567104597
 32
0.0
 13
-10477.80213698795
 23
-2339.76567104597
 33
0.0
  0
SOLID
  5
226
330
221
100
AcDbEntity
  8
0
 62
   123
100
AcDbTrace
 10
-10467.30213698795
 20
-2339.349004379303
 30
0.0
 11
-10467.30213698795
 21
-2340.182337712636
 31
0.0
 12
-10464.80213698794
 22
-2339.76567104597
 32
0.0
 13
-10464.80213698794
 23
-2339.76567104597
 33
0.0
  0
MTEXT
  5
227
330
221
100
AcDbEntity
  8
0
 62
     3
100
AcDbMText
 10
-10471.30213698794
 20
-2337.26567104597
 30
0.0
 40
3.0
 41
0.0
 71
     5
 72
     1
  1
\A1;13
1001
ACAD
1000
MTEXTBEGIN
1070
    73
1070
     1
1070
    44
1040
1.0
1070
    74
1070
     0
1000
MTEXTEND
1000
MTEXTBEGIN
1070
    73
1070
     1
1070
    44
1040
1.0
1070
    74
1070
     0
1000
MTEXTEND
1000
MTEXTBEGIN
1070
    73
1070
     1
1070
    44
1040
1.0
1070
    74
1070
     0
1000
MTEXTEND
  0
POINT
  5
228
330
221
100
AcDbEntity
  8
DEFPOINTS
 62
     0
100
AcDbPoint
 10
-10477.80213698795
 20
-2394.427379973241
 30
0.0
  0
POINT
  5
229
330
221
100
AcDbEntity
  8
DEFPOINTS
 62
     0
100
AcDbPoint
 10
-10464.80213698794
 20
-2362.09439743388
 30
0.0
  0
POINT
  5
22A
330
221
100
AcDbEntity
  8
DEFPOINTS
 62
     0
100
AcDbPoint
 10
-10464.80213698794
 20
-2339.76567104597
 30
0.0
  0
ENDBLK
  5
22C
330
221
100
AcDbEntity
  8
0
100
AcDbBlockEnd
  0
BLOCK
  5
21E
330
212
100
AcDbEntity
  8
0
100
AcDbBlockBegin
  2
*D5
 70
     1
 10
0.0
 20
0.0
 30
0.0
  3
*D5
  1

  0
LINE
  5
213
330
212
100
AcDbEntity
  8
0
 62
   123
100
AcDbLine
 10
-10466.80213698794
 20
-2364.09439743388
 30
0.0
 11
-10466.80213698794
 21
-2350.489098495946
 31
0.0
  0
LINE
  5
214
330
212
100
AcDbEntity
  8
0
 62
   123
100
AcDbLine
 10
-10464.80213698794
 20
-2361.09439743388
 30
0.0
 11
-10464.80213698794
 21
-2350.489098495946
 31
0.0
  0
LINE
  5
215
330
212
100
AcDbEntity
  8
0
 62
   123
100
AcDbLine
 10
-10462.30213698795
 20
-2351.089098495946
 30
0.0
 11
-10459.80213698795
 21
-2351.089098495946
 31
0.0
  0
LINE
  5
216
330
212
100
AcDbEntity
  8
0
 62
   123
100
AcDbLine
 10
-10469.30213698795
 20
-2351.089098495946
 30
0.0
 11
-10475.80213698795
 21
-2351.089098495946
 31
0.0
  0
LINE
  5
217
330
212
100
AcDbEntity
  8
0
 62
   123
100
AcDbLine
 10
-10464.80213698794
 20
-2351.089098495946
 30
0.0
 11
-10466.80213698794
 21
-2351.089098495946
 31
0.0
  0
SOLID
  5
218
330
212
100
AcDbEntity
  8
0
 62
   123
100
AcDbTrace
 10
-10462.30213698795
 20
-2350.672431829278
 30
0.0
 11
-10462.30213698795
 21
-2351.505765162612
 31
0.0
 12
-10464.80213698794
 22
-2351.089098495946
 32
0.0
 13
-10464.80213698794
 23
-2351.089098495946
 33
0.0
  0
SOLID
  5
219
330
212
100
AcDbEntity
  8
0
 62
   123
100
AcDbTrace
 10
-10469.30213698795
 20
-2350.672431829278
 30
0.0
 11
-10469.30213698795
 21
-2351.505765162612
 31
0.0
 12
-10466.80213698794
 22
-2351.089098495946
 32
0.0
 13
-10466.80213698794
 23
-2351.089098495946
 33
0.0
  0
MTEXT
  5
21A
330
212
100
AcDbEntity
  8
0
 62
     3
100
AcDbMText
 10
-10473.80213698795
 20
-2348.589098495946
 30
0.0
 40
3.0
 41
0.0
 71
     5
 72
     1
  1
\A1;2
1001
ACAD
1000
MTEXTBEGIN
1070
    73
1070
     1
1070
    44
1040
1.0
1070
    74
1070
     0
1000
MTEXTEND
1000
MTEXTBEGIN
1070
    73
1070
     1
1070
    44
1040
1.0
1070
    74
1070
     0
1000
MTEXTEND
1000
MTEXTBEGIN
1070
    73
1070
     1
1070
    44
1040
1.0
1070
    74
1070
     0
1000
MTEXTEND
  0
POINT
  5
21B
330
212
100
AcDbEntity
  8
DEFPOINTS
 62
     0
100
AcDbPoint
 10
-10466.80213698794
 20
-2365.09439743388
 30
0.0
  0
POINT
  5
21C
330
212
100
AcDbEntity
  8
DEFPOINTS
 62
     0
100
AcDbPoint
 10
-10464.80213698794
 20
-2362.09439743388
 30
0.0
  0
POINT
  5
21D
330
212
100
AcDbEntity
  8
DEFPOINTS
 62
     0
100
AcDbPoint
 10
-10464.80213698794
 20
-2351.089098495946
 30
0.0
  0
ENDBLK
  5
21F
330
212
100
AcDbEntity
  8
0
100
AcDbBlockEnd
  0
BLOCK
  5
161
330
157
100
AcDbEntity
  8
0
100
AcDbBlockBegin
  2
*D6
 70
     1
 10
0.0
 20
0.0
 30
0.0
  3
*D6
  1

  0
LINE
  5
158
330
157
100
AcDbEntity
  8
0
 62
   123
100
AcDbLine
 10
-10454.55484962139
 20
-2529.401475596978
 30
0.0
 11
-10516.26261771424
 21
-2529.401475596978
 31
0.0
  0
LINE
  5
159
330
157
100
AcDbEntity
  8
0
 62
   123
100
AcDbLine
 10
-10456.01324890726
 20
-2593.401475596978
 30
0.0
 11
-10516.26261771424
 21
-2593.401475596978
 31
0.0
  0
LINE
  5
15A
330
157
100
AcDbEntity
  8
0
 62
   123
100
AcDbLine
 10
-10515.66261771422
 20
-2531.901475596978
 30
0.0
 11
-10515.66261771422
 21
-2590.901475596978
 31
0.0
  0
SOLID
  5
15B
330
157
100
AcDbEntity
  8
0
 62
   123
100
AcDbTrace
 10
-10516.07928438089
 20
-2531.901475596978
 30
0.0
 11
-10515.24595104757
 21
-2531.901475596978
 31
0.0
 12
-10515.66261771422
 22
-2529.401475596978
 32
0.0
 13
-10515.66261771422
 23
-2529.401475596978
 33
0.0
  0
SOLID
  5
15C
330
157
100
AcDbEntity
  8
0
 62
   123
100
AcDbTrace
 10
-10516.07928438089
 20
-2590.901475596978
 30
0.0
 11
-10515.24595104757
 21
-2590.901475596978
 31
0.0
 12
-10515.66261771422
 22
-2593.401475596978
 32
0.0
 13
-10515.66261771422
 23
-2593.401475596978
 33
0.0
  0
MTEXT
  5
15D
330
157
100
AcDbEntity
  8
0
 62
     3
100
AcDbMText
 10
-10519.61276771423
 20
-2564.730321420938
 30
0.0
 40
3.0
 41
0.0
 71
     5
 72
     1
  1
\A1;\A1;%%C64{\f??|b0|i0|c0|p49;\H0.7x;\S+0^ -0.03;\H1.429x;(h7)} 
 11
0.0000000000000001
 21
1.0
 31
0.0
1001
ACAD
1000
MTEXTBEGIN
1070
    73
1070
     1
1070
    44
1040
1.0
1070
    74
1070
     0
1000
MTEXTEND
1000
MTEXTBEGIN
1070
    73
1070
     1
1070
    44
1040
1.0
1070
    74
1070
     0
1000
MTEXTEND
1000
MTEXTBEGIN
1070
    73
1070
     1
1070
    44
1040
1.0
1070
    74
1070
     0
1000
MTEXTEND
  0
POINT
  5
15E
330
157
100
AcDbEntity
  8
DEFPOINTS
 62
     0
100
AcDbPoint
 10
-10453.55484962139
 20
-2529.401475596978
 30
0.0
  0
POINT
  5
15F
330
157
100
AcDbEntity
  8
DEFPOINTS
 62
     0
100
AcDbPoint
 10
-10455.01324890727
 20
-2593.401475596978
 30
0.0
  0
POINT
  5
160
330
157
100
AcDbEntity
  8
DEFPOINTS
 62
     0
100
AcDbPoint
 10
-10515.66261771422
 20
-2593.401475596978
 30
0.0
  0
ENDBLK
  5
162
330
157
100
AcDbEntity
  8
0
100
AcDbBlockEnd
  0
BLOCK
  5
13B
330
131
100
AcDbEntity
  8
0
100
AcDbBlockBegin
  2
*D7
 70
     1
 10
0.0
 20
0.0
 30
0.0
  3
*D7
  1

  0
LINE
  5
132
330
131
100
AcDbEntity
  8
0
 62
   123
100
AcDbLine
 10
-10483.55484962139
 20
-2557.901585982436
 30
0.0
 11
-10483.55484962139
 21
-2500.115209695978
 31
0.0
  0
LINE
  5
133
330
131
100
AcDbEntity
  8
0
 62
   123
100
AcDbLine
 10
-10451.55484962139
 20
-2525.401475596978
 30
0.0
 11
-10451.55484962139
 21
-2500.115209695978
 31
0.0
  0
LINE
  5
134
330
131
100
AcDbEntity
  8
0
 62
   123
100
AcDbLine
 10
-10481.05484962139
 20
-2500.715209695978
 30
0.0
 11
-10454.05484962139
 21
-2500.715209695978
 31
0.0
  0
SOLID
  5
135
330
131
100
AcDbEntity
  8
0
 62
   123
100
AcDbTrace
 10
-10481.05484962139
 20
-2500.298543029311
 30
0.0
 11
-10481.05484962139
 21
-2501.131876362644
 31
0.0
 12
-10483.55484962139
 22
-2500.715209695978
 32
0.0
 13
-10483.55484962139
 23
-2500.715209695978
 33
0.0
  0
SOLID
  5
136
330
131
100
AcDbEntity
  8
0
 62
   123
100
AcDbTrace
 10
-10454.05484962139
 20
-2500.298543029311
 30
0.0
 11
-10454.05484962139
 21
-2501.131876362644
 31
0.0
 12
-10451.55484962139
 22
-2500.715209695978
 32
0.0
 13
-10451.55484962139
 23
-2500.715209695978
 33
0.0
  0
MTEXT
  5
137
330
131
100
AcDbEntity
  8
0
 62
     3
100
AcDbMText
 10
-10467.55484962138
 20
-2498.215209695976
 30
0.0
 40
3.0
 41
0.0
 71
     5
 72
     1
  1
\A1;32
1001
ACAD
1000
MTEXTBEGIN
1070
    73
1070
     1
1070
    44
1040
1.0
1070
    74
1070
     0
1000
MTEXTEND
1000
MTEXTBEGIN
1070
    73
1070
     1
1070
    44
1040
1.0
1070
    74
1070
     0
1000
MTEXTEND
1000
MTEXTBEGIN
1070
    73
1070
     1
1070
    44
1040
1.0
1070
    74
1070
     0
1000
MTEXTEND
  0
POINT
  5
138
330
131
100
AcDbEntity
  8
DEFPOINTS
 62
     0
100
AcDbPoint
 10
-10483.55484962139
 20
-2558.901585982435
 30
0.0
  0
POINT
  5
139
330
131
100
AcDbEntity
  8
DEFPOINTS
 62
     0
100
AcDbPoint
 10
-10451.55484962139
 20
-2526.401475596978
 30
0.0
  0
POINT
  5
13A
330
131
100
AcDbEntity
  8
DEFPOINTS
 62
     0
100
AcDbPoint
 10
-10451.55484962139
 20
-2500.715209695978
 30
0.0
  0
ENDBLK
  5
13C
330
131
100
AcDbEntity
  8
0
100
AcDbBlockEnd
  0
BLOCK
  5
124
330
118
100
AcDbEntity
  8
0
100
AcDbBlockBegin
  2
*D8
 70
     1
 10
0.0
 20
0.0
 30
0.0
  3
*D8
  1

  0
LINE
  5
119
330
118
100
AcDbEntity
  8
0
 62
   123
100
AcDbLine
 10
-10484.05484962139
 20
-2558.401585982434
 30
0.0
 11
-10498.10248049396
 21
-2558.401585982434
 31
0.0
  0
LINE
  5
11A
330
118
100
AcDbEntity
  8
0
 62
   123
100
AcDbLine
 10
-10484.05484962139
 20
-2564.401365211522
 30
0.0
 11
-10498.10248049396
 21
-2564.401365211522
 31
0.0
  0
LINE
  5
11B
330
118
100
AcDbEntity
  8
0
 62
   123
100
AcDbLine
 10
-10497.50248049396
 20
-2555.901585982436
 30
0.0
 11
-10497.50248049396
 21
-2553.401585982435
 31
0.0
  0
LINE
  5
11C
330
118
100
AcDbEntity
  8
0
 62
   123
100
AcDbLine
 10
-10497.50248049396
 20
-2566.901365211522
 30
0.0
 11
-10497.50248049396
 21
-2569.401365211521
 31
0.0
  0
LINE
  5
11D
330
118
100
AcDbEntity
  8
0
 62
   123
100
AcDbLine
 10
-10497.50248049396
 20
-2558.401585982434
 30
0.0
 11
-10497.50248049396
 21
-2564.401365211522
 31
0.0
  0
SOLID
  5
11E
330
118
100
AcDbEntity
  8
0
 62
   123
100
AcDbTrace
 10
-10497.91914716062
 20
-2555.901585982436
 30
0.0
 11
-10497.08581382729
 21
-2555.901585982436
 31
0.0
 12
-10497.50248049396
 22
-2558.401585982434
 32
0.0
 13
-10497.50248049396
 23
-2558.401585982434
 33
0.0
  0
SOLID
  5
11F
330
118
100
AcDbEntity
  8
0
 62
   123
100
AcDbTrace
 10
-10497.91914716062
 20
-2566.901365211522
 30
0.0
 11
-10497.08581382729
 21
-2566.901365211522
 31
0.0
 12
-10497.50248049396
 22
-2564.401365211522
 32
0.0
 13
-10497.50248049396
 23
-2564.401365211522
 33
0.0
  0
MTEXT
  5
120
330
118
100
AcDbEntity
  8
0
 62
     3
100
AcDbMText
 10
-10501.45263049395
 20
-2561.401475596981
 30
0.0
 40
3.0
 41
0.0
 71
     5
 72
     1
  1
\A1;\A1;%%c6{\H0.7x;\S+0^ -0.012;\f??|b0|i0|c0|p49;\H1.429x;(h7)}  
 11
0.0000000000000001
 21
1.0
 31
0.0
1001
ACAD
1000
MTEXTBEGIN
1070
    73
1070
     1
1070
    44
1040
1.0
1070
    74
1070
     0
1000
MTEXTEND
1000
MTEXTBEGIN
1070
    73
1070
     1
1070
    44
1040
1.0
1070
    74
1070
     0
1000
MTEXTEND
1000
MTEXTBEGIN
1070
    73
1070
     1
1070
    44
1040
1.0
1070
    74
1070
     0
1000
MTEXTEND
  0
POINT
  5
121
330
118
100
AcDbEntity
  8
DEFPOINTS
 62
     0
100
AcDbPoint
 10
-10483.05484962139
 20
-2558.401585982434
 30
0.0
  0
POINT
  5
122
330
118
100
AcDbEntity
  8
DEFPOINTS
 62
     0
100
AcDbPoint
 10
-10483.05484962139
 20
-2564.401365211522
 30
0.0
  0
POINT
  5
123
330
118
100
AcDbEntity
  8
DEFPOINTS
 62
     0
100
AcDbPoint
 10
-10497.50248049396
 20
-2564.401365211522
 30
0.0
  0
ENDBLK
  5
125
330
118
100
AcDbEntity
  8
0
100
AcDbBlockEnd
  0
BLOCK
  5
BD
330
B3
100
AcDbEntity
  8
0
100
AcDbBlockBegin
  2
*D9
 70
     1
 10
0.0
 20
0.0
 30
0.0
  3
*D9
  1

  0
LINE
  5
B4
330
B3
100
AcDbEntity
  8
0
 62
   123
100
AcDbLine
 10
-10451.55484962139
 20
-2499.715209695978
 30
0.0
 11
-10451.55484962139
 21
-2500.115209695978
 31
0.0
  0
LINE
  5
B5
330
B3
100
AcDbEntity
  8
0
 62
   123
100
AcDbLine
 10
-10333.55484962139
 20
-2527.431475596979
 30
0.0
 11
-10333.55484962139
 21
-2500.115209695978
 31
0.0
  0
LINE
  5
B6
330
B3
100
AcDbEntity
  8
0
 62
   123
100
AcDbLine
 10
-10449.05484962139
 20
-2500.715209695978
 30
0.0
 11
-10336.05484962138
 21
-2500.715209695978
 31
0.0
  0
SOLID
  5
B7
330
B3
100
AcDbEntity
  8
0
 62
   123
100
AcDbTrace
 10
-10449.05484962139
 20
-2500.298543029311
 30
0.0
 11
-10449.05484962139
 21
-2501.131876362644
 31
0.0
 12
-10451.55484962139
 22
-2500.715209695978
 32
0.0
 13
-10451.55484962139
 23
-2500.715209695978
 33
0.0
  0
SOLID
  5
B8
330
B3
100
AcDbEntity
  8
0
 62
   123
100
AcDbTrace
 10
-10336.05484962138
 20
-2500.298543029311
 30
0.0
 11
-10336.05484962138
 21
-2501.131876362644
 31
0.0
 12
-10333.55484962139
 22
-2500.715209695978
 32
0.0
 13
-10333.55484962139
 23
-2500.715209695978
 33
0.0
  0
MTEXT
  5
B9
330
B3
100
AcDbEntity
  8
0
 62
     3
100
AcDbMText
 10
-10392.55484962139
 20
-2498.215209695976
 30
0.0
 40
3.0
 41
0.0
 71
     5
 72
     1
  1
\A1;118
1001
ACAD
1000
MTEXTBEGIN
1070
    73
1070
     1
1070
    44
1040
1.0
1070
    74
1070
     0
1000
MTEXTEND
1000
MTEXTBEGIN
1070
    73
1070
     1
1070
    44
1040
1.0
1070
    74
1070
     0
1000
MTEXTEND
1000
MTEXTBEGIN
1070
    73
1070
     1
1070
    44
1040
1.0
1070
    74
1070
     0
1000
MTEXTEND
  0
POINT
  5
BA
330
B3
100
AcDbEntity
  8
DEFPOINTS
 62
     0
100
AcDbPoint
 10
-10451.55484962139
 20
-2500.715209695978
 30
0.0
  0
POINT
  5
BB
330
B3
100
AcDbEntity
  8
DEFPOINTS
 62
     0
100
AcDbPoint
 10
-10333.55484962139
 20
-2528.431475596979
 30
0.0
  0
POINT
  5
BC
330
B3
100
AcDbEntity
  8
DEFPOINTS
 62
     0
100
AcDbPoint
 10
-10333.55484962139
 20
-2500.715209695978
 30
0.0
  0
ENDBLK
  5
BE
330
B3
100
AcDbEntity
  8
0
100
AcDbBlockEnd
  0
BLOCK
  5
105
330
F9
100
AcDbEntity
  8
0
100
AcDbBlockBegin
  2
*D10
 70
     1
 10
0.0
 20
0.0
 30
0.0
  3
*D10
  1

  0
LINE
  5
FA
330
F9
100
AcDbEntity
  8
0
 62
   123
100
AcDbLine
 10
-10453.55484962139
 20
-2528.401475596978
 30
0.0
 11
-10453.55484962139
 21
-2511.058285827572
 31
0.0
  0
LINE
  5
FB
330
F9
100
AcDbEntity
  8
0
 62
   123
100
AcDbLine
 10
-10451.55484962139
 20
-2525.401475596978
 30
0.0
 11
-10451.55484962139
 21
-2511.058285827572
 31
0.0
  0
LINE
  5
FC
330
F9
100
AcDbEntity
  8
0
 62
   123
100
AcDbLine
 10
-10449.05484962139
 20
-2511.658285827572
 30
0.0
 11
-10446.55484962139
 21
-2511.658285827572
 31
0.0
  0
LINE
  5
FD
330
F9
100
AcDbEntity
  8
0
 62
   123
100
AcDbLine
 10
-10456.05484962139
 20
-2511.658285827572
 30
0.0
 11
-10465.45484962139
 21
-2511.658285827572
 31
0.0
  0
LINE
  5
FE
330
F9
100
AcDbEntity
  8
0
 62
   123
100
AcDbLine
 10
-10451.55484962139
 20
-2511.658285827572
 30
0.0
 11
-10453.55484962139
 21
-2511.658285827572
 31
0.0
  0
SOLID
  5
FF
330
F9
100
AcDbEntity
  8
0
 62
   123
100
AcDbTrace
 10
-10449.05484962139
 20
-2511.241619160906
 30
0.0
 11
-10449.05484962139
 21
-2512.074952494239
 31
0.0
 12
-10451.55484962139
 22
-2511.658285827572
 32
0.0
 13
-10451.55484962139
 23
-2511.658285827572
 33
0.0
  0
SOLID
  5
100
330
F9
100
AcDbEntity
  8
0
 62
   123
100
AcDbTrace
 10
-10456.05484962139
 20
-2511.241619160906
 30
0.0
 11
-10456.05484962139
 21
-2512.074952494239
 31
0.0
 12
-10453.55484962139
 22
-2511.658285827572
 32
0.0
 13
-10453.55484962139
 23
-2511.658285827572
 33
0.0
  0
MTEXT
  5
101
330
F9
100
AcDbEntity
  8
0
 62
     3
100
AcDbMText
 10
-10463.45484962138
 20
-2509.158285827572
 30
0.0
 40
3.0
 41
0.0
 71
     5
 72
     1
  1
\A1;2
1001
ACAD
1000
MTEXTBEGIN
1070
    73
1070
     1
1070
    44
1040
1.0
1070
    74
1070
     0
1000
MTEXTEND
1000
MTEXTBEGIN
1070
    73
1070
     1
1070
    44
1040
1.0
1070
    74
1070
     0
1000
MTEXTEND
1000
MTEXTBEGIN
1070
    73
1070
     1
1070
    44
1040
1.0
1070
    74
1070
     0
1000
MTEXTEND
  0
POINT
  5
102
330
F9
100
AcDbEntity
  8
DEFPOINTS
 62
     0
100
AcDbPoint
 10
-10453.55484962139
 20
-2529.401475596978
 30
0.0
  0
POINT
  5
103
330
F9
100
AcDbEntity
  8
DEFPOINTS
 62
     0
100
AcDbPoint
 10
-10451.55484962139
 20
-2526.401475596978
 30
0.0
  0
POINT
  5
104
330
F9
100
AcDbEntity
  8
DEFPOINTS
 62
     0
100
AcDbPoint
 10
-10451.55484962139
 20
-2511.658285827572
 30
0.0
  0
ENDBLK
  5
106
330
F9
100
AcDbEntity
  8
0
100
AcDbBlockEnd
  0
BLOCK
  5
27A
330
270
100
AcDbEntity
  8
0
100
AcDbBlockBegin
  2
*D11
 70
     1
 10
0.0
 20
0.0
 30
0.0
  3
*D11
  1

  0
LINE
  5
271
330
270
100
AcDbEntity
  8
0
 62
   123
100
AcDbLine
 10
-10587.71970726187
 20
-2366.094397433875
 30
0.0
 11
-10587.71970726187
 21
-2348.92660230797
 31
0.0
  0
LINE
  5
272
330
270
100
AcDbEntity
  8
0
 62
   123
100
AcDbLine
 10
-10517.71970726187
 20
-2366.094397433875
 30
0.0
 11
-10517.71970726187
 21
-2348.92660230797
 31
0.0
  0
LINE
  5
273
330
270
100
AcDbEntity
  8
0
 62
   123
100
AcDbLine
 10
-10585.21970726187
 20
-2349.526602307969
 30
0.0
 11
-10520.21970726187
 21
-2349.526602307969
 31
0.0
  0
SOLID
  5
274
330
270
100
AcDbEntity
  8
0
 62
   123
100
AcDbTrace
 10
-10585.21970726187
 20
-2349.109935641303
 30
0.0
 11
-10585.21970726187
 21
-2349.943268974636
 31
0.0
 12
-10587.71970726187
 22
-2349.526602307969
 32
0.0
 13
-10587.71970726187
 23
-2349.526602307969
 33
0.0
  0
SOLID
  5
275
330
270
100
AcDbEntity
  8
0
 62
   123
100
AcDbTrace
 10
-10520.21970726187
 20
-2349.109935641303
 30
0.0
 11
-10520.21970726187
 21
-2349.943268974636
 31
0.0
 12
-10517.71970726187
 22
-2349.526602307969
 32
0.0
 13
-10517.71970726187
 23
-2349.526602307969
 33
0.0
  0
MTEXT
  5
276
330
270
100
AcDbEntity
  8
0
 62
     3
100
AcDbMText
 10
-10552.71970726187
 20
-2347.026602307968
 30
0.0
 40
3.0
 41
0.0
 71
     5
 72
     1
  1
\A1;70
1001
ACAD
1000
MTEXTBEGIN
1070
    73
1070
     1
1070
    44
1040
1.0
1070
    74
1070
     0
1000
MTEXTEND
1000
MTEXTBEGIN
1070
    73
1070
     1
1070
    44
1040
1.0
1070
    74
1070
     0
1000
MTEXTEND
1000
MTEXTBEGIN
1070
    73
1070
     1
1070
    44
1040
1.0
1070
    74
1070
     0
1000
MTEXTEND
  0
POINT
  5
277
330
270
100
AcDbEntity
  8
DEFPOINTS
 62
     0
100
AcDbPoint
 10
-10587.71970726187
 20
-2367.094397433876
 30
0.0
  0
POINT
  5
278
330
270
100
AcDbEntity
  8
DEFPOINTS
 62
     0
100
AcDbPoint
 10
-10517.71970726187
 20
-2367.094397433876
 30
0.0
  0
POINT
  5
279
330
270
100
AcDbEntity
  8
DEFPOINTS
 62
     0
100
AcDbPoint
 10
-10517.71970726187
 20
-2349.526602307969
 30
0.0
  0
ENDBLK
  5
27B
330
270
100
AcDbEntity
  8
0
100
AcDbBlockEnd
  0
BLOCK
  5
AF
330
A2
100
AcDbEntity
  8
0
100
AcDbBlockBegin
  2
*D12
 70
     1
 10
0.0
 20
0.0
 30
0.0
  3
*D12
  1

  0
LINE
  5
A3
330
A2
100
AcDbEntity
  8
0
 62
   123
100
AcDbLine
 10
-10552.71970726187
 20
-2440.14211043808
 30
0.0
 11
-10552.71970726187
 21
-2457.361096821136
 31
0.0
  0
LINE
  5
A4
330
A2
100
AcDbEntity
  8
0
 62
   123
100
AcDbLine
 10
-10534.08198382262
 20
-2442.089842132681
 30
0.0
 11
-10529.65663988304
 21
-2452.773567489777
 31
0.0
  0
ARC
  5
A5
330
A2
100
AcDbEntity
  8
0
 62
   123
100
AcDbCircle
 10
-10552.71970726187
 20
-2397.094397433868
 30
0.0
 40
59.66669938726449
100
AcDbArc
 50
272.4008354753696
 51
290.0991645246282
  0
SOLID
  5
A6
330
A2
100
AcDbEntity
  8
0
 62
   123
100
AcDbTrace
 10
-10550.21152688947
 20
-2457.125297769331
 30
0.0
 11
-10550.22898498045
 21
-2456.29214732703
 31
0.0
 12
-10552.71970726187
 22
-2456.761096821136
 32
0.0
 13
-10552.71970726187
 23
-2456.761096821136
 33
0.0
  0
SOLID
  5
A7
330
A2
100
AcDbEntity
  8
0
 62
   123
100
AcDbTrace
 10
-10532.36683648143
 20
-2452.739145082603
 30
0.0
 11
-10532.06413278343
 21
-2453.515556645925
 31
0.0
 12
-10529.88624994245
 22
-2452.219239770268
 32
0.0
 13
-10529.88624994245
 23
-2452.219239770268
 33
0.0
  0
MTEXT
  5
A8
330
A2
100
AcDbEntity
  8
0
 62
     3
100
AcDbMText
 10
-10541.6227775618
 20
-2452.882430356307
 30
0.0
 40
3.0
 41
0.0
 71
     5
 72
     1
  1
\A1;22°30'
 11
0.9807852804032339
 21
0.1950903220161111
 31
0.0
1001
ACAD
1000
MTEXTBEGIN
1070
    73
1070
     1
1070
    44
1040
1.0
1070
    74
1070
     0
1000
MTEXTEND
1000
MTEXTBEGIN
1070
    73
1070
     1
1070
    44
1040
1.0
1070
    74
1070
     0
1000
MTEXTEND
1000
MTEXTBEGIN
1070
    73
1070
     1
1070
    44
1040
1.0
1070
    74
1070
     0
1000
MTEXTEND
  0
POINT
  5
A9
330
A2
100
AcDbEntity
  8
DEFPOINTS
 62
     0
100
AcDbPoint
 10
-10544.93164018851
 20
-2456.25063993651
 30
0.0
  0
POINT
  5
AB
330
A2
100
AcDbEntity
  8
DEFPOINTS
 62
     0
100
AcDbPoint
 10
-10552.71970726187
 20
-2439.14211043808
 30
0.0
  0
POINT
  5
AC
330
A2
100
AcDbEntity
  8
DEFPOINTS
 62
     0
100
AcDbPoint
 10
-10552.71970726187
 20
-2397.094397433875
 30
0.0
  0
POINT
  5
AD
330
A2
100
AcDbEntity
  8
DEFPOINTS
 62
     0
100
AcDbPoint
 10
-10534.46466725497
 20
-2441.16596260017
 30
0.0
  0
POINT
  5
AE
330
A2
100
AcDbEntity
  8
DEFPOINTS
 62
     0
100
AcDbPoint
 10
-10552.71970726187
 20
-2355.04668442968
 30
0.0
  0
ENDBLK
  5
B0
330
A2
100
AcDbEntity
  8
0
100
AcDbBlockEnd
  0
BLOCK
  5
2E4
330
2DA
100
AcDbEntity
  8
0
100
AcDbBlockBegin
  2
*D13
 70
     1
 10
0.0
 20
0.0
 30
0.0
  3
*D13
  1

  0
LINE
  5
2DB
330
2DA
100
AcDbEntity
  8
0
 62
   123
100
AcDbLine
 10
-10347.30179758303
 20
-2362.592489761646
 30
0.0
 11
-10313.23693421972
 21
-2362.592489761646
 31
0.0
  0
LINE
  5
2DC
330
2DA
100
AcDbEntity
  8
0
 62
   123
100
AcDbLine
 10
-10347.30179758303
 20
-2431.596305106117
 30
0.0
 11
-10313.23693421972
 21
-2431.596305106117
 31
0.0
  0
LINE
  5
2DD
330
2DA
100
AcDbEntity
  8
0
 62
   123
100
AcDbLine
 10
-10313.83693421972
 20
-2365.092489761646
 30
0.0
 11
-10313.83693421972
 21
-2429.096305106117
 31
0.0
  0
SOLID
  5
2DE
330
2DA
100
AcDbEntity
  8
0
 62
   123
100
AcDbTrace
 10
-10314.25360088638
 20
-2365.092489761646
 30
0.0
 11
-10313.42026755305
 21
-2365.092489761646
 31
0.0
 12
-10313.83693421972
 22
-2362.592489761646
 32
0.0
 13
-10313.83693421972
 23
-2362.592489761646
 33
0.0
  0
SOLID
  5
2DF
330
2DA
100
AcDbEntity
  8
0
 62
   123
100
AcDbTrace
 10
-10314.25360088638
 20
-2429.096305106117
 30
0.0
 11
-10313.42026755305
 21
-2429.096305106117
 31
0.0
 12
-10313.83693421972
 22
-2431.596305106117
 32
0.0
 13
-10313.83693421972
 23
-2431.596305106117
 33
0.0
  0
MTEXT
  5
2E0
330
2DA
100
AcDbEntity
  8
0
 62
     3
100
AcDbMText
 10
-10316.33693421972
 20
-2398.678020062383
 30
0.0
 40
3.0
 41
0.0
 71
     5
 72
     1
  1
\A1;%%C69
 11
0.0000000000000001
 21
1.0
 31
0.0
1001
ACAD
1000
MTEXTBEGIN
1070
    73
1070
     1
1070
    44
1040
1.0
1070
    74
1070
     0
1000
MTEXTEND
1000
MTEXTBEGIN
1070
    73
1070
     1
1070
    44
1040
1.0
1070
    74
1070
     0
1000
MTEXTEND
1000
MTEXTBEGIN
1070
    73
1070
     1
1070
    44
1040
1.0
1070
    74
1070
     0
1000
MTEXTEND
  0
POINT
  5
2E1
330
2DA
100
AcDbEntity
  8
DEFPOINTS
 62
     0
100
AcDbPoint
 10
-10348.30179758303
 20
-2362.592489761646
 30
0.0
  0
POINT
  5
2E2
330
2DA
100
AcDbEntity
  8
DEFPOINTS
 62
     0
100
AcDbPoint
 10
-10348.30179758303
 20
-2431.596305106117
 30
0.0
  0
POINT
  5
2E3
330
2DA
100
AcDbEntity
  8
DEFPOINTS
 62
     0
100
AcDbPoint
 10
-10313.83693421972
 20
-2431.596305106117
 30
0.0
  0
ENDBLK
  5
2E5
330
2DA
100
AcDbEntity
  8
0
100
AcDbBlockEnd
  0
BLOCK
  5
2D5
330
2CB
100
AcDbEntity
  8
0
100
AcDbBlockBegin
  2
*D14
 70
     1
 10
0.0
 20
0.0
 30
0.0
  3
*D14
  1

  0
LINE
  5
2CC
330
2CB
100
AcDbEntity
  8
0
 62
   123
100
AcDbLine
 10
-10336.80213698795
 20
-2373.59439743388
 30
0.0
 11
-10322.12064346224
 21
-2373.59439743388
 31
0.0
  0
LINE
  5
2CD
330
2CB
100
AcDbEntity
  8
0
 62
   123
100
AcDbLine
 10
-10336.80213698795
 20
-2420.59439743388
 30
0.0
 11
-10322.12064346224
 21
-2420.59439743388
 31
0.0
  0
LINE
  5
2CE
330
2CB
100
AcDbEntity
  8
0
 62
   123
100
AcDbLine
 10
-10322.72064346225
 20
-2376.094397433881
 30
0.0
 11
-10322.72064346225
 21
-2418.09439743388
 31
0.0
  0
SOLID
  5
2CF
330
2CB
100
AcDbEntity
  8
0
 62
   123
100
AcDbTrace
 10
-10323.13731012891
 20
-2376.094397433881
 30
0.0
 11
-10322.30397679557
 21
-2376.094397433881
 31
0.0
 12
-10322.72064346225
 22
-2373.59439743388
 32
0.0
 13
-10322.72064346225
 23
-2373.59439743388
 33
0.0
  0
SOLID
  5
2D0
330
2CB
100
AcDbEntity
  8
0
 62
   123
100
AcDbTrace
 10
-10323.13731012891
 20
-2418.09439743388
 30
0.0
 11
-10322.30397679557
 21
-2418.09439743388
 31
0.0
 12
-10322.72064346225
 22
-2420.59439743388
 32
0.0
 13
-10322.72064346225
 23
-2420.59439743388
 33
0.0
  0
MTEXT
  5
2D1
330
2CB
100
AcDbEntity
  8
0
 62
     3
100
AcDbMText
 10
-10325.22064346224
 20
-2399.388147433881
 30
0.0
 40
3.0
 41
0.0
 71
     5
 72
     1
  1
\A1;%%C47
 11
0.0000000000000001
 21
1.0
 31
0.0
1001
ACAD
1000
MTEXTBEGIN
1070
    73
1070
     1
1070
    44
1040
1.0
1070
    74
1070
     0
1000
MTEXTEND
1000
MTEXTBEGIN
1070
    73
1070
     1
1070
    44
1040
1.0
1070
    74
1070
     0
1000
MTEXTEND
1000
MTEXTBEGIN
1070
    73
1070
     1
1070
    44
1040
1.0
1070
    74
1070
     0
1000
MTEXTEND
  0
POINT
  5
2D2
330
2CB
100
AcDbEntity
  8
DEFPOINTS
 62
     0
100
AcDbPoint
 10
-10337.80213698795
 20
-2373.59439743388
 30
0.0
  0
POINT
  5
2D3
330
2CB
100
AcDbEntity
  8
DEFPOINTS
 62
     0
100
AcDbPoint
 10
-10337.80213698795
 20
-2420.59439743388
 30
0.0
  0
POINT
  5
2D4
330
2CB
100
AcDbEntity
  8
DEFPOINTS
 62
     0
100
AcDbPoint
 10
-10322.72064346225
 20
-2420.59439743388
 30
0.0
  0
ENDBLK
  5
2D6
330
2CB
100
AcDbEntity
  8
0
100
AcDbBlockEnd
  0
BLOCK
  5
23F
330
235
100
AcDbEntity
  8
0
100
AcDbBlockBegin
  2
*D15
 70
     1
 10
0.0
 20
0.0
 30
0.0
  3
*D15
  1

  0
LINE
  5
236
330
235
100
AcDbEntity
  8
0
 62
   123
100
AcDbLine
 10
-10464.80213698794
 20
-2351.886064100548
 30
0.0
 11
-10464.80213698794
 21
-2350.489098495946
 31
0.0
  0
LINE
  5
237
330
235
100
AcDbEntity
  8
0
 62
   123
100
AcDbLine
 10
-10457.80213698795
 20
-2362.495660092352
 30
0.0
 11
-10457.80213698795
 21
-2350.489098495946
 31
0.0
  0
LINE
  5
238
330
235
100
AcDbEntity
  8
0
 62
   123
100
AcDbLine
 10
-10462.30213698795
 20
-2351.089098495946
 30
0.0
 11
-10460.30213698795
 21
-2351.089098495946
 31
0.0
  0
SOLID
  5
239
330
235
100
AcDbEntity
  8
0
 62
   123
100
AcDbTrace
 10
-10462.30213698795
 20
-2350.672431829278
 30
0.0
 11
-10462.30213698795
 21
-2351.505765162612
 31
0.0
 12
-10464.80213698794
 22
-2351.089098495946
 32
0.0
 13
-10464.80213698794
 23
-2351.089098495946
 33
0.0
  0
SOLID
  5
23A
330
235
100
AcDbEntity
  8
0
 62
   123
100
AcDbTrace
 10
-10460.30213698795
 20
-2350.672431829278
 30
0.0
 11
-10460.30213698795
 21
-2351.505765162612
 31
0.0
 12
-10457.80213698795
 22
-2351.089098495946
 32
0.0
 13
-10457.80213698795
 23
-2351.089098495946
 33
0.0
  0
MTEXT
  5
23B
330
235
100
AcDbEntity
  8
0
 62
     3
100
AcDbMText
 10
-10461.30213698795
 20
-2348.589098495946
 30
0.0
 40
3.0
 41
0.0
 71
     5
 72
     1
  1
\A1;7
1001
ACAD
1000
MTEXTBEGIN
1070
    73
1070
     1
1070
    44
1040
1.0
1070
    74
1070
     0
1000
MTEXTEND
1000
MTEXTBEGIN
1070
    73
1070
     1
1070
    44
1040
1.0
1070
    74
1070
     0
1000
MTEXTEND
1000
MTEXTBEGIN
1070
    73
1070
     1
1070
    44
1040
1.0
1070
    74
1070
     0
1000
MTEXTEND
  0
POINT
  5
23C
330
235
100
AcDbEntity
  8
DEFPOINTS
 62
     0
100
AcDbPoint
 10
-10464.80213698794
 20
-2352.886064100548
 30
0.0
  0
POINT
  5
23D
330
235
100
AcDbEntity
  8
DEFPOINTS
 62
     0
100
AcDbPoint
 10
-10457.80213698795
 20
-2363.495660092352
 30
0.0
  0
POINT
  5
23E
330
235
100
AcDbEntity
  8
DEFPOINTS
 62
     0
100
AcDbPoint
 10
-10457.80213698795
 20
-2351.089098495946
 30
0.0
  0
ENDBLK
  5
240
330
235
100
AcDbEntity
  8
0
100
AcDbBlockEnd
  0
BLOCK
  5
D9
330
CD
100
AcDbEntity
  8
0
100
AcDbBlockBegin
  2
*D16
 70
     1
 10
0.0
 20
0.0
 30
0.0
  3
*D16
  1

  0
LINE
  5
CE
330
CD
100
AcDbEntity
  8
0
 62
   123
100
AcDbLine
 10
-10570.46923467699
 20
-2604.449188601178
 30
0.0
 11
-10570.46923467699
 21
-2621.668174984235
 31
0.0
  0
LINE
  5
CF
330
CD
100
AcDbEntity
  8
0
 62
   123
100
AcDbLine
 10
-10551.83151123773
 20
-2606.396920295777
 30
0.0
 11
-10547.40616729815
 21
-2617.080645652874
 31
0.0
  0
ARC
  5
D0
330
CD
100
AcDbEntity
  8
0
 62
   123
100
AcDbCircle
 10
-10570.46923467699
 20
-2561.401475596966
 30
0.0
 40
59.66669938726835
100
AcDbArc
 50
272.4008354753674
 51
290.0991645246303
  0
SOLID
  5
D1
330
CD
100
AcDbEntity
  8
0
 62
   123
100
AcDbTrace
 10
-10567.96105430459
 20
-2621.43237593243
 30
0.0
 11
-10567.97851239557
 21
-2620.59922549013
 31
0.0
 12
-10570.46923467699
 22
-2621.068174984233
 32
0.0
 13
-10570.46923467699
 23
-2621.068174984233
 33
0.0
  0
SOLID
  5
D2
330
CD
100
AcDbEntity
  8
0
 62
   123
100
AcDbTrace
 10
-10550.11636389654
 20
-2617.046223245701
 30
0.0
 11
-10549.81366019854
 21
-2617.822634809023
 31
0.0
 12
-10547.63577735757
 22
-2616.526317933367
 32
0.0
 13
-10547.63577735757
 23
-2616.526317933367
 33
0.0
  0
MTEXT
  5
D3
330
CD
100
AcDbEntity
  8
0
 62
     3
100
AcDbMText
 10
-10559.37230497693
 20
-2617.189508519405
 30
0.0
 40
3.0
 41
0.0
 71
     5
 72
     1
  1
\A1;22°30'
 11
0.9807852804032339
 21
0.1950903220161111
 31
0.0
1001
ACAD
1000
MTEXTBEGIN
1070
    73
1070
     1
1070
    44
1040
1.0
1070
    74
1070
     0
1000
MTEXTEND
1000
MTEXTBEGIN
1070
    73
1070
     1
1070
    44
1040
1.0
1070
    74
1070
     0
1000
MTEXTEND
1000
MTEXTBEGIN
1070
    73
1070
     1
1070
    44
1040
1.0
1070
    74
1070
     0
1000
MTEXTEND
  0
POINT
  5
D4
330
CD
100
AcDbEntity
  8
DEFPOINTS
 62
     0
100
AcDbPoint
 10
-10562.68116760362
 20
-2620.55771809961
 30
0.0
  0
POINT
  5
D5
330
CD
100
AcDbEntity
  8
DEFPOINTS
 62
     0
100
AcDbPoint
 10
-10570.46923467699
 20
-2603.449188601178
 30
0.0
  0
POINT
  5
D6
330
CD
100
AcDbEntity
  8
DEFPOINTS
 62
     0
100
AcDbPoint
 10
-10570.46923467698
 20
-2561.401475596973
 30
0.0
  0
POINT
  5
D7
330
CD
100
AcDbEntity
  8
DEFPOINTS
 62
     0
100
AcDbPoint
 10
-10552.21419467009
 20
-2605.473040763266
 30
0.0
  0
POINT
  5
D8
330
CD
100
AcDbEntity
  8
DEFPOINTS
 62
     0
100
AcDbPoint
 10
-10570.46923467699
 20
-2519.353762592777
 30
0.0
  0
ENDBLK
  5
DA
330
CD
100
AcDbEntity
  8
0
100
AcDbBlockEnd
  0
BLOCK
  5
17D
330
173
100
AcDbEntity
  8
0
100
AcDbBlockBegin
  2
*D17
 70
     1
 10
0.0
 20
0.0
 30
0.0
  3
*D17
  1

  0
LINE
  5
174
330
173
100
AcDbEntity
  8
0
 62
   123
100
AcDbLine
 10
-10605.46923467699
 20
-2530.401475596974
 30
0.0
 11
-10605.46923467699
 21
-2513.233680471068
 31
0.0
  0
LINE
  5
175
330
173
100
AcDbEntity
  8
0
 62
   123
100
AcDbLine
 10
-10535.46923467699
 20
-2530.401475596974
 30
0.0
 11
-10535.46923467699
 21
-2513.233680471068
 31
0.0
  0
LINE
  5
176
330
173
100
AcDbEntity
  8
0
 62
   123
100
AcDbLine
 10
-10602.96923467699
 20
-2513.833680471067
 30
0.0
 11
-10537.96923467699
 21
-2513.833680471067
 31
0.0
  0
SOLID
  5
177
330
173
100
AcDbEntity
  8
0
 62
   123
100
AcDbTrace
 10
-10602.96923467699
 20
-2513.417013804401
 30
0.0
 11
-10602.96923467699
 21
-2514.250347137734
 31
0.0
 12
-10605.46923467699
 22
-2513.833680471067
 32
0.0
 13
-10605.46923467699
 23
-2513.833680471067
 33
0.0
  0
SOLID
  5
178
330
173
100
AcDbEntity
  8
0
 62
   123
100
AcDbTrace
 10
-10537.96923467699
 20
-2513.417013804401
 30
0.0
 11
-10537.96923467699
 21
-2514.250347137734
 31
0.0
 12
-10535.46923467699
 22
-2513.833680471067
 32
0.0
 13
-10535.46923467699
 23
-2513.833680471067
 33
0.0
  0
MTEXT
  5
179
330
173
100
AcDbEntity
  8
0
 62
     3
100
AcDbMText
 10
-10570.46923467699
 20
-2511.333680471068
 30
0.0
 40
3.0
 41
0.0
 71
     5
 72
     1
  1
\A1;70
1001
ACAD
1000
MTEXTBEGIN
1070
    73
1070
     1
1070
    44
1040
1.0
1070
    74
1070
     0
1000
MTEXTEND
1000
MTEXTBEGIN
1070
    73
1070
     1
1070
    44
1040
1.0
1070
    74
1070
     0
1000
MTEXTEND
1000
MTEXTBEGIN
1070
    73
1070
     1
1070
    44
1040
1.0
1070
    74
1070
     0
1000
MTEXTEND
  0
POINT
  5
17A
330
173
100
AcDbEntity
  8
DEFPOINTS
 62
     0
100
AcDbPoint
 10
-10605.46923467699
 20
-2531.401475596974
 30
0.0
  0
POINT
  5
17B
330
173
100
AcDbEntity
  8
DEFPOINTS
 62
     0
100
AcDbPoint
 10
-10535.46923467699
 20
-2531.401475596974
 30
0.0
  0
POINT
  5
17C
330
173
100
AcDbEntity
  8
DEFPOINTS
 62
     0
100
AcDbPoint
 10
-10535.46923467699
 20
-2513.833680471067
 30
0.0
  0
ENDBLK
  5
17E
330
173
100
AcDbEntity
  8
0
100
AcDbBlockEnd
  0
BLOCK
  5
1E8
330
1DE
100
AcDbEntity
  8
0
100
AcDbBlockBegin
  2
*D18
 70
     1
 10
0.0
 20
0.0
 30
0.0
  3
*D18
  1

  0
LINE
  5
1DF
330
1DE
100
AcDbEntity
  8
0
 62
   123
100
AcDbLine
 10
-10334.05451021647
 20
-2526.899567924743
 30
0.0
 11
-10299.98964685314
 21
-2526.899567924743
 31
0.0
  0
LINE
  5
1E0
330
1DE
100
AcDbEntity
  8
0
 62
   123
100
AcDbLine
 10
-10334.05451021647
 20
-2595.903383269215
 30
0.0
 11
-10299.98964685314
 21
-2595.903383269215
 31
0.0
  0
LINE
  5
1E1
330
1DE
100
AcDbEntity
  8
0
 62
   123
100
AcDbLine
 10
-10300.58964685317
 20
-2529.399567924743
 30
0.0
 11
-10300.58964685317
 21
-2593.403383269214
 31
0.0
  0
SOLID
  5
1E2
330
1DE
100
AcDbEntity
  8
0
 62
   123
100
AcDbTrace
 10
-10301.00631351982
 20
-2529.399567924743
 30
0.0
 11
-10300.1729801865
 21
-2529.399567924743
 31
0.0
 12
-10300.58964685317
 22
-2526.899567924743
 32
0.0
 13
-10300.58964685317
 23
-2526.899567924743
 33
0.0
  0
SOLID
  5
1E3
330
1DE
100
AcDbEntity
  8
0
 62
   123
100
AcDbTrace
 10
-10301.00631351982
 20
-2593.403383269214
 30
0.0
 11
-10300.1729801865
 21
-2593.403383269214
 31
0.0
 12
-10300.58964685317
 22
-2595.903383269215
 32
0.0
 13
-10300.58964685317
 23
-2595.903383269215
 33
0.0
  0
MTEXT
  5
1E4
330
1DE
100
AcDbEntity
  8
0
 62
     3
100
AcDbMText
 10
-10303.08964685314
 20
-2562.985098225481
 30
0.0
 40
3.0
 41
0.0
 71
     5
 72
     1
  1
\A1;%%C69
 11
0.0000000000000001
 21
1.0
 31
0.0
1001
ACAD
1000
MTEXTBEGIN
1070
    73
1070
     1
1070
    44
1040
1.0
1070
    74
1070
     0
1000
MTEXTEND
1000
MTEXTBEGIN
1070
    73
1070
     1
1070
    44
1040
1.0
1070
    74
1070
     0
1000
MTEXTEND
1000
MTEXTBEGIN
1070
    73
1070
     1
1070
    44
1040
1.0
1070
    74
1070
     0
1000
MTEXTEND
  0
POINT
  5
1E5
330
1DE
100
AcDbEntity
  8
DEFPOINTS
 62
     0
100
AcDbPoint
 10
-10335.05451021647
 20
-2526.899567924743
 30
0.0
  0
POINT
  5
1E6
330
1DE
100
AcDbEntity
  8
DEFPOINTS
 62
     0
100
AcDbPoint
 10
-10335.05451021647
 20
-2595.903383269215
 30
0.0
  0
POINT
  5
1E7
330
1DE
100
AcDbEntity
  8
DEFPOINTS
 62
     0
100
AcDbPoint
 10
-10300.58964685317
 20
-2595.903383269215
 30
0.0
  0
ENDBLK
  5
1E9
330
1DE
100
AcDbEntity
  8
0
100
AcDbBlockEnd
  0
BLOCK
  5
1D6
330
1CC
100
AcDbEntity
  8
0
100
AcDbBlockBegin
  2
*D19
 70
     1
 10
0.0
 20
0.0
 30
0.0
  3
*D19
  1

  0
LINE
  5
1CD
330
1CC
100
AcDbEntity
  8
0
 62
   123
100
AcDbLine
 10
-10323.55484962139
 20
-2537.901475596978
 30
0.0
 11
-10308.87335609569
 21
-2537.901475596978
 31
0.0
  0
LINE
  5
1CE
330
1CC
100
AcDbEntity
  8
0
 62
   123
100
AcDbLine
 10
-10323.55484962139
 20
-2584.901475596978
 30
0.0
 11
-10308.87335609569
 21
-2584.901475596978
 31
0.0
  0
LINE
  5
1CF
330
1CC
100
AcDbEntity
  8
0
 62
   123
100
AcDbLine
 10
-10309.47335609569
 20
-2540.401475596978
 30
0.0
 11
-10309.47335609569
 21
-2582.401475596978
 31
0.0
  0
SOLID
  5
1D0
330
1CC
100
AcDbEntity
  8
0
 62
   123
100
AcDbTrace
 10
-10309.89002276236
 20
-2540.401475596978
 30
0.0
 11
-10309.05668942903
 21
-2540.401475596978
 31
0.0
 12
-10309.47335609569
 22
-2537.901475596978
 32
0.0
 13
-10309.47335609569
 23
-2537.901475596978
 33
0.0
  0
SOLID
  5
1D1
330
1CC
100
AcDbEntity
  8
0
 62
   123
100
AcDbTrace
 10
-10309.89002276236
 20
-2582.401475596978
 30
0.0
 11
-10309.05668942903
 21
-2582.401475596978
 31
0.0
 12
-10309.47335609569
 22
-2584.901475596978
 32
0.0
 13
-10309.47335609569
 23
-2584.901475596978
 33
0.0
  0
MTEXT
  5
1D2
330
1CC
100
AcDbEntity
  8
0
 62
     3
100
AcDbMText
 10
-10311.97335609569
 20
-2563.695225596979
 30
0.0
 40
3.0
 41
0.0
 71
     5
 72
     1
  1
\A1;%%C47
 11
0.0000000000000001
 21
1.0
 31
0.0
1001
ACAD
1000
MTEXTBEGIN
1070
    73
1070
     1
1070
    44
1040
1.0
1070
    74
1070
     0
1000
MTEXTEND
1000
MTEXTBEGIN
1070
    73
1070
     1
1070
    44
1040
1.0
1070
    74
1070
     0
1000
MTEXTEND
1000
MTEXTBEGIN
1070
    73
1070
     1
1070
    44
1040
1.0
1070
    74
1070
     0
1000
MTEXTEND
  0
POINT
  5
1D3
330
1CC
100
AcDbEntity
  8
DEFPOINTS
 62
     0
100
AcDbPoint
 10
-10324.55484962139
 20
-2537.901475596978
 30
0.0
  0
POINT
  5
1D4
330
1CC
100
AcDbEntity
  8
DEFPOINTS
 62
     0
100
AcDbPoint
 10
-10324.55484962139
 20
-2584.901475596978
 30
0.0
  0
POINT
  5
1D5
330
1CC
100
AcDbEntity
  8
DEFPOINTS
 62
     0
100
AcDbPoint
 10
-10309.47335609569
 20
-2584.901475596978
 30
0.0
  0
ENDBLK
  5
1D7
330
1CC
100
AcDbEntity
  8
0
100
AcDbBlockEnd
  0
BLOCK
  5
F6
330
EC
100
AcDbEntity
  8
0
100
AcDbBlockBegin
  2
*D20
 70
     1
 10
0.0
 20
0.0
 30
0.0
  3
*D20
  1

  0
LINE
  5
ED
330
EC
100
AcDbEntity
  8
0
 62
   123
100
AcDbLine
 10
-10451.55484962139
 20
-2516.193142263645
 30
0.0
 11
-10451.55484962139
 21
-2511.058285827572
 31
0.0
  0
LINE
  5
EE
330
EC
100
AcDbEntity
  8
0
 62
   123
100
AcDbLine
 10
-10444.55484962139
 20
-2526.80273825545
 30
0.0
 11
-10444.55484962139
 21
-2511.058285827572
 31
0.0
  0
LINE
  5
EF
330
EC
100
AcDbEntity
  8
0
 62
   123
100
AcDbLine
 10
-10449.05484962139
 20
-2511.658285827572
 30
0.0
 11
-10447.05484962139
 21
-2511.658285827572
 31
0.0
  0
SOLID
  5
F0
330
EC
100
AcDbEntity
  8
0
 62
   123
100
AcDbTrace
 10
-10449.05484962139
 20
-2511.241619160906
 30
0.0
 11
-10449.05484962139
 21
-2512.074952494239
 31
0.0
 12
-10451.55484962139
 22
-2511.658285827572
 32
0.0
 13
-10451.55484962139
 23
-2511.658285827572
 33
0.0
  0
SOLID
  5
F1
330
EC
100
AcDbEntity
  8
0
 62
   123
100
AcDbTrace
 10
-10447.05484962139
 20
-2511.241619160906
 30
0.0
 11
-10447.05484962139
 21
-2512.074952494239
 31
0.0
 12
-10444.55484962139
 22
-2511.658285827572
 32
0.0
 13
-10444.55484962139
 23
-2511.658285827572
 33
0.0
  0
MTEXT
  5
F2
330
EC
100
AcDbEntity
  8
0
 62
     3
100
AcDbMText
 10
-10448.05484962139
 20
-2509.158285827572
 30
0.0
 40
3.0
 41
0.0
 71
     5
 72
     1
  1
\A1;7
1001
ACAD
1000
MTEXTBEGIN
1070
    73
1070
     1
1070
    44
1040
1.0
1070
    74
1070
     0
1000
MTEXTEND
1000
MTEXTBEGIN
1070
    73
1070
     1
1070
    44
1040
1.0
1070
    74
1070
     0
1000
MTEXTEND
1000
MTEXTBEGIN
1070
    73
1070
     1
1070
    44
1040
1.0
1070
    74
1070
     0
1000
MTEXTEND
  0
POINT
  5
F3
330
EC
100
AcDbEntity
  8
DEFPOINTS
 62
     0
100
AcDbPoint
 10
-10451.55484962139
 20
-2517.193142263645
 30
0.0
  0
POINT
  5
F4
330
EC
100
AcDbEntity
  8
DEFPOINTS
 62
     0
100
AcDbPoint
 10
-10444.55484962139
 20
-2527.80273825545
 30
0.0
  0
POINT
  5
F5
330
EC
100
AcDbEntity
  8
DEFPOINTS
 62
     0
100
AcDbPoint
 10
-10444.55484962139
 20
-2511.658285827572
 30
0.0
  0
ENDBLK
  5
F7
330
EC
100
AcDbEntity
  8
0
100
AcDbBlockEnd
  0
BLOCK
  5
1B8
330
1AE
100
AcDbEntity
  8
0
100
AcDbBlockBegin
  2
*D21
 70
     1
 10
0.0
 20
0.0
 30
0.0
  3
*D21
  1

  0
LINE
  5
1AF
330
1AE
100
AcDbEntity
  8
0
 62
   123
100
AcDbLine
 10
-10323.55484962139
 20
-2537.901475596978
 30
0.0
 11
-10323.55484962139
 21
-2500.115209695978
 31
0.0
  0
LINE
  5
1B0
330
1AE
100
AcDbEntity
  8
0
 62
   123
100
AcDbLine
 10
-10333.55484962139
 20
-2527.431475596979
 30
0.0
 11
-10333.55484962139
 21
-2500.115209695978
 31
0.0
  0
LINE
  5
1B1
330
1AE
100
AcDbEntity
  8
0
 62
   123
100
AcDbLine
 10
-10326.05484962139
 20
-2500.715209695978
 30
0.0
 11
-10331.05484962139
 21
-2500.715209695978
 31
0.0
  0
SOLID
  5
1B2
330
1AE
100
AcDbEntity
  8
0
 62
   123
100
AcDbTrace
 10
-10326.05484962139
 20
-2500.298543029311
 30
0.0
 11
-10326.05484962139
 21
-2501.131876362644
 31
0.0
 12
-10323.55484962139
 22
-2500.715209695978
 32
0.0
 13
-10323.55484962139
 23
-2500.715209695978
 33
0.0
  0
SOLID
  5
1B3
330
1AE
100
AcDbEntity
  8
0
 62
   123
100
AcDbTrace
 10
-10331.05484962139
 20
-2500.298543029311
 30
0.0
 11
-10331.05484962139
 21
-2501.131876362644
 31
0.0
 12
-10333.55484962139
 22
-2500.715209695978
 32
0.0
 13
-10333.55484962139
 23
-2500.715209695978
 33
0.0
  0
MTEXT
  5
1B4
330
1AE
100
AcDbEntity
  8
0
 62
     3
100
AcDbMText
 10
-10329.46122108795
 20
-2498.215209695976
 30
0.0
 40
3.0
 41
0.0
 71
     5
 72
     1
  1
\A1;10
1001
ACAD
1000
MTEXTBEGIN
1070
    73
1070
     1
1070
    44
1040
1.0
1070
    74
1070
     0
1000
MTEXTEND
1000
MTEXTBEGIN
1070
    73
1070
     1
1070
    44
1040
1.0
1070
    74
1070
     0
1000
MTEXTEND
1000
MTEXTBEGIN
1070
    73
1070
     1
1070
    44
1040
1.0
1070
    74
1070
     0
1000
MTEXTEND
  0
POINT
  5
1B5
330
1AE
100
AcDbEntity
  8
DEFPOINTS
 62
     0
100
AcDbPoint
 10
-10323.55484962139
 20
-2538.901475596978
 30
0.0
  0
POINT
  5
1B6
330
1AE
100
AcDbEntity
  8
DEFPOINTS
 62
     0
100
AcDbPoint
 10
-10333.55484962139
 20
-2528.431475596979
 30
0.0
  0
POINT
  5
1B7
330
1AE
100
AcDbEntity
  8
DEFPOINTS
 62
     0
100
AcDbPoint
 10
-10333.55484962139
 20
-2500.715209695978
 30
0.0
  0
ENDBLK
  5
1B9
330
1AE
100
AcDbEntity
  8
0
100
AcDbBlockEnd
  0
BLOCK
  5
2B0
330
2A6
100
AcDbEntity
  8
0
100
AcDbBlockBegin
  2
*D22
 70
     1
 10
0.0
 20
0.0
 30
0.0
  3
*D22
  1

  0
LINE
  5
2A7
330
2A6
100
AcDbEntity
  8
0
 62
   123
100
AcDbLine
 10
-10336.80213698795
 20
-2373.59439743388
 30
0.0
 11
-10336.80213698795
 21
-2339.165671045968
 31
0.0
  0
LINE
  5
2A8
330
2A6
100
AcDbEntity
  8
0
 62
   123
100
AcDbLine
 10
-10346.80213698794
 20
-2363.12439743388
 30
0.0
 11
-10346.80213698794
 21
-2339.165671045968
 31
0.0
  0
LINE
  5
2A9
330
2A6
100
AcDbEntity
  8
0
 62
   123
100
AcDbLine
 10
-10339.30213698795
 20
-2339.76567104597
 30
0.0
 11
-10344.30213698795
 21
-2339.76567104597
 31
0.0
  0
SOLID
  5
2AA
330
2A6
100
AcDbEntity
  8
0
 62
   123
100
AcDbTrace
 10
-10339.30213698795
 20
-2339.349004379303
 30
0.0
 11
-10339.30213698795
 21
-2340.182337712636
 31
0.0
 12
-10336.80213698795
 22
-2339.76567104597
 32
0.0
 13
-10336.80213698795
 23
-2339.76567104597
 33
0.0
  0
SOLID
  5
2AB
330
2A6
100
AcDbEntity
  8
0
 62
   123
100
AcDbTrace
 10
-10344.30213698795
 20
-2339.349004379303
 30
0.0
 11
-10344.30213698795
 21
-2340.182337712636
 31
0.0
 12
-10346.80213698794
 22
-2339.76567104597
 32
0.0
 13
-10346.80213698794
 23
-2339.76567104597
 33
0.0
  0
MTEXT
  5
2AC
330
2A6
100
AcDbEntity
  8
0
 62
     3
100
AcDbMText
 10
-10341.80213698794
 20
-2337.26567104597
 30
0.0
 40
3.0
 41
0.0
 71
     5
 72
     1
  1
\A1;10
1001
ACAD
1000
MTEXTBEGIN
1070
    73
1070
     1
1070
    44
1040
1.0
1070
    74
1070
     0
1000
MTEXTEND
1000
MTEXTBEGIN
1070
    73
1070
     1
1070
    44
1040
1.0
1070
    74
1070
     0
1000
MTEXTEND
1000
MTEXTBEGIN
1070
    73
1070
     1
1070
    44
1040
1.0
1070
    74
1070
     0
1000
MTEXTEND
  0
POINT
  5
2AD
330
2A6
100
AcDbEntity
  8
DEFPOINTS
 62
     0
100
AcDbPoint
 10
-10336.80213698795
 20
-2374.594397433881
 30
0.0
  0
POINT
  5
2AE
330
2A6
100
AcDbEntity
  8
DEFPOINTS
 62
     0
100
AcDbPoint
 10
-10346.80213698794
 20
-2364.124397433881
 30
0.0
  0
POINT
  5
2AF
330
2A6
100
AcDbEntity
  8
DEFPOINTS
 62
     0
100
AcDbPoint
 10
-10346.80213698794
 20
-2339.76567104597
 30
0.0
  0
ENDBLK
  5
2B1
330
2A6
100
AcDbEntity
  8
0
100
AcDbBlockEnd
  0
BLOCK
  5
2FA
330
2EE
100
AcDbEntity
  8
0
100
AcDbBlockBegin
  2
*D23
 70
     1
 10
0.0
 20
0.0
 30
0.0
  3
*D23
  1

  0
LINE
  5
4B2
330
2EE
100
AcDbEntity
  8
0
 62
   123
100
AcDbLine
 10
57.43235237267981
 20
183.939166072951
 30
0.0
 11
57.43235237267981
 21
166.7201796898951
 31
0.0
  0
LINE
  5
4B3
330
2EE
100
AcDbEntity
  8
0
 62
   123
100
AcDbLine
 10
76.0700758119371
 20
181.9914343783499
 30
0.0
 11
80.49541975151528
 21
171.3077090212567
 31
0.0
  0
ARC
  5
4B4
330
2EE
100
AcDbEntity
  8
0
 62
   123
100
AcDbCircle
 10
57.43235237267981
 20
226.9868790771551
 30
0.0
 40
59.66669938725996
100
AcDbArc
 50
272.4008354753682
 51
290.0991645246356
  0
SOLID
  5
4B5
330
2EE
100
AcDbEntity
  8
0
 62
   123
100
AcDbTrace
 10
59.94053274507027
 20
166.9559787416999
 30
0.0
 11
59.92307465408546
 21
167.7891291839992
 31
0.0
 12
57.43235237267981
 22
167.3201796898951
 32
0.0
 13
57.43235237267981
 23
167.3201796898951
 33
0.0
  0
SOLID
  5
4B6
330
2EE
100
AcDbEntity
  8
0
 62
   123
100
AcDbTrace
 10
77.78522315312608
 20
171.342131428431
 30
0.0
 11
78.08792685112416
 21
170.5657198651074
 31
0.0
 12
80.26580969209618
 22
171.8620367407634
 32
0.0
 13
80.26580969209618
 23
171.8620367407634
 33
0.0
  0
MTEXT
  5
4B7
330
2EE
100
AcDbEntity
  8
0
 62
     3
100
AcDbMText
 10
68.52928207273683
 20
171.198846154724
 30
0.0
 40
3.0
 41
0.0
 71
     5
 72
     1
  1
\A1;22°30'
 11
0.980785280403224
 21
0.1950903220161616
 31
0.0
  0
POINT
  5
4B8
330
2EE
100
AcDbEntity
  8
DEFPOINTS
 62
     0
100
AcDbPoint
 10
65.22041944603869
 20
167.8306365745205
 30
0.0
  0
POINT
  5
4B9
330
2EE
100
AcDbEntity
  8
DEFPOINTS
 62
     0
100
AcDbPoint
 10
57.43235237267981
 20
184.939166072951
 30
0.0
  0
POINT
  5
4BA
330
2EE
100
AcDbEntity
  8
DEFPOINTS
 62
     0
100
AcDbPoint
 10
57.43235237267981
 20
226.9868790771551
 30
0.0
  0
POINT
  5
4BB
330
2EE
100
AcDbEntity
  8
DEFPOINTS
 62
     0
100
AcDbPoint
 10
75.68739237957196
 20
182.9153139108612
 30
0.0
  0
POINT
  5
4BC
330
2EE
100
AcDbEntity
  8
DEFPOINTS
 62
     0
100
AcDbPoint
 10
57.43235237267981
 20
269.0345920813509
 30
0.0
  0
ENDBLK
  5
2FB
330
2EE
100
AcDbEntity
  8
0
100
AcDbBlockEnd
  0
BLOCK
  5
306
330
2FC
100
AcDbEntity
  8
0
100
AcDbBlockBegin
  2
*D24
 70
     1
 10
0.0
 20
0.0
 30
0.0
  3
*D24
  1

  0
LINE
  5
2FD
330
2FC
100
AcDbEntity
  8
0
 62
   123
100
AcDbLine
 10
158.59721001316
 20
124.3660668150532
 30
0.0
 11
158.59721001316
 21
123.966066815053
 31
0.0
  0
LINE
  5
2FE
330
2FC
100
AcDbEntity
  8
0
 62
   123
100
AcDbLine
 10
276.5972100131603
 20
96.64980091405233
 30
0.0
 11
276.5972100131603
 21
123.966066815053
 31
0.0
  0
LINE
  5
2FF
330
2FC
100
AcDbEntity
  8
0
 62
   123
100
AcDbLine
 10
161.0972100131601
 20
123.3660668150531
 30
0.0
 11
274.0972100131603
 21
123.3660668150531
 31
0.0
  0
SOLID
  5
300
330
2FC
100
AcDbEntity
  8
0
 62
   123
100
AcDbTrace
 10
161.0972100131601
 20
123.7827334817199
 30
0.0
 11
161.0972100131601
 21
122.9494001483866
 31
0.0
 12
158.59721001316
 22
123.3660668150531
 32
0.0
 13
158.59721001316
 23
123.3660668150531
 33
0.0
  0
SOLID
  5
301
330
2FC
100
AcDbEntity
  8
0
 62
   123
100
AcDbTrace
 10
274.0972100131603
 20
123.7827334817199
 30
0.0
 11
274.0972100131603
 21
122.9494001483866
 31
0.0
 12
276.5972100131603
 22
123.3660668150531
 32
0.0
 13
276.5972100131603
 23
123.3660668150531
 33
0.0
  0
MTEXT
  5
302
330
2FC
100
AcDbEntity
  8
0
 62
     3
100
AcDbMText
 10
217.5972100131601
 20
125.8660668150532
 30
0.0
 40
3.0
 41
0.0
 71
     5
 72
     1
  1
\A1;118
1001
ACAD
1000
MTEXTBEGIN
1070
    73
1070
     1
1070
    44
1040
1.0
1070
    74
1070
     0
1000
MTEXTEND
1000
MTEXTBEGIN
1070
    73
1070
     1
1070
    44
1040
1.0
1070
    74
1070
     0
1000
MTEXTEND
1000
MTEXTBEGIN
1070
    73
1070
     1
1070
    44
1040
1.0
1070
    74
1070
     0
1000
MTEXTEND
  0
POINT
  5
303
330
2FC
100
AcDbEntity
  8
DEFPOINTS
 62
     0
100
AcDbPoint
 10
158.59721001316
 20
123.3660668150531
 30
0.0
  0
POINT
  5
304
330
2FC
100
AcDbEntity
  8
DEFPOINTS
 62
     0
100
AcDbPoint
 10
276.5972100131603
 20
95.64980091405232
 30
0.0
  0
POINT
  5
305
330
2FC
100
AcDbEntity
  8
DEFPOINTS
 62
     0
100
AcDbPoint
 10
276.5972100131603
 20
123.3660668150531
 30
0.0
  0
ENDBLK
  5
307
330
2FC
100
AcDbEntity
  8
0
100
AcDbBlockEnd
  0
BLOCK
  5
312
330
308
100
AcDbEntity
  8
0
100
AcDbBlockBegin
  2
*D25
 70
     1
 10
0.0
 20
0.0
 30
0.0
  3
*D25
  1

  0
LINE
  5
309
330
308
100
AcDbEntity
  8
0
 62
   123
100
AcDbLine
 10
4.682824957559205
 20
93.67980091405753
 30
0.0
 11
4.682824957559206
 21
110.8475960399642
 31
0.0
  0
LINE
  5
30A
330
308
100
AcDbEntity
  8
0
 62
   123
100
AcDbLine
 10
74.68282495755921
 20
93.67980091405753
 30
0.0
 11
74.68282495755921
 21
110.8475960399642
 31
0.0
  0
LINE
  5
30B
330
308
100
AcDbEntity
  8
0
 62
   123
100
AcDbLine
 10
7.182824957559206
 20
110.247596039964
 30
0.0
 11
72.18282495755921
 21
110.247596039964
 31
0.0
  0
SOLID
  5
30C
330
308
100
AcDbEntity
  8
0
 62
   123
100
AcDbTrace
 10
7.182824957559206
 20
110.6642627066309
 30
0.0
 11
7.182824957559206
 21
109.8309293732975
 31
0.0
 12
4.682824957559206
 22
110.247596039964
 32
0.0
 13
4.682824957559206
 23
110.247596039964
 33
0.0
  0
SOLID
  5
30D
330
308
100
AcDbEntity
  8
0
 62
   123
100
AcDbTrace
 10
72.18282495755921
 20
110.6642627066309
 30
0.0
 11
72.18282495755921
 21
109.8309293732975
 31
0.0
 12
74.68282495755921
 22
110.247596039964
 32
0.0
 13
74.68282495755921
 23
110.247596039964
 33
0.0
  0
MTEXT
  5
30E
330
308
100
AcDbEntity
  8
0
 62
     3
100
AcDbMText
 10
39.6828249575592
 20
112.7475960399642
 30
0.0
 40
3.0
 41
0.0
 71
     5
 72
     1
  1
\A1;70
1001
ACAD
1000
MTEXTBEGIN
1070
    73
1070
     1
1070
    44
1040
1.0
1070
    74
1070
     0
1000
MTEXTEND
1000
MTEXTBEGIN
1070
    73
1070
     1
1070
    44
1040
1.0
1070
    74
1070
     0
1000
MTEXTEND
1000
MTEXTBEGIN
1070
    73
1070
     1
1070
    44
1040
1.0
1070
    74
1070
     0
1000
MTEXTEND
  0
POINT
  5
30F
330
308
100
AcDbEntity
  8
DEFPOINTS
 62
     0
100
AcDbPoint
 10
4.682824957559205
 20
92.67980091405751
 30
0.0
  0
POINT
  5
310
330
308
100
AcDbEntity
  8
DEFPOINTS
 62
     0
100
AcDbPoint
 10
74.68282495755921
 20
92.67980091405751
 30
0.0
  0
POINT
  5
311
330
308
100
AcDbEntity
  8
DEFPOINTS
 62
     0
100
AcDbPoint
 10
74.68282495755921
 20
110.247596039964
 30
0.0
  0
ENDBLK
  5
313
330
308
100
AcDbEntity
  8
0
100
AcDbBlockEnd
  0
BLOCK
  5
31E
330
314
100
AcDbEntity
  8
0
100
AcDbBlockBegin
  2
*D26
 70
     1
 10
0.0
 20
0.0
 30
0.0
  3
*D26
  1

  0
LINE
  5
315
330
314
100
AcDbEntity
  8
0
 62
   123
100
AcDbLine
 10
155.59721001316
 20
94.67980091405298
 30
0.0
 11
93.88944192032106
 21
94.679800914053
 31
0.0
  0
LINE
  5
316
330
314
100
AcDbEntity
  8
0
 62
   123
100
AcDbLine
 10
154.1388107272794
 20
30.67980091405297
 30
0.0
 11
93.88944192032104
 21
30.67980091405298
 31
0.0
  0
LINE
  5
317
330
314
100
AcDbEntity
  8
0
 62
   123
100
AcDbLine
 10
94.48944192032106
 20
92.179800914053
 30
0.0
 11
94.48944192032106
 21
33.17980091405299
 31
0.0
  0
SOLID
  5
318
330
314
100
AcDbEntity
  8
0
 62
   123
100
AcDbTrace
 10
94.07277525365437
 20
92.179800914053
 30
0.0
 11
94.90610858698772
 21
92.179800914053
 31
0.0
 12
94.48944192032106
 22
94.679800914053
 32
0.0
 13
94.48944192032106
 23
94.679800914053
 33
0.0
  0
SOLID
  5
319
330
314
100
AcDbEntity
  8
0
 62
   123
100
AcDbTrace
 10
94.07277525365437
 20
33.17980091405299
 30
0.0
 11
94.90610858698772
 21
33.17980091405299
 31
0.0
 12
94.48944192032104
 22
30.67980091405298
 32
0.0
 13
94.48944192032104
 23
30.67980091405298
 33
0.0
  0
MTEXT
  5
31A
330
314
100
AcDbEntity
  8
0
 62
     3
100
AcDbMText
 10
90.53929192032105
 20
59.35095509009307
 30
0.0
 40
3.0
 41
0.0
 71
     5
 72
     1
  1
\A1;\A1;%%C64{\f??|b0|i0|c0|p49;\H0.7x;\S+0^ -0.03;\H1.429x;(h7)} 
 11
0.0000000000000001
 21
1.0
 31
0.0
1001
ACAD
1000
MTEXTBEGIN
1070
    73
1070
     1
1070
    44
1040
1.0
1070
    74
1070
     0
1000
MTEXTEND
1000
MTEXTBEGIN
1070
    73
1070
     1
1070
    44
1040
1.0
1070
    74
1070
     0
1000
MTEXTEND
1000
MTEXTBEGIN
1070
    73
1070
     1
1070
    44
1040
1.0
1070
    74
1070
     0
1000
MTEXTEND
  0
POINT
  5
31B
330
314
100
AcDbEntity
  8
DEFPOINTS
 62
     0
100
AcDbPoint
 10
156.59721001316
 20
94.67980091405298
 30
0.0
  0
POINT
  5
31C
330
314
100
AcDbEntity
  8
DEFPOINTS
 62
     0
100
AcDbPoint
 10
155.1388107272794
 20
30.67980091405297
 30
0.0
  0
POINT
  5
31D
330
314
100
AcDbEntity
  8
DEFPOINTS
 62
     0
100
AcDbPoint
 10
94.48944192032104
 20
30.67980091405298
 30
0.0
  0
ENDBLK
  5
31F
330
314
100
AcDbEntity
  8
0
100
AcDbBlockEnd
  0
BLOCK
  5
32A
330
320
100
AcDbEntity
  8
0
100
AcDbBlockBegin
  2
*D27
 70
     1
 10
0.0
 20
0.0
 30
0.0
  3
*D27
  1

  0
LINE
  5
321
330
320
100
AcDbEntity
  8
0
 62
   123
100
AcDbLine
 10
126.59721001316
 20
66.17969052859644
 30
0.0
 11
126.59721001316
 21
123.966066815053
 31
0.0
  0
LINE
  5
322
330
320
100
AcDbEntity
  8
0
 62
   123
100
AcDbLine
 10
158.59721001316
 20
98.67980091405298
 30
0.0
 11
158.59721001316
 21
123.966066815053
 31
0.0
  0
LINE
  5
323
330
320
100
AcDbEntity
  8
0
 62
   123
100
AcDbLine
 10
129.0972100131603
 20
123.3660668150531
 30
0.0
 11
156.0972100131603
 21
123.3660668150531
 31
0.0
  0
SOLID
  5
324
330
320
100
AcDbEntity
  8
0
 62
   123
100
AcDbTrace
 10
129.0972100131603
 20
123.7827334817199
 30
0.0
 11
129.0972100131603
 21
122.9494001483866
 31
0.0
 12
126.59721001316
 22
123.3660668150531
 32
0.0
 13
126.59721001316
 23
123.3660668150531
 33
0.0
  0
SOLID
  5
325
330
320
100
AcDbEntity
  8
0
 62
   123
100
AcDbTrace
 10
156.0972100131603
 20
123.7827334817199
 30
0.0
 11
156.0972100131603
 21
122.9494001483866
 31
0.0
 12
158.59721001316
 22
123.3660668150531
 32
0.0
 13
158.59721001316
 23
123.3660668150531
 33
0.0
  0
MTEXT
  5
326
330
320
100
AcDbEntity
  8
0
 62
     3
100
AcDbMText
 10
142.5972100131603
 20
125.8660668150532
 30
0.0
 40
3.0
 41
0.0
 71
     5
 72
     1
  1
\A1;32
1001
ACAD
1000
MTEXTBEGIN
1070
    73
1070
     1
1070
    44
1040
1.0
1070
    74
1070
     0
1000
MTEXTEND
1000
MTEXTBEGIN
1070
    73
1070
     1
1070
    44
1040
1.0
1070
    74
1070
     0
1000
MTEXTEND
1000
MTEXTBEGIN
1070
    73
1070
     1
1070
    44
1040
1.0
1070
    74
1070
     0
1000
MTEXTEND
  0
POINT
  5
327
330
320
100
AcDbEntity
  8
DEFPOINTS
 62
     0
100
AcDbPoint
 10
126.59721001316
 20
65.17969052859644
 30
0.0
  0
POINT
  5
328
330
320
100
AcDbEntity
  8
DEFPOINTS
 62
     0
100
AcDbPoint
 10
158.59721001316
 20
97.67980091405298
 30
0.0
  0
POINT
  5
329
330
320
100
AcDbEntity
  8
DEFPOINTS
 62
     0
100
AcDbPoint
 10
158.59721001316
 20
123.3660668150531
 30
0.0
  0
ENDBLK
  5
32B
330
320
100
AcDbEntity
  8
0
100
AcDbBlockEnd
  0
BLOCK
  5
338
330
32C
100
AcDbEntity
  8
0
100
AcDbBlockBegin
  2
*D28
 70
     1
 10
0.0
 20
0.0
 30
0.0
  3
*D28
  1

  0
LINE
  5
32D
330
32C
100
AcDbEntity
  8
0
 62
   123
100
AcDbLine
 10
126.0972100131602
 20
65.67969052859644
 30
0.0
 11
112.0495791405905
 21
65.67969052859644
 31
0.0
  0
LINE
  5
32E
330
32C
100
AcDbEntity
  8
0
 62
   123
100
AcDbLine
 10
126.0972100131602
 20
59.6799112995095
 30
0.0
 11
112.0495791405905
 21
59.6799112995095
 31
0.0
  0
LINE
  5
32F
330
32C
100
AcDbEntity
  8
0
 62
   123
100
AcDbLine
 10
112.6495791405904
 20
68.17969052859644
 30
0.0
 11
112.6495791405904
 21
70.67969052859644
 31
0.0
  0
LINE
  5
330
330
32C
100
AcDbEntity
  8
0
 62
   123
100
AcDbLine
 10
112.6495791405904
 20
57.1799112995095
 30
0.0
 11
112.6495791405904
 21
54.6799112995095
 31
0.0
  0
LINE
  5
331
330
32C
100
AcDbEntity
  8
0
 62
   123
100
AcDbLine
 10
112.6495791405904
 20
65.67969052859644
 30
0.0
 11
112.6495791405904
 21
59.6799112995095
 31
0.0
  0
SOLID
  5
332
330
32C
100
AcDbEntity
  8
0
 62
   123
100
AcDbTrace
 10
112.2329124739237
 20
68.17969052859644
 30
0.0
 11
113.0662458072571
 21
68.17969052859644
 31
0.0
 12
112.6495791405904
 22
65.67969052859644
 32
0.0
 13
112.6495791405904
 23
65.67969052859644
 33
0.0
  0
SOLID
  5
333
330
32C
100
AcDbEntity
  8
0
 62
   123
100
AcDbTrace
 10
112.2329124739237
 20
57.1799112995095
 30
0.0
 11
113.0662458072571
 21
57.1799112995095
 31
0.0
 12
112.6495791405904
 22
59.6799112995095
 32
0.0
 13
112.6495791405904
 23
59.6799112995095
 33
0.0
  0
MTEXT
  5
334
330
32C
100
AcDbEntity
  8
0
 62
     3
100
AcDbMText
 10
108.6994291405904
 20
62.67980091405298
 30
0.0
 40
3.0
 41
0.0
 71
     5
 72
     1
  1
\A1;\A1;%%c6{\H0.7x;\S+0^ -0.012;\f??|b0|i0|c0|p49;\H1.429x;(h7)}  
 11
0.0000000000000001
 21
1.0
 31
0.0
1001
ACAD
1000
MTEXTBEGIN
1070
    73
1070
     1
1070
    44
1040
1.0
1070
    74
1070
     0
1000
MTEXTEND
1000
MTEXTBEGIN
1070
    73
1070
     1
1070
    44
1040
1.0
1070
    74
1070
     0
1000
MTEXTEND
1000
MTEXTBEGIN
1070
    73
1070
     1
1070
    44
1040
1.0
1070
    74
1070
     0
1000
MTEXTEND
  0
POINT
  5
335
330
32C
100
AcDbEntity
  8
DEFPOINTS
 62
     0
100
AcDbPoint
 10
127.0972100131602
 20
65.67969052859644
 30
0.0
  0
POINT
  5
336
330
32C
100
AcDbEntity
  8
DEFPOINTS
 62
     0
100
AcDbPoint
 10
127.0972100131602
 20
59.6799112995095
 30
0.0
  0
POINT
  5
337
330
32C
100
AcDbEntity
  8
DEFPOINTS
 62
     0
100
AcDbPoint
 10
112.6495791405904
 20
59.6799112995095
 30
0.0
  0
ENDBLK
  5
339
330
32C
100
AcDbEntity
  8
0
100
AcDbBlockEnd
  0
BLOCK
  5
346
330
33A
100
AcDbEntity
  8
0
100
AcDbBlockBegin
  2
*D29
 70
     1
 10
0.0
 20
0.0
 30
0.0
  3
*D29
  1

  0
LINE
  5
33B
330
33A
100
AcDbEntity
  8
0
 62
   123
100
AcDbLine
 10
156.59721001316
 20
95.67980091405294
 30
0.0
 11
156.59721001316
 21
113.0229906834592
 31
0.0
  0
LINE
  5
33C
330
33A
100
AcDbEntity
  8
0
 62
   123
100
AcDbLine
 10
158.59721001316
 20
98.67980091405298
 30
0.0
 11
158.59721001316
 21
113.0229906834592
 31
0.0
  0
LINE
  5
33D
330
33A
100
AcDbEntity
  8
0
 62
   123
100
AcDbLine
 10
161.0972100131601
 20
112.4229906834593
 30
0.0
 11
163.5972100131603
 21
112.4229906834593
 31
0.0
  0
LINE
  5
33E
330
33A
100
AcDbEntity
  8
0
 62
   123
100
AcDbLine
 10
154.0972100131603
 20
112.4229906834593
 30
0.0
 11
144.6972100131604
 21
112.4229906834593
 31
0.0
  0
LINE
  5
33F
330
33A
100
AcDbEntity
  8
0
 62
   123
100
AcDbLine
 10
158.59721001316
 20
112.4229906834593
 30
0.0
 11
156.59721001316
 21
112.4229906834593
 31
0.0
  0
SOLID
  5
340
330
33A
100
AcDbEntity
  8
0
 62
   123
100
AcDbTrace
 10
161.0972100131601
 20
112.8396573501259
 30
0.0
 11
161.0972100131601
 21
112.0063240167927
 31
0.0
 12
158.59721001316
 22
112.4229906834593
 32
0.0
 13
158.59721001316
 23
112.4229906834593
 33
0.0
  0
SOLID
  5
341
330
33A
100
AcDbEntity
  8
0
 62
   123
100
AcDbTrace
 10
154.0972100131603
 20
112.8396573501259
 30
0.0
 11
154.0972100131603
 21
112.0063240167927
 31
0.0
 12
156.59721001316
 22
112.4229906834593
 32
0.0
 13
156.59721001316
 23
112.4229906834593
 33
0.0
  0
MTEXT
  5
342
330
33A
100
AcDbEntity
  8
0
 62
     3
100
AcDbMText
 10
146.6972100131606
 20
114.9229906834593
 30
0.0
 40
3.0
 41
0.0
 71
     5
 72
     1
  1
\A1;2
1001
ACAD
1000
MTEXTBEGIN
1070
    73
1070
     1
1070
    44
1040
1.0
1070
    74
1070
     0
1000
MTEXTEND
1000
MTEXTBEGIN
1070
    73
1070
     1
1070
    44
1040
1.0
1070
    74
1070
     0
1000
MTEXTEND
1000
MTEXTBEGIN
1070
    73
1070
     1
1070
    44
1040
1.0
1070
    74
1070
     0
1000
MTEXTEND
  0
POINT
  5
343
330
33A
100
AcDbEntity
  8
DEFPOINTS
 62
     0
100
AcDbPoint
 10
156.59721001316
 20
94.67980091405298
 30
0.0
  0
POINT
  5
344
330
33A
100
AcDbEntity
  8
DEFPOINTS
 62
     0
100
AcDbPoint
 10
158.59721001316
 20
97.67980091405298
 30
0.0
  0
POINT
  5
345
330
33A
100
AcDbEntity
  8
DEFPOINTS
 62
     0
100
AcDbPoint
 10
158.59721001316
 20
112.4229906834593
 30
0.0
  0
ENDBLK
  5
347
330
33A
100
AcDbEntity
  8
0
100
AcDbBlockEnd
  0
BLOCK
  5
352
330
348
100
AcDbEntity
  8
0
100
AcDbBlockBegin
  2
*D30
 70
     1
 10
0.0
 20
0.0
 30
0.0
  3
*D30
  1

  0
LINE
  5
349
330
348
100
AcDbEntity
  8
0
 62
   123
100
AcDbLine
 10
158.59721001316
 20
107.8881342473855
 30
0.0
 11
158.59721001316
 21
113.0229906834592
 31
0.0
  0
LINE
  5
34A
330
348
100
AcDbEntity
  8
0
 62
   123
100
AcDbLine
 10
165.5972100131601
 20
97.27853825558122
 30
0.0
 11
165.5972100131601
 21
113.0229906834592
 31
0.0
  0
LINE
  5
34B
330
348
100
AcDbEntity
  8
0
 62
   123
100
AcDbLine
 10
161.0972100131601
 20
112.4229906834593
 30
0.0
 11
163.09721001316
 21
112.4229906834593
 31
0.0
  0
SOLID
  5
34C
330
348
100
AcDbEntity
  8
0
 62
   123
100
AcDbTrace
 10
161.0972100131601
 20
112.8396573501259
 30
0.0
 11
161.0972100131601
 21
112.0063240167927
 31
0.0
 12
158.59721001316
 22
112.4229906834593
 32
0.0
 13
158.59721001316
 23
112.4229906834593
 33
0.0
  0
SOLID
  5
34D
330
348
100
AcDbEntity
  8
0
 62
   123
100
AcDbTrace
 10
163.09721001316
 20
112.8396573501259
 30
0.0
 11
163.09721001316
 21
112.0063240167927
 31
0.0
 12
165.5972100131601
 22
112.4229906834593
 32
0.0
 13
165.5972100131601
 23
112.4229906834593
 33
0.0
  0
MTEXT
  5
34E
330
348
100
AcDbEntity
  8
0
 62
     3
100
AcDbMText
 10
162.09721001316
 20
114.9229906834593
 30
0.0
 40
3.0
 41
0.0
 71
     5
 72
     1
  1
\A1;7
1001
ACAD
1000
MTEXTBEGIN
1070
    73
1070
     1
1070
    44
1040
1.0
1070
    74
1070
     0
1000
MTEXTEND
1000
MTEXTBEGIN
1070
    73
1070
     1
1070
    44
1040
1.0
1070
    74
1070
     0
1000
MTEXTEND
1000
MTEXTBEGIN
1070
    73
1070
     1
1070
    44
1040
1.0
1070
    74
1070
     0
1000
MTEXTEND
  0
POINT
  5
34F
330
348
100
AcDbEntity
  8
DEFPOINTS
 62
     0
100
AcDbPoint
 10
158.59721001316
 20
106.8881342473855
 30
0.0
  0
POINT
  5
350
330
348
100
AcDbEntity
  8
DEFPOINTS
 62
     0
100
AcDbPoint
 10
165.5972100131601
 20
96.27853825558123
 30
0.0
  0
POINT
  5
351
330
348
100
AcDbEntity
  8
DEFPOINTS
 62
     0
100
AcDbPoint
 10
165.5972100131601
 20
112.4229906834593
 30
0.0
  0
ENDBLK
  5
353
330
348
100
AcDbEntity
  8
0
100
AcDbBlockEnd
  0
BLOCK
  5
360
330
354
100
AcDbEntity
  8
0
100
AcDbBlockBegin
  2
*D31
 70
     1
 10
0.0
 20
0.0
 30
0.0
  3
*D31
  1

  0
LINE
  5
4BD
330
354
100
AcDbEntity
  8
0
 62
   123
100
AcDbLine
 10
39.6828249575592
 20
19.63208790985344
 30
0.0
 11
39.6828249575592
 21
2.413101526795511
 31
0.0
  0
LINE
  5
4BE
330
354
100
AcDbEntity
  8
0
 62
   123
100
AcDbLine
 10
58.32054839681631
 20
17.68435621525306
 30
0.0
 11
62.7458923363941
 21
7.000630858154407
 31
0.0
  0
ARC
  5
4BF
330
354
100
AcDbEntity
  8
0
 62
   123
100
AcDbCircle
 10
39.6828249575592
 20
62.67980091408476
 30
0.0
 40
59.66669938728925
100
AcDbArc
 50
272.400835475367
 51
290.0991645246246
  0
SOLID
  5
4C0
330
354
100
AcDbEntity
  8
0
 62
   123
100
AcDbTrace
 10
42.19100532994967
 20
2.648900578600264
 30
0.0
 11
42.17354723896486
 21
3.48205102089962
 31
0.0
 12
39.6828249575592
 22
3.013101526795511
 32
0.0
 13
39.6828249575592
 23
3.013101526795511
 33
0.0
  0
SOLID
  5
4C1
330
354
100
AcDbEntity
  8
0
 62
   123
100
AcDbTrace
 10
60.03569573800492
 20
7.035053265329354
 30
0.0
 11
60.33839943600283
 21
6.258641702005601
 31
0.0
 12
62.51628227697513
 22
7.554958577661212
 32
0.0
 13
62.51628227697513
 23
7.554958577661212
 33
0.0
  0
MTEXT
  5
4C2
330
354
100
AcDbEntity
  8
0
 62
     3
100
AcDbMText
 10
50.77975465761603
 20
6.891767991623789
 30
0.0
 40
3.0
 41
0.0
 71
     5
 72
     1
  1
\A1;22°30'
 11
0.9807852804032444
 21
0.1950903220160579
 31
0.0
  0
POINT
  5
4C3
330
354
100
AcDbEntity
  8
DEFPOINTS
 62
     0
100
AcDbPoint
 10
47.47089203091769
 20
3.523558411420582
 30
0.0
  0
POINT
  5
4C4
330
354
100
AcDbEntity
  8
DEFPOINTS
 62
     0
100
AcDbPoint
 10
39.6828249575592
 20
20.63208790985344
 30
0.0
  0
POINT
  5
4C5
330
354
100
AcDbEntity
  8
DEFPOINTS
 62
     0
100
AcDbPoint
 10
39.68282495757012
 20
62.67980091405842
 30
0.0
  0
POINT
  5
4C6
330
354
100
AcDbEntity
  8
DEFPOINTS
 62
     0
100
AcDbPoint
 10
57.93786496445135
 20
18.6082357477644
 30
0.0
  0
POINT
  5
4C7
330
354
100
AcDbEntity
  8
DEFPOINTS
 62
     0
100
AcDbPoint
 10
39.6828249575592
 20
104.7275139182543
 30
0.0
  0
ENDBLK
  5
361
330
354
100
AcDbEntity
  8
0
100
AcDbBlockEnd
  0
BLOCK
  5
36C
330
362
100
AcDbEntity
  8
0
100
AcDbBlockBegin
  2
*D32
 70
     1
 10
0.0
 20
0.0
 30
0.0
  3
*D32
  1

  0
LINE
  5
363
330
362
100
AcDbEntity
  8
0
 62
   123
100
AcDbLine
 10
276.0975494180709
 20
97.18170858628807
 30
0.0
 11
310.1624127813808
 21
97.18170858628807
 31
0.0
  0
LINE
  5
364
330
362
100
AcDbEntity
  8
0
 62
   123
100
AcDbLine
 10
276.0975494180709
 20
28.17789324181603
 30
0.0
 11
310.1624127813808
 21
28.17789324181601
 31
0.0
  0
LINE
  5
365
330
362
100
AcDbEntity
  8
0
 62
   123
100
AcDbLine
 10
309.5624127813807
 20
94.68170858628807
 30
0.0
 11
309.5624127813807
 21
30.67789324181601
 31
0.0
  0
SOLID
  5
366
330
362
100
AcDbEntity
  8
0
 62
   123
100
AcDbTrace
 10
309.1457461147141
 20
94.68170858628807
 30
0.0
 11
309.9790794480473
 21
94.68170858628807
 31
0.0
 12
309.5624127813807
 22
97.18170858628807
 32
0.0
 13
309.5624127813807
 23
97.18170858628807
 33
0.0
  0
SOLID
  5
367
330
362
100
AcDbEntity
  8
0
 62
   123
100
AcDbTrace
 10
309.1457461147141
 20
30.67789324181601
 30
0.0
 11
309.9790794480473
 21
30.67789324181601
 31
0.0
 12
309.5624127813807
 22
28.17789324181601
 32
0.0
 13
309.5624127813807
 23
28.17789324181601
 33
0.0
  0
MTEXT
  5
368
330
362
100
AcDbEntity
  8
0
 62
     3
100
AcDbMText
 10
307.0624127813808
 20
61.0961782855502
 30
0.0
 40
3.0
 41
0.0
 71
     5
 72
     1
  1
\A1;%%C69
 11
0.0000000000000001
 21
1.0
 31
0.0
1001
ACAD
1000
MTEXTBEGIN
1070
    73
1070
     1
1070
    44
1040
1.0
1070
    74
1070
     0
1000
MTEXTEND
1000
MTEXTBEGIN
1070
    73
1070
     1
1070
    44
1040
1.0
1070
    74
1070
     0
1000
MTEXTEND
1000
MTEXTBEGIN
1070
    73
1070
     1
1070
    44
1040
1.0
1070
    74
1070
     0
1000
MTEXTEND
  0
POINT
  5
369
330
362
100
AcDbEntity
  8
DEFPOINTS
 62
     0
100
AcDbPoint
 10
275.0975494180709
 20
97.18170858628807
 30
0.0
  0
POINT
  5
36A
330
362
100
AcDbEntity
  8
DEFPOINTS
 62
     0
100
AcDbPoint
 10
275.0975494180709
 20
28.17789324181603
 30
0.0
  0
POINT
  5
36B
330
362
100
AcDbEntity
  8
DEFPOINTS
 62
     0
100
AcDbPoint
 10
309.5624127813807
 20
28.17789324181601
 30
0.0
  0
ENDBLK
  5
36D
330
362
100
AcDbEntity
  8
0
100
AcDbBlockEnd
  0
BLOCK
  5
378
330
36E
100
AcDbEntity
  8
0
100
AcDbBlockBegin
  2
*D33
 70
     1
 10
0.0
 20
0.0
 30
0.0
  3
*D33
  1

  0
LINE
  5
36F
330
36E
100
AcDbEntity
  8
0
 62
   123
100
AcDbLine
 10
286.5972100131603
 20
86.17980091405298
 30
0.0
 11
301.2787035388606
 21
86.17980091405295
 31
0.0
  0
LINE
  5
370
330
36E
100
AcDbEntity
  8
0
 62
   123
100
AcDbLine
 10
286.5972100131603
 20
39.17980091405297
 30
0.0
 11
301.2787035388606
 21
39.17980091405297
 31
0.0
  0
LINE
  5
371
330
36E
100
AcDbEntity
  8
0
 62
   123
100
AcDbLine
 10
300.6787035388606
 20
83.67980091405295
 30
0.0
 11
300.6787035388606
 21
41.67980091405296
 31
0.0
  0
SOLID
  5
372
330
36E
100
AcDbEntity
  8
0
 62
   123
100
AcDbTrace
 10
300.2620368721938
 20
83.67980091405295
 30
0.0
 11
301.0953702055273
 21
83.67980091405295
 31
0.0
 12
300.6787035388606
 22
86.17980091405295
 32
0.0
 13
300.6787035388606
 23
86.17980091405295
 33
0.0
  0
SOLID
  5
373
330
36E
100
AcDbEntity
  8
0
 62
   123
100
AcDbTrace
 10
300.2620368721938
 20
41.67980091405296
 30
0.0
 11
301.0953702055273
 21
41.67980091405296
 31
0.0
 12
300.6787035388606
 22
39.17980091405297
 32
0.0
 13
300.6787035388606
 23
39.17980091405297
 33
0.0
  0
MTEXT
  5
374
330
36E
100
AcDbEntity
  8
0
 62
     3
100
AcDbMText
 10
298.1787035388606
 20
60.38605091405225
 30
0.0
 40
3.0
 41
0.0
 71
     5
 72
     1
  1
\A1;%%C47
 11
0.0000000000000001
 21
1.0
 31
0.0
1001
ACAD
1000
MTEXTBEGIN
1070
    73
1070
     1
1070
    44
1040
1.0
1070
    74
1070
     0
1000
MTEXTEND
1000
MTEXTBEGIN
1070
    73
1070
     1
1070
    44
1040
1.0
1070
    74
1070
     0
1000
MTEXTEND
1000
MTEXTBEGIN
1070
    73
1070
     1
1070
    44
1040
1.0
1070
    74
1070
     0
1000
MTEXTEND
  0
POINT
  5
375
330
36E
100
AcDbEntity
  8
DEFPOINTS
 62
     0
100
AcDbPoint
 10
285.5972100131601
 20
86.17980091405298
 30
0.0
  0
POINT
  5
376
330
36E
100
AcDbEntity
  8
DEFPOINTS
 62
     0
100
AcDbPoint
 10
285.5972100131601
 20
39.17980091405297
 30
0.0
  0
POINT
  5
377
330
36E
100
AcDbEntity
  8
DEFPOINTS
 62
     0
100
AcDbPoint
 10
300.6787035388606
 20
39.17980091405297
 30
0.0
  0
ENDBLK
  5
379
330
36E
100
AcDbEntity
  8
0
100
AcDbBlockEnd
  0
BLOCK
  5
384
330
37A
100
AcDbEntity
  8
0
100
AcDbBlockBegin
  2
*D34
 70
     1
 10
0.0
 20
0.0
 30
0.0
  3
*D34
  1

  0
LINE
  5
37B
330
37A
100
AcDbEntity
  8
0
 62
   123
100
AcDbLine
 10
286.5972100131603
 20
86.17980091405298
 30
0.0
 11
286.5972100131603
 21
123.966066815053
 31
0.0
  0
LINE
  5
37C
330
37A
100
AcDbEntity
  8
0
 62
   123
100
AcDbLine
 10
276.5972100131603
 20
96.64980091405233
 30
0.0
 11
276.5972100131603
 21
123.966066815053
 31
0.0
  0
LINE
  5
37D
330
37A
100
AcDbEntity
  8
0
 62
   123
100
AcDbLine
 10
284.0972100131601
 20
123.3660668150531
 30
0.0
 11
279.0972100131603
 21
123.3660668150531
 31
0.0
  0
SOLID
  5
37E
330
37A
100
AcDbEntity
  8
0
 62
   123
100
AcDbTrace
 10
284.0972100131601
 20
123.7827334817199
 30
0.0
 11
284.0972100131601
 21
122.9494001483866
 31
0.0
 12
286.5972100131603
 22
123.3660668150531
 32
0.0
 13
286.5972100131603
 23
123.3660668150531
 33
0.0
  0
SOLID
  5
37F
330
37A
100
AcDbEntity
  8
0
 62
   123
100
AcDbTrace
 10
279.0972100131603
 20
123.7827334817199
 30
0.0
 11
279.0972100131603
 21
122.9494001483866
 31
0.0
 12
276.5972100131603
 22
123.3660668150531
 32
0.0
 13
276.5972100131603
 23
123.3660668150531
 33
0.0
  0
MTEXT
  5
380
330
37A
100
AcDbEntity
  8
0
 62
     3
100
AcDbMText
 10
280.6908385465922
 20
125.8660668150532
 30
0.0
 40
3.0
 41
0.0
 71
     5
 72
     1
  1
\A1;10
1001
ACAD
1000
MTEXTBEGIN
1070
    73
1070
     1
1070
    44
1040
1.0
1070
    74
1070
     0
1000
MTEXTEND
1000
MTEXTBEGIN
1070
    73
1070
     1
1070
    44
1040
1.0
1070
    74
1070
     0
1000
MTEXTEND
1000
MTEXTBEGIN
1070
    73
1070
     1
1070
    44
1040
1.0
1070
    74
1070
     0
1000
MTEXTEND
  0
POINT
  5
381
330
37A
100
AcDbEntity
  8
DEFPOINTS
 62
     0
100
AcDbPoint
 10
286.5972100131603
 20
85.17980091405297
 30
0.0
  0
POINT
  5
382
330
37A
100
AcDbEntity
  8
DEFPOINTS
 62
     0
100
AcDbPoint
 10
276.5972100131603
 20
95.64980091405232
 30
0.0
  0
POINT
  5
383
330
37A
100
AcDbEntity
  8
DEFPOINTS
 62
     0
100
AcDbPoint
 10
276.5972100131603
 20
123.3660668150531
 30
0.0
  0
ENDBLK
  5
385
330
37A
100
AcDbEntity
  8
0
100
AcDbBlockEnd
  0
BLOCK
  5
390
330
386
100
AcDbEntity
  8
0
100
AcDbBlockBegin
  2
*D35
 70
     1
 10
0.0
 20
0.0
 30
0.0
  3
*D35
  1

  0
LINE
  5
387
330
386
100
AcDbEntity
  8
0
 62
   123
100
AcDbLine
 10
145.349922646601
 20
285.3156054650611
 30
0.0
 11
145.349922646601
 21
284.915605465061
 31
0.0
  0
LINE
  5
388
330
386
100
AcDbEntity
  8
0
 62
   123
100
AcDbLine
 10
263.3499226466009
 20
260.9568790771504
 30
0.0
 11
263.3499226466009
 21
284.915605465061
 31
0.0
  0
LINE
  5
389
330
386
100
AcDbEntity
  8
0
 62
   123
100
AcDbLine
 10
147.849922646601
 20
284.3156054650611
 30
0.0
 11
260.849922646601
 21
284.3156054650611
 31
0.0
  0
SOLID
  5
38A
330
386
100
AcDbEntity
  8
0
 62
   123
100
AcDbTrace
 10
147.849922646601
 20
284.7322721317278
 30
0.0
 11
147.849922646601
 21
283.8989387983945
 31
0.0
 12
145.349922646601
 22
284.3156054650611
 32
0.0
 13
145.349922646601
 23
284.3156054650611
 33
0.0
  0
SOLID
  5
38B
330
386
100
AcDbEntity
  8
0
 62
   123
100
AcDbTrace
 10
260.849922646601
 20
284.7322721317278
 30
0.0
 11
260.849922646601
 21
283.8989387983945
 31
0.0
 12
263.3499226466009
 22
284.3156054650611
 32
0.0
 13
263.3499226466009
 23
284.3156054650611
 33
0.0
  0
MTEXT
  5
38C
330
386
100
AcDbEntity
  8
0
 62
     3
100
AcDbMText
 10
204.349922646601
 20
286.8156054650611
 30
0.0
 40
3.0
 41
0.0
 71
     5
 72
     1
  1
\A1;118
1001
ACAD
1000
MTEXTBEGIN
1070
    73
1070
     1
1070
    44
1040
1.0
1070
    74
1070
     0
1000
MTEXTEND
1000
MTEXTBEGIN
1070
    73
1070
     1
1070
    44
1040
1.0
1070
    74
1070
     0
1000
MTEXTEND
1000
MTEXTBEGIN
1070
    73
1070
     1
1070
    44
1040
1.0
1070
    74
1070
     0
1000
MTEXTEND
  0
POINT
  5
38D
330
386
100
AcDbEntity
  8
DEFPOINTS
 62
     0
100
AcDbPoint
 10
145.349922646601
 20
284.3156054650611
 30
0.0
  0
POINT
  5
38E
330
386
100
AcDbEntity
  8
DEFPOINTS
 62
     0
100
AcDbPoint
 10
263.3499226466009
 20
259.9568790771503
 30
0.0
  0
POINT
  5
38F
330
386
100
AcDbEntity
  8
DEFPOINTS
 62
     0
100
AcDbPoint
 10
263.3499226466009
 20
284.3156054650611
 30
0.0
  0
ENDBLK
  5
391
330
386
100
AcDbEntity
  8
0
100
AcDbBlockEnd
  0
BLOCK
  5
39C
330
392
100
AcDbEntity
  8
0
100
AcDbBlockBegin
  2
*D36
 70
     1
 10
0.0
 20
0.0
 30
0.0
  3
*D36
  1

  0
LINE
  5
393
330
392
100
AcDbEntity
  8
0
 62
   123
100
AcDbLine
 10
22.43235237267981
 20
257.9868790771552
 30
0.0
 11
22.43235237267981
 21
275.1546742030614
 31
0.0
  0
LINE
  5
394
330
392
100
AcDbEntity
  8
0
 62
   123
100
AcDbLine
 10
92.43235237267979
 20
257.9868790771552
 30
0.0
 11
92.43235237267979
 21
275.1546742030614
 31
0.0
  0
LINE
  5
395
330
392
100
AcDbEntity
  8
0
 62
   123
100
AcDbLine
 10
24.93235237267981
 20
274.5546742030615
 30
0.0
 11
89.93235237267979
 21
274.5546742030615
 31
0.0
  0
SOLID
  5
396
330
392
100
AcDbEntity
  8
0
 62
   123
100
AcDbTrace
 10
24.93235237267981
 20
274.971340869728
 30
0.0
 11
24.93235237267981
 21
274.1380075363948
 31
0.0
 12
22.43235237267981
 22
274.5546742030615
 32
0.0
 13
22.43235237267981
 23
274.5546742030615
 33
0.0
  0
SOLID
  5
397
330
392
100
AcDbEntity
  8
0
 62
   123
100
AcDbTrace
 10
89.93235237267979
 20
274.971340869728
 30
0.0
 11
89.93235237267979
 21
274.1380075363948
 31
0.0
 12
92.43235237267979
 22
274.5546742030615
 32
0.0
 13
92.43235237267979
 23
274.5546742030615
 33
0.0
  0
MTEXT
  5
398
330
392
100
AcDbEntity
  8
0
 62
     3
100
AcDbMText
 10
57.43235237267981
 20
277.0546742030615
 30
0.0
 40
3.0
 41
0.0
 71
     5
 72
     1
  1
\A1;70
1001
ACAD
1000
MTEXTBEGIN
1070
    73
1070
     1
1070
    44
1040
1.0
1070
    74
1070
     0
1000
MTEXTEND
1000
MTEXTBEGIN
1070
    73
1070
     1
1070
    44
1040
1.0
1070
    74
1070
     0
1000
MTEXTEND
1000
MTEXTBEGIN
1070
    73
1070
     1
1070
    44
1040
1.0
1070
    74
1070
     0
1000
MTEXTEND
  0
POINT
  5
399
330
392
100
AcDbEntity
  8
DEFPOINTS
 62
     0
100
AcDbPoint
 10
22.43235237267981
 20
256.9868790771552
 30
0.0
  0
POINT
  5
39A
330
392
100
AcDbEntity
  8
DEFPOINTS
 62
     0
100
AcDbPoint
 10
92.43235237267979
 20
256.9868790771552
 30
0.0
  0
POINT
  5
39B
330
392
100
AcDbEntity
  8
DEFPOINTS
 62
     0
100
AcDbPoint
 10
92.43235237267979
 20
274.5546742030615
 30
0.0
  0
ENDBLK
  5
39D
330
392
100
AcDbEntity
  8
0
100
AcDbBlockEnd
  0
BLOCK
  5
3A8
330
39E
100
AcDbEntity
  8
0
100
AcDbBlockBegin
  2
*D37
 70
     1
 10
0.0
 20
0.0
 30
0.0
  3
*D37
  1

  0
LINE
  5
39F
330
39E
100
AcDbEntity
  8
0
 62
   123
100
AcDbLine
 10
142.349922646601
 20
258.986879077151
 30
0.0
 11
118.4606986355106
 21
258.986879077151
 31
0.0
  0
LINE
  5
3A0
330
39E
100
AcDbEntity
  8
0
 62
   123
100
AcDbLine
 10
140.8915233607293
 20
194.9868790771511
 30
0.0
 11
118.4606986355104
 21
194.9868790771511
 31
0.0
  0
LINE
  5
3A1
330
39E
100
AcDbEntity
  8
0
 62
   123
100
AcDbLine
 10
119.0606986355104
 20
256.4868790771511
 30
0.0
 11
119.0606986355104
 21
197.4868790771511
 31
0.0
  0
SOLID
  5
3A2
330
39E
100
AcDbEntity
  8
0
 62
   123
100
AcDbTrace
 10
118.6440319688438
 20
256.4868790771511
 30
0.0
 11
119.4773653021772
 21
256.4868790771511
 31
0.0
 12
119.0606986355104
 22
258.986879077151
 32
0.0
 13
119.0606986355104
 23
258.986879077151
 33
0.0
  0
SOLID
  5
3A3
330
39E
100
AcDbEntity
  8
0
 62
   123
100
AcDbTrace
 10
118.6440319688438
 20
197.4868790771511
 30
0.0
 11
119.4773653021772
 21
197.4868790771511
 31
0.0
 12
119.0606986355104
 22
194.9868790771511
 32
0.0
 13
119.0606986355104
 23
194.9868790771511
 33
0.0
  0
MTEXT
  5
3A4
330
39E
100
AcDbEntity
  8
0
 62
     3
100
AcDbMText
 10
115.1105486355104
 20
226.9868790771511
 30
0.0
 40
3.0
 41
0.0
 71
     5
 72
     1
  1
\A1;\A1;%%C64{\f??|b0|i0|c0|p49;\H0.7x;\S+0^ -0.03;\H1.429x;(h7)} 
 11
0.0000000000000001
 21
1.0
 31
0.0
1001
ACAD
1000
MTEXTBEGIN
1070
    73
1070
     1
1070
    44
1040
1.0
1070
    74
1070
     0
1000
MTEXTEND
1000
MTEXTBEGIN
1070
    73
1070
     1
1070
    44
1040
1.0
1070
    74
1070
     0
1000
MTEXTEND
1000
MTEXTBEGIN
1070
    73
1070
     1
1070
    44
1040
1.0
1070
    74
1070
     0
1000
MTEXTEND
  0
POINT
  5
3A5
330
39E
100
AcDbEntity
  8
DEFPOINTS
 62
     0
100
AcDbPoint
 10
143.349922646601
 20
258.986879077151
 30
0.0
  0
POINT
  5
3A6
330
39E
100
AcDbEntity
  8
DEFPOINTS
 62
     0
100
AcDbPoint
 10
141.8915233607293
 20
194.9868790771511
 30
0.0
  0
POINT
  5
3A7
330
39E
100
AcDbEntity
  8
DEFPOINTS
 62
     0
100
AcDbPoint
 10
119.0606986355104
 20
194.9868790771511
 30
0.0
  0
ENDBLK
  5
3A9
330
39E
100
AcDbEntity
  8
0
100
AcDbBlockEnd
  0
BLOCK
  5
3B4
330
3AA
100
AcDbEntity
  8
0
100
AcDbBlockBegin
  2
*D38
 70
     1
 10
0.0
 20
0.0
 30
0.0
  3
*D38
  1

  0
LINE
  5
3AB
330
3AA
100
AcDbEntity
  8
0
 62
   123
100
AcDbLine
 10
145.349922646601
 20
272.195212410483
 30
0.0
 11
145.349922646601
 21
273.5921780150853
 31
0.0
  0
LINE
  5
3AC
330
3AA
100
AcDbEntity
  8
0
 62
   123
100
AcDbLine
 10
152.349922646601
 20
261.5856164186793
 30
0.0
 11
152.349922646601
 21
273.5921780150853
 31
0.0
  0
LINE
  5
3AD
330
3AA
100
AcDbEntity
  8
0
 62
   123
100
AcDbLine
 10
147.849922646601
 20
272.9921780150851
 30
0.0
 11
149.849922646601
 21
272.9921780150851
 31
0.0
  0
SOLID
  5
3AE
330
3AA
100
AcDbEntity
  8
0
 62
   123
100
AcDbTrace
 10
147.849922646601
 20
273.4088446817518
 30
0.0
 11
147.849922646601
 21
272.5755113484185
 31
0.0
 12
145.349922646601
 22
272.9921780150851
 32
0.0
 13
145.349922646601
 23
272.9921780150851
 33
0.0
  0
SOLID
  5
3AF
330
3AA
100
AcDbEntity
  8
0
 62
   123
100
AcDbTrace
 10
149.849922646601
 20
273.4088446817518
 30
0.0
 11
149.849922646601
 21
272.5755113484185
 31
0.0
 12
152.349922646601
 22
272.9921780150851
 32
0.0
 13
152.349922646601
 23
272.9921780150851
 33
0.0
  0
MTEXT
  5
3B0
330
3AA
100
AcDbEntity
  8
0
 62
     3
100
AcDbMText
 10
148.849922646601
 20
275.4921780150853
 30
0.0
 40
3.0
 41
0.0
 71
     5
 72
     1
  1
\A1;7
1001
ACAD
1000
MTEXTBEGIN
1070
    73
1070
     1
1070
    44
1040
1.0
1070
    74
1070
     0
1000
MTEXTEND
1000
MTEXTBEGIN
1070
    73
1070
     1
1070
    44
1040
1.0
1070
    74
1070
     0
1000
MTEXTEND
1000
MTEXTBEGIN
1070
    73
1070
     1
1070
    44
1040
1.0
1070
    74
1070
     0
1000
MTEXTEND
  0
POINT
  5
3B1
330
3AA
100
AcDbEntity
  8
DEFPOINTS
 62
     0
100
AcDbPoint
 10
145.349922646601
 20
271.195212410483
 30
0.0
  0
POINT
  5
3B2
330
3AA
100
AcDbEntity
  8
DEFPOINTS
 62
     0
100
AcDbPoint
 10
152.349922646601
 20
260.5856164186793
 30
0.0
  0
POINT
  5
3B3
330
3AA
100
AcDbEntity
  8
DEFPOINTS
 62
     0
100
AcDbPoint
 10
152.349922646601
 20
272.9921780150851
 30
0.0
  0
ENDBLK
  5
3B5
330
3AA
100
AcDbEntity
  8
0
100
AcDbBlockEnd
  0
BLOCK
  5
3C0
330
3B6
100
AcDbEntity
  8
0
100
AcDbBlockBegin
  2
*D39
 70
     1
 10
0.0
 20
0.0
 30
0.0
  3
*D39
  1

  0
LINE
  5
3B7
330
3B6
100
AcDbEntity
  8
0
 62
   123
100
AcDbLine
 10
132.349922646601
 20
230.6538965377904
 30
0.0
 11
132.349922646601
 21
284.915605465061
 31
0.0
  0
LINE
  5
3B8
330
3B6
100
AcDbEntity
  8
0
 62
   123
100
AcDbLine
 10
145.349922646601
 20
262.9868790771511
 30
0.0
 11
145.349922646601
 21
284.915605465061
 31
0.0
  0
LINE
  5
3B9
330
3B6
100
AcDbEntity
  8
0
 62
   123
100
AcDbLine
 10
134.849922646601
 20
284.3156054650611
 30
0.0
 11
142.849922646601
 21
284.3156054650611
 31
0.0
  0
SOLID
  5
3BA
330
3B6
100
AcDbEntity
  8
0
 62
   123
100
AcDbTrace
 10
134.849922646601
 20
284.7322721317278
 30
0.0
 11
134.849922646601
 21
283.8989387983945
 31
0.0
 12
132.349922646601
 22
284.3156054650611
 32
0.0
 13
132.349922646601
 23
284.3156054650611
 33
0.0
  0
SOLID
  5
3BB
330
3B6
100
AcDbEntity
  8
0
 62
   123
100
AcDbTrace
 10
142.849922646601
 20
284.7322721317278
 30
0.0
 11
142.849922646601
 21
283.8989387983945
 31
0.0
 12
145.349922646601
 22
284.3156054650611
 32
0.0
 13
145.349922646601
 23
284.3156054650611
 33
0.0
  0
MTEXT
  5
3BC
330
3B6
100
AcDbEntity
  8
0
 62
     3
100
AcDbMText
 10
138.849922646601
 20
286.8156054650611
 30
0.0
 40
3.0
 41
0.0
 71
     5
 72
     1
  1
\A1;13
1001
ACAD
1000
MTEXTBEGIN
1070
    73
1070
     1
1070
    44
1040
1.0
1070
    74
1070
     0
1000
MTEXTEND
1000
MTEXTBEGIN
1070
    73
1070
     1
1070
    44
1040
1.0
1070
    74
1070
     0
1000
MTEXTEND
1000
MTEXTBEGIN
1070
    73
1070
     1
1070
    44
1040
1.0
1070
    74
1070
     0
1000
MTEXTEND
  0
POINT
  5
3BD
330
3B6
100
AcDbEntity
  8
DEFPOINTS
 62
     0
100
AcDbPoint
 10
132.349922646601
 20
229.6538965377902
 30
0.0
  0
POINT
  5
3BE
330
3B6
100
AcDbEntity
  8
DEFPOINTS
 62
     0
100
AcDbPoint
 10
145.349922646601
 20
261.9868790771511
 30
0.0
  0
POINT
  5
3BF
330
3B6
100
AcDbEntity
  8
DEFPOINTS
 62
     0
100
AcDbPoint
 10
145.349922646601
 20
284.3156054650611
 30
0.0
  0
ENDBLK
  5
3C1
330
3B6
100
AcDbEntity
  8
0
100
AcDbBlockEnd
  0
BLOCK
  5
3CE
330
3C2
100
AcDbEntity
  8
0
100
AcDbBlockBegin
  2
*D40
 70
     1
 10
0.0
 20
0.0
 30
0.0
  3
*D40
  1

  0
LINE
  5
3C3
330
3C2
100
AcDbEntity
  8
0
 62
   123
100
AcDbLine
 10
143.349922646601
 20
259.9868790771511
 30
0.0
 11
143.349922646601
 21
273.5921780150853
 31
0.0
  0
LINE
  5
3C4
330
3C2
100
AcDbEntity
  8
0
 62
   123
100
AcDbLine
 10
145.349922646601
 20
262.9868790771511
 30
0.0
 11
145.349922646601
 21
273.5921780150853
 31
0.0
  0
LINE
  5
3C5
330
3C2
100
AcDbEntity
  8
0
 62
   123
100
AcDbLine
 10
147.849922646601
 20
272.9921780150851
 30
0.0
 11
150.349922646601
 21
272.9921780150851
 31
0.0
  0
LINE
  5
3C6
330
3C2
100
AcDbEntity
  8
0
 62
   123
100
AcDbLine
 10
140.849922646601
 20
272.9921780150851
 30
0.0
 11
134.349922646601
 21
272.9921780150851
 31
0.0
  0
LINE
  5
3C7
330
3C2
100
AcDbEntity
  8
0
 62
   123
100
AcDbLine
 10
145.349922646601
 20
272.9921780150851
 30
0.0
 11
143.349922646601
 21
272.9921780150851
 31
0.0
  0
SOLID
  5
3C8
330
3C2
100
AcDbEntity
  8
0
 62
   123
100
AcDbTrace
 10
147.849922646601
 20
273.4088446817518
 30
0.0
 11
147.849922646601
 21
272.5755113484185
 31
0.0
 12
145.349922646601
 22
272.9921780150851
 32
0.0
 13
145.349922646601
 23
272.9921780150851
 33
0.0
  0
SOLID
  5
3C9
330
3C2
100
AcDbEntity
  8
0
 62
   123
100
AcDbTrace
 10
140.849922646601
 20
273.4088446817518
 30
0.0
 11
140.849922646601
 21
272.5755113484185
 31
0.0
 12
143.349922646601
 22
272.9921780150851
 32
0.0
 13
143.349922646601
 23
272.9921780150851
 33
0.0
  0
MTEXT
  5
3CA
330
3C2
100
AcDbEntity
  8
0
 62
     3
100
AcDbMText
 10
136.349922646601
 20
275.4921780150853
 30
0.0
 40
3.0
 41
0.0
 71
     5
 72
     1
  1
\A1;2
1001
ACAD
1000
MTEXTBEGIN
1070
    73
1070
     1
1070
    44
1040
1.0
1070
    74
1070
     0
1000
MTEXTEND
1000
MTEXTBEGIN
1070
    73
1070
     1
1070
    44
1040
1.0
1070
    74
1070
     0
1000
MTEXTEND
1000
MTEXTBEGIN
1070
    73
1070
     1
1070
    44
1040
1.0
1070
    74
1070
     0
1000
MTEXTEND
  0
POINT
  5
3CB
330
3C2
100
AcDbEntity
  8
DEFPOINTS
 62
     0
100
AcDbPoint
 10
143.349922646601
 20
258.986879077151
 30
0.0
  0
POINT
  5
3CC
330
3C2
100
AcDbEntity
  8
DEFPOINTS
 62
     0
100
AcDbPoint
 10
145.349922646601
 20
261.9868790771511
 30
0.0
  0
POINT
  5
3CD
330
3C2
100
AcDbEntity
  8
DEFPOINTS
 62
     0
100
AcDbPoint
 10
145.349922646601
 20
272.9921780150851
 30
0.0
  0
ENDBLK
  5
3CF
330
3C2
100
AcDbEntity
  8
0
100
AcDbBlockEnd
  0
BLOCK
  5
3DA
330
3D0
100
AcDbEntity
  8
0
100
AcDbBlockBegin
  2
*D41
 70
     1
 10
0.0
 20
0.0
 30
0.0
  3
*D41
  1

  0
LINE
  5
3D1
330
3D0
100
AcDbEntity
  8
0
 62
   123
100
AcDbLine
 10
262.8502620515209
 20
261.4887867493853
 30
0.0
 11
296.9151254148306
 21
261.4887867493853
 31
0.0
  0
LINE
  5
3D2
330
3D0
100
AcDbEntity
  8
0
 62
   123
100
AcDbLine
 10
262.8502620515209
 20
192.484971404914
 30
0.0
 11
296.9151254148306
 21
192.484971404914
 31
0.0
  0
LINE
  5
3D3
330
3D0
100
AcDbEntity
  8
0
 62
   123
100
AcDbLine
 10
296.3151254148306
 20
258.9887867493853
 30
0.0
 11
296.3151254148306
 21
194.984971404914
 31
0.0
  0
SOLID
  5
3D4
330
3D0
100
AcDbEntity
  8
0
 62
   123
100
AcDbTrace
 10
295.8984587481639
 20
258.9887867493853
 30
0.0
 11
296.7317920814973
 21
258.9887867493853
 31
0.0
 12
296.3151254148306
 22
261.4887867493853
 32
0.0
 13
296.3151254148306
 23
261.4887867493853
 33
0.0
  0
SOLID
  5
3D5
330
3D0
100
AcDbEntity
  8
0
 62
   123
100
AcDbTrace
 10
295.8984587481639
 20
194.984971404914
 30
0.0
 11
296.7317920814973
 21
194.984971404914
 31
0.0
 12
296.3151254148306
 22
192.484971404914
 32
0.0
 13
296.3151254148306
 23
192.484971404914
 33
0.0
  0
MTEXT
  5
3D6
330
3D0
100
AcDbEntity
  8
0
 62
     3
100
AcDbMText
 10
293.8151254148306
 20
225.4032564486482
 30
0.0
 40
3.0
 41
0.0
 71
     5
 72
     1
  1
\A1;%%C69
 11
0.0000000000000001
 21
1.0
 31
0.0
1001
ACAD
1000
MTEXTBEGIN
1070
    73
1070
     1
1070
    44
1040
1.0
1070
    74
1070
     0
1000
MTEXTEND
1000
MTEXTBEGIN
1070
    73
1070
     1
1070
    44
1040
1.0
1070
    74
1070
     0
1000
MTEXTEND
1000
MTEXTBEGIN
1070
    73
1070
     1
1070
    44
1040
1.0
1070
    74
1070
     0
1000
MTEXTEND
  0
POINT
  5
3D7
330
3D0
100
AcDbEntity
  8
DEFPOINTS
 62
     0
100
AcDbPoint
 10
261.8502620515209
 20
261.4887867493853
 30
0.0
  0
POINT
  5
3D8
330
3D0
100
AcDbEntity
  8
DEFPOINTS
 62
     0
100
AcDbPoint
 10
261.8502620515209
 20
192.484971404914
 30
0.0
  0
POINT
  5
3D9
330
3D0
100
AcDbEntity
  8
DEFPOINTS
 62
     0
100
AcDbPoint
 10
296.3151254148306
 20
192.484971404914
 30
0.0
  0
ENDBLK
  5
3DB
330
3D0
100
AcDbEntity
  8
0
100
AcDbBlockEnd
  0
BLOCK
  5
3E6
330
3DC
100
AcDbEntity
  8
0
100
AcDbBlockBegin
  2
*D42
 70
     1
 10
0.0
 20
0.0
 30
0.0
  3
*D42
  1

  0
LINE
  5
3DD
330
3DC
100
AcDbEntity
  8
0
 62
   123
100
AcDbLine
 10
273.349922646601
 20
250.4868790771511
 30
0.0
 11
288.0314161723013
 21
250.4868790771511
 31
0.0
  0
LINE
  5
3DE
330
3DC
100
AcDbEntity
  8
0
 62
   123
100
AcDbLine
 10
273.349922646601
 20
203.4868790771511
 30
0.0
 11
288.0314161723013
 21
203.4868790771511
 31
0.0
  0
LINE
  5
3DF
330
3DC
100
AcDbEntity
  8
0
 62
   123
100
AcDbLine
 10
287.4314161723014
 20
247.9868790771511
 30
0.0
 11
287.4314161723014
 21
205.9868790771511
 31
0.0
  0
SOLID
  5
3E0
330
3DC
100
AcDbEntity
  8
0
 62
   123
100
AcDbTrace
 10
287.0147495056347
 20
247.9868790771511
 30
0.0
 11
287.8480828389681
 21
247.9868790771511
 31
0.0
 12
287.4314161723014
 22
250.4868790771511
 32
0.0
 13
287.4314161723014
 23
250.4868790771511
 33
0.0
  0
SOLID
  5
3E1
330
3DC
100
AcDbEntity
  8
0
 62
   123
100
AcDbTrace
 10
287.0147495056347
 20
205.9868790771511
 30
0.0
 11
287.8480828389681
 21
205.9868790771511
 31
0.0
 12
287.4314161723014
 22
203.4868790771511
 32
0.0
 13
287.4314161723014
 23
203.4868790771511
 33
0.0
  0
MTEXT
  5
3E2
330
3DC
100
AcDbEntity
  8
0
 62
     3
100
AcDbMText
 10
284.9314161723014
 20
224.6931290771501
 30
0.0
 40
3.0
 41
0.0
 71
     5
 72
     1
  1
\A1;%%C47
 11
0.0000000000000001
 21
1.0
 31
0.0
1001
ACAD
1000
MTEXTBEGIN
1070
    73
1070
     1
1070
    44
1040
1.0
1070
    74
1070
     0
1000
MTEXTEND
1000
MTEXTBEGIN
1070
    73
1070
     1
1070
    44
1040
1.0
1070
    74
1070
     0
1000
MTEXTEND
1000
MTEXTBEGIN
1070
    73
1070
     1
1070
    44
1040
1.0
1070
    74
1070
     0
1000
MTEXTEND
  0
POINT
  5
3E3
330
3DC
100
AcDbEntity
  8
DEFPOINTS
 62
     0
100
AcDbPoint
 10
272.3499226466009
 20
250.4868790771511
 30
0.0
  0
POINT
  5
3E4
330
3DC
100
AcDbEntity
  8
DEFPOINTS
 62
     0
100
AcDbPoint
 10
272.3499226466009
 20
203.4868790771511
 30
0.0
  0
POINT
  5
3E5
330
3DC
100
AcDbEntity
  8
DEFPOINTS
 62
     0
100
AcDbPoint
 10
287.4314161723014
 20
203.4868790771511
 30
0.0
  0
ENDBLK
  5
3E7
330
3DC
100
AcDbEntity
  8
0
100
AcDbBlockEnd
  0
BLOCK
  5
3F2
330
3E8
100
AcDbEntity
  8
0
100
AcDbBlockBegin
  2
*D43
 70
     1
 10
0.0
 20
0.0
 30
0.0
  3
*D43
  1

  0
LINE
  5
3E9
330
3E8
100
AcDbEntity
  8
0
 62
   123
100
AcDbLine
 10
273.349922646601
 20
250.4868790771502
 30
0.0
 11
273.349922646601
 21
284.915605465061
 31
0.0
  0
LINE
  5
3EA
330
3E8
100
AcDbEntity
  8
0
 62
   123
100
AcDbLine
 10
263.3499226466009
 20
260.9568790771504
 30
0.0
 11
263.3499226466009
 21
284.915605465061
 31
0.0
  0
LINE
  5
3EB
330
3E8
100
AcDbEntity
  8
0
 62
   123
100
AcDbLine
 10
270.8499226466009
 20
284.3156054650611
 30
0.0
 11
265.8499226466009
 21
284.3156054650611
 31
0.0
  0
SOLID
  5
3EC
330
3E8
100
AcDbEntity
  8
0
 62
   123
100
AcDbTrace
 10
270.8499226466009
 20
284.7322721317278
 30
0.0
 11
270.8499226466009
 21
283.8989387983945
 31
0.0
 12
273.349922646601
 22
284.3156054650611
 32
0.0
 13
273.349922646601
 23
284.3156054650611
 33
0.0
  0
SOLID
  5
3ED
330
3E8
100
AcDbEntity
  8
0
 62
   123
100
AcDbTrace
 10
265.8499226466009
 20
284.7322721317278
 30
0.0
 11
265.8499226466009
 21
283.8989387983945
 31
0.0
 12
263.3499226466009
 22
284.3156054650611
 32
0.0
 13
263.3499226466009
 23
284.3156054650611
 33
0.0
  0
MTEXT
  5
3EE
330
3E8
100
AcDbEntity
  8
0
 62
     3
100
AcDbMText
 10
268.3499226466009
 20
286.8156054650611
 30
0.0
 40
3.0
 41
0.0
 71
     5
 72
     1
  1
\A1;10
1001
ACAD
1000
MTEXTBEGIN
1070
    73
1070
     1
1070
    44
1040
1.0
1070
    74
1070
     0
1000
MTEXTEND
1000
MTEXTBEGIN
1070
    73
1070
     1
1070
    44
1040
1.0
1070
    74
1070
     0
1000
MTEXTEND
1000
MTEXTBEGIN
1070
    73
1070
     1
1070
    44
1040
1.0
1070
    74
1070
     0
1000
MTEXTEND
  0
POINT
  5
3EF
330
3E8
100
AcDbEntity
  8
DEFPOINTS
 62
     0
100
AcDbPoint
 10
273.349922646601
 20
249.48687907715
 30
0.0
  0
POINT
  5
3F0
330
3E8
100
AcDbEntity
  8
DEFPOINTS
 62
     0
100
AcDbPoint
 10
263.3499226466009
 20
259.9568790771503
 30
0.0
  0
POINT
  5
3F1
330
3E8
100
AcDbEntity
  8
DEFPOINTS
 62
     0
100
AcDbPoint
 10
263.3499226466009
 20
284.3156054650611
 30
0.0
  0
ENDBLK
  5
3F3
330
3E8
100
AcDbEntity
  8
0
100
AcDbBlockEnd
  0
ENDSEC
  0
SECTION
  2
ENTITIES
  0
LEADER
  5
9D
330
2
100
AcDbEntity
  8
0
100
AcDbLeader
  3
STANDARD
 74
     0
 40
13.0
 41
28.50892857142855
 76
     2
 10
154.9420307598593
 20
183.0998595179353
 30
0.0
 10
145.8252803676803
 20
167.805039887542
 30
0.0
1001
ACAD
1000
DSTYLE
1002
{
1070
     5
1000

1070
   342
1005
0
1002
}
  0
DIMENSION
  5
9F
102
{ACAD_XDICTIONARY
360
A0
102
}
102
{ACAD_REACTORS
330
A1
102
}
330
2
100
AcDbEntity
  8
0
100
AcDbDimension
  2
*D23
 10
57.43235237267981
 20
269.034592081351
 30
0.0
 11
68.52928207273682
 21
171.198846154724
 31
0.0
 70
    34
  3
STANDARD
100
AcDb2LineAngularDimension
 13
57.43235237267981
 23
226.9868790771552
 33
0.0
 14
75.68739237957197
 24
182.9153139108612
 34
0.0
 15
57.43235237267981
 25
184.939166072951
 35
0.0
 16
65.22041944603869
 26
167.8306365745205
 36
0.0
1001
ACAD
1000
DSTYLE
1002
{
1070
   271
1070
     1
1070
   179
1070
     1
1070
   271
1070
     0
1070
   271
1070
     1
1070
   271
1070
     1
1070
   271
1070
     1
1070
   271
1070
     1
1070
   271
1070
     1
1002
}
  0
LINE
  5
B1
330
2
100
AcDbEntity
  8
0
100
AcDbLine
 10
175.7537640566915
 20
20.3372781383423
 30
0.0
 11
278.097210013151
 21
20.33727813834139
 31
0.0
  0
DIMENSION
  5
B2
330
2
100
AcDbEntity
  8
0
100
AcDbDimension
  2
*D24
 10
276.5972100131603
 20
123.3660668150531
 30
0.0
 11
217.5972100131601
 21
123.3660668150531
 31
0.0
 70
   160
  3
STANDARD
100
AcDbAlignedDimension
 13
158.59721001316
 23
123.3660668150531
 33
0.0
 14
276.5972100131603
 24
95.64980091405232
 34
0.0
100
AcDbRotatedDimension
  0
LINE
  5
BF
330
2
100
AcDbEntity
  8
0
100
AcDbLine
 10
171.1997033253919
 20
25.3372781383423
 30
0.0
 11
276.097210013151
 21
25.3372781383423
 31
0.0
  0
LINE
  5
C0
330
2
100
AcDbEntity
  8
CEN
 48
0.6
100
AcDbLine
 10
290.5792873254213
 20
62.67980091405298
 30
0.0
 11
130.4103504562808
 21
62.67980091405298
 31
0.0
  0
LINE
  5
C3
330
2
100
AcDbEntity
  8
0
100
AcDbLine
 10
231.5972100131602
 20
97.17980091405298
 30
0.0
 11
164.6972100131515
 21
97.17980091405298
 31
0.0
  0
LINE
  5
C4
330
2
100
AcDbEntity
  8
0
100
AcDbLine
 10
231.5972100131602
 20
28.17980091405297
 30
0.0
 11
164.6972100131515
 21
28.17980091405297
 31
0.0
  0
ARC
  5
C5
330
2
100
AcDbEntity
  8
0
 48
0.6
100
AcDbCircle
 10
153.9254192153419
 20
81.80607538845151
 30
0.0
 40
116.9686661741607
100
AcDbArc
 50
210.1560153536115
 51
216.2412691602773
  0
ARC
  5
C6
330
2
100
AcDbEntity
  8
0
 48
0.6
100
AcDbCircle
 10
141.8669639992804
 20
74.57970771845339
 30
0.0
 40
95.84808274048763
100
AcDbArc
 50
210.4975034246499
 51
218.0575295674634
  0
ARC
  5
C7
330
2
100
AcDbEntity
  8
0
 48
0.6
100
AcDbCircle
 10
316.1243694219341
 20
67.19629753449821
 30
0.0
 40
155.4736010996057
100
AcDbArc
 50
195.899174670905
 51
202.6462055516931
  0
ARC
  5
C8
330
2
100
AcDbEntity
  8
0
100
AcDbCircle
 10
167.3593413400519
 20
15.73027687019657
 30
0.0
 40
8.907313409310658
100
AcDbArc
 50
24.23072274293794
 51
94.90087069775272
  0
LINE
  5
C9
102
{ACAD_REACTORS
330
CC
102
}
330
2
100
AcDbEntity
  8
CEN
  6
CENTER
 62
     1
 48
0.6
100
AcDbLine
 10
39.68282495757012
 20
62.67980091405842
 30
0.0
 11
57.93786496445136
 21
18.60823574776302
 31
0.0
  0
DIMENSION
  5
CA
102
{ACAD_XDICTIONARY
360
CB
102
}
102
{ACAD_REACTORS
330
CC
102
}
330
2
100
AcDbEntity
  8
0
100
AcDbDimension
  2
*D31
 10
39.6828249575592
 20
104.7275139182543
 30
0.0
 11
50.77975465761603
 21
6.891767991623788
 31
0.0
 70
    34
  3
STANDARD
100
AcDb2LineAngularDimension
 13
39.68282495757012
 23
62.67980091405842
 33
0.0
 14
57.93786496445136
 24
18.60823574776441
 34
0.0
 15
39.6828249575592
 25
20.63208790985345
 35
0.0
 16
47.47089203091769
 26
3.523558411420582
 36
0.0
1001
ACAD
1000
DSTYLE
1002
{
1070
   271
1070
     1
1070
   179
1070
     1
1070
   271
1070
     0
1070
   271
1070
     1
1070
   271
1070
     1
1070
   271
1070
     1
1070
   271
1070
     1
1070
   271
1070
     1
1002
}
  0
LINE
  5
DB
102
{ACAD_REACTORS
330
CC
102
}
330
2
100
AcDbEntity
  8
CEN
  6
CENTER
 48
0.6
100
AcDbLine
 10
39.6828249575592
 20
20.63208790985345
 30
0.0
 11
39.6828249575592
 21
104.7275139182534
 31
0.0
  0
LWPOLYLINE
  5
DC
330
2
100
AcDbEntity
  8
0
100
AcDbPolyline
 90
      548
 70
     0
 43
0.0
 10
59.58613115752086
 20
12.65574932048548
 10
59.58914657263085
 20
12.67032273527
 10
59.59269502395909
 20
12.68698242393838
 10
59.59632244214117
 20
12.70353546940532
 10
59.60002857242034
 20
12.71998222753744
 10
59.60381316004167
 20
12.73632305421415
 10
59.60767595024117
 20
12.75255830530295
 10
59.61161668826026
 20
12.76868833667822
 10
59.61563511935128
 20
12.78471350421523
 10
59.61973098875205
 20
12.80063416378425
 10
59.62390404170037
 20
12.81645067125828
 10
59.62815402344131
 20
12.83216338251031
 10
59.63248067923085
 20
12.84777265341426
 10
59.63688375429228
 20
12.86327883984222
 10
59.64136299387064
 20
12.87868229766718
 10
59.64591814321102
 20
12.89398338276214
 10
59.65054894757122
 20
12.90918245099917
 10
59.65525515217087
 20
12.92427985825042
 10
59.6600365022714
 20
12.93927596039248
 10
59.6648927430906
 20
12.95417111329561
 10
59.66982361990085
 20
12.9689656728292
 10
59.67482887793085
 20
12.98365999487305
 10
59.6799082624093
 20
12.99825443529653
 10
59.68506151860129
 20
13.01274934997127
 10
59.69028839174279
 20
13.02714509477346
 10
59.69558862707163
 20
13.04144202557017
 10
59.70096196982012
 20
13.05564049824124
 10
59.70640816526064
 20
13.06974086865511
 10
59.71192695860918
 20
13.08374349268615
 10
59.7175180951217
 20
13.09764872620825
 10
59.72318132003056
 20
13.11145692509126
 10
59.72891637858083
 20
13.12516844521042
 10
59.73472301602122
 20
13.13878364243826
 10
59.74060097759139
 20
13.15230287264648
 10
59.7465500085418
 20
13.16572649170802
 10
59.75256985409213
 20
13.17905485549635
 10
59.75866025950018
 20
13.1922883198863
 10
59.76482097002008
 20
13.20542724074721
 10
59.77105173087148
 20
13.21847197395435
 10
59.77735228731035
 20
13.23142287537803
 10
59.78372238457087
 20
13.24428030089438
 10
59.79016176791082
 20
13.25704460637416
 10
59.79667018255168
 20
13.26971614769127
 10
59.80324737375122
 20
13.28229528071824
 10
59.80989308675089
 20
13.29478236132627
 10
59.81660706678121
 20
13.3071777453915
 10
59.82338905910001
 20
13.31948178878519
 10
59.83023880894143
 20
13.33169484737845
 10
59.83715606155056
 20
13.34381727704522
 10
59.84414056217246
 20
13.35584943366119
 10
59.85119205604132
 20
13.36779167309441
 10
59.85831028840038
 20
13.37964435122239
 10
59.8654950045111
 20
13.39140782391223
 10
59.87274594959124
 20
13.40308244704238
 10
59.8800628688914
 20
13.41466857648401
 10
59.88744550765114
 20
13.42616656810923
 10
59.894893611121
 20
13.43757677779012
 10
59.90240692455153
 20
13.4488995614024
 10
59.90998519316054
 20
13.46013527481499
 10
59.91762816221124
 20
13.47128427390634
 10
59.92533557693059
 20
13.48234691454217
 10
59.93310718257998
 20
13.4933235526023
 10
59.94094272437904
 20
13.50421454395426
 10
59.94884194759106
 20
13.51502024447199
 10
59.95680459745199
 20
13.52574101003026
 10
59.96483041919963
 20
13.53637719650214
 10
59.97291915807181
 20
13.54692915975828
 10
59.98107055932087
 20
13.55739725567355
 10
59.98928436819007
 20
13.56778184011818
 10
59.99756032992081
 20
13.57808326896838
 10
60.00589818975096
 20
13.5883018980953
 10
60.01429769292188
 20
13.59843808337018
 10
60.02275858468056
 20
13.60849218066869
 10
60.03128061027019
 20
13.61846454586109
 10
60.0398635149304
 20
13.62835553482364
 10
60.04850704390992
 20
13.63816550342562
 10
60.05721094244108
 20
13.64789480754143
 10
60.0659749557708
 20
13.65754380304406
 10
60.07479882914958
 20
13.6671128458074
 10
60.0836823078007
 20
13.67660229170132
 10
60.09262513699105
 20
13.68601249660241
 10
60.10162706194023
 20
13.69534381637913
 10
60.11068782790971
 20
13.70459660690949
 10
60.11980718013
 20
13.71377122406147
 10
60.12898486384074
 20
13.72286802371125
 10
60.13822062429972
 20
13.73188736173142
 10
60.14751420673017
 20
13.74082959399356
 10
60.15686535640089
 20
13.74969507636842
 10
60.16627381852959
 20
13.75848416473445
 10
60.17573933836139
 20
13.76719721496056
 10
60.18526166115043
 20
13.77583458291836
 10
60.19484053214181
 20
13.78439662448545
 10
60.20447569656062
 20
13.79288369553023
 10
60.21416689966098
 20
13.80129615192845
 10
60.22391388668075
 20
13.80963434955265
 10
60.2337164028595
 20
13.81789864427219
 10
60.24357419346053
 20
13.82608939196552
 10
60.25348700370159
 20
13.83420694850019
 10
60.26345457883143
 20
13.84225166975328
 10
60.2734766641006
 20
13.85022391159508
 10
60.2835530047505
 20
13.85812402989813
 10
60.29368334601167
 20
13.86595238053859
 10
60.3038674331292
 20
13.8737093193863
 10
60.31410501135906
 20
13.88139520231334
 10
60.32439582594088
 20
13.88901038519543
 10
60.33473962211065
 20
13.8965552239033
 10
60.34513614510069
 20
13.90403007431223
 10
60.35558514018156
 20
13.91143529229339
 10
60.36608635257106
 20
13.9187712337184
 10
60.37663952751064
 20
13.92603825446167
 10
60.3872444102599
 20
13.93323671039615
 10
60.39790074606026
 20
13.94036695739441
 10
60.40860828014229
 20
13.94742935132808
 10
60.41936675775104
 20
13.95442424807333
 10
60.43017592413161
 20
13.96135200349817
 10
60.44103552453089
 20
13.96821297347924
 10
60.45194530418122
 20
13.97500751388906
 10
60.46290500832945
 20
13.98173598059837
 10
60.47391438222985
 20
13.98839872948338
 10
60.48497317110197
 20
13.9949961164134
 10
60.49608112021086
 20
14.00152849726326
 10
60.50723797477985
 20
14.00799622790555
 10
60.51844348007034
 20
14.01439966421048
 10
60.52969738130922
 20
14.02073916205744
 10
60.54099942374159
 20
14.02701507731261
 10
60.5523493526216
 20
14.03322776585037
 10
60.56374691317977
 20
14.03937758354732
 10
60.57519185066121
 20
14.04546488627238
 10
60.58668391031097
 20
14.05149002990038
 10
60.59822283737047
 20
14.0574533703011
 10
60.60980837707939
 20
14.0633552633535
 10
60.62144027468093
 20
14.06919606492329
 10
60.63311827543111
 20
14.07497613088799
 10
60.64484212455136
 20
14.08069581711925
 10
60.6566115672922
 20
14.08635547949006
 10
60.66842634890054
 20
14.09195547387342
 10
60.68028621461053
 20
14.09749615614009
 10
60.69219090967999
 20
14.10297788216621
 10
60.70414017933035
 20
14.10840100782341
 10
60.71613376882122
 20
14.11376588898338
 10
60.72817142337953
 20
14.11907288151951
 10
60.74025288827215
 20
14.12432234130528
 10
60.75237790870961
 20
14.12951462421323
 10
60.76454622997154
 20
14.13465008611638
 10
60.77675759727026
 20
14.13972908288633
 10
60.78901175585087
 20
14.14475197039744
 10
60.80130845097118
 20
14.14971910452321
 10
60.81364742785989
 20
14.15463084113616
 10
60.82602843177118
 20
14.15948753610519
 10
60.83845120794102
 20
14.1642895453092
 10
60.85091550161087
 20
14.16903722461755
 10
60.86342105803121
 20
14.17373092990237
 10
60.87596762243084
 20
14.17837101703844
 10
60.8885549400602
 20
14.1829578418983
 10
60.90118275616986
 20
14.18749176035634
 10
60.91385081599037
 20
14.19197312828146
 10
60.92655886476133
 20
14.19640230154755
 10
60.93930664773143
 20
14.20077963603215
 10
60.95209391015123
 20
14.20510548760239
 10
60.96492039725125
 20
14.2093802121326
 10
60.97778585427113
 20
14.21360416549714
 10
60.99069002647047
 20
14.21777770356811
 10
61.00363265908163
 20
14.22190118221942
 10
61.01661349734057
 20
14.22597495732224
 10
61.02963228649969
 20
14.22999938474822
 10
61.04268877180039
 20
14.23397482037353
 10
61.05578269848047
 20
14.23790162007025
 10
61.06891381178138
 20
14.24178013970913
 10
61.08208185695002
 20
14.24561073516452
 10
61.09528657923147
 20
14.2493937623094
 10
61.10852772385988
 20
14.25312957701635
 10
61.12180503609124
 20
14.25681853515743
 10
61.13511826115064
 20
14.26046099260702
 10
61.14846714430132
 20
14.2640573052372
 10
61.16185143076108
 20
14.2676078289205
 10
61.17527086579139
 20
14.27111291953042
 10
61.18872519463002
 20
14.27457293293944
 10
61.20221416250934
 20
14.27798822502109
 10
61.21573751469077
 20
14.28135915164602
 10
61.22929499640122
 20
14.28468606868955
 10
61.24288635289122
 20
14.2879693320242
 10
61.25651132939129
 20
14.29120929752252
 10
61.27016967115924
 20
14.29440632105615
 10
61.28386112344196
 20
14.29756075849945
 10
61.29758543146088
 20
14.30067296572451
 10
61.31134234047204
 20
14.30374329860342
 10
61.32513159571136
 20
14.30677211301143
 10
61.33895294242029
 20
14.30975976482113
 10
61.3528061258512
 20
14.3127066099023
 10
61.36669089125097
 20
14.31561300412931
 10
61.38060698384107
 20
14.31847930337698
 10
61.39455414888107
 20
14.32130586351559
 10
61.40853213159971
 20
14.32409304042039
 10
61.42254067726026
 20
14.32684118996212
 10
61.43657953109141
 20
14.32955066801332
 10
61.45064843832187
 20
14.33222183044926
 10
61.46474714422038
 20
14.33485503314159
 10
61.47887539402109
 20
14.33745063196147
 10
61.49303293295997
 20
14.34000898278418
 10
61.50721950628031
 20
14.34253044148317
 10
61.5214348592308
 20
14.34501536392736
 10
61.53567873705106
 20
14.34746410599244
 10
61.54995088498072
 20
14.34987702355238
 10
61.56425104826121
 20
14.3522544724783
 10
61.57857897214126
 20
14.35459680864141
 10
61.59293440187139
 20
14.35690438791743
 10
61.60731708267121
 20
14.35917756617846
 10
61.62172675980037
 20
14.36141669929748
 10
61.63616317849118
 20
14.36362214314748
 10
61.65062608399239
 20
14.36579425359923
 10
61.66511522155087
 20
14.36793338652933
 10
61.67963033640081
 20
14.3700398978076
 10
61.69417117379089
 20
14.37211414330659
 10
61.70873747894984
 20
14.37415647890111
 10
61.72332899714092
 20
14.37616726046325
 10
61.73794547359102
 20
14.37814684386421
 10
61.75258665355068
 20
14.38009558497924
 10
61.76725228226132
 20
14.38201383968225
 10
61.78194210495894
 20
14.38390196384307
 10
61.79665586689043
 20
14.3857603133365
 10
61.81139331330085
 20
14.38758924403328
 10
61.82615418942987
 20
14.38938911180912
 10
61.8409382405316
 20
14.3911602725343
 10
61.85574521182207
 20
14.39290308208319
 10
61.87057484856996
 20
14.39461789632832
 10
61.88542689600034
 20
14.39630507114225
 10
61.90030109936015
 20
14.39796496239932
 10
61.9151972039017
 20
14.39959792596936
 10
61.93011495485915
 20
14.40120431772855
 10
61.94505409747034
 20
14.40278449354627
 10
61.96001437699123
 20
14.40433880929731
 10
61.97499553865053
 20
14.40586762085422
 10
61.98999732770062
 20
14.40737128409225
 10
62.00501948937925
 20
14.40885015488127
 10
62.02006176893156
 20
14.41030458909517
 10
62.03512391159165
 20
14.41173494260556
 10
62.05020566261008
 20
14.41314157128727
 10
62.06530676723014
 20
14.41452483101011
 10
62.08042697069139
 20
14.41588507765118
 10
62.09556601824079
 20
14.41722266708119
 10
62.11072365511063
 20
14.41853795517227
 10
62.12589962656057
 20
14.41983129779828
 10
62.1410936778102
 20
14.42110305083224
 10
62.15630555412099
 20
14.42235357014624
 10
62.17153500073071
 20
14.42358321161236
 10
62.18678176287176
 20
14.42479233110407
 10
62.20204558580006
 20
14.42598128449708
 10
62.21732621475164
 20
14.42715042766212
 10
62.2326233949716
 20
14.42830011646947
 10
62.24793687170132
 20
14.4294307067953
 10
62.26326639018044
 20
14.4305425545117
 10
62.2786116956504
 20
14.43163601549167
 10
62.29397253335992
 20
14.4327114456064
 10
62.30934864855043
 20
14.43376920073023
 10
62.32473978645976
 20
14.43480963673708
 10
62.34014569234204
 20
14.43583310949724
 10
62.35556611142055
 20
14.4368399748855
 10
62.37100078894946
 20
14.43783058877443
 10
62.38644947017018
 20
14.43880530703609
 10
62.40191190033147
 20
14.43976448554349
 10
62.41738782467109
 20
14.44070848016917
 10
62.43287698842141
 20
14.44163764678705
 10
62.44837913684023
 20
14.44255234127012
 10
62.46389401515989
 20
14.44345291948911
 10
62.47942136863093
 20
14.44433973732111
 10
62.49496094249116
 20
14.44521315063501
 10
62.51051248198018
 20
14.4460735153043
 10
62.52607573234127
 20
14.44692118720149
 10
62.54165043882132
 20
14.44775652220232
 10
62.55723634665992
 20
14.44857987617615
 10
62.57283320110037
 20
14.44939160499734
 10
62.58844074739136
 20
14.45019206454162
 10
62.60405873075979
 20
14.45098161067653
 10
62.61968689647074
 20
14.45176059927644
 10
62.635324989742
 20
14.45252938621706
 10
62.65097275582228
 20
14.45328832736913
 10
62.66662993997124
 20
14.45403777860517
 10
62.68229628742119
 20
14.45477809580052
 10
62.69797154340086
 20
14.45550963482219
 10
62.71365545318076
 20
14.45623275155048
 10
62.72934776197143
 20
14.45694780185204
 10
62.74504821504161
 20
14.45765514160439
 10
62.7607565576218
 20
14.45835512667827
 10
62.77647253495889
 20
14.45904811294531
 10
62.79219589229068
 20
14.45973445628033
 10
62.80792637486046
 20
14.46041451255541
 10
62.82366372790966
 20
14.46108863764401
 10
62.83940769668152
 20
14.46175718741824
 10
62.85515802643022
 20
14.46242051775107
 10
62.87091446238083
 20
14.46307898451641
 10
62.88667674978023
 20
14.46373294358636
 10
62.90244463388082
 20
14.46438275083163
 10
62.91821785992033
 20
14.46502876212844
 10
62.93399617312934
 20
14.46567133334838
 10
62.9497793187711
 20
14.466310820364
 10
62.96556704207068
 20
14.46694757904833
 10
62.98135908828044
 20
14.46758196527435
 10
62.99715520264181
 20
14.46821433491457
 10
63.01295513039256
 20
14.46884504384252
 10
63.02875861677057
 20
14.46947444792931
 10
63.04456540702995
 20
14.47010290305114
 10
63.06037524641033
 20
14.47073076507648
 10
63.07618788015133
 20
14.4713583898824
 10
63.09200305350168
 20
14.47198613333921
 10
63.1078205116919
 20
14.4726143513194
 10
63.12363999997979
 20
14.47324339969918
 10
63.13946126359224
 20
14.47387363434744
 10
63.15528404778159
 20
14.47450541113949
 10
63.17110809779115
 20
14.47513908594737
 10
63.18693315885139
 20
14.47577501464228
 10
63.20275897622014
 20
14.4764135531004
 10
63.21858529513156
 20
14.47705505719204
 10
63.23441186083073
 20
14.47769988279014
 10
63.25023841855909
 20
14.47834838577136
 10
63.26606471355989
 20
14.47900092200325
 10
63.28189049107096
 20
14.47965784736106
 10
63.29771549634097
 20
14.48031951771918
 10
63.31353947462229
 20
14.4809862889474
 10
63.32936217113092
 20
14.48165851691918
 10
63.3451833311301
 20
14.48233655750846
 10
63.36100269985036
 20
14.4830207665891
 10
63.37682002254222
 20
14.48371150003139
 10
63.3926350444508
 20
14.48440911371152
 10
63.40844751081021
 20
14.48511396349749
 10
63.42425716686012
 20
14.48582640526729
 10
63.44006375786012
 20
14.48654679488936
 10
63.45586702904256
 20
14.48727548823943
 10
63.47166672564164
 20
14.48801284118917
 10
63.48746259290965
 20
14.48875920961245
 10
63.50325437609171
 20
14.48951494938228
 10
63.51904182042199
 20
14.49028041637029
 10
63.5348246711419
 20
14.49105596644949
 10
63.5506026735111
 20
14.49184195549241
 10
63.56637557275099
 20
14.49263873937343
 10
63.58214311411028
 20
14.49344667396326
 10
63.59790504284139
 20
14.49426611513627
 10
63.61366110417112
 20
14.49509741876636
 10
63.62941104336096
 20
14.49594094072335
 10
63.64515460563052
 20
14.49679703688343
 10
63.66089153624124
 20
14.49766606311641
 10
63.67662158043096
 20
14.49854837529755
 10
63.69234448344105
 20
14.49944432929805
 10
63.70805999051118
 20
14.50035428099134
 10
63.72376784687912
 20
14.50127858625046
 10
63.73946779780089
 20
14.50221760094746
 10
63.75515958851064
 20
14.50317168095762
 10
63.77084296424982
 20
14.50414118214939
 10
63.78651767027077
 20
14.50512646040033
 10
63.80218345180035
 20
14.50612787158024
 10
63.81784005409099
 20
14.50714577156441
 10
63.83348722239134
 20
14.50818051622217
 10
63.84912470193011
 20
14.5092324614302
 10
63.86475223795059
 20
14.51030196305826
 10
63.88036957570147
 20
14.51138937698351
 10
63.89597646043148
 20
14.51249505907251
 10
63.91157263737113
 20
14.51361936520334
 10
63.92715785177097
 20
14.51476265124665
 10
63.94273184887061
 20
14.5159252730732
 10
63.95829437390965
 20
14.51710758656008
 10
63.97384517212959
 20
14.51830994758029
 10
63.98938398879181
 20
14.51953271200135
 10
64.00491056911049
 20
14.52077623570039
 10
64.02042465834163
 20
14.52204087455038
 10
64.03592600172124
 20
14.52332698442249
 10
64.05141434451071
 20
14.52463492118931
 10
64.06688943192968
 20
14.52596504072744
 10
64.08235100924139
 20
14.52731769890442
 10
64.09779882167095
 20
14.52869325159736
 10
64.11323261445978
 20
14.53009205467649
 10
64.12865213287114
 20
14.53151446401534
 10
64.14405712213009
 20
14.53296083548548
 10
64.15944732747994
 20
14.5344315249631
 10
64.17482249417115
 20
14.53592688831849
 10
64.19018236744159
 20
14.5374472814251
 10
64.20552669253083
 20
14.53899306015728
 10
64.22085521468034
 20
14.5405645803853
 10
64.23616767914245
 20
14.54216219798218
 10
64.25146383116043
 20
14.54378626882226
 10
64.26674341596117
 20
14.54543714877944
 10
64.28200617880064
 20
14.5471151937254
 10
64.29725186492032
 20
14.54882075952946
 10
64.3124802195507
 20
14.55055420207099
 10
64.32769098794231
 20
14.55231587721709
 10
64.34288391535119
 20
14.55410614084348
 10
64.35805874699145
 20
14.55592534882407
 10
64.37321522812999
 20
14.55777385702822
 10
64.388353104001
 20
14.55965202133211
 10
64.40347211984044
 20
14.56156019760737
 10
64.41857202090068
 20
14.56349874172429
 10
64.43365255242134
 20
14.5654680095613
 10
64.4487134596511
 20
14.56746835698641
 10
64.46375448780964
 20
14.56950013987625
 10
64.47877538216015
 20
14.57156371410019
 10
64.49377588794959
 20
14.57365943553122
 10
64.50875575040118
 20
14.57578766004508
 10
64.5237147147709
 20
14.57794874351248
 10
64.53865252630203
 20
14.58014304180732
 10
64.55356893022146
 20
14.58237091080035
 10
64.56846367179242
 20
14.58463270636821
 10
64.58333649624183
 20
14.58692878437932
 10
64.59818714882022
 20
14.58925950071169
 10
64.61301537477083
 20
14.59162521123244
 10
64.62782091933149
 20
14.59402627181907
 10
64.64260352775091
 20
14.59646303834233
 10
64.65736294525959
 20
14.5989358666734
 10
64.6720989171099
 20
14.60144511268843
 10
64.68681118854147
 20
14.60399113226048
 10
64.70149950480116
 20
14.60657428125839
 10
64.71616361113047
 20
14.60919491556023
 10
64.73080325275986
 20
14.61185339103349
 10
64.74541817495083
 20
14.61455006355345
 10
64.76000812292113
 20
14.61728528899448
 10
64.77457284194135
 20
14.62005942322821
 10
64.78911207724195
 20
14.62287282212628
 10
64.80362557406079
 20
14.62572584156441
 10
64.8181130776411
 20
14.62861883741243
 10
64.8325743332407
 20
14.63155216554514
 10
64.84700908608101
 20
14.63452618183326
 10
64.86141708141076
 20
14.63754124215211
 10
64.87579806447138
 20
14.64059770237327
 10
64.89015178052068
 20
14.64369591837021
 10
64.90447797478009
 20
14.64683624601638
 10
64.91877639250197
 20
14.65001904118253
 10
64.93304677893139
 20
14.65324465974117
 10
64.94728887930978
 20
14.65651345756805
 10
64.96150243888043
 20
14.65982579053525
 10
64.97568720287199
 20
14.6631820145144
 10
64.9898429165496
 20
14.66658248537805
 10
65.00396932514195
 20
14.67002755900328
 10
65.01806617389229
 20
14.67351759125631
 10
65.03213320803116
 20
14.67705293801327
 10
65.0461701728309
 20
14.68063395514718
 10
65.06017681351115
 20
14.68426099853241
 10
65.07415287532058
 20
14.68793442403828
 10
65.08809810351158
 20
14.6916545875415
 10
65.10201224331104
 20
14.69542184491138
 10
65.11589503996038
 20
14.69923655202364
 10
65.12974623872104
 20
14.70309906474949
 10
65.14356558480904
 20
14.70700973896055
 10
65.15735282350033
 20
14.71096893053252
 10
65.17110770000181
 20
14.71497699533756
 10
65.18482995958038
 20
14.71903428924633
 10
65.19851934747021
 20
14.72314116813504
 10
65.21217560890909
 20
14.72729798787256
 10
65.2257984891603
 20
14.73150510433742
 10
65.23938773344162
 20
14.73576287339526
 10
65.25294308699995
 20
14.74007165092553
 10
65.26646429509128
 20
14.7444317927966
 10
65.27995110294249
 20
14.74884365488241
 10
65.2934032558005
 20
14.75330759305824
 10
65.3068204989213
 20
14.75782396319434
 10
65.32020257752993
 20
14.76239312116422
 10
65.33354923688057
 20
14.76701542283899
 10
65.34686022220012
 20
14.77169122409759
 10
65.36013527875184
 20
14.77642088080528
 10
65.37337415177171
 20
14.78120474883826
 10
65.38657658649208
 20
14.78604318407133
 10
65.39974232815075
 20
14.79093654237431
 10
65.4128711220219
 20
14.7958851796202
 10
65.42596271332151
 20
14.80088945168427
 10
65.43901684728007
 20
14.80594971443815
 10
65.4520332691809
 20
14.81106632375213
 10
65.46501172424178
 20
14.81623963550328
 10
65.4779519576914
 20
14.82147000556324
 10
65.49085371480032
 20
14.82675778980409
 10
65.50371674079179
 20
14.83210334409614
 10
65.51654078092179
 20
14.83750702431825
 10
65.52932558043176
 20
14.84296918633615
 10
65.54207088454131
 20
14.84849018603063
 10
65.554776438521
 20
14.85407037926734
 10
65.56744198760134
 20
14.85971012192249
 10
65.58006727702923
 20
14.86540976986816
 10
65.59265205204065
 20
14.87116967897918
 10
65.60519605788067
 20
14.87699020512627
 10
65.61769903980168
 20
14.88287170418334
 10
65.6301607430214
 20
14.88881453202111
 10
65.64258091281044
 20
14.89481904451531
 10
65.65495929440112
 20
14.90088559753758
 10
65.66729563302215
 20
14.90701454696136
 10
65.67958967394225
 20
14.91320624865738
 10
65.69184116237011
 20
14.9194610585009
 10
65.70404984357992
 20
14.92577933236361
 10
65.71621546280039
 20
14.93216142611845
 10
65.72833776527113
 20
14.93860769563934
 10
65.74041649625178
 20
14.94511849679838
 10
65.75245140096012
 20
14.9516941854672
 10
65.76444222465034
 20
14.95833511752016
 10
65.77638871257113
 20
14.96504164882935
 10
65.78829060995122
 20
14.97181413526914
 10
65.80014766205022
 20
14.97865293271024
 10
65.81195961409139
 20
14.98555839702748
 10
65.82372621133072
 20
14.99253088409159
 10
65.83544719900965
 20
14.99957074977646
 10
65.84712232237142
 20
15.0066783499551
 10
65.85875132665023
 20
15.01385404050233
 10
65.87033395709113
 20
15.02109817728614
 10
65.88186995894102
 20
15.02841111618318
 10
65.89335907744135
 20
15.03579321306642
 10
65.90480105783171
 20
15.04324482380615
 10
65.91619564536085
 20
15.05076630427855
 10
65.9275425852702
 20
15.058358010353
 10
65.93884162279209
 20
15.06602029790519
 10
65.9500925031716
 20
15.07375352280542
 10
65.9612949716593
 20
15.08155804092803
 10
65.97244877350021
 20
15.08943420814603
 10
65.98355365392126
 20
15.09738238033422
 10
65.99460935818024
 20
15.10540291336019
 10
66.0056156315204
 20
15.11349616310144
 10
66.01657221917047
 20
15.12166248542734
 10
66.02747886638097
 20
15.12990223621454
 10
66.03833531839154
 20
15.13821577133421
 10
66.04914132045087
 20
15.14660344665708
 10
66.05989661779131
 20
15.15506561806023
 10
66.07060095565976
 20
15.16360264141211
 10
66.08125407931038
 20
15.17221487258939
 10
66.0918557339719
 20
15.18090266746139
 10
66.10240566488028
 20
15.18966638190431
 10
66.11290361730062
 20
15.19850637178706
 10
66.12334933645979
 20
15.20742299298717
 10
66.13374256760107
 20
15.21641660137538
 10
66.14408305597135
 20
15.22548755282332
 10
66.15437054681024
 20
15.23463620320399
 10
66.16460478536101
 20
15.24386290839174
 10
66.17478551685961
 20
15.25316802425957
 10
66.18491248657119
 20
15.26255190667825
 10
66.19498543970985
 20
15.27201491152436
 10
66.20500412154251
 20
15.28155739466638
 10
66.2149682772797
 20
15.2911797119791
 10
66.22487765220103
 20
15.30088221933647
 10
66.23473199152067
 20
15.31066527260918
 10
66.24453104050008
 20
15.32052922767205
 10
66.25427454438067
 20
15.33047444039766
 10
66.26396224838027
 20
15.34050126665714
 10
66.27359389777122
 20
15.35061006232353
 10
66.28316923778038
 20
15.36080118327208
 10
66.29268801366014
 20
15.37107498537443
 10
66.30214997064104
 20
15.38143182450221
 10
66.31155485398085
 20
15.39187205653024
 10
66.32090240890102
 20
15.40239603732834
 10
66.33019238066117
 20
15.41300412277403
 10
66.33942451449184
 20
15.42369666873628
 10
66.34859855565081
 20
15.43447403108939
 10
66.35771424937047
 20
15.44533656570638
 10
66.3667713408904
 20
15.45628462845843
 10
66.37576957545936
 20
15.46731857522126
 10
66.38470869832236
 20
15.47843876186516
 10
66.39358845470997
 20
15.48964554426447
 10
66.39693290522155
 20
15.49392794287132
  0
TEXT
  5
DD
330
2
100
AcDbEntity
  8
DIM
100
AcDbText
 10
101.1884299578595
 20
5.497961724444394
 30
0.0
 40
3.5
  1
 LEAD WIRE 300mm
100
AcDbText
  0
LINE
  5
DF
330
2
100
AcDbEntity
  8
0
 62
   123
 48
0.6
100
AcDbLine
 10
159.0725677342304
 20
3.497961724444393
 30
0.0
 11
99.81840990686031
 21
3.497961724444393
 31
0.0
  0
ARC
  5
E0
330
2
100
AcDbEntity
  8
0
 48
0.6
100
AcDbCircle
 10
317.2572649407479
 20
66.8834538658713
 30
0.0
 40
149.5201027707818
100
AcDbArc
 50
198.5218553161188
 51
203.4572709236968
  0
LWPOLYLINE
  5
E1
330
2
100
AcDbEntity
  8
0
100
AcDbPolyline
 90
      467
 70
     0
 43
0.0
 10
172.6377820023833
 20
7.332787199984069
 10
172.639980284454
 20
7.333862285765918
 10
172.6602245347047
 20
7.343664386406997
 10
172.680444000084
 20
7.353356290278949
 10
172.700638723704
 20
7.362938439594918
 10
172.7208087486731
 20
7.372411276564888
 10
172.7409541181138
 20
7.381775243398799
 10
172.7610748751238
 20
7.391030782310278
 10
172.7811710628236
 20
7.400178335507007
 10
172.8012427243126
 20
7.409218345204858
 10
172.8212899027246
 20
7.418151253611988
 10
172.8413126411548
 20
7.426977502941098
 10
172.8613109827026
 20
7.435697535399869
 10
172.8812849705035
 20
7.444311793204179
 10
172.9012346476634
 20
7.452820718563088
 10
172.921160057284
 20
7.461224753687931
 10
172.9410612424731
 20
7.469524340790027
 10
172.9609382463629
 20
7.47771992208027
 10
172.9807911120539
 20
7.48581193976997
 10
173.0006198826419
 20
7.493800836069111
 10
173.0204246012625
 20
7.501687053192199
 10
173.0402053110126
 20
7.509471033346008
 10
173.0599620550044
 20
7.517153218746896
 10
173.0796948763534
 20
7.524734051602077
 10
173.099403818175
 20
7.532213974122901
 10
173.1190889235736
 20
7.53959342852204
 10
173.1387502356545
 20
7.546872857010378
 10
173.1583877975433
 20
7.554052701797897
 10
173.1780016523431
 20
7.561133405096817
 10
173.1975918431641
 20
7.568115409118941
 10
173.2171584131235
 20
7.574999156076949
 10
173.236701405324
 20
7.581785088177179
 10
173.2562208628849
 20
7.588473647634148
 10
173.2757168289033
 20
7.59506527665871
 10
173.2951893465131
 20
7.601560417461307
 10
173.3146384588131
 20
7.607959512253267
 10
173.334064208912
 20
7.614263003247738
 10
173.3534666399343
 20
7.620471332653317
 10
173.3728457949735
 20
7.626584942682255
 10
173.3922017171431
 20
7.632604275544047
 10
173.4115344495736
 20
7.638529773454138
 10
173.430844035353
 20
7.644361878619747
 10
173.4501305176024
 20
7.650101033251758
 10
173.4693939394334
 20
7.655747679566048
 10
173.4886343439637
 20
7.661302259768026
 10
173.507851774292
 20
7.666765216074048
 10
173.5270462735341
 20
7.672136990692249
 10
173.5462178848035
 20
7.677418025832139
 10
173.5653666512123
 20
7.682608763709137
 10
173.5844926158739
 20
7.687709646531858
 10
173.6035958218823
 20
7.692721116512067
 10
173.622676312373
 20
7.697643615862028
 10
173.641734130443
 20
7.702477586792147
 10
173.6607693192133
 20
7.707223471511946
 10
173.6797819217833
 20
7.711881712234117
 10
173.6987719812739
 20
7.716452751169977
 10
173.717739540793
 20
7.720937030529967
 10
173.7366846434422
 20
7.725334992527218
 10
173.7556073323438
 20
7.729647079370809
 10
173.7745076506131
 20
7.733873733272048
 10
173.7933856413534
 20
7.738015396444098
 10
173.8122413476745
 20
7.742072511095099
 10
173.831074812692
 20
7.746045519439118
 10
173.8498860795251
 20
7.749934863687029
 10
173.8686751912634
 20
7.753740986046977
 10
173.887442191043
 20
7.75746432873302
 10
173.9061871219535
 20
7.761105333955129
 10
173.9249100271141
 20
7.764664443925989
 10
173.9436109496425
 20
7.768142100854218
 10
173.9622899326429
 20
7.77153874695386
 10
173.9809470192328
 20
7.774854824435808
 10
173.9995822525241
 20
7.778090775510007
 10
174.0181956756138
 20
7.781247042385068
 10
174.0367873316341
 20
7.784324067276878
 10
174.0553572636733
 20
7.787322292394946
 10
174.0739055148631
 20
7.790242159950136
 10
174.0924321283043
 20
7.793084112153787
 10
174.1109371471037
 20
7.795848591218147
 10
174.1294206143837
 20
7.798536039352256
 10
174.1478825732544
 20
7.801146898767909
 10
174.1663230668135
 20
7.803681611678258
 10
174.1847421381924
 20
7.806140620290988
 10
174.2031398304831
 20
7.808524366821067
 10
174.221516186814
 20
7.810833293477116
 10
174.2398712502915
 20
7.813067842469988
 10
174.2582050640126
 20
7.815228456011928
 10
174.2765176711133
 20
7.817315576316099
 10
174.2948091146833
 20
7.819329645591999
 10
174.3130794378345
 20
7.821271106049147
 10
174.3313286836935
 20
7.823140399901147
 10
174.3495568953628
 20
7.824937969359316
 10
174.3677641159616
 20
7.826664256631826
 10
174.3859503885839
 20
7.828319703932255
 10
174.404115756354
 20
7.829904753471048
 10
174.4222602623836
 20
7.831419847459978
 10
174.4403839497833
 20
7.832865428109919
 10
174.4584868616535
 20
7.83424193763312
 10
174.4765690411119
 20
7.83554981823681
 10
174.4946305312829
 20
7.83678951213915
 10
174.5126713752621
 20
7.837961461544179
 10
174.5306916161631
 20
7.839066108669157
 10
174.5486912971034
 20
7.840103895719948
 10
174.5666704611838
 20
7.841075264910156
 10
174.5846291515233
 20
7.841980658451117
 10
174.602567411234
 20
7.842820518553247
 10
174.6204852834241
 20
7.843595287430157
 10
174.6383828112126
 20
7.844305407289986
 10
174.6562600376916
 20
7.844951320344986
 10
174.6741170059928
 20
7.845533468807837
 10
174.6919537592245
 20
7.846052294886249
 10
174.7097703404821
 20
7.846508240794259
 10
174.7275667928921
 20
7.846901748744127
 10
174.7453431595539
 20
7.847233260943077
 10
174.7630994835933
 20
7.847503219606088
 10
174.7808358081243
 20
7.847712066940858
 10
174.7985521762336
 20
7.847860245162787
 10
174.8162486310546
 20
7.847948196477767
 10
174.8339252156826
 20
7.847976363102128
 10
174.8515819732426
 20
7.847945187244019
 10
174.8692189468426
 20
7.847855111116127
 10
174.8868361795928
 20
7.847706576928877
 10
174.904433714603
 20
7.847500026893158
 10
174.9220115949834
 20
7.847235903222098
 10
174.9395698638533
 20
7.846914648122949
 10
174.9571085643135
 20
7.84653670381112
 10
174.9746277394739
 20
7.846102512496137
 10
174.9921274324631
 20
7.845612516387968
 10
175.0096076863634
 20
7.845067157698847
 10
175.0270685443235
 20
7.844466878641008
 10
175.0445100494241
 20
7.84381212142625
 10
175.0619322447825
 20
7.843103328260888
 10
175.0793351735234
 20
7.84234094136036
 10
175.0967188787442
 20
7.841525402935078
 10
175.114083403562
 20
7.840657155194996
 10
175.1314287910834
 20
7.839736640352839
 10
175.1487550844236
 20
7.838764300619907
 10
175.1660623267041
 20
7.837740578208917
 10
175.1833505610126
 20
7.836665915324828
 10
175.2006198304831
 20
7.835540754186236
 10
175.2178701782128
 20
7.83436553699812
 10
175.235101647312
 20
7.833140705977257
 10
175.2523142809121
 20
7.831866703329978
 10
175.2695081221033
 20
7.830543971271247
 10
175.2866832139923
 20
7.82917295200878
 10
175.3038395997124
 20
7.827754087757959
 10
175.320977322363
 20
7.826287820726059
 10
175.3380964250524
 20
7.824774593127129
 10
175.3551969509032
 20
7.823214847171128
 10
175.3722789430127
 20
7.821609025065747
 10
175.3893424445038
 20
7.819957569027787
 10
175.4063874984738
 20
7.818260921269028
 10
175.4234141480543
 20
7.816519523993968
 10
175.440422436334
 20
7.814733819418957
 10
175.4574124064426
 20
7.812904249754858
 10
175.474384101483
 20
7.811031257211198
 10
175.4913375645634
 20
7.80911528400111
 10
175.5082728388031
 20
7.807156772333199
 10
175.5251899673047
 20
7.805156164420169
 10
175.5420889931926
 20
7.803113902475156
 10
175.5589699595645
 20
7.801030428704956
 10
175.575832909534
 20
7.798906185324077
 10
175.5926778862128
 20
7.796741614542039
 10
175.6095049327238
 20
7.794537158571977
 10
175.6263140921626
 20
7.792293259621138
 10
175.6431054076536
 20
7.790010359904949
 10
175.6598789222923
 20
7.78768890163519
 10
175.6766346792125
 20
7.785329327018192
 10
175.6933727215024
 20
7.782932078268906
 10
175.7100930922831
 20
7.780497597596871
 10
175.7267958346625
 20
7.778026327213861
 10
175.7434809917636
 20
7.775518709332116
 10
175.760148606684
 20
7.772975186161148
 10
175.7767987225439
 20
7.770396199912279
 10
175.7934313824541
 20
7.767782192799128
 10
175.8100466295133
 20
7.765133607028022
 10
175.8266445068426
 20
7.762450884815728
 10
175.843225057554
 20
7.759734468369058
 10
175.8597883247627
 20
7.756984799902049
 10
175.8763343515736
 20
7.754202321624229
 10
175.8928631810929
 20
7.751387475747829
 10
175.9093748564416
 20
7.748540704483731
 10
175.9258694207336
 20
7.745662450042797
 10
175.9423469170748
 20
7.742753154635917
 10
175.958807388563
 20
7.739813260473959
 10
175.9752508783338
 20
7.736843209770077
 10
175.9916774294749
 20
7.733843444736058
 10
176.0080870851241
 20
7.730814407578237
 10
176.0244798883729
 20
7.727756540511109
 10
176.0408558823334
 20
7.724670285746007
 10
176.0572151101248
 20
7.721556085493826
 10
176.0735576148533
 20
7.718414381967246
 10
176.0898834396326
 20
7.715245617373059
 10
176.106192627573
 20
7.712050233927127
 10
176.1224852217826
 20
7.708828673839888
 10
176.1387612653841
 20
7.705581379319029
 10
176.1550208014748
 20
7.702308792579056
 10
176.171263873174
 20
7.699011355830857
 10
176.1874905235933
 20
7.695689511284849
 10
176.2037007958338
 20
7.692343701151908
 10
176.2198947330241
 20
7.688974367643818
 10
176.2360723782536
 20
7.685581952971917
 10
176.2522337746546
 20
7.682166899347066
 10
176.2683789653335
 20
7.678729648980147
 10
176.2845079933928
 20
7.675270644082049
 10
176.3006209019428
 20
7.671790326864987
 10
176.3167177341135
 20
7.668289139540767
 10
176.332798532993
 20
7.664767524317986
 10
176.3488633417044
 20
7.661225923411159
 10
176.3649122033644
 20
7.657664779030247
 10
176.3809451610621
 20
7.654084533383857
 10
176.396962257943
 20
7.65048562868605
 10
176.4129635370835
 20
7.646868507146787
 10
176.4289490416236
 20
7.643233610978767
 10
176.4449188146542
 20
7.639581382393317
 10
176.4608728992924
 20
7.635912263596306
 10
176.476811338655
 20
7.632226696806807
 10
176.4927341758546
 20
7.628525124231138
 10
176.5086414539844
 20
7.62480798808019
 10
176.5245332161838
 20
7.621075730568917
 10
176.5404095055334
 20
7.617328793905019
 10
176.5562703651746
 20
7.613567620301179
 10
176.5721158381935
 20
7.609792651966929
 10
176.5879459677132
 20
7.606004331116757
 10
176.6037607968543
 20
7.602203099959297
 10
176.6195603687035
 20
7.59838940070494
 10
176.6353447263925
 20
7.59456367556686
 10
176.6511139130241
 20
7.590726366755908
 10
176.6668679717136
 20
7.586877916482987
 10
176.6826069455734
 20
7.583018766960316
 10
176.698330877704
 20
7.579149360396057
 10
176.714039811234
 20
7.575270139005167
 10
176.729733789253
 20
7.5713815449958
 10
176.7454128548931
 20
7.567484020581101
 10
176.7610770512535
 20
7.563578007970129
 10
176.7767264214531
 20
7.559663949376949
 10
176.7923610085933
 20
7.555742287011979
 10
176.807980855793
 20
7.551813463084267
 10
176.823586006162
 20
7.547877919806979
 10
176.8391765028125
 20
7.543936099389156
 10
176.8547523888525
 20
7.539988444045767
 10
176.8703137073923
 20
7.536035395985888
 10
176.8858605015526
 20
7.532077397419917
 10
176.901392814433
 20
7.528114890561027
 10
176.9169106891428
 20
7.524148317618249
 10
176.9324141688126
 20
7.52017812080294
 10
176.9479032965343
 20
7.516204742326857
 10
176.9633781154341
 20
7.512228624404087
 10
176.9788386686038
 20
7.508250209240942
 10
176.9942849991735
 20
7.50426993905012
 10
177.0097171502427
 20
7.500288256044769
 10
177.0251351649338
 20
7.49630560243486
 10
177.0405390863423
 20
7.492322420432167
 10
177.0559289576036
 20
7.488339152245307
 10
177.0713048218029
 20
7.484356240089247
 10
177.086666722064
 20
7.480374126173048
 10
177.102014701492
 20
7.476393252707111
 10
177.1173488032133
 20
7.472414061903236
 10
177.1326690703234
 20
7.468436995974109
 10
177.1479755459336
 20
7.464462497129257
 10
177.1632682731639
 20
7.460491007581367
 10
177.1785472951239
 20
7.456522969540849
 10
177.1938126549237
 20
7.452558825218147
 10
177.209064395675
 20
7.448599016825027
 10
177.2243025604826
 20
7.444643986573279
 10
177.2395271924732
 20
7.440694176674237
 10
177.2547383347435
 20
7.436750029336959
 10
177.2699360304039
 20
7.432811986775047
 10
177.2851203225735
 20
7.428880491197099
 10
177.300291254364
 20
7.424955984818098
 10
177.315448868884
 20
7.421038909846168
 10
177.3305932092432
 20
7.417129708492207
 10
177.3457243185626
 20
7.413228822969808
 10
177.3608422399326
 20
7.409336695488948
 10
177.3759470164828
 20
7.405453768260028
 10
177.3910386913235
 20
7.401580483496217
 10
177.4061173075541
 20
7.397717283407017
 10
177.421182908293
 20
7.393864610205129
 10
177.4362355366526
 20
7.390022906100058
 10
177.451275235743
 20
7.38619261330268
 10
177.4663020486829
 20
7.382374174024789
 10
177.4813160185736
 20
7.378568030481347
 10
177.4963171885234
 20
7.374774624875039
 10
177.5113056016531
 20
7.370994399427218
 10
177.5262813010727
 20
7.367227796341007
 10
177.5412443298835
 20
7.363475257830938
 10
177.5561947312041
 20
7.359737226107879
 10
177.5711325481539
 20
7.35601414338498
 10
177.586057823834
 20
7.35230645186811
 10
177.6009706013525
 20
7.348614593773157
 10
177.615870923834
 20
7.344939011311447
 10
177.630758834374
 20
7.341280146691128
 10
177.6456343760934
 20
7.337638442126258
 10
177.6604975921041
 20
7.334014339824987
 10
177.6753485255128
 20
7.330408282000917
 10
177.6901872194326
 20
7.326820710864918
 10
177.7050137169833
 20
7.323252068627878
 10
177.7198280612544
 20
7.319702797499758
 10
177.7346302953834
 20
7.316173339695977
 10
177.749420462455
 20
7.312664137421958
 10
177.7641986056031
 20
7.309175632892217
 10
177.7789647679335
 20
7.305708268316718
 10
177.7937189925439
 20
7.302262485908157
 10
177.8084613225624
 20
7.298838727876039
 10
177.823191801094
 20
7.295437436433076
 10
177.8379104712535
 20
7.292059053789217
 10
177.8526173761426
 20
7.288704022155337
 10
177.8673125588837
 20
7.285372783744148
 10
177.881996062574
 20
7.282065780767878
 10
177.8966679303345
 20
7.278783455435128
 10
177.9113282052847
 20
7.275526249955869
 10
177.9259769305141
 20
7.272294606545067
 10
177.9406141491624
 20
7.269088967412238
 10
177.9552399043138
 20
7.265909774767348
 10
177.969854239093
 20
7.262757470823998
 10
177.9844571966138
 20
7.259632497790787
 10
177.9990488199735
 20
7.256535297882238
 10
178.0136291522928
 20
7.253466313306028
 10
178.0281982366929
 20
7.250425986275777
 10
178.042756116273
 20
7.247414759001909
 10
178.057302834143
 20
7.244433073693918
 10
178.071838433413
 20
7.241481372565877
 10
178.0863629572039
 20
7.238560097827298
 10
178.1008764486237
 20
7.235669691687689
 10
178.115378950774
 20
7.232810596364289
 10
178.1298705067826
 20
7.229983254061147
 10
178.1443511597541
 20
7.227188106995067
 10
178.1588209527841
 20
7.224425597372827
 10
178.1732799290136
 20
7.22169616740712
 10
178.1877281315233
 20
7.219000259311997
 10
178.2021656034436
 20
7.216338315295158
 10
178.2165923878844
 20
7.21371077756703
 10
178.2310085279538
 20
7.211118088342116
 10
178.2454140667639
 20
7.208560689831297
 10
178.2598090474245
 20
7.206039024241817
 10
178.2741935130423
 20
7.203553533789087
 10
178.2885675067435
 20
7.201104660683987
 10
178.3029310716235
 20
7.198692847134218
 10
178.3172842507926
 20
7.196318535353838
 10
178.3316270873825
 20
7.193982167555077
 10
178.3459596244834
 20
7.191684185946987
 10
178.3602819052235
 20
7.189425032740016
 10
178.3745939726929
 20
7.187205150149107
 10
178.3888958700233
 20
7.185024980381057
 10
178.4031876403139
 20
7.182884965648098
 10
178.4174693266746
 20
7.180785548163838
 10
178.4317409722233
 20
7.17872717013779
 10
178.4460026200747
 20
7.176710273781276
 10
178.4602543133338
 20
7.17473530130473
 10
178.4744960951127
 20
7.172802694919939
 10
178.4887280085228
 20
7.170912896839118
 10
178.5029500966835
 20
7.169066349274087
 10
178.5171624026831
 20
7.167263494431147
 10
178.5313649696623
 20
7.165504774528019
 10
178.5455578407133
 20
7.163790631771908
 10
178.5597410589531
 20
7.162121508374178
 10
178.573914667483
 20
7.160497846545236
 10
178.5880787094326
 20
7.158920088500957
 10
178.6022332279031
 20
7.157388676447218
 10
178.6163782660048
 20
7.155904052598999
 10
178.6305138668418
 20
7.154466659163058
 10
178.6446400735538
 20
7.153076938355299
 10
178.6587569292139
 20
7.151735332384758
 10
178.6728644769635
 20
7.150442283461869
 10
178.6869627599051
 20
7.149198233799316
 10
178.7010518211343
 20
7.148003625608907
 10
178.7151317037831
 20
7.146858901100128
 10
178.729202450954
 20
7.145764502484327
 10
178.7432641057626
 20
7.144720871970997
 10
178.757316711312
 20
7.143728451776037
 10
178.7713603107246
 20
7.142787684108038
 10
178.7853949471035
 20
7.141899011176057
 10
178.799420663562
 20
7.141062875194169
 10
178.8134375032028
 20
7.140279718374128
 10
178.8274455091529
 20
7.139549982925019
 10
178.8414447245238
 20
7.138874111058157
 10
178.8554351924037
 20
7.138252544985789
 10
178.8694169559336
 20
7.137685726918789
 10
178.8833900582037
 20
7.137174099067117
 10
178.8973545423329
 20
7.136718103643937
 10
178.9113104514334
 20
7.13631818286012
 10
178.925257828613
 20
7.135974778923807
 10
178.9391967169836
 20
7.135688334052239
 10
178.953127159663
 20
7.135459290450849
 10
178.9670491997537
 20
7.135288090334138
 10
178.9809628803746
 20
7.135175175909807
 10
178.9948682446236
 20
7.135120989393727
 10
179.0087653356246
 20
7.135125972994039
 10
179.0226541964917
 20
7.1351905689221
 10
179.036534870324
 20
7.13531521939194
 10
179.0504074002427
 20
7.135500366609897
 10
179.0642718293534
 20
7.135746452791857
 10
179.0781282007745
 20
7.136053920145058
 10
179.0919765576024
 20
7.136423210881726
 10
179.1058169429639
 20
7.136854767215027
 10
179.119649399962
 20
7.137349031356277
 10
179.1334739717138
 20
7.137906445514087
 10
179.1472907013238
 20
7.138527451902057
 10
179.1610996319038
 20
7.139212492727888
 10
179.1749008065731
 20
7.139962010206997
 10
179.188694268433
 20
7.140776446547076
 10
179.2024800606039
 20
7.141656243963098
 10
179.216258226194
 20
7.14260184466411
 10
179.230028808314
 20
7.14361369085827
 10
179.2437918500624
 20
7.144692224761449
 10
179.257547394575
 20
7.145837888584077
 10
179.2712954849435
 20
7.147051124534747
 10
179.2850361642928
 20
7.148332374827077
 10
179.2987694757236
 20
7.149682081671928
 10
179.3124954623533
 20
7.151100687279718
 10
179.3262141672828
 20
7.152588633861799
 10
179.3399256336439
 20
7.1541463636313
 10
179.3536299045324
 20
7.155774318795007
 10
179.3673270230543
 20
7.157472941567898
 10
179.3810170323328
 20
7.159242674160849
 10
179.3946999754831
 20
7.161083958782906
 10
179.4083758956027
 20
7.162997237646318
 10
179.4220448358143
 20
7.164982952962869
 10
179.4357068392134
 20
7.167041546945258
 10
179.4493619489336
 20
7.169173461801157
 10
179.4630102080743
 20
7.171379139742838
 10
179.4766516597435
 20
7.173659022982968
 10
179.4902863470531
 20
7.176013553731076
 10
179.5039143131131
 20
7.178443174198941
 10
179.5175356010538
 20
7.180948326600168
 10
179.531150253963
 20
7.183529453142907
 10
179.5447583149623
 20
7.186186996037116
 10
179.558359827154
 20
7.188921397499138
 10
179.5719548336626
 20
7.191733099735298
 10
179.5855433775928
 20
7.19462254495693
 10
179.5991255020641
 20
7.197590175378987
 10
179.6127012501735
 20
7.200636433210087
 10
179.6262706650329
 20
7.203761760662019
 10
179.6398337897741
 20
7.20696659994428
 10
179.6533906674836
 20
7.210251393270937
 10
179.6669413412844
 20
7.213616582851948
 10
179.6804858542826
 20
7.217062610898209
 10
179.6940242496044
 20
7.220589919619207
 10
179.7075565703424
 20
7.224198951230848
 10
179.7210828596131
 20
7.227890147939888
 10
179.7346031605326
 20
7.23166395195903
 10
179.7481175162126
 20
7.235520805499156
 10
179.7616259697631
 20
7.239461150772966
 10
179.7751285642831
 20
7.243485429989956
 10
179.7886253429029
 20
7.24759408536147
 10
179.8021163487234
 20
7.25178755910019
 10
179.8156016248545
 20
7.256066293414728
 10
179.8290812144248
 20
7.260430730519146
 10
179.8425551605129
 20
7.264881312622947
 10
179.856023506262
 20
7.269418481937009
 10
179.869486294762
 20
7.274042680671747
 10
179.8829435691429
 20
7.278754351042147
 10
179.8963953724929
 20
7.283553935255887
 10
179.9098417479423
 20
7.288441875525218
 10
179.9232827385936
 20
7.293418614063281
 10
179.9367183875626
 20
7.298484593076857
 10
179.9501487379536
 20
7.303640254780017
 10
179.9635738328931
 20
7.308886041384076
 10
179.9769937154747
 20
7.314222395099926
 10
179.9904084288124
 20
7.319649758137977
 10
180.0038180160343
 20
7.325168572710017
 10
180.0172225202246
 20
7.330779281028299
 10
180.0306219845247
 20
7.336482325301398
 10
180.0440164520137
 20
7.342278147742039
 10
180.0574059658325
 20
7.348167190561068
 10
180.0707905690748
 20
7.354149895971199
 10
180.0841703048543
 20
7.360226706181037
 10
180.093923364843
 20
7.364726894279098
  0
ARC
  5
E2
330
2
100
AcDbEntity
  8
0
100
AcDbCircle
 10
175.7537640566915
 20
19.8372781383423
 30
0.0
 40
0.5
100
AcDbArc
 50
90.0
 51
177.9685271120391
  0
ARC
  5
E3
330
2
100
AcDbEntity
  8
0
 48
0.6
100
AcDbCircle
 10
20.36460363107106
 20
14.09110229721864
 30
0.0
 40
39.15579199999999
100
AcDbArc
 50
16.65391050761257
 51
20.30648800596492
  0
LINE
  5
E4
330
2
100
AcDbEntity
  8
0
100
AcDbLine
 10
52.78720997076014
 20
23.04612731697806
 30
0.0
 11
59.27934131630173
 21
25.93672729370837
 31
0.0
  0
ARC
  5
E5
330
2
100
AcDbEntity
  8
0
 48
0.6
100
AcDbCircle
 10
87.69689418128109
 20
41.99035356259853
 30
0.0
 40
39.15579199999999
100
AcDbArc
 50
201.4369589999631
 51
208.5517089163135
  0
LINE
  5
E6
102
{ACAD_REACTORS
330
EB
102
}
330
2
100
AcDbEntity
  8
0
100
AcDbLine
 10
164.6972100131604
 20
96.27853825558123
 30
0.0
 11
165.5972100131601
 21
96.27853825558123
 31
0.0
  0
LINE
  5
E7
330
2
100
AcDbEntity
  8
0
100
AcDbLine
 10
158.59721001316
 20
94.67980091405298
 30
0.0
 11
156.59721001316
 21
94.67980091405298
 31
0.0
  0
LINE
  5
E8
330
2
100
AcDbEntity
  8
0
100
AcDbLine
 10
158.59721001316
 20
97.67980091405298
 30
0.0
 11
164.6972100131604
 21
97.67980091405298
 31
0.0
  0
DIMENSION
  5
E9
102
{ACAD_XDICTIONARY
360
EA
102
}
102
{ACAD_REACTORS
330
EB
102
}
330
2
100
AcDbEntity
  8
0
100
AcDbDimension
  2
*D30
 10
165.5972100131601
 20
112.4229906834593
 30
0.0
 11
162.09721001316
 21
112.4229906834593
 31
0.0
 70
   160
  3
STANDARD
100
AcDbAlignedDimension
 13
158.59721001316
 23
106.8881342473855
 33
0.0
 14
165.5972100131601
 24
96.27853825558123
 34
0.0
100
AcDbRotatedDimension
  0
DIMENSION
  5
F8
330
2
100
AcDbEntity
  8
0
100
AcDbDimension
  2
*D29
 10
158.59721001316
 20
112.4229906834593
 30
0.0
 11
146.6972100131606
 21
112.4229906834593
 31
0.0
 70
   160
  3
STANDARD
100
AcDbAlignedDimension
 13
156.59721001316
 23
94.67980091405298
 33
0.0
 14
158.59721001316
 24
97.67980091405298
 34
0.0
100
AcDbRotatedDimension
  0
LINE
  5
107
330
2
100
AcDbEntity
  8
0
100
AcDbLine
 10
164.6972100131604
 20
88.5785382555832
 30
0.0
 11
165.5972100131601
 21
88.5785382555832
 31
0.0
  0
LINE
  5
108
330
2
100
AcDbEntity
  8
0
100
AcDbLine
 10
165.5972100131601
 20
36.78106357252318
 30
0.0
 11
165.5972100131601
 21
29.08106357252336
 31
0.0
  0
LINE
  5
109
330
2
100
AcDbEntity
  8
0
100
AcDbLine
 10
175.09721001316
 20
27.17980091405296
 30
0.0
 11
166.09721001316
 21
27.17980091405296
 31
0.0
  0
LINE
  5
10A
330
2
100
AcDbEntity
  8
0
100
AcDbLine
 10
164.6972100131604
 20
29.08106357252336
 30
0.0
 11
165.5972100131601
 21
29.08106357252336
 31
0.0
  0
LINE
  5
10B
330
2
100
AcDbEntity
  8
0
100
AcDbLine
 10
165.5972100131601
 20
28.17980091405297
 30
0.0
 11
165.5972100131601
 21
27.67980091405297
 31
0.0
  0
ARC
  5
10C
330
2
100
AcDbEntity
  8
0
100
AcDbCircle
 10
166.09721001316
 20
27.67980091405297
 30
0.0
 40
0.5
100
AcDbArc
 50
180.0
 51
270.0
  0
LINE
  5
10D
330
2
100
AcDbEntity
  8
0
100
AcDbLine
 10
175.59721001316
 20
28.17980091405297
 30
0.0
 11
175.59721001316
 21
27.67980091405297
 31
0.0
  0
ARC
  5
10E
330
2
100
AcDbEntity
  8
0
100
AcDbCircle
 10
175.09721001316
 20
27.67980091405297
 30
0.0
 40
0.5
100
AcDbArc
 50
270.0
 51
0.0
  0
LINE
  5
10F
330
2
100
AcDbEntity
  8
0
100
AcDbLine
 10
164.6972100131604
 20
36.78106357252318
 30
0.0
 11
165.5972100131601
 21
36.78106357252318
 31
0.0
  0
ARC
  5
110
330
2
100
AcDbEntity
  8
0
100
AcDbCircle
 10
171.1917989590201
 20
24.01914352278254
 30
0.0
 40
1.318158315128889
100
AcDbArc
 50
89.6564224934487
 51
169.1029148372918
  0
ARC
  5
111
330
2
100
AcDbEntity
  8
0
 48
0.6
100
AcDbCircle
 10
206.8999320131513
 20
27.09115491405327
 30
0.0
 40
39.15579199999999
100
AcDbArc
 50
179.8702870000233
 51
183.6102158837779
  0
ARC
  5
112
330
2
100
AcDbEntity
  8
0
 48
0.6
100
AcDbCircle
 10
207.1961379490494
 20
27.01576643820226
 30
0.0
 40
37.855792
100
AcDbArc
 50
179.8658330000312
 51
183.9724199931055
  0
ARC
  5
113
330
2
100
AcDbEntity
  8
0
 48
0.6
100
AcDbCircle
 10
206.6074379599303
 20
27.17746602305942
 30
0.0
 40
35.255792
100
AcDbArc
 50
179.9962054631615
 51
182.9919319862273
  0
ARC
  5
114
330
2
100
AcDbEntity
  8
0
 48
0.6
100
AcDbCircle
 10
206.8999320131513
 20
27.09115491405327
 30
0.0
 40
33.95579199999998
100
AcDbArc
 50
179.85042300002
 51
182.9607459492086
  0
LINE
  5
115
330
2
100
AcDbEntity
  8
0
100
AcDbLine
 10
158.59721001316
 20
30.67980091405297
 30
0.0
 11
156.59721001316
 21
30.67980091405297
 31
0.0
  0
LINE
  5
116
330
2
100
AcDbEntity
  8
0
100
AcDbLine
 10
158.59721001316
 20
27.67980091405297
 30
0.0
 11
164.6972100131604
 21
27.67980091405297
 31
0.0
  0
DIMENSION
  5
117
330
2
100
AcDbEntity
  8
0
 48
0.6
100
AcDbDimension
  2
*D28
 10
112.6495791405904
 20
59.6799112995095
 30
0.0
 11
112.6495791405904
 21
62.67980091405298
 31
0.0
 70
   160
  1
\A1;%%c<>{\H0.7x;\S+0^ -0.012;\f??|b0|i0|c0|p49;\H1.429x;(h7)}  
  3
STANDARD
100
AcDbAlignedDimension
 13
127.0972100131602
 23
65.67969052859644
 33
0.0
 14
127.0972100131602
 24
59.6799112995095
 34
0.0
 50
90.0
100
AcDbRotatedDimension
  0
LINE
  5
126
330
2
100
AcDbEntity
  8
0
 48
0.6
100
AcDbLine
 10
127.0972100131602
 20
65.67964588330733
 30
0.0
 11
156.59721001316
 21
65.67981051280913
 31
0.0
  0
LINE
  5
127
330
2
100
AcDbEntity
  8
0
 48
0.6
100
AcDbLine
 10
127.0972100131602
 20
59.67994880155128
 30
0.0
 11
156.5972100131512
 21
59.67981051276911
 31
0.0
  0
LINE
  5
128
330
2
100
AcDbEntity
  8
0
 48
0.6
100
AcDbLine
 10
126.59721001316
 20
65.17969052859644
 30
0.0
 11
127.0972100131602
 21
65.67969052859644
 31
0.0
  0
LINE
  5
129
330
2
100
AcDbEntity
  8
0
 48
0.6
100
AcDbLine
 10
126.59721001316
 20
60.17991129950949
 30
0.0
 11
127.0972100131602
 21
59.6799112995095
 31
0.0
  0
LINE
  5
12A
330
2
100
AcDbEntity
  8
2
 48
0.6
100
AcDbLine
 10
127.0972100131602
 20
65.67969052859644
 30
0.0
 11
127.0972100131602
 21
59.6799112995095
 31
0.0
  0
LINE
  5
12C
330
2
100
AcDbEntity
  8
0
 48
0.6
100
AcDbLine
 10
126.59721001316
 20
65.17969052859644
 30
0.0
 11
126.59721001316
 21
60.17991129950949
 31
0.0
  0
LINE
  5
12D
330
2
100
AcDbEntity
  8
0
100
AcDbLine
 10
158.59721001316
 20
97.67980091405298
 30
0.0
 11
158.59721001316
 21
27.67980091405297
 31
0.0
  0
LINE
  5
12E
330
2
100
AcDbEntity
  8
0
100
AcDbLine
 10
164.6972100131604
 20
97.67980091405298
 30
0.0
 11
164.6972100131604
 21
27.67980091405297
 31
0.0
  0
LINE
  5
12F
330
2
100
AcDbEntity
  8
0
100
AcDbLine
 10
156.59721001316
 20
94.67980091405298
 30
0.0
 11
156.59721001316
 21
30.67980091405297
 31
0.0
  0
DIMENSION
  5
130
330
2
100
AcDbEntity
  8
0
100
AcDbDimension
  2
*D27
 10
158.59721001316
 20
123.3660668150531
 30
0.0
 11
142.5972100131603
 21
123.3660668150531
 31
0.0
 70
   160
  1
<>
  3
STANDARD
100
AcDbAlignedDimension
 13
126.59721001316
 23
65.17969052859644
 33
0.0
 14
158.59721001316
 24
97.67980091405298
 34
0.0
100
AcDbRotatedDimension
  0
LINE
  5
13D
330
2
100
AcDbEntity
  8
0
100
AcDbLine
 10
165.5972100131601
 20
88.5785382555832
 30
0.0
 11
165.5972100131601
 21
96.27853825558123
 31
0.0
  0
MTEXT
  5
13E
102
{ACAD_REACTORS
330
163
102
}
330
2
100
AcDbEntity
  8
0
 62
     3
100
AcDbMText
 10
60.21717358588102
 20
120.3068238160626
 30
0.0
 40
3.0
 41
0.0
 71
     9
 72
     1
  1
4-%%c4.5 hole
1001
ACAD
1000
MTEXTBEGIN
1070
    73
1070
     1
1070
    44
1040
1.0
1070
    74
1070
     0
1000
MTEXTEND
1000
MTEXTBEGIN
1070
    73
1070
     1
1070
    44
1040
1.0
1070
    74
1070
     0
1000
MTEXTEND
1000
MTEXTBEGIN
1070
    73
1070
     1
1070
    44
1040
1.0
1070
    74
1070
     0
1000
MTEXTEND
  0
LWPOLYLINE
  5
13F
330
2
100
AcDbEntity
  8
3
100
AcDbPolyline
 90
        4
 70
     1
 43
0.0
 10
32.73456154464111
 20
110.9253361603045
 10
36.03456154464038
 20
110.9253361603045
 10
36.03456154464038
 20
114.4253361603045
 10
32.73456154464111
 20
114.4253361603045
  0
ARC
  5
141
102
{ACAD_REACTORS
330
172
102
}
330
2
100
AcDbEntity
  8
0
 48
0.6
100
AcDbCircle
 10
69.68282495755921
 20
92.67980091405751
 30
0.0
 40
5.0
100
AcDbArc
 50
0.0
 51
90.0
  0
ARC
  5
142
330
2
100
AcDbEntity
  8
0
 48
0.6
100
AcDbCircle
 10
39.68282495757012
 20
62.67980091405842
 30
0.0
 40
27.83999999999998
100
AcDbArc
 50
296.3656725032108
 51
333.6343274967831
  0
LINE
  5
143
330
2
100
AcDbEntity
  8
0
 48
0.6
100
AcDbLine
 10
57.06230506484097
 20
27.67980091405843
 30
0.0
 11
51.32125483831078
 21
27.67980091405843
 31
0.0
  0
ARC
  5
144
330
2
100
AcDbEntity
  8
0
 48
0.6
100
AcDbCircle
 10
39.68282495757012
 20
62.67980091405842
 30
0.0
 40
25.52
100
AcDbArc
 50
252.2801918471949
 51
287.7198081528051
  0
ARC
  5
145
330
2
100
AcDbEntity
  8
0
 48
0.6
100
AcDbCircle
 10
31.20937589521053
 20
36.16063311060635
 30
0.0
 40
2.319999999999998
100
AcDbArc
 50
72.28019184719491
 51
128.0513255193867
  0
ARC
  5
146
330
2
100
AcDbEntity
  8
0
 48
0.6
100
AcDbCircle
 10
51.01621749242986
 20
39.81444253832433
 30
0.0
 40
2.319999999999998
100
AcDbArc
 50
231.948674480613
 51
296.3656725032108
  0
ARC
  5
147
330
2
100
AcDbEntity
  8
0
 48
0.6
100
AcDbCircle
 10
48.1562740199206
 20
36.16063311060635
 30
0.0
 40
2.319999999999998
100
AcDbArc
 50
51.94867448061305
 51
107.7198081528049
  0
ARC
  5
148
330
2
100
AcDbEntity
  8
0
 48
0.6
100
AcDbCircle
 10
69.68282495755921
 20
32.67980091405752
 30
0.0
 40
5.0
100
AcDbArc
 50
270.0
 51
0.0
  0
ARC
  5
149
330
2
100
AcDbEntity
  8
0
 48
0.6
100
AcDbCircle
 10
39.68282495757012
 20
62.67980091405842
 30
0.0
 40
25.52
100
AcDbArc
 50
342.2801918472013
 51
17.71980815279839
  0
CIRCLE
  5
14A
330
2
100
AcDbEntity
  8
0
 48
0.6
100
AcDbCircle
 10
39.68282495757012
 20
62.67980091405842
 30
0.0
 40
2.000000000000053
  0
CIRCLE
  5
14B
330
2
100
AcDbEntity
  8
0
 48
0.6
100
AcDbCircle
 10
39.68282495757012
 20
62.67980091405842
 30
0.0
 40
3.000000000000055
  0
ARC
  5
14C
330
2
100
AcDbEntity
  8
0
 48
0.6
100
AcDbCircle
 10
66.20199276101994
 20
54.2063518516984
 30
0.0
 40
2.319999999999998
100
AcDbArc
 50
162.2801918472015
 51
218.0513255193776
  0
ARC
  5
14D
330
2
100
AcDbEntity
  8
0
 48
0.6
100
AcDbCircle
 10
62.54818333330149
 20
51.3464083791946
 30
0.0
 40
2.319999999999998
100
AcDbArc
 50
333.6343274967831
 51
38.05132551937779
  0
ARC
  5
14E
330
2
100
AcDbEntity
  8
0
 48
0.6
100
AcDbCircle
 10
39.68282495757012
 20
62.67980091405842
 30
0.0
 40
27.83999999999998
100
AcDbArc
 50
26.36567250321681
 51
63.63432749678904
  0
ARC
  5
14F
330
2
100
AcDbEntity
  8
0
 48
0.6
100
AcDbCircle
 10
39.68282495757012
 20
62.67980091405842
 30
0.0
 40
25.52
100
AcDbArc
 50
72.28019184719491
 51
107.7198081528049
  0
ARC
  5
150
330
2
100
AcDbEntity
  8
0
 48
0.6
100
AcDbCircle
 10
31.20937589521053
 20
89.19896871750916
 30
0.0
 40
2.319999999999998
100
AcDbArc
 50
231.948674480613
 51
287.7198081528051
  0
ARC
  5
151
330
2
100
AcDbEntity
  8
0
 48
0.6
100
AcDbCircle
 10
51.01621749242986
 20
85.54515928979117
 30
0.0
 40
2.319999999999998
100
AcDbArc
 50
63.63432749678904
 51
128.0513255193867
  0
ARC
  5
152
330
2
100
AcDbEntity
  8
0
 48
0.6
100
AcDbCircle
 10
48.1562740199206
 20
89.19896871750916
 30
0.0
 40
2.319999999999998
100
AcDbArc
 50
252.2801918471949
 51
308.0513255193868
  0
ARC
  5
153
330
2
100
AcDbEntity
  8
0
 48
0.6
100
AcDbCircle
 10
66.20199276101994
 20
71.15324997641756
 30
0.0
 40
2.319999999999998
100
AcDbArc
 50
141.9486744806222
 51
197.7198081527984
  0
ARC
  5
154
330
2
100
AcDbEntity
  8
0
 48
0.6
100
AcDbCircle
 10
62.54818333330149
 20
74.0131934489209
 30
0.0
 40
2.319999999999998
100
AcDbArc
 50
321.9486744806221
 51
26.36567250321681
  0
LINE
  5
155
330
2
100
AcDbEntity
  8
0
 48
0.6
100
AcDbLine
 10
74.68282495755921
 20
92.67980091405751
 30
0.0
 11
74.68282495755921
 21
32.67980091405752
 31
0.0
  0
DIMENSION
  5
156
330
2
100
AcDbEntity
  8
0
 48
0.6
100
AcDbDimension
  2
*D26
 10
94.48944192032104
 20
30.67980091405298
 30
0.0
 11
94.48944192032104
 21
59.35095509009307
 31
0.0
 70
   160
  1
\A1;%%C<>{\f??|b0|i0|c0|p49;\H0.7x;\S+0^ -0.03;\H1.429x;(h7)} 
  3
STANDARD
100
AcDbAlignedDimension
 13
156.59721001316
 23
94.67980091405298
 33
0.0
 14
155.1388107272794
 24
30.67980091405297
 34
0.0
 50
90.0
100
AcDbRotatedDimension
  0
LEADER
  5
163
330
2
100
AcDbEntity
  8
0
100
AcDbLeader
  3
STANDARD
 73
     0
 75
     1
 40
3.0
 41
26.65178571428571
 76
     3
 10
68.71849074460988
 20
93.87697029562014
 30
0.0
 10
63.71717358588103
 20
119.3068238160626
 30
0.0
 10
61.21717358588103
 20
119.3068238160626
 30
0.0
340
13E
1001
ACAD
1000
DSTYLE
1002
{
1070
     5
1000

1070
   342
1005
0
1002
}
  0
LEADER
  5
164
330
2
100
AcDbEntity
  8
0
100
AcDbLeader
  3
STANDARD
 74
     0
 40
13.0
 41
28.50892857142855
 76
     2
 10
168.1893181264094
 20
18.79278135483853
 30
0.0
 10
159.0725677342304
 20
3.497961724444393
 30
0.0
1001
ACAD
1000
DSTYLE
1002
{
1070
     5
1000

1070
   342
1005
0
1002
}
  0
ARC
  5
165
102
{ACAD_REACTORS
330
172
102
}
330
2
100
AcDbEntity
  8
0
 48
0.6
100
AcDbCircle
 10
9.682824957559203
 20
92.67980091405751
 30
0.0
 40
5.0
100
AcDbArc
 50
90.0
 51
180.0
  0
ARC
  5
166
330
2
100
AcDbEntity
  8
0
 48
0.6
100
AcDbCircle
 10
9.682824957559203
 20
32.67980091405752
 30
0.0
 40
5.0
100
AcDbArc
 50
180.0
 51
270.0
  0
ARC
  5
167
330
2
100
AcDbEntity
  8
0
 48
0.6
100
AcDbCircle
 10
39.68282495757012
 20
62.67980091405842
 30
0.0
 40
25.52
100
AcDbArc
 50
162.2801918472015
 51
197.7198081527984
  0
ARC
  5
168
330
2
100
AcDbEntity
  8
0
 48
0.6
100
AcDbCircle
 10
13.16365715410938
 20
54.2063518516984
 30
0.0
 40
2.319999999999998
100
AcDbArc
 50
321.9486744806221
 51
17.71980815279839
  0
ARC
  5
169
330
2
100
AcDbEntity
  8
0
 48
0.6
100
AcDbCircle
 10
16.81746658183146
 20
51.3464083791946
 30
0.0
 40
2.319999999999998
100
AcDbArc
 50
141.9486744806222
 51
206.3656725032168
  0
ARC
  5
16A
330
2
100
AcDbEntity
  8
0
 48
0.6
100
AcDbCircle
 10
16.81746658183146
 20
74.0131934489209
 30
0.0
 40
2.319999999999998
100
AcDbArc
 50
153.634327496783
 51
218.0513255193776
  0
ARC
  5
16B
330
2
100
AcDbEntity
  8
0
 48
0.6
100
AcDbCircle
 10
13.16365715410938
 20
71.15324997641756
 30
0.0
 40
2.319999999999998
100
AcDbArc
 50
342.2801918472013
 51
38.05132551937779
  0
ARC
  5
16C
330
2
100
AcDbEntity
  8
0
 48
0.6
100
AcDbCircle
 10
39.68282495757012
 20
62.67980091405842
 30
0.0
 40
27.83999999999998
100
AcDbArc
 50
206.3656725032168
 51
243.634327496789
  0
ARC
  5
16D
330
2
100
AcDbEntity
  8
0
 48
0.6
100
AcDbCircle
 10
39.68282495757012
 20
62.67980091405842
 30
0.0
 40
27.83999999999998
100
AcDbArc
 50
116.3656725032109
 51
153.634327496783
  0
LINE
  5
16E
330
2
100
AcDbEntity
  8
0
 48
0.6
100
AcDbLine
 10
4.682824957559205
 20
92.67980091405751
 30
0.0
 11
4.682824957559205
 21
32.67980091405752
 31
0.0
  0
LINE
  5
16F
330
2
100
AcDbEntity
  8
0
 48
0.6
100
AcDbLine
 10
9.682824957559203
 20
97.67980091405753
 30
0.0
 11
69.68282495755921
 21
97.67980091405753
 31
0.0
  0
DIMENSION
  5
170
102
{ACAD_XDICTIONARY
360
171
102
}
102
{ACAD_REACTORS
330
172
102
}
330
2
100
AcDbEntity
  8
0
100
AcDbDimension
  2
*D25
 10
74.68282495755921
 20
110.247596039964
 30
0.0
 11
39.6828249575592
 21
110.247596039964
 31
0.0
 70
   160
  3
STANDARD
100
AcDbAlignedDimension
 13
4.682824957559205
 23
92.67980091405751
 33
0.0
 14
74.68282495755921
 24
92.67980091405751
 34
0.0
100
AcDbRotatedDimension
  0
ARC
  5
17F
330
2
100
AcDbEntity
  8
0
 48
0.6
100
AcDbCircle
 10
28.34943242269946
 20
39.81444253832433
 30
0.0
 40
2.319999999999998
100
AcDbArc
 50
243.634327496789
 51
308.0513255193868
  0
CIRCLE
  5
180
330
2
100
AcDbEntity
  8
0
 48
0.6
100
AcDbCircle
 10
39.68282495757012
 20
62.67980091405842
 30
0.0
 40
13.0
  0
ARC
  5
181
330
2
100
AcDbEntity
  8
0
 48
0.6
100
AcDbCircle
 10
28.34943242269946
 20
85.54515928979117
 30
0.0
 40
2.319999999999998
100
AcDbArc
 50
51.94867448061305
 51
116.3656725032109
  0
LINE
  5
182
330
2
100
AcDbEntity
  8
CEN
  6
CENTER
 48
0.6
100
AcDbLine
 10
-2.41242474590035
 20
62.67980091405298
 30
0.0
 11
81.77807466102967
 21
62.67980091405298
 31
0.0
  0
LINE
  5
183
330
2
100
AcDbEntity
  8
0
 48
0.6
100
AcDbLine
 10
9.682824957559203
 20
27.67980091405843
 30
0.0
 11
69.68282495755921
 21
27.67980091405843
 31
0.0
  0
CIRCLE
  5
184
330
2
100
AcDbEntity
  8
0
 48
0.6
100
AcDbCircle
 10
39.68282495757012
 20
62.67980091405842
 30
0.0
 40
32.00000000000005
  0
CIRCLE
  5
185
330
2
100
AcDbEntity
  8
0
 48
0.6
100
AcDbCircle
 10
39.68282495757012
 20
62.67980091405842
 30
0.0
 40
33.5
  0
INSERT
  5
186
330
2
100
AcDbEntity
  8
0
100
AcDbBlockReference
  2
3
 10
39.68282495757012
 20
62.67980091405842
 30
0.0
  0
TEXT
  5
1A4
330
2
100
AcDbEntity
  8
DIM
100
AcDbText
 10
87.94114259130218
 20
169.805039887542
 30
0.0
 40
3.5
  1
 LEAD WIRE 300mm
100
AcDbText
  0
LINE
  5
1A5
330
2
100
AcDbEntity
  8
0
 62
   123
 48
0.6
100
AcDbLine
 10
145.8252803676803
 20
167.805039887542
 30
0.0
 11
86.57112254031019
 21
167.805039887542
 31
0.0
  0
ARC
  5
1A6
330
2
100
AcDbEntity
  8
0
100
AcDbCircle
 10
278.097210013151
 20
26.33727813834048
 30
0.0
 40
6.0
100
AcDbArc
 50
270.0
 51
0.0
  0
LINE
  5
1A7
102
{ACAD_REACTORS
330
1DD
102
}
330
2
100
AcDbEntity
  8
0
100
AcDbLine
 10
231.5972100131602
 20
97.92980091405295
 30
0.0
 11
275.0975494180709
 21
97.18170858628807
 31
0.0
  0
LINE
  5
1A8
102
{ACAD_REACTORS
330
1DD
102
}
330
2
100
AcDbEntity
  8
0
100
AcDbLine
 10
231.5972100131602
 20
27.42980091405296
 30
0.0
 11
275.0975494180709
 21
28.17789324181603
 31
0.0
  0
LINE
  5
1A9
330
2
100
AcDbEntity
  8
0
100
AcDbLine
 10
231.5972100131602
 20
97.92980091405295
 30
0.0
 11
231.5972100131602
 21
27.42980091405296
 31
0.0
  0
LINE
  5
1AA
330
2
100
AcDbEntity
  8
0
100
AcDbLine
 10
231.5972100131602
 20
28.17980091405297
 30
0.0
 11
231.5972100131602
 21
97.17980091405298
 31
0.0
  0
DIMENSION
  5
1AB
102
{ACAD_XDICTIONARY
360
1AC
102
}
102
{ACAD_REACTORS
330
1AD
102
}
330
2
100
AcDbEntity
  8
0
100
AcDbDimension
  2
*D34
 10
276.5972100131603
 20
123.3660668150531
 30
0.0
 11
280.6908385465922
 21
123.3660668150531
 31
0.0
 70
   160
  3
STANDARD
100
AcDbAlignedDimension
 13
286.5972100131603
 23
85.17980091405297
 33
0.0
 14
276.5972100131603
 24
95.64980091405232
 34
0.0
100
AcDbRotatedDimension
  0
LINE
  5
1BA
330
2
100
AcDbEntity
  8
0
100
AcDbLine
 10
275.0975494180709
 20
97.18170858628807
 30
0.0
 11
276.5972100131603
 21
95.64980091405232
 31
0.0
  0
LINE
  5
1BB
330
2
100
AcDbEntity
  8
0
100
AcDbLine
 10
276.597210013151
 20
29.70980091405226
 30
0.0
 11
275.0975494180709
 21
28.17789324181603
 31
0.0
  0
LINE
  5
1BC
102
{ACAD_REACTORS
330
1CB
102
}
330
2
100
AcDbEntity
  8
0
100
AcDbLine
 10
279.0972100131603
 20
37.3798009140546
 30
0.0
 11
284.0972100131601
 21
37.3798009140546
 31
0.0
  0
LINE
  5
1BD
330
2
100
AcDbEntity
  8
0
100
AcDbLine
 10
283.5972100131511
 20
37.3798009140546
 30
0.0
 11
283.5972100131511
 21
38.17980091405297
 31
0.0
  0
LINE
  5
1BE
330
2
100
AcDbEntity
  8
0
100
AcDbLine
 10
279.597210013151
 20
37.3798009140546
 30
0.0
 11
279.597210013151
 21
38.17980091405297
 31
0.0
  0
LINE
  5
1BF
330
2
100
AcDbEntity
  8
0
100
AcDbLine
 10
281.5972100131511
 20
37.3798009140546
 30
0.0
 11
281.5972100131511
 21
38.17980091405297
 31
0.0
  0
ARC
  5
1C0
330
2
100
AcDbEntity
  8
0
100
AcDbCircle
 10
284.0972100131601
 20
39.17980091405297
 30
0.0
 40
1.0
100
AcDbArc
 50
270.0
 51
0.0
  0
ARC
  5
1C1
330
2
100
AcDbEntity
  8
0
100
AcDbCircle
 10
279.0972100131603
 20
39.17980091405297
 30
0.0
 40
1.0
100
AcDbArc
 50
180.0
 51
270.0
  0
LINE
  5
1C2
102
{ACAD_REACTORS
330
1CB
102
}
330
2
100
AcDbEntity
  8
0
100
AcDbLine
 10
279.0972100131603
 20
38.17980091405297
 30
0.0
 11
284.0972100131601
 21
38.17980091405297
 31
0.0
  0
ARC
  5
1C3
330
2
100
AcDbEntity
  8
0
100
AcDbCircle
 10
285.5972100131601
 20
40.17980091405298
 30
0.0
 40
1.0
100
AcDbArc
 50
270.0
 51
0.0
  0
LINE
  5
1C4
102
{ACAD_REACTORS
330
1CB
102
}
330
2
100
AcDbEntity
  8
0
100
AcDbLine
 10
276.597210013151
 20
39.17980091405297
 30
0.0
 11
285.5972100131601
 21
39.17980091405297
 31
0.0
  0
LINE
  5
1C5
330
2
100
AcDbEntity
  8
0
100
AcDbLine
 10
284.0972100131601
 20
37.3798009140546
 30
0.0
 11
284.0972100131511
 21
26.33727813834048
 31
0.0
  0
LINE
  5
1C6
330
2
100
AcDbEntity
  8
0
100
AcDbLine
 10
279.0972100131603
 20
37.3798009140546
 30
0.0
 11
279.0972100131511
 21
28.33727813834229
 31
0.0
  0
ARC
  5
1C7
330
2
100
AcDbEntity
  8
0
100
AcDbCircle
 10
276.097210013151
 20
28.33727813834229
 30
0.0
 40
3.0
100
AcDbArc
 50
270.0
 51
0.0
  0
LINE
  5
1C8
330
2
100
AcDbEntity
  8
0
100
AcDbLine
 10
286.5972100131603
 20
85.17980091405297
 30
0.0
 11
286.5972100131603
 21
40.17980091405298
 31
0.0
  0
DIMENSION
  5
1C9
102
{ACAD_XDICTIONARY
360
1CA
102
}
102
{ACAD_REACTORS
330
1CB
102
}
330
2
100
AcDbEntity
  8
0
100
AcDbDimension
  2
*D33
 10
300.6787035388606
 20
39.17980091405297
 30
0.0
 11
300.6787035388606
 21
60.38605091405225
 31
0.0
 70
   160
  1
%%C<>
  3
STANDARD
100
AcDbAlignedDimension
 13
285.5972100131601
 23
86.17980091405298
 33
0.0
 14
285.5972100131601
 24
39.17980091405297
 34
0.0
 50
90.0
100
AcDbRotatedDimension
  0
ARC
  5
1D8
102
{ACAD_REACTORS
330
1AD
102
}
330
2
100
AcDbEntity
  8
0
100
AcDbCircle
 10
285.5972100131601
 20
85.17980091405297
 30
0.0
 40
1.0
100
AcDbArc
 50
0.0
 51
90.0
  0
LINE
  5
1D9
330
2
100
AcDbEntity
  8
0
100
AcDbLine
 10
276.5972100131603
 20
86.17980091405298
 30
0.0
 11
285.5972100131601
 21
86.17980091405298
 31
0.0
  0
LINE
  5
1DA
102
{ACAD_REACTORS
330
1AD
102
}
330
2
100
AcDbEntity
  8
0
100
AcDbLine
 10
276.5972100131603
 20
95.64980091405232
 30
0.0
 11
276.597210013151
 21
29.70980091405226
 31
0.0
  0
DIMENSION
  5
1DB
102
{ACAD_XDICTIONARY
360
1DC
102
}
102
{ACAD_REACTORS
330
1DD
102
}
330
2
100
AcDbEntity
  8
0
100
AcDbDimension
  2
*D32
 10
309.5624127813807
 20
28.17789324181601
 30
0.0
 11
309.5624127813807
 21
61.0961782855502
 31
0.0
 70
   160
  1
%%C<>
  3
STANDARD
100
AcDbAlignedDimension
 13
275.0975494180709
 23
97.18170858628807
 33
0.0
 14
275.0975494180709
 24
28.17789324181603
 34
0.0
 50
90.0
100
AcDbRotatedDimension
  0
LINE
  5
1EA
330
2
100
AcDbEntity
  8
0
100
AcDbLine
 10
162.5064766901413
 20
184.6443563014403
 30
0.0
 11
264.849922646601
 21
184.6443563014386
 31
0.0
  0
LINE
  5
1EB
330
2
100
AcDbEntity
  8
CEN
 48
0.6
100
AcDbLine
 10
277.3319999588709
 20
226.9868790771511
 30
0.0
 11
124.6296076930812
 21
226.9868790771511
 31
0.0
  0
DIMENSION
  5
1EC
330
2
100
AcDbEntity
  8
0
100
AcDbDimension
  2
*D35
 10
263.3499226466009
 20
284.3156054650611
 30
0.0
 11
204.349922646601
 21
284.3156054650611
 31
0.0
 70
   160
  3
STANDARD
100
AcDbAlignedDimension
 13
145.349922646601
 23
284.3156054650611
 33
0.0
 14
263.3499226466009
 24
259.9568790771503
 34
0.0
100
AcDbRotatedDimension
  0
LINE
  5
1F9
330
2
100
AcDbEntity
  8
0
100
AcDbLine
 10
218.3499226466008
 20
261.4868790771511
 30
0.0
 11
151.4499226465995
 21
261.4868790771511
 31
0.0
  0
LINE
  5
1FA
330
2
100
AcDbEntity
  8
0
100
AcDbLine
 10
218.3499226466008
 20
192.4868790771511
 30
0.0
 11
151.4499226465995
 21
192.4868790771511
 31
0.0
  0
LINE
  5
1FB
330
2
100
AcDbEntity
  8
0
100
AcDbLine
 10
157.9524159588418
 20
189.6443563014403
 30
0.0
 11
262.849922646601
 21
189.6443563014403
 31
0.0
  0
ARC
  5
1FC
330
2
100
AcDbEntity
  8
0
 48
0.6
100
AcDbCircle
 10
307.2179992557088
 20
239.0133367103346
 30
0.0
 40
161.8182970538936
100
AcDbArc
 50
198.0359785241318
 51
204.6493779467874
  0
ARC
  5
1FD
330
2
100
AcDbEntity
  8
0
100
AcDbCircle
 10
154.1120539734911
 20
180.0373550332933
 30
0.0
 40
8.907313409310658
100
AcDbArc
 50
24.23072274293794
 51
94.90087069775272
  0
ARC
  5
1FE
330
2
100
AcDbEntity
  8
0
 48
0.6
100
AcDbCircle
 10
310.0400965302294
 20
241.7963329142402
 30
0.0
 40
158.8157708544579
100
AcDbArc
 50
201.4601192932028
 51
206.2488977425213
  0
LWPOLYLINE
  5
1FF
330
2
100
AcDbEntity
  8
0
100
AcDbPolyline
 90
      467
 70
     0
 43
0.0
 10
160.1450680640431
 20
171.5247141720636
 10
160.147266346123
 20
171.5257892578458
 10
160.1675105963735
 20
171.5355913584879
 10
160.187730061742
 20
171.5452832623589
 10
160.207924785362
 20
171.5548654116749
 10
160.2280948103421
 20
171.5643382486438
 10
160.2482401797719
 20
171.5737022154779
 10
160.2683609367818
 20
171.5829577543888
 10
160.2884571244816
 20
171.5921053075869
 10
160.3085287859817
 20
171.6011453172839
 10
160.3285759643826
 20
171.610078225692
 10
160.3485987028129
 20
171.6189044750201
 10
160.3685970443733
 20
171.6276245074798
 10
160.3885710321724
 20
171.6362387652841
 10
160.4085207093234
 20
171.6447476906431
 10
160.4284461189438
 20
171.653151725767
 10
160.4483473041423
 20
171.6614513128686
 10
160.4682243080318
 20
171.6696468941598
 10
160.488077173712
 20
171.6777389118498
 10
160.5079059443128
 20
171.6857278081491
 10
160.5277106629223
 20
171.6936140252716
 10
160.5474913726723
 20
171.701398005426
 10
160.5672481166734
 20
171.709080190826
 10
160.5869809380224
 20
171.7166610236807
 10
160.606689879844
 20
171.7241409462029
 10
160.6263749852319
 20
171.731520400602
 10
160.6460362973234
 20
171.7387998290899
 10
160.6656738592032
 20
171.7459796738779
 10
160.685287714003
 20
171.7530603771768
 10
160.7048779048223
 20
171.7600423811998
 10
160.7244444747816
 20
171.766926128156
 10
160.7439874669821
 20
171.7737120602566
 10
160.7635069245429
 20
171.7804006197141
 10
160.783002890574
 20
171.7869922487378
 10
160.802475408182
 20
171.7934873895408
 10
160.8219245204821
 20
171.7998864843328
 10
160.8413502705811
 20
171.8061899753276
 10
160.8607527015923
 20
171.8123983047329
 10
160.8801318566315
 20
171.8185119147609
 10
160.8994877788122
 20
171.8245312476235
 10
160.9188205112318
 20
171.8304567455331
 10
160.938130097013
 20
171.8362888506988
 10
160.9574165792733
 20
171.8420280053316
 10
160.9766800011025
 20
171.8476746516446
 10
160.9959204056234
 20
171.853229231848
 10
161.0151378359536
 20
171.8586921881527
 10
161.034332335203
 20
171.8640639627709
 10
161.0535039464724
 20
171.8693449979117
 10
161.0726527128813
 20
171.8745357357887
 10
161.0917786775321
 20
171.8796366186117
 10
161.1108818835532
 20
171.884648088593
 10
161.1299623740436
 20
171.8895705879406
 10
161.1490201921119
 20
171.8944045588708
 10
161.1680553808823
 20
171.8991504435919
 10
161.1870679834523
 20
171.9038086843127
 10
161.2060580429429
 20
171.90837972325
 10
161.2250256024513
 20
171.9128640026089
 10
161.2439707051111
 20
171.9172619646058
 10
161.2628933940126
 20
171.9215740514508
 10
161.2817937122821
 20
171.9258007053507
 10
161.3006717030224
 20
171.9299423685226
 10
161.3195274093435
 20
171.9339994831741
 10
161.3383608743629
 20
171.9379724915185
 10
161.3571721411831
 20
171.9418618357656
 10
161.3759612529324
 20
171.945667958127
 10
161.3947282527028
 20
171.9493913008129
 10
161.4134731836116
 20
171.9530323060346
 10
161.4321960887832
 20
171.9565914160055
 10
161.4508970113115
 20
171.9600690729336
 10
161.4695759943119
 20
171.9634657190338
 10
161.4882330809036
 20
171.9667817965158
 10
161.506868314193
 20
171.9700177475891
 10
161.5254817372828
 20
171.9731740144641
 10
161.5440733932923
 20
171.9762510393569
 10
161.5626433253424
 20
171.9792492644748
 10
161.5811915765229
 20
171.9821691320301
 10
161.5997181899624
 20
171.9850110842338
 10
161.6182232087726
 20
171.987775563298
 10
161.6367066760526
 20
171.9904630114318
 10
161.6551686349124
 20
171.9930738708464
 10
161.6736091284824
 20
171.9956085837578
 10
161.6920281998523
 20
171.99806759237
 10
161.7104258921521
 20
172.000451338901
 10
161.728802248483
 20
172.0027602655556
 10
161.7471573119533
 20
172.0049948145486
 10
161.7654911256818
 20
172.0071554280918
 10
161.7838037327732
 20
172.0092425483961
 10
161.8020951763431
 20
172.011256617672
 10
161.8203654995036
 20
172.0131980781287
 10
161.8386147453624
 20
172.0150673719807
 10
161.8568429570317
 20
172.0168649414379
 10
161.8750501776235
 20
172.0185912287108
 10
161.8932364502529
 20
172.0202466760118
 10
161.9114018180229
 20
172.0218317255497
 10
161.9295463240528
 20
172.0233468195386
 10
161.9476700114431
 20
172.0247924001899
 10
161.9657729233117
 20
172.0261689097131
 10
161.9838551027828
 20
172.0274767903168
 10
162.0019165929519
 20
172.0287164842181
 10
162.0199574369238
 20
172.0298884336228
 10
162.0379776778321
 20
172.0309930807478
 10
162.0559773587615
 20
172.0320308677989
 10
162.0739565228526
 20
172.0330022369901
 10
162.0919152131923
 20
172.033907630531
 10
162.109853472903
 20
172.0347474906328
 10
162.1277713450931
 20
172.0355222595088
 10
162.1456688728725
 20
172.03623237937
 10
162.1635460993624
 20
172.0368782924249
 10
162.1814030676619
 20
172.0374604408869
 10
162.1992398208825
 20
172.0379792669649
 10
162.2170564021438
 20
172.0384352128741
 10
162.2348528545522
 20
172.0388287208236
 10
162.2526292212228
 20
172.0391602330225
 10
162.2703855452623
 20
172.0394301916846
 10
162.2881218697824
 20
172.0396390390208
 10
162.3058382379026
 20
172.0397872172418
 10
162.3235346927233
 20
172.0398751685577
 10
162.3412112773535
 20
172.0399033351815
 10
162.3588680349115
 20
172.039872159324
 10
162.3765050085116
 20
172.0397820831961
 10
162.3941222412618
 20
172.0396335490089
 10
162.411719776272
 20
172.0394269989727
 10
162.4292976566525
 20
172.039162875302
 10
162.4468559255222
 20
172.0388416202029
 10
162.4643946259715
 20
172.038463675891
 10
162.4819138011428
 20
172.038029484576
 10
162.4994134941229
 20
172.0375394884678
 10
162.5168937480324
 20
172.0369941297786
 10
162.5343546059816
 20
172.036393850721
 10
162.5517961110821
 20
172.0357390935049
 10
162.5692183064515
 20
172.0350303003409
 10
162.5866212351834
 20
172.0342679134398
 10
162.6040049404023
 20
172.0334523750137
 10
162.6213694652236
 20
172.0325841272735
 10
162.6387148527524
 20
172.0316636124328
 10
162.6560411460928
 20
172.0306912726998
 10
162.6733483883621
 20
172.0296675502879
 10
162.6906366226835
 20
172.0285928874048
 10
162.7079058921431
 20
172.0274677262649
 10
162.7251562398726
 20
172.026292509079
 10
162.7423877089827
 20
172.0250676780568
 10
162.7596003425738
 20
172.0237936754109
 10
162.7767941837614
 20
172.0224709433511
 10
162.7939692756631
 20
172.0210999240886
 10
162.8111256613832
 20
172.0196810598379
 10
162.8282633840322
 20
172.0182147928046
 10
162.8453824867233
 20
172.0167015652067
 10
162.8624830125722
 20
172.0151418192497
 10
162.8795650046818
 20
172.0135359971456
 10
162.8966285061619
 20
172.0118845411078
 10
162.9136735601427
 20
172.010187893349
 10
162.9307002097107
 20
172.0084464960739
 10
162.947708498003
 20
172.0066607914989
 10
162.9646984681117
 20
172.0048312218339
 10
162.981670163143
 20
172.0029582292911
 10
162.9986236262324
 20
172.0010422560796
 10
163.015558900463
 20
171.9990837444118
 10
163.0324760289736
 20
171.9970831364996
 10
163.0493750548525
 20
171.9950408745541
 10
163.0662560212316
 20
171.9929574007849
 10
163.0831189712012
 20
171.9908331574026
 10
163.0999639478816
 20
171.988668586622
 10
163.1167909943929
 20
171.9864641306505
 10
163.1336001538334
 20
171.9842202317011
 10
163.1503914693225
 20
171.9819373319849
 10
163.1671649839613
 20
171.9796158737146
 10
163.1839207408724
 20
171.9772562990976
 10
163.2006587831623
 20
171.9748590503489
 10
163.217379153952
 20
171.9724245696768
 10
163.2340818963334
 20
171.9699532992938
 10
163.2507670534328
 20
171.9674456814111
 10
163.2674346683529
 20
171.9649021582398
 10
163.284084784213
 20
171.9623231719918
 10
163.3007174441122
 20
171.9597091648785
 10
163.3173326911824
 20
171.957060579108
 10
163.3339305685117
 20
171.9543778568956
 10
163.350511119223
 20
171.9516614404486
 10
163.3670743864336
 20
171.948911771982
 10
163.3836204132425
 20
171.9461292937036
 10
163.4001492427618
 20
171.9433144478269
 10
163.4166609181125
 20
171.9404676765636
 10
163.4331554824024
 20
171.9375894221218
 10
163.449632978733
 20
171.9346801267158
 10
163.466093450232
 20
171.9317402325526
 10
163.4825369399936
 20
171.9287701818501
 10
163.4989634911439
 20
171.9257704168146
 10
163.515373146782
 20
171.9227413796568
 10
163.5317659500329
 20
171.9196835125906
 10
163.5481419439933
 20
171.9165972578259
 10
163.564501171792
 20
171.9134830575738
 10
163.5808436765113
 20
171.9103413540459
 10
163.5971695012926
 20
171.9071725894525
 10
163.613478689242
 20
171.903977206007
 10
163.6297712834534
 20
171.900755645919
 10
163.646047327053
 20
171.897508351399
 10
163.6623068631438
 20
171.894235764659
 10
163.6785499348429
 20
171.8909383279108
 10
163.6947765852514
 20
171.8876164833648
 10
163.7109868575011
 20
171.884270673231
 10
163.7271807946821
 20
171.8809013397228
 10
163.7433584399227
 20
171.877508925051
 10
163.7595198363236
 20
171.874093871427
 10
163.7756650269934
 20
171.8706566210596
 10
163.7917940550526
 20
171.867197616162
 10
163.8079069636119
 20
171.863717298945
 10
163.8240037957715
 20
171.8602161116208
 10
163.8400845946621
 20
171.8566944963979
 10
163.8561494033714
 20
171.8531528954907
 10
163.8721982650226
 20
171.8495917511098
 10
163.8882312227329
 20
171.8460115054629
 10
163.9042483196031
 20
171.8424126007659
 10
163.9202495987523
 20
171.8387954792259
 10
163.9362351032819
 20
171.8351605830588
 10
163.9522048763233
 20
171.8315083544719
 10
163.9681589609612
 20
171.8278392356758
 10
163.9840974003222
 20
171.8241536688867
 10
164.0000202375125
 20
171.820452096311
 10
164.0159275156534
 20
171.8167349601596
 10
164.0318192778418
 20
171.8130027026488
 10
164.0476955672024
 20
171.809255765985
 10
164.0635564268435
 20
171.8054945923806
 10
164.0794018998608
 20
171.8017196240459
 10
164.0952320293822
 20
171.7979313031966
 10
164.1110468585107
 20
171.7941300720379
 10
164.1268464303724
 20
171.7903163727848
 10
164.1426307880615
 20
171.7864906476478
 10
164.158399974693
 20
171.7826533388359
 10
164.1741540333828
 20
171.778804888562
 10
164.1898930072316
 20
171.7749457390389
 10
164.2056169393731
 20
171.7710763324746
 10
164.2213258729029
 20
171.7671971110838
 10
164.237019850922
 20
171.7633085170749
 10
164.2526989165621
 20
171.759410992661
 10
164.2683631129225
 20
171.75550498005
 10
164.284012483124
 20
171.7515909214569
 10
164.2996470702623
 20
171.7476692590905
 10
164.3152669174619
 20
171.7437404351629
 10
164.3308720678236
 20
171.7398048918869
 10
164.3464625644742
 20
171.735863071469
 10
164.3620384505124
 20
171.7319154161256
 10
164.3775997690611
 20
171.7279623680649
 10
164.3931465632125
 20
171.7240043694989
 10
164.4086788760928
 20
171.7200418626409
 10
164.4241967508119
 20
171.7160752896969
 10
164.4397002304818
 20
171.7121050928829
 10
164.4551893582033
 20
171.7081317144068
 10
164.4706641771031
 20
171.7041555964827
 10
164.4861247302728
 20
171.7001771813196
 10
164.5015710608426
 20
171.69619691113
 10
164.5170032119116
 20
171.6922152281248
 10
164.5324212266026
 20
171.6882325745148
 10
164.547825148013
 20
171.6842493925117
 10
164.5632150192618
 20
171.6802661243248
 10
164.5785908834608
 20
171.6762832121688
 10
164.5939527837222
 20
171.6723010982525
 10
164.609300763163
 20
171.6683202247871
 10
164.6246348648733
 20
171.6643410339828
 10
164.6399551319813
 20
171.6603639680526
 10
164.6552616076028
 20
171.6563894692088
 10
164.6705543348329
 20
171.6524179796609
 10
164.6858333567928
 20
171.6484499416208
 10
164.7010987165927
 20
171.6444857972976
 10
164.7163504573441
 20
171.6405259889049
 10
164.7315886221536
 20
171.6365709586528
 10
164.7468132541311
 20
171.6326211487528
 10
164.7620243964015
 20
171.6286770014169
 10
164.7772220920728
 20
171.6247389588541
 10
164.7924063842423
 20
171.6208074632771
 10
164.8075773160329
 20
171.6168829568966
 10
164.8227349305529
 20
171.6129658819256
 10
164.8378792709122
 20
171.6090566805716
 10
164.8530103802226
 20
171.6051557950489
 10
164.8681283016017
 20
171.6012636675689
 10
164.883233078152
 20
171.5973807403399
 10
164.8983247529818
 20
171.5935074555756
 10
164.9134033692229
 20
171.5896442554869
 10
164.928468969962
 20
171.5857915822845
 10
164.9435215983217
 20
171.58194987818
 10
164.9585612974119
 20
171.5781195853816
 10
164.9735881103518
 20
171.5743011461048
 10
164.9886020802318
 20
171.5704950025599
 10
165.0036032501943
 20
171.5667015969549
 10
165.0185916633221
 20
171.5629213715066
 10
165.0335673627328
 20
171.559154768421
 10
165.0485303915525
 20
171.5554022299109
 10
165.0634807928731
 20
171.5516641981879
 10
165.078418609812
 20
171.5479411154636
 10
165.0933438854922
 20
171.5442334239481
 10
165.1082566630234
 20
171.5405415658526
 10
165.1231569854921
 20
171.536865983391
 10
165.138044896043
 20
171.5332071187701
 10
165.1529204377625
 20
171.5295654142049
 10
165.1677836537733
 20
171.5259413119049
 10
165.1826345871818
 20
171.5223352540808
 10
165.1974732811035
 20
171.5187476829439
 10
165.2122997786432
 20
171.5151790407079
 10
165.2271141229234
 20
171.5116297695788
 10
165.2419163570434
 20
171.5081003117745
 10
165.2567065241223
 20
171.504591109501
 10
165.2714846672719
 20
171.5011026049716
 10
165.2862508296024
 20
171.4976352403967
 10
165.3010050542128
 20
171.4941894579868
 10
165.3157473842315
 20
171.490765699956
 10
165.3304778627612
 20
171.4873644085116
 10
165.3451965329226
 20
171.4839860258678
 10
165.3599034378026
 20
171.4806309942348
 10
165.3745986205434
 20
171.4772997558236
 10
165.3892821242429
 20
171.4739927528468
 10
165.4039539920035
 20
171.4707104275136
 10
165.4186142669518
 20
171.4674532220349
 10
165.4332629921813
 20
171.4642215786259
 10
165.4479002108223
 20
171.4610159394918
 10
165.4625259659828
 20
171.4578367468469
 10
165.4771403007528
 20
171.4546844429039
 10
165.4917432582718
 20
171.4515594698698
 10
165.5063348816424
 20
171.4484622699607
 10
165.5209152139618
 20
171.445393285386
 10
165.5354842983529
 20
171.4423529583557
 10
165.5500421779311
 20
171.4393417310819
 10
165.5645888958028
 20
171.4363600457739
 10
165.5791244950818
 20
171.4334083446459
 10
165.5936490188728
 20
171.4304870699059
 10
165.608162510282
 20
171.4275966637676
 10
165.622665012443
 20
171.4247375684438
 10
165.6371565684426
 20
171.4219102261401
 10
165.6516372214121
 20
171.419115079075
 10
165.6661070144531
 20
171.4163525694519
 10
165.6805659906735
 20
171.4136231394871
 10
165.6950141931925
 20
171.410927231392
 10
165.7094516651126
 20
171.4082652873738
 10
165.7238784495534
 20
171.405637749647
 10
165.7382945896229
 20
171.403045060422
 10
165.7527001284329
 20
171.4004876619098
 10
165.7670951090916
 20
171.3979659963217
 10
165.7814795747113
 20
171.3954805058691
 10
165.7958535684033
 20
171.393031632764
 10
165.8102171332815
 20
171.3906198192137
 10
165.8245703124615
 20
171.3882455074338
 10
165.8389131490443
 20
171.385909139635
 10
165.8532456861526
 20
171.383611158027
 10
165.8675679668817
 20
171.38135200482
 10
165.8818800343529
 20
171.3791321222281
 10
165.8961819316814
 20
171.3769519524609
 10
165.9104737019738
 20
171.3748119377275
 10
165.9247553883437
 20
171.3727125202429
 10
165.9390270338939
 20
171.3706541422169
 10
165.9532886817419
 20
171.36863724586
 10
165.9675403750028
 20
171.3666622733846
 10
165.9817821567816
 20
171.3647296669999
 10
165.9960140701937
 20
171.362839868919
 10
166.0102361583435
 20
171.3609933213526
 10
166.0244484643522
 20
171.3591904665106
 10
166.0386510313223
 20
171.357431746607
 10
166.0528439023731
 20
171.3557176038509
 10
166.067027120613
 20
171.3540484804541
 10
166.081200729152
 20
171.3524248186248
 10
166.0953647710925
 20
171.35084706058
 10
166.1095192895614
 20
171.3493156485267
 10
166.1236643276738
 20
171.347831024678
 10
166.1377999285108
 20
171.346393631243
 10
166.1519261352118
 20
171.3450039104348
 10
166.1660429908829
 20
171.3436623044646
 10
166.1801505386323
 20
171.3423692555419
 10
166.1942488215613
 20
171.3411252058788
 10
166.2083378828014
 20
171.3399305976889
 10
166.222417765452
 20
171.3387858731796
 10
166.236488512623
 20
171.3376914745629
 10
166.2505501674318
 20
171.3366478440501
 10
166.264602772981
 20
171.3356554238546
 10
166.2786463723936
 20
171.3347146561879
 10
166.2926810087614
 20
171.3338259832546
 10
166.3067067252235
 20
171.3329898472736
 10
166.3207235648718
 20
171.3322066904541
 10
166.3347315708219
 20
171.3314769550035
 10
166.3487307861819
 20
171.330801083138
 10
166.3627212540726
 20
171.3301795170657
 10
166.3767030175935
 20
171.3296126989978
 10
166.3906761198727
 20
171.3291010711458
 10
166.404640604002
 20
171.3286450757229
 10
166.4185965130931
 20
171.3282451549396
 10
166.4325438902728
 20
171.3279017510038
 10
166.4464827786528
 20
171.3276153061318
 10
166.4604132213229
 20
171.3273862625308
 10
166.4743352614118
 20
171.3272150624137
 10
166.4882489420328
 20
171.3271021479898
 10
166.5021543062943
 20
171.3270479614736
 10
166.5160513972937
 20
171.3270529450735
 10
166.5299402581536
 20
171.3271175410016
 10
166.5438209319931
 20
171.327242191471
 10
166.5576934619116
 20
171.3274273386898
 10
166.5715578910226
 20
171.3276734248709
 10
166.5854142624434
 20
171.3279808922241
 10
166.5992626192733
 20
171.3283501829616
 10
166.613103004633
 20
171.328781739295
 10
166.626935461631
 20
171.3292760034358
 10
166.6407600333718
 20
171.3298334175932
 10
166.6545767629926
 20
171.3304544239806
 10
166.6683856935728
 20
171.3311394648069
 10
166.6821868682423
 20
171.331888982287
 10
166.6959803301019
 20
171.3327034186271
 10
166.7097661222728
 20
171.3335832160416
 10
166.7235442878613
 20
171.3345288167431
 10
166.737314869972
 20
171.3355406629369
 10
166.7510779117314
 20
171.3366191968409
 10
166.764833456244
 20
171.337764860663
 10
166.7785815466126
 20
171.3389780966146
 10
166.7923222259618
 20
171.3402593469069
 10
166.8060555373926
 20
171.3416090537509
 10
166.8197815240223
 20
171.3430276593596
 10
166.8335002289516
 20
171.3445156059418
 10
166.8472116953128
 20
171.3460733357107
 10
166.860915966194
 20
171.3477012908749
 10
166.8746130847215
 20
171.3493999136465
 10
166.8883030940019
 20
171.3511696462399
 10
166.9019860371522
 20
171.353010930862
 10
166.9156619572716
 20
171.3549242097259
 10
166.9293308974723
 20
171.3569099250428
 10
166.9429929008824
 20
171.3589685190239
 10
166.9566480106027
 20
171.3611004338806
 10
166.9702962697323
 20
171.3633061118228
 10
166.9839377214015
 20
171.365585995062
 10
166.9975724087112
 20
171.3679405258105
 10
167.0112003747821
 20
171.3703701462788
 10
167.0248216627119
 20
171.3728752986801
 10
167.038436315623
 20
171.3754564252214
 10
167.0520443766239
 20
171.378113968117
 10
167.0656458888229
 20
171.3808483695776
 10
167.0792408953334
 20
171.3836600718139
 10
167.092829439262
 20
171.3865495170369
 10
167.1064115637332
 20
171.389517147459
 10
167.1199873118315
 20
171.3925634052886
 10
167.1335567267018
 20
171.395688732742
 10
167.1471198514323
 20
171.3988935720237
 10
167.1606767291418
 20
171.4021783653509
 10
167.1742274029516
 20
171.4055435549319
 10
167.1877719159533
 20
171.4089895829768
 10
167.2013103112625
 20
171.4125168916987
 10
167.2148426320021
 20
171.4161259233108
 10
167.2283689212822
 20
171.4198171200199
 10
167.2418892222035
 20
171.423590924039
 10
167.2554035778726
 20
171.4274477775791
 10
167.2689120314229
 20
171.4313881228525
 10
167.2824146259521
 20
171.435412402069
 10
167.295911404572
 20
171.4395210574419
 10
167.3094024103924
 20
171.4437145311801
 10
167.3228876865236
 20
171.4479932654946
 10
167.3363672760829
 20
171.4523577025976
 10
167.3498412221819
 20
171.4568082847029
 10
167.3633095679311
 20
171.4613454540169
 10
167.3767723564328
 20
171.4659696527516
 10
167.3902296308027
 20
171.4706813231208
 10
167.4036814341619
 20
171.4754809073359
 10
167.4171278096113
 20
171.4803688476046
 10
167.4305688002628
 20
171.4853455861419
 10
167.4440044492316
 20
171.4904115651559
 10
167.4574347996226
 20
171.49556722686
 10
167.470859894553
 20
171.500813013464
 10
167.4842797771439
 20
171.506149367179
 10
167.4976944904814
 20
171.511576730217
 10
167.5111040776942
 20
171.517095544789
 10
167.5245085818936
 20
171.5227062531078
 10
167.537908046183
 20
171.5284092973809
 10
167.5513025136829
 20
171.534205119822
 10
167.5646920274943
 20
171.54009416264
 10
167.5780766307439
 20
171.5460768680511
 10
167.5914563665233
 20
171.552153678261
 10
167.601209426512
 20
171.5566538663576
  0
ARC
  5
200
330
2
100
AcDbEntity
  8
0
100
AcDbCircle
 10
162.5064766901413
 20
184.1443563014403
 30
0.0
 40
0.5
100
AcDbArc
 50
90.0
 51
177.9685271120391
  0
LINE
  5
201
330
2
100
AcDbEntity
  8
0
100
AcDbLine
 10
132.849922646601
 20
230.3368790771514
 30
0.0
 11
132.349922646601
 21
229.8368790771514
 31
0.0
  0
LINE
  5
202
330
2
100
AcDbEntity
  8
0
100
AcDbLine
 10
132.349922646601
 20
229.4368790771514
 30
0.0
 11
139.349922646601
 21
229.4368790771514
 31
0.0
  0
LINE
  5
203
330
2
100
AcDbEntity
  8
0
100
AcDbLine
 10
132.349922646601
 20
224.1368790771511
 30
0.0
 11
132.849922646601
 21
223.6368790771503
 31
0.0
  0
LINE
  5
204
330
2
100
AcDbEntity
  8
0
100
AcDbLine
 10
132.349922646601
 20
224.5368790771502
 30
0.0
 11
139.349922646601
 21
224.5368790771502
 31
0.0
  0
LINE
  5
205
330
2
100
AcDbEntity
  8
2
100
AcDbLine
 10
139.349922646601
 20
227.7521785387734
 30
0.0
 11
133.1821751622208
 21
224.5368790771502
 31
0.0
  0
LINE
  5
206
330
2
100
AcDbEntity
  8
2
100
AcDbLine
 10
139.349922646601
 20
229.4368790771514
 30
0.0
 11
139.349922646601
 21
224.5368790771502
 31
0.0
  0
LINE
  5
207
330
2
100
AcDbEntity
  8
0
100
AcDbLine
 10
132.349922646601
 20
229.8368790771514
 30
0.0
 11
132.349922646601
 21
224.1473790771514
 31
0.0
  0
LINE
  5
208
330
2
100
AcDbEntity
  8
2
100
AcDbLine
 10
132.849922646601
 20
230.3368790771514
 30
0.0
 11
132.849922646601
 21
223.6368790771503
 31
0.0
  0
LINE
  5
209
330
2
100
AcDbEntity
  8
2
100
AcDbLine
 10
138.3990505643305
 20
229.4368790771514
 30
0.0
 11
133.349922646601
 21
226.8861531349871
 31
0.0
  0
LINE
  5
20A
330
2
100
AcDbEntity
  8
2
100
AcDbLine
 10
139.349922646601
 20
228.9068790771512
 30
0.0
 11
133.349922646601
 21
225.731452596607
 31
0.0
  0
ARC
  5
20B
330
2
100
AcDbEntity
  8
0
100
AcDbCircle
 10
137.890050381151
 20
259.6193608468465
 30
0.0
 40
30.21776684021192
100
AcDbArc
 50
272.7691355264795
 51
280.409613578557
  0
ARC
  5
20C
330
2
100
AcDbEntity
  8
0
100
AcDbCircle
 10
137.890050381151
 20
194.354397307452
 30
0.0
 40
30.21776684021463
100
AcDbArc
 50
79.59038642144284
 51
87.23086447352047
  0
LINE
  5
20D
330
2
100
AcDbEntity
  8
0
100
AcDbLine
 10
132.849922646601
 20
230.3368790771514
 30
0.0
 11
143.349922646601
 21
230.3368790771514
 31
0.0
  0
LINE
  5
20E
330
2
100
AcDbEntity
  8
CEN
 48
0.6
100
AcDbLine
 10
130.849922646601
 20
229.8263790771509
 30
0.0
 11
146.349922646601
 21
229.8263790771509
 31
0.0
  0
LINE
  5
20F
330
2
100
AcDbEntity
  8
0
100
AcDbLine
 10
132.849922646601
 20
223.6368790771503
 30
0.0
 11
143.349922646601
 21
223.6368790771503
 31
0.0
  0
LINE
  5
210
330
2
100
AcDbEntity
  8
CEN
 48
0.6
100
AcDbLine
 10
130.849922646601
 20
224.1473790771514
 30
0.0
 11
146.349922646601
 21
224.1473790771514
 31
0.0
  0
DIMENSION
  5
211
330
2
100
AcDbEntity
  8
0
100
AcDbDimension
  2
*D40
 10
145.349922646601
 20
272.9921780150851
 30
0.0
 11
136.349922646601
 21
272.9921780150851
 31
0.0
 70
   160
  3
STANDARD
100
AcDbAlignedDimension
 13
143.349922646601
 23
258.986879077151
 33
0.0
 14
145.349922646601
 24
261.9868790771511
 34
0.0
100
AcDbRotatedDimension
  0
DIMENSION
  5
220
330
2
100
AcDbEntity
  8
0
100
AcDbDimension
  2
*D39
 10
145.349922646601
 20
284.3156054650611
 30
0.0
 11
138.849922646601
 21
284.3156054650611
 31
0.0
 70
   160
  1
<>
  3
STANDARD
100
AcDbAlignedDimension
 13
132.349922646601
 23
229.6538965377902
 33
0.0
 14
145.349922646601
 24
261.9868790771511
 34
0.0
100
AcDbRotatedDimension
  0
LINE
  5
22D
330
2
100
AcDbEntity
  8
0
100
AcDbLine
 10
152.349922646601
 20
252.8856164186804
 30
0.0
 11
152.349922646601
 21
260.5856164186793
 31
0.0
  0
LINE
  5
22E
330
2
100
AcDbEntity
  8
0
100
AcDbLine
 10
151.4499226465995
 20
252.8856164186804
 30
0.0
 11
152.349922646601
 21
252.8856164186804
 31
0.0
  0
LINE
  5
22F
102
{ACAD_REACTORS
330
234
102
}
330
2
100
AcDbEntity
  8
0
100
AcDbLine
 10
151.4499226465995
 20
260.5856164186793
 30
0.0
 11
152.349922646601
 21
260.5856164186793
 31
0.0
  0
LINE
  5
230
330
2
100
AcDbEntity
  8
0
100
AcDbLine
 10
145.349922646601
 20
258.986879077151
 30
0.0
 11
143.349922646601
 21
258.986879077151
 31
0.0
  0
LINE
  5
231
330
2
100
AcDbEntity
  8
0
100
AcDbLine
 10
145.349922646601
 20
261.9868790771511
 30
0.0
 11
151.4499226465995
 21
261.9868790771511
 31
0.0
  0
DIMENSION
  5
232
102
{ACAD_XDICTIONARY
360
233
102
}
102
{ACAD_REACTORS
330
234
102
}
330
2
100
AcDbEntity
  8
0
100
AcDbDimension
  2
*D38
 10
152.349922646601
 20
272.9921780150851
 30
0.0
 11
148.849922646601
 21
272.9921780150851
 31
0.0
 70
   160
  3
STANDARD
100
AcDbAlignedDimension
 13
145.349922646601
 23
271.195212410483
 33
0.0
 14
152.349922646601
 24
260.5856164186793
 34
0.0
100
AcDbRotatedDimension
  0
LINE
  5
241
330
2
100
AcDbEntity
  8
0
100
AcDbLine
 10
152.349922646601
 20
201.0881417356213
 30
0.0
 11
152.349922646601
 21
193.3881417356199
 31
0.0
  0
LINE
  5
242
330
2
100
AcDbEntity
  8
0
100
AcDbLine
 10
161.849922646601
 20
191.4868790771511
 30
0.0
 11
152.849922646601
 21
191.4868790771511
 31
0.0
  0
LINE
  5
243
330
2
100
AcDbEntity
  8
0
100
AcDbLine
 10
151.4499226465995
 20
193.3881417356199
 30
0.0
 11
152.349922646601
 21
193.3881417356199
 31
0.0
  0
LINE
  5
244
330
2
100
AcDbEntity
  8
0
100
AcDbLine
 10
152.349922646601
 20
192.4868790771511
 30
0.0
 11
152.349922646601
 21
191.9868790771511
 31
0.0
  0
ARC
  5
245
330
2
100
AcDbEntity
  8
0
100
AcDbCircle
 10
152.849922646601
 20
191.9868790771511
 30
0.0
 40
0.5
100
AcDbArc
 50
180.0
 51
270.0
  0
LINE
  5
246
330
2
100
AcDbEntity
  8
0
100
AcDbLine
 10
162.349922646601
 20
192.4868790771511
 30
0.0
 11
162.349922646601
 21
191.9868790771511
 31
0.0
  0
ARC
  5
247
330
2
100
AcDbEntity
  8
0
100
AcDbCircle
 10
161.849922646601
 20
191.9868790771511
 30
0.0
 40
0.5
100
AcDbArc
 50
270.0
 51
0.0
  0
LINE
  5
248
330
2
100
AcDbEntity
  8
0
100
AcDbLine
 10
151.4499226465995
 20
201.0881417356213
 30
0.0
 11
152.349922646601
 21
201.0881417356213
 31
0.0
  0
ARC
  5
249
330
2
100
AcDbEntity
  8
0
100
AcDbCircle
 10
157.9445115924591
 20
188.326221685881
 30
0.0
 40
1.318158315128889
100
AcDbArc
 50
89.6564224934487
 51
169.1029148372918
  0
ARC
  5
24A
330
2
100
AcDbEntity
  8
0
 48
0.6
100
AcDbCircle
 10
193.6526446465995
 20
191.3982330771505
 30
0.0
 40
39.15579199999999
100
AcDbArc
 50
179.8702870000233
 51
183.6102158837779
  0
ARC
  5
24B
330
2
100
AcDbEntity
  8
0
 48
0.6
100
AcDbCircle
 10
193.9488505825011
 20
191.3228446013004
 30
0.0
 40
37.855792
100
AcDbArc
 50
179.8658330000312
 51
183.9724199931055
  0
ARC
  5
24C
330
2
100
AcDbEntity
  8
0
 48
0.6
100
AcDbCircle
 10
193.3601505933802
 20
191.4845441861565
 30
0.0
 40
35.255792
100
AcDbArc
 50
179.9962054631615
 51
182.9919319862273
  0
ARC
  5
24D
330
2
100
AcDbEntity
  8
0
 48
0.6
100
AcDbCircle
 10
193.6526446465995
 20
191.3982330771505
 30
0.0
 40
33.95579199999998
100
AcDbArc
 50
179.85042300002
 51
182.9607459492086
  0
LINE
  5
24E
330
2
100
AcDbEntity
  8
0
100
AcDbLine
 10
145.349922646601
 20
194.9868790771511
 30
0.0
 11
143.349922646601
 21
194.9868790771511
 31
0.0
  0
LINE
  5
24F
330
2
100
AcDbEntity
  8
0
100
AcDbLine
 10
145.349922646601
 20
191.9868790771511
 30
0.0
 11
151.4499226465995
 21
191.9868790771511
 31
0.0
  0
LINE
  5
250
330
2
100
AcDbEntity
  8
0
100
AcDbLine
 10
145.349922646601
 20
261.9868790771511
 30
0.0
 11
145.349922646601
 21
191.9868790771511
 31
0.0
  0
LINE
  5
251
330
2
100
AcDbEntity
  8
0
100
AcDbLine
 10
151.4499226465995
 20
261.9868790771511
 30
0.0
 11
151.4499226465995
 21
191.9868790771511
 31
0.0
  0
LINE
  5
252
330
2
100
AcDbEntity
  8
0
100
AcDbLine
 10
143.349922646601
 20
258.986879077151
 30
0.0
 11
143.349922646601
 21
194.9868790771511
 31
0.0
  0
DIMENSION
  5
253
330
2
100
AcDbEntity
  8
0
 48
0.6
100
AcDbDimension
  2
*D37
 10
119.0606986355104
 20
194.9868790771511
 30
0.0
 11
119.0606986355104
 21
226.9868790771511
 31
0.0
 70
   160
  1
\A1;%%C<>{\f??|b0|i0|c0|p49;\H0.7x;\S+0^ -0.03;\H1.429x;(h7)} 
  3
STANDARD
100
AcDbAlignedDimension
 13
143.349922646601
 23
258.986879077151
 33
0.0
 14
141.8915233607293
 24
194.9868790771511
 34
0.0
 50
90.0
100
AcDbRotatedDimension
  0
ARC
  5
260
330
2
100
AcDbEntity
  8
0
 48
0.6
100
AcDbCircle
 10
171.6749466304499
 20
246.1131535515483
 30
0.0
 40
116.9686661741607
100
AcDbArc
 50
210.1560153536115
 51
216.2412691602773
  0
ARC
  5
261
330
2
100
AcDbEntity
  8
0
 48
0.6
100
AcDbCircle
 10
159.61649141439
 20
238.8867858815514
 30
0.0
 40
95.84808274048763
100
AcDbArc
 50
210.4975034246499
 51
218.0575295674634
  0
LINE
  5
262
102
{ACAD_REACTORS
330
A1
102
}
330
2
100
AcDbEntity
  8
CEN
  6
CENTER
 62
     1
 48
0.6
100
AcDbLine
 10
57.43235237267981
 20
226.9868790771552
 30
0.0
 11
75.68739237957197
 21
182.9153139108612
 31
0.0
  0
LINE
  5
263
102
{ACAD_REACTORS
330
A1
102
}
330
2
100
AcDbEntity
  8
CEN
  6
CENTER
 48
0.6
100
AcDbLine
 10
57.43235237267981
 20
184.939166072951
 30
0.0
 11
57.43235237267981
 21
269.034592081351
 31
0.0
  0
LWPOLYLINE
  5
264
330
2
100
AcDbEntity
  8
0
100
AcDbPolyline
 90
      548
 70
     0
 43
0.0
 10
77.33565857263056
 20
176.9628274835831
 10
77.33867398774965
 20
176.977400898367
 10
77.34222243907061
 20
176.994060587036
 10
77.34584985725087
 20
177.0106136325019
 10
77.34955598753001
 20
177.0270603906351
 10
77.35334057515138
 20
177.0434012173113
 10
77.35720336535087
 20
177.0596364684
 10
77.36114410337176
 20
177.0757664997763
 10
77.36516253446095
 20
177.0917916673133
 10
77.36925840385994
 20
177.1077123268824
 10
77.37343145681006
 20
177.1235288343564
 10
77.37768143856007
 20
177.1392415456084
 10
77.38200809434056
 20
177.1548508165124
 10
77.38641116940016
 20
177.1703570029403
 10
77.39089040898034
 20
177.1857604607643
 10
77.39544555832981
 20
177.2010615458601
 10
77.40007636269183
 20
177.2162606140973
 10
77.40478256729145
 20
177.2313580213484
 10
77.40956391738109
 20
177.2463541234904
 10
77.4144201582112
 20
177.2612492763923
 10
77.41935103502147
 20
177.2760438359273
 10
77.42435629304236
 20
177.290738157971
 10
77.42943567752991
 20
177.3053325983942
 10
77.43458893372006
 20
177.3198275130694
 10
77.43981580685977
 20
177.33422325787
 10
77.44511604217952
 20
177.3485201886683
 10
77.45048938494074
 20
177.3627186613393
 10
77.45593558037033
 20
177.376819031753
 10
77.4614543737207
 20
177.3908216557843
 10
77.46704551023142
 20
177.4047268893061
 10
77.47270873514207
 20
177.4185350881885
 10
77.47844379369233
 20
177.4322466083081
 10
77.48425043114185
 20
177.4458618055364
 10
77.49012839271017
 20
177.4593810357431
 10
77.49607742365151
 20
177.4728046548061
 10
77.50209726920002
 20
177.486133018594
 10
77.50818767462078
 20
177.499366482983
 10
77.51434838512976
 20
177.5125054038453
 10
77.52057914598117
 20
177.5255501370525
 10
77.52687970242004
 20
177.5385010384761
 10
77.53324979969146
 20
177.5513584639925
 10
77.53968918302053
 20
177.5641227694723
 10
77.54619759765955
 20
177.5767943107894
 10
77.55277478887002
 20
177.5893734438154
 10
77.55942050186058
 20
177.6018605244244
 10
77.56613448190001
 20
177.614255908489
 10
77.57291647422063
 20
177.6265599518824
 10
77.57976622406022
 20
177.6387730104752
 10
77.58668347667117
 20
177.6508954401433
 10
77.59366797729128
 20
177.6629275967584
 10
77.60071947116012
 20
177.6748698361914
 10
77.607837703521
 20
177.686722514319
 10
77.6150224196208
 20
177.6984859870094
 10
77.62227336470096
 20
177.71016061014
 10
77.6295902840011
 20
177.7217467395819
 10
77.63697292277175
 20
177.7332447312073
 10
77.64442102624163
 20
177.744654940888
 10
77.65193433966124
 20
177.7559777245
 10
77.65951260827931
 20
177.767213437913
 10
77.66715557732095
 20
177.7783624370029
 10
77.67486299205121
 20
177.7894250776403
 10
77.6826345976915
 20
177.8004017156999
 10
77.69047013950149
 20
177.8112927070524
 10
77.69836936270078
 20
177.8220984075699
 10
77.70633201255987
 20
177.8328191731278
 10
77.71435783431115
 20
177.8434553595993
 10
77.72244657319061
 20
177.8540073228555
 10
77.73059797444147
 20
177.8644754187711
 10
77.73881178331065
 20
177.8748600032154
 10
77.74708774503051
 20
177.885161432066
 10
77.75542560485883
 20
177.8953800611925
 10
77.76382510804251
 20
177.9055162464683
 10
77.77228599980117
 20
177.9155703437663
 10
77.78080802539259
 20
177.925542708959
 10
77.78939093005101
 20
177.9354336979213
 10
77.79803445903053
 20
177.9452436665233
 10
77.80673835755078
 20
177.9549729706389
 10
77.81550237089141
 20
177.9646219661422
 10
77.82432624426109
 20
177.9741910089054
 10
77.83320972292131
 20
177.9836804547994
 10
77.84215255210073
 20
177.9930906596991
 10
77.85115447706084
 20
178.002421979477
 10
77.86021524302123
 20
178.0116747700061
 10
77.86933459524153
 20
178.020849387159
 10
77.87851227895953
 20
178.0299461868083
 10
77.88774803941123
 20
178.0389655248291
 10
77.89704162185079
 20
178.0479077570903
 10
77.90639277151058
 20
178.0567732394665
 10
77.91580123364109
 20
178.0655623278324
 10
77.92526675348018
 20
178.0742753780573
 10
77.93478907627104
 20
178.0829127460163
 10
77.94436794725152
 20
178.0914747875836
 10
77.95400311167032
 20
178.0999618586283
 10
77.96369431477069
 20
178.1083743150265
 10
77.97344130179226
 20
178.1167125126503
 10
77.98324381798011
 20
178.1249768073703
 10
77.99310160857022
 20
178.1331675550623
 10
78.00301441880947
 20
178.1412851115983
 10
78.01298199395024
 20
178.1493298328514
 10
78.02300407922119
 20
178.1573020746921
 10
78.0330804198602
 20
178.1652021929961
 10
78.04321076112137
 20
178.1730305436353
 10
78.05339484825163
 20
178.1807874824844
 10
78.06363242648149
 20
178.1884733654114
 10
78.07392324105967
 20
178.1960885482922
 10
78.08426703722216
 20
178.2036333870021
 10
78.09466356022131
 20
178.2111082374103
 10
78.10511255529125
 20
178.2185134553913
 10
78.11561376768077
 20
178.2258493968161
 10
78.12616694263123
 20
178.2331164175593
 10
78.13677182538049
 20
178.2403148734933
 10
78.14742816116996
 20
178.2474451204925
 10
78.15813569525015
 20
178.2545075144262
 10
78.16889417286073
 20
178.2615024111709
 10
78.17970333924131
 20
178.2684301665954
 10
78.19056293964059
 20
178.2752911365771
 10
78.2014727193
 20
178.2820856769863
 10
78.21243242345008
 20
178.2888141436965
 10
78.22344179734137
 20
178.2954768925814
 10
78.23450058622075
 20
178.30207427951
 10
78.24560853532054
 20
178.3086066603613
 10
78.25676538990045
 20
178.3150743910021
 10
78.26797089518004
 20
178.321477827308
 10
78.27922479642984
 20
178.3278173251542
 10
78.29052683886039
 20
178.3340932404094
 10
78.30187676774222
 20
178.3403059289479
 10
78.31327432829128
 20
178.3464557466454
 10
78.32471926578
 20
178.35254304937
 10
78.33621132543156
 20
178.358568192998
 10
78.34775025249109
 20
178.364531533399
 10
78.35933579220181
 20
178.3704334264512
 10
78.37096768980154
 20
178.3762742280208
 10
78.38264569054262
 20
178.3820542939861
 10
78.39436953966107
 20
178.3877739802173
 10
78.40613898240917
 20
178.3934336425882
 10
78.41795376401023
 20
178.399033636971
 10
78.42981362973114
 20
178.4045743192382
 10
78.44171832479152
 20
178.4100560452643
 10
78.45366759444186
 20
178.41547917092
 10
78.46566118393095
 20
178.4208440520814
 10
78.47769883850013
 20
178.4261510446175
 10
78.48978030338003
 20
178.4314005044034
 10
78.5019053238302
 20
178.4365927873113
 10
78.51407364508124
 20
178.4417282492136
 10
78.52628501237996
 20
178.4468072459835
 10
78.53853917097149
 20
178.4518301334951
 10
78.5508358660918
 20
178.4567972676213
 10
78.56317484298052
 20
178.4617090042333
 10
78.57555584689179
 20
178.4665656992031
 10
78.58797862305983
 20
178.4713677084073
 10
78.60044291673148
 20
178.4761153877151
 10
78.61294847314093
 20
178.4808090929996
 10
78.62549503755144
 20
178.485449180135
 10
78.63808235518082
 20
178.490036004995
 10
78.65071017128139
 20
178.4945699234529
 10
78.66337823110189
 20
178.499051291379
 10
78.67608627987102
 20
178.5034804646452
 10
78.68883406285021
 20
178.5078577991294
 10
78.70162132526093
 20
178.5121836507
 10
78.71444781235914
 20
178.5164583752301
 10
78.72731326939174
 20
178.520682328595
 10
78.74021744158017
 20
178.5248558666661
 10
78.75316007419133
 20
178.5289793453169
 10
78.76614091245937
 20
178.5330531204204
 10
78.77915970160938
 20
178.5370775478463
 10
78.79221618691008
 20
178.5410529834711
 10
78.80531011359199
 20
178.544979783167
 10
78.81844122690019
 20
178.5488583028072
 10
78.83160927207246
 20
178.5526888982626
 10
78.84481399435026
 20
178.5564719254061
 10
78.85805513898048
 20
178.5602077401144
 10
78.87133245121003
 20
178.5638966982554
 10
78.88464567627123
 20
178.5675391557042
 10
78.89799455941101
 20
178.5711354683353
 10
78.91137884587988
 20
178.574685992018
 10
78.92479828091018
 20
178.5781910826281
 10
78.93825260974153
 20
178.5816510960376
 10
78.95174157762993
 20
178.585066388119
 10
78.96526492980957
 20
178.5884373147432
 10
78.97882241152183
 20
178.5917642317863
 10
78.9924137680009
 20
178.5950474951221
 10
79.00603874451006
 20
178.598287460619
 10
79.01969708627984
 20
178.6014844841533
 10
79.03338853855164
 20
178.6046389215975
 10
79.0471128465706
 20
178.6077511288226
 10
79.06086975558173
 20
178.610821461701
 10
79.07465901083014
 20
178.6138502761095
 10
79.0884803575409
 20
178.6168379279183
 10
79.10233354097181
 20
178.6197847730004
 10
79.11621830636068
 20
178.6226911672273
 10
79.13013439895985
 20
178.6255574664751
 10
79.14408156399257
 20
178.628384026613
 10
79.15805954672214
 20
178.6311712035178
 10
79.17206809236995
 20
178.6339193530601
 10
79.1861069462011
 20
178.6366288311114
 10
79.20017585344067
 20
178.6392999935474
 10
79.21427455934098
 20
178.6419331962383
 10
79.22840280913078
 20
178.6445287950581
 10
79.24256034807148
 20
178.6470871458821
 10
79.25674692139181
 20
178.6496086045804
 10
79.27096227434049
 20
178.6520935270255
 10
79.28520615216076
 20
178.6545422690905
 10
79.29947830009223
 20
178.65695518665
 10
79.31377846338
 20
178.6593326355754
 10
79.32810638726005
 20
178.661674971739
 10
79.34246181697926
 20
178.6639825510155
 10
79.3568444977809
 20
178.6662557292761
 10
79.37125417491007
 20
178.6684948623955
 10
79.38569059360087
 20
178.670700306245
 10
79.40015349910936
 20
178.6728724166963
 10
79.41464263666055
 20
178.675011549626
 10
79.4291577515105
 20
178.6771180609043
 10
79.44369858890059
 20
178.679192306404
 10
79.45826489407045
 20
178.6812346419992
 10
79.47285641225062
 20
178.6832454235604
 10
79.4874728887007
 20
178.6852250069623
 10
79.50211406866038
 20
178.687173748078
 10
79.51677969737102
 20
178.6890920027793
 10
79.53146952007045
 20
178.6909801269411
 10
79.54618328201106
 20
178.6928384764346
 10
79.5609207284215
 20
178.6946674071308
 10
79.57568160455048
 20
178.6964672749071
 10
79.59046565564131
 20
178.6982384356323
 10
79.60527262694085
 20
178.6999812451813
 10
79.62010226367965
 20
178.7016960594264
 10
79.63495431111005
 20
178.7033832342403
 10
79.64982851448076
 20
178.7050431254974
 10
79.66472461902047
 20
178.706676089066
 10
79.67964236997068
 20
178.7082824808253
 10
79.69458151259096
 20
178.7098626566429
 10
79.70954179210093
 20
178.7114169723954
 10
79.72452295377116
 20
178.7129457839523
 10
79.73952474281031
 20
178.7144494471903
 10
79.75454690449078
 20
178.7159283179785
 10
79.76958918404125
 20
178.7173827521921
 10
79.78465132671043
 20
178.7188131057023
 10
79.79973307773071
 20
178.7202197343845
 10
79.81483418235075
 20
178.721602994108
 10
79.8299543858102
 20
178.7229632407484
 10
79.84509343336141
 20
178.7243008301793
 10
79.86025107023124
 20
178.7256161182701
 10
79.87542704167208
 20
178.7269094608964
 10
79.89062109293081
 20
178.7281812139294
 10
79.90583296923069
 20
178.7294317332429
 10
79.92106241584044
 20
178.730661374709
 10
79.93630917798146
 20
178.731870494202
 10
79.95157300091159
 20
178.7330594475951
 10
79.96685362985954
 20
178.7342285907593
 10
79.9821508100813
 20
178.7353782795676
 10
79.99746428681103
 20
178.7365088698934
 10
80.01279380529195
 20
178.7376207176093
 10
80.02813911076009
 20
178.7387141785893
 10
80.04349994847144
 20
178.7397896087044
 10
80.05887606366014
 20
178.7408473638274
 10
80.07426720157125
 20
178.7418877998352
 10
80.08967310745175
 20
178.7429112725954
 10
80.10509352653023
 20
178.743918137983
 10
80.12052820406095
 20
178.7449087518725
 10
80.13597688529262
 20
178.7458834701333
 10
80.15143931545026
 20
178.7468426486415
 10
80.1669152397808
 20
178.7477866432673
 10
80.18240440354203
 20
178.7487158098841
 10
80.19790655196084
 20
178.7496305043671
 10
80.2134214302805
 20
178.7505310825872
 10
80.22894878374065
 20
178.751417900419
 10
80.24448835760086
 20
178.7522913137321
 10
80.2600398970917
 20
178.7531516784024
 10
80.27560314746006
 20
178.7539993502989
 10
80.29117785394189
 20
178.7548346852991
 10
80.30676376178053
 20
178.7556580392733
 10
80.32236061622098
 20
178.756469768095
 10
80.33796816251015
 20
178.7572702276393
 10
80.35358614588039
 20
178.7580597737741
 10
80.36921431158043
 20
178.7588387623745
 10
80.38485240485897
 20
178.7596075493143
 10
80.40050017094108
 20
178.7603664904672
 10
80.41615735509186
 20
178.7611159417024
 10
80.4318237025309
 20
178.7618562588971
 10
80.44749895851964
 20
178.7625877979203
 10
80.46318286829047
 20
178.763310914648
 10
80.47887517709023
 20
178.7640259649499
 10
80.49457563016039
 20
178.7647333047019
 10
80.5102839727424
 20
178.7654332897764
 10
80.52599995007041
 20
178.7661262760419
 10
80.54172330740039
 20
178.766812619378
 10
80.55745378997015
 20
178.7674926756529
 10
80.57319114302117
 20
178.7681668007421
 10
80.58893511180031
 20
178.7688353505163
 10
80.60468544154174
 20
178.769498680849
 10
80.62044187750144
 20
178.7701571476131
 10
80.63620416490085
 20
178.7708111066829
 10
80.65197204899959
 20
178.7714609139293
 10
80.66774527503003
 20
178.7721069252251
 10
80.68352358824995
 20
178.7727494964455
 10
80.69930673389171
 20
178.7733889834612
 10
80.71509445719129
 20
178.7740257421464
 10
80.73088650340105
 20
178.7746601283724
 10
80.74668261774968
 20
178.7752924980122
 10
80.76248254550044
 20
178.7759232069404
 10
80.77828603189118
 20
178.7765526110274
 10
80.79409282215056
 20
178.7771810661483
 10
80.80990266153092
 20
178.777808928174
 10
80.82571529527195
 20
178.77843655298
 10
80.84153046862047
 20
178.7790642964373
 10
80.85734792681069
 20
178.779692514417
 10
80.8731674150913
 20
178.7803215627973
 10
80.88898867870922
 20
178.7809517974451
 10
80.90481146290041
 20
178.781583574236
 10
80.92063551290085
 20
178.782217249044
 10
80.93646057397018
 20
178.7828531777394
 10
80.95228639134075
 20
178.783491716198
 10
80.96811271025034
 20
178.784133220289
 10
80.98393927595134
 20
178.784778045888
 10
80.9997658336797
 20
178.7854265488695
 10
81.01559212868052
 20
178.7860790850999
 10
81.03141790619156
 20
178.7867360104589
 10
81.04724291145975
 20
178.7873976808159
 10
81.06306688973019
 20
178.7880644520439
 10
81.07888958624062
 20
178.7887366800164
 10
81.09471074624163
 20
178.7894147206061
 10
81.11053011497096
 20
178.7900989296863
 10
81.12634743765921
 20
178.7907896631294
 10
81.14216245956049
 20
178.7914872768083
 10
81.15797492592173
 20
178.792192126595
 10
81.17378458198073
 20
178.7929045683644
 10
81.18959117298073
 20
178.7936249579869
 10
81.20539444415044
 20
178.7943536513376
 10
81.22119414076042
 20
178.7950910042871
 10
81.23699000803027
 20
178.7958373727105
 10
81.25278179120142
 20
178.7965931124803
 10
81.26856923553168
 20
178.7973585794679
 10
81.2843520862607
 20
178.7981341295471
 10
81.30013008862079
 20
178.7989201185899
 10
81.3159029878607
 20
178.799716902471
 10
81.3316705292309
 20
178.8005248370605
 10
81.34743245795105
 20
178.8013442782335
 10
81.36318851929173
 20
178.8021755818645
 10
81.37893845847248
 20
178.8030191038209
 10
81.39468202075113
 20
178.803875199981
 10
81.41041895136003
 20
178.8047442262145
 10
81.42614899554974
 20
178.8056265383943
 10
81.44187189855072
 20
178.8065224923951
 10
81.45758740562994
 20
178.807432444089
 10
81.47329526200156
 20
178.8083567493479
 10
81.48899521292149
 20
178.8092957640451
 10
81.50468700362035
 20
178.8102498440544
 10
81.52037037937224
 20
178.8112193452475
 10
81.53604508538045
 20
178.8122046234984
 10
81.55171086691007
 20
178.8132060346773
 10
81.56736746920978
 20
178.8142239346611
 10
81.58301463750104
 20
178.8152586793201
 10
81.59865211704163
 20
178.8163106245283
 10
81.61427965307121
 20
178.8173801261564
 10
81.62989699082208
 20
178.8184675400803
 10
81.64550387555028
 20
178.8195732221701
 10
81.66110005249175
 20
178.8206975283
 10
81.67668526689158
 20
178.8218408143434
 10
81.6922592639912
 20
178.8230034361709
 10
81.7078217890303
 20
178.8241857496573
 10
81.7233725872502
 20
178.8253881106775
 10
81.73891140390152
 20
178.8266108750994
 10
81.754437984222
 20
178.8278543987976
 10
81.76995207345134
 20
178.8291190376471
 10
81.78545341684003
 20
178.8304051475201
 10
81.80094175962222
 20
178.8317130842883
 10
81.81641684705025
 20
178.8330432038249
 10
81.83187842435108
 20
178.8343958620024
 10
81.84732623678064
 20
178.8357714146941
 10
81.86276002958036
 20
178.8371702177733
 10
81.87817954799175
 20
178.838592627113
 10
81.89358453724162
 20
178.8400389985831
 10
81.90897474259145
 20
178.8415096880612
 10
81.92434990928086
 20
178.8430050514165
 10
81.93970978255128
 20
178.8445254445232
 10
81.95505410764232
 20
178.8460712232554
 10
81.97038262980095
 20
178.8476427434833
 10
81.98569509425942
 20
178.8492403610794
 10
82.00099124627014
 20
178.8508644319213
 10
82.01627083107087
 20
178.8525153118769
 10
82.03153359391036
 20
178.854193356823
 10
82.04677928003
 20
178.8558989226276
 10
82.06200763467132
 20
178.8576323651682
 10
82.07721840306112
 20
178.8593940403143
 10
82.0924113304609
 20
178.8611843039416
 10
82.10758616211023
 20
178.863003511921
 10
82.12274264325058
 20
178.8648520201254
 10
82.1378805191107
 20
178.86673018443
 10
82.15299953495923
 20
178.8686383607054
 10
82.16809943602129
 20
178.8705769048233
 10
82.18317996754192
 20
178.8725461726594
 10
82.19824087476082
 20
178.8745465200844
 10
82.21328190293025
 20
178.8765783029743
 10
82.22830279728077
 20
178.8786418771974
 10
82.24330330306111
 20
178.8807375986293
 10
82.25828316552179
 20
178.882865823143
 10
82.27324212989151
 20
178.8850269066092
 10
82.28817994140991
 20
178.8872212049041
 10
82.30309634534206
 20
178.8894490738982
 10
82.3179910869112
 20
178.8917108694654
 10
82.3328639113606
 20
178.8940069474774
 10
82.34771456394083
 20
178.8963376638093
 10
82.36254278988054
 20
178.8987033743299
 10
82.3773483344412
 20
178.9011044349171
 10
82.39213094286062
 20
178.9035412014395
 10
82.40689036037109
 20
178.9060140297708
 10
82.42162633222141
 20
178.9085232757851
 10
82.43633860366028
 20
178.9110692953585
 10
82.45102691991997
 20
178.9136524443559
 10
82.46569102624198
 20
178.9162730786574
 10
82.48033066787137
 20
178.918931554131
 10
82.49494559006052
 20
178.921628226651
 10
82.50953553804173
 20
178.9243634520915
 10
82.52410025706012
 20
178.9271375863263
 10
82.53863949235892
 20
178.9299509852244
 10
82.55315298917048
 20
178.9328040046621
 10
82.56764049275989
 20
178.9356970005103
 10
82.5821017483504
 20
178.9386303286423
 10
82.59653650119068
 20
178.94160434493
 10
82.61094449652047
 20
178.94461940525
 10
82.625325479592
 20
178.9476758654705
 10
82.63967919563038
 20
178.9507740814683
 10
82.6540053898916
 20
178.9539144091139
 10
82.66830380762076
 20
178.9570972042802
 10
82.68257419405017
 20
178.9603228228384
 10
82.6968162944304
 20
178.9635916206662
 10
82.71102985399194
 20
178.9669039536333
 10
82.72521461799261
 20
178.9702601776115
 10
82.7393703316593
 20
178.9736606484761
 10
82.75349674024983
 20
178.9771057221004
 10
82.76759358900017
 20
178.9805957543544
 10
82.78166062314992
 20
178.9841311011114
 10
82.79569758794968
 20
178.9877121182453
 10
82.80970422862992
 20
178.9913391616305
 10
82.82368029044119
 20
178.9950125871364
 10
82.83762551862128
 20
178.9987327506382
 10
82.85153965842255
 20
179.0025000080095
 10
82.86542245508099
 20
179.0063147151213
 10
82.87927365383074
 20
179.0101772278461
 10
82.89309299992963
 20
179.0140879020581
 10
82.90688023861003
 20
179.0180470936301
 10
82.9206351151206
 20
179.0220551584351
 10
82.93435737470096
 20
179.026112452344
 10
82.94804676259081
 20
179.0302193312322
 10
82.96170302403153
 20
179.03437615097
 10
82.97532590427181
 20
179.0385832674342
 10
82.98891514855132
 20
179.0428410364934
 10
83.00247050211146
 20
179.047149814023
 10
83.01599171020098
 20
179.0515099558942
 10
83.02947851805948
 20
179.05592181798
 10
83.04293067092112
 20
179.0603857561563
 10
83.05634791404191
 20
179.064902126292
 10
83.06972999265054
 20
179.0694712842614
 10
83.08307665199027
 20
179.0740935859369
 10
83.09638763732072
 20
179.078769387195
 10
83.10966269387064
 20
179.0834990439034
 10
83.12290156687959
 20
179.0882829119364
 10
83.13610400159994
 20
179.0931213471685
 10
83.14926974327136
 20
179.0980147054724
 10
83.16239853712977
 20
179.1029633427183
 10
83.17549012842937
 20
179.1079676147821
 10
83.18854426240068
 20
179.1130278775362
 10
83.20156068429239
 20
179.1181444868502
 10
83.21453913935147
 20
179.1233177986014
 10
83.2274793728102
 20
179.1285481686603
 10
83.24038112991003
 20
179.1338359529022
 10
83.25324415591058
 20
179.1391815071951
 10
83.26606819604057
 20
179.1445851874164
 10
83.27885299554145
 20
179.1500473494343
 10
83.29159829966011
 20
179.1555683491283
 10
83.30430385364159
 20
179.161148542365
 10
83.31696940272014
 20
179.1667882850191
 10
83.32959469214072
 20
179.172487932967
 10
83.34217946716126
 20
179.1782478420773
 10
83.35472347300131
 20
179.1840683682244
 10
83.36722645490954
 20
179.1899498672814
 10
83.3796881581402
 20
179.195892695119
 10
83.39210832792195
 20
179.2018972076125
 10
83.40448670951081
 20
179.2079637606343
 10
83.41682304814094
 20
179.2140927100585
 10
83.42911708905011
 20
179.2202844117541
 10
83.44136857747981
 20
179.226539221599
 10
83.45357725869144
 20
179.2328574954604
 10
83.46574287791009
 20
179.2392395892164
 10
83.47786518039175
 20
179.2456858587375
 10
83.48994391135965
 20
179.2521966598965
 10
83.50197881606979
 20
179.2587723485642
 10
83.51396963976005
 20
179.2654132806183
 10
83.52591612768083
 20
179.2721198119265
 10
83.53781802506999
 20
179.278892298367
 10
83.54967507715992
 20
179.2857310958074
 10
83.56148702921018
 20
179.292636560125
 10
83.57325362644951
 20
179.2996090471891
 10
83.58497461412117
 20
179.3066489128739
 10
83.59664973748113
 20
179.3137565130523
 10
83.60827874175994
 20
179.3209322036003
 10
83.61986137220084
 20
179.328176340384
 10
83.63139737405072
 20
179.3354892792813
 10
83.64288649255106
 20
179.3428713761645
 10
83.65432847295052
 20
179.3503229869033
 10
83.66572306048146
 20
179.3578444673761
 10
83.67707000038171
 20
179.3654361734509
 10
83.68836903789997
 20
179.3730984610023
 10
83.69961991829041
 20
179.3808316859035
 10
83.71082238678173
 20
179.3886362040261
 10
83.72197618862083
 20
179.3965123712441
 10
83.73308106904188
 20
179.404460543431
 10
83.74413677330085
 20
179.4124810764583
 10
83.75514304663012
 20
179.4205743261995
 10
83.76609963428018
 20
179.428740648525
 10
83.7770062814925
 20
179.436980399312
 10
83.78786273350121
 20
179.4452939344321
 10
83.79866873556055
 20
179.4536816097551
 10
83.809424032901
 20
179.4621437811581
 10
83.82012837078036
 20
179.47068080451
 10
83.83078149442189
 20
179.4792930356874
 10
83.8413831490816
 20
179.4879808305588
 10
83.85193308000088
 20
179.4967445450024
 10
83.8624310324212
 20
179.505584534885
 10
83.8728767515713
 20
179.5145011560853
 10
83.88326998271075
 20
179.5234947644734
 10
83.89361047108105
 20
179.5325657159208
 10
83.90389796193085
 20
179.541714366301
 10
83.91413220048162
 20
179.5509410714894
 10
83.92431293198024
 20
179.5602461873563
 10
83.93443990169179
 20
179.5696300697763
 10
83.94451285483047
 20
179.5790930746225
 10
83.95453153665039
 20
179.5886355577645
 10
83.96449569240031
 20
179.598257875077
 10
83.97440506730891
 20
179.607960382434
 10
83.98425940664129
 20
179.6177434357064
 10
83.99405845562069
 20
179.6276073907701
 10
84.00380195949038
 20
179.6375526034953
 10
84.01348966350088
 20
179.6475794297544
 10
84.02312131289182
 20
179.6576882254211
 10
84.032696652901
 20
179.6678793463702
 10
84.04221542877165
 20
179.6781531484711
 10
84.05167738575983
 20
179.6885099876003
 10
84.06108226909237
 20
179.6989502196281
 10
84.07042982401071
 20
179.7094742004263
 10
84.07971979577087
 20
179.7200822858719
 10
84.08895192961063
 20
179.7307748318344
 10
84.09812597076053
 20
179.7415521941875
 10
84.10724166448018
 20
179.7524147288045
 10
84.11629875600192
 20
179.7633627915559
 10
84.12529699057087
 20
179.7743967383194
 10
84.13423611343024
 20
179.7855169249624
 10
84.14311586982149
 20
179.7967237073621
 10
84.14646032033124
 20
179.8010061059685
  0
LINE
  5
265
330
2
100
AcDbEntity
  8
CEN
  6
CENTER
 48
0.6
100
AcDbLine
 10
15.33710266922207
 20
226.9868790771511
 30
0.0
 11
99.52760207614121
 21
226.9868790771511
 31
0.0
  0
ARC
  5
266
330
2
100
AcDbEntity
  8
0
 48
0.6
100
AcDbCircle
 10
57.43235237267981
 20
226.9868790771552
 30
0.0
 40
27.83999999999998
100
AcDbArc
 50
206.3656725032168
 51
243.634327496789
  0
ARC
  5
267
330
2
100
AcDbEntity
  8
0
 48
0.6
100
AcDbCircle
 10
57.43235237267981
 20
226.9868790771552
 30
0.0
 40
27.83999999999998
100
AcDbArc
 50
116.3656725032109
 51
153.634327496783
  0
CIRCLE
  5
268
330
2
100
AcDbEntity
  8
0
 48
0.6
100
AcDbCircle
 10
57.43235237267981
 20
226.9868790771552
 30
0.0
 40
32.00000000000005
  0
CIRCLE
  5
269
330
2
100
AcDbEntity
  8
0
 48
0.6
100
AcDbCircle
 10
57.43235237267981
 20
226.9868790771552
 30
0.0
 40
33.5
  0
LINE
  5
26A
330
2
100
AcDbEntity
  8
0
 48
0.6
100
AcDbLine
 10
27.43235237267981
 20
191.9868790771552
 30
0.0
 11
87.43235237267979
 21
191.9868790771552
 31
0.0
  0
LINE
  5
26B
330
2
100
AcDbEntity
  8
0
 48
0.6
100
AcDbLine
 10
27.43235237267981
 20
261.9868790771552
 30
0.0
 11
87.43235237267979
 21
261.9868790771552
 31
0.0
  0
INSERT
  5
26C
330
2
100
AcDbEntity
  8
0
100
AcDbBlockReference
  2
3
 10
57.43235237269255
 20
226.9868790771552
 30
0.0
  0
DIMENSION
  5
26D
102
{ACAD_XDICTIONARY
360
26E
102
}
102
{ACAD_REACTORS
330
26F
102
}
330
2
100
AcDbEntity
  8
0
100
AcDbDimension
  2
*D36
 10
92.43235237267979
 20
274.5546742030615
 30
0.0
 11
57.43235237267981
 21
274.5546742030615
 31
0.0
 70
   160
  3
STANDARD
100
AcDbAlignedDimension
 13
22.43235237267981
 23
256.9868790771552
 33
0.0
 14
92.43235237267979
 24
256.9868790771552
 34
0.0
100
AcDbRotatedDimension
  0
ARC
  5
27C
330
2
100
AcDbEntity
  8
0
 48
0.6
100
AcDbCircle
 10
27.43235237267981
 20
196.986879077155
 30
0.0
 40
5.0
100
AcDbArc
 50
180.0
 51
270.0
  0
ARC
  5
27D
102
{ACAD_REACTORS
330
26F
102
}
330
2
100
AcDbEntity
  8
0
 48
0.6
100
AcDbCircle
 10
27.43235237267981
 20
256.9868790771552
 30
0.0
 40
5.0
100
AcDbArc
 50
90.0
 51
180.0
  0
LINE
  5
27E
330
2
100
AcDbEntity
  8
0
 48
0.6
100
AcDbLine
 10
22.43235237267981
 20
256.9868790771552
 30
0.0
 11
22.43235237267981
 21
196.986879077155
 31
0.0
  0
ARC
  5
27F
330
2
100
AcDbEntity
  8
0
 48
0.6
100
AcDbCircle
 10
57.43235237267981
 20
226.9868790771552
 30
0.0
 40
25.52
100
AcDbArc
 50
162.2801918472015
 51
197.7198081527984
  0
ARC
  5
280
330
2
100
AcDbEntity
  8
0
 48
0.6
100
AcDbCircle
 10
30.91318456923181
 20
218.5134300147951
 30
0.0
 40
2.319999999999998
100
AcDbArc
 50
321.9486744806221
 51
17.71980815279839
  0
ARC
  5
281
330
2
100
AcDbEntity
  8
0
 48
0.6
100
AcDbCircle
 10
34.56699399695025
 20
215.6534865422921
 30
0.0
 40
2.319999999999998
100
AcDbArc
 50
141.9486744806222
 51
206.3656725032168
  0
ARC
  5
282
330
2
100
AcDbEntity
  8
0
 48
0.6
100
AcDbCircle
 10
34.56699399695025
 20
238.320271612019
 30
0.0
 40
2.319999999999998
100
AcDbArc
 50
153.634327496783
 51
218.0513255193776
  0
ARC
  5
283
330
2
100
AcDbEntity
  8
0
 48
0.6
100
AcDbCircle
 10
30.91318456923181
 20
235.4603281395152
 30
0.0
 40
2.319999999999998
100
AcDbArc
 50
342.2801918472013
 51
38.05132551937779
  0
ARC
  5
284
330
2
100
AcDbEntity
  8
0
 48
0.6
100
AcDbCircle
 10
38.11413104619168
 20
178.3981804603153
 30
0.0
 40
39.15579199999999
100
AcDbArc
 50
16.65391050761257
 51
20.30648800596492
  0
LINE
  5
285
330
2
100
AcDbEntity
  8
0
100
AcDbLine
 10
70.53673738588077
 20
187.3532054800753
 30
0.0
 11
77.02886873142052
 21
190.2438054568063
 31
0.0
  0
ARC
  5
286
330
2
100
AcDbEntity
  8
0
 48
0.6
100
AcDbCircle
 10
105.4464215964017
 20
206.2974317256953
 30
0.0
 40
39.15579199999999
100
AcDbArc
 50
201.4369589999631
 51
208.5517089163135
  0
MTEXT
  5
287
102
{ACAD_REACTORS
330
2A1
102
}
330
2
100
AcDbEntity
  8
0
 62
     3
100
AcDbMText
 10
77.96670100100164
 20
284.6139019791601
 30
0.0
 40
3.0
 41
0.0
 71
     9
 72
     1
  1
4-%%c4.5 hole
1001
ACAD
1000
MTEXTBEGIN
1070
    73
1070
     1
1070
    44
1040
1.0
1070
    74
1070
     0
1000
MTEXTEND
1000
MTEXTBEGIN
1070
    73
1070
     1
1070
    44
1040
1.0
1070
    74
1070
     0
1000
MTEXTEND
1000
MTEXTBEGIN
1070
    73
1070
     1
1070
    44
1040
1.0
1070
    74
1070
     0
1000
MTEXTEND
  0
LWPOLYLINE
  5
288
330
2
100
AcDbEntity
  8
3
100
AcDbPolyline
 90
        4
 70
     1
 43
0.0
 10
50.4840889597599
 20
275.2324143234023
 10
53.78408895976099
 20
275.2324143234023
 10
53.78408895976099
 20
278.7324143234021
 10
50.4840889597599
 20
278.7324143234021
  0
LINE
  5
289
330
2
100
AcDbEntity
  8
0
 48
0.6
100
AcDbLine
 10
92.43235237267979
 20
256.9868790771552
 30
0.0
 11
92.43235237267979
 21
196.986879077155
 31
0.0
  0
ARC
  5
28A
330
2
100
AcDbEntity
  8
0
 48
0.6
100
AcDbCircle
 10
57.43235237267981
 20
226.9868790771552
 30
0.0
 40
27.83999999999998
100
AcDbArc
 50
296.3656725032108
 51
333.6343274967831
  0
LINE
  5
28B
330
2
100
AcDbEntity
  8
0
 48
0.6
100
AcDbLine
 10
74.81183247995068
 20
191.9868790771552
 30
0.0
 11
69.07078225342957
 21
191.9868790771552
 31
0.0
  0
ARC
  5
28C
330
2
100
AcDbEntity
  8
0
 48
0.6
100
AcDbCircle
 10
57.43235237267981
 20
226.9868790771552
 30
0.0
 40
25.52
100
AcDbArc
 50
252.2801918471949
 51
287.7198081528051
  0
ARC
  5
28D
330
2
100
AcDbEntity
  8
0
 48
0.6
100
AcDbCircle
 10
46.09895983782189
 20
204.1215207014224
 30
0.0
 40
2.319999999999998
100
AcDbArc
 50
243.634327496789
 51
308.0513255193868
  0
ARC
  5
28E
330
2
100
AcDbEntity
  8
0
 48
0.6
100
AcDbCircle
 10
48.95890331032024
 20
200.4677112737034
 30
0.0
 40
2.319999999999998
100
AcDbArc
 50
72.28019184719491
 51
128.0513255193867
  0
ARC
  5
28F
330
2
100
AcDbEntity
  8
0
 48
0.6
100
AcDbCircle
 10
68.76574490754137
 20
204.1215207014224
 30
0.0
 40
2.319999999999998
100
AcDbArc
 50
231.948674480613
 51
296.3656725032108
  0
ARC
  5
290
330
2
100
AcDbEntity
  8
0
 48
0.6
100
AcDbCircle
 10
65.90580143504121
 20
200.4677112737034
 30
0.0
 40
2.319999999999998
100
AcDbArc
 50
51.94867448061305
 51
107.7198081528049
  0
ARC
  5
291
330
2
100
AcDbEntity
  8
0
 48
0.6
100
AcDbCircle
 10
87.43235237267979
 20
196.986879077155
 30
0.0
 40
5.0
100
AcDbArc
 50
270.0
 51
0.0
  0
ARC
  5
292
330
2
100
AcDbEntity
  8
0
 48
0.6
100
AcDbCircle
 10
57.43235237267981
 20
226.9868790771552
 30
0.0
 40
25.52
100
AcDbArc
 50
342.2801918472013
 51
17.71980815279839
  0
CIRCLE
  5
293
330
2
100
AcDbEntity
  8
0
 48
0.6
100
AcDbCircle
 10
57.43235237267981
 20
226.9868790771552
 30
0.0
 40
13.0
  0
CIRCLE
  5
294
330
2
100
AcDbEntity
  8
0
 48
0.6
100
AcDbCircle
 10
57.43235237267981
 20
226.9868790771552
 30
0.0
 40
2.000000000000053
  0
CIRCLE
  5
295
330
2
100
AcDbEntity
  8
0
 48
0.6
100
AcDbCircle
 10
57.43235237267981
 20
226.9868790771552
 30
0.0
 40
3.000000000000055
  0
ARC
  5
296
330
2
100
AcDbEntity
  8
0
 48
0.6
100
AcDbCircle
 10
83.95152017612963
 20
218.5134300147951
 30
0.0
 40
2.319999999999998
100
AcDbArc
 50
162.2801918472015
 51
218.0513255193776
  0
ARC
  5
297
330
2
100
AcDbEntity
  8
0
 48
0.6
100
AcDbCircle
 10
80.2977107484112
 20
215.6534865422921
 30
0.0
 40
2.319999999999998
100
AcDbArc
 50
333.6343274967831
 51
38.05132551937779
  0
ARC
  5
298
330
2
100
AcDbEntity
  8
0
 48
0.6
100
AcDbCircle
 10
57.43235237267981
 20
226.9868790771552
 30
0.0
 40
27.83999999999998
100
AcDbArc
 50
26.36567250321681
 51
63.63432749678904
  0
ARC
  5
299
330
2
100
AcDbEntity
  8
0
 48
0.6
100
AcDbCircle
 10
57.43235237267981
 20
226.9868790771552
 30
0.0
 40
25.52
100
AcDbArc
 50
72.28019184719491
 51
107.7198081528049
  0
ARC
  5
29A
330
2
100
AcDbEntity
  8
0
 48
0.6
100
AcDbCircle
 10
46.09895983782189
 20
249.8522374528884
 30
0.0
 40
2.319999999999998
100
AcDbArc
 50
51.94867448061305
 51
116.3656725032109
  0
ARC
  5
29B
330
2
100
AcDbEntity
  8
0
 48
0.6
100
AcDbCircle
 10
48.95890331032024
 20
253.5060468806073
 30
0.0
 40
2.319999999999998
100
AcDbArc
 50
231.948674480613
 51
287.7198081528051
  0
ARC
  5
29C
330
2
100
AcDbEntity
  8
0
 48
0.6
100
AcDbCircle
 10
68.76574490754137
 20
249.8522374528884
 30
0.0
 40
2.319999999999998
100
AcDbArc
 50
63.63432749678904
 51
128.0513255193867
  0
ARC
  5
29D
330
2
100
AcDbEntity
  8
0
 48
0.6
100
AcDbCircle
 10
65.90580143504121
 20
253.5060468806073
 30
0.0
 40
2.319999999999998
100
AcDbArc
 50
252.2801918471949
 51
308.0513255193868
  0
ARC
  5
29E
330
2
100
AcDbEntity
  8
0
 48
0.6
100
AcDbCircle
 10
83.95152017612963
 20
235.4603281395152
 30
0.0
 40
2.319999999999998
100
AcDbArc
 50
141.9486744806222
 51
197.7198081527984
  0
ARC
  5
29F
330
2
100
AcDbEntity
  8
0
 48
0.6
100
AcDbCircle
 10
80.2977107484112
 20
238.320271612019
 30
0.0
 40
2.319999999999998
100
AcDbArc
 50
321.9486744806221
 51
26.36567250321681
  0
ARC
  5
2A0
102
{ACAD_REACTORS
330
26F
102
}
330
2
100
AcDbEntity
  8
0
 48
0.6
100
AcDbCircle
 10
87.43235237267979
 20
256.9868790771552
 30
0.0
 40
5.0
100
AcDbArc
 50
0.0
 51
90.0
  0
LEADER
  5
2A1
330
2
100
AcDbEntity
  8
0
100
AcDbLeader
  3
STANDARD
 73
     0
 75
     1
 40
3.0
 41
26.65178571428571
 76
     3
 10
86.46801815972139
 20
258.1840484587173
 30
0.0
 10
81.46670100100164
 20
283.6139019791601
 30
0.0
 10
78.96670100100164
 20
283.6139019791601
 30
0.0
340
287
1001
ACAD
1000
DSTYLE
1002
{
1070
     5
1000

1070
   342
1005
0
1002
}
  0
ARC
  5
2A2
330
2
100
AcDbEntity
  8
0
100
AcDbCircle
 10
264.849922646601
 20
190.6443563014384
 30
0.0
 40
6.0
100
AcDbArc
 50
270.0
 51
0.0
  0
DIMENSION
  5
2A3
102
{ACAD_XDICTIONARY
360
2A4
102
}
102
{ACAD_REACTORS
330
2A5
102
}
330
2
100
AcDbEntity
  8
0
100
AcDbDimension
  2
*D43
 10
263.3499226466009
 20
284.3156054650611
 30
0.0
 11
268.3499226466009
 21
284.3156054650611
 31
0.0
 70
   160
  3
STANDARD
100
AcDbAlignedDimension
 13
273.349922646601
 23
249.48687907715
 33
0.0
 14
263.3499226466009
 24
259.9568790771503
 34
0.0
100
AcDbRotatedDimension
  0
LINE
  5
2B2
330
2
100
AcDbEntity
  8
0
100
AcDbLine
 10
261.8502620515209
 20
261.4887867493853
 30
0.0
 11
263.3499226466009
 21
259.9568790771503
 31
0.0
  0
ARC
  5
2B3
330
2
100
AcDbEntity
  8
0
100
AcDbCircle
 10
272.3499226466009
 20
249.48687907715
 30
0.0
 40
1.0
100
AcDbArc
 50
0.0
 51
90.0
  0
LINE
  5
2B4
330
2
100
AcDbEntity
  8
0
100
AcDbLine
 10
263.3499226466009
 20
250.4868790771511
 30
0.0
 11
272.3499226466009
 21
250.4868790771511
 31
0.0
  0
LINE
  5
2B5
102
{ACAD_REACTORS
330
2D9
102
}
330
2
100
AcDbEntity
  8
0
100
AcDbLine
 10
218.3499226466008
 20
262.2368790771511
 30
0.0
 11
261.8502620515209
 21
261.4887867493853
 31
0.0
  0
LINE
  5
2B6
330
2
100
AcDbEntity
  8
0
100
AcDbLine
 10
263.3499226466009
 20
194.016879077149
 30
0.0
 11
261.8502620515209
 21
192.484971404914
 31
0.0
  0
LINE
  5
2B7
102
{ACAD_REACTORS
330
2CA
102
}
330
2
100
AcDbEntity
  8
0
100
AcDbLine
 10
265.8499226466009
 20
201.6868790771513
 30
0.0
 11
270.8499226466009
 21
201.6868790771513
 31
0.0
  0
LINE
  5
2B8
330
2
100
AcDbEntity
  8
0
100
AcDbLine
 10
270.3499226466009
 20
201.6868790771513
 30
0.0
 11
270.3499226466009
 21
202.4868790771511
 31
0.0
  0
LINE
  5
2B9
330
2
100
AcDbEntity
  8
0
100
AcDbLine
 10
266.3499226466009
 20
201.6868790771513
 30
0.0
 11
266.3499226466009
 21
202.4868790771511
 31
0.0
  0
LINE
  5
2BA
330
2
100
AcDbEntity
  8
0
100
AcDbLine
 10
268.3499226466009
 20
201.6868790771513
 30
0.0
 11
268.3499226466009
 21
202.4868790771511
 31
0.0
  0
ARC
  5
2BB
330
2
100
AcDbEntity
  8
0
100
AcDbCircle
 10
270.8499226466009
 20
203.4868790771511
 30
0.0
 40
1.0
100
AcDbArc
 50
270.0
 51
0.0
  0
ARC
  5
2BC
330
2
100
AcDbEntity
  8
0
100
AcDbCircle
 10
265.8499226466009
 20
203.4868790771511
 30
0.0
 40
1.0
100
AcDbArc
 50
180.0
 51
270.0
  0
LINE
  5
2BD
102
{ACAD_REACTORS
330
2CA
102
}
330
2
100
AcDbEntity
  8
0
100
AcDbLine
 10
265.8499226466009
 20
202.4868790771511
 30
0.0
 11
270.8499226466009
 21
202.4868790771511
 31
0.0
  0
ARC
  5
2BE
330
2
100
AcDbEntity
  8
0
100
AcDbCircle
 10
272.3499226466009
 20
204.4868790771511
 30
0.0
 40
1.0
100
AcDbArc
 50
270.0
 51
0.0
  0
LINE
  5
2BF
102
{ACAD_REACTORS
330
2CA
102
}
330
2
100
AcDbEntity
  8
0
100
AcDbLine
 10
263.3499226466009
 20
203.4868790771511
 30
0.0
 11
272.3499226466009
 21
203.4868790771511
 31
0.0
  0
LINE
  5
2C0
330
2
100
AcDbEntity
  8
0
100
AcDbLine
 10
270.8499226466009
 20
201.6868790771513
 30
0.0
 11
270.8499226466009
 21
190.6443563014384
 31
0.0
  0
LINE
  5
2C1
330
2
100
AcDbEntity
  8
0
100
AcDbLine
 10
265.8499226466009
 20
201.6868790771513
 30
0.0
 11
265.8499226466009
 21
192.6443563014403
 31
0.0
  0
ARC
  5
2C2
330
2
100
AcDbEntity
  8
0
100
AcDbCircle
 10
262.849922646601
 20
192.6443563014403
 30
0.0
 40
3.0
100
AcDbArc
 50
270.0
 51
0.0
  0
LINE
  5
2C3
102
{ACAD_REACTORS
330
2D9
102
}
330
2
100
AcDbEntity
  8
0
100
AcDbLine
 10
218.3499226466008
 20
191.7368790771511
 30
0.0
 11
261.8502620515209
 21
192.484971404914
 31
0.0
  0
LINE
  5
2C4
102
{ACAD_REACTORS
330
2A5
102
}
330
2
100
AcDbEntity
  8
0
100
AcDbLine
 10
263.3499226466009
 20
259.9568790771503
 30
0.0
 11
263.3499226466009
 21
194.016879077149
 31
0.0
  0
LINE
  5
2C5
330
2
100
AcDbEntity
  8
0
100
AcDbLine
 10
218.3499226466008
 20
262.2368790771511
 30
0.0
 11
218.3499226466008
 21
191.7368790771511
 31
0.0
  0
LINE
  5
2C6
330
2
100
AcDbEntity
  8
0
100
AcDbLine
 10
218.3499226466008
 20
192.4868790771511
 30
0.0
 11
218.3499226466008
 21
261.4868790771511
 31
0.0
  0
LINE
  5
2C7
102
{ACAD_REACTORS
330
2A5
102
}
330
2
100
AcDbEntity
  8
0
100
AcDbLine
 10
273.349922646601
 20
249.48687907715
 30
0.0
 11
273.349922646601
 21
204.4868790771511
 31
0.0
  0
DIMENSION
  5
2C8
102
{ACAD_XDICTIONARY
360
2C9
102
}
102
{ACAD_REACTORS
330
2CA
102
}
330
2
100
AcDbEntity
  8
0
100
AcDbDimension
  2
*D42
 10
287.4314161723014
 20
203.4868790771511
 30
0.0
 11
287.4314161723014
 21
224.6931290771501
 31
0.0
 70
   160
  1
%%C<>
  3
STANDARD
100
AcDbAlignedDimension
 13
272.3499226466009
 23
250.4868790771511
 33
0.0
 14
272.3499226466009
 24
203.4868790771511
 34
0.0
 50
90.0
100
AcDbRotatedDimension
  0
DIMENSION
  5
2D7
102
{ACAD_XDICTIONARY
360
2D8
102
}
102
{ACAD_REACTORS
330
2D9
102
}
330
2
100
AcDbEntity
  8
0
100
AcDbDimension
  2
*D41
 10
296.3151254148306
 20
192.484971404914
 30
0.0
 11
296.3151254148306
 21
225.4032564486482
 31
0.0
 70
   160
  1
%%C<>
  3
STANDARD
100
AcDbAlignedDimension
 13
261.8502620515209
 23
261.4887867493853
 33
0.0
 14
261.8502620515209
 24
192.484971404914
 34
0.0
 50
90.0
100
AcDbRotatedDimension
  0
ENDSEC
  0
SECTION
  2
OBJECTS
  0
DICTIONARY
  5
9
330
0
100
AcDbDictionary
  3
ACAD_GROUP
350
98
  3
ACAD_LAYOUT
350
D
  3
ACAD_MLINESTYLE
350
99
  3
ACAD_PLOTSETTINGS
350
9A
  3
ACAD_PLOTSTYLENAME
350
8
  3
ACDBHEADERROUNDTRIPXREC
350
48F
  3
ACDBVARIABLEDICTIONARY
350
2E6
  0
DICTIONARY
  5
15
330
14
100
AcDbDictionary
280
     1
  3
ACAD_LAYERFILTERS
360
16
  3
ACAD_LAYERSTATES
360
89
  0
DICTIONARY
  5
3
330
2
100
AcDbDictionary
280
     1
  3
ACAD_LAYOUTSELFREF
360
4B0
  0
DICTIONARY
  5
F
330
E
100
AcDbDictionary
280
     1
  3
ACAD_LAYOUTSELFREF
360
4B1
  0
DICTIONARY
  5
189
330
188
100
AcDbDictionary
280
     1
  3
ACAD_DIMASSOC
360
18A
  0
DICTIONARY
  5
A0
330
9F
100
AcDbDictionary
280
     1
  3
ACAD_DIMASSOC
360
A1
  0
DICTIONARY
  5
CB
330
CA
100
AcDbDictionary
280
     1
  3
ACAD_DIMASSOC
360
CC
  0
DICTIONARY
  5
EA
330
E9
100
AcDbDictionary
280
     1
  3
ACAD_DIMASSOC
360
EB
  0
DICTIONARY
  5
171
330
170
100
AcDbDictionary
280
     1
  3
ACAD_DIMASSOC
360
172
  0
DICTIONARY
  5
1AC
330
1AB
100
AcDbDictionary
280
     1
  3
ACAD_DIMASSOC
360
1AD
  0
DICTIONARY
  5
1CA
330
1C9
100
AcDbDictionary
280
     1
  3
ACAD_DIMASSOC
360
1CB
  0
DICTIONARY
  5
1DC
330
1DB
100
AcDbDictionary
280
     1
  3
ACAD_DIMASSOC
360
1DD
  0
DICTIONARY
  5
233
330
232
100
AcDbDictionary
280
     1
  3
ACAD_DIMASSOC
360
234
  0
DICTIONARY
  5
26E
330
26D
100
AcDbDictionary
280
     1
  3
ACAD_DIMASSOC
360
26F
  0
DICTIONARY
  5
2A4
330
2A3
100
AcDbDictionary
280
     1
  3
ACAD_DIMASSOC
360
2A5
  0
DICTIONARY
  5
2C9
330
2C8
100
AcDbDictionary
280
     1
  3
ACAD_DIMASSOC
360
2CA
  0
DICTIONARY
  5
2D8
330
2D7
100
AcDbDictionary
280
     1
  3
ACAD_DIMASSOC
360
2D9
  0
DICTIONARY
  5
98
102
{ACAD_REACTORS
330
9
102
}
330
9
100
AcDbDictionary
  0
DICTIONARY
  5
D
102
{ACAD_REACTORS
330
9
102
}
330
9
100
AcDbDictionary
  0
DICTIONARY
  5
99
102
{ACAD_REACTORS
330
9
102
}
330
9
100
AcDbDictionary
  3
STANDARD
350
9B
  0
DICTIONARY
  5
9A
102
{ACAD_REACTORS
330
9
102
}
330
9
100
AcDbDictionary
  0
ACDBDICTIONARYWDFLT
  5
8
102
{ACAD_REACTORS
330
9
102
}
330
9
100
AcDbDictionary
281
     1
  3
Normal
350
7
100
AcDbDictionaryWithDefault
340
7
  0
DICTIONARY
  5
48F
102
{ACAD_REACTORS
330
9
102
}
330
9
100
AcDbDictionary
  3
CEPSNTYPE
350
499
  3
DIMSTYLEDATA
350
49D
  3
FINGERPRINTGUID
350
49A
  3
HYPERLINKBASE
350
492
  3
INSUNITS
350
498
  3
LAYOUTDICT
350
494
  3
LWETCUNION
350
497
  3
PLOTSETDICT
350
495
  3
PLOTSTYLNAMDICT
350
496
  3
PSVPSCALE
350
49C
  3
PUCSBASE
350
4A0
  3
PUCSORGBACK
350
4A6
  3
PUCSORGBOTTOM
350
4A2
  3
PUCSORGFRONT
350
4A5
  3
PUCSORGLEFT
350
4A3
  3
PUCSORGRIGHT
350
4A4
  3
PUCSORGTOP
350
4A1
  3
PUCSORTHOREF
350
49E
  3
PUCSORTHOVIEW
350
49F
  3
STYLESHEET
350
493
  3
TSTACKALIGN
350
490
  3
TSTACKSIZE
350
491
  3
UCSBASE
350
4A9
  3
UCSORGBACK
350
4AF
  3
UCSORGBOTTOM
350
4AB
  3
UCSORGFRONT
350
4AE
  3
UCSORGLEFT
350
4AC
  3
UCSORGRIGHT
350
4AD
  3
UCSORGTOP
350
4AA
  3
UCSORTHOREF
350
4A7
  3
UCSORTHOVIEW
350
4A8
  3
VERSIONGUID
350
49B
  0
DICTIONARY
  5
2E6
102
{ACAD_REACTORS
330
9
102
}
330
9
100
AcDbDictionary
  3
DIMASSOC
350
2E8
  3
HIDETEXT
350
2E7
  0
DICTIONARY
  5
16
102
{ACAD_REACTORS
330
15
102
}
330
15
100
AcDbDictionary
280
     1
  3
$LAYERS
360
17
  3
-_UND_0
360
18
  3
-PEGC
360
19
  3
101
360
1A
  3
102
360
1B
  3
1DUC
360
1C
  3
1EQ
360
1D
  3
1TUB
360
1E
  3
2
360
1F
  3
2000
360
20
  3
50
360
21
  3
58J
360
22
  3
65
360
23
  3
AA
360
24
  3
ACABADOS
360
25
  3
AGUA_Y_DREN
360
26
  3
AIRE
360
27
  3
ALLE_AUS
360
28
  3
ALLES_MIT_S
360
29
  3
AMARILLO
360
2A
  3
APAGADOS
360
2B
  3
ARR
360
2C
  3
BA
360
2D
  3
BACKS
360
2E
  3
BASE
360
2F
  3
BLOQ_INUTIL
360
30
  3
CADKON
360
31
  3
CARPINTERIA
360
32
  3
CERRADOS
360
33
  3
COL
360
34
  3
COLOR
360
35
  3
COLOR_250
360
36
  3
COLORES
360
37
  3
CONGELADOS
360
38
  3
CONJUNTO
360
39
  3
D1
360
3A
  3
DA_
360
3B
  3
DET-
360
3C
  3
DOR-H
360
3D
  3
EJES
360
3E
  3
ELECTRICO
360
3F
  3
F1
360
40
  3
FROZEN
360
41
  3
GRID
360
42
  3
GRIDTXT
360
43
  3
HATCH
360
44
  3
HCAD
360
45
  3
INSTALACIONES
360
46
  3
JIZNI
360
47
  3
KCK
360
48
  3
KKK
360
49
  3
LAY
360
4A
  3
LAYER-0
360
4E
  3
LAYER-1
360
4F
  3
LAYER_1_UND_0
360
4B
  3
LAYER_2_UND_0
360
4C
  3
LAYER_9_UND_0_SCHRAFFUR
360
4D
  3
LOCK
360
50
  3
LOCKED
360
51
  3
LOTES
360
52
  3
LUNAR
360
53
  3
LUNAR2
360
54
  3
M
360
55
  3
MIS_LAYERS
360
56
  3
MRKCK
360
57
  3
NECADKON
360
58
  3
NI_LH
360
59
  3
NI_RH
360
5A
  3
NUM
360
5B
  3
OFF
360
5C
  3
ON
360
5D
  3
PBASE
360
5E
  3
PEGC
360
5F
  3
PEGCT
360
60
  3
PFRAME
360
61
  3
PGRID
360
62
  3
PGRIDT
360
63
  3
PLAFONES
360
64
  3
PLANTAS
360
65
  3
PLOT
360
66
  3
PRENDIDAS
360
67
  3
PRENDIDOS
360
68
  3
PRINT
360
69
  3
PT
360
6A
  3
PTH
360
6B
  3
PVGRID
360
6C
  3
RED_DE_AGUA_POTABLE
360
6D
  3
RED_DE_ENERGIA_ELECTRICA
360
6E
  3
SEVERNI
360
6F
  3
SHIN
360
70
  3
SHOW_ALL_LAYER
360
71
  3
SIN
360
72
  3
STORAGE-CART
360
73
  3
T
360
74
  3
TEXTOS
360
75
  3
TEXTURAS
360
76
  3
TUBERIAS
360
77
  3
UNFRZ
360
78
  3
V\U+0160ECHNY_NEPOU\U+017D\U+00CDVAN\U+00C9
360
79
  3
VA
360
7A
  3
VENTILACI\U+00D3N
360
7B
  3
VYHODNI
360
7C
  3
YO
360
7D
  3
ZAPADNI
360
7E
  3
사용
360
7F
  3
신규
360
80
  3
실박스
360
81
  3
우리토목
360
82
  3
주차
360
83
  3
지상정밀
360
84
  3
쩜선
360
85
  3
플로터_작업층
360
86
  3
현재_작업층
360
87
  3
현재_잠금
360
88
  0
DICTIONARY
  5
89
102
{ACAD_REACTORS
330
15
102
}
330
15
100
AcDbDictionary
  0
XRECORD
  5
4B0
102
{ACAD_REACTORS
330
3
102
}
330
3
100
AcDbXrecord
340
2
  0
XRECORD
  5
4B1
102
{ACAD_REACTORS
330
F
102
}
330
F
100
AcDbXrecord
340
E
  0
DIMASSOC
  5
18A
102
{ACAD_REACTORS
330
189
102
}
330
189
100
AcDbDimAssoc
330
188
 90
        2
 70
     0
 71
     0
  1
AcDbOsnapPointRef
 72
     3
331
196
 73
     2
 91
        0
 40
0.0
 10
-0.000000000003638
 20
0.0000000000020464
 30
0.0
 75
     0
  0
DIMASSOC
  5
A1
102
{ACAD_REACTORS
330
A0
102
}
330
A0
100
AcDbDimAssoc
330
9F
 90
       15
 70
     0
 71
     0
  1
AcDbOsnapPointRef
 72
    13
331
262
 73
     2
 91
        0
 40
0.0
 10
57.43235237267981
 20
226.9868790771552
 30
0.0
 75
     0
  1
AcDbOsnapPointRef
 72
     1
331
262
 73
     2
 91
        0
 40
1.0
 10
75.68739237957197
 20
182.9153139108612
 30
0.0
 75
     0
  1
AcDbOsnapPointRef
 72
    13
331
263
 73
     2
 91
        0
 40
0.0
 10
57.43235237267981
 20
184.939166072951
 30
0.0
 75
     0
  1
AcDbOsnapPointRef
 72
     1
331
263
 73
     2
 91
        0
 40
1.0
 10
57.43235237267981
 20
269.034592081351
 30
0.0
 75
     0
  0
DIMASSOC
  5
CC
102
{ACAD_REACTORS
330
CB
102
}
330
CB
100
AcDbDimAssoc
330
CA
 90
       15
 70
     0
 71
     0
  1
AcDbOsnapPointRef
 72
    13
331
C9
 73
     2
 91
        0
 40
0.0
 10
39.68282495757012
 20
62.67980091405842
 30
0.0
 75
     0
  1
AcDbOsnapPointRef
 72
     1
331
C9
 73
     2
 91
        0
 40
1.0
 10
57.93786496445136
 20
18.60823574776302
 30
0.0
 75
     0
  1
AcDbOsnapPointRef
 72
    13
331
DB
 73
     2
 91
        0
 40
0.0
 10
39.6828249575592
 20
20.63208790985345
 30
0.0
 75
     0
  1
AcDbOsnapPointRef
 72
     1
331
DB
 73
     2
 91
        0
 40
1.0
 10
39.6828249575592
 20
104.7275139182534
 30
0.0
 75
     0
  0
DIMASSOC
  5
EB
102
{ACAD_REACTORS
330
EA
102
}
330
EA
100
AcDbDimAssoc
330
E9
 90
        2
 70
     0
 71
     0
  1
AcDbOsnapPointRef
 72
     1
331
E6
 73
     2
 91
        0
 40
1.0
 10
165.5972100131601
 20
96.27853825558123
 30
0.0
 75
     0
  0
DIMASSOC
  5
172
102
{ACAD_REACTORS
330
171
102
}
330
171
100
AcDbDimAssoc
330
170
 90
        3
 70
     0
 71
     0
  1
AcDbOsnapPointRef
 72
     1
331
165
 73
     2
 91
        0
 40
3.141592653589792
 10
4.682824957559205
 20
92.67980091405751
 30
0.0
 75
     0
  1
AcDbOsnapPointRef
 72
    13
331
141
 73
     2
 91
        0
 40
0.0
 10
74.68282495755921
 20
92.67980091405751
 30
0.0
 75
     0
  0
DIMASSOC
  5
1AD
102
{ACAD_REACTORS
330
1AC
102
}
330
1AC
100
AcDbDimAssoc
330
1AB
 90
        3
 70
     0
 71
     0
  1
AcDbOsnapPointRef
 72
    13
331
1D8
 73
     2
 91
        0
 40
0.0
 10
286.5972100131603
 20
85.17980091405297
 30
0.0
 75
     0
  1
AcDbOsnapPointRef
 72
    13
331
1DA
 73
     2
 91
        0
 40
0.0
 10
276.5972100131603
 20
95.64980091405232
 30
0.0
 75
     0
  0
DIMASSOC
  5
1CB
102
{ACAD_REACTORS
330
1CA
102
}
330
1CA
100
AcDbDimAssoc
330
1C9
 90
        2
 70
     0
 71
     0
  1
AcDbOsnapPointRef
 72
     1
331
1C4
 73
     2
 91
        0
 40
1.0
 10
285.5972100131601
 20
39.17980091405297
 30
0.0
 75
     0
  0
DIMASSOC
  5
1DD
102
{ACAD_REACTORS
330
1DC
102
}
330
1DC
100
AcDbDimAssoc
330
1DB
 90
        3
 70
     0
 71
     0
  1
AcDbOsnapPointRef
 72
     1
331
1A7
 73
     2
 91
        0
 40
0.9999999999999998
 10
275.0975494180709
 20
97.18170858628807
 30
0.0
 75
     0
  1
AcDbOsnapPointRef
 72
     1
331
1A8
 73
     2
 91
        0
 40
0.9999999999999998
 10
275.0975494180709
 20
28.17789324181603
 30
0.0
 75
     0
  0
DIMASSOC
  5
234
102
{ACAD_REACTORS
330
233
102
}
330
233
100
AcDbDimAssoc
330
232
 90
        2
 70
     0
 71
     0
  1
AcDbOsnapPointRef
 72
     1
331
22F
 73
     2
 91
        0
 40
1.0
 10
152.349922646601
 20
260.5856164186793
 30
0.0
 75
     0
  0
DIMASSOC
  5
26F
102
{ACAD_REACTORS
330
26E
102
}
330
26E
100
AcDbDimAssoc
330
26D
 90
        3
 70
     0
 71
     0
  1
AcDbOsnapPointRef
 72
     1
331
27D
 73
     2
 91
        0
 40
3.141592653589792
 10
22.43235237267981
 20
256.9868790771552
 30
0.0
 75
     0
  1
AcDbOsnapPointRef
 72
    13
331
2A0
 73
     2
 91
        0
 40
0.0
 10
92.43235237267979
 20
256.9868790771552
 30
0.0
 75
     0
  0
DIMASSOC
  5
2A5
102
{ACAD_REACTORS
330
2A4
102
}
330
2A4
100
AcDbDimAssoc
330
2A3
 90
        3
 70
     0
 71
     0
  1
AcDbOsnapPointRef
 72
    13
331
2C7
 73
     2
 91
        0
 40
0.0
 10
273.349922646601
 20
249.48687907715
 30
0.0
 75
     0
  1
AcDbOsnapPointRef
 72
    13
331
2C4
 73
     2
 91
        0
 40
0.0
 10
263.3499226466009
 20
259.9568790771503
 30
0.0
 75
     0
  0
DIMASSOC
  5
2CA
102
{ACAD_REACTORS
330
2C9
102
}
330
2C9
100
AcDbDimAssoc
330
2C8
 90
        2
 70
     0
 71
     0
  1
AcDbOsnapPointRef
 72
     1
331
2BF
 73
     2
 91
        0
 40
1.0
 10
272.3499226466009
 20
203.4868790771511
 30
0.0
 75
     0
  0
DIMASSOC
  5
2D9
102
{ACAD_REACTORS
330
2D8
102
}
330
2D8
100
AcDbDimAssoc
330
2D7
 90
        3
 70
     0
 71
     0
  1
AcDbOsnapPointRef
 72
     1
331
2B5
 73
     2
 91
        0
 40
0.9999999999999998
 10
261.8502620515209
 20
261.4887867493853
 30
0.0
 75
     0
  1
AcDbOsnapPointRef
 72
     1
331
2C3
 73
     2
 91
        0
 40
0.9999999999999998
 10
261.8502620515209
 20
192.484971404914
 30
0.0
 75
     0
  0
MLINESTYLE
  5
9B
102
{ACAD_REACTORS
330
99
102
}
330
99
100
AcDbMlineStyle
  2
STANDARD
 70
     0
  3

 62
   256
 51
90.0
 52
90.0
 71
     2
 49
0.5
 62
   256
  6
BYLAYER
 49
-0.5
 62
   256
  6
BYLAYER
  0
ACDBPLACEHOLDER
  5
7
102
{ACAD_REACTORS
330
8
102
}
330
8
100
AcDbPlaceHolder
280
     0
  0
XRECORD
  5
499
102
{ACAD_REACTORS
330
48F
102
}
330
48F
100
AcDbXrecord
 90
        0
  0
XRECORD
  5
49D
102
{ACAD_REACTORS
330
48F
102
}
330
48F
100
AcDbXrecord
1000
DSTYLE
1002
{
1070
    79
 70
     2
1070
   179
 70
     1
1002
}
  0
XRECORD
  5
49A
102
{ACAD_REACTORS
330
48F
102
}
330
48F
100
AcDbXrecord
  1
{FDEAD578-A652-11D2-9A35-0060089B3A3F}
  0
XRECORD
  5
492
102
{ACAD_REACTORS
330
48F
102
}
330
48F
100
AcDbXrecord
  1

  0
XRECORD
  5
498
102
{ACAD_REACTORS
330
48F
102
}
330
48F
100
AcDbXrecord
 90
        4
  0
XRECORD
  5
494
102
{ACAD_REACTORS
330
48F
102
}
330
48F
100
AcDbXrecord
340
D
  0
XRECORD
  5
497
102
{ACAD_REACTORS
330
48F
102
}
330
48F
100
AcDbXrecord
 90
    10781
  0
XRECORD
  5
495
102
{ACAD_REACTORS
330
48F
102
}
330
48F
100
AcDbXrecord
340
9A
  0
XRECORD
  5
496
102
{ACAD_REACTORS
330
48F
102
}
330
48F
100
AcDbXrecord
340
8
  0
XRECORD
  5
49C
102
{ACAD_REACTORS
330
48F
102
}
330
48F
100
AcDbXrecord
 40
0.0
  0
XRECORD
  5
4A0
102
{ACAD_REACTORS
330
48F
102
}
330
48F
100
AcDbXrecord
340
0
  0
XRECORD
  5
4A6
102
{ACAD_REACTORS
330
48F
102
}
330
48F
100
AcDbXrecord
 10
0.0
 20
0.0
 30
0.0
  0
XRECORD
  5
4A2
102
{ACAD_REACTORS
330
48F
102
}
330
48F
100
AcDbXrecord
 10
0.0
 20
0.0
 30
0.0
  0
XRECORD
  5
4A5
102
{ACAD_REACTORS
330
48F
102
}
330
48F
100
AcDbXrecord
 10
0.0
 20
0.0
 30
0.0
  0
XRECORD
  5
4A3
102
{ACAD_REACTORS
330
48F
102
}
330
48F
100
AcDbXrecord
 10
0.0
 20
0.0
 30
0.0
  0
XRECORD
  5
4A4
102
{ACAD_REACTORS
330
48F
102
}
330
48F
100
AcDbXrecord
 10
0.0
 20
0.0
 30
0.0
  0
XRECORD
  5
4A1
102
{ACAD_REACTORS
330
48F
102
}
330
48F
100
AcDbXrecord
 10
0.0
 20
0.0
 30
0.0
  0
XRECORD
  5
49E
102
{ACAD_REACTORS
330
48F
102
}
330
48F
100
AcDbXrecord
340
0
  0
XRECORD
  5
49F
102
{ACAD_REACTORS
330
48F
102
}
330
48F
100
AcDbXrecord
 70
     0
  0
XRECORD
  5
493
102
{ACAD_REACTORS
330
48F
102
}
330
48F
100
AcDbXrecord
  1

  0
XRECORD
  5
490
102
{ACAD_REACTORS
330
48F
102
}
330
48F
100
AcDbXrecord
 90
        1
  0
XRECORD
  5
491
102
{ACAD_REACTORS
330
48F
102
}
330
48F
100
AcDbXrecord
 90
       70
  0
XRECORD
  5
4A9
102
{ACAD_REACTORS
330
48F
102
}
330
48F
100
AcDbXrecord
340
0
  0
XRECORD
  5
4AF
102
{ACAD_REACTORS
330
48F
102
}
330
48F
100
AcDbXrecord
 10
0.0
 20
0.0
 30
0.0
  0
XRECORD
  5
4AB
102
{ACAD_REACTORS
330
48F
102
}
330
48F
100
AcDbXrecord
 10
0.0
 20
0.0
 30
0.0
  0
XRECORD
  5
4AE
102
{ACAD_REACTORS
330
48F
102
}
330
48F
100
AcDbXrecord
 10
0.0
 20
0.0
 30
0.0
  0
XRECORD
  5
4AC
102
{ACAD_REACTORS
330
48F
102
}
330
48F
100
AcDbXrecord
 10
0.0
 20
0.0
 30
0.0
  0
XRECORD
  5
4AD
102
{ACAD_REACTORS
330
48F
102
}
330
48F
100
AcDbXrecord
 10
0.0
 20
0.0
 30
0.0
  0
XRECORD
  5
4AA
102
{ACAD_REACTORS
330
48F
102
}
330
48F
100
AcDbXrecord
 10
0.0
 20
0.0
 30
0.0
  0
XRECORD
  5
4A7
102
{ACAD_REACTORS
330
48F
102
}
330
48F
100
AcDbXrecord
340
0
  0
XRECORD
  5
4A8
102
{ACAD_REACTORS
330
48F
102
}
330
48F
100
AcDbXrecord
 70
     0
  0
XRECORD
  5
49B
102
{ACAD_REACTORS
330
48F
102
}
330
48F
100
AcDbXrecord
  1
{ED511659-213A-45A7-8ED7-3734EC0792F6}
  0
DICTIONARYVAR
  5
2E8
102
{ACAD_REACTORS
330
2E6
102
}
330
2E6
100
DictionaryVariables
280
     0
  1
2
  0
DICTIONARYVAR
  5
2E7
102
{ACAD_REACTORS
330
2E6
102
}
330
2E6
100
DictionaryVariables
280
     0
  1
1
  0
XRECORD
  5
17
102
{ACAD_REACTORS
330
16
102
}
330
16
100
AcDbXrecord
  1
$layers
  1
*
  1
*
  1
*
 70
     0
  1
*
  1
*
  0
XRECORD
  5
18
102
{ACAD_REACTORS
330
16
102
}
330
16
100
AcDbXrecord
  1
- und 0
  1
-*,0
  1
*
  1
*
 70
     0
  1
*
  1
*
  0
XRECORD
  5
19
102
{ACAD_REACTORS
330
16
102
}
330
16
100
AcDbXrecord
  1
-pegc
  1
*-pegc
  1
*
  1
*
 70
     0
  1
*
  1
*
  0
XRECORD
  5
1A
102
{ACAD_REACTORS
330
16
102
}
330
16
100
AcDbXrecord
  1
101
  1
*101
  1
*
  1
*
 70
   256
  1
*
  1
*
  0
XRECORD
  5
1B
102
{ACAD_REACTORS
330
16
102
}
330
16
100
AcDbXrecord
  1
102
  1
102*
  1
*
  1
*
 70
     0
  1
*
  1
*
  0
XRECORD
  5
1C
102
{ACAD_REACTORS
330
16
102
}
330
16
100
AcDbXrecord
  1
1duc
  1
*1duc*
  1
*
  1
*
 70
     0
  1
*
  1
*
  0
XRECORD
  5
1D
102
{ACAD_REACTORS
330
16
102
}
330
16
100
AcDbXrecord
  1
1eq
  1
*1eq*
  1
*
  1
*
 70
     0
  1
*
  1
*
  0
XRECORD
  5
1E
102
{ACAD_REACTORS
330
16
102
}
330
16
100
AcDbXrecord
  1
1tub
  1
*1t*
  1
*
  1
*
 70
     0
  1
*
  1
*
  0
XRECORD
  5
1F
102
{ACAD_REACTORS
330
16
102
}
330
16
100
AcDbXrecord
  1
2
  1
*
  1
2
  1
*
 70
     0
  1
*
  1
*
  0
XRECORD
  5
20
102
{ACAD_REACTORS
330
16
102
}
330
16
100
AcDbXrecord
  1
2000
  1
2000*
  1
*
  1
*
 70
     0
  1
*
  1
*
  0
XRECORD
  5
21
102
{ACAD_REACTORS
330
16
102
}
330
16
100
AcDbXrecord
  1
50
  1
*-50
  1
*
  1
*
 70
     0
  1
*
  1
*
  0
XRECORD
  5
22
102
{ACAD_REACTORS
330
16
102
}
330
16
100
AcDbXrecord
  1
58J
  1
*58*
  1
*
  1
*
 70
     0
  1
*
  1
*
  0
XRECORD
  5
23
102
{ACAD_REACTORS
330
16
102
}
330
16
100
AcDbXrecord
  1
65
  1
*65
  1
*
  1
*
 70
     0
  1
*
  1
*
  0
XRECORD
  5
24
102
{ACAD_REACTORS
330
16
102
}
330
16
100
AcDbXrecord
  1
aa
  1
aa*
  1
*
  1
*
 70
     0
  1
*
  1
*
  0
XRECORD
  5
25
102
{ACAD_REACTORS
330
16
102
}
330
16
100
AcDbXrecord
  1
acabados
  1
a-*
  1
*
  1
*
 70
     5
  1
*
  1
*
  0
XRECORD
  5
26
102
{ACAD_REACTORS
330
16
102
}
330
16
100
AcDbXrecord
  1
AGUA Y DREN
  1
A-DS-*
  1
*
  1
*
 70
     0
  1
*
  1
*
  0
XRECORD
  5
27
102
{ACAD_REACTORS
330
16
102
}
330
16
100
AcDbXrecord
  1
Aire
  1
*
  1
*
  1
*
 70
     0
  1
*
  1
*
  0
XRECORD
  5
28
102
{ACAD_REACTORS
330
16
102
}
330
16
100
AcDbXrecord
  1
alle aus
  1
99999999999
  1
*
  1
*
 70
     0
  1
*
  1
*
  0
XRECORD
  5
29
102
{ACAD_REACTORS
330
16
102
}
330
16
100
AcDbXrecord
  1
Alles mit S
  1
s*
  1
*
  1
*
 70
     0
  1
*
  1
*
  0
XRECORD
  5
2A
102
{ACAD_REACTORS
330
16
102
}
330
16
100
AcDbXrecord
  1
amarillo
  1
*
  1
yellow
  1
*
 70
     0
  1
*
  1
*
  0
XRECORD
  5
2B
102
{ACAD_REACTORS
330
16
102
}
330
16
100
AcDbXrecord
  1
APAGADOS
  1
*
  1
*
  1
*
 70
     4
  1
*
  1
*
  0
XRECORD
  5
2C
102
{ACAD_REACTORS
330
16
102
}
330
16
100
AcDbXrecord
  1
ARR
  1
ARR*
  1
*
  1
*
 70
     0
  1
*
  1
*
  0
XRECORD
  5
2D
102
{ACAD_REACTORS
330
16
102
}
330
16
100
AcDbXrecord
  1
ba
  1
*
  1
*
  1
*
 70
     0
  1
*
  1
*
  0
XRECORD
  5
2E
102
{ACAD_REACTORS
330
16
102
}
330
16
100
AcDbXrecord
  1
BACKS
  1
*-H
  1
*
  1
*
 70
     0
  1
*
  1
*
  0
XRECORD
  5
2F
102
{ACAD_REACTORS
330
16
102
}
330
16
100
AcDbXrecord
  1
BASE
  1
*-PBASE
  1
*
  1
*
 70
     0
  1
*
  1
*
  0
XRECORD
  5
30
102
{ACAD_REACTORS
330
16
102
}
330
16
100
AcDbXrecord
  1
BLOQ_INUTIL
  1
*
  1
*
  1
*
 70
     0
  1
*
  1
*
  0
XRECORD
  5
31
102
{ACAD_REACTORS
330
16
102
}
330
16
100
AcDbXrecord
  1
CADKON
  1
?[KAHBSM]?????[23M],?[KAHBSM]?????[23M][1456A-DGHILN-SU-Z]
  1
*
  1
*
 70
     0
  1
*
  1
*
  0
XRECORD
  5
32
102
{ACAD_REACTORS
330
16
102
}
330
16
100
AcDbXrecord
  1
carpinteria
  1
carp*
  1
*
  1
*
 70
     0
  1
*
  1
*
  0
XRECORD
  5
33
102
{ACAD_REACTORS
330
16
102
}
330
16
100
AcDbXrecord
  1
cerrados
  1
*
  1
*
  1
*
 70
   256
  1
*
  1
*
  0
XRECORD
  5
34
102
{ACAD_REACTORS
330
16
102
}
330
16
100
AcDbXrecord
  1
COL
  1
*
  1
*
  1
*
 70
     1
  1
*
  1
*
  0
XRECORD
  5
35
102
{ACAD_REACTORS
330
16
102
}
330
16
100
AcDbXrecord
  1
COLOR
  1
*
  1
253
  1
*
 70
     0
  1
*
  1
*
  0
XRECORD
  5
36
102
{ACAD_REACTORS
330
16
102
}
330
16
100
AcDbXrecord
  1
color 250
  1
*
  1
250
  1
*
 70
     0
  1
*
  1
*
  0
XRECORD
  5
37
102
{ACAD_REACTORS
330
16
102
}
330
16
100
AcDbXrecord
  1
COLORES
  1
*
  1
6
  1
*
 70
     0
  1
*
  1
*
  0
XRECORD
  5
38
102
{ACAD_REACTORS
330
16
102
}
330
16
100
AcDbXrecord
  1
Congelados
  1
*
  1
*
  1
*
 70
     4
  1
*
  1
*
  0
XRECORD
  5
39
102
{ACAD_REACTORS
330
16
102
}
330
16
100
AcDbXrecord
  1
CONJUNTO
  1
CON-*
  1
*
  1
*
 70
     0
  1
*
  1
*
  0
XRECORD
  5
3A
102
{ACAD_REACTORS
330
16
102
}
330
16
100
AcDbXrecord
  1
d1
  1
achurados
  1
*
  1
*
 70
     0
  1
*
  1
*
  0
XRECORD
  5
3B
102
{ACAD_REACTORS
330
16
102
}
330
16
100
AcDbXrecord
  1
DA_
  1
DA*
  1
*
  1
*
 70
     0
  1
*
  1
*
  0
XRECORD
  5
3C
102
{ACAD_REACTORS
330
16
102
}
330
16
100
AcDbXrecord
  1
DET-
  1
*
  1
*
  1
*
 70
     0
  1
*
  1
*
  0
XRECORD
  5
3D
102
{ACAD_REACTORS
330
16
102
}
330
16
100
AcDbXrecord
  1
DOR-H
  1
*
  1
7
  1
*
 70
     0
  1
*
  1
*
  0
XRECORD
  5
3E
102
{ACAD_REACTORS
330
16
102
}
330
16
100
AcDbXrecord
  1
ejes
  1
eje*
  1
*
  1
*
 70
     0
  1
*
  1
*
  0
XRECORD
  5
3F
102
{ACAD_REACTORS
330
16
102
}
330
16
100
AcDbXrecord
  1
ELECTRICO
  1
ELEC-*
  1
*
  1
*
 70
     0
  1
*
  1
*
  0
XRECORD
  5
40
102
{ACAD_REACTORS
330
16
102
}
330
16
100
AcDbXrecord
  1
F1
  1
Halaxref*
  1
*
  1
*
 70
     0
  1
*
  1
*
  0
XRECORD
  5
41
102
{ACAD_REACTORS
330
16
102
}
330
16
100
AcDbXrecord
  1
frozen
  1
*
  1
*
  1
*
 70
     4
  1
*
  1
*
  0
XRECORD
  5
42
102
{ACAD_REACTORS
330
16
102
}
330
16
100
AcDbXrecord
  1
grid
  1
*-PGRID
  1
*
  1
*
 70
     1
  1
*
  1
*
  0
XRECORD
  5
43
102
{ACAD_REACTORS
330
16
102
}
330
16
100
AcDbXrecord
  1
GRIDTXT
  1
*-PGRIDT
  1
*
  1
*
 70
     0
  1
*
  1
*
  0
XRECORD
  5
44
102
{ACAD_REACTORS
330
16
102
}
330
16
100
AcDbXrecord
  1
HATCH
  1
HAT*
  1
*
  1
*
 70
     0
  1
*
  1
*
  0
XRECORD
  5
45
102
{ACAD_REACTORS
330
16
102
}
330
16
100
AcDbXrecord
  1
HCAD
  1
1HCAD-*
  1
*
  1
*
 70
    13
  1
*
  1
*
  0
XRECORD
  5
46
102
{ACAD_REACTORS
330
16
102
}
330
16
100
AcDbXrecord
  1
INSTALACIONES
  1
I-*
  1
*
  1
*
 70
     0
  1
*
  1
*
  0
XRECORD
  5
47
102
{ACAD_REACTORS
330
16
102
}
330
16
100
AcDbXrecord
  1
JIZNI
  1
*-J
  1
*
  1
*
 70
     0
  1
*
  1
*
  0
XRECORD
  5
48
102
{ACAD_REACTORS
330
16
102
}
330
16
100
AcDbXrecord
  1
kck
  1
*
  1
*
  1
*
 70
     0
  1
*
  1
*
  0
XRECORD
  5
49
102
{ACAD_REACTORS
330
16
102
}
330
16
100
AcDbXrecord
  1
kkk
  1
k
  1
*
  1
*
 70
     0
  1
*
  1
*
  0
XRECORD
  5
4A
102
{ACAD_REACTORS
330
16
102
}
330
16
100
AcDbXrecord
  1
lay
  1
??-*
  1
*
  1
*
 70
     0
  1
*
  1
*
  0
XRECORD
  5
4E
102
{ACAD_REACTORS
330
16
102
}
330
16
100
AcDbXrecord
  1
Layer-0
  1
0*
  1
*
  1
*
 70
     0
  1
*
  1
*
  0
XRECORD
  5
4F
102
{ACAD_REACTORS
330
16
102
}
330
16
100
AcDbXrecord
  1
Layer-1
  1
1*
  1
*
  1
*
 70
     0
  1
*
  1
*
  0
XRECORD
  5
4B
102
{ACAD_REACTORS
330
16
102
}
330
16
100
AcDbXrecord
  1
Layer 1 und 0
  1
1*,0
  1
*
  1
*
 70
     0
  1
*
  1
*
  0
XRECORD
  5
4C
102
{ACAD_REACTORS
330
16
102
}
330
16
100
AcDbXrecord
  1
Layer 2 und 0
  1
2*,0
  1
*
  1
*
 70
     0
  1
*
  1
*
  0
XRECORD
  5
4D
102
{ACAD_REACTORS
330
16
102
}
330
16
100
AcDbXrecord
  1
Layer 9 und 0 Schraffur
  1
9*,0
  1
*
  1
*
 70
     0
  1
*
  1
*
  0
XRECORD
  5
50
102
{ACAD_REACTORS
330
16
102
}
330
16
100
AcDbXrecord
  1
LOCK
  1
*
  1
*
  1
*
 70
   256
  1
*
  1
*
  0
XRECORD
  5
51
102
{ACAD_REACTORS
330
16
102
}
330
16
100
AcDbXrecord
  1
locked
  1
*
  1
*
  1
*
 70
   256
  1
*
  1
*
  0
XRECORD
  5
52
102
{ACAD_REACTORS
330
16
102
}
330
16
100
AcDbXrecord
  1
Lotes
  1
*
  1
*
  1
*
 70
     1
  1
*
  1
*
  0
XRECORD
  5
53
102
{ACAD_REACTORS
330
16
102
}
330
16
100
AcDbXrecord
  1
LUNAR
  1
*
  1
*
  1
*
 70
    48
  1
*
  1
*
  0
XRECORD
  5
54
102
{ACAD_REACTORS
330
16
102
}
330
16
100
AcDbXrecord
  1
LUNAR2
  1
*
  1
*
  1
*
 70
    12
  1
*
  1
*
  0
XRECORD
  5
55
102
{ACAD_REACTORS
330
16
102
}
330
16
100
AcDbXrecord
  1
M
  1
M*
  1
*
  1
*
 70
     0
  1
*
  1
*
  0
XRECORD
  5
56
102
{ACAD_REACTORS
330
16
102
}
330
16
100
AcDbXrecord
  1
mis_layers
  1
mis_*
  1
*
  1
*
 70
     0
  1
*
  1
*
  0
XRECORD
  5
57
102
{ACAD_REACTORS
330
16
102
}
330
16
100
AcDbXrecord
  1
MRKCK
  1
*
  1
*
  1
*
 70
     0
  1
*
  1
*
  0
XRECORD
  5
58
102
{ACAD_REACTORS
330
16
102
}
330
16
100
AcDbXrecord
  1
NECADKON
  1
~*?[KAHBSM]?????[23M]*
  1
*
  1
*
 70
     0
  1
*
  1
*
  0
XRECORD
  5
59
102
{ACAD_REACTORS
330
16
102
}
330
16
100
AcDbXrecord
  1
NI_LH
  1
NI_LH*
  1
*
  1
*
 70
     0
  1
*
  1
*
  0
XRECORD
  5
5A
102
{ACAD_REACTORS
330
16
102
}
330
16
100
AcDbXrecord
  1
NI_RH
  1
NI_RH*
  1
*
  1
*
 70
     0
  1
*
  1
*
  0
XRECORD
  5
5B
102
{ACAD_REACTORS
330
16
102
}
330
16
100
AcDbXrecord
  1
NUM
  1
NUM*
  1
*
  1
*
 70
     0
  1
*
  1
*
  0
XRECORD
  5
5C
102
{ACAD_REACTORS
330
16
102
}
330
16
100
AcDbXrecord
  1
off
  1
*
  1
*
  1
*
 70
     3
  1
*
  1
*
  0
XRECORD
  5
5D
102
{ACAD_REACTORS
330
16
102
}
330
16
100
AcDbXrecord
  1
on
  1
*
  1
*
  1
*
 70
     0
  1
*
  1
*
  0
XRECORD
  5
5E
102
{ACAD_REACTORS
330
16
102
}
330
16
100
AcDbXrecord
  1
PBASE
  1
*PBASE
  1
*
  1
*
 70
     0
  1
*
  1
*
  0
XRECORD
  5
5F
102
{ACAD_REACTORS
330
16
102
}
330
16
100
AcDbXrecord
  1
PEGC
  1
*PEGC
  1
*
  1
*
 70
     0
  1
*
  1
*
  0
XRECORD
  5
60
102
{ACAD_REACTORS
330
16
102
}
330
16
100
AcDbXrecord
  1
PEGCT
  1
*PEGCT
  1
*
  1
*
 70
     0
  1
*
  1
*
  0
XRECORD
  5
61
102
{ACAD_REACTORS
330
16
102
}
330
16
100
AcDbXrecord
  1
PFRAME
  1
PFRAME*
  1
*
  1
*
 70
     0
  1
*
  1
*
  0
XRECORD
  5
62
102
{ACAD_REACTORS
330
16
102
}
330
16
100
AcDbXrecord
  1
PGRID
  1
*PGRID
  1
*
  1
*
 70
     0
  1
*
  1
*
  0
XRECORD
  5
63
102
{ACAD_REACTORS
330
16
102
}
330
16
100
AcDbXrecord
  1
PGRIDT
  1
*PGRIDT
  1
*
  1
*
 70
     0
  1
*
  1
*
  0
XRECORD
  5
64
102
{ACAD_REACTORS
330
16
102
}
330
16
100
AcDbXrecord
  1
PLAFONES
  1
0-*
  1
*
  1
*
 70
     0
  1
*
  1
*
  0
XRECORD
  5
65
102
{ACAD_REACTORS
330
16
102
}
330
16
100
AcDbXrecord
  1
PLANTAS
  1
P-*
  1
*
  1
*
 70
     0
  1
*
  1
*
  0
XRECORD
  5
66
102
{ACAD_REACTORS
330
16
102
}
330
16
100
AcDbXrecord
  1
Plot
  1
*
  1
*
  1
*
 70
  1024
  1
*
  1
*
  0
XRECORD
  5
67
102
{ACAD_REACTORS
330
16
102
}
330
16
100
AcDbXrecord
  1
PRENDIDAS
  1
*
  1
*
  1
*
 70
    13
  1
*
  1
*
  0
XRECORD
  5
68
102
{ACAD_REACTORS
330
16
102
}
330
16
100
AcDbXrecord
  1
PRENDIDOS
  1
*
  1
*
  1
*
 70
    12
  1
*
  1
*
  0
XRECORD
  5
69
102
{ACAD_REACTORS
330
16
102
}
330
16
100
AcDbXrecord
  1
print
  1
*
  1
7
  1
*
 70
  1280
  1
*
  1
*
  0
XRECORD
  5
6A
102
{ACAD_REACTORS
330
16
102
}
330
16
100
AcDbXrecord
  1
PT
  1
PT-*
  1
*
  1
*
 70
     0
  1
*
  1
*
  0
XRECORD
  5
6B
102
{ACAD_REACTORS
330
16
102
}
330
16
100
AcDbXrecord
  1
PTH
  1
PTH*
  1
*
  1
*
 70
     0
  1
*
  1
*
  0
XRECORD
  5
6C
102
{ACAD_REACTORS
330
16
102
}
330
16
100
AcDbXrecord
  1
PVGRID
  1
*PVGRID
  1
*
  1
*
 70
     0
  1
*
  1
*
  0
XRECORD
  5
6D
102
{ACAD_REACTORS
330
16
102
}
330
16
100
AcDbXrecord
  1
Red de Agua Potable
  1
Red de Agua Potable
  1
*
  1
*
 70
     1
  1
*
  1
*
  0
XRECORD
  5
6E
102
{ACAD_REACTORS
330
16
102
}
330
16
100
AcDbXrecord
  1
Red de Energia Electrica
  1
Lotes
  1
*
  1
*
 70
     1
  1
*
  1
*
  0
XRECORD
  5
6F
102
{ACAD_REACTORS
330
16
102
}
330
16
100
AcDbXrecord
  1
SEVERNI
  1
*-S
  1
*
  1
*
 70
     0
  1
*
  1
*
  0
XRECORD
  5
70
102
{ACAD_REACTORS
330
16
102
}
330
16
100
AcDbXrecord
  1
shin
  1
일*
  1
*
  1
*
 70
     0
  1
*
  1
*
  0
XRECORD
  5
71
102
{ACAD_REACTORS
330
16
102
}
330
16
100
AcDbXrecord
  1
SHOW ALL LAYER
  1
*
  1
*
  1
*
 70
     0
  1
*
  1
*
  0
XRECORD
  5
72
102
{ACAD_REACTORS
330
16
102
}
330
16
100
AcDbXrecord
  1
sin
  1
sin
  1
*
  1
*
 70
     0
  1
*
  1
*
  0
XRECORD
  5
73
102
{ACAD_REACTORS
330
16
102
}
330
16
100
AcDbXrecord
  1
STORAGE-CART
  1
STORAGE-CART*
  1
*
  1
*
 70
     0
  1
*
  1
*
  0
XRECORD
  5
74
102
{ACAD_REACTORS
330
16
102
}
330
16
100
AcDbXrecord
  1
T
  1
T*
  1
*
  1
*
 70
     0
  1
*
  1
*
  0
XRECORD
  5
75
102
{ACAD_REACTORS
330
16
102
}
330
16
100
AcDbXrecord
  1
TEXTOS
  1
TXT*
  1
*
  1
*
 70
     0
  1
*
  1
*
  0
XRECORD
  5
76
102
{ACAD_REACTORS
330
16
102
}
330
16
100
AcDbXrecord
  1
TEXTURAS
  1
*TEXTURAS
  1
*
  1
*
 70
     0
  1
*
  1
*
  0
XRECORD
  5
77
102
{ACAD_REACTORS
330
16
102
}
330
16
100
AcDbXrecord
  1
TUBERIAS
  1
T*
  1
*
  1
*
 70
     0
  1
*
  1
*
  0
XRECORD
  5
78
102
{ACAD_REACTORS
330
16
102
}
330
16
100
AcDbXrecord
  1
UNFRZ
  1
*
  1
*
  1
*
 70
    12
  1
*
  1
*
  0
XRECORD
  5
79
102
{ACAD_REACTORS
330
16
102
}
330
16
100
AcDbXrecord
  1
v\U+0161echny nepou\U+017E\U+00EDvan\U+00E9
  1
*
  1
*
  1
*
 70
     0
  1
*
  1
*
  0
XRECORD
  5
7A
102
{ACAD_REACTORS
330
16
102
}
330
16
100
AcDbXrecord
  1
VA
  1
VA*
  1
*
  1
*
 70
     0
  1
*
  1
*
  0
XRECORD
  5
7B
102
{ACAD_REACTORS
330
16
102
}
330
16
100
AcDbXrecord
  1
Ventilaci\U+00F3n
  1
*
  1
*
  1
*
 70
     0
  1
*
  1
*
  0
XRECORD
  5
7C
102
{ACAD_REACTORS
330
16
102
}
330
16
100
AcDbXrecord
  1
VYHODNI
  1
*-V
  1
*
  1
*
 70
     0
  1
*
  1
*
  0
XRECORD
  5
7D
102
{ACAD_REACTORS
330
16
102
}
330
16
100
AcDbXrecord
  1
Yo
  1
Muros
  1
*
  1
*
 70
     0
  1
*
  1
*
  0
XRECORD
  5
7E
102
{ACAD_REACTORS
330
16
102
}
330
16
100
AcDbXrecord
  1
ZAPADNI
  1
*-Z
  1
*
  1
*
 70
     0
  1
*
  1
*
  0
XRECORD
  5
7F
102
{ACAD_REACTORS
330
16
102
}
330
16
100
AcDbXrecord
  1
사용
  1
*
  1
*
  1
*
 70
   256
  1
*
  1
*
  0
XRECORD
  5
80
102
{ACAD_REACTORS
330
16
102
}
330
16
100
AcDbXrecord
  1
신규
  1
신규
  1
*
  1
*
 70
     0
  1
*
  1
*
  0
XRECORD
  5
81
102
{ACAD_REACTORS
330
16
102
}
330
16
100
AcDbXrecord
  1
실박스
  1
BLO,SYM,SYM1,SYM2
  1
*
  1
*
 70
     0
  1
*
  1
*
  0
XRECORD
  5
82
102
{ACAD_REACTORS
330
16
102
}
330
16
100
AcDbXrecord
  1
우리토목
  1
w-*
  1
*
  1
*
 70
     0
  1
*
  1
*
  0
XRECORD
  5
83
102
{ACAD_REACTORS
330
16
102
}
330
16
100
AcDbXrecord
  1
주차
  1
car*
  1
*
  1
*
 70
     0
  1
*
  1
*
  0
XRECORD
  5
84
102
{ACAD_REACTORS
330
16
102
}
330
16
100
AcDbXrecord
  1
지상정밀
  1
*
  1
*
  1
*
 70
     0
  1
*
  1
*
  0
XRECORD
  5
85
102
{ACAD_REACTORS
330
16
102
}
330
16
100
AcDbXrecord
  1
쩜선
  1
*
  1
*
  1
*
 70
     0
  1
*
  1
*
  0
XRECORD
  5
86
102
{ACAD_REACTORS
330
16
102
}
330
16
100
AcDbXrecord
  1
플로터 작업층
  1
*
  1
*
  1
*
 70
  1025
  1
*
  1
*
  0
XRECORD
  5
87
102
{ACAD_REACTORS
330
16
102
}
330
16
100
AcDbXrecord
  1
현재 작업층
  1
*
  1
*
  1
*
 70
     1
  1
*
  1
*
  0
XRECORD
  5
88
102
{ACAD_REACTORS
330
16
102
}
330
16
100
AcDbXrecord
  1
현재 잠금
  1
*
  1
*
  1
*
 70
   257
  1
*
  1
*
  0
ENDSEC
  0
EOF
