  0
SECTION
  2
HEADER
  9
$ACADVER
  1
AC1015
  9
$ACADMAINTVER
 70
    18
  9
$DWGCODEPAGE
  3
ANSI_949
  9
$INSBASE
 10
0.0
 20
0.0
 30
0.0
  9
$EXTMIN
 10
-7000.304749600502
 20
-3802.19822253397
 30
-0.0000091545749633
  9
$EXTMAX
 10
49176.66895198058
 20
2208.649092311158
 30
0.3000091559719402
  9
$LIMMIN
 10
0.0
 20
0.0
  9
$LIMMAX
 10
420.0
 20
297.0
  9
$ORTHOMODE
 70
     1
  9
$REGENMODE
 70
     1
  9
$FILLMODE
 70
     1
  9
$QTEXTMODE
 70
     0
  9
$MIRRTEXT
 70
     0
  9
$LTSCALE
 40
1.0
  9
$ATTMODE
 70
     1
  9
$TEXTSIZE
 40
2.5
  9
$TRACEWID
 40
1.0
  9
$TEXTSTYLE
  7
Standard
  9
$CLAYER
  8
0
  9
$CELTYPE
  6
ByLayer
  9
$CECOLOR
 62
   256
  9
$CELTSCALE
 40
1.0
  9
$DISPSILH
 70
     0
  9
$DIMSCALE
 40
1.0
  9
$DIMASZ
 40
4.0
  9
$DIMEXO
 40
1.0
  9
$DIMDLI
 40
10.0
  9
$DIMRND
 40
0.0
  9
$DIMDLE
 40
0.0
  9
$DIMEXE
 40
0.6
  9
$DIMTP
 40
0.0
  9
$DIMTM
 40
0.0
  9
$DIMTXT
 40
5.0
  9
$DIMCEN
 40
0.09
  9
$DIMTSZ
 40
0.0
  9
$DIMTOL
 70
     0
  9
$DIMLIM
 70
     0
  9
$DIMTIH
 70
     0
  9
$DIMTOH
 70
     0
  9
$DIMSE1
 70
     0
  9
$DIMSE2
 70
     0
  9
$DIMTAD
 70
     1
  9
$DIMZIN
 70
     8
  9
$DIMBLK
  1

  9
$DIMASO
 70
     1
  9
$DIMSHO
 70
     1
  9
$DIMPOST
  1

  9
$DIMAPOST
  1

  9
$DIMALT
 70
     0
  9
$DIMALTD
 70
     2
  9
$DIMALTF
 40
25.4
  9
$DIMLFAC
 40
1.0
  9
$DIMTOFL
 70
     1
  9
$DIMTVP
 40
0.0
  9
$DIMTIX
 70
     1
  9
$DIMSOXD
 70
     0
  9
$DIMSAH
 70
     0
  9
$DIMBLK1
  1

  9
$DIMBLK2
  1

  9
$DIMSTYLE
  2
STANDARD
  9
$DIMCLRD
 70
   123
  9
$DIMCLRE
 70
   123
  9
$DIMCLRT
 70
     3
  9
$DIMTFAC
 40
1.0
  9
$DIMGAP
 40
1.5
  9
$DIMJUST
 70
     0
  9
$DIMSD1
 70
     0
  9
$DIMSD2
 70
     0
  9
$DIMTOLJ
 70
     1
  9
$DIMTZIN
 70
     0
  9
$DIMALTZ
 70
     0
  9
$DIMALTTZ
 70
     0
  9
$DIMUPT
 70
     1
  9
$DIMDEC
 70
     2
  9
$DIMTDEC
 70
     2
  9
$DIMALTU
 70
     2
  9
$DIMALTTD
 70
     2
  9
$DIMTXSTY
  7
Standard
  9
$DIMAUNIT
 70
     1
  9
$DIMADEC
 70
     1
  9
$DIMALTRND
 40
0.0
  9
$DIMAZIN
 70
     2
  9
$DIMDSEP
 70
    46
  9
$DIMATFIT
 70
     0
  9
$DIMFRAC
 70
     0
  9
$DIMLDRBLK
  1

  9
$DIMLUNIT
 70
     2
  9
$DIMLWD
 70
    -2
  9
$DIMLWE
 70
    -2
  9
$DIMTMOVE
 70
     0
  9
$LUNITS
 70
     2
  9
$LUPREC
 70
     4
  9
$SKETCHINC
 40
1.0
  9
$FILLETRAD
 40
0.3
  9
$AUNITS
 70
     0
  9
$AUPREC
 70
     0
  9
$MENU
  1
.
  9
$ELEVATION
 40
0.0
  9
$PELEVATION
 40
0.0
  9
$THICKNESS
 40
0.0
  9
$LIMCHECK
 70
     0
  9
$CHAMFERA
 40
0.5
  9
$CHAMFERB
 40
0.5
  9
$CHAMFERC
 40
0.0
  9
$CHAMFERD
 40
0.0
  9
$SKPOLY
 70
     0
  9
$TDCREATE
 40
2455638.478663565
  9
$TDUCREATE
 40
2455638.103663565
  9
$TDUPDATE
 40
2455911.740032732
  9
$TDUUPDATE
 40
2455911.365032731
  9
$TDINDWG
 40
3.5208256481
  9
$TDUSRTIMER
 40
3.5208256481
  9
$USRTIMER
 70
     1
  9
$ANGBASE
 50
0.0
  9
$ANGDIR
 70
     0
  9
$PDMODE
 70
     0
  9
$PDSIZE
 40
0.0
  9
$PLINEWID
 40
0.0
  9
$SPLFRAME
 70
     0
  9
$SPLINETYPE
 70
     6
  9
$SPLINESEGS
 70
     8
  9
$HANDSEED
  5
5BA
  9
$SURFTAB1
 70
     6
  9
$SURFTAB2
 70
     6
  9
$SURFTYPE
 70
     6
  9
$SURFU
 70
     6
  9
$SURFV
 70
     6
  9
$UCSBASE
  2

  9
$UCSNAME
  2

  9
$UCSORG
 10
0.0
 20
0.0
 30
0.0
  9
$UCSXDIR
 10
1.0
 20
0.0
 30
0.0
  9
$UCSYDIR
 10
0.0
 20
1.0
 30
0.0
  9
$UCSORTHOREF
  2

  9
$UCSORTHOVIEW
 70
     0
  9
$UCSORGTOP
 10
0.0
 20
0.0
 30
0.0
  9
$UCSORGBOTTOM
 10
0.0
 20
0.0
 30
0.0
  9
$UCSORGLEFT
 10
0.0
 20
0.0
 30
0.0
  9
$UCSORGRIGHT
 10
0.0
 20
0.0
 30
0.0
  9
$UCSORGFRONT
 10
0.0
 20
0.0
 30
0.0
  9
$UCSORGBACK
 10
0.0
 20
0.0
 30
0.0
  9
$PUCSBASE
  2

  9
$PUCSNAME
  2

  9
$PUCSORG
 10
0.0
 20
0.0
 30
0.0
  9
$PUCSXDIR
 10
1.0
 20
0.0
 30
0.0
  9
$PUCSYDIR
 10
0.0
 20
1.0
 30
0.0
  9
$PUCSORTHOREF
  2

  9
$PUCSORTHOVIEW
 70
     0
  9
$PUCSORGTOP
 10
0.0
 20
0.0
 30
0.0
  9
$PUCSORGBOTTOM
 10
0.0
 20
0.0
 30
0.0
  9
$PUCSORGLEFT
 10
0.0
 20
0.0
 30
0.0
  9
$PUCSORGRIGHT
 10
0.0
 20
0.0
 30
0.0
  9
$PUCSORGFRONT
 10
0.0
 20
0.0
 30
0.0
  9
$PUCSORGBACK
 10
0.0
 20
0.0
 30
0.0
  9
$USERI1
 70
     0
  9
$USERI2
 70
     0
  9
$USERI3
 70
     0
  9
$USERI4
 70
     0
  9
$USERI5
 70
     0
  9
$USERR1
 40
0.0
  9
$USERR2
 40
0.0
  9
$USERR3
 40
0.0
  9
$USERR4
 40
0.0
  9
$USERR5
 40
0.0
  9
$WORLDVIEW
 70
     1
  9
$SHADEDGE
 70
     3
  9
$SHADEDIF
 70
    70
  9
$TILEMODE
 70
     1
  9
$MAXACTVP
 70
    48
  9
$PINSBASE
 10
0.0
 20
0.0
 30
0.0
  9
$PLIMCHECK
 70
     0
  9
$PEXTMIN
 10
0.0
 20
0.0
 30
0.0
  9
$PEXTMAX
 10
0.0
 20
0.0
 30
0.0
  9
$PLIMMIN
 10
0.0
 20
0.0
  9
$PLIMMAX
 10
12.0
 20
9.0
  9
$UNITMODE
 70
     0
  9
$VISRETAIN
 70
     1
  9
$PLINEGEN
 70
     0
  9
$PSLTSCALE
 70
     1
  9
$TREEDEPTH
 70
  3020
  9
$CMLSTYLE
  2
Standard
  9
$CMLJUST
 70
     0
  9
$CMLSCALE
 40
20.0
  9
$PROXYGRAPHICS
 70
     1
  9
$MEASUREMENT
 70
     1
  9
$CELWEIGHT
370
    -1
  9
$ENDCAPS
280
     0
  9
$JOINSTYLE
280
     0
  9
$LWDISPLAY
290
     0
  9
$INSUNITS
 70
     4
  9
$HYPERLINKBASE
  1

  9
$STYLESHEET
  1

  9
$XEDIT
290
     1
  9
$CEPSNTYPE
380
     0
  9
$PSTYLEMODE
290
     1
  9
$FINGERPRINTGUID
  2
{60E904DE-D634-4539-BF47-2BA651DDB8F9}
  9
$VERSIONGUID
  2
{9617A0B3-7FE8-4F73-8F9E-5ECF62B87F99}
  9
$EXTNAMES
290
     1
  9
$PSVPSCALE
 40
0.0
  9
$OLESTARTUP
290
     0
  0
ENDSEC
  0
SECTION
  2
CLASSES
  0
CLASS
  1
ACDBDICTIONARYWDFLT
  2
AcDbDictionaryWithDefault
  3
ObjectDBX Classes
 90
        0
280
     0
281
     0
  0
CLASS
  1
ACDBPLACEHOLDER
  2
AcDbPlaceHolder
  3
ObjectDBX Classes
 90
        0
280
     0
281
     0
  0
CLASS
  1
LAYOUT
  2
AcDbLayout
  3
ObjectDBX Classes
 90
        0
280
     0
281
     0
  0
CLASS
  1
DICTIONARYVAR
  2
AcDbDictionaryVar
  3
ObjectDBX Classes
 90
        0
280
     0
281
     0
  0
CLASS
  1
TABLESTYLE
  2
AcDbTableStyle
  3
ObjectDBX Classes
 90
     4095
280
     0
281
     0
  0
CLASS
  1
MATERIAL
  2
AcDbMaterial
  3
ObjectDBX Classes
 90
     1153
280
     0
281
     0
  0
CLASS
  1
VISUALSTYLE
  2
AcDbVisualStyle
  3
ObjectDBX Classes
 90
     4095
280
     0
281
     0
  0
CLASS
  1
SCALE
  2
AcDbScale
  3
ObjectDBX Classes
 90
     1153
280
     0
281
     0
  0
CLASS
  1
MLEADERSTYLE
  2
AcDbMLeaderStyle
  3
ACDB_MLEADERSTYLE_CLASS
 90
    36863
280
     0
281
     0
  0
CLASS
  1
CELLSTYLEMAP
  2
AcDbCellStyleMap
  3
ObjectDBX Classes
 90
     1152
280
     0
281
     0
  0
CLASS
  1
DIMASSOC
  2
AcDbDimAssoc
  3
"AcDbDimAssoc|Product Desc:     AcDim ARX App For Dimension|Company:          Autodesk, Inc.|WEB Address:      www.autodesk.com"
 90
        0
280
     0
281
     0
  0
CLASS
  1
SORTENTSTABLE
  2
AcDbSortentsTable
  3
ObjectDBX Classes
 90
        0
280
     0
281
     0
  0
CLASS
  1
BREAKDATA
  2
AcDbBreakData
  3
ObjectDBX Classes
 90
    33792
280
     0
281
     0
  0
CLASS
  1
EXACXREFPANELOBJECT
  2
ExAcXREFPanelObject
  3
EXAC_ESW
 90
    33793
280
     0
281
     0
  0
CLASS
  1
NPOCOLLECTION
  2
AcDbImpNonPersistentObjectsCollection
  3
ObjectDBX Classes
 90
    33921
280
     0
281
     0
  0
CLASS
  1
SOLID_BACKGROUND
  2
AcDbSolidBackground
  3
SCENEOE
 90
    36863
280
     0
281
     0
  0
ENDSEC
  0
SECTION
  2
TABLES
  0
TABLE
  2
VPORT
  5
2B
102
{ACAD_XDICTIONARY
360
2F
102
}
330
0
100
AcDbSymbolTable
 70
     1
  0
VPORT
  5
2C
330
2B
100
AcDbSymbolTableRecord
100
AcDbViewportTableRecord
  2
*Active
 70
     0
 10
0.0
 20
0.0
 11
1.0
 21
1.0
 12
21789.42728547436
 22
-759.7951770464805
 13
0.0
 23
0.0
 14
10.0
 24
10.0
 15
10.0
 25
10.0
 16
0.0
 26
0.0
 36
1.0
 17
0.0
 27
0.0
 37
0.0
 40
1011.504864378581
 41
1.712519319938176
 42
50.0
 43
0.0
 44
0.0
 50
0.0
 51
0.0
 71
     0
 72
  1000
 73
     1
 74
     3
 75
     0
 76
     0
 77
     0
 78
     0
281
     0
 65
     1
110
0.0
120
0.0
130
0.0
111
1.0
121
0.0
131
0.0
112
0.0
122
1.0
132
0.0
 79
     0
146
0.0
  0
ENDTAB
  0
TABLE
  2
LTYPE
  5
26
330
0
100
AcDbSymbolTable
 70
     2
  0
LTYPE
  5
27
330
26
100
AcDbSymbolTableRecord
100
AcDbLinetypeTableRecord
  2
ByBlock
 70
     0
  3

 72
    65
 73
     0
 40
0.0
  0
LTYPE
  5
28
330
26
100
AcDbSymbolTableRecord
100
AcDbLinetypeTableRecord
  2
ByLayer
 70
     0
  3

 72
    65
 73
     0
 40
0.0
  0
LTYPE
  5
15
330
26
100
AcDbSymbolTableRecord
100
AcDbLinetypeTableRecord
  2
Continuous
 70
     0
  3
Solid line
 72
    65
 73
     0
 40
0.0
  0
LTYPE
  5
77
330
26
100
AcDbSymbolTableRecord
100
AcDbLinetypeTableRecord
  2
CENTER
 70
     0
  3
Center ____ _ ____ _ ____ _ ____ _ ____ _ ____
 72
    65
 73
     4
 40
50.8
 49
31.75
 74
     0
 49
-6.349999999999999
 74
     0
 49
6.349999999999999
 74
     0
 49
-6.349999999999999
 74
     0
  0
ENDTAB
  0
TABLE
  2
LAYER
  5
20
102
{ACAD_XDICTIONARY
360
21
102
}
330
0
100
AcDbSymbolTable
 70
     2
  0
LAYER
  5
7
102
{ACAD_XDICTIONARY
360
8
102
}
330
20
100
AcDbSymbolTableRecord
100
AcDbLayerTableRecord
  2
0
 70
     0
 62
     7
  6
Continuous
370
    -3
390
A
  0
LAYER
  5
72
330
20
100
AcDbSymbolTableRecord
100
AcDbLayerTableRecord
  2
Defpoints
 70
     0
 62
     7
  6
Continuous
290
     0
370
    -3
390
A
  0
ENDTAB
  0
TABLE
  2
STYLE
  5
23
330
0
100
AcDbSymbolTable
 70
     1
  0
STYLE
  5
24
330
23
100
AcDbSymbolTableRecord
100
AcDbTextStyleTableRecord
  2
Standard
 70
     0
 40
0.0
 41
1.0
 50
0.0
 71
     0
 42
2.5
  3
romans.shx
  4
whgtxt.shx
  0
ENDTAB
  0
TABLE
  2
VIEW
  5
29
330
0
100
AcDbSymbolTable
 70
     0
  0
ENDTAB
  0
TABLE
  2
UCS
  5
2A
330
0
100
AcDbSymbolTable
 70
     0
  0
ENDTAB
  0
TABLE
  2
APPID
  5
30
330
0
100
AcDbSymbolTable
 70
     4
  0
APPID
  5
14
330
30
100
AcDbSymbolTableRecord
100
AcDbRegAppTableRecord
  2
ACAD
 70
     0
  0
APPID
  5
19
330
30
100
AcDbSymbolTableRecord
100
AcDbRegAppTableRecord
  2
ACAD_PSEXT
 70
     0
  0
APPID
  5
33
330
30
100
AcDbSymbolTableRecord
100
AcDbRegAppTableRecord
  2
ACAD_DSTYLE_DIMJAG
 70
     0
  0
APPID
  5
34
330
30
100
AcDbSymbolTableRecord
100
AcDbRegAppTableRecord
  2
ACAD_DSTYLE_DIMTALN
 70
     0
  0
ENDTAB
  0
TABLE
  2
DIMSTYLE
  5
31
330
0
100
AcDbSymbolTable
 70
     1
100
AcDbDimStyleTable
 71
     1
340
32
  0
DIMSTYLE
105
32
102
{ACAD_REACTORS
330
57D
330
564
330
553
330
541
330
530
330
521
330
511
330
305
330
2F5
330
2F3
330
BB
330
A3
330
68
330
64
102
}
330
31
100
AcDbSymbolTableRecord
100
AcDbDimStyleTableRecord
  2
STANDARD
 70
     0
 41
4.0
 42
1.0
 43
10.0
 44
0.6
 73
     0
 74
     0
 77
     1
 78
     8
 79
     2
140
5.0
147
1.5
172
     1
174
     1
176
   123
177
   123
178
     3
179
     1
271
     2
272
     2
275
     1
288
     1
289
     0
340
24
1001
ACAD_DSTYLE_DIMJAG
1070
   388
1040
1.5
1001
ACAD_DSTYLE_DIMTALN
1070
   392
1070
     0
  0
ENDTAB
  0
TABLE
  2
BLOCK_RECORD
  5
1
330
0
100
AcDbSymbolTable
 70
    12
  0
BLOCK_RECORD
  5
2
102
{ACAD_XDICTIONARY
360
3
102
}
330
1
100
AcDbSymbolTableRecord
100
AcDbBlockTableRecord
  2
*Model_Space
340
17
  0
BLOCK_RECORD
  5
1A
102
{ACAD_XDICTIONARY
360
1B
102
}
330
1
100
AcDbSymbolTableRecord
100
AcDbBlockTableRecord
  2
*Paper_Space
340
1F
  0
BLOCK_RECORD
  5
565
330
1
100
AcDbSymbolTableRecord
100
AcDbBlockTableRecord
  2
*D0
340
0
  0
BLOCK_RECORD
  5
57E
330
1
100
AcDbSymbolTableRecord
100
AcDbBlockTableRecord
  2
*D1
340
0
  0
BLOCK_RECORD
  5
2F6
330
1
100
AcDbSymbolTableRecord
100
AcDbBlockTableRecord
  2
*D2
340
0
  0
BLOCK_RECORD
  5
69
330
1
100
AcDbSymbolTableRecord
100
AcDbBlockTableRecord
  2
*D3
340
0
  0
BLOCK_RECORD
  5
BC
330
1
100
AcDbSymbolTableRecord
100
AcDbBlockTableRecord
  2
*D4
340
0
  0
BLOCK_RECORD
  5
514
330
1
100
AcDbSymbolTableRecord
100
AcDbBlockTableRecord
  2
*D5
340
0
  0
BLOCK_RECORD
  5
524
330
1
100
AcDbSymbolTableRecord
100
AcDbBlockTableRecord
  2
*D6
340
0
  0
BLOCK_RECORD
  5
533
330
1
100
AcDbSymbolTableRecord
100
AcDbBlockTableRecord
  2
*D7
340
0
  0
BLOCK_RECORD
  5
544
330
1
100
AcDbSymbolTableRecord
100
AcDbBlockTableRecord
  2
*D8
340
0
  0
BLOCK_RECORD
  5
556
330
1
100
AcDbSymbolTableRecord
100
AcDbBlockTableRecord
  2
*D9
340
0
  0
BLOCK_RECORD
  5
308
330
1
100
AcDbSymbolTableRecord
100
AcDbBlockTableRecord
  2
*D10
340
0
  0
BLOCK_RECORD
  5
A6
330
1
100
AcDbSymbolTableRecord
100
AcDbBlockTableRecord
  2
*D11
340
0
  0
ENDTAB
  0
ENDSEC
  0
SECTION
  2
BLOCKS
  0
BLOCK
  5
6
330
2
100
AcDbEntity
  8
0
100
AcDbBlockBegin
  2
*Model_Space
 70
     0
 10
0.0
 20
0.0
 30
0.0
  3
*Model_Space
  1

  0
ENDBLK
  5
16
330
2
100
AcDbEntity
  8
0
100
AcDbBlockEnd
  0
BLOCK
  5
1D
330
1A
100
AcDbEntity
 67
     1
  8
0
100
AcDbBlockBegin
  2
*Paper_Space
 70
     0
 10
0.0
 20
0.0
 30
0.0
  3
*Paper_Space
  1

  0
ENDBLK
  5
1E
330
1A
100
AcDbEntity
 67
     1
  8
0
100
AcDbBlockEnd
  0
BLOCK
  5
566
330
565
100
AcDbEntity
  8
0
100
AcDbBlockBegin
  2
*D0
 70
     1
 10
0.0
 20
0.0
 30
0.0
  3
*D0
  1

  0
LINE
  5
567
330
565
100
AcDbEntity
  8
0
 62
   123
370
    -2
100
AcDbLine
 10
21862.40565510977
 20
-709.5328114963567
 30
0.0
 11
21862.40565510977
 21
-675.4556477886138
 31
0.0
  0
LINE
  5
568
330
565
100
AcDbEntity
  8
0
 62
   123
370
    -2
100
AcDbLine
 10
22078.40637760046
 20
-713.0328114963567
 30
0.0
 11
22078.40637760046
 21
-675.4556477886138
 31
0.0
  0
LINE
  5
569
330
565
100
AcDbEntity
  8
0
 62
   123
370
    -2
100
AcDbLine
 10
21866.40565510977
 20
-676.0556477886138
 30
0.0
 11
22074.40637760046
 21
-676.0556477886138
 31
0.0
  0
SOLID
  5
56A
330
565
100
AcDbEntity
  8
0
 62
   123
100
AcDbTrace
 10
21866.40565510977
 20
-675.3889811219472
 30
0.0
 11
21866.40565510977
 21
-676.7223144552805
 31
0.0
 12
21862.40565510977
 22
-676.0556477886138
 32
0.0
 13
21862.40565510977
 23
-676.0556477886138
 33
0.0
  0
SOLID
  5
56B
330
565
100
AcDbEntity
  8
0
 62
   123
100
AcDbTrace
 10
22074.40637760046
 20
-675.3889811219472
 30
0.0
 11
22074.40637760046
 21
-676.7223144552805
 31
0.0
 12
22078.40637760046
 22
-676.0556477886138
 32
0.0
 13
22078.40637760046
 23
-676.0556477886138
 33
0.0
  0
MTEXT
  5
56C
330
565
100
AcDbEntity
  8
0
 62
     3
100
AcDbMText
 10
21965.40565510977
 20
-672.0556477886138
 30
0.0
 40
5.0
 41
0.0
 71
     5
 72
     1
  1
\A1;M
 73
     1
 44
1.0
1001
ACAD
1000
MTEXTBEGIN
1070
    73
1070
     1
1070
    44
1040
1.0
1070
    74
1070
     0
1000
MTEXTEND
  0
POINT
  5
56D
330
565
100
AcDbEntity
  8
Defpoints
 62
     0
100
AcDbPoint
 10
21862.40565510977
 20
-710.5328114963567
 30
0.0
  0
POINT
  5
56E
330
565
100
AcDbEntity
  8
Defpoints
 62
     0
100
AcDbPoint
 10
22078.40637760046
 20
-714.0328114963567
 30
0.0
  0
POINT
  5
56F
330
565
100
AcDbEntity
  8
Defpoints
 62
     0
100
AcDbPoint
 10
22078.40637760046
 20
-676.0556477886138
 30
0.0
  0
ENDBLK
  5
570
330
565
100
AcDbEntity
  8
0
100
AcDbBlockEnd
  0
BLOCK
  5
57F
330
57E
100
AcDbEntity
  8
0
100
AcDbBlockBegin
  2
*D1
 70
     1
 10
0.0
 20
0.0
 30
0.0
  3
*D1
  1

  0
LINE
  5
580
330
57E
100
AcDbEntity
  8
0
 62
   123
370
    -2
100
AcDbLine
 10
21860.40565510977
 20
-713.0328114963567
 30
0.0
 11
21860.40565510977
 21
-698.9091914310177
 31
0.0
  0
LINE
  5
581
330
57E
100
AcDbEntity
  8
0
 62
   123
370
    -2
100
AcDbLine
 10
21862.40565510977
 20
-709.5328114963567
 30
0.0
 11
21862.40565510977
 21
-698.9091914310177
 31
0.0
  0
LINE
  5
582
330
57E
100
AcDbEntity
  8
0
 62
   123
370
    -2
100
AcDbLine
 10
21866.40565510977
 20
-699.5091914310178
 30
0.0
 11
21870.40565510977
 21
-699.5091914310178
 31
0.0
  0
LINE
  5
583
330
57E
100
AcDbEntity
  8
0
 62
   123
370
    -2
100
AcDbLine
 10
21856.40565510977
 20
-699.5091914310178
 30
0.0
 11
21845.12934090907
 21
-699.5091914310178
 31
0.0
  0
LINE
  5
584
330
57E
100
AcDbEntity
  8
0
 62
   123
370
    -2
100
AcDbLine
 10
21862.40565510977
 20
-699.5091914310178
 30
0.0
 11
21860.40565510977
 21
-699.5091914310178
 31
0.0
  0
SOLID
  5
585
330
57E
100
AcDbEntity
  8
0
 62
   123
100
AcDbTrace
 10
21866.40565510977
 20
-698.8425247643512
 30
0.0
 11
21866.40565510977
 21
-700.1758580976845
 31
0.0
 12
21862.40565510977
 22
-699.5091914310178
 32
0.0
 13
21862.40565510977
 23
-699.5091914310178
 33
0.0
  0
SOLID
  5
586
330
57E
100
AcDbEntity
  8
0
 62
   123
100
AcDbTrace
 10
21856.40565510977
 20
-698.8425247643512
 30
0.0
 11
21856.40565510977
 21
-700.1758580976845
 31
0.0
 12
21860.40565510977
 22
-699.5091914310178
 32
0.0
 13
21860.40565510977
 23
-699.5091914310178
 33
0.0
  0
MTEXT
  5
587
330
57E
100
AcDbEntity
  8
0
 62
     3
100
AcDbMText
 10
21848.29600757574
 20
-695.5091914310178
 30
0.0
 40
5.0
 41
0.0
 71
     5
 72
     1
  1
\A1;2
 73
     1
 44
1.0
1001
ACAD
1000
MTEXTBEGIN
1070
    73
1070
     1
1070
    44
1040
1.0
1070
    74
1070
     0
1000
MTEXTEND
  0
POINT
  5
588
330
57E
100
AcDbEntity
  8
Defpoints
 62
     0
100
AcDbPoint
 10
21860.40565510977
 20
-714.0328114963567
 30
0.0
  0
POINT
  5
589
330
57E
100
AcDbEntity
  8
Defpoints
 62
     0
100
AcDbPoint
 10
21862.40565510977
 20
-710.5328114963567
 30
0.0
  0
POINT
  5
58A
330
57E
100
AcDbEntity
  8
Defpoints
 62
     0
100
AcDbPoint
 10
21862.40565510977
 20
-699.5091914310178
 30
0.0
  0
ENDBLK
  5
58B
330
57E
100
AcDbEntity
  8
0
100
AcDbBlockEnd
  0
BLOCK
  5
2F7
330
2F6
100
AcDbEntity
  8
0
100
AcDbBlockBegin
  2
*D2
 70
     1
 10
0.0
 20
0.0
 30
0.0
  3
*D2
  1

  0
LINE
  5
2F8
330
2F6
100
AcDbEntity
  8
0
 62
   123
370
    -2
100
AcDbLine
 10
22075.90637760046
 20
-710.5328114963567
 30
0.0
 11
22100.60098098997
 21
-710.5328114963567
 31
0.0
  0
LINE
  5
2F9
330
2F6
100
AcDbEntity
  8
0
 62
   123
370
    -2
100
AcDbLine
 10
22075.90637760046
 20
-800.5328114963567
 30
0.0
 11
22100.60098098997
 21
-800.5328114963567
 31
0.0
  0
LINE
  5
2FA
330
2F6
100
AcDbEntity
  8
0
 62
   123
370
    -2
100
AcDbLine
 10
22100.00098098997
 20
-714.5328114963567
 30
0.0
 11
22100.00098098997
 21
-796.5328114963567
 31
0.0
  0
SOLID
  5
2FB
330
2F6
100
AcDbEntity
  8
0
 62
   123
100
AcDbTrace
 10
22099.3343143233
 20
-714.5328114963567
 30
0.0
 11
22100.66764765664
 21
-714.5328114963567
 31
0.0
 12
22100.00098098997
 22
-710.5328114963567
 32
0.0
 13
22100.00098098997
 23
-710.5328114963567
 33
0.0
  0
SOLID
  5
2FC
330
2F6
100
AcDbEntity
  8
0
 62
   123
100
AcDbTrace
 10
22099.3343143233
 20
-796.5328114963567
 30
0.0
 11
22100.66764765664
 21
-796.5328114963567
 31
0.0
 12
22100.00098098997
 22
-800.5328114963567
 32
0.0
 13
22100.00098098997
 23
-800.5328114963567
 33
0.0
  0
MTEXT
  5
2FD
330
2F6
100
AcDbEntity
  8
0
 62
     3
100
AcDbMText
 10
22096.00098098997
 20
-755.5260215241187
 30
0.0
 40
5.0
 41
0.0
 71
     5
 72
     1
  1
\A1;90
 11
0.0000000000000001
 21
1.0
 31
0.0
 73
     1
 44
1.0
1001
ACAD
1000
MTEXTBEGIN
1070
    73
1070
     1
1070
    44
1040
1.0
1070
    74
1070
     0
1000
MTEXTEND
  0
POINT
  5
2FE
330
2F6
100
AcDbEntity
  8
Defpoints
 62
     0
100
AcDbPoint
 10
22074.90637760046
 20
-710.5328114963567
 30
0.0
  0
POINT
  5
2FF
330
2F6
100
AcDbEntity
  8
Defpoints
 62
     0
100
AcDbPoint
 10
22074.90637760046
 20
-800.5328114963567
 30
0.0
  0
POINT
  5
300
330
2F6
100
AcDbEntity
  8
Defpoints
 62
     0
100
AcDbPoint
 10
22100.00098098997
 20
-800.5328114963567
 30
0.0
  0
ENDBLK
  5
301
330
2F6
100
AcDbEntity
  8
0
100
AcDbBlockEnd
  0
BLOCK
  5
6A
330
69
100
AcDbEntity
  8
0
100
AcDbBlockBegin
  2
*D3
 70
     1
 10
0.0
 20
0.0
 30
0.0
  3
*D3
  1

  0
LINE
  5
6B
330
69
100
AcDbEntity
  8
0
 62
   123
370
    -2
100
AcDbLine
 10
21667.5329440817
 20
-714.5756052551523
 30
0.0
 11
21667.5329440817
 21
-673.6999247032066
 31
0.0
  0
LINE
  5
6C
330
69
100
AcDbEntity
  8
0
 62
   123
370
    -2
100
AcDbLine
 10
21757.5329440817
 20
-714.5756052551523
 30
0.0
 11
21757.5329440817
 21
-673.6999247032066
 31
0.0
  0
LINE
  5
6D
330
69
100
AcDbEntity
  8
0
 62
   123
370
    -2
100
AcDbLine
 10
21671.5329440817
 20
-674.2999247032066
 30
0.0
 11
21753.5329440817
 21
-674.2999247032066
 31
0.0
  0
SOLID
  5
6E
330
69
100
AcDbEntity
  8
0
 62
   123
100
AcDbTrace
 10
21671.5329440817
 20
-673.63325803654
 30
0.0
 11
21671.5329440817
 21
-674.9665913698732
 31
0.0
 12
21667.5329440817
 22
-674.2999247032066
 32
0.0
 13
21667.5329440817
 23
-674.2999247032066
 33
0.0
  0
SOLID
  5
6F
330
69
100
AcDbEntity
  8
0
 62
   123
100
AcDbTrace
 10
21753.5329440817
 20
-673.63325803654
 30
0.0
 11
21753.5329440817
 21
-674.9665913698732
 31
0.0
 12
21757.5329440817
 22
-674.2999247032066
 32
0.0
 13
21757.5329440817
 23
-674.2999247032066
 33
0.0
  0
MTEXT
  5
70
330
69
100
AcDbEntity
  8
0
 62
     3
100
AcDbMText
 10
21712.5329440817
 20
-670.2999247032066
 30
0.0
 40
5.0
 41
0.0
 71
     5
 72
     1
  1
\A1;90
 73
     1
 44
1.0
1001
ACAD
1000
MTEXTBEGIN
1070
    73
1070
     1
1070
    44
1040
1.0
1070
    74
1070
     0
1000
MTEXTEND
  0
POINT
  5
71
330
69
100
AcDbEntity
  8
Defpoints
 62
     0
100
AcDbPoint
 10
21667.5329440817
 20
-715.5756052551524
 30
0.0
  0
POINT
  5
73
330
69
100
AcDbEntity
  8
Defpoints
 62
     0
100
AcDbPoint
 10
21757.5329440817
 20
-715.5756052551524
 30
0.0
  0
POINT
  5
74
330
69
100
AcDbEntity
  8
Defpoints
 62
     0
100
AcDbPoint
 10
21757.5329440817
 20
-674.2999247032066
 30
0.0
  0
ENDBLK
  5
75
330
69
100
AcDbEntity
  8
0
100
AcDbBlockEnd
  0
BLOCK
  5
BD
330
BC
100
AcDbEntity
  8
0
100
AcDbBlockBegin
  2
*D4
 70
     1
 10
0.0
 20
0.0
 30
0.0
  3
*D4
  1

  0
LINE
  5
BE
330
BC
100
AcDbEntity
  8
0
 62
   123
 48
0.6
100
AcDbLine
 10
21712.5267264108
 20
-810.1843531395006
 30
0.0
 11
21712.52672641081
 21
-828.6029405329927
 31
0.0
  0
LINE
  5
BF
330
BC
100
AcDbEntity
  8
0
 62
   123
 48
0.6
100
AcDbLine
 10
21731.55534677141
 20
-801.4780427719298
 30
0.0
 11
21740.48922466225
 21
-823.0391397405991
 31
0.0
  0
ARC
  5
C0
330
BC
100
AcDbEntity
  8
0
 62
   123
 48
0.6
100
AcDbCircle
 10
21712.52672641081
 20
-755.5542083757472
 30
0.0
 40
72.44873215724623
100
AcDbArc
 50
273.1637853469859
 51
289.342971550415
  0
SOLID
  5
C1
330
BC
100
AcDbEntity
  8
0
 62
   123
 48
0.6
100
AcDbTrace
 10
21716.54360578659
 20
-828.5589302134994
 30
0.0
 11
21716.50679814915
 21
-827.2261050278121
 31
0.0
 12
21712.5267264108
 22
-828.0029405329933
 32
0.0
 13
21712.5267264108
 23
-828.0029405329933
 33
0.0
  0
SOLID
  5
C2
330
BC
100
AcDbEntity
  8
0
 62
   123
 48
0.6
100
AcDbTrace
 10
21736.28525534716
 20
-823.2907128879142
 30
0.0
 11
21736.76144651449
 21
-824.5361123218062
 31
0.0
 12
21740.2595492325
 22
-822.4848391028864
 32
0.0
 13
21740.2595492325
 23
-822.4848391028864
 33
0.0
  0
MTEXT
  5
C3
330
BC
100
AcDbEntity
  8
0
 62
     3
 48
0.6
100
AcDbMText
 10
21725.79144242443
 20
-822.2198946893277
 30
0.0
 40
5.0
 41
0.0
 71
     5
 72
     1
  1
\A1;22°30'
 11
0.9807737751869385
 21
0.1951481537334144
 31
0.0
 73
     1
 44
1.0
1001
ACAD
1000
MTEXTBEGIN
1070
    73
1070
     1
1070
    44
1040
1.0
1070
    74
1070
     0
1000
MTEXTEND
  0
POINT
  5
C4
330
BC
100
AcDbEntity
  8
Defpoints
 62
     0
 48
0.6
100
AcDbPoint
 10
21721.98600714068
 20
-827.382759796932
 30
0.0
  0
POINT
  5
C5
330
BC
100
AcDbEntity
  8
Defpoints
 62
     0
 48
0.6
100
AcDbPoint
 10
21712.5267264108
 20
-809.1843531395007
 30
0.0
  0
POINT
  5
C6
330
BC
100
AcDbEntity
  8
Defpoints
 62
     0
 48
0.6
100
AcDbPoint
 10
21712.52672641081
 20
-755.5542083757472
 30
0.0
  0
POINT
  5
C7
330
BC
100
AcDbEntity
  8
Defpoints
 62
     0
 48
0.6
100
AcDbPoint
 10
21731.17255438849
 20
-800.554208375741
 30
0.0
  0
POINT
  5
C8
330
BC
100
AcDbEntity
  8
Defpoints
 62
     0
 48
0.6
100
AcDbPoint
 10
21712.52672641081
 20
-701.9240636119957
 30
0.0
  0
ENDBLK
  5
C9
330
BC
100
AcDbEntity
  8
0
100
AcDbBlockEnd
  0
BLOCK
  5
515
330
514
100
AcDbEntity
  8
0
100
AcDbBlockBegin
  2
*D5
 70
     1
 10
0.0
 20
0.0
 30
0.0
  3
*D5
  1

  0
LINE
  5
516
330
514
100
AcDbEntity
  8
0
 62
   123
370
    -2
100
AcDbLine
 10
21825.40565510977
 20
-749.5328114963568
 30
0.0
 11
21825.40565510977
 21
-675.4556477886138
 31
0.0
  0
LINE
  5
517
330
514
100
AcDbEntity
  8
0
 62
   123
370
    -2
100
AcDbLine
 10
21862.40565510977
 20
-709.5328114963567
 30
0.0
 11
21862.40565510977
 21
-675.4556477886138
 31
0.0
  0
LINE
  5
518
330
514
100
AcDbEntity
  8
0
 62
   123
370
    -2
100
AcDbLine
 10
21829.40565510977
 20
-676.0556477886138
 30
0.0
 11
21858.40565510977
 21
-676.0556477886138
 31
0.0
  0
SOLID
  5
519
330
514
100
AcDbEntity
  8
0
 62
   123
100
AcDbTrace
 10
21829.40565510977
 20
-675.3889811219472
 30
0.0
 11
21829.40565510977
 21
-676.7223144552805
 31
0.0
 12
21825.40565510977
 22
-676.0556477886138
 32
0.0
 13
21825.40565510977
 23
-676.0556477886138
 33
0.0
  0
SOLID
  5
51A
330
514
100
AcDbEntity
  8
0
 62
   123
100
AcDbTrace
 10
21858.40565510977
 20
-675.3889811219472
 30
0.0
 11
21858.40565510977
 21
-676.7223144552805
 31
0.0
 12
21862.40565510977
 22
-676.0556477886138
 32
0.0
 13
21862.40565510977
 23
-676.0556477886138
 33
0.0
  0
MTEXT
  5
51B
330
514
100
AcDbEntity
  8
0
 62
     3
100
AcDbMText
 10
21843.90565510977
 20
-672.0556477886138
 30
0.0
 40
5.0
 41
0.0
 71
     5
 72
     1
  1
\A1;37
 73
     1
 44
1.0
1001
ACAD
1000
MTEXTBEGIN
1070
    73
1070
     1
1070
    44
1040
1.0
1070
    74
1070
     0
1000
MTEXTEND
  0
POINT
  5
51C
330
514
100
AcDbEntity
  8
Defpoints
 62
     0
100
AcDbPoint
 10
21825.40565510977
 20
-750.5328114963567
 30
0.0
  0
POINT
  5
51D
330
514
100
AcDbEntity
  8
Defpoints
 62
     0
100
AcDbPoint
 10
21862.40565510977
 20
-710.5328114963567
 30
0.0
  0
POINT
  5
51E
330
514
100
AcDbEntity
  8
Defpoints
 62
     0
100
AcDbPoint
 10
21862.40565510977
 20
-676.0556477886138
 30
0.0
  0
ENDBLK
  5
51F
330
514
100
AcDbEntity
  8
0
100
AcDbBlockEnd
  0
BLOCK
  5
525
330
524
100
AcDbEntity
  8
0
100
AcDbBlockBegin
  2
*D6
 70
     1
 10
0.0
 20
0.0
 30
0.0
  3
*D6
  1

  0
LINE
  5
526
330
524
100
AcDbEntity
  8
0
 62
   123
370
    -2
100
AcDbLine
 10
21824.40565510977
 20
-761.5328114963567
 30
0.0
 11
21801.46869334835
 21
-761.5328114963567
 31
0.0
  0
LINE
  5
527
330
524
100
AcDbEntity
  8
0
 62
   123
370
    -2
100
AcDbLine
 10
21854.40565510977
 20
-749.5328114963568
 30
0.0
 11
21801.46869334835
 21
-749.5328114963568
 31
0.0
  0
LINE
  5
528
330
524
100
AcDbEntity
  8
0
 62
   123
370
    -2
100
AcDbLine
 10
21802.06869334835
 20
-757.5328114963568
 30
0.0
 11
21802.06869334835
 21
-753.5328114963568
 31
0.0
  0
SOLID
  5
529
330
524
100
AcDbEntity
  8
0
 62
   123
100
AcDbTrace
 10
21801.40202668168
 20
-757.5328114963568
 30
0.0
 11
21802.73536001501
 21
-757.5328114963568
 31
0.0
 12
21802.06869334835
 22
-761.5328114963567
 32
0.0
 13
21802.06869334835
 23
-761.5328114963567
 33
0.0
  0
SOLID
  5
52A
330
524
100
AcDbEntity
  8
0
 62
   123
100
AcDbTrace
 10
21801.40202668168
 20
-753.5328114963568
 30
0.0
 11
21802.73536001501
 21
-753.5328114963568
 31
0.0
 12
21802.06869334835
 22
-749.5328114963568
 32
0.0
 13
21802.06869334835
 23
-749.5328114963568
 33
0.0
  0
MTEXT
  5
52B
330
524
100
AcDbEntity
  8
0
 62
     3
100
AcDbMText
 10
21795.65177668168
 20
-755.5328114963532
 30
0.0
 40
5.0
 41
0.0
 71
     5
 72
     1
  1
\A1;\A1;{\f??|b0|i0|c0|p49;%%C}12{\f??|b0|i0|c0|p49;\H0.7x;\S+0^ -0.018;\H1.429x;(h}7{\f??|b0|i0|c0|p49;)}
 11
0.0000000000000001
 21
1.0
 31
0.0
 73
     1
 44
1.0
1001
ACAD
1000
MTEXTBEGIN
1070
    73
1070
     1
1070
    44
1040
1.0
1070
    74
1070
     0
1000
MTEXTEND
  0
POINT
  5
52C
330
524
100
AcDbEntity
  8
Defpoints
 62
     0
100
AcDbPoint
 10
21825.40565510977
 20
-761.5328114963567
 30
0.0
  0
POINT
  5
52D
330
524
100
AcDbEntity
  8
Defpoints
 62
     0
100
AcDbPoint
 10
21855.40565510977
 20
-749.5328114963568
 30
0.0
  0
POINT
  5
52E
330
524
100
AcDbEntity
  8
Defpoints
 62
     0
100
AcDbPoint
 10
21802.06869334835
 20
-749.5328114963568
 30
0.0
  0
ENDBLK
  5
52F
330
524
100
AcDbEntity
  8
0
100
AcDbBlockEnd
  0
BLOCK
  5
534
330
533
100
AcDbEntity
  8
0
100
AcDbBlockBegin
  2
*D7
 70
     1
 10
0.0
 20
0.0
 30
0.0
  3
*D7
  1

  0
LINE
  5
535
330
533
100
AcDbEntity
  8
0
 62
   123
370
    -2
100
AcDbLine
 10
21825.40565510977
 20
-749.5328114963568
 30
0.0
 11
21825.40565510977
 21
-732.851675207053
 31
0.0
  0
LINE
  5
536
330
533
100
AcDbEntity
  8
0
 62
   123
370
    -2
100
AcDbLine
 10
21855.40565510977
 20
-748.5328114963567
 30
0.0
 11
21855.40565510977
 21
-732.851675207053
 31
0.0
  0
LINE
  5
537
330
533
100
AcDbEntity
  8
0
 62
   123
370
    -2
100
AcDbLine
 10
21829.40565510977
 20
-733.451675207053
 30
0.0
 11
21851.40565510977
 21
-733.451675207053
 31
0.0
  0
SOLID
  5
538
330
533
100
AcDbEntity
  8
0
 62
   123
100
AcDbTrace
 10
21829.40565510977
 20
-732.7850085403865
 30
0.0
 11
21829.40565510977
 21
-734.1183418737196
 31
0.0
 12
21825.40565510977
 22
-733.451675207053
 32
0.0
 13
21825.40565510977
 23
-733.451675207053
 33
0.0
  0
SOLID
  5
539
330
533
100
AcDbEntity
  8
0
 62
   123
100
AcDbTrace
 10
21851.40565510977
 20
-732.7850085403865
 30
0.0
 11
21851.40565510977
 21
-734.1183418737196
 31
0.0
 12
21855.40565510977
 22
-733.451675207053
 32
0.0
 13
21855.40565510977
 23
-733.451675207053
 33
0.0
  0
MTEXT
  5
53A
330
533
100
AcDbEntity
  8
0
 62
     3
100
AcDbMText
 10
21840.52142623446
 20
-729.451675207053
 30
0.0
 40
5.0
 41
0.0
 71
     5
 72
     1
  1
\A1;30
 73
     1
 44
1.0
1001
ACAD
1000
MTEXTBEGIN
1070
    73
1070
     1
1070
    44
1040
1.0
1070
    74
1070
     0
1000
MTEXTEND
  0
POINT
  5
53B
330
533
100
AcDbEntity
  8
Defpoints
 62
     0
100
AcDbPoint
 10
21825.40565510977
 20
-750.5328114963567
 30
0.0
  0
POINT
  5
53C
330
533
100
AcDbEntity
  8
Defpoints
 62
     0
100
AcDbPoint
 10
21855.40565510977
 20
-749.5328114963568
 30
0.0
  0
POINT
  5
53D
330
533
100
AcDbEntity
  8
Defpoints
 62
     0
100
AcDbPoint
 10
21855.40565510977
 20
-733.451675207053
 30
0.0
  0
ENDBLK
  5
53E
330
533
100
AcDbEntity
  8
0
100
AcDbBlockEnd
  0
BLOCK
  5
545
330
544
100
AcDbEntity
  8
0
100
AcDbBlockBegin
  2
*D8
 70
     1
 10
0.0
 20
0.0
 30
0.0
  3
*D8
  1

  0
LINE
  5
546
330
544
100
AcDbEntity
  8
0
 62
   123
370
    -2
100
AcDbLine
 10
21824.40565510977
 20
-761.5328114963567
 30
0.0
 11
21812.33717422906
 21
-761.5328114963567
 31
0.0
  0
LINE
  5
547
330
544
100
AcDbEntity
  8
0
 62
   123
370
    -2
100
AcDbLine
 10
21824.40565510977
 20
-750.5328114963567
 30
0.0
 11
21812.33717422906
 21
-750.5328114963567
 31
0.0
  0
LINE
  5
548
330
544
100
AcDbEntity
  8
0
 62
   123
370
    -2
100
AcDbLine
 10
21812.93717422906
 20
-757.5328114963568
 30
0.0
 11
21812.93717422906
 21
-754.5328114963568
 31
0.0
  0
SOLID
  5
549
330
544
100
AcDbEntity
  8
0
 62
   123
100
AcDbTrace
 10
21812.27050756239
 20
-757.5328114963568
 30
0.0
 11
21813.60384089573
 21
-757.5328114963568
 31
0.0
 12
21812.93717422906
 22
-761.5328114963567
 32
0.0
 13
21812.93717422906
 23
-761.5328114963567
 33
0.0
  0
SOLID
  5
54A
330
544
100
AcDbEntity
  8
0
 62
   123
100
AcDbTrace
 10
21812.27050756239
 20
-754.5328114963568
 30
0.0
 11
21813.60384089573
 21
-754.5328114963568
 31
0.0
 12
21812.93717422906
 22
-750.5328114963567
 32
0.0
 13
21812.93717422906
 23
-750.5328114963567
 33
0.0
  0
MTEXT
  5
54B
330
544
100
AcDbEntity
  8
0
 62
     3
100
AcDbMText
 10
21808.93717422906
 20
-756.0328114963567
 30
0.0
 40
5.0
 41
0.0
 71
     5
 72
     1
  1
\A1;11
 11
0.0000000000000001
 21
1.0
 31
0.0
 73
     1
 44
1.0
1001
ACAD
1000
MTEXTBEGIN
1070
    73
1070
     1
1070
    44
1040
1.0
1070
    74
1070
     0
1000
MTEXTEND
  0
POINT
  5
54C
330
544
100
AcDbEntity
  8
Defpoints
 62
     0
100
AcDbPoint
 10
21825.40565510977
 20
-761.5328114963567
 30
0.0
  0
POINT
  5
54D
330
544
100
AcDbEntity
  8
Defpoints
 62
     0
100
AcDbPoint
 10
21825.40565510977
 20
-750.5328114963567
 30
0.0
  0
POINT
  5
54E
330
544
100
AcDbEntity
  8
Defpoints
 62
     0
100
AcDbPoint
 10
21812.93717422906
 20
-750.5328114963567
 30
0.0
  0
ENDBLK
  5
54F
330
544
100
AcDbEntity
  8
0
100
AcDbBlockEnd
  0
BLOCK
  5
557
330
556
100
AcDbEntity
  8
0
100
AcDbBlockBegin
  2
*D9
 70
     1
 10
0.0
 20
0.0
 30
0.0
  3
*D9
  1

  0
LINE
  5
558
330
556
100
AcDbEntity
  8
0
 62
   123
370
    -2
100
AcDbLine
 10
21862.40565510977
 20
-709.5328114963567
 30
0.0
 11
21862.40565510977
 21
-688.2227596969227
 31
0.0
  0
LINE
  5
559
330
556
100
AcDbEntity
  8
0
 62
   123
370
    -2
100
AcDbLine
 10
21869.90565510977
 20
-710.9340741548266
 30
0.0
 11
21869.90565510977
 21
-688.2227596969227
 31
0.0
  0
LINE
  5
55A
330
556
100
AcDbEntity
  8
0
 62
   123
370
    -2
100
AcDbLine
 10
21858.40565510977
 20
-688.8227596969227
 30
0.0
 11
21854.40565510977
 21
-688.8227596969227
 31
0.0
  0
LINE
  5
55B
330
556
100
AcDbEntity
  8
0
 62
   123
370
    -2
100
AcDbLine
 10
21873.90565510977
 20
-688.8227596969227
 30
0.0
 11
21891.38184558596
 21
-688.8227596969227
 31
0.0
  0
LINE
  5
55C
330
556
100
AcDbEntity
  8
0
 62
   123
370
    -2
100
AcDbLine
 10
21862.40565510977
 20
-688.8227596969227
 30
0.0
 11
21869.90565510977
 21
-688.8227596969227
 31
0.0
  0
SOLID
  5
55D
330
556
100
AcDbEntity
  8
0
 62
   123
100
AcDbTrace
 10
21858.40565510977
 20
-688.1560930302561
 30
0.0
 11
21858.40565510977
 21
-689.4894263635893
 31
0.0
 12
21862.40565510977
 22
-688.8227596969227
 32
0.0
 13
21862.40565510977
 23
-688.8227596969227
 33
0.0
  0
SOLID
  5
55E
330
556
100
AcDbEntity
  8
0
 62
   123
100
AcDbTrace
 10
21873.90565510977
 20
-688.1560930302561
 30
0.0
 11
21873.90565510977
 21
-689.4894263635893
 31
0.0
 12
21869.90565510977
 22
-688.8227596969227
 32
0.0
 13
21869.90565510977
 23
-688.8227596969227
 33
0.0
  0
MTEXT
  5
55F
330
556
100
AcDbEntity
  8
0
 62
     3
100
AcDbMText
 10
21884.64375034786
 20
-684.8227596969227
 30
0.0
 40
5.0
 41
0.0
 71
     5
 72
     1
  1
\A1;7.5
 73
     1
 44
1.0
1001
ACAD
1000
MTEXTBEGIN
1070
    73
1070
     1
1070
    44
1040
1.0
1070
    74
1070
     0
1000
MTEXTEND
  0
POINT
  5
560
330
556
100
AcDbEntity
  8
Defpoints
 62
     0
100
AcDbPoint
 10
21862.40565510977
 20
-710.5328114963567
 30
0.0
  0
POINT
  5
561
330
556
100
AcDbEntity
  8
Defpoints
 62
     0
100
AcDbPoint
 10
21869.90565510977
 20
-711.9340741548267
 30
0.0
  0
POINT
  5
562
330
556
100
AcDbEntity
  8
Defpoints
 62
     0
100
AcDbPoint
 10
21869.90565510977
 20
-688.8227596969227
 30
0.0
  0
ENDBLK
  5
563
330
556
100
AcDbEntity
  8
0
100
AcDbBlockEnd
  0
BLOCK
  5
309
330
308
100
AcDbEntity
  8
0
100
AcDbBlockBegin
  2
*D10
 70
     1
 10
0.0
 20
0.0
 30
0.0
  3
*D10
  1

  0
LINE
  5
30A
330
308
100
AcDbEntity
  8
0
 62
   123
370
    -2
100
AcDbLine
 10
21859.40565510977
 20
-714.0328114963567
 30
0.0
 11
21785.21764980426
 21
-714.0328114963567
 31
0.0
  0
LINE
  5
30B
330
308
100
AcDbEntity
  8
0
 62
   123
370
    -2
100
AcDbLine
 10
21859.40565510977
 20
-797.0328114963567
 30
0.0
 11
21785.21764980426
 21
-797.0328114963567
 31
0.0
  0
LINE
  5
30C
330
308
100
AcDbEntity
  8
0
 62
   123
370
    -2
100
AcDbLine
 10
21785.81764980426
 20
-718.0328114963567
 30
0.0
 11
21785.81764980426
 21
-793.0328114963567
 31
0.0
  0
SOLID
  5
30D
330
308
100
AcDbEntity
  8
0
 62
   123
100
AcDbTrace
 10
21785.1509831376
 20
-718.0328114963567
 30
0.0
 11
21786.48431647093
 21
-718.0328114963567
 31
0.0
 12
21785.81764980426
 22
-714.0328114963567
 32
0.0
 13
21785.81764980426
 23
-714.0328114963567
 33
0.0
  0
SOLID
  5
30E
330
308
100
AcDbEntity
  8
0
 62
   123
100
AcDbTrace
 10
21785.1509831376
 20
-793.0328114963567
 30
0.0
 11
21786.48431647093
 21
-793.0328114963567
 31
0.0
 12
21785.81764980426
 22
-797.0328114963567
 32
0.0
 13
21785.81764980426
 23
-797.0328114963567
 33
0.0
  0
MTEXT
  5
30F
330
308
100
AcDbEntity
  8
0
 62
     3
100
AcDbMText
 10
21779.4007331376
 20
-754.1678548636054
 30
0.0
 40
5.0
 41
0.0
 71
     5
 72
     1
  1
\A1;\A1;{\f??|b0|i0|c0|p49;%%C}83{\f??|b0|i0|c0|p49;\H0.7x;\S+0^ -0.035;\H1.429x;(h}7{\f??|b0|i0|c0|p49;)}
 11
0.0000000000000001
 21
1.0
 31
0.0
 73
     1
 44
1.0
1001
ACAD
1000
MTEXTBEGIN
1070
    73
1070
     1
1070
    44
1040
1.0
1070
    74
1070
     0
1000
MTEXTEND
  0
POINT
  5
310
330
308
100
AcDbEntity
  8
Defpoints
 62
     0
100
AcDbPoint
 10
21860.40565510977
 20
-714.0328114963567
 30
0.0
  0
POINT
  5
311
330
308
100
AcDbEntity
  8
Defpoints
 62
     0
100
AcDbPoint
 10
21860.40565510977
 20
-797.0328114963567
 30
0.0
  0
POINT
  5
312
330
308
100
AcDbEntity
  8
Defpoints
 62
     0
100
AcDbPoint
 10
21785.81764980426
 20
-797.0328114963567
 30
0.0
  0
ENDBLK
  5
313
330
308
100
AcDbEntity
  8
0
100
AcDbBlockEnd
  0
BLOCK
  5
A7
330
A6
100
AcDbEntity
  8
0
100
AcDbBlockBegin
  2
*D11
 70
     1
 10
0.0
 20
0.0
 30
0.0
  3
*D11
  1

  0
LINE
  5
A8
330
A6
100
AcDbEntity
  8
0
 62
   123
100
AcDbLine
 10
21796.56195329189
 20
-690.1247425078781
 30
0.0
 11
21756.72336832446
 21
-721.1350440507067
 31
0.0
  0
LINE
  5
A9
330
A6
100
AcDbEntity
  8
0
 62
   123
100
AcDbLine
 10
21668.34251983894
 20
-789.9305789420105
 30
0.0
 11
21665.18606096446
 21
-792.3875623309868
 31
0.0
  0
MTEXT
  5
AA
102
{ACAD_XDICTIONARY
360
5B8
102
}
330
A6
100
AcDbEntity
  8
0
 62
     3
100
AcDbMText
 10
21778.92390579231
 20
-698.7852037422726
 30
0.0
 40
5.0
 41
0.0
 71
     5
 72
     1
  1
\A1;\U+2205104%%P0.5
 11
0.7891147186206872
 21
0.6142458472437512
 31
0.0
 73
     1
 44
1.0
1001
ACAD
1000
MTEXTBEGIN
1070
    73
1070
     1
1070
    44
1040
1.0
1070
    74
1070
     0
1000
MTEXTEND
  0
LINE
  5
AB
330
A6
100
AcDbEntity
  8
0
 62
   123
100
AcDbLine
 10
21671.49897871342
 20
-787.4735955530359
 30
0.0
 11
21753.56690944998
 21
-723.5920274396812
 31
0.0
  0
SOLID
  5
AC
330
A6
100
AcDbEntity
  8
0
 62
   123
100
AcDbTrace
 10
21667.93302260745
 20
-789.4045024629304
 30
0.0
 11
21668.75201707044
 21
-790.4566554210905
 31
0.0
 12
21671.49897871342
 22
-787.4735955530359
 32
0.0
 13
21671.49897871342
 23
-787.4735955530359
 33
0.0
  0
SOLID
  5
AD
330
A6
100
AcDbEntity
  8
0
 62
   123
100
AcDbTrace
 10
21756.31387109297
 20
-720.6089675716266
 30
0.0
 11
21757.13286555596
 21
-721.6611205297867
 31
0.0
 12
21753.56690944998
 22
-723.5920274396812
 32
0.0
 13
21753.56690944998
 23
-723.5920274396812
 33
0.0
  0
POINT
  5
AE
330
A6
100
AcDbEntity
  8
Defpoints
 62
     0
100
AcDbPoint
 10
21753.56690944998
 20
-723.5920274396812
 30
0.0
  0
POINT
  5
AF
330
A6
100
AcDbEntity
  8
Defpoints
 62
     0
100
AcDbPoint
 10
21671.49897871342
 20
-787.4735955530359
 30
0.0
  0
ENDBLK
  5
B0
330
A6
100
AcDbEntity
  8
0
100
AcDbBlockEnd
  0
ENDSEC
  0
SECTION
  2
ENTITIES
  0
LEADER
  5
64
330
2
100
AcDbEntity
  8
0
100
AcDbLeader
  3
STANDARD
 76
     2
 10
21749.32713727813
 20
-715.6136370435497
 30
0.0
 10
21739.5371543352
 20
-691.7965050727152
 30
0.0
1001
ACAD
1000
DSTYLE
1002
{
1070
     5
1000

1002
}
  0
ARC
  5
65
330
2
100
AcDbEntity
  8
0
 48
0.6
100
AcDbCircle
 10
21727.44475805562
 20
-725.295661580284
 30
0.0
 40
3.067967999999999
100
AcDbArc
 50
63.63432749696378
 51
128.0513255192987
  0
ARC
  5
66
330
2
100
AcDbEntity
  8
0
 48
0.6
100
AcDbCircle
 10
21727.44475805562
 20
-785.7699614124221
 30
0.0
 40
3.067967999999999
100
AcDbArc
 50
231.9486744807013
 51
296.3656725030363
  0
MTEXT
  5
67
102
{ACAD_REACTORS
330
64
102
}
330
2
100
AcDbEntity
  8
0
 62
     3
100
AcDbMText
 10
21738.53715433519
 20
-690.7965050727153
 30
0.0
 40
5.0
 41
0.0
 71
     9
 72
     1
  1
4-%%C6.5 hole
 73
     1
 44
1.0
1001
ACAD
1000
MTEXTBEGIN
1070
    73
1070
     1
1070
    44
1040
1.0
1070
    74
1070
     0
1000
MTEXTEND
  0
DIMENSION
  5
68
330
2
100
AcDbEntity
  8
0
100
AcDbDimension
  2
*D3
 10
21757.5329440817
 20
-674.2999247032066
 30
0.0
 11
21712.5329440817
 21
-674.2999247032066
 31
0.0
 70
   128
 71
     5
 42
-1.0
  3
STANDARD
100
AcDbAlignedDimension
 13
21667.5329440817
 23
-715.5756052551524
 33
0.0
 14
21757.5329440817
 24
-715.5756052551524
 34
0.0
100
AcDbRotatedDimension
  0
LINE
  5
76
330
2
100
AcDbEntity
  8
0
  6
CENTER
 62
     1
 48
0.6
100
AcDbLine
 10
21663.2796678673
 20
-755.5328114963567
 30
0.0
 11
21761.7862202961
 21
-755.5328114963567
 31
0.0
  0
CIRCLE
  5
78
330
2
100
AcDbEntity
  8
0
 48
0.6
100
AcDbCircle
 10
21712.5329440817
 20
-755.5328114963567
 30
0.0
 40
43.5
  0
CIRCLE
  5
79
330
2
100
AcDbEntity
  8
0
 48
0.6
100
AcDbCircle
 10
21712.5329440817
 20
-755.5328114963567
 30
0.0
 40
42.00000000000005
  0
CIRCLE
  5
7A
330
2
100
AcDbEntity
  8
0
 48
0.6
100
AcDbCircle
 10
21712.5329440817
 20
-755.5328114963567
 30
0.0
 40
20.0
  0
LINE
  5
7B
330
2
100
AcDbEntity
  8
0
  6
CENTER
 62
     1
 48
0.6
100
AcDbLine
 10
21712.52672641081
 20
-809.1843531394998
 30
0.0
 11
21712.5329440817
 21
-703.763377450371
 31
0.0
  0
ARC
  5
7C
330
2
100
AcDbEntity
  8
0
 48
0.6
100
AcDbCircle
 10
21682.22032985145
 20
-770.520089784456
 30
0.0
 40
3.067967999999999
100
AcDbArc
 50
141.9486744805927
 51
206.3656725032692
  0
ARC
  5
7D
330
2
100
AcDbEntity
  8
0
 48
0.6
100
AcDbCircle
 10
21697.47020147942
 20
-785.7699614124221
 30
0.0
 40
3.067967999999999
100
AcDbArc
 50
243.6343274969638
 51
308.0513255192987
  0
ARC
  5
7E
330
2
100
AcDbEntity
  8
0
 48
0.6
100
AcDbCircle
 10
21712.45747976752
 20
-755.5328114963567
 30
0.0
 40
36.81561599999999
100
AcDbArc
 50
206.3656725032692
 51
243.6343274969638
  0
ARC
  5
7F
330
2
100
AcDbEntity
  8
0
 48
0.6
100
AcDbCircle
 10
21712.45747976752
 20
-755.5328114963567
 30
0.0
 40
33.74764799999999
100
AcDbArc
 50
252.2801918470848
 51
287.7198081529152
  0
ARC
  5
80
330
2
100
AcDbEntity
  8
0
 48
0.6
100
AcDbCircle
 10
21701.25219072746
 20
-790.6017589996418
 30
0.0
 40
3.067967999999999
100
AcDbArc
 50
72.28019184708481
 51
128.0513255192987
  0
ARC
  5
81
330
2
100
AcDbEntity
  8
0
 48
0.6
100
AcDbCircle
 10
21723.66276880758
 20
-790.6017589996418
 30
0.0
 40
3.067967999999999
100
AcDbArc
 50
51.94867448070127
 51
107.7198081529152
  0
ARC
  5
82
330
2
100
AcDbEntity
  8
0
 48
0.6
100
AcDbCircle
 10
21697.47020147942
 20
-725.295661580284
 30
0.0
 40
3.067967999999999
100
AcDbArc
 50
51.94867448070127
 51
116.3656725030362
  0
ARC
  5
83
330
2
100
AcDbEntity
  8
0
 48
0.6
100
AcDbCircle
 10
21682.22032985145
 20
-740.5455332082574
 30
0.0
 40
3.067967999999999
100
AcDbArc
 50
153.6343274967307
 51
218.0513255194073
  0
ARC
  5
84
330
2
100
AcDbEntity
  8
0
 48
0.6
100
AcDbCircle
 10
21712.45747976752
 20
-755.5328114963567
 30
0.0
 40
33.74764799999999
100
AcDbArc
 50
162.2801918475229
 51
197.719808152477
  0
ARC
  5
85
330
2
100
AcDbEntity
  8
0
 48
0.6
100
AcDbCircle
 10
21677.38853226424
 20
-766.7381005364232
 30
0.0
 40
3.067967999999999
100
AcDbArc
 50
321.9486744805927
 51
17.71980815247703
  0
ARC
  5
86
330
2
100
AcDbEntity
  8
0
 48
0.6
100
AcDbCircle
 10
21677.38853226424
 20
-744.3275224562903
 30
0.0
 40
3.067967999999999
100
AcDbArc
 50
342.280191847523
 51
38.05132551940731
  0
ARC
  5
87
330
2
100
AcDbEntity
  8
0
 48
0.6
100
AcDbCircle
 10
21712.45747976752
 20
-755.5328114963567
 30
0.0
 40
36.81561599999999
100
AcDbArc
 50
116.3656725030362
 51
153.6343274967307
  0
CIRCLE
  5
88
330
2
100
AcDbEntity
  8
0
 48
0.6
100
AcDbCircle
 10
21712.5329440817
 20
-755.5328114963567
 30
0.0
 40
6.0
  0
LINE
  5
89
330
2
100
AcDbEntity
  8
0
 48
0.6
100
AcDbLine
 10
21709.21631929134
 20
-750.5328114963567
 30
0.0
 11
21715.84956887206
 21
-750.5328114963567
 31
0.0
  0
ARC
  5
8A
330
2
100
AcDbEntity
  8
0
 48
0.6
100
AcDbCircle
 10
21712.45747976752
 20
-755.5328114963567
 30
0.0
 40
33.74764799999999
100
AcDbArc
 50
72.28019184708481
 51
107.7198081529152
  0
ARC
  5
8B
330
2
100
AcDbEntity
  8
0
 48
0.6
100
AcDbCircle
 10
21701.25219072746
 20
-720.4638639930717
 30
0.0
 40
3.067967999999999
100
AcDbArc
 50
231.9486744807013
 51
287.7198081529152
  0
ARC
  5
8C
330
2
100
AcDbEntity
  8
0
 48
0.6
100
AcDbCircle
 10
21723.66276880758
 20
-720.4638639930717
 30
0.0
 40
3.067967999999999
100
AcDbArc
 50
252.2801918470848
 51
308.0513255192987
  0
LINE
  5
8D
330
2
100
AcDbEntity
  8
0
 62
     3
100
AcDbLine
 10
21703.22297879491
 20
-672.2359907964355
 30
0.0
 11
21706.85297879491
 21
-672.2359907964355
 31
0.0
  0
LINE
  5
8E
330
2
100
AcDbEntity
  8
0
 62
     3
100
AcDbLine
 10
21706.85297879491
 20
-672.2359907964355
 30
0.0
 11
21706.85297879491
 21
-668.3859907964356
 31
0.0
  0
LINE
  5
8F
330
2
100
AcDbEntity
  8
0
 62
     3
100
AcDbLine
 10
21706.85297879491
 20
-668.3859907964356
 30
0.0
 11
21703.22297879491
 21
-668.3859907964356
 31
0.0
  0
LINE
  5
90
330
2
100
AcDbEntity
  8
0
 62
     3
100
AcDbLine
 10
21703.22297879491
 20
-668.3859907964356
 30
0.0
 11
21703.22297879491
 21
-672.2359907964355
 31
0.0
  0
ARC
  5
91
330
2
100
AcDbEntity
  8
0
 48
0.6
100
AcDbCircle
 10
21742.69462968359
 20
-770.520089784456
 30
0.0
 40
3.067967999999999
100
AcDbArc
 50
333.6343274967307
 51
38.05132551940731
  0
ARC
  5
92
330
2
100
AcDbEntity
  8
0
 48
0.6
100
AcDbCircle
 10
21712.45747976752
 20
-755.5328114963567
 30
0.0
 40
36.81561599999999
100
AcDbArc
 50
296.3656725030363
 51
333.6343274967307
  0
ARC
  5
93
330
2
100
AcDbEntity
  8
0
 48
0.6
100
AcDbCircle
 10
21742.69462968359
 20
-740.5455332082574
 30
0.0
 40
3.067967999999999
100
AcDbArc
 50
321.9486744805927
 51
26.36567250326923
  0
ARC
  5
94
330
2
100
AcDbEntity
  8
0
 48
0.6
100
AcDbCircle
 10
21712.45747976752
 20
-755.5328114963567
 30
0.0
 40
33.74764799999999
100
AcDbArc
 50
342.280191847523
 51
17.71980815247703
  0
ARC
  5
95
330
2
100
AcDbEntity
  8
0
 48
0.6
100
AcDbCircle
 10
21747.52642727081
 20
-766.7381005364232
 30
0.0
 40
3.067967999999999
100
AcDbArc
 50
162.2801918475229
 51
218.0513255194073
  0
ARC
  5
96
330
2
100
AcDbEntity
  8
0
 48
0.6
100
AcDbCircle
 10
21747.52642727081
 20
-744.3275224562903
 30
0.0
 40
3.067967999999999
100
AcDbArc
 50
141.9486744805927
 51
197.719808152477
  0
ARC
  5
97
330
2
100
AcDbEntity
  8
0
 48
0.6
100
AcDbCircle
 10
21712.45747976752
 20
-755.5328114963567
 30
0.0
 40
36.81561599999999
100
AcDbArc
 50
26.36567250326923
 51
63.63432749696378
  0
LINE
  5
98
330
2
100
AcDbEntity
  8
0
100
AcDbLine
 10
21672.5329440817
 20
-800.5328114963567
 30
0.0
 11
21752.5329440817
 21
-800.5328114963567
 31
0.0
  0
ARC
  5
99
330
2
100
AcDbEntity
  8
0
100
AcDbCircle
 10
21752.5329440817
 20
-795.5328114963568
 30
0.0
 40
5.0
100
AcDbArc
 50
270.0
 51
0.0
  0
LINE
  5
9A
330
2
100
AcDbEntity
  8
0
100
AcDbLine
 10
21757.5329440817
 20
-795.5328114963568
 30
0.0
 11
21757.5329440817
 21
-715.5328114963567
 31
0.0
  0
ARC
  5
9B
330
2
100
AcDbEntity
  8
0
100
AcDbCircle
 10
21752.5329440817
 20
-715.5328114963567
 30
0.0
 40
5.0
100
AcDbArc
 50
0.0
 51
90.0
  0
LINE
  5
9C
330
2
100
AcDbEntity
  8
0
100
AcDbLine
 10
21752.5329440817
 20
-710.5328114963567
 30
0.0
 11
21672.5329440817
 21
-710.5328114963567
 31
0.0
  0
ARC
  5
9D
330
2
100
AcDbEntity
  8
0
100
AcDbCircle
 10
21672.5329440817
 20
-715.5328114963567
 30
0.0
 40
5.0
100
AcDbArc
 50
90.0
 51
180.0
  0
LINE
  5
9E
330
2
100
AcDbEntity
  8
0
100
AcDbLine
 10
21667.5329440817
 20
-715.5328114963567
 30
0.0
 11
21667.5329440817
 21
-795.5328114963568
 31
0.0
  0
ARC
  5
9F
330
2
100
AcDbEntity
  8
0
100
AcDbCircle
 10
21672.5329440817
 20
-795.5328114963568
 30
0.0
 40
5.0
100
AcDbArc
 50
180.0
 51
270.0
  0
CIRCLE
  5
A0
330
2
100
AcDbEntity
  8
0
100
AcDbCircle
 10
21749.3024967034
 20
-718.7632588746573
 30
0.0
 40
3.25
  0
LINE
  5
A1
330
2
100
AcDbEntity
  8
0
  6
CENTER
 62
     1
 48
0.6
100
AcDbLine
 10
21745.59018610217
 20
-722.4755694758869
 30
0.0
 11
21753.01480730463
 21
-715.0509482734278
 31
0.0
  0
ARC
  5
A2
102
{ACAD_REACTORS
330
A5
102
}
330
2
100
AcDbEntity
  8
0
  6
CENTER
 62
     1
 48
0.6
100
AcDbCircle
 10
21712.5329440817
 20
-755.5328114963567
 30
0.0
 40
51.9999999999996
100
AcDbArc
 50
35.90024337545622
 51
54.0997566248103
  0
DIMENSION
  5
A3
102
{ACAD_XDICTIONARY
360
A4
102
}
102
{ACAD_REACTORS
330
A5
102
}
330
2
100
AcDbEntity
  8
0
100
AcDbDimension
  2
*D11
 10
21671.49897871342
 20
-787.4735955530359
 30
0.0
 11
21781.38088918129
 21
-701.9416626167567
 31
0.0
 70
   131
  1
<>%%P0.5
 71
     5
 42
-1.0
  3
STANDARD
100
AcDbDiametricDimension
 15
21753.56690944998
 25
-723.5920274396812
 35
0.0
 40
0.0
1001
ACAD
1000
DSTYLE
1002
{
1070
   287
1070
     4
1070
   287
1070
     4
1070
   287
1070
     4
1070
   287
1070
     4
1070
   287
1070
     4
1070
   287
1070
     4
1070
   279
1070
     1
1070
   289
1070
     3
1002
}
  0
ARC
  5
B1
330
2
100
AcDbEntity
  8
0
  6
CENTER
 62
     1
 48
0.6
100
AcDbCircle
 10
21712.5329440817
 20
-755.5328114963567
 30
0.0
 40
52.0
100
AcDbArc
 50
129.2128702779166
 51
140.787129721866
  0
LINE
  5
B2
330
2
100
AcDbEntity
  8
0
  6
CENTER
 62
     1
 48
0.6
100
AcDbLine
 10
21679.47570206123
 20
-722.4755694758869
 30
0.0
 11
21672.05108085877
 21
-715.0509482734278
 31
0.0
  0
CIRCLE
  5
B3
330
2
100
AcDbEntity
  8
0
100
AcDbCircle
 10
21675.76339146
 20
-718.7632588746573
 30
0.0
 40
3.25
  0
LINE
  5
B4
330
2
100
AcDbEntity
  8
0
  6
CENTER
 62
     1
 48
0.6
100
AcDbLine
 10
21679.47570206123
 20
-788.5900535168266
 30
0.0
 11
21672.05108085877
 21
-796.0146747192857
 31
0.0
  0
CIRCLE
  5
B5
330
2
100
AcDbEntity
  8
0
100
AcDbCircle
 10
21675.76339146
 20
-792.3023641180561
 30
0.0
 40
3.25
  0
ARC
  5
B6
330
2
100
AcDbEntity
  8
0
  6
CENTER
 62
     1
 48
0.6
100
AcDbCircle
 10
21712.5329440817
 20
-755.5328114963567
 30
0.0
 40
51.9999999999996
100
AcDbArc
 50
215.9002433754562
 51
234.0997566248103
  0
ARC
  5
B7
330
2
100
AcDbEntity
  8
0
  6
CENTER
 62
     1
 48
0.6
100
AcDbCircle
 10
21712.5329440817
 20
-755.5328114963567
 30
0.0
 40
52.0
100
AcDbArc
 50
309.2128702779166
 51
320.7871297218659
  0
LINE
  5
B8
330
2
100
AcDbEntity
  8
0
  6
CENTER
 62
     1
 48
0.6
100
AcDbLine
 10
21745.59018610217
 20
-788.5900535168266
 30
0.0
 11
21753.01480730463
 21
-796.0146747192857
 31
0.0
  0
CIRCLE
  5
B9
330
2
100
AcDbEntity
  8
0
100
AcDbCircle
 10
21749.3024967034
 20
-792.3023641180561
 30
0.0
 40
3.25
  0
LINE
  5
BA
330
2
100
AcDbEntity
  8
0
  6
CENTER
 62
     1
 48
0.6
100
AcDbLine
 10
21731.17255438849
 20
-800.5328114963422
 30
0.0
 11
21712.53294408169
 21
-755.5328114963494
 31
0.0
  0
DIMENSION
  5
BB
330
2
100
AcDbEntity
  8
0
 48
0.6
100
AcDbDimension
  2
*D4
 10
21712.52672641081
 20
-701.9240636119948
 30
0.0
 11
21725.79144242443
 21
-822.2198946893277
 31
0.0
 70
     2
  1
<>
 71
     5
 42
-1.0
  3
STANDARD
100
AcDb2LineAngularDimension
 13
21712.52672641081
 23
-755.5542083757472
 33
0.0
 14
21731.17255438849
 24
-800.5542083757401
 34
0.0
 15
21712.52672641081
 25
-809.1843531394998
 35
0.0
 16
21721.98600714068
 26
-827.382759796932
 36
0.0
1001
ACAD
1000
DSTYLE
1002
{
1070
   271
1070
     1
1070
   271
1070
     1
1070
   271
1070
     1
1070
   271
1070
     1
1070
   271
1070
     1
1070
   271
1070
     1
1070
   271
1070
     1
1002
}
  0
LINE
  5
CA
330
2
100
AcDbEntity
  8
0
 62
   123
100
AcDbLine
 10
21739.5371543352
 20
-691.7965050727152
 30
0.0
 11
21694.27929916877
 21
-691.7965050727152
 31
0.0
  0
ARC
  5
CB
330
2
100
AcDbEntity
  8
0
 48
0.6
100
AcDbCircle
 10
21830.91767396321
 20
-746.4065370219668
 30
0.0
 40
116.9686661741608
100
AcDbArc
 50
210.1560153535602
 51
216.2412691602647
  0
LINE
  5
CC
330
2
100
AcDbEntity
  8
0
100
AcDbLine
 10
21729.77946471863
 20
-805.1664850934411
 30
0.0
 11
21736.27159606417
 21
-802.2758851167109
 31
0.0
  0
ARC
  5
CD
330
2
100
AcDbEntity
  8
0
 48
0.6
100
AcDbCircle
 10
21764.68914892915
 20
-786.2222588478198
 30
0.0
 40
39.155792
100
AcDbArc
 50
201.4369589999597
 51
208.5517089162833
  0
ARC
  5
CE
330
2
100
AcDbEntity
  8
0
 48
0.6
100
AcDbCircle
 10
21697.35685837894
 20
-814.1215101131983
 30
0.0
 40
39.155792
100
AcDbArc
 50
16.6539105076228
 51
20.3064880059547
  0
ARC
  5
CF
330
2
100
AcDbEntity
  8
0
 48
0.6
100
AcDbCircle
 10
21818.85921874715
 20
-753.6329046919654
 30
0.0
 40
95.84808274048764
100
AcDbArc
 50
210.4975034246346
 51
218.0575295674929
  0
LINE
  5
D0
330
2
100
AcDbEntity
  8
0
100
AcDbLine
 10
21736.57838590539
 20
-815.5568630899306
 30
0.0
 11
21736.5814013205
 21
-815.5422896751497
 31
0.0
  0
LINE
  5
D1
330
2
100
AcDbEntity
  8
0
100
AcDbLine
 10
21736.5814013205
 20
-815.5422896751497
 30
0.0
 11
21736.58494977183
 21
-815.5256299864795
 31
0.0
  0
LINE
  5
D2
330
2
100
AcDbEntity
  8
0
100
AcDbLine
 10
21736.58494977183
 20
-815.5256299864795
 30
0.0
 11
21736.58857719001
 21
-815.5090769410108
 31
0.0
  0
LINE
  5
D3
330
2
100
AcDbEntity
  8
0
100
AcDbLine
 10
21736.58857719001
 20
-815.5090769410108
 30
0.0
 11
21736.59228332029
 21
-815.4926301828799
 31
0.0
  0
LINE
  5
D4
330
2
100
AcDbEntity
  8
0
100
AcDbLine
 10
21736.59228332029
 20
-815.4926301828799
 30
0.0
 11
21736.5960679079
 21
-815.4762893562018
 31
0.0
  0
LINE
  5
D5
330
2
100
AcDbEntity
  8
0
100
AcDbLine
 10
21736.5960679079
 20
-815.4762893562018
 30
0.0
 11
21736.5999306981
 21
-815.4600541051131
 31
0.0
  0
LINE
  5
D6
330
2
100
AcDbEntity
  8
0
100
AcDbLine
 10
21736.5999306981
 20
-815.4600541051131
 30
0.0
 11
21736.60387143613
 21
-815.4439240737392
 31
0.0
  0
LINE
  5
D7
330
2
100
AcDbEntity
  8
0
100
AcDbLine
 10
21736.60387143613
 20
-815.4439240737392
 30
0.0
 11
21736.60788986722
 21
-815.4278989062023
 31
0.0
  0
LINE
  5
D8
330
2
100
AcDbEntity
  8
0
100
AcDbLine
 10
21736.60788986722
 20
-815.4278989062023
 30
0.0
 11
21736.61198573662
 21
-815.4119782466313
 31
0.0
  0
LINE
  5
D9
330
2
100
AcDbEntity
  8
0
100
AcDbLine
 10
21736.61198573662
 20
-815.4119782466313
 30
0.0
 11
21736.61615878957
 21
-815.3961617391596
 31
0.0
  0
LINE
  5
DA
330
2
100
AcDbEntity
  8
0
100
AcDbLine
 10
21736.61615878957
 20
-815.3961617391596
 30
0.0
 11
21736.62040877131
 21
-815.3804490279089
 31
0.0
  0
LINE
  5
DB
330
2
100
AcDbEntity
  8
0
100
AcDbLine
 10
21736.62040877131
 20
-815.3804490279089
 30
0.0
 11
21736.62473542709
 21
-815.3648397570014
 31
0.0
  0
LINE
  5
DC
330
2
100
AcDbEntity
  8
0
100
AcDbLine
 10
21736.62473542709
 20
-815.3648397570014
 30
0.0
 11
21736.62913850215
 21
-815.3493335705734
 31
0.0
  0
LINE
  5
DD
330
2
100
AcDbEntity
  8
0
100
AcDbLine
 10
21736.62913850215
 20
-815.3493335705734
 30
0.0
 11
21736.63361774174
 21
-815.3339301127507
 31
0.0
  0
LINE
  5
DE
330
2
100
AcDbEntity
  8
0
100
AcDbLine
 10
21736.63361774174
 20
-815.3339301127507
 30
0.0
 11
21736.63817289108
 21
-815.3186290276552
 31
0.0
  0
LINE
  5
DF
330
2
100
AcDbEntity
  8
0
100
AcDbLine
 10
21736.63817289108
 20
-815.3186290276552
 30
0.0
 11
21736.64280369544
 21
-815.3034299594164
 31
0.0
  0
LINE
  5
E0
330
2
100
AcDbEntity
  8
0
100
AcDbLine
 10
21736.64280369544
 20
-815.3034299594164
 30
0.0
 11
21736.64750990004
 21
-815.2883325521671
 31
0.0
  0
LINE
  5
E1
330
2
100
AcDbEntity
  8
0
100
AcDbLine
 10
21736.64750990004
 20
-815.2883325521671
 30
0.0
 11
21736.65229125014
 21
-815.2733364500255
 31
0.0
  0
LINE
  5
E2
330
2
100
AcDbEntity
  8
0
100
AcDbLine
 10
21736.65229125014
 20
-815.2733364500255
 30
0.0
 11
21736.65714749096
 21
-815.258441297121
 31
0.0
  0
LINE
  5
E3
330
2
100
AcDbEntity
  8
0
100
AcDbLine
 10
21736.65714749096
 20
-815.258441297121
 30
0.0
 11
21736.66207836777
 21
-815.2436467375901
 31
0.0
  0
LINE
  5
E4
330
2
100
AcDbEntity
  8
0
100
AcDbLine
 10
21736.66207836777
 20
-815.2436467375901
 30
0.0
 11
21736.6670836258
 21
-815.228952415544
 31
0.0
  0
LINE
  5
E5
330
2
100
AcDbEntity
  8
0
100
AcDbLine
 10
21736.6670836258
 20
-815.228952415544
 30
0.0
 11
21736.67216301028
 21
-815.2143579751227
 31
0.0
  0
LINE
  5
E6
330
2
100
AcDbEntity
  8
0
100
AcDbLine
 10
21736.67216301028
 20
-815.2143579751227
 30
0.0
 11
21736.67731626647
 21
-815.1998630604449
 31
0.0
  0
LINE
  5
E7
330
2
100
AcDbEntity
  8
0
100
AcDbLine
 10
21736.67731626647
 20
-815.1998630604449
 30
0.0
 11
21736.68254313961
 21
-815.1854673156432
 31
0.0
  0
LINE
  5
E8
330
2
100
AcDbEntity
  8
0
100
AcDbLine
 10
21736.68254313961
 20
-815.1854673156432
 30
0.0
 11
21736.68784337493
 21
-815.1711703848468
 31
0.0
  0
LINE
  5
E9
330
2
100
AcDbEntity
  8
0
100
AcDbLine
 10
21736.68784337493
 20
-815.1711703848468
 30
0.0
 11
21736.69321671769
 21
-815.1569719121781
 31
0.0
  0
LINE
  5
EA
330
2
100
AcDbEntity
  8
0
100
AcDbLine
 10
21736.69321671769
 20
-815.1569719121781
 30
0.0
 11
21736.69866291312
 21
-815.1428715417623
 31
0.0
  0
LINE
  5
EB
330
2
100
AcDbEntity
  8
0
100
AcDbLine
 10
21736.69866291312
 20
-815.1428715417623
 30
0.0
 11
21736.70418170647
 21
-815.1288689177327
 31
0.0
  0
LINE
  5
EC
330
2
100
AcDbEntity
  8
0
100
AcDbLine
 10
21736.70418170647
 20
-815.1288689177327
 30
0.0
 11
21736.70977284298
 21
-815.1149636842109
 31
0.0
  0
LINE
  5
ED
330
2
100
AcDbEntity
  8
0
100
AcDbLine
 10
21736.70977284298
 20
-815.1149636842109
 30
0.0
 11
21736.71543606789
 21
-815.1011554853266
 31
0.0
  0
LINE
  5
EE
330
2
100
AcDbEntity
  8
0
100
AcDbLine
 10
21736.71543606789
 20
-815.1011554853266
 30
0.0
 11
21736.72117112645
 21
-815.0874439652053
 31
0.0
  0
LINE
  5
EF
330
2
100
AcDbEntity
  8
0
100
AcDbLine
 10
21736.72117112645
 20
-815.0874439652053
 30
0.0
 11
21736.72697776389
 21
-815.0738287679796
 31
0.0
  0
LINE
  5
F0
330
2
100
AcDbEntity
  8
0
100
AcDbLine
 10
21736.72697776389
 20
-815.0738287679796
 30
0.0
 11
21736.73285572546
 21
-815.0603095377718
 31
0.0
  0
LINE
  5
F1
330
2
100
AcDbEntity
  8
0
100
AcDbLine
 10
21736.73285572546
 20
-815.0603095377718
 30
0.0
 11
21736.7388047564
 21
-815.0468859187112
 31
0.0
  0
LINE
  5
F2
330
2
100
AcDbEntity
  8
0
100
AcDbLine
 10
21736.7388047564
 20
-815.0468859187112
 30
0.0
 11
21736.74482460196
 21
-815.0335575549197
 31
0.0
  0
LINE
  5
F3
330
2
100
AcDbEntity
  8
0
100
AcDbLine
 10
21736.74482460196
 20
-815.0335575549197
 30
0.0
 11
21736.75091500737
 21
-815.0203240905339
 31
0.0
  0
LINE
  5
F4
330
2
100
AcDbEntity
  8
0
100
AcDbLine
 10
21736.75091500737
 20
-815.0203240905339
 30
0.0
 11
21736.75707571788
 21
-815.007185169672
 31
0.0
  0
LINE
  5
F5
330
2
100
AcDbEntity
  8
0
100
AcDbLine
 10
21736.75707571788
 20
-815.007185169672
 30
0.0
 11
21736.76330647873
 21
-814.9941404364636
 31
0.0
  0
LINE
  5
F6
330
2
100
AcDbEntity
  8
0
100
AcDbLine
 10
21736.76330647873
 20
-814.9941404364636
 30
0.0
 11
21736.76960703518
 21
-814.9811895350376
 31
0.0
  0
LINE
  5
F7
330
2
100
AcDbEntity
  8
0
100
AcDbLine
 10
21736.76960703518
 20
-814.9811895350376
 30
0.0
 11
21736.77597713244
 21
-814.9683321095235
 31
0.0
  0
LINE
  5
F8
330
2
100
AcDbEntity
  8
0
100
AcDbLine
 10
21736.77597713244
 20
-814.9683321095235
 30
0.0
 11
21736.78241651577
 21
-814.9555678040433
 31
0.0
  0
LINE
  5
F9
330
2
100
AcDbEntity
  8
0
100
AcDbLine
 10
21736.78241651577
 20
-814.9555678040433
 30
0.0
 11
21736.78892493042
 21
-814.9428962627261
 31
0.0
  0
LINE
  5
FA
330
2
100
AcDbEntity
  8
0
100
AcDbLine
 10
21736.78892493042
 20
-814.9428962627261
 30
0.0
 11
21736.79550212162
 21
-814.9303171297015
 31
0.0
  0
LINE
  5
FB
330
2
100
AcDbEntity
  8
0
100
AcDbLine
 10
21736.79550212162
 20
-814.9303171297015
 30
0.0
 11
21736.80214783462
 21
-814.9178300490913
 31
0.0
  0
LINE
  5
FC
330
2
100
AcDbEntity
  8
0
100
AcDbLine
 10
21736.80214783462
 20
-814.9178300490913
 30
0.0
 11
21736.80886181465
 21
-814.9054346650245
 31
0.0
  0
LINE
  5
FD
330
2
100
AcDbEntity
  8
0
100
AcDbLine
 10
21736.80886181465
 20
-814.9054346650245
 30
0.0
 11
21736.81564380697
 21
-814.8931306216345
 31
0.0
  0
LINE
  5
FE
330
2
100
AcDbEntity
  8
0
100
AcDbLine
 10
21736.81564380697
 20
-814.8931306216345
 30
0.0
 11
21736.82249355681
 21
-814.8809175630395
 31
0.0
  0
LINE
  5
FF
330
2
100
AcDbEntity
  8
0
100
AcDbLine
 10
21736.82249355681
 20
-814.8809175630395
 30
0.0
 11
21736.82941080942
 21
-814.8687951333723
 31
0.0
  0
LINE
  5
100
330
2
100
AcDbEntity
  8
0
100
AcDbLine
 10
21736.82941080942
 20
-814.8687951333723
 30
0.0
 11
21736.83639531004
 21
-814.8567629767585
 31
0.0
  0
LINE
  5
101
330
2
100
AcDbEntity
  8
0
100
AcDbLine
 10
21736.83639531004
 20
-814.8567629767585
 30
0.0
 11
21736.84344680391
 21
-814.844820737324
 31
0.0
  0
LINE
  5
102
330
2
100
AcDbEntity
  8
0
100
AcDbLine
 10
21736.84344680391
 20
-814.844820737324
 30
0.0
 11
21736.85056503627
 21
-814.8329680591942
 31
0.0
  0
LINE
  5
103
330
2
100
AcDbEntity
  8
0
100
AcDbLine
 10
21736.85056503627
 20
-814.8329680591942
 30
0.0
 11
21736.85774975237
 21
-814.8212045865056
 31
0.0
  0
LINE
  5
104
330
2
100
AcDbEntity
  8
0
100
AcDbLine
 10
21736.85774975237
 20
-814.8212045865056
 30
0.0
 11
21736.86500069746
 21
-814.8095299633732
 31
0.0
  0
LINE
  5
105
330
2
100
AcDbEntity
  8
0
100
AcDbLine
 10
21736.86500069746
 20
-814.8095299633732
 30
0.0
 11
21736.87231761675
 21
-814.7979438339334
 31
0.0
  0
LINE
  5
106
330
2
100
AcDbEntity
  8
0
100
AcDbLine
 10
21736.87231761675
 20
-814.7979438339334
 30
0.0
 11
21736.87970025552
 21
-814.7864458423082
 31
0.0
  0
LINE
  5
107
330
2
100
AcDbEntity
  8
0
100
AcDbLine
 10
21736.87970025552
 20
-814.7864458423082
 30
0.0
 11
21736.88714835899
 21
-814.7750356326268
 31
0.0
  0
LINE
  5
108
330
2
100
AcDbEntity
  8
0
100
AcDbLine
 10
21736.88714835899
 20
-814.7750356326268
 30
0.0
 11
21736.89466167241
 21
-814.7637128490151
 31
0.0
  0
LINE
  5
109
330
2
100
AcDbEntity
  8
0
100
AcDbLine
 10
21736.89466167241
 20
-814.7637128490151
 30
0.0
 11
21736.90223994103
 21
-814.7524771356019
 31
0.0
  0
LINE
  5
10A
330
2
100
AcDbEntity
  8
0
100
AcDbLine
 10
21736.90223994103
 20
-814.7524771356019
 30
0.0
 11
21736.90988291007
 21
-814.7413281365098
 31
0.0
  0
LINE
  5
10B
330
2
100
AcDbEntity
  8
0
100
AcDbLine
 10
21736.90988291007
 20
-814.7413281365098
 30
0.0
 11
21736.9175903248
 21
-814.7302654958748
 31
0.0
  0
LINE
  5
10C
330
2
100
AcDbEntity
  8
0
100
AcDbLine
 10
21736.9175903248
 20
-814.7302654958748
 30
0.0
 11
21736.92536193044
 21
-814.7192888578157
 31
0.0
  0
LINE
  5
10D
330
2
100
AcDbEntity
  8
0
100
AcDbLine
 10
21736.92536193044
 20
-814.7192888578157
 30
0.0
 11
21736.93319747225
 21
-814.7083978664614
 31
0.0
  0
LINE
  5
10E
330
2
100
AcDbEntity
  8
0
100
AcDbLine
 10
21736.93319747225
 20
-814.7083978664614
 30
0.0
 11
21736.94109669546
 21
-814.697592165945
 31
0.0
  0
LINE
  5
10F
330
2
100
AcDbEntity
  8
0
100
AcDbLine
 10
21736.94109669546
 20
-814.697592165945
 30
0.0
 11
21736.94905934531
 21
-814.6868714003884
 31
0.0
  0
LINE
  5
110
330
2
100
AcDbEntity
  8
0
100
AcDbLine
 10
21736.94905934531
 20
-814.6868714003884
 30
0.0
 11
21736.95708516706
 21
-814.6762352139139
 31
0.0
  0
LINE
  5
111
330
2
100
AcDbEntity
  8
0
100
AcDbLine
 10
21736.95708516706
 20
-814.6762352139139
 30
0.0
 11
21736.96517390594
 21
-814.6656832506577
 31
0.0
  0
LINE
  5
112
330
2
100
AcDbEntity
  8
0
100
AcDbLine
 10
21736.96517390594
 20
-814.6656832506577
 30
0.0
 11
21736.97332530719
 21
-814.6552151547457
 31
0.0
  0
LINE
  5
113
330
2
100
AcDbEntity
  8
0
100
AcDbLine
 10
21736.97332530719
 20
-814.6552151547457
 30
0.0
 11
21736.98153911606
 21
-814.6448305702998
 31
0.0
  0
LINE
  5
114
330
2
100
AcDbEntity
  8
0
100
AcDbLine
 10
21736.98153911606
 20
-814.6448305702998
 30
0.0
 11
21736.98981507778
 21
-814.634529141449
 31
0.0
  0
LINE
  5
115
330
2
100
AcDbEntity
  8
0
100
AcDbLine
 10
21736.98981507778
 20
-814.634529141449
 30
0.0
 11
21736.99815293761
 21
-814.6243105123231
 31
0.0
  0
LINE
  5
116
330
2
100
AcDbEntity
  8
0
100
AcDbLine
 10
21736.99815293761
 20
-814.6243105123231
 30
0.0
 11
21737.00655244079
 21
-814.6141743270472
 31
0.0
  0
LINE
  5
117
330
2
100
AcDbEntity
  8
0
100
AcDbLine
 10
21737.00655244079
 20
-814.6141743270472
 30
0.0
 11
21737.01501333255
 21
-814.604120229751
 31
0.0
  0
LINE
  5
118
330
2
100
AcDbEntity
  8
0
100
AcDbLine
 10
21737.01501333255
 20
-814.604120229751
 30
0.0
 11
21737.02353535814
 21
-814.5941478645564
 31
0.0
  0
LINE
  5
119
330
2
100
AcDbEntity
  8
0
100
AcDbLine
 10
21737.02353535814
 20
-814.5941478645564
 30
0.0
 11
21737.0321182628
 21
-814.5842568755924
 31
0.0
  0
LINE
  5
11A
330
2
100
AcDbEntity
  8
0
100
AcDbLine
 10
21737.0321182628
 20
-814.5842568755924
 30
0.0
 11
21737.04076179178
 21
-814.5744469069922
 31
0.0
  0
LINE
  5
11B
330
2
100
AcDbEntity
  8
0
100
AcDbLine
 10
21737.04076179178
 20
-814.5744469069922
 30
0.0
 11
21737.04946569031
 21
-814.5647176028742
 31
0.0
  0
LINE
  5
11C
330
2
100
AcDbEntity
  8
0
100
AcDbLine
 10
21737.04946569031
 20
-814.5647176028742
 30
0.0
 11
21737.05822970364
 21
-814.5550686073711
 31
0.0
  0
LINE
  5
11D
330
2
100
AcDbEntity
  8
0
100
AcDbLine
 10
21737.05822970364
 20
-814.5550686073711
 30
0.0
 11
21737.06705357702
 21
-814.5454995646087
 31
0.0
  0
LINE
  5
11E
330
2
100
AcDbEntity
  8
0
100
AcDbLine
 10
21737.06705357702
 20
-814.5454995646087
 30
0.0
 11
21737.07593705567
 21
-814.5360101187161
 31
0.0
  0
LINE
  5
11F
330
2
100
AcDbEntity
  8
0
100
AcDbLine
 10
21737.07593705567
 20
-814.5360101187161
 30
0.0
 11
21737.08487988486
 21
-814.5265999138155
 31
0.0
  0
LINE
  5
120
330
2
100
AcDbEntity
  8
0
100
AcDbLine
 10
21737.08487988486
 20
-814.5265999138155
 30
0.0
 11
21737.09388180981
 21
-814.5172685940361
 31
0.0
  0
LINE
  5
121
330
2
100
AcDbEntity
  8
0
100
AcDbLine
 10
21737.09388180981
 20
-814.5172685940361
 30
0.0
 11
21737.10294257577
 21
-814.5080158035071
 31
0.0
  0
LINE
  5
122
330
2
100
AcDbEntity
  8
0
100
AcDbLine
 10
21737.10294257577
 20
-814.5080158035071
 30
0.0
 11
21737.112061928
 21
-814.4988411863542
 31
0.0
  0
LINE
  5
123
330
2
100
AcDbEntity
  8
0
100
AcDbLine
 10
21737.112061928
 20
-814.4988411863542
 30
0.0
 11
21737.12123961171
 21
-814.4897443867066
 31
0.0
  0
LINE
  5
124
330
2
100
AcDbEntity
  8
0
100
AcDbLine
 10
21737.12123961171
 20
-814.4897443867066
 30
0.0
 11
21737.13047537217
 21
-814.4807250486865
 31
0.0
  0
LINE
  5
125
330
2
100
AcDbEntity
  8
0
100
AcDbLine
 10
21737.13047537217
 20
-814.4807250486865
 30
0.0
 11
21737.1397689546
 21
-814.471782816423
 31
0.0
  0
LINE
  5
126
330
2
100
AcDbEntity
  8
0
100
AcDbLine
 10
21737.1397689546
 20
-814.471782816423
 30
0.0
 11
21737.14912010426
 21
-814.462917334049
 31
0.0
  0
LINE
  5
127
330
2
100
AcDbEntity
  8
0
100
AcDbLine
 10
21737.14912010426
 20
-814.462917334049
 30
0.0
 11
21737.1585285664
 21
-814.4541282456829
 31
0.0
  0
LINE
  5
128
330
2
100
AcDbEntity
  8
0
100
AcDbLine
 10
21737.1585285664
 20
-814.4541282456829
 30
0.0
 11
21737.16799408623
 21
-814.4454151954578
 31
0.0
  0
LINE
  5
129
330
2
100
AcDbEntity
  8
0
100
AcDbLine
 10
21737.16799408623
 20
-814.4454151954578
 30
0.0
 11
21737.17751640902
 21
-814.4367778274991
 31
0.0
  0
LINE
  5
12A
330
2
100
AcDbEntity
  8
0
100
AcDbLine
 10
21737.17751640902
 20
-814.4367778274991
 30
0.0
 11
21737.18709528001
 21
-814.4282157859324
 31
0.0
  0
LINE
  5
12B
330
2
100
AcDbEntity
  8
0
100
AcDbLine
 10
21737.18709528001
 20
-814.4282157859324
 30
0.0
 11
21737.19673044442
 21
-814.4197287148871
 31
0.0
  0
LINE
  5
12C
330
2
100
AcDbEntity
  8
0
100
AcDbLine
 10
21737.19673044442
 20
-814.4197287148871
 30
0.0
 11
21737.20642164752
 21
-814.411316258489
 31
0.0
  0
LINE
  5
12D
330
2
100
AcDbEntity
  8
0
100
AcDbLine
 10
21737.20642164752
 20
-814.411316258489
 30
0.0
 11
21737.21616863454
 21
-814.4029780608635
 31
0.0
  0
LINE
  5
12E
330
2
100
AcDbEntity
  8
0
100
AcDbLine
 10
21737.21616863454
 20
-814.4029780608635
 30
0.0
 11
21737.22597115073
 21
-814.394713766147
 31
0.0
  0
LINE
  5
12F
330
2
100
AcDbEntity
  8
0
100
AcDbLine
 10
21737.22597115073
 20
-814.394713766147
 30
0.0
 11
21737.23582894132
 21
-814.3865230184546
 31
0.0
  0
LINE
  5
130
330
2
100
AcDbEntity
  8
0
100
AcDbLine
 10
21737.23582894132
 20
-814.3865230184546
 30
0.0
 11
21737.24574175157
 21
-814.3784054619191
 31
0.0
  0
LINE
  5
131
330
2
100
AcDbEntity
  8
0
100
AcDbLine
 10
21737.24574175157
 20
-814.3784054619191
 30
0.0
 11
21737.2557093267
 21
-814.370360740666
 31
0.0
  0
LINE
  5
132
330
2
100
AcDbEntity
  8
0
100
AcDbLine
 10
21737.2557093267
 20
-814.370360740666
 30
0.0
 11
21737.26573141197
 21
-814.362388498821
 31
0.0
  0
LINE
  5
133
330
2
100
AcDbEntity
  8
0
100
AcDbLine
 10
21737.26573141197
 20
-814.362388498821
 30
0.0
 11
21737.27580775261
 21
-814.3544883805171
 31
0.0
  0
LINE
  5
134
330
2
100
AcDbEntity
  8
0
100
AcDbLine
 10
21737.27580775261
 20
-814.3544883805171
 30
0.0
 11
21737.28593809387
 21
-814.3466600298797
 31
0.0
  0
LINE
  5
135
330
2
100
AcDbEntity
  8
0
100
AcDbLine
 10
21737.28593809387
 20
-814.3466600298797
 30
0.0
 11
21737.296122181
 21
-814.3389030910311
 31
0.0
  0
LINE
  5
136
330
2
100
AcDbEntity
  8
0
100
AcDbLine
 10
21737.296122181
 20
-814.3389030910311
 30
0.0
 11
21737.30635975923
 21
-814.331217208104
 31
0.0
  0
LINE
  5
137
330
2
100
AcDbEntity
  8
0
100
AcDbLine
 10
21737.30635975923
 20
-814.331217208104
 30
0.0
 11
21737.31665057381
 21
-814.3236020252242
 31
0.0
  0
LINE
  5
138
330
2
100
AcDbEntity
  8
0
100
AcDbLine
 10
21737.31665057381
 20
-814.3236020252242
 30
0.0
 11
21737.32699436997
 21
-814.3160571865136
 31
0.0
  0
LINE
  5
139
330
2
100
AcDbEntity
  8
0
100
AcDbLine
 10
21737.32699436997
 20
-814.3160571865136
 30
0.0
 11
21737.33739089297
 21
-814.3085823361053
 31
0.0
  0
LINE
  5
13A
330
2
100
AcDbEntity
  8
0
100
AcDbLine
 10
21737.33739089297
 20
-814.3085823361053
 30
0.0
 11
21737.34783988805
 21
-814.3011771181246
 31
0.0
  0
LINE
  5
13B
330
2
100
AcDbEntity
  8
0
100
AcDbLine
 10
21737.34783988805
 20
-814.3011771181246
 30
0.0
 11
21737.35834110043
 21
-814.2938411766973
 31
0.0
  0
LINE
  5
13C
330
2
100
AcDbEntity
  8
0
100
AcDbLine
 10
21737.35834110043
 20
-814.2938411766973
 30
0.0
 11
21737.36889427538
 21
-814.2865741559562
 31
0.0
  0
LINE
  5
13D
330
2
100
AcDbEntity
  8
0
100
AcDbLine
 10
21737.36889427538
 20
-814.2865741559562
 30
0.0
 11
21737.37949915813
 21
-814.27937570002
 31
0.0
  0
LINE
  5
13E
330
2
100
AcDbEntity
  8
0
100
AcDbLine
 10
21737.37949915813
 20
-814.27937570002
 30
0.0
 11
21737.39015549393
 21
-814.2722454530249
 31
0.0
  0
LINE
  5
13F
330
2
100
AcDbEntity
  8
0
100
AcDbLine
 10
21737.39015549393
 20
-814.2722454530249
 30
0.0
 11
21737.400863028
 21
-814.2651830590894
 31
0.0
  0
LINE
  5
140
330
2
100
AcDbEntity
  8
0
100
AcDbLine
 10
21737.400863028
 20
-814.2651830590894
 30
0.0
 11
21737.41162150562
 21
-814.2581881623428
 31
0.0
  0
LINE
  5
141
330
2
100
AcDbEntity
  8
0
100
AcDbLine
 10
21737.41162150562
 20
-814.2581881623428
 30
0.0
 11
21737.42243067199
 21
-814.2512604069215
 31
0.0
  0
LINE
  5
142
330
2
100
AcDbEntity
  8
0
100
AcDbLine
 10
21737.42243067199
 20
-814.2512604069215
 30
0.0
 11
21737.4332902724
 21
-814.2443994369404
 31
0.0
  0
LINE
  5
143
330
2
100
AcDbEntity
  8
0
100
AcDbLine
 10
21737.4332902724
 20
-814.2443994369404
 30
0.0
 11
21737.44420005205
 21
-814.2376048965289
 31
0.0
  0
LINE
  5
144
330
2
100
AcDbEntity
  8
0
100
AcDbLine
 10
21737.44420005205
 20
-814.2376048965289
 30
0.0
 11
21737.4551597562
 21
-814.2308764298196
 31
0.0
  0
LINE
  5
145
330
2
100
AcDbEntity
  8
0
100
AcDbLine
 10
21737.4551597562
 20
-814.2308764298196
 30
0.0
 11
21737.46616913009
 21
-814.2242136809345
 31
0.0
  0
LINE
  5
146
330
2
100
AcDbEntity
  8
0
100
AcDbLine
 10
21737.46616913009
 20
-814.2242136809345
 30
0.0
 11
21737.47722791897
 21
-814.2176162940032
 31
0.0
  0
LINE
  5
147
330
2
100
AcDbEntity
  8
0
100
AcDbLine
 10
21737.47722791897
 20
-814.2176162940032
 30
0.0
 11
21737.48833586807
 21
-814.2110839131547
 31
0.0
  0
LINE
  5
148
330
2
100
AcDbEntity
  8
0
100
AcDbLine
 10
21737.48833586807
 20
-814.2110839131547
 30
0.0
 11
21737.49949272265
 21
-814.2046161825145
 31
0.0
  0
LINE
  5
149
330
2
100
AcDbEntity
  8
0
100
AcDbLine
 10
21737.49949272265
 20
-814.2046161825145
 30
0.0
 11
21737.51069822793
 21
-814.1982127462052
 31
0.0
  0
LINE
  5
14A
330
2
100
AcDbEntity
  8
0
100
AcDbLine
 10
21737.51069822793
 20
-814.1982127462052
 30
0.0
 11
21737.52195212918
 21
-814.1918732483627
 31
0.0
  0
LINE
  5
14B
330
2
100
AcDbEntity
  8
0
100
AcDbLine
 10
21737.52195212918
 20
-814.1918732483627
 30
0.0
 11
21737.53325417161
 21
-814.1855973331058
 31
0.0
  0
LINE
  5
14C
330
2
100
AcDbEntity
  8
0
100
AcDbLine
 10
21737.53325417161
 20
-814.1855973331058
 30
0.0
 11
21737.54460410049
 21
-814.179384644567
 31
0.0
  0
LINE
  5
14D
330
2
100
AcDbEntity
  8
0
100
AcDbLine
 10
21737.54460410049
 20
-814.179384644567
 30
0.0
 11
21737.55600166105
 21
-814.1732348268725
 31
0.0
  0
LINE
  5
14E
330
2
100
AcDbEntity
  8
0
100
AcDbLine
 10
21737.55600166105
 20
-814.1732348268725
 30
0.0
 11
21737.56744659853
 21
-814.1671475241473
 31
0.0
  0
LINE
  5
14F
330
2
100
AcDbEntity
  8
0
100
AcDbLine
 10
21737.56744659853
 20
-814.1671475241473
 30
0.0
 11
21737.57893865818
 21
-814.1611223805176
 31
0.0
  0
LINE
  5
150
330
2
100
AcDbEntity
  8
0
100
AcDbLine
 10
21737.57893865818
 20
-814.1611223805176
 30
0.0
 11
21737.59047758524
 21
-814.1551590401158
 31
0.0
  0
LINE
  5
151
330
2
100
AcDbEntity
  8
0
100
AcDbLine
 10
21737.59047758524
 20
-814.1551590401158
 30
0.0
 11
21737.60206312495
 21
-814.1492571470644
 31
0.0
  0
LINE
  5
152
330
2
100
AcDbEntity
  8
0
100
AcDbLine
 10
21737.60206312495
 20
-814.1492571470644
 30
0.0
 11
21737.61369502255
 21
-814.1434163454924
 31
0.0
  0
LINE
  5
153
330
2
100
AcDbEntity
  8
0
100
AcDbLine
 10
21737.61369502255
 20
-814.1434163454924
 30
0.0
 11
21737.62537302329
 21
-814.1376362795289
 31
0.0
  0
LINE
  5
154
330
2
100
AcDbEntity
  8
0
100
AcDbLine
 10
21737.62537302329
 20
-814.1376362795289
 30
0.0
 11
21737.63709687241
 21
-814.1319165932964
 31
0.0
  0
LINE
  5
155
330
2
100
AcDbEntity
  8
0
100
AcDbLine
 10
21737.63709687241
 20
-814.1319165932964
 30
0.0
 11
21737.64886631516
 21
-814.1262569309274
 31
0.0
  0
LINE
  5
156
330
2
100
AcDbEntity
  8
0
100
AcDbLine
 10
21737.64886631516
 20
-814.1262569309274
 30
0.0
 11
21737.66068109677
 21
-814.120656936544
 31
0.0
  0
LINE
  5
157
330
2
100
AcDbEntity
  8
0
100
AcDbLine
 10
21737.66068109677
 20
-814.120656936544
 30
0.0
 11
21737.67254096248
 21
-814.1151162542755
 31
0.0
  0
LINE
  5
158
330
2
100
AcDbEntity
  8
0
100
AcDbLine
 10
21737.67254096248
 20
-814.1151162542755
 30
0.0
 11
21737.68444565754
 21
-814.1096345282512
 31
0.0
  0
LINE
  5
159
330
2
100
AcDbEntity
  8
0
100
AcDbLine
 10
21737.68444565754
 20
-814.1096345282512
 30
0.0
 11
21737.69639492719
 21
-814.1042114025932
 31
0.0
  0
LINE
  5
15A
330
2
100
AcDbEntity
  8
0
100
AcDbLine
 10
21737.69639492719
 20
-814.1042114025932
 30
0.0
 11
21737.70838851668
 21
-814.0988465214341
 31
0.0
  0
LINE
  5
15B
330
2
100
AcDbEntity
  8
0
100
AcDbLine
 10
21737.70838851668
 20
-814.0988465214341
 30
0.0
 11
21737.72042617125
 21
-814.0935395288998
 31
0.0
  0
LINE
  5
15C
330
2
100
AcDbEntity
  8
0
100
AcDbLine
 10
21737.72042617125
 20
-814.0935395288998
 30
0.0
 11
21737.73250763614
 21
-814.0882900691121
 31
0.0
  0
LINE
  5
15D
330
2
100
AcDbEntity
  8
0
100
AcDbLine
 10
21737.73250763614
 20
-814.0882900691121
 30
0.0
 11
21737.74463265658
 21
-814.0830977862043
 31
0.0
  0
LINE
  5
15E
330
2
100
AcDbEntity
  8
0
100
AcDbLine
 10
21737.74463265658
 20
-814.0830977862043
 30
0.0
 11
21737.75680097783
 21
-814.0779623243016
 31
0.0
  0
LINE
  5
15F
330
2
100
AcDbEntity
  8
0
100
AcDbLine
 10
21737.75680097783
 20
-814.0779623243016
 30
0.0
 11
21737.76901234513
 21
-814.0728833275298
 31
0.0
  0
LINE
  5
160
330
2
100
AcDbEntity
  8
0
100
AcDbLine
 10
21737.76901234513
 20
-814.0728833275298
 30
0.0
 11
21737.78126650372
 21
-814.0678604400182
 31
0.0
  0
LINE
  5
161
330
2
100
AcDbEntity
  8
0
100
AcDbLine
 10
21737.78126650372
 20
-814.0678604400182
 30
0.0
 11
21737.79356319884
 21
-814.0628933058923
 31
0.0
  0
LINE
  5
162
330
2
100
AcDbEntity
  8
0
100
AcDbLine
 10
21737.79356319884
 20
-814.0628933058923
 30
0.0
 11
21737.80590217573
 21
-814.0579815692817
 31
0.0
  0
LINE
  5
163
330
2
100
AcDbEntity
  8
0
100
AcDbLine
 10
21737.80590217573
 20
-814.0579815692817
 30
0.0
 11
21737.81828317964
 21
-814.0531248743117
 31
0.0
  0
LINE
  5
164
330
2
100
AcDbEntity
  8
0
100
AcDbLine
 10
21737.81828317964
 20
-814.0531248743117
 30
0.0
 11
21737.83070595581
 21
-814.0483228651083
 31
0.0
  0
LINE
  5
165
330
2
100
AcDbEntity
  8
0
100
AcDbLine
 10
21737.83070595581
 20
-814.0483228651083
 30
0.0
 11
21737.84317024948
 21
-814.0435751858003
 31
0.0
  0
LINE
  5
166
330
2
100
AcDbEntity
  8
0
100
AcDbLine
 10
21737.84317024948
 20
-814.0435751858003
 30
0.0
 11
21737.8556758059
 21
-814.0388814805136
 31
0.0
  0
LINE
  5
167
330
2
100
AcDbEntity
  8
0
100
AcDbLine
 10
21737.8556758059
 20
-814.0388814805136
 30
0.0
 11
21737.8682223703
 21
-814.0342413933776
 31
0.0
  0
LINE
  5
168
330
2
100
AcDbEntity
  8
0
100
AcDbLine
 10
21737.8682223703
 20
-814.0342413933776
 30
0.0
 11
21737.88080968793
 21
-814.0296545685213
 31
0.0
  0
LINE
  5
169
330
2
100
AcDbEntity
  8
0
100
AcDbLine
 10
21737.88080968793
 20
-814.0296545685213
 30
0.0
 11
21737.89343750403
 21
-814.0251206500634
 31
0.0
  0
LINE
  5
16A
330
2
100
AcDbEntity
  8
0
100
AcDbLine
 10
21737.89343750403
 20
-814.0251206500634
 30
0.0
 11
21737.90610556385
 21
-814.0206392821365
 31
0.0
  0
LINE
  5
16B
330
2
100
AcDbEntity
  8
0
100
AcDbLine
 10
21737.90610556385
 20
-814.0206392821365
 30
0.0
 11
21737.91881361263
 21
-814.01621010887
 31
0.0
  0
LINE
  5
16C
330
2
100
AcDbEntity
  8
0
100
AcDbLine
 10
21737.91881361263
 20
-814.01621010887
 30
0.0
 11
21737.9315613956
 21
-814.0118327743858
 31
0.0
  0
LINE
  5
16D
330
2
100
AcDbEntity
  8
0
100
AcDbLine
 10
21737.9315613956
 20
-814.0118327743858
 30
0.0
 11
21737.94434865802
 21
-814.0075069228132
 31
0.0
  0
LINE
  5
16E
330
2
100
AcDbEntity
  8
0
100
AcDbLine
 10
21737.94434865802
 20
-814.0075069228132
 30
0.0
 11
21737.95717514511
 21
-814.0032321982854
 31
0.0
  0
LINE
  5
16F
330
2
100
AcDbEntity
  8
0
100
AcDbLine
 10
21737.95717514511
 20
-814.0032321982854
 30
0.0
 11
21737.97004060214
 21
-813.9990082449203
 31
0.0
  0
LINE
  5
170
330
2
100
AcDbEntity
  8
0
100
AcDbLine
 10
21737.97004060214
 20
-813.9990082449203
 30
0.0
 11
21737.98294477434
 21
-813.9948347068511
 31
0.0
  0
LINE
  5
171
330
2
100
AcDbEntity
  8
0
100
AcDbLine
 10
21737.98294477434
 20
-813.9948347068511
 30
0.0
 11
21737.99588740695
 21
-813.9907112281962
 31
0.0
  0
LINE
  5
172
330
2
100
AcDbEntity
  8
0
100
AcDbLine
 10
21737.99588740695
 20
-813.9907112281962
 30
0.0
 11
21738.00886824521
 21
-813.9866374530956
 31
0.0
  0
LINE
  5
173
330
2
100
AcDbEntity
  8
0
100
AcDbLine
 10
21738.00886824521
 20
-813.9866374530956
 30
0.0
 11
21738.02188703436
 21
-813.9826130256714
 31
0.0
  0
LINE
  5
174
330
2
100
AcDbEntity
  8
0
100
AcDbLine
 10
21738.02188703436
 20
-813.9826130256714
 30
0.0
 11
21738.03494351967
 21
-813.9786375900458
 31
0.0
  0
LINE
  5
175
330
2
100
AcDbEntity
  8
0
100
AcDbLine
 10
21738.03494351967
 20
-813.9786375900458
 30
0.0
 11
21738.04803744634
 21
-813.9747107903476
 31
0.0
  0
LINE
  5
176
330
2
100
AcDbEntity
  8
0
100
AcDbLine
 10
21738.04803744634
 20
-813.9747107903476
 30
0.0
 11
21738.06116855965
 21
-813.9708322707102
 31
0.0
  0
LINE
  5
177
330
2
100
AcDbEntity
  8
0
100
AcDbLine
 10
21738.06116855965
 20
-813.9708322707102
 30
0.0
 11
21738.07433660482
 21
-813.9670016752516
 31
0.0
  0
LINE
  5
178
330
2
100
AcDbEntity
  8
0
100
AcDbLine
 10
21738.07433660482
 20
-813.9670016752516
 30
0.0
 11
21738.0875413271
 21
-813.9632186481085
 31
0.0
  0
LINE
  5
179
330
2
100
AcDbEntity
  8
0
100
AcDbLine
 10
21738.0875413271
 20
-813.9632186481085
 30
0.0
 11
21738.10078247173
 21
-813.9594828334029
 31
0.0
  0
LINE
  5
17A
330
2
100
AcDbEntity
  8
0
100
AcDbLine
 10
21738.10078247173
 20
-813.9594828334029
 30
0.0
 11
21738.11405978396
 21
-813.9557938752604
 31
0.0
  0
LINE
  5
17B
330
2
100
AcDbEntity
  8
0
100
AcDbLine
 10
21738.11405978396
 20
-813.9557938752604
 30
0.0
 11
21738.12737300902
 21
-813.9521514178104
 31
0.0
  0
LINE
  5
17C
330
2
100
AcDbEntity
  8
0
100
AcDbLine
 10
21738.12737300902
 20
-813.9521514178104
 30
0.0
 11
21738.14072189216
 21
-813.9485551051784
 31
0.0
  0
LINE
  5
17D
330
2
100
AcDbEntity
  8
0
100
AcDbLine
 10
21738.14072189216
 20
-813.9485551051784
 30
0.0
 11
21738.15410617863
 21
-813.9450045814974
 31
0.0
  0
LINE
  5
17E
330
2
100
AcDbEntity
  8
0
100
AcDbLine
 10
21738.15410617863
 20
-813.9450045814974
 30
0.0
 11
21738.16752561366
 21
-813.9414994908893
 31
0.0
  0
LINE
  5
17F
330
2
100
AcDbEntity
  8
0
100
AcDbLine
 10
21738.16752561366
 20
-813.9414994908893
 30
0.0
 11
21738.18097994249
 21
-813.9380394774798
 31
0.0
  0
LINE
  5
180
330
2
100
AcDbEntity
  8
0
100
AcDbLine
 10
21738.18097994249
 20
-813.9380394774798
 30
0.0
 11
21738.19446891038
 21
-813.9346241853946
 31
0.0
  0
LINE
  5
181
330
2
100
AcDbEntity
  8
0
100
AcDbLine
 10
21738.19446891038
 20
-813.9346241853946
 30
0.0
 11
21738.20799226255
 21
-813.9312532587737
 31
0.0
  0
LINE
  5
182
330
2
100
AcDbEntity
  8
0
100
AcDbLine
 10
21738.20799226255
 20
-813.9312532587737
 30
0.0
 11
21738.22154974427
 21
-813.9279263417284
 31
0.0
  0
LINE
  5
183
330
2
100
AcDbEntity
  8
0
100
AcDbLine
 10
21738.22154974427
 20
-813.9279263417284
 30
0.0
 11
21738.23514110075
 21
-813.9246430783915
 31
0.0
  0
LINE
  5
184
330
2
100
AcDbEntity
  8
0
100
AcDbLine
 10
21738.23514110075
 20
-813.9246430783915
 30
0.0
 11
21738.24876607726
 21
-813.9214031128958
 31
0.0
  0
LINE
  5
185
330
2
100
AcDbEntity
  8
0
100
AcDbLine
 10
21738.24876607726
 20
-813.9214031128958
 30
0.0
 11
21738.26242441903
 21
-813.9182060893599
 31
0.0
  0
LINE
  5
186
330
2
100
AcDbEntity
  8
0
100
AcDbLine
 10
21738.26242441903
 20
-813.9182060893599
 30
0.0
 11
21738.2761158713
 21
-813.9150516519165
 31
0.0
  0
LINE
  5
187
330
2
100
AcDbEntity
  8
0
100
AcDbLine
 10
21738.2761158713
 20
-813.9150516519165
 30
0.0
 11
21738.28984017932
 21
-813.9119394446916
 31
0.0
  0
LINE
  5
188
330
2
100
AcDbEntity
  8
0
100
AcDbLine
 10
21738.28984017932
 20
-813.9119394446916
 30
0.0
 11
21738.30359708833
 21
-813.9088691118141
 31
0.0
  0
LINE
  5
189
330
2
100
AcDbEntity
  8
0
100
AcDbLine
 10
21738.30359708833
 20
-813.9088691118141
 30
0.0
 11
21738.31738634358
 21
-813.9058402974059
 31
0.0
  0
LINE
  5
18A
330
2
100
AcDbEntity
  8
0
100
AcDbLine
 10
21738.31738634358
 20
-813.9058402974059
 30
0.0
 11
21738.33120769029
 21
-813.9028526455968
 31
0.0
  0
LINE
  5
18B
330
2
100
AcDbEntity
  8
0
100
AcDbLine
 10
21738.33120769029
 20
-813.9028526455968
 30
0.0
 11
21738.34506087372
 21
-813.8999058005156
 31
0.0
  0
LINE
  5
18C
330
2
100
AcDbEntity
  8
0
100
AcDbLine
 10
21738.34506087372
 20
-813.8999058005156
 30
0.0
 11
21738.35894563912
 21
-813.8969994062881
 31
0.0
  0
LINE
  5
18D
330
2
100
AcDbEntity
  8
0
100
AcDbLine
 10
21738.35894563912
 20
-813.8969994062881
 30
0.0
 11
21738.37286173171
 21
-813.89413310704
 31
0.0
  0
LINE
  5
18E
330
2
100
AcDbEntity
  8
0
100
AcDbLine
 10
21738.37286173171
 20
-813.89413310704
 30
0.0
 11
21738.38680889675
 21
-813.8913065469042
 31
0.0
  0
LINE
  5
18F
330
2
100
AcDbEntity
  8
0
100
AcDbLine
 10
21738.38680889675
 20
-813.8913065469042
 30
0.0
 11
21738.40078687947
 21
-813.8885193699989
 31
0.0
  0
LINE
  5
190
330
2
100
AcDbEntity
  8
0
100
AcDbLine
 10
21738.40078687947
 20
-813.8885193699989
 30
0.0
 11
21738.41479542512
 21
-813.8857712204572
 31
0.0
  0
LINE
  5
191
330
2
100
AcDbEntity
  8
0
100
AcDbLine
 10
21738.41479542512
 20
-813.8857712204572
 30
0.0
 11
21738.42883427895
 21
-813.8830617424046
 31
0.0
  0
LINE
  5
192
330
2
100
AcDbEntity
  8
0
100
AcDbLine
 10
21738.42883427895
 20
-813.8830617424046
 30
0.0
 11
21738.44290318619
 21
-813.8803905799669
 31
0.0
  0
LINE
  5
193
330
2
100
AcDbEntity
  8
0
100
AcDbLine
 10
21738.44290318619
 20
-813.8803905799669
 30
0.0
 11
21738.45700189209
 21
-813.8777573772767
 31
0.0
  0
LINE
  5
194
330
2
100
AcDbEntity
  8
0
100
AcDbLine
 10
21738.45700189209
 20
-813.8777573772767
 30
0.0
 11
21738.47113014188
 21
-813.8751617784564
 31
0.0
  0
LINE
  5
195
330
2
100
AcDbEntity
  8
0
100
AcDbLine
 10
21738.47113014188
 20
-813.8751617784564
 30
0.0
 11
21738.48528768083
 21
-813.872603427635
 31
0.0
  0
LINE
  5
196
330
2
100
AcDbEntity
  8
0
100
AcDbLine
 10
21738.48528768083
 20
-813.872603427635
 30
0.0
 11
21738.49947425415
 21
-813.8700819689347
 31
0.0
  0
LINE
  5
197
330
2
100
AcDbEntity
  8
0
100
AcDbLine
 10
21738.49947425415
 20
-813.8700819689347
 30
0.0
 11
21738.51368960709
 21
-813.867597046492
 31
0.0
  0
LINE
  5
198
330
2
100
AcDbEntity
  8
0
100
AcDbLine
 10
21738.51368960709
 20
-813.867597046492
 30
0.0
 11
21738.52793348491
 21
-813.8651483044251
 31
0.0
  0
LINE
  5
199
330
2
100
AcDbEntity
  8
0
100
AcDbLine
 10
21738.52793348491
 20
-813.8651483044251
 30
0.0
 11
21738.54220563284
 21
-813.8627353868669
 31
0.0
  0
LINE
  5
19A
330
2
100
AcDbEntity
  8
0
100
AcDbLine
 10
21738.54220563284
 20
-813.8627353868669
 30
0.0
 11
21738.55650579613
 21
-813.8603579379395
 31
0.0
  0
LINE
  5
19B
330
2
100
AcDbEntity
  8
0
100
AcDbLine
 10
21738.55650579613
 20
-813.8603579379395
 30
0.0
 11
21738.57083372001
 21
-813.8580156017761
 31
0.0
  0
LINE
  5
19C
330
2
100
AcDbEntity
  8
0
100
AcDbLine
 10
21738.57083372001
 20
-813.8580156017761
 30
0.0
 11
21738.58518914973
 21
-813.8557080225018
 31
0.0
  0
LINE
  5
19D
330
2
100
AcDbEntity
  8
0
100
AcDbLine
 10
21738.58518914973
 20
-813.8557080225018
 30
0.0
 11
21738.59957183053
 21
-813.8534348442389
 31
0.0
  0
LINE
  5
19E
330
2
100
AcDbEntity
  8
0
100
AcDbLine
 10
21738.59957183053
 20
-813.8534348442389
 30
0.0
 11
21738.61398150767
 21
-813.8511957111203
 31
0.0
  0
LINE
  5
19F
330
2
100
AcDbEntity
  8
0
100
AcDbLine
 10
21738.61398150767
 20
-813.8511957111203
 30
0.0
 11
21738.62841792636
 21
-813.8489902672681
 31
0.0
  0
LINE
  5
1A0
330
2
100
AcDbEntity
  8
0
100
AcDbLine
 10
21738.62841792636
 20
-813.8489902672681
 30
0.0
 11
21738.64288083186
 21
-813.8468181568187
 31
0.0
  0
LINE
  5
1A1
330
2
100
AcDbEntity
  8
0
100
AcDbLine
 10
21738.64288083186
 20
-813.8468181568187
 30
0.0
 11
21738.65736996942
 21
-813.8446790238903
 31
0.0
  0
LINE
  5
1A2
330
2
100
AcDbEntity
  8
0
100
AcDbLine
 10
21738.65736996942
 20
-813.8446790238903
 30
0.0
 11
21738.67188508426
 21
-813.842572512609
 31
0.0
  0
LINE
  5
1A3
330
2
100
AcDbEntity
  8
0
100
AcDbLine
 10
21738.67188508426
 20
-813.842572512609
 30
0.0
 11
21738.68642592165
 21
-813.8404982671108
 31
0.0
  0
LINE
  5
1A4
330
2
100
AcDbEntity
  8
0
100
AcDbLine
 10
21738.68642592165
 20
-813.8404982671108
 30
0.0
 11
21738.70099222682
 21
-813.8384559315181
 31
0.0
  0
LINE
  5
1A5
330
2
100
AcDbEntity
  8
0
100
AcDbLine
 10
21738.70099222682
 20
-813.8384559315181
 30
0.0
 11
21738.715583745
 21
-813.8364451499528
 31
0.0
  0
LINE
  5
1A6
330
2
100
AcDbEntity
  8
0
100
AcDbLine
 10
21738.715583745
 20
-813.8364451499528
 30
0.0
 11
21738.73020022146
 21
-813.8344655665514
 31
0.0
  0
LINE
  5
1A7
330
2
100
AcDbEntity
  8
0
100
AcDbLine
 10
21738.73020022146
 20
-813.8344655665514
 30
0.0
 11
21738.74484140141
 21
-813.8325168254395
 31
0.0
  0
LINE
  5
1A8
330
2
100
AcDbEntity
  8
0
100
AcDbLine
 10
21738.74484140141
 20
-813.8325168254395
 30
0.0
 11
21738.75950703012
 21
-813.8305985707356
 31
0.0
  0
LINE
  5
1A9
330
2
100
AcDbEntity
  8
0
100
AcDbLine
 10
21738.75950703012
 20
-813.8305985707356
 30
0.0
 11
21738.77419685283
 21
-813.8287104465726
 31
0.0
  0
LINE
  5
1AA
330
2
100
AcDbEntity
  8
0
100
AcDbLine
 10
21738.77419685283
 20
-813.8287104465726
 30
0.0
 11
21738.78891061476
 21
-813.8268520970832
 31
0.0
  0
LINE
  5
1AB
330
2
100
AcDbEntity
  8
0
100
AcDbLine
 10
21738.78891061476
 20
-813.8268520970832
 30
0.0
 11
21738.80364806117
 21
-813.825023166386
 31
0.0
  0
LINE
  5
1AC
330
2
100
AcDbEntity
  8
0
100
AcDbLine
 10
21738.80364806117
 20
-813.825023166386
 30
0.0
 11
21738.8184089373
 21
-813.8232232986066
 31
0.0
  0
LINE
  5
1AD
330
2
100
AcDbEntity
  8
0
100
AcDbLine
 10
21738.8184089373
 20
-813.8232232986066
 30
0.0
 11
21738.83319298839
 21
-813.821452137885
 31
0.0
  0
LINE
  5
1AE
330
2
100
AcDbEntity
  8
0
100
AcDbLine
 10
21738.83319298839
 20
-813.821452137885
 30
0.0
 11
21738.84799995969
 21
-813.8197093283324
 31
0.0
  0
LINE
  5
1AF
330
2
100
AcDbEntity
  8
0
100
AcDbLine
 10
21738.84799995969
 20
-813.8197093283324
 30
0.0
 11
21738.86282959643
 21
-813.817994514089
 31
0.0
  0
LINE
  5
1B0
330
2
100
AcDbEntity
  8
0
100
AcDbLine
 10
21738.86282959643
 20
-813.817994514089
 30
0.0
 11
21738.87768164387
 21
-813.8163073392734
 31
0.0
  0
LINE
  5
1B1
330
2
100
AcDbEntity
  8
0
100
AcDbLine
 10
21738.87768164387
 20
-813.8163073392734
 30
0.0
 11
21738.89255584723
 21
-813.8146474480182
 31
0.0
  0
LINE
  5
1B2
330
2
100
AcDbEntity
  8
0
100
AcDbLine
 10
21738.89255584723
 20
-813.8146474480182
 30
0.0
 11
21738.90745195177
 21
-813.813014484449
 31
0.0
  0
LINE
  5
1B3
330
2
100
AcDbEntity
  8
0
100
AcDbLine
 10
21738.90745195177
 20
-813.813014484449
 30
0.0
 11
21738.92236970272
 21
-813.8114080926916
 31
0.0
  0
LINE
  5
1B4
330
2
100
AcDbEntity
  8
0
100
AcDbLine
 10
21738.92236970272
 20
-813.8114080926916
 30
0.0
 11
21738.93730884534
 21
-813.8098279168715
 31
0.0
  0
LINE
  5
1B5
330
2
100
AcDbEntity
  8
0
100
AcDbLine
 10
21738.93730884534
 20
-813.8098279168715
 30
0.0
 11
21738.95226912486
 21
-813.808273601122
 31
0.0
  0
LINE
  5
1B6
330
2
100
AcDbEntity
  8
0
100
AcDbLine
 10
21738.95226912486
 20
-813.808273601122
 30
0.0
 11
21738.96725028652
 21
-813.8067447895609
 31
0.0
  0
LINE
  5
1B7
330
2
100
AcDbEntity
  8
0
100
AcDbLine
 10
21738.96725028652
 20
-813.8067447895609
 30
0.0
 11
21738.98225207556
 21
-813.8052411263252
 31
0.0
  0
LINE
  5
1B8
330
2
100
AcDbEntity
  8
0
100
AcDbLine
 10
21738.98225207556
 20
-813.8052411263252
 30
0.0
 11
21738.99727423724
 21
-813.8037622555366
 31
0.0
  0
LINE
  5
1B9
330
2
100
AcDbEntity
  8
0
100
AcDbLine
 10
21738.99727423724
 20
-813.8037622555366
 30
0.0
 11
21739.01231651679
 21
-813.8023078213246
 31
0.0
  0
LINE
  5
1BA
330
2
100
AcDbEntity
  8
0
100
AcDbLine
 10
21739.01231651679
 20
-813.8023078213246
 30
0.0
 11
21739.02737865946
 21
-813.8008774678109
 31
0.0
  0
LINE
  5
1BB
330
2
100
AcDbEntity
  8
0
100
AcDbLine
 10
21739.02737865946
 20
-813.8008774678109
 30
0.0
 11
21739.04246041048
 21
-813.7994708391287
 31
0.0
  0
LINE
  5
1BC
330
2
100
AcDbEntity
  8
0
100
AcDbLine
 10
21739.04246041048
 20
-813.7994708391287
 30
0.0
 11
21739.0575615151
 21
-813.7980875794074
 31
0.0
  0
LINE
  5
1BD
330
2
100
AcDbEntity
  8
0
100
AcDbLine
 10
21739.0575615151
 20
-813.7980875794074
 30
0.0
 11
21739.07268171856
 21
-813.7967273327685
 31
0.0
  0
LINE
  5
1BE
330
2
100
AcDbEntity
  8
0
100
AcDbLine
 10
21739.07268171856
 20
-813.7967273327685
 30
0.0
 11
21739.08782076611
 21
-813.7953897433344
 31
0.0
  0
LINE
  5
1BF
330
2
100
AcDbEntity
  8
0
100
AcDbLine
 10
21739.08782076611
 20
-813.7953897433344
 30
0.0
 11
21739.10297840298
 21
-813.7940744552452
 31
0.0
  0
LINE
  5
1C0
330
2
100
AcDbEntity
  8
0
100
AcDbLine
 10
21739.10297840298
 20
-813.7940744552452
 30
0.0
 11
21739.11815437442
 21
-813.7927811126191
 31
0.0
  0
LINE
  5
1C1
330
2
100
AcDbEntity
  8
0
100
AcDbLine
 10
21739.11815437442
 20
-813.7927811126191
 30
0.0
 11
21739.13334842568
 21
-813.7915093595857
 31
0.0
  0
LINE
  5
1C2
330
2
100
AcDbEntity
  8
0
100
AcDbLine
 10
21739.13334842568
 20
-813.7915093595857
 30
0.0
 11
21739.14856030199
 21
-813.790258840274
 31
0.0
  0
LINE
  5
1C3
330
2
100
AcDbEntity
  8
0
100
AcDbLine
 10
21739.14856030199
 20
-813.790258840274
 30
0.0
 11
21739.16378974859
 21
-813.789029198806
 31
0.0
  0
LINE
  5
1C4
330
2
100
AcDbEntity
  8
0
100
AcDbLine
 10
21739.16378974859
 20
-813.789029198806
 30
0.0
 11
21739.17903651074
 21
-813.7878200793148
 31
0.0
  0
LINE
  5
1C5
330
2
100
AcDbEntity
  8
0
100
AcDbLine
 10
21739.17903651074
 20
-813.7878200793148
 30
0.0
 11
21739.19430033366
 21
-813.7866311259221
 31
0.0
  0
LINE
  5
1C6
330
2
100
AcDbEntity
  8
0
100
AcDbLine
 10
21739.19430033366
 20
-813.7866311259221
 30
0.0
 11
21739.20958096262
 21
-813.7854619827576
 31
0.0
  0
LINE
  5
1C7
330
2
100
AcDbEntity
  8
0
100
AcDbLine
 10
21739.20958096262
 20
-813.7854619827576
 30
0.0
 11
21739.22487814283
 21
-813.7843122939466
 31
0.0
  0
LINE
  5
1C8
330
2
100
AcDbEntity
  8
0
100
AcDbLine
 10
21739.22487814283
 20
-813.7843122939466
 30
0.0
 11
21739.24019161956
 21
-813.7831817036222
 31
0.0
  0
LINE
  5
1C9
330
2
100
AcDbEntity
  8
0
100
AcDbLine
 10
21739.24019161956
 20
-813.7831817036222
 30
0.0
 11
21739.25552113804
 21
-813.7820698559062
 31
0.0
  0
LINE
  5
1CA
330
2
100
AcDbEntity
  8
0
100
AcDbLine
 10
21739.25552113804
 20
-813.7820698559062
 30
0.0
 11
21739.27086644352
 21
-813.7809763949281
 31
0.0
  0
LINE
  5
1CB
330
2
100
AcDbEntity
  8
0
100
AcDbLine
 10
21739.27086644352
 20
-813.7809763949281
 30
0.0
 11
21739.28622728122
 21
-813.7799009648096
 31
0.0
  0
LINE
  5
1CC
330
2
100
AcDbEntity
  8
0
100
AcDbLine
 10
21739.28622728122
 20
-813.7799009648096
 30
0.0
 11
21739.30160339641
 21
-813.7788432096877
 31
0.0
  0
LINE
  5
1CD
330
2
100
AcDbEntity
  8
0
100
AcDbLine
 10
21739.30160339641
 20
-813.7788432096877
 30
0.0
 11
21739.31699453433
 21
-813.7778027736803
 31
0.0
  0
LINE
  5
1CE
330
2
100
AcDbEntity
  8
0
100
AcDbLine
 10
21739.31699453433
 20
-813.7778027736803
 30
0.0
 11
21739.3324004402
 21
-813.7767793009206
 31
0.0
  0
LINE
  5
1CF
330
2
100
AcDbEntity
  8
0
100
AcDbLine
 10
21739.3324004402
 20
-813.7767793009206
 30
0.0
 11
21739.34782085928
 21
-813.7757724355342
 31
0.0
  0
LINE
  5
1D0
330
2
100
AcDbEntity
  8
0
100
AcDbLine
 10
21739.34782085928
 20
-813.7757724355342
 30
0.0
 11
21739.36325553682
 21
-813.774781821643
 31
0.0
  0
LINE
  5
1D1
330
2
100
AcDbEntity
  8
0
100
AcDbLine
 10
21739.36325553682
 20
-813.774781821643
 30
0.0
 11
21739.37870421804
 21
-813.7738071033837
 31
0.0
  0
LINE
  5
1D2
330
2
100
AcDbEntity
  8
0
100
AcDbLine
 10
21739.37870421804
 20
-813.7738071033837
 30
0.0
 11
21739.3941666482
 21
-813.7728479248744
 31
0.0
  0
LINE
  5
1D3
330
2
100
AcDbEntity
  8
0
100
AcDbLine
 10
21739.3941666482
 20
-813.7728479248744
 30
0.0
 11
21739.40964257254
 21
-813.7719039302483
 31
0.0
  0
LINE
  5
1D4
330
2
100
AcDbEntity
  8
0
100
AcDbLine
 10
21739.40964257254
 20
-813.7719039302483
 30
0.0
 11
21739.42513173629
 21
-813.7709747636309
 31
0.0
  0
LINE
  5
1D5
330
2
100
AcDbEntity
  8
0
100
AcDbLine
 10
21739.42513173629
 20
-813.7709747636309
 30
0.0
 11
21739.44063388471
 21
-813.7700600691477
 31
0.0
  0
LINE
  5
1D6
330
2
100
AcDbEntity
  8
0
100
AcDbLine
 10
21739.44063388471
 20
-813.7700600691477
 30
0.0
 11
21739.45614876303
 21
-813.7691594909282
 31
0.0
  0
LINE
  5
1D7
330
2
100
AcDbEntity
  8
0
100
AcDbLine
 10
21739.45614876303
 20
-813.7691594909282
 30
0.0
 11
21739.47167611649
 21
-813.7682726730945
 31
0.0
  0
LINE
  5
1D8
330
2
100
AcDbEntity
  8
0
100
AcDbLine
 10
21739.47167611649
 20
-813.7682726730945
 30
0.0
 11
21739.48721569035
 21
-813.7673992597829
 31
0.0
  0
LINE
  5
1D9
330
2
100
AcDbEntity
  8
0
100
AcDbLine
 10
21739.48721569035
 20
-813.7673992597829
 30
0.0
 11
21739.50276722984
 21
-813.7665388951154
 31
0.0
  0
LINE
  5
1DA
330
2
100
AcDbEntity
  8
0
100
AcDbLine
 10
21739.50276722984
 20
-813.7665388951154
 30
0.0
 11
21739.51833048021
 21
-813.7656912232142
 31
0.0
  0
LINE
  5
1DB
330
2
100
AcDbEntity
  8
0
100
AcDbLine
 10
21739.51833048021
 20
-813.7656912232142
 30
0.0
 11
21739.53390518669
 21
-813.7648558882156
 31
0.0
  0
LINE
  5
1DC
330
2
100
AcDbEntity
  8
0
100
AcDbLine
 10
21739.53390518669
 20
-813.7648558882156
 30
0.0
 11
21739.54949109453
 21
-813.7640325342417
 31
0.0
  0
LINE
  5
1DD
330
2
100
AcDbEntity
  8
0
100
AcDbLine
 10
21739.54949109453
 20
-813.7640325342417
 30
0.0
 11
21739.56508794897
 21
-813.7632208054219
 31
0.0
  0
LINE
  5
1DE
330
2
100
AcDbEntity
  8
0
100
AcDbLine
 10
21739.56508794897
 20
-813.7632208054219
 30
0.0
 11
21739.58069549525
 21
-813.7624203458781
 31
0.0
  0
LINE
  5
1DF
330
2
100
AcDbEntity
  8
0
100
AcDbLine
 10
21739.58069549525
 20
-813.7624203458781
 30
0.0
 11
21739.59631347863
 21
-813.7616307997395
 31
0.0
  0
LINE
  5
1E0
330
2
100
AcDbEntity
  8
0
100
AcDbLine
 10
21739.59631347863
 20
-813.7616307997395
 30
0.0
 11
21739.61194164433
 21
-813.7608518111392
 31
0.0
  0
LINE
  5
1E1
330
2
100
AcDbEntity
  8
0
100
AcDbLine
 10
21739.61194164433
 20
-813.7608518111392
 30
0.0
 11
21739.62757973761
 21
-813.7600830242027
 31
0.0
  0
LINE
  5
1E2
330
2
100
AcDbEntity
  8
0
100
AcDbLine
 10
21739.62757973761
 20
-813.7600830242027
 30
0.0
 11
21739.64322750369
 21
-813.7593240830483
 31
0.0
  0
LINE
  5
1E3
330
2
100
AcDbEntity
  8
0
100
AcDbLine
 10
21739.64322750369
 20
-813.7593240830483
 30
0.0
 11
21739.65888468784
 21
-813.7585746318126
 31
0.0
  0
LINE
  5
1E4
330
2
100
AcDbEntity
  8
0
100
AcDbLine
 10
21739.65888468784
 20
-813.7585746318126
 30
0.0
 11
21739.67455103528
 21
-813.7578343146179
 31
0.0
  0
LINE
  5
1E5
330
2
100
AcDbEntity
  8
0
100
AcDbLine
 10
21739.67455103528
 20
-813.7578343146179
 30
0.0
 11
21739.69022629127
 21
-813.757102775593
 31
0.0
  0
LINE
  5
1E6
330
2
100
AcDbEntity
  8
0
100
AcDbLine
 10
21739.69022629127
 20
-813.757102775593
 30
0.0
 11
21739.70591020104
 21
-813.7563796588674
 31
0.0
  0
LINE
  5
1E7
330
2
100
AcDbEntity
  8
0
100
AcDbLine
 10
21739.70591020104
 20
-813.7563796588674
 30
0.0
 11
21739.72160250984
 21
-813.7556646085668
 31
0.0
  0
LINE
  5
1E8
330
2
100
AcDbEntity
  8
0
100
AcDbLine
 10
21739.72160250984
 20
-813.7556646085668
 30
0.0
 11
21739.73730296291
 21
-813.7549572688131
 31
0.0
  0
LINE
  5
1E9
330
2
100
AcDbEntity
  8
0
100
AcDbLine
 10
21739.73730296291
 20
-813.7549572688131
 30
0.0
 11
21739.75301130548
 21
-813.7542572837391
 31
0.0
  0
LINE
  5
1EA
330
2
100
AcDbEntity
  8
0
100
AcDbLine
 10
21739.75301130548
 20
-813.7542572837391
 30
0.0
 11
21739.76872728282
 21
-813.7535642974707
 31
0.0
  0
LINE
  5
1EB
330
2
100
AcDbEntity
  8
0
100
AcDbLine
 10
21739.76872728282
 20
-813.7535642974707
 30
0.0
 11
21739.78445064015
 21
-813.7528779541371
 31
0.0
  0
LINE
  5
1EC
330
2
100
AcDbEntity
  8
0
100
AcDbLine
 10
21739.78445064015
 20
-813.7528779541371
 30
0.0
 11
21739.80018112272
 21
-813.7521978978638
 31
0.0
  0
LINE
  5
1ED
330
2
100
AcDbEntity
  8
0
100
AcDbLine
 10
21739.80018112272
 20
-813.7521978978638
 30
0.0
 11
21739.81591847577
 21
-813.7515237727729
 31
0.0
  0
LINE
  5
1EE
330
2
100
AcDbEntity
  8
0
100
AcDbLine
 10
21739.81591847577
 20
-813.7515237727729
 30
0.0
 11
21739.83166244455
 21
-813.7508552230011
 31
0.0
  0
LINE
  5
1EF
330
2
100
AcDbEntity
  8
0
100
AcDbLine
 10
21739.83166244455
 20
-813.7508552230011
 30
0.0
 11
21739.84741277429
 21
-813.7501918926664
 31
0.0
  0
LINE
  5
1F0
330
2
100
AcDbEntity
  8
0
100
AcDbLine
 10
21739.84741277429
 20
-813.7501918926664
 30
0.0
 11
21739.86316921025
 21
-813.7495334259019
 31
0.0
  0
LINE
  5
1F1
330
2
100
AcDbEntity
  8
0
100
AcDbLine
 10
21739.86316921025
 20
-813.7495334259019
 30
0.0
 11
21739.87893149765
 21
-813.7488794668334
 31
0.0
  0
LINE
  5
1F2
330
2
100
AcDbEntity
  8
0
100
AcDbLine
 10
21739.87893149765
 20
-813.7488794668334
 30
0.0
 11
21739.89469938175
 21
-813.7482296595862
 31
0.0
  0
LINE
  5
1F3
330
2
100
AcDbEntity
  8
0
100
AcDbLine
 10
21739.89469938175
 20
-813.7482296595862
 30
0.0
 11
21739.91047260778
 21
-813.7475836482899
 31
0.0
  0
LINE
  5
1F4
330
2
100
AcDbEntity
  8
0
100
AcDbLine
 10
21739.91047260778
 20
-813.7475836482899
 30
0.0
 11
21739.926250921
 21
-813.74694107707
 31
0.0
  0
LINE
  5
1F5
330
2
100
AcDbEntity
  8
0
100
AcDbLine
 10
21739.926250921
 20
-813.74694107707
 30
0.0
 11
21739.94203406664
 21
-813.746301590052
 31
0.0
  0
LINE
  5
1F6
330
2
100
AcDbEntity
  8
0
100
AcDbLine
 10
21739.94203406664
 20
-813.746301590052
 30
0.0
 11
21739.95782178994
 21
-813.745664831369
 31
0.0
  0
LINE
  5
1F7
330
2
100
AcDbEntity
  8
0
100
AcDbLine
 10
21739.95782178994
 20
-813.745664831369
 30
0.0
 11
21739.97361383614
 21
-813.745030445143
 31
0.0
  0
LINE
  5
1F8
330
2
100
AcDbEntity
  8
0
100
AcDbLine
 10
21739.97361383614
 20
-813.745030445143
 30
0.0
 11
21739.9894099505
 21
-813.7443980755033
 31
0.0
  0
LINE
  5
1F9
330
2
100
AcDbEntity
  8
0
100
AcDbLine
 10
21739.9894099505
 20
-813.7443980755033
 30
0.0
 11
21740.00520987826
 21
-813.7437673665754
 31
0.0
  0
LINE
  5
1FA
330
2
100
AcDbEntity
  8
0
100
AcDbLine
 10
21740.00520987826
 20
-813.7437673665754
 30
0.0
 11
21740.02101336464
 21
-813.7431379624885
 31
0.0
  0
LINE
  5
1FB
330
2
100
AcDbEntity
  8
0
100
AcDbLine
 10
21740.02101336464
 20
-813.7431379624885
 30
0.0
 11
21740.0368201549
 21
-813.7425095073648
 31
0.0
  0
LINE
  5
1FC
330
2
100
AcDbEntity
  8
0
100
AcDbLine
 10
21740.0368201549
 20
-813.7425095073648
 30
0.0
 11
21740.05262999428
 21
-813.741881645341
 31
0.0
  0
LINE
  5
1FD
330
2
100
AcDbEntity
  8
0
100
AcDbLine
 10
21740.05262999428
 20
-813.741881645341
 30
0.0
 11
21740.06844262802
 21
-813.741254020535
 31
0.0
  0
LINE
  5
1FE
330
2
100
AcDbEntity
  8
0
100
AcDbLine
 10
21740.06844262802
 20
-813.741254020535
 30
0.0
 11
21740.08425780137
 21
-813.7406262770763
 31
0.0
  0
LINE
  5
1FF
330
2
100
AcDbEntity
  8
0
100
AcDbLine
 10
21740.08425780137
 20
-813.7406262770763
 30
0.0
 11
21740.10007525956
 21
-813.7399980590981
 31
0.0
  0
LINE
  5
200
330
2
100
AcDbEntity
  8
0
100
AcDbLine
 10
21740.10007525956
 20
-813.7399980590981
 30
0.0
 11
21740.11589474784
 21
-813.7393690107183
 31
0.0
  0
LINE
  5
201
330
2
100
AcDbEntity
  8
0
100
AcDbLine
 10
21740.11589474784
 20
-813.7393690107183
 30
0.0
 11
21740.13171601146
 21
-813.73873877607
 31
0.0
  0
LINE
  5
202
330
2
100
AcDbEntity
  8
0
100
AcDbLine
 10
21740.13171601146
 20
-813.73873877607
 30
0.0
 11
21740.14753879565
 21
-813.7381069992789
 31
0.0
  0
LINE
  5
203
330
2
100
AcDbEntity
  8
0
100
AcDbLine
 10
21740.14753879565
 20
-813.7381069992789
 30
0.0
 11
21740.16336284565
 21
-813.7374733244705
 31
0.0
  0
LINE
  5
204
330
2
100
AcDbEntity
  8
0
100
AcDbLine
 10
21740.16336284565
 20
-813.7374733244705
 30
0.0
 11
21740.17918790672
 21
-813.7368373957743
 31
0.0
  0
LINE
  5
205
330
2
100
AcDbEntity
  8
0
100
AcDbLine
 10
21740.17918790672
 20
-813.7368373957743
 30
0.0
 11
21740.19501372409
 21
-813.7361988573193
 31
0.0
  0
LINE
  5
206
330
2
100
AcDbEntity
  8
0
100
AcDbLine
 10
21740.19501372409
 20
-813.7361988573193
 30
0.0
 11
21740.210840043
 21
-813.7355573532277
 31
0.0
  0
LINE
  5
207
330
2
100
AcDbEntity
  8
0
100
AcDbLine
 10
21740.210840043
 20
-813.7355573532277
 30
0.0
 11
21740.2266666087
 21
-813.734912527625
 31
0.0
  0
LINE
  5
208
330
2
100
AcDbEntity
  8
0
100
AcDbLine
 10
21740.2266666087
 20
-813.734912527625
 30
0.0
 11
21740.24249316643
 21
-813.7342640246442
 31
0.0
  0
LINE
  5
209
330
2
100
AcDbEntity
  8
0
100
AcDbLine
 10
21740.24249316643
 20
-813.7342640246442
 30
0.0
 11
21740.25831946142
 21
-813.7336114884146
 31
0.0
  0
LINE
  5
20A
330
2
100
AcDbEntity
  8
0
100
AcDbLine
 10
21740.25831946142
 20
-813.7336114884146
 30
0.0
 11
21740.27414523894
 21
-813.7329545630581
 31
0.0
  0
LINE
  5
20B
330
2
100
AcDbEntity
  8
0
100
AcDbLine
 10
21740.27414523894
 20
-813.7329545630581
 30
0.0
 11
21740.28997024421
 21
-813.732292892697
 31
0.0
  0
LINE
  5
20C
330
2
100
AcDbEntity
  8
0
100
AcDbLine
 10
21740.28997024421
 20
-813.732292892697
 30
0.0
 11
21740.30579422248
 21
-813.731626121471
 31
0.0
  0
LINE
  5
20D
330
2
100
AcDbEntity
  8
0
100
AcDbLine
 10
21740.30579422248
 20
-813.731626121471
 30
0.0
 11
21740.32161691899
 21
-813.7309538934987
 31
0.0
  0
LINE
  5
20E
330
2
100
AcDbEntity
  8
0
100
AcDbLine
 10
21740.32161691899
 20
-813.7309538934987
 30
0.0
 11
21740.33743807899
 21
-813.7302758529095
 31
0.0
  0
LINE
  5
20F
330
2
100
AcDbEntity
  8
0
100
AcDbLine
 10
21740.33743807899
 20
-813.7302758529095
 30
0.0
 11
21740.35325744772
 21
-813.7295916438288
 31
0.0
  0
LINE
  5
210
330
2
100
AcDbEntity
  8
0
100
AcDbLine
 10
21740.35325744772
 20
-813.7295916438288
 30
0.0
 11
21740.36907477041
 21
-813.7289009103861
 31
0.0
  0
LINE
  5
211
330
2
100
AcDbEntity
  8
0
100
AcDbLine
 10
21740.36907477041
 20
-813.7289009103861
 30
0.0
 11
21740.38488979232
 21
-813.7282032967068
 31
0.0
  0
LINE
  5
212
330
2
100
AcDbEntity
  8
0
100
AcDbLine
 10
21740.38488979232
 20
-813.7282032967068
 30
0.0
 11
21740.40070225867
 21
-813.7274984469204
 31
0.0
  0
LINE
  5
213
330
2
100
AcDbEntity
  8
0
100
AcDbLine
 10
21740.40070225867
 20
-813.7274984469204
 30
0.0
 11
21740.41651191473
 21
-813.7267860051524
 31
0.0
  0
LINE
  5
214
330
2
100
AcDbEntity
  8
0
100
AcDbLine
 10
21740.41651191473
 20
-813.7267860051524
 30
0.0
 11
21740.43231850573
 21
-813.7260656155286
 31
0.0
  0
LINE
  5
215
330
2
100
AcDbEntity
  8
0
100
AcDbLine
 10
21740.43231850573
 20
-813.7260656155286
 30
0.0
 11
21740.44812177691
 21
-813.7253369221779
 31
0.0
  0
LINE
  5
216
330
2
100
AcDbEntity
  8
0
100
AcDbLine
 10
21740.44812177691
 20
-813.7253369221779
 30
0.0
 11
21740.46392147351
 21
-813.7245995692302
 31
0.0
  0
LINE
  5
217
330
2
100
AcDbEntity
  8
0
100
AcDbLine
 10
21740.46392147351
 20
-813.7245995692302
 30
0.0
 11
21740.47971734077
 21
-813.7238532008067
 31
0.0
  0
LINE
  5
218
330
2
100
AcDbEntity
  8
0
100
AcDbLine
 10
21740.47971734077
 20
-813.7238532008067
 30
0.0
 11
21740.49550912396
 21
-813.7230974610375
 31
0.0
  0
LINE
  5
219
330
2
100
AcDbEntity
  8
0
100
AcDbLine
 10
21740.49550912396
 20
-813.7230974610375
 30
0.0
 11
21740.51129656829
 21
-813.7223319940476
 31
0.0
  0
LINE
  5
21A
330
2
100
AcDbEntity
  8
0
100
AcDbLine
 10
21740.51129656829
 20
-813.7223319940476
 30
0.0
 11
21740.52707941901
 21
-813.7215564439703
 31
0.0
  0
LINE
  5
21B
330
2
100
AcDbEntity
  8
0
100
AcDbLine
 10
21740.52707941901
 20
-813.7215564439703
 30
0.0
 11
21740.54285742137
 21
-813.7207704549236
 31
0.0
  0
LINE
  5
21C
330
2
100
AcDbEntity
  8
0
100
AcDbLine
 10
21740.54285742137
 20
-813.7207704549236
 30
0.0
 11
21740.55863032061
 21
-813.7199736710444
 31
0.0
  0
LINE
  5
21D
330
2
100
AcDbEntity
  8
0
100
AcDbLine
 10
21740.55863032061
 20
-813.7199736710444
 30
0.0
 11
21740.57439786198
 21
-813.7191657364546
 31
0.0
  0
LINE
  5
21E
330
2
100
AcDbEntity
  8
0
100
AcDbLine
 10
21740.57439786198
 20
-813.7191657364546
 30
0.0
 11
21740.59015979071
 21
-813.7183462952835
 31
0.0
  0
LINE
  5
21F
330
2
100
AcDbEntity
  8
0
100
AcDbLine
 10
21740.59015979071
 20
-813.7183462952835
 30
0.0
 11
21740.60591585204
 21
-813.7175149916529
 31
0.0
  0
LINE
  5
220
330
2
100
AcDbEntity
  8
0
100
AcDbLine
 10
21740.60591585204
 20
-813.7175149916529
 30
0.0
 11
21740.62166579123
 21
-813.7166714696959
 31
0.0
  0
LINE
  5
221
330
2
100
AcDbEntity
  8
0
100
AcDbLine
 10
21740.62166579123
 20
-813.7166714696959
 30
0.0
 11
21740.6374093535
 21
-813.7158153735345
 31
0.0
  0
LINE
  5
222
330
2
100
AcDbEntity
  8
0
100
AcDbLine
 10
21740.6374093535
 20
-813.7158153735345
 30
0.0
 11
21740.65314628411
 21
-813.7149463473015
 31
0.0
  0
LINE
  5
223
330
2
100
AcDbEntity
  8
0
100
AcDbLine
 10
21740.65314628411
 20
-813.7149463473015
 30
0.0
 11
21740.6688763283
 21
-813.7140640351226
 31
0.0
  0
LINE
  5
224
330
2
100
AcDbEntity
  8
0
100
AcDbLine
 10
21740.6688763283
 20
-813.7140640351226
 30
0.0
 11
21740.68459923131
 21
-813.7131680811199
 31
0.0
  0
LINE
  5
225
330
2
100
AcDbEntity
  8
0
100
AcDbLine
 10
21740.68459923131
 20
-813.7131680811199
 30
0.0
 11
21740.70031473838
 21
-813.712258129426
 31
0.0
  0
LINE
  5
226
330
2
100
AcDbEntity
  8
0
100
AcDbLine
 10
21740.70031473838
 20
-813.712258129426
 30
0.0
 11
21740.71602259475
 21
-813.711333824167
 31
0.0
  0
LINE
  5
227
330
2
100
AcDbEntity
  8
0
100
AcDbLine
 10
21740.71602259475
 20
-813.711333824167
 30
0.0
 11
21740.73172254567
 21
-813.7103948094681
 31
0.0
  0
LINE
  5
228
330
2
100
AcDbEntity
  8
0
100
AcDbLine
 10
21740.73172254567
 20
-813.7103948094681
 30
0.0
 11
21740.74741433638
 21
-813.709440729459
 31
0.0
  0
LINE
  5
229
330
2
100
AcDbEntity
  8
0
100
AcDbLine
 10
21740.74741433638
 20
-813.709440729459
 30
0.0
 11
21740.76309771212
 21
-813.7084712282685
 31
0.0
  0
LINE
  5
22A
330
2
100
AcDbEntity
  8
0
100
AcDbLine
 10
21740.76309771212
 20
-813.7084712282685
 30
0.0
 11
21740.77877241814
 21
-813.7074859500152
 31
0.0
  0
LINE
  5
22B
330
2
100
AcDbEntity
  8
0
100
AcDbLine
 10
21740.77877241814
 20
-813.7074859500152
 30
0.0
 11
21740.79443819967
 21
-813.7064845388394
 31
0.0
  0
LINE
  5
22C
330
2
100
AcDbEntity
  8
0
100
AcDbLine
 10
21740.79443819967
 20
-813.7064845388394
 30
0.0
 11
21740.81009480196
 21
-813.7054666388522
 31
0.0
  0
LINE
  5
22D
330
2
100
AcDbEntity
  8
0
100
AcDbLine
 10
21740.81009480196
 20
-813.7054666388522
 30
0.0
 11
21740.82574197025
 21
-813.7044318941935
 31
0.0
  0
LINE
  5
22E
330
2
100
AcDbEntity
  8
0
100
AcDbLine
 10
21740.82574197025
 20
-813.7044318941935
 30
0.0
 11
21740.8413794498
 21
-813.7033799489891
 31
0.0
  0
LINE
  5
22F
330
2
100
AcDbEntity
  8
0
100
AcDbLine
 10
21740.8413794498
 20
-813.7033799489891
 30
0.0
 11
21740.85700698582
 21
-813.7023104473573
 31
0.0
  0
LINE
  5
230
330
2
100
AcDbEntity
  8
0
100
AcDbLine
 10
21740.85700698582
 20
-813.7023104473573
 30
0.0
 11
21740.87262432357
 21
-813.7012230334349
 31
0.0
  0
LINE
  5
231
330
2
100
AcDbEntity
  8
0
100
AcDbLine
 10
21740.87262432357
 20
-813.7012230334349
 30
0.0
 11
21740.8882312083
 21
-813.7001173513436
 31
0.0
  0
LINE
  5
232
330
2
100
AcDbEntity
  8
0
100
AcDbLine
 10
21740.8882312083
 20
-813.7001173513436
 30
0.0
 11
21740.90382738524
 21
-813.6989930452127
 31
0.0
  0
LINE
  5
233
330
2
100
AcDbEntity
  8
0
100
AcDbLine
 10
21740.90382738524
 20
-813.6989930452127
 30
0.0
 11
21740.91941259964
 21
-813.6978497591718
 31
0.0
  0
LINE
  5
234
330
2
100
AcDbEntity
  8
0
100
AcDbLine
 10
21740.91941259964
 20
-813.6978497591718
 30
0.0
 11
21740.93498659674
 21
-813.6966871373461
 31
0.0
  0
LINE
  5
235
330
2
100
AcDbEntity
  8
0
100
AcDbLine
 10
21740.93498659674
 20
-813.6966871373461
 30
0.0
 11
21740.95054912178
 21
-813.6955048238577
 31
0.0
  0
LINE
  5
236
330
2
100
AcDbEntity
  8
0
100
AcDbLine
 10
21740.95054912178
 20
-813.6955048238577
 30
0.0
 11
21740.96609992
 21
-813.6943024628362
 31
0.0
  0
LINE
  5
237
330
2
100
AcDbEntity
  8
0
100
AcDbLine
 10
21740.96609992
 20
-813.6943024628362
 30
0.0
 11
21740.98163873665
 21
-813.6930796984179
 31
0.0
  0
LINE
  5
238
330
2
100
AcDbEntity
  8
0
100
AcDbLine
 10
21740.98163873665
 20
-813.6930796984179
 30
0.0
 11
21740.99716531697
 21
-813.6918361747175
 31
0.0
  0
LINE
  5
239
330
2
100
AcDbEntity
  8
0
100
AcDbLine
 10
21740.99716531697
 20
-813.6918361747175
 30
0.0
 11
21741.01267940621
 21
-813.6905715358679
 31
0.0
  0
LINE
  5
23A
330
2
100
AcDbEntity
  8
0
100
AcDbLine
 10
21741.01267940621
 20
-813.6905715358679
 30
0.0
 11
21741.02818074959
 21
-813.6892854259949
 31
0.0
  0
LINE
  5
23B
330
2
100
AcDbEntity
  8
0
100
AcDbLine
 10
21741.02818074959
 20
-813.6892854259949
 30
0.0
 11
21741.04366909237
 21
-813.6879774892276
 31
0.0
  0
LINE
  5
23C
330
2
100
AcDbEntity
  8
0
100
AcDbLine
 10
21741.04366909237
 20
-813.6879774892276
 30
0.0
 11
21741.0591441798
 21
-813.6866473696882
 31
0.0
  0
LINE
  5
23D
330
2
100
AcDbEntity
  8
0
100
AcDbLine
 10
21741.0591441798
 20
-813.6866473696882
 30
0.0
 11
21741.07460575711
 21
-813.685294711513
 31
0.0
  0
LINE
  5
23E
330
2
100
AcDbEntity
  8
0
100
AcDbLine
 10
21741.07460575711
 20
-813.685294711513
 30
0.0
 11
21741.09005356953
 21
-813.6839191588205
 31
0.0
  0
LINE
  5
23F
330
2
100
AcDbEntity
  8
0
100
AcDbLine
 10
21741.09005356953
 20
-813.6839191588205
 30
0.0
 11
21741.10548736233
 21
-813.68252035574
 31
0.0
  0
LINE
  5
240
330
2
100
AcDbEntity
  8
0
100
AcDbLine
 10
21741.10548736233
 20
-813.68252035574
 30
0.0
 11
21741.12090688074
 21
-813.6810979464007
 31
0.0
  0
LINE
  5
241
330
2
100
AcDbEntity
  8
0
100
AcDbLine
 10
21741.12090688074
 20
-813.6810979464007
 30
0.0
 11
21741.13631186999
 21
-813.679651574932
 31
0.0
  0
LINE
  5
242
330
2
100
AcDbEntity
  8
0
100
AcDbLine
 10
21741.13631186999
 20
-813.679651574932
 30
0.0
 11
21741.15170207535
 21
-813.678180885452
 31
0.0
  0
LINE
  5
243
330
2
100
AcDbEntity
  8
0
100
AcDbLine
 10
21741.15170207535
 20
-813.678180885452
 30
0.0
 11
21741.16707724204
 21
-813.6766855221011
 31
0.0
  0
LINE
  5
244
330
2
100
AcDbEntity
  8
0
100
AcDbLine
 10
21741.16707724204
 20
-813.6766855221011
 30
0.0
 11
21741.1824371153
 21
-813.6751651289905
 31
0.0
  0
LINE
  5
245
330
2
100
AcDbEntity
  8
0
100
AcDbLine
 10
21741.1824371153
 20
-813.6751651289905
 30
0.0
 11
21741.1977814404
 21
-813.6736193502601
 31
0.0
  0
LINE
  5
246
330
2
100
AcDbEntity
  8
0
100
AcDbLine
 10
21741.1977814404
 20
-813.6736193502601
 30
0.0
 11
21741.21310996255
 21
-813.6720478300322
 31
0.0
  0
LINE
  5
247
330
2
100
AcDbEntity
  8
0
100
AcDbLine
 10
21741.21310996255
 20
-813.6720478300322
 30
0.0
 11
21741.22842242701
 21
-813.6704502124358
 31
0.0
  0
LINE
  5
248
330
2
100
AcDbEntity
  8
0
100
AcDbLine
 10
21741.22842242701
 20
-813.6704502124358
 30
0.0
 11
21741.24371857902
 21
-813.668826141593
 31
0.0
  0
LINE
  5
249
330
2
100
AcDbEntity
  8
0
100
AcDbLine
 10
21741.24371857902
 20
-813.668826141593
 30
0.0
 11
21741.25899816383
 21
-813.6671752616402
 31
0.0
  0
LINE
  5
24A
330
2
100
AcDbEntity
  8
0
100
AcDbLine
 10
21741.25899816383
 20
-813.6671752616402
 30
0.0
 11
21741.27426092666
 21
-813.6654972166924
 31
0.0
  0
LINE
  5
24B
330
2
100
AcDbEntity
  8
0
100
AcDbLine
 10
21741.27426092666
 20
-813.6654972166924
 30
0.0
 11
21741.28950661278
 21
-813.6637916508862
 31
0.0
  0
LINE
  5
24C
330
2
100
AcDbEntity
  8
0
100
AcDbLine
 10
21741.28950661278
 20
-813.6637916508862
 30
0.0
 11
21741.30473496741
 21
-813.662058208347
 31
0.0
  0
LINE
  5
24D
330
2
100
AcDbEntity
  8
0
100
AcDbLine
 10
21741.30473496741
 20
-813.662058208347
 30
0.0
 11
21741.31994573581
 21
-813.6602965332004
 31
0.0
  0
LINE
  5
24E
330
2
100
AcDbEntity
  8
0
100
AcDbLine
 10
21741.31994573581
 20
-813.6602965332004
 30
0.0
 11
21741.33513866321
 21
-813.6585062695758
 31
0.0
  0
LINE
  5
24F
330
2
100
AcDbEntity
  8
0
100
AcDbLine
 10
21741.33513866321
 20
-813.6585062695758
 30
0.0
 11
21741.35031349486
 21
-813.6566870615952
 31
0.0
  0
LINE
  5
250
330
2
100
AcDbEntity
  8
0
100
AcDbLine
 10
21741.35031349486
 20
-813.6566870615952
 30
0.0
 11
21741.365469976
 21
-813.6548385533915
 31
0.0
  0
LINE
  5
251
330
2
100
AcDbEntity
  8
0
100
AcDbLine
 10
21741.365469976
 20
-813.6548385533915
 30
0.0
 11
21741.38060785187
 21
-813.6529603890831
 31
0.0
  0
LINE
  5
252
330
2
100
AcDbEntity
  8
0
100
AcDbLine
 10
21741.38060785187
 20
-813.6529603890831
 30
0.0
 11
21741.39572686771
 21
-813.6510522128101
 31
0.0
  0
LINE
  5
253
330
2
100
AcDbEntity
  8
0
100
AcDbLine
 10
21741.39572686771
 20
-813.6510522128101
 30
0.0
 11
21741.41082676877
 21
-813.649113668691
 31
0.0
  0
LINE
  5
254
330
2
100
AcDbEntity
  8
0
100
AcDbLine
 10
21741.41082676877
 20
-813.649113668691
 30
0.0
 11
21741.42590730029
 21
-813.6471444008584
 31
0.0
  0
LINE
  5
255
330
2
100
AcDbEntity
  8
0
100
AcDbLine
 10
21741.42590730029
 20
-813.6471444008584
 30
0.0
 11
21741.44096820751
 21
-813.645144053431
 31
0.0
  0
LINE
  5
256
330
2
100
AcDbEntity
  8
0
100
AcDbLine
 10
21741.44096820751
 20
-813.645144053431
 30
0.0
 11
21741.45600923568
 21
-813.6431122705417
 31
0.0
  0
LINE
  5
257
330
2
100
AcDbEntity
  8
0
100
AcDbLine
 10
21741.45600923568
 20
-813.6431122705417
 30
0.0
 11
21741.47103013003
 21
-813.6410486963159
 31
0.0
  0
LINE
  5
258
330
2
100
AcDbEntity
  8
0
100
AcDbLine
 10
21741.47103013003
 20
-813.6410486963159
 30
0.0
 11
21741.48603063581
 21
-813.6389529748866
 31
0.0
  0
LINE
  5
259
330
2
100
AcDbEntity
  8
0
100
AcDbLine
 10
21741.48603063581
 20
-813.6389529748866
 30
0.0
 11
21741.50101049827
 21
-813.6368247503723
 31
0.0
  0
LINE
  5
25A
330
2
100
AcDbEntity
  8
0
100
AcDbLine
 10
21741.50101049827
 20
-813.6368247503723
 30
0.0
 11
21741.51596946264
 21
-813.6346636669058
 31
0.0
  0
LINE
  5
25B
330
2
100
AcDbEntity
  8
0
100
AcDbLine
 10
21741.51596946264
 20
-813.6346636669058
 30
0.0
 11
21741.53090727416
 21
-813.6324693686129
 31
0.0
  0
LINE
  5
25C
330
2
100
AcDbEntity
  8
0
100
AcDbLine
 10
21741.53090727416
 20
-813.6324693686129
 30
0.0
 11
21741.54582367809
 21
-813.6302414996189
 31
0.0
  0
LINE
  5
25D
330
2
100
AcDbEntity
  8
0
100
AcDbLine
 10
21741.54582367809
 20
-813.6302414996189
 30
0.0
 11
21741.56071841966
 21
-813.6279797040497
 31
0.0
  0
LINE
  5
25E
330
2
100
AcDbEntity
  8
0
100
AcDbLine
 10
21741.56071841966
 20
-813.6279797040497
 30
0.0
 11
21741.57559124411
 21
-813.6256836260381
 31
0.0
  0
LINE
  5
25F
330
2
100
AcDbEntity
  8
0
100
AcDbLine
 10
21741.57559124411
 20
-813.6256836260381
 30
0.0
 11
21741.59044189669
 21
-813.6233529097061
 31
0.0
  0
LINE
  5
260
330
2
100
AcDbEntity
  8
0
100
AcDbLine
 10
21741.59044189669
 20
-813.6233529097061
 30
0.0
 11
21741.60527012264
 21
-813.6209871991832
 31
0.0
  0
LINE
  5
261
330
2
100
AcDbEntity
  8
0
100
AcDbLine
 10
21741.60527012264
 20
-813.6209871991832
 30
0.0
 11
21741.6200756672
 21
-813.6185861385984
 31
0.0
  0
LINE
  5
262
330
2
100
AcDbEntity
  8
0
100
AcDbLine
 10
21741.6200756672
 20
-813.6185861385984
 30
0.0
 11
21741.63485827561
 21
-813.6161493720738
 31
0.0
  0
LINE
  5
263
330
2
100
AcDbEntity
  8
0
100
AcDbLine
 10
21741.63485827561
 20
-813.6161493720738
 30
0.0
 11
21741.64961769312
 21
-813.6136765437422
 31
0.0
  0
LINE
  5
264
330
2
100
AcDbEntity
  8
0
100
AcDbLine
 10
21741.64961769312
 20
-813.6136765437422
 30
0.0
 11
21741.66435366498
 21
-813.6111672977294
 31
0.0
  0
LINE
  5
265
330
2
100
AcDbEntity
  8
0
100
AcDbLine
 10
21741.66435366498
 20
-813.6111672977294
 30
0.0
 11
21741.67906593641
 21
-813.6086212781574
 31
0.0
  0
LINE
  5
266
330
2
100
AcDbEntity
  8
0
100
AcDbLine
 10
21741.67906593641
 20
-813.6086212781574
 30
0.0
 11
21741.69375425267
 21
-813.606038129159
 31
0.0
  0
LINE
  5
267
330
2
100
AcDbEntity
  8
0
100
AcDbLine
 10
21741.69375425267
 20
-813.606038129159
 30
0.0
 11
21741.70841835899
 21
-813.60341749486
 31
0.0
  0
LINE
  5
268
330
2
100
AcDbEntity
  8
0
100
AcDbLine
 10
21741.70841835899
 20
-813.60341749486
 30
0.0
 11
21741.72305800063
 21
-813.6007590193857
 31
0.0
  0
LINE
  5
269
330
2
100
AcDbEntity
  8
0
100
AcDbLine
 10
21741.72305800063
 20
-813.6007590193857
 30
0.0
 11
21741.73767292281
 21
-813.5980623468658
 31
0.0
  0
LINE
  5
26A
330
2
100
AcDbEntity
  8
0
100
AcDbLine
 10
21741.73767292281
 20
-813.5980623468658
 30
0.0
 11
21741.75226287079
 21
-813.5953271214257
 31
0.0
  0
LINE
  5
26B
330
2
100
AcDbEntity
  8
0
100
AcDbLine
 10
21741.75226287079
 20
-813.5953271214257
 30
0.0
 11
21741.76682758981
 21
-813.592552987191
 31
0.0
  0
LINE
  5
26C
330
2
100
AcDbEntity
  8
0
100
AcDbLine
 10
21741.76682758981
 20
-813.592552987191
 30
0.0
 11
21741.78136682511
 21
-813.5897395882912
 31
0.0
  0
LINE
  5
26D
330
2
100
AcDbEntity
  8
0
100
AcDbLine
 10
21741.78136682511
 20
-813.5897395882912
 30
0.0
 11
21741.79588032193
 21
-813.5868865688554
 31
0.0
  0
LINE
  5
26E
330
2
100
AcDbEntity
  8
0
100
AcDbLine
 10
21741.79588032193
 20
-813.5868865688554
 30
0.0
 11
21741.81036782551
 21
-813.5839935730055
 31
0.0
  0
LINE
  5
26F
330
2
100
AcDbEntity
  8
0
100
AcDbLine
 10
21741.81036782551
 20
-813.5839935730055
 30
0.0
 11
21741.8248290811
 21
-813.581060244871
 31
0.0
  0
LINE
  5
270
330
2
100
AcDbEntity
  8
0
100
AcDbLine
 10
21741.8248290811
 20
-813.581060244871
 30
0.0
 11
21741.83926383394
 21
-813.5780862285846
 31
0.0
  0
LINE
  5
271
330
2
100
AcDbEntity
  8
0
100
AcDbLine
 10
21741.83926383394
 20
-813.5780862285846
 30
0.0
 11
21741.85367182928
 21
-813.5750711682648
 31
0.0
  0
LINE
  5
272
330
2
100
AcDbEntity
  8
0
100
AcDbLine
 10
21741.85367182928
 20
-813.5750711682648
 30
0.0
 11
21741.86805281234
 21
-813.5720147080446
 31
0.0
  0
LINE
  5
273
330
2
100
AcDbEntity
  8
0
100
AcDbLine
 10
21741.86805281234
 20
-813.5720147080446
 30
0.0
 11
21741.88240652838
 21
-813.5689164920496
 31
0.0
  0
LINE
  5
274
330
2
100
AcDbEntity
  8
0
100
AcDbLine
 10
21741.88240652838
 20
-813.5689164920496
 30
0.0
 11
21741.89673272265
 21
-813.5657761644015
 31
0.0
  0
LINE
  5
275
330
2
100
AcDbEntity
  8
0
100
AcDbLine
 10
21741.89673272265
 20
-813.5657761644015
 30
0.0
 11
21741.91103114037
 21
-813.5625933692372
 31
0.0
  0
LINE
  5
276
330
2
100
AcDbEntity
  8
0
100
AcDbLine
 10
21741.91103114037
 20
-813.5625933692372
 30
0.0
 11
21741.9253015268
 21
-813.5593677506786
 31
0.0
  0
LINE
  5
277
330
2
100
AcDbEntity
  8
0
100
AcDbLine
 10
21741.9253015268
 20
-813.5593677506786
 30
0.0
 11
21741.93954362718
 21
-813.5560989528476
 31
0.0
  0
LINE
  5
278
330
2
100
AcDbEntity
  8
0
100
AcDbLine
 10
21741.93954362718
 20
-813.5560989528476
 30
0.0
 11
21741.95375718674
 21
-813.5527866198845
 31
0.0
  0
LINE
  5
279
330
2
100
AcDbEntity
  8
0
100
AcDbLine
 10
21741.95375718674
 20
-813.5527866198845
 30
0.0
 11
21741.96794195074
 21
-813.549430395904
 31
0.0
  0
LINE
  5
27A
330
2
100
AcDbEntity
  8
0
100
AcDbLine
 10
21741.96794195074
 20
-813.549430395904
 30
0.0
 11
21741.98209766442
 21
-813.5460299250389
 31
0.0
  0
LINE
  5
27B
330
2
100
AcDbEntity
  8
0
100
AcDbLine
 10
21741.98209766442
 20
-813.5460299250389
 30
0.0
 11
21741.996224073
 21
-813.5425848514151
 31
0.0
  0
LINE
  5
27C
330
2
100
AcDbEntity
  8
0
100
AcDbLine
 10
21741.996224073
 20
-813.5425848514151
 30
0.0
 11
21742.01032092175
 21
-813.5390948191616
 31
0.0
  0
LINE
  5
27D
330
2
100
AcDbEntity
  8
0
100
AcDbLine
 10
21742.01032092175
 20
-813.5390948191616
 30
0.0
 11
21742.0243879559
 21
-813.5355594724043
 31
0.0
  0
LINE
  5
27E
330
2
100
AcDbEntity
  8
0
100
AcDbLine
 10
21742.0243879559
 20
-813.5355594724043
 30
0.0
 11
21742.0384249207
 21
-813.531978455272
 31
0.0
  0
LINE
  5
27F
330
2
100
AcDbEntity
  8
0
100
AcDbLine
 10
21742.0384249207
 20
-813.531978455272
 30
0.0
 11
21742.05243156138
 21
-813.5283514118873
 31
0.0
  0
LINE
  5
280
330
2
100
AcDbEntity
  8
0
100
AcDbLine
 10
21742.05243156138
 20
-813.5283514118873
 30
0.0
 11
21742.06640762319
 21
-813.5246779863791
 31
0.0
  0
LINE
  5
281
330
2
100
AcDbEntity
  8
0
100
AcDbLine
 10
21742.06640762319
 20
-813.5246779863791
 30
0.0
 11
21742.08035285138
 21
-813.5209578228769
 31
0.0
  0
LINE
  5
282
330
2
100
AcDbEntity
  8
0
100
AcDbLine
 10
21742.08035285138
 20
-813.5209578228769
 30
0.0
 11
21742.09426699118
 21
-813.5171905655061
 31
0.0
  0
LINE
  5
283
330
2
100
AcDbEntity
  8
0
100
AcDbLine
 10
21742.09426699118
 20
-813.5171905655061
 30
0.0
 11
21742.10814978783
 21
-813.5133758583924
 31
0.0
  0
LINE
  5
284
330
2
100
AcDbEntity
  8
0
100
AcDbLine
 10
21742.10814978783
 20
-813.5133758583924
 30
0.0
 11
21742.12200098658
 21
-813.5095133456688
 31
0.0
  0
LINE
  5
285
330
2
100
AcDbEntity
  8
0
100
AcDbLine
 10
21742.12200098658
 20
-813.5095133456688
 30
0.0
 11
21742.13582033268
 21
-813.5056026714574
 31
0.0
  0
LINE
  5
286
330
2
100
AcDbEntity
  8
0
100
AcDbLine
 10
21742.13582033268
 20
-813.5056026714574
 30
0.0
 11
21742.14960757136
 21
-813.5016434798835
 31
0.0
  0
LINE
  5
287
330
2
100
AcDbEntity
  8
0
100
AcDbLine
 10
21742.14960757136
 20
-813.5016434798835
 30
0.0
 11
21742.16336244787
 21
-813.4976354150804
 31
0.0
  0
LINE
  5
288
330
2
100
AcDbEntity
  8
0
100
AcDbLine
 10
21742.16336244787
 20
-813.4976354150804
 30
0.0
 11
21742.17708470745
 21
-813.4935781211698
 31
0.0
  0
LINE
  5
289
330
2
100
AcDbEntity
  8
0
100
AcDbLine
 10
21742.17708470745
 20
-813.4935781211698
 30
0.0
 11
21742.19077409534
 21
-813.4894712422847
 31
0.0
  0
LINE
  5
28A
330
2
100
AcDbEntity
  8
0
100
AcDbLine
 10
21742.19077409534
 20
-813.4894712422847
 30
0.0
 11
21742.20443035678
 21
-813.4853144225434
 31
0.0
  0
LINE
  5
28B
330
2
100
AcDbEntity
  8
0
100
AcDbLine
 10
21742.20443035678
 20
-813.4853144225434
 30
0.0
 11
21742.21805323702
 21
-813.4811073060792
 31
0.0
  0
LINE
  5
28C
330
2
100
AcDbEntity
  8
0
100
AcDbLine
 10
21742.21805323702
 20
-813.4811073060792
 30
0.0
 11
21742.23164248131
 21
-813.4768495370245
 31
0.0
  0
LINE
  5
28D
330
2
100
AcDbEntity
  8
0
100
AcDbLine
 10
21742.23164248131
 20
-813.4768495370245
 30
0.0
 11
21742.24519783487
 21
-813.4725407594906
 31
0.0
  0
LINE
  5
28E
330
2
100
AcDbEntity
  8
0
100
AcDbLine
 10
21742.24519783487
 20
-813.4725407594906
 30
0.0
 11
21742.25871904295
 21
-813.4681806176214
 31
0.0
  0
LINE
  5
28F
330
2
100
AcDbEntity
  8
0
100
AcDbLine
 10
21742.25871904295
 20
-813.4681806176214
 30
0.0
 11
21742.27220585081
 21
-813.463768755535
 31
0.0
  0
LINE
  5
290
330
2
100
AcDbEntity
  8
0
100
AcDbLine
 10
21742.27220585081
 20
-813.463768755535
 30
0.0
 11
21742.28565800367
 21
-813.4593048173574
 31
0.0
  0
LINE
  5
291
330
2
100
AcDbEntity
  8
0
100
AcDbLine
 10
21742.28565800367
 20
-813.4593048173574
 30
0.0
 11
21742.29907524678
 21
-813.4547884472212
 31
0.0
  0
LINE
  5
292
330
2
100
AcDbEntity
  8
0
100
AcDbLine
 10
21742.29907524678
 20
-813.4547884472212
 30
0.0
 11
21742.3124573254
 21
-813.450219289256
 31
0.0
  0
LINE
  5
293
330
2
100
AcDbEntity
  8
0
100
AcDbLine
 10
21742.3124573254
 20
-813.450219289256
 30
0.0
 11
21742.32580398475
 21
-813.4455969875798
 31
0.0
  0
LINE
  5
294
330
2
100
AcDbEntity
  8
0
100
AcDbLine
 10
21742.32580398475
 20
-813.4455969875798
 30
0.0
 11
21742.33911497007
 21
-813.4409211863184
 31
0.0
  0
LINE
  5
295
330
2
100
AcDbEntity
  8
0
100
AcDbLine
 10
21742.33911497007
 20
-813.4409211863184
 30
0.0
 11
21742.35239002662
 21
-813.4361915296121
 31
0.0
  0
LINE
  5
296
330
2
100
AcDbEntity
  8
0
100
AcDbLine
 10
21742.35239002662
 20
-813.4361915296121
 30
0.0
 11
21742.36562889963
 21
-813.4314076615792
 31
0.0
  0
LINE
  5
297
330
2
100
AcDbEntity
  8
0
100
AcDbLine
 10
21742.36562889963
 20
-813.4314076615792
 30
0.0
 11
21742.37883133435
 21
-813.4265692263452
 31
0.0
  0
LINE
  5
298
330
2
100
AcDbEntity
  8
0
100
AcDbLine
 10
21742.37883133435
 20
-813.4265692263452
 30
0.0
 11
21742.39199707602
 21
-813.4216758680432
 31
0.0
  0
LINE
  5
299
330
2
100
AcDbEntity
  8
0
100
AcDbLine
 10
21742.39199707602
 20
-813.4216758680432
 30
0.0
 11
21742.40512586989
 21
-813.4167272307987
 31
0.0
  0
LINE
  5
29A
330
2
100
AcDbEntity
  8
0
100
AcDbLine
 10
21742.40512586989
 20
-813.4167272307987
 30
0.0
 11
21742.41821746118
 21
-813.4117229587337
 31
0.0
  0
LINE
  5
29B
330
2
100
AcDbEntity
  8
0
100
AcDbLine
 10
21742.41821746118
 20
-813.4117229587337
 30
0.0
 11
21742.43127159515
 21
-813.4066626959775
 31
0.0
  0
LINE
  5
29C
330
2
100
AcDbEntity
  8
0
100
AcDbLine
 10
21742.43127159515
 20
-813.4066626959775
 30
0.0
 11
21742.44428801705
 21
-813.4015460866667
 31
0.0
  0
LINE
  5
29D
330
2
100
AcDbEntity
  8
0
100
AcDbLine
 10
21742.44428801705
 20
-813.4015460866667
 30
0.0
 11
21742.4572664721
 21
-813.396372774916
 31
0.0
  0
LINE
  5
29E
330
2
100
AcDbEntity
  8
0
100
AcDbLine
 10
21742.4572664721
 20
-813.396372774916
 30
0.0
 11
21742.47020670556
 21
-813.3911424048546
 31
0.0
  0
LINE
  5
29F
330
2
100
AcDbEntity
  8
0
100
AcDbLine
 10
21742.47020670556
 20
-813.3911424048546
 30
0.0
 11
21742.48310846267
 21
-813.385854620612
 31
0.0
  0
LINE
  5
2A0
330
2
100
AcDbEntity
  8
0
100
AcDbLine
 10
21742.48310846267
 20
-813.385854620612
 30
0.0
 11
21742.49597148866
 21
-813.3805090663209
 31
0.0
  0
LINE
  5
2A1
330
2
100
AcDbEntity
  8
0
100
AcDbLine
 10
21742.49597148866
 20
-813.3805090663209
 30
0.0
 11
21742.50879552879
 21
-813.3751053860997
 31
0.0
  0
LINE
  5
2A2
330
2
100
AcDbEntity
  8
0
100
AcDbLine
 10
21742.50879552879
 20
-813.3751053860997
 30
0.0
 11
21742.52158032829
 21
-813.3696432240812
 31
0.0
  0
LINE
  5
2A3
330
2
100
AcDbEntity
  8
0
100
AcDbLine
 10
21742.52158032829
 20
-813.3696432240812
 30
0.0
 11
21742.53432563241
 21
-813.3641222243877
 31
0.0
  0
LINE
  5
2A4
330
2
100
AcDbEntity
  8
0
100
AcDbLine
 10
21742.53432563241
 20
-813.3641222243877
 30
0.0
 11
21742.54703118639
 21
-813.3585420311518
 31
0.0
  0
LINE
  5
2A5
330
2
100
AcDbEntity
  8
0
100
AcDbLine
 10
21742.54703118639
 20
-813.3585420311518
 30
0.0
 11
21742.55969673547
 21
-813.3529022884959
 31
0.0
  0
LINE
  5
2A6
330
2
100
AcDbEntity
  8
0
100
AcDbLine
 10
21742.55969673547
 20
-813.3529022884959
 30
0.0
 11
21742.5723220249
 21
-813.3472026405488
 31
0.0
  0
LINE
  5
2A7
330
2
100
AcDbEntity
  8
0
100
AcDbLine
 10
21742.5723220249
 20
-813.3472026405488
 30
0.0
 11
21742.58490679991
 21
-813.3414427314365
 31
0.0
  0
LINE
  5
2A8
330
2
100
AcDbEntity
  8
0
100
AcDbLine
 10
21742.58490679991
 20
-813.3414427314365
 30
0.0
 11
21742.59745080575
 21
-813.3356222052917
 31
0.0
  0
LINE
  5
2A9
330
2
100
AcDbEntity
  8
0
100
AcDbLine
 10
21742.59745080575
 20
-813.3356222052917
 30
0.0
 11
21742.60995378766
 21
-813.3297407062364
 31
0.0
  0
LINE
  5
2AA
330
2
100
AcDbEntity
  8
0
100
AcDbLine
 10
21742.60995378766
 20
-813.3297407062364
 30
0.0
 11
21742.62241549089
 21
-813.3237978783963
 31
0.0
  0
LINE
  5
2AB
330
2
100
AcDbEntity
  8
0
100
AcDbLine
 10
21742.62241549089
 20
-813.3237978783963
 30
0.0
 11
21742.63483566068
 21
-813.3177933659045
 31
0.0
  0
LINE
  5
2AC
330
2
100
AcDbEntity
  8
0
100
AcDbLine
 10
21742.63483566068
 20
-813.3177933659045
 30
0.0
 11
21742.64721404226
 21
-813.311726812879
 31
0.0
  0
LINE
  5
2AD
330
2
100
AcDbEntity
  8
0
100
AcDbLine
 10
21742.64721404226
 20
-813.311726812879
 30
0.0
 11
21742.65955038089
 21
-813.3055978634565
 31
0.0
  0
LINE
  5
2AE
330
2
100
AcDbEntity
  8
0
100
AcDbLine
 10
21742.65955038089
 20
-813.3055978634565
 30
0.0
 11
21742.6718444218
 21
-813.2994061617591
 31
0.0
  0
LINE
  5
2AF
330
2
100
AcDbEntity
  8
0
100
AcDbLine
 10
21742.6718444218
 20
-813.2994061617591
 30
0.0
 11
21742.68409591024
 21
-813.293151351916
 31
0.0
  0
LINE
  5
2B0
330
2
100
AcDbEntity
  8
0
100
AcDbLine
 10
21742.68409591024
 20
-813.293151351916
 30
0.0
 11
21742.69630459145
 21
-813.2868330780565
 31
0.0
  0
LINE
  5
2B1
330
2
100
AcDbEntity
  8
0
100
AcDbLine
 10
21742.69630459145
 20
-813.2868330780565
 30
0.0
 11
21742.70847021066
 21
-813.2804509842991
 31
0.0
  0
LINE
  5
2B2
330
2
100
AcDbEntity
  8
0
100
AcDbLine
 10
21742.70847021066
 20
-813.2804509842991
 30
0.0
 11
21742.72059251314
 21
-813.2740047147763
 31
0.0
  0
LINE
  5
2B3
330
2
100
AcDbEntity
  8
0
100
AcDbLine
 10
21742.72059251314
 20
-813.2740047147763
 30
0.0
 11
21742.73267124411
 21
-813.2674939136213
 31
0.0
  0
LINE
  5
2B4
330
2
100
AcDbEntity
  8
0
100
AcDbLine
 10
21742.73267124411
 20
-813.2674939136213
 30
0.0
 11
21742.74470614883
 21
-813.2609182249526
 31
0.0
  0
LINE
  5
2B5
330
2
100
AcDbEntity
  8
0
100
AcDbLine
 10
21742.74470614883
 20
-813.2609182249526
 30
0.0
 11
21742.75669697252
 21
-813.2542772928955
 31
0.0
  0
LINE
  5
2B6
330
2
100
AcDbEntity
  8
0
100
AcDbLine
 10
21742.75669697252
 20
-813.2542772928955
 30
0.0
 11
21742.76864346043
 21
-813.2475707615904
 31
0.0
  0
LINE
  5
2B7
330
2
100
AcDbEntity
  8
0
100
AcDbLine
 10
21742.76864346043
 20
-813.2475707615904
 30
0.0
 11
21742.78054535782
 21
-813.2407982751484
 31
0.0
  0
LINE
  5
2B8
330
2
100
AcDbEntity
  8
0
100
AcDbLine
 10
21742.78054535782
 20
-813.2407982751484
 30
0.0
 11
21742.79240240991
 21
-813.2339594777095
 31
0.0
  0
LINE
  5
2B9
330
2
100
AcDbEntity
  8
0
100
AcDbLine
 10
21742.79240240991
 20
-813.2339594777095
 30
0.0
 11
21742.80421436196
 21
-813.2270540133923
 31
0.0
  0
LINE
  5
2BA
330
2
100
AcDbEntity
  8
0
100
AcDbLine
 10
21742.80421436196
 20
-813.2270540133923
 30
0.0
 11
21742.8159809592
 21
-813.2200815263258
 31
0.0
  0
LINE
  5
2BB
330
2
100
AcDbEntity
  8
0
100
AcDbLine
 10
21742.8159809592
 20
-813.2200815263258
 30
0.0
 11
21742.82770194688
 21
-813.2130416606397
 31
0.0
  0
LINE
  5
2BC
330
2
100
AcDbEntity
  8
0
100
AcDbLine
 10
21742.82770194688
 20
-813.2130416606397
 30
0.0
 11
21742.83937707023
 21
-813.2059340604628
 31
0.0
  0
LINE
  5
2BD
330
2
100
AcDbEntity
  8
0
100
AcDbLine
 10
21742.83937707023
 20
-813.2059340604628
 30
0.0
 11
21742.85100607451
 21
-813.1987583699174
 31
0.0
  0
LINE
  5
2BE
330
2
100
AcDbEntity
  8
0
100
AcDbLine
 10
21742.85100607451
 20
-813.1987583699174
 30
0.0
 11
21742.86258870496
 21
-813.191514233129
 31
0.0
  0
LINE
  5
2BF
330
2
100
AcDbEntity
  8
0
100
AcDbLine
 10
21742.86258870496
 20
-813.191514233129
 30
0.0
 11
21742.87412470681
 21
-813.1842012942342
 31
0.0
  0
LINE
  5
2C0
330
2
100
AcDbEntity
  8
0
100
AcDbLine
 10
21742.87412470681
 20
-813.1842012942342
 30
0.0
 11
21742.88561382531
 21
-813.1768191973515
 31
0.0
  0
LINE
  5
2C1
330
2
100
AcDbEntity
  8
0
100
AcDbLine
 10
21742.88561382531
 20
-813.1768191973515
 30
0.0
 11
21742.8970558057
 21
-813.1693675866136
 31
0.0
  0
LINE
  5
2C2
330
2
100
AcDbEntity
  8
0
100
AcDbLine
 10
21742.8970558057
 20
-813.1693675866136
 30
0.0
 11
21742.90845039323
 21
-813.1618461061389
 31
0.0
  0
LINE
  5
2C3
330
2
100
AcDbEntity
  8
0
100
AcDbLine
 10
21742.90845039323
 20
-813.1618461061389
 30
0.0
 11
21742.91979733313
 21
-813.1542544000639
 31
0.0
  0
LINE
  5
2C4
330
2
100
AcDbEntity
  8
0
100
AcDbLine
 10
21742.91979733313
 20
-813.1542544000639
 30
0.0
 11
21742.93109637066
 21
-813.1465921125146
 31
0.0
  0
LINE
  5
2C5
330
2
100
AcDbEntity
  8
0
100
AcDbLine
 10
21742.93109637066
 20
-813.1465921125146
 30
0.0
 11
21742.94234725104
 21
-813.1388588876125
 31
0.0
  0
LINE
  5
2C6
330
2
100
AcDbEntity
  8
0
100
AcDbLine
 10
21742.94234725104
 20
-813.1388588876125
 30
0.0
 11
21742.95354971953
 21
-813.1310543694871
 31
0.0
  0
LINE
  5
2C7
330
2
100
AcDbEntity
  8
0
100
AcDbLine
 10
21742.95354971953
 20
-813.1310543694871
 30
0.0
 11
21742.96470352137
 21
-813.1231782022714
 31
0.0
  0
LINE
  5
2C8
330
2
100
AcDbEntity
  8
0
100
AcDbLine
 10
21742.96470352137
 20
-813.1231782022714
 30
0.0
 11
21742.97580840179
 21
-813.1152300300836
 31
0.0
  0
LINE
  5
2C9
330
2
100
AcDbEntity
  8
0
100
AcDbLine
 10
21742.97580840179
 20
-813.1152300300836
 30
0.0
 11
21742.98686410605
 21
-813.1072094970567
 31
0.0
  0
LINE
  5
2CA
330
2
100
AcDbEntity
  8
0
100
AcDbLine
 10
21742.98686410605
 20
-813.1072094970567
 30
0.0
 11
21742.99787037939
 21
-813.0991162473165
 31
0.0
  0
LINE
  5
2CB
330
2
100
AcDbEntity
  8
0
100
AcDbLine
 10
21742.99787037939
 20
-813.0991162473165
 30
0.0
 11
21743.00882696703
 21
-813.090949924992
 31
0.0
  0
LINE
  5
2CC
330
2
100
AcDbEntity
  8
0
100
AcDbLine
 10
21743.00882696703
 20
-813.090949924992
 30
0.0
 11
21743.01973361425
 21
-813.0827101742053
 31
0.0
  0
LINE
  5
2CD
330
2
100
AcDbEntity
  8
0
100
AcDbLine
 10
21743.01973361425
 20
-813.0827101742053
 30
0.0
 11
21743.03059006626
 21
-813.0743966390818
 31
0.0
  0
LINE
  5
2CE
330
2
100
AcDbEntity
  8
0
100
AcDbLine
 10
21743.03059006626
 20
-813.0743966390818
 30
0.0
 11
21743.04139606831
 21
-813.0660089637622
 31
0.0
  0
LINE
  5
2CF
330
2
100
AcDbEntity
  8
0
100
AcDbLine
 10
21743.04139606831
 20
-813.0660089637622
 30
0.0
 11
21743.05215136566
 21
-813.0575467923572
 31
0.0
  0
LINE
  5
2D0
330
2
100
AcDbEntity
  8
0
100
AcDbLine
 10
21743.05215136566
 20
-813.0575467923572
 30
0.0
 11
21743.06285570353
 21
-813.0490097690071
 31
0.0
  0
LINE
  5
2D1
330
2
100
AcDbEntity
  8
0
100
AcDbLine
 10
21743.06285570353
 20
-813.0490097690071
 30
0.0
 11
21743.07350882717
 21
-813.0403975378303
 31
0.0
  0
LINE
  5
2D2
330
2
100
AcDbEntity
  8
0
100
AcDbLine
 10
21743.07350882717
 20
-813.0403975378303
 30
0.0
 11
21743.08411048184
 21
-813.0317097429561
 31
0.0
  0
LINE
  5
2D3
330
2
100
AcDbEntity
  8
0
100
AcDbLine
 10
21743.08411048184
 20
-813.0317097429561
 30
0.0
 11
21743.09466041275
 21
-813.0229460285136
 31
0.0
  0
LINE
  5
2D4
330
2
100
AcDbEntity
  8
0
100
AcDbLine
 10
21743.09466041275
 20
-813.0229460285136
 30
0.0
 11
21743.10515836517
 21
-813.0141060386321
 31
0.0
  0
LINE
  5
2D5
330
2
100
AcDbEntity
  8
0
100
AcDbLine
 10
21743.10515836517
 20
-813.0141060386321
 30
0.0
 11
21743.11560408432
 21
-813.0051894174302
 31
0.0
  0
LINE
  5
2D6
330
2
100
AcDbEntity
  8
0
100
AcDbLine
 10
21743.11560408432
 20
-813.0051894174302
 30
0.0
 11
21743.12599731547
 21
-812.9961958090444
 31
0.0
  0
LINE
  5
2D7
330
2
100
AcDbEntity
  8
0
100
AcDbLine
 10
21743.12599731547
 20
-812.9961958090444
 30
0.0
 11
21743.13633780384
 21
-812.9871248575964
 31
0.0
  0
LINE
  5
2D8
330
2
100
AcDbEntity
  8
0
100
AcDbLine
 10
21743.13633780384
 20
-812.9871248575964
 30
0.0
 11
21743.14662529468
 21
-812.9779762072157
 31
0.0
  0
LINE
  5
2D9
330
2
100
AcDbEntity
  8
0
100
AcDbLine
 10
21743.14662529468
 20
-812.9779762072157
 30
0.0
 11
21743.15685953323
 21
-812.9687495020279
 31
0.0
  0
LINE
  5
2DA
330
2
100
AcDbEntity
  8
0
100
AcDbLine
 10
21743.15685953323
 20
-812.9687495020279
 30
0.0
 11
21743.16704026473
 21
-812.9594443861588
 31
0.0
  0
LINE
  5
2DB
330
2
100
AcDbEntity
  8
0
100
AcDbLine
 10
21743.16704026473
 20
-812.9594443861588
 30
0.0
 11
21743.17716723444
 21
-812.950060503741
 31
0.0
  0
LINE
  5
2DC
330
2
100
AcDbEntity
  8
0
100
AcDbLine
 10
21743.17716723444
 20
-812.950060503741
 30
0.0
 11
21743.18724018758
 21
-812.940597498893
 31
0.0
  0
LINE
  5
2DD
330
2
100
AcDbEntity
  8
0
100
AcDbLine
 10
21743.18724018758
 20
-812.940597498893
 30
0.0
 11
21743.1972588694
 21
-812.9310550157516
 31
0.0
  0
LINE
  5
2DE
330
2
100
AcDbEntity
  8
0
100
AcDbLine
 10
21743.1972588694
 20
-812.9310550157516
 30
0.0
 11
21743.20722302515
 21
-812.9214326984383
 31
0.0
  0
LINE
  5
2DF
330
2
100
AcDbEntity
  8
0
100
AcDbLine
 10
21743.20722302515
 20
-812.9214326984383
 30
0.0
 11
21743.21713240007
 21
-812.9117301910827
 31
0.0
  0
LINE
  5
2E0
330
2
100
AcDbEntity
  8
0
100
AcDbLine
 10
21743.21713240007
 20
-812.9117301910827
 30
0.0
 11
21743.22698673939
 21
-812.9019471378068
 31
0.0
  0
LINE
  5
2E1
330
2
100
AcDbEntity
  8
0
100
AcDbLine
 10
21743.22698673939
 20
-812.9019471378068
 30
0.0
 11
21743.23678578837
 21
-812.8920831827436
 31
0.0
  0
LINE
  5
2E2
330
2
100
AcDbEntity
  8
0
100
AcDbLine
 10
21743.23678578837
 20
-812.8920831827436
 30
0.0
 11
21743.24652929224
 21
-812.8821379700184
 31
0.0
  0
LINE
  5
2E3
330
2
100
AcDbEntity
  8
0
100
AcDbLine
 10
21743.24652929224
 20
-812.8821379700184
 30
0.0
 11
21743.25621699625
 21
-812.8721111437608
 31
0.0
  0
LINE
  5
2E4
330
2
100
AcDbEntity
  8
0
100
AcDbLine
 10
21743.25621699625
 20
-812.8721111437608
 30
0.0
 11
21743.26584864564
 21
-812.8620023480925
 31
0.0
  0
LINE
  5
2E5
330
2
100
AcDbEntity
  8
0
100
AcDbLine
 10
21743.26584864564
 20
-812.8620023480925
 30
0.0
 11
21743.27542398565
 21
-812.851811227143
 31
0.0
  0
LINE
  5
2E6
330
2
100
AcDbEntity
  8
0
100
AcDbLine
 10
21743.27542398565
 20
-812.851811227143
 30
0.0
 11
21743.28494276152
 21
-812.8415374250417
 31
0.0
  0
LINE
  5
2E7
330
2
100
AcDbEntity
  8
0
100
AcDbLine
 10
21743.28494276152
 20
-812.8415374250417
 30
0.0
 11
21743.29440471851
 21
-812.8311805859139
 31
0.0
  0
LINE
  5
2E8
330
2
100
AcDbEntity
  8
0
100
AcDbLine
 10
21743.29440471851
 20
-812.8311805859139
 30
0.0
 11
21743.30380960184
 21
-812.8207403538853
 31
0.0
  0
LINE
  5
2E9
330
2
100
AcDbEntity
  8
0
100
AcDbLine
 10
21743.30380960184
 20
-812.8207403538853
 30
0.0
 11
21743.31315715677
 21
-812.8102163730892
 31
0.0
  0
LINE
  5
2EA
330
2
100
AcDbEntity
  8
0
100
AcDbLine
 10
21743.31315715677
 20
-812.8102163730892
 30
0.0
 11
21743.32244712853
 21
-812.7996082876434
 31
0.0
  0
LINE
  5
2EB
330
2
100
AcDbEntity
  8
0
100
AcDbLine
 10
21743.32244712853
 20
-812.7996082876434
 30
0.0
 11
21743.33167926236
 21
-812.7889157416811
 31
0.0
  0
LINE
  5
2EC
330
2
100
AcDbEntity
  8
0
100
AcDbLine
 10
21743.33167926236
 20
-812.7889157416811
 30
0.0
 11
21743.34085330352
 21
-812.778138379328
 31
0.0
  0
LINE
  5
2ED
330
2
100
AcDbEntity
  8
0
100
AcDbLine
 10
21743.34085330352
 20
-812.778138379328
 30
0.0
 11
21743.34996899724
 21
-812.7672758447097
 31
0.0
  0
LINE
  5
2EE
330
2
100
AcDbEntity
  8
0
100
AcDbLine
 10
21743.34996899724
 20
-812.7672758447097
 30
0.0
 11
21743.35902608875
 21
-812.7563277819589
 31
0.0
  0
LINE
  5
2EF
330
2
100
AcDbEntity
  8
0
100
AcDbLine
 10
21743.35902608875
 20
-812.7563277819589
 30
0.0
 11
21743.36802432332
 21
-812.7452938351943
 31
0.0
  0
LINE
  5
2F0
330
2
100
AcDbEntity
  8
0
100
AcDbLine
 10
21743.36802432332
 20
-812.7452938351943
 30
0.0
 11
21743.37696344618
 21
-812.7341736485522
 31
0.0
  0
LINE
  5
2F1
330
2
100
AcDbEntity
  8
0
100
AcDbLine
 10
21743.37696344618
 20
-812.7341736485522
 30
0.0
 11
21743.38584320257
 21
-812.7229668661549
 31
0.0
  0
LINE
  5
2F2
330
2
100
AcDbEntity
  8
0
100
AcDbLine
 10
21743.38584320257
 20
-812.7229668661549
 30
0.0
 11
21743.38918765308
 21
-812.718684467547
 31
0.0
  0
LEADER
  5
2F3
330
2
100
AcDbEntity
  8
0
100
AcDbLeader
  3
STANDARD
 74
     0
 76
     2
 10
21872.49776322301
 20
-809.919831055563
 30
0.0
 10
21862.39674705369
 20
-824.1351613352517
 30
0.0
1001
ACAD
1000
DSTYLE
1002
{
1070
     5
1000

1002
}
  0
ARC
  5
2F4
330
2
100
AcDbEntity
  8
0
100
AcDbCircle
 10
22078.51770624734
 20
-791.662974640908
 30
0.0
 40
2.282879329572159
100
AcDbArc
 50
34.10884998158306
 51
92.79523867891287
  0
DIMENSION
  5
2F5
330
2
100
AcDbEntity
  8
0
100
AcDbDimension
  2
*D2
 10
22100.00098098997
 20
-800.5328114963567
 30
0.0
 11
22100.00098098997
 21
-755.5260215241187
 31
0.0
 70
   128
 71
     5
 42
-1.0
  3
STANDARD
100
AcDbAlignedDimension
 13
22074.90637760046
 23
-710.5328114963567
 33
0.0
 14
22074.90637760046
 24
-800.5328114963567
 34
0.0
 50
90.0
100
AcDbRotatedDimension
  0
LINE
  5
302
330
2
100
AcDbEntity
  8
0
100
AcDbLine
 10
22078.40637760046
 20
-714.0328114963567
 30
0.0
 11
22078.40637760046
 21
-797.0328114963567
 31
0.0
  0
LINE
  5
303
330
2
100
AcDbEntity
  8
0
100
AcDbLine
 10
22004.40637760046
 20
-800.5328114963567
 30
0.0
 11
22004.40637760046
 21
-710.5328114963567
 31
0.0
  0
LINE
  5
304
330
2
100
AcDbEntity
  8
0
100
AcDbLine
 10
21972.40637760046
 20
-800.5328114963567
 30
0.0
 11
21972.40637760046
 21
-710.5328114963567
 31
0.0
  0
DIMENSION
  5
305
102
{ACAD_XDICTIONARY
360
306
102
}
102
{ACAD_REACTORS
330
307
102
}
330
2
100
AcDbEntity
  8
0
100
AcDbDimension
  2
*D10
 10
21785.81764980426
 20
-797.0328114963567
 30
0.0
 11
21785.81764980426
 21
-754.1678548636054
 31
0.0
 70
   128
  1
\A1;{\f??|b0|i0|c0|p49;%%C}<>{\f??|b0|i0|c0|p49;\H0.7x;\S+0^ -0.035;\H1.429x;(h}7{\f??|b0|i0|c0|p49;)}
 71
     5
 42
-1.0
  3
STANDARD
100
AcDbAlignedDimension
 13
21860.40565510977
 23
-714.0328114963567
 33
0.0
 14
21860.40565510977
 24
-797.0328114963567
 34
0.0
 50
90.0
100
AcDbRotatedDimension
  0
LINE
  5
314
330
2
100
AcDbEntity
  8
0
100
AcDbLine
 10
21869.00565510977
 20
-710.5328114963567
 30
0.0
 11
21869.00565510977
 21
-800.5328114963567
 31
0.0
  0
LINE
  5
315
102
{ACAD_REACTORS
330
307
102
}
330
2
100
AcDbEntity
  8
0
100
AcDbLine
 10
21860.40565510977
 20
-714.0328114963567
 30
0.0
 11
21860.40565510977
 21
-797.0328114963567
 31
0.0
  0
LINE
  5
316
330
2
100
AcDbEntity
  8
0
100
AcDbLine
 10
21862.40565510977
 20
-710.5328114963567
 30
0.0
 11
21862.40565510977
 21
-800.5328114963567
 31
0.0
  0
TEXT
  5
317
330
2
100
AcDbEntity
  8
0
 62
     3
100
AcDbText
 10
21785.73704481059
 20
-822.1351613352517
 30
0.0
 40
5.0
  1
 LEAD WIRE 250mm
100
AcDbText
  0
LINE
  5
318
330
2
100
AcDbEntity
  8
0
 62
   123
 48
0.6
100
AcDbLine
 10
21862.39674705369
 20
-824.1351613352517
 30
0.0
 11
21784.3670247596
 21
-824.1351613352517
 31
0.0
  0
LINE
  5
319
330
2
100
AcDbEntity
  8
0
  6
CENTER
 62
     1
 48
0.6
100
AcDbLine
 10
22017.40637760046
 20
-797.9631735701651
 30
0.0
 11
22017.40637760046
 21
-804.9217038876594
 31
0.0
  0
LINE
  5
31A
330
2
100
AcDbEntity
  8
0
  6
CENTER
 62
     1
 48
0.6
100
AcDbLine
 10
22082.40787035575
 20
-791.5328114963568
 30
0.0
 11
22076.40637760046
 21
-791.5328114963568
 31
0.0
  0
ARC
  5
31B
330
2
100
AcDbEntity
  8
0
100
AcDbCircle
 10
22078.51770624734
 20
-791.4026483518073
 30
0.0
 40
2.282879329571919
100
AcDbArc
 50
267.2047613210871
 51
325.8911500184115
  0
LINE
  5
31C
330
2
100
AcDbEntity
  8
0
100
AcDbLine
 10
22080.40787035575
 20
-790.3828114963571
 30
0.0
 11
22080.40787035575
 21
-792.6828114963582
 31
0.0
  0
ARC
  5
31D
330
2
100
AcDbEntity
  8
0
100
AcDbCircle
 10
22017.53399517477
 20
-800.6440027092031
 30
0.0
 40
2.280330085890314
100
AcDbArc
 50
177.2050912589677
 51
235.9250110951441
  0
ARC
  5
31E
330
2
100
AcDbEntity
  8
0
100
AcDbCircle
 10
22017.27876002615
 20
-800.6440027092031
 30
0.0
 40
2.280330085889914
100
AcDbArc
 50
304.0749889048559
 51
2.794908741032267
  0
LINE
  5
31F
330
2
100
AcDbEntity
  8
0
100
AcDbLine
 10
22018.55637760046
 20
-802.5328114963567
 30
0.0
 11
22016.25637760046
 21
-802.5328114963567
 31
0.0
  0
LINE
  5
320
330
2
100
AcDbEntity
  8
0
100
AcDbLine
 10
21876.0700601464
 20
-802.1331357008776
 30
0.0
 11
21989.46738602641
 21
-802.1331357008739
 31
0.0
  0
LINE
  5
321
330
2
100
AcDbEntity
  8
0
100
AcDbLine
 10
21879.37576905145
 20
-807.1331357008721
 30
0.0
 11
21992.96719112067
 21
-807.1331357008721
 31
0.0
  0
LINE
  5
322
330
2
100
AcDbEntity
  8
0
100
AcDbLine
 10
21992.12085689822
 20
-800.5328114963567
 30
0.0
 11
21862.40565510977
 21
-800.5328114963567
 31
0.0
  0
LINE
  5
323
330
2
100
AcDbEntity
  8
0
100
AcDbLine
 10
22074.90637760046
 20
-800.5328114963567
 30
0.0
 11
21999.96719112067
 21
-800.5328114963567
 31
0.0
  0
ARC
  5
324
330
2
100
AcDbEntity
  8
0
100
AcDbCircle
 10
22074.90637760046
 20
-797.0328114963567
 30
0.0
 40
3.5
100
AcDbArc
 50
270.0
 51
0.0
  0
LINE
  5
325
330
2
100
AcDbEntity
  8
0
100
AcDbLine
 10
21995.46738602641
 20
-795.5328114963568
 30
0.0
 11
22004.40637760046
 21
-795.5328114963568
 31
0.0
  0
ARC
  5
326
330
2
100
AcDbEntity
  8
0
100
AcDbCircle
 10
21992.95016827413
 20
-803.0920389138909
 30
0.0
 40
4.041132640617097
100
AcDbArc
 50
270.2413531633276
 51
353.7382029890075
  0
ARC
  5
327
330
2
100
AcDbEntity
  8
0
100
AcDbCircle
 10
21999.96719112067
 20
-803.5328114963567
 30
0.0
 40
3.0
100
AcDbArc
 50
90.0
 51
180.0
  0
ARC
  5
328
330
2
100
AcDbEntity
  8
0
100
AcDbCircle
 10
21989.46738602641
 20
-799.1331357008739
 30
0.0
 40
3.0
100
AcDbArc
 50
270.0
 51
0.0
  0
LINE
  5
329
330
2
100
AcDbEntity
  8
0
100
AcDbLine
 10
21992.46738602641
 20
-798.5328114963567
 30
0.0
 11
21992.46738602641
 21
-799.1331357008739
 31
0.0
  0
ARC
  5
32A
330
2
100
AcDbEntity
  8
0
100
AcDbCircle
 10
21995.46738602641
 20
-798.5328114963567
 30
0.0
 40
3.0
100
AcDbArc
 50
90.0
 51
180.0
  0
LINE
  5
32B
330
2
100
AcDbEntity
  8
0
100
AcDbLine
 10
21874.60154195746
 20
-815.5667244395454
 30
0.0
 11
21874.60374023953
 21
-815.5656493537636
 31
0.0
  0
LINE
  5
32C
330
2
100
AcDbEntity
  8
0
100
AcDbLine
 10
21874.60374023953
 20
-815.5656493537636
 30
0.0
 11
21874.62398448978
 21
-815.555847253122
 31
0.0
  0
LINE
  5
32D
330
2
100
AcDbEntity
  8
0
100
AcDbLine
 10
21874.62398448978
 20
-815.555847253122
 30
0.0
 11
21874.64420395516
 21
-815.5461553492505
 31
0.0
  0
LINE
  5
32E
330
2
100
AcDbEntity
  8
0
100
AcDbLine
 10
21874.64420395516
 20
-815.5461553492505
 30
0.0
 11
21874.66439867878
 21
-815.5365731999346
 31
0.0
  0
LINE
  5
32F
330
2
100
AcDbEntity
  8
0
100
AcDbLine
 10
21874.66439867878
 20
-815.5365731999346
 30
0.0
 11
21874.68456870375
 21
-815.527100362965
 31
0.0
  0
LINE
  5
330
330
2
100
AcDbEntity
  8
0
100
AcDbLine
 10
21874.68456870375
 20
-815.527100362965
 30
0.0
 11
21874.70471407319
 21
-815.517736396131
 31
0.0
  0
LINE
  5
331
330
2
100
AcDbEntity
  8
0
100
AcDbLine
 10
21874.70471407319
 20
-815.517736396131
 30
0.0
 11
21874.7248348302
 21
-815.5084808572201
 31
0.0
  0
LINE
  5
332
330
2
100
AcDbEntity
  8
0
100
AcDbLine
 10
21874.7248348302
 20
-815.5084808572201
 30
0.0
 11
21874.7449310179
 21
-815.4993333040229
 31
0.0
  0
LINE
  5
333
330
2
100
AcDbEntity
  8
0
100
AcDbLine
 10
21874.7449310179
 20
-815.4993333040229
 30
0.0
 11
21874.76500267939
 21
-815.4902932943251
 31
0.0
  0
LINE
  5
334
330
2
100
AcDbEntity
  8
0
100
AcDbLine
 10
21874.76500267939
 20
-815.4902932943251
 30
0.0
 11
21874.7850498578
 21
-815.4813603859174
 31
0.0
  0
LINE
  5
335
330
2
100
AcDbEntity
  8
0
100
AcDbLine
 10
21874.7850498578
 20
-815.4813603859174
 30
0.0
 11
21874.80507259623
 21
-815.4725341365892
 31
0.0
  0
LINE
  5
336
330
2
100
AcDbEntity
  8
0
100
AcDbLine
 10
21874.80507259623
 20
-815.4725341365892
 30
0.0
 11
21874.82507093778
 21
-815.4638141041296
 31
0.0
  0
LINE
  5
337
330
2
100
AcDbEntity
  8
0
100
AcDbLine
 10
21874.82507093778
 20
-815.4638141041296
 30
0.0
 11
21874.84504492558
 21
-815.4551998463258
 31
0.0
  0
LINE
  5
338
330
2
100
AcDbEntity
  8
0
100
AcDbLine
 10
21874.84504492558
 20
-815.4551998463258
 30
0.0
 11
21874.86499460274
 21
-815.4466909209668
 31
0.0
  0
LINE
  5
339
330
2
100
AcDbEntity
  8
0
100
AcDbLine
 10
21874.86499460274
 20
-815.4466909209668
 30
0.0
 11
21874.88492001236
 21
-815.4382868858419
 31
0.0
  0
LINE
  5
33A
330
2
100
AcDbEntity
  8
0
100
AcDbLine
 10
21874.88492001236
 20
-815.4382868858419
 30
0.0
 11
21874.90482119756
 21
-815.4299872987403
 31
0.0
  0
LINE
  5
33B
330
2
100
AcDbEntity
  8
0
100
AcDbLine
 10
21874.90482119756
 20
-815.4299872987403
 30
0.0
 11
21874.92469820144
 21
-815.4217917174491
 31
0.0
  0
LINE
  5
33C
330
2
100
AcDbEntity
  8
0
100
AcDbLine
 10
21874.92469820144
 20
-815.4217917174491
 30
0.0
 11
21874.94455106713
 21
-815.4136996997594
 31
0.0
  0
LINE
  5
33D
330
2
100
AcDbEntity
  8
0
100
AcDbLine
 10
21874.94455106713
 20
-815.4136996997594
 30
0.0
 11
21874.96437983772
 21
-815.4057108034603
 31
0.0
  0
LINE
  5
33E
330
2
100
AcDbEntity
  8
0
100
AcDbLine
 10
21874.96437983772
 20
-815.4057108034603
 30
0.0
 11
21874.98418455633
 21
-815.3978245863372
 31
0.0
  0
LINE
  5
33F
330
2
100
AcDbEntity
  8
0
100
AcDbLine
 10
21874.98418455633
 20
-815.3978245863372
 30
0.0
 11
21875.00396526609
 21
-815.3900406061829
 31
0.0
  0
LINE
  5
340
330
2
100
AcDbEntity
  8
0
100
AcDbLine
 10
21875.00396526609
 20
-815.3900406061829
 30
0.0
 11
21875.02372201008
 21
-815.3823584207829
 31
0.0
  0
LINE
  5
341
330
2
100
AcDbEntity
  8
0
100
AcDbLine
 10
21875.02372201008
 20
-815.3823584207829
 30
0.0
 11
21875.04345483143
 21
-815.3747775879283
 31
0.0
  0
LINE
  5
342
330
2
100
AcDbEntity
  8
0
100
AcDbLine
 10
21875.04345483143
 20
-815.3747775879283
 30
0.0
 11
21875.06316377325
 21
-815.367297665406
 31
0.0
  0
LINE
  5
343
330
2
100
AcDbEntity
  8
0
100
AcDbLine
 10
21875.06316377325
 20
-815.367297665406
 30
0.0
 11
21875.08284887865
 21
-815.3599182110074
 31
0.0
  0
LINE
  5
344
330
2
100
AcDbEntity
  8
0
100
AcDbLine
 10
21875.08284887865
 20
-815.3599182110074
 30
0.0
 11
21875.10251019073
 21
-815.3526387825195
 31
0.0
  0
LINE
  5
345
330
2
100
AcDbEntity
  8
0
100
AcDbLine
 10
21875.10251019073
 20
-815.3526387825195
 30
0.0
 11
21875.12214775262
 21
-815.3454589377314
 31
0.0
  0
LINE
  5
346
330
2
100
AcDbEntity
  8
0
100
AcDbLine
 10
21875.12214775262
 20
-815.3454589377314
 30
0.0
 11
21875.14176160742
 21
-815.3383782344326
 31
0.0
  0
LINE
  5
347
330
2
100
AcDbEntity
  8
0
100
AcDbLine
 10
21875.14176160742
 20
-815.3383782344326
 30
0.0
 11
21875.16135179824
 21
-815.33139623041
 31
0.0
  0
LINE
  5
348
330
2
100
AcDbEntity
  8
0
100
AcDbLine
 10
21875.16135179824
 20
-815.33139623041
 30
0.0
 11
21875.18091836819
 21
-815.324512483453
 31
0.0
  0
LINE
  5
349
330
2
100
AcDbEntity
  8
0
100
AcDbLine
 10
21875.18091836819
 20
-815.324512483453
 30
0.0
 11
21875.2004613604
 21
-815.3177265513523
 31
0.0
  0
LINE
  5
34A
330
2
100
AcDbEntity
  8
0
100
AcDbLine
 10
21875.2004613604
 20
-815.3177265513523
 30
0.0
 11
21875.21998081796
 21
-815.3110379918953
 31
0.0
  0
LINE
  5
34B
330
2
100
AcDbEntity
  8
0
100
AcDbLine
 10
21875.21998081796
 20
-815.3110379918953
 30
0.0
 11
21875.23947678399
 21
-815.3044463628711
 31
0.0
  0
LINE
  5
34C
330
2
100
AcDbEntity
  8
0
100
AcDbLine
 10
21875.23947678399
 20
-815.3044463628711
 30
0.0
 11
21875.25894930159
 21
-815.297951222069
 31
0.0
  0
LINE
  5
34D
330
2
100
AcDbEntity
  8
0
100
AcDbLine
 10
21875.25894930159
 20
-815.297951222069
 30
0.0
 11
21875.27839841389
 21
-815.2915521272761
 31
0.0
  0
LINE
  5
34E
330
2
100
AcDbEntity
  8
0
100
AcDbLine
 10
21875.27839841389
 20
-815.2915521272761
 30
0.0
 11
21875.29782416399
 21
-815.2852486362817
 31
0.0
  0
LINE
  5
34F
330
2
100
AcDbEntity
  8
0
100
AcDbLine
 10
21875.29782416399
 20
-815.2852486362817
 30
0.0
 11
21875.31722659501
 21
-815.2790403068765
 31
0.0
  0
LINE
  5
350
330
2
100
AcDbEntity
  8
0
100
AcDbLine
 10
21875.31722659501
 20
-815.2790403068765
 30
0.0
 11
21875.33660575005
 21
-815.2729266968481
 31
0.0
  0
LINE
  5
351
330
2
100
AcDbEntity
  8
0
100
AcDbLine
 10
21875.33660575005
 20
-815.2729266968481
 30
0.0
 11
21875.35596167222
 21
-815.2669073639854
 31
0.0
  0
LINE
  5
352
330
2
100
AcDbEntity
  8
0
100
AcDbLine
 10
21875.35596167222
 20
-815.2669073639854
 30
0.0
 11
21875.37529440464
 21
-815.2609818660758
 31
0.0
  0
LINE
  5
353
330
2
100
AcDbEntity
  8
0
100
AcDbLine
 10
21875.37529440464
 20
-815.2609818660758
 30
0.0
 11
21875.39460399043
 21
-815.2551497609101
 31
0.0
  0
LINE
  5
354
330
2
100
AcDbEntity
  8
0
100
AcDbLine
 10
21875.39460399043
 20
-815.2551497609101
 30
0.0
 11
21875.41389047268
 21
-815.2494106062777
 31
0.0
  0
LINE
  5
355
330
2
100
AcDbEntity
  8
0
100
AcDbLine
 10
21875.41389047268
 20
-815.2494106062777
 30
0.0
 11
21875.43315389451
 21
-815.2437639599638
 31
0.0
  0
LINE
  5
356
330
2
100
AcDbEntity
  8
0
100
AcDbLine
 10
21875.43315389451
 20
-815.2437639599638
 30
0.0
 11
21875.45239429904
 21
-815.2382093797614
 31
0.0
  0
LINE
  5
357
330
2
100
AcDbEntity
  8
0
100
AcDbLine
 10
21875.45239429904
 20
-815.2382093797614
 30
0.0
 11
21875.47161172937
 21
-815.2327464234558
 31
0.0
  0
LINE
  5
358
330
2
100
AcDbEntity
  8
0
100
AcDbLine
 10
21875.47161172937
 20
-815.2327464234558
 30
0.0
 11
21875.49080622861
 21
-815.2273746488381
 31
0.0
  0
LINE
  5
359
330
2
100
AcDbEntity
  8
0
100
AcDbLine
 10
21875.49080622861
 20
-815.2273746488381
 30
0.0
 11
21875.50997783988
 21
-815.2220936136973
 31
0.0
  0
LINE
  5
35A
330
2
100
AcDbEntity
  8
0
100
AcDbLine
 10
21875.50997783988
 20
-815.2220936136973
 30
0.0
 11
21875.52912660629
 21
-815.2169028758207
 31
0.0
  0
LINE
  5
35B
330
2
100
AcDbEntity
  8
0
100
AcDbLine
 10
21875.52912660629
 20
-815.2169028758207
 30
0.0
 11
21875.54825257095
 21
-815.2118019929975
 31
0.0
  0
LINE
  5
35C
330
2
100
AcDbEntity
  8
0
100
AcDbLine
 10
21875.54825257095
 20
-815.2118019929975
 30
0.0
 11
21875.56735577697
 21
-815.2067905230168
 31
0.0
  0
LINE
  5
35D
330
2
100
AcDbEntity
  8
0
100
AcDbLine
 10
21875.56735577697
 20
-815.2067905230168
 30
0.0
 11
21875.58643626746
 21
-815.2018680236679
 31
0.0
  0
LINE
  5
35E
330
2
100
AcDbEntity
  8
0
100
AcDbLine
 10
21875.58643626746
 20
-815.2018680236679
 30
0.0
 11
21875.60549408552
 21
-815.1970340527377
 31
0.0
  0
LINE
  5
35F
330
2
100
AcDbEntity
  8
0
100
AcDbLine
 10
21875.60549408552
 20
-815.1970340527377
 30
0.0
 11
21875.62452927429
 21
-815.1922881680174
 31
0.0
  0
LINE
  5
360
330
2
100
AcDbEntity
  8
0
100
AcDbLine
 10
21875.62452927429
 20
-815.1922881680174
 30
0.0
 11
21875.64354187686
 21
-815.1876299272963
 31
0.0
  0
LINE
  5
361
330
2
100
AcDbEntity
  8
0
100
AcDbLine
 10
21875.64354187686
 20
-815.1876299272963
 30
0.0
 11
21875.66253193635
 21
-815.1830588883594
 31
0.0
  0
LINE
  5
362
330
2
100
AcDbEntity
  8
0
100
AcDbLine
 10
21875.66253193635
 20
-815.1830588883594
 30
0.0
 11
21875.68149949586
 21
-815.1785746089998
 31
0.0
  0
LINE
  5
363
330
2
100
AcDbEntity
  8
0
100
AcDbLine
 10
21875.68149949586
 20
-815.1785746089998
 30
0.0
 11
21875.70044459852
 21
-815.1741766470031
 31
0.0
  0
LINE
  5
364
330
2
100
AcDbEntity
  8
0
100
AcDbLine
 10
21875.70044459852
 20
-815.1741766470031
 30
0.0
 11
21875.71936728742
 21
-815.1698645601582
 31
0.0
  0
LINE
  5
365
330
2
100
AcDbEntity
  8
0
100
AcDbLine
 10
21875.71936728742
 20
-815.1698645601582
 30
0.0
 11
21875.73826760569
 21
-815.1656379062579
 31
0.0
  0
LINE
  5
366
330
2
100
AcDbEntity
  8
0
100
AcDbLine
 10
21875.73826760569
 20
-815.1656379062579
 30
0.0
 11
21875.75714559643
 21
-815.1614962430858
 31
0.0
  0
LINE
  5
367
330
2
100
AcDbEntity
  8
0
100
AcDbLine
 10
21875.75714559643
 20
-815.1614962430858
 30
0.0
 11
21875.77600130275
 21
-815.1574391284349
 31
0.0
  0
LINE
  5
368
330
2
100
AcDbEntity
  8
0
100
AcDbLine
 10
21875.77600130275
 20
-815.1574391284349
 30
0.0
 11
21875.79483476778
 21
-815.1534661200903
 31
0.0
  0
LINE
  5
369
330
2
100
AcDbEntity
  8
0
100
AcDbLine
 10
21875.79483476778
 20
-815.1534661200903
 30
0.0
 11
21875.8136460346
 21
-815.1495767758433
 31
0.0
  0
LINE
  5
36A
330
2
100
AcDbEntity
  8
0
100
AcDbLine
 10
21875.8136460346
 20
-815.1495767758433
 30
0.0
 11
21875.83243514634
 21
-815.1457706534829
 31
0.0
  0
LINE
  5
36B
330
2
100
AcDbEntity
  8
0
100
AcDbLine
 10
21875.83243514634
 20
-815.1457706534829
 30
0.0
 11
21875.85120214611
 21
-815.1420473107965
 31
0.0
  0
LINE
  5
36C
330
2
100
AcDbEntity
  8
0
100
AcDbLine
 10
21875.85120214611
 20
-815.1420473107965
 30
0.0
 11
21875.86994707703
 21
-815.1384063055747
 31
0.0
  0
LINE
  5
36D
330
2
100
AcDbEntity
  8
0
100
AcDbLine
 10
21875.86994707703
 20
-815.1384063055747
 30
0.0
 11
21875.8886699822
 21
-815.1348471956035
 31
0.0
  0
LINE
  5
36E
330
2
100
AcDbEntity
  8
0
100
AcDbLine
 10
21875.8886699822
 20
-815.1348471956035
 30
0.0
 11
21875.90737090472
 21
-815.1313695386752
 31
0.0
  0
LINE
  5
36F
330
2
100
AcDbEntity
  8
0
100
AcDbLine
 10
21875.90737090472
 20
-815.1313695386752
 30
0.0
 11
21875.92604988773
 21
-815.1279728925755
 31
0.0
  0
LINE
  5
370
330
2
100
AcDbEntity
  8
0
100
AcDbLine
 10
21875.92604988773
 20
-815.1279728925755
 30
0.0
 11
21875.94470697431
 21
-815.1246568150936
 31
0.0
  0
LINE
  5
371
330
2
100
AcDbEntity
  8
0
100
AcDbLine
 10
21875.94470697431
 20
-815.1246568150936
 30
0.0
 11
21875.9633422076
 21
-815.1214208640203
 31
0.0
  0
LINE
  5
372
330
2
100
AcDbEntity
  8
0
100
AcDbLine
 10
21875.9633422076
 20
-815.1214208640203
 30
0.0
 11
21875.9819556307
 21
-815.1182645971449
 31
0.0
  0
LINE
  5
373
330
2
100
AcDbEntity
  8
0
100
AcDbLine
 10
21875.9819556307
 20
-815.1182645971449
 30
0.0
 11
21876.00054728671
 21
-815.1151875722526
 31
0.0
  0
LINE
  5
374
330
2
100
AcDbEntity
  8
0
100
AcDbLine
 10
21876.00054728671
 20
-815.1151875722526
 30
0.0
 11
21876.01911721875
 21
-815.1121893471344
 31
0.0
  0
LINE
  5
375
330
2
100
AcDbEntity
  8
0
100
AcDbLine
 10
21876.01911721875
 20
-815.1121893471344
 30
0.0
 11
21876.03766546994
 21
-815.1092694795798
 31
0.0
  0
LINE
  5
376
330
2
100
AcDbEntity
  8
0
100
AcDbLine
 10
21876.03766546994
 20
-815.1092694795798
 30
0.0
 11
21876.05619208338
 21
-815.1064275273757
 31
0.0
  0
LINE
  5
377
330
2
100
AcDbEntity
  8
0
100
AcDbLine
 10
21876.05619208338
 20
-815.1064275273757
 30
0.0
 11
21876.07469710218
 21
-815.1036630483114
 31
0.0
  0
LINE
  5
378
330
2
100
AcDbEntity
  8
0
100
AcDbLine
 10
21876.07469710218
 20
-815.1036630483114
 30
0.0
 11
21876.09318056946
 21
-815.1009756001776
 31
0.0
  0
LINE
  5
379
330
2
100
AcDbEntity
  8
0
100
AcDbLine
 10
21876.09318056946
 20
-815.1009756001776
 30
0.0
 11
21876.11164252833
 21
-815.098364740762
 31
0.0
  0
LINE
  5
37A
330
2
100
AcDbEntity
  8
0
100
AcDbLine
 10
21876.11164252833
 20
-815.098364740762
 30
0.0
 11
21876.13008302189
 21
-815.0958300278515
 31
0.0
  0
LINE
  5
37B
330
2
100
AcDbEntity
  8
0
100
AcDbLine
 10
21876.13008302189
 20
-815.0958300278515
 30
0.0
 11
21876.14850209327
 21
-815.0933710192393
 31
0.0
  0
LINE
  5
37C
330
2
100
AcDbEntity
  8
0
100
AcDbLine
 10
21876.14850209327
 20
-815.0933710192393
 30
0.0
 11
21876.16689978557
 21
-815.0909872727089
 31
0.0
  0
LINE
  5
37D
330
2
100
AcDbEntity
  8
0
100
AcDbLine
 10
21876.16689978557
 20
-815.0909872727089
 30
0.0
 11
21876.18527614189
 21
-815.0886783460528
 31
0.0
  0
LINE
  5
37E
330
2
100
AcDbEntity
  8
0
100
AcDbLine
 10
21876.18527614189
 20
-815.0886783460528
 30
0.0
 11
21876.20363120537
 21
-815.0864437970604
 31
0.0
  0
LINE
  5
37F
330
2
100
AcDbEntity
  8
0
100
AcDbLine
 10
21876.20363120537
 20
-815.0864437970604
 30
0.0
 11
21876.2219650191
 21
-815.084283183517
 31
0.0
  0
LINE
  5
380
330
2
100
AcDbEntity
  8
0
100
AcDbLine
 10
21876.2219650191
 20
-815.084283183517
 30
0.0
 11
21876.24027762619
 21
-815.0821960632137
 31
0.0
  0
LINE
  5
381
330
2
100
AcDbEntity
  8
0
100
AcDbLine
 10
21876.24027762619
 20
-815.0821960632137
 30
0.0
 11
21876.25856906976
 21
-815.0801819939379
 31
0.0
  0
LINE
  5
382
330
2
100
AcDbEntity
  8
0
100
AcDbLine
 10
21876.25856906976
 20
-815.0801819939379
 30
0.0
 11
21876.27683939291
 21
-815.0782405334803
 31
0.0
  0
LINE
  5
383
330
2
100
AcDbEntity
  8
0
100
AcDbLine
 10
21876.27683939291
 20
-815.0782405334803
 30
0.0
 11
21876.29508863877
 21
-815.0763712396283
 31
0.0
  0
LINE
  5
384
330
2
100
AcDbEntity
  8
0
100
AcDbLine
 10
21876.29508863877
 20
-815.0763712396283
 30
0.0
 11
21876.31331685044
 21
-815.0745736701709
 31
0.0
  0
LINE
  5
385
330
2
100
AcDbEntity
  8
0
100
AcDbLine
 10
21876.31331685044
 20
-815.0745736701709
 30
0.0
 11
21876.33152407104
 21
-815.0728473828976
 31
0.0
  0
LINE
  5
386
330
2
100
AcDbEntity
  8
0
100
AcDbLine
 10
21876.33152407104
 20
-815.0728473828976
 30
0.0
 11
21876.34971034366
 21
-815.0711919355972
 31
0.0
  0
LINE
  5
387
330
2
100
AcDbEntity
  8
0
100
AcDbLine
 10
21876.34971034366
 20
-815.0711919355972
 30
0.0
 11
21876.36787571143
 21
-815.0696068860588
 31
0.0
  0
LINE
  5
388
330
2
100
AcDbEntity
  8
0
100
AcDbLine
 10
21876.36787571143
 20
-815.0696068860588
 30
0.0
 11
21876.38602021746
 21
-815.0680917920698
 31
0.0
  0
LINE
  5
389
330
2
100
AcDbEntity
  8
0
100
AcDbLine
 10
21876.38602021746
 20
-815.0680917920698
 30
0.0
 11
21876.40414390485
 21
-815.0666462114195
 31
0.0
  0
LINE
  5
38A
330
2
100
AcDbEntity
  8
0
100
AcDbLine
 10
21876.40414390485
 20
-815.0666462114195
 30
0.0
 11
21876.42224681673
 21
-815.0652697018967
 31
0.0
  0
LINE
  5
38B
330
2
100
AcDbEntity
  8
0
100
AcDbLine
 10
21876.42224681673
 20
-815.0652697018967
 30
0.0
 11
21876.44032899619
 21
-815.0639618212926
 31
0.0
  0
LINE
  5
38C
330
2
100
AcDbEntity
  8
0
100
AcDbLine
 10
21876.44032899619
 20
-815.0639618212926
 30
0.0
 11
21876.45839048636
 21
-815.0627221273907
 31
0.0
  0
LINE
  5
38D
330
2
100
AcDbEntity
  8
0
100
AcDbLine
 10
21876.45839048636
 20
-815.0627221273907
 30
0.0
 11
21876.47643133034
 21
-815.0615501779856
 31
0.0
  0
LINE
  5
38E
330
2
100
AcDbEntity
  8
0
100
AcDbLine
 10
21876.47643133034
 20
-815.0615501779856
 30
0.0
 11
21876.49445157124
 21
-815.0604455308611
 31
0.0
  0
LINE
  5
38F
330
2
100
AcDbEntity
  8
0
100
AcDbLine
 10
21876.49445157124
 20
-815.0604455308611
 30
0.0
 11
21876.51245125218
 21
-815.05940774381
 31
0.0
  0
LINE
  5
390
330
2
100
AcDbEntity
  8
0
100
AcDbLine
 10
21876.51245125218
 20
-815.05940774381
 30
0.0
 11
21876.53043041626
 21
-815.0584363746192
 31
0.0
  0
LINE
  5
391
330
2
100
AcDbEntity
  8
0
100
AcDbLine
 10
21876.53043041626
 20
-815.0584363746192
 30
0.0
 11
21876.5483891066
 21
-815.0575309810783
 31
0.0
  0
LINE
  5
392
330
2
100
AcDbEntity
  8
0
100
AcDbLine
 10
21876.5483891066
 20
-815.0575309810783
 30
0.0
 11
21876.56632736632
 21
-815.0566911209761
 31
0.0
  0
LINE
  5
393
330
2
100
AcDbEntity
  8
0
100
AcDbLine
 10
21876.56632736632
 20
-815.0566911209761
 30
0.0
 11
21876.58424523851
 21
-815.0559163521002
 31
0.0
  0
LINE
  5
394
330
2
100
AcDbEntity
  8
0
100
AcDbLine
 10
21876.58424523851
 20
-815.0559163521002
 30
0.0
 11
21876.60214276629
 21
-815.0552062322395
 31
0.0
  0
LINE
  5
395
330
2
100
AcDbEntity
  8
0
100
AcDbLine
 10
21876.60214276629
 20
-815.0552062322395
 30
0.0
 11
21876.62001999277
 21
-815.0545603191849
 31
0.0
  0
LINE
  5
396
330
2
100
AcDbEntity
  8
0
100
AcDbLine
 10
21876.62001999277
 20
-815.0545603191849
 30
0.0
 11
21876.63787696107
 21
-815.053978170722
 31
0.0
  0
LINE
  5
397
330
2
100
AcDbEntity
  8
0
100
AcDbLine
 10
21876.63787696107
 20
-815.053978170722
 30
0.0
 11
21876.6557137143
 21
-815.0534593446437
 31
0.0
  0
LINE
  5
398
330
2
100
AcDbEntity
  8
0
100
AcDbLine
 10
21876.6557137143
 20
-815.0534593446437
 30
0.0
 11
21876.67353029556
 21
-815.0530033987351
 31
0.0
  0
LINE
  5
399
330
2
100
AcDbEntity
  8
0
100
AcDbLine
 10
21876.67353029556
 20
-815.0530033987351
 30
0.0
 11
21876.69132674797
 21
-815.0526098907857
 31
0.0
  0
LINE
  5
39A
330
2
100
AcDbEntity
  8
0
100
AcDbLine
 10
21876.69132674797
 20
-815.0526098907857
 30
0.0
 11
21876.70910311463
 21
-815.0522783785863
 31
0.0
  0
LINE
  5
39B
330
2
100
AcDbEntity
  8
0
100
AcDbLine
 10
21876.70910311463
 20
-815.0522783785863
 30
0.0
 11
21876.72685943868
 21
-815.0520084199243
 31
0.0
  0
LINE
  5
39C
330
2
100
AcDbEntity
  8
0
100
AcDbLine
 10
21876.72685943868
 20
-815.0520084199243
 30
0.0
 11
21876.7445957632
 21
-815.0517995725886
 31
0.0
  0
LINE
  5
39D
330
2
100
AcDbEntity
  8
0
100
AcDbLine
 10
21876.7445957632
 20
-815.0517995725886
 30
0.0
 11
21876.76231213131
 21
-815.0516513943667
 31
0.0
  0
LINE
  5
39E
330
2
100
AcDbEntity
  8
0
100
AcDbLine
 10
21876.76231213131
 20
-815.0516513943667
 30
0.0
 11
21876.78000858613
 21
-815.0515634430512
 31
0.0
  0
LINE
  5
39F
330
2
100
AcDbEntity
  8
0
100
AcDbLine
 10
21876.78000858613
 20
-815.0515634430512
 30
0.0
 11
21876.79768517076
 21
-815.0515352764278
 31
0.0
  0
LINE
  5
3A0
330
2
100
AcDbEntity
  8
0
100
AcDbLine
 10
21876.79768517076
 20
-815.0515352764278
 30
0.0
 11
21876.81534192833
 21
-815.0515664522854
 31
0.0
  0
LINE
  5
3A1
330
2
100
AcDbEntity
  8
0
100
AcDbLine
 10
21876.81534192833
 20
-815.0515664522854
 30
0.0
 11
21876.83297890193
 21
-815.0516565284133
 31
0.0
  0
LINE
  5
3A2
330
2
100
AcDbEntity
  8
0
100
AcDbLine
 10
21876.83297890193
 20
-815.0516565284133
 30
0.0
 11
21876.85059613468
 21
-815.0518050626006
 31
0.0
  0
LINE
  5
3A3
330
2
100
AcDbEntity
  8
0
100
AcDbLine
 10
21876.85059613468
 20
-815.0518050626006
 30
0.0
 11
21876.86819366968
 21
-815.0520116126363
 31
0.0
  0
LINE
  5
3A4
330
2
100
AcDbEntity
  8
0
100
AcDbLine
 10
21876.86819366968
 20
-815.0520116126363
 30
0.0
 11
21876.88577155006
 21
-815.0522757363077
 31
0.0
  0
LINE
  5
3A5
330
2
100
AcDbEntity
  8
0
100
AcDbLine
 10
21876.88577155006
 20
-815.0522757363077
 30
0.0
 11
21876.90332981893
 21
-815.052596991406
 31
0.0
  0
LINE
  5
3A6
330
2
100
AcDbEntity
  8
0
100
AcDbLine
 10
21876.90332981893
 20
-815.052596991406
 30
0.0
 11
21876.92086851939
 21
-815.0529749357183
 31
0.0
  0
LINE
  5
3A7
330
2
100
AcDbEntity
  8
0
100
AcDbLine
 10
21876.92086851939
 20
-815.0529749357183
 30
0.0
 11
21876.93838769455
 21
-815.0534091270337
 31
0.0
  0
LINE
  5
3A8
330
2
100
AcDbEntity
  8
0
100
AcDbLine
 10
21876.93838769455
 20
-815.0534091270337
 30
0.0
 11
21876.95588738753
 21
-815.0538991231414
 31
0.0
  0
LINE
  5
3A9
330
2
100
AcDbEntity
  8
0
100
AcDbLine
 10
21876.95588738753
 20
-815.0538991231414
 30
0.0
 11
21876.97336764145
 21
-815.0544444818306
 31
0.0
  0
LINE
  5
3AA
330
2
100
AcDbEntity
  8
0
100
AcDbLine
 10
21876.97336764145
 20
-815.0544444818306
 30
0.0
 11
21876.9908284994
 21
-815.0550447608884
 31
0.0
  0
LINE
  5
3AB
330
2
100
AcDbEntity
  8
0
100
AcDbLine
 10
21876.9908284994
 20
-815.0550447608884
 30
0.0
 11
21877.00827000449
 21
-815.0556995181041
 31
0.0
  0
LINE
  5
3AC
330
2
100
AcDbEntity
  8
0
100
AcDbLine
 10
21877.00827000449
 20
-815.0556995181041
 30
0.0
 11
21877.02569219986
 21
-815.0564083112685
 31
0.0
  0
LINE
  5
3AD
330
2
100
AcDbEntity
  8
0
100
AcDbLine
 10
21877.02569219986
 20
-815.0564083112685
 30
0.0
 11
21877.0430951286
 21
-815.057170698169
 31
0.0
  0
LINE
  5
3AE
330
2
100
AcDbEntity
  8
0
100
AcDbLine
 10
21877.0430951286
 20
-815.057170698169
 30
0.0
 11
21877.06047883382
 21
-815.0579862365948
 31
0.0
  0
LINE
  5
3AF
330
2
100
AcDbEntity
  8
0
100
AcDbLine
 10
21877.06047883382
 20
-815.0579862365948
 30
0.0
 11
21877.07784335864
 21
-815.0588544843349
 31
0.0
  0
LINE
  5
3B0
330
2
100
AcDbEntity
  8
0
100
AcDbLine
 10
21877.07784335864
 20
-815.0588544843349
 30
0.0
 11
21877.09518874616
 21
-815.0597749991765
 31
0.0
  0
LINE
  5
3B1
330
2
100
AcDbEntity
  8
0
100
AcDbLine
 10
21877.09518874616
 20
-815.0597749991765
 30
0.0
 11
21877.1125150395
 21
-815.060747338909
 31
0.0
  0
LINE
  5
3B2
330
2
100
AcDbEntity
  8
0
100
AcDbLine
 10
21877.1125150395
 20
-815.060747338909
 30
0.0
 11
21877.12982228178
 21
-815.0617710613214
 31
0.0
  0
LINE
  5
3B3
330
2
100
AcDbEntity
  8
0
100
AcDbLine
 10
21877.12982228178
 20
-815.0617710613214
 30
0.0
 11
21877.14711051609
 21
-815.0628457242046
 31
0.0
  0
LINE
  5
3B4
330
2
100
AcDbEntity
  8
0
100
AcDbLine
 10
21877.14711051609
 20
-815.0628457242046
 30
0.0
 11
21877.16437978556
 21
-815.0639708853441
 31
0.0
  0
LINE
  5
3B5
330
2
100
AcDbEntity
  8
0
100
AcDbLine
 10
21877.16437978556
 20
-815.0639708853441
 30
0.0
 11
21877.18163013329
 21
-815.0651461025308
 31
0.0
  0
LINE
  5
3B6
330
2
100
AcDbEntity
  8
0
100
AcDbLine
 10
21877.18163013329
 20
-815.0651461025308
 30
0.0
 11
21877.1988616024
 21
-815.0663709335521
 31
0.0
  0
LINE
  5
3B7
330
2
100
AcDbEntity
  8
0
100
AcDbLine
 10
21877.1988616024
 20
-815.0663709335521
 30
0.0
 11
21877.21607423599
 21
-815.067644936199
 31
0.0
  0
LINE
  5
3B8
330
2
100
AcDbEntity
  8
0
100
AcDbLine
 10
21877.21607423599
 20
-815.067644936199
 30
0.0
 11
21877.23326807718
 21
-815.0689676682587
 31
0.0
  0
LINE
  5
3B9
330
2
100
AcDbEntity
  8
0
100
AcDbLine
 10
21877.23326807718
 20
-815.0689676682587
 30
0.0
 11
21877.25044316908
 21
-815.0703386875202
 31
0.0
  0
LINE
  5
3BA
330
2
100
AcDbEntity
  8
0
100
AcDbLine
 10
21877.25044316908
 20
-815.0703386875202
 30
0.0
 11
21877.26759955479
 21
-815.071757551771
 31
0.0
  0
LINE
  5
3BB
330
2
100
AcDbEntity
  8
0
100
AcDbLine
 10
21877.26759955479
 20
-815.071757551771
 30
0.0
 11
21877.28473727744
 21
-815.0732238188037
 31
0.0
  0
LINE
  5
3BC
330
2
100
AcDbEntity
  8
0
100
AcDbLine
 10
21877.28473727744
 20
-815.0732238188037
 30
0.0
 11
21877.30185638014
 21
-815.0747370464022
 31
0.0
  0
LINE
  5
3BD
330
2
100
AcDbEntity
  8
0
100
AcDbLine
 10
21877.30185638014
 20
-815.0747370464022
 30
0.0
 11
21877.31895690598
 21
-815.0762967923592
 31
0.0
  0
LINE
  5
3BE
330
2
100
AcDbEntity
  8
0
100
AcDbLine
 10
21877.31895690598
 20
-815.0762967923592
 30
0.0
 11
21877.33603889809
 21
-815.0779026144636
 31
0.0
  0
LINE
  5
3BF
330
2
100
AcDbEntity
  8
0
100
AcDbLine
 10
21877.33603889809
 20
-815.0779026144636
 30
0.0
 11
21877.35310239958
 21
-815.0795540705011
 31
0.0
  0
LINE
  5
3C0
330
2
100
AcDbEntity
  8
0
100
AcDbLine
 10
21877.35310239958
 20
-815.0795540705011
 30
0.0
 11
21877.37014745356
 21
-815.0812507182608
 31
0.0
  0
LINE
  5
3C1
330
2
100
AcDbEntity
  8
0
100
AcDbLine
 10
21877.37014745356
 20
-815.0812507182608
 30
0.0
 11
21877.38717410312
 21
-815.0829921155354
 31
0.0
  0
LINE
  5
3C2
330
2
100
AcDbEntity
  8
0
100
AcDbLine
 10
21877.38717410312
 20
-815.0829921155354
 30
0.0
 11
21877.40418239141
 21
-815.0847778201105
 31
0.0
  0
LINE
  5
3C3
330
2
100
AcDbEntity
  8
0
100
AcDbLine
 10
21877.40418239141
 20
-815.0847778201105
 30
0.0
 11
21877.42117236151
 21
-815.086607389775
 31
0.0
  0
LINE
  5
3C4
330
2
100
AcDbEntity
  8
0
100
AcDbLine
 10
21877.42117236151
 20
-815.086607389775
 30
0.0
 11
21877.43814405656
 21
-815.0884803823183
 31
0.0
  0
LINE
  5
3C5
330
2
100
AcDbEntity
  8
0
100
AcDbLine
 10
21877.43814405656
 20
-815.0884803823183
 30
0.0
 11
21877.45509751964
 21
-815.0903963555292
 31
0.0
  0
LINE
  5
3C6
330
2
100
AcDbEntity
  8
0
100
AcDbLine
 10
21877.45509751964
 20
-815.0903963555292
 30
0.0
 11
21877.47203279388
 21
-815.0923548671972
 31
0.0
  0
LINE
  5
3C7
330
2
100
AcDbEntity
  8
0
100
AcDbLine
 10
21877.47203279388
 20
-815.0923548671972
 30
0.0
 11
21877.48894992239
 21
-815.0943554751092
 31
0.0
  0
LINE
  5
3C8
330
2
100
AcDbEntity
  8
0
100
AcDbLine
 10
21877.48894992239
 20
-815.0943554751092
 30
0.0
 11
21877.50584894827
 21
-815.0963977370548
 31
0.0
  0
LINE
  5
3C9
330
2
100
AcDbEntity
  8
0
100
AcDbLine
 10
21877.50584894827
 20
-815.0963977370548
 30
0.0
 11
21877.52272991464
 21
-815.0984812108244
 31
0.0
  0
LINE
  5
3CA
330
2
100
AcDbEntity
  8
0
100
AcDbLine
 10
21877.52272991464
 20
-815.0984812108244
 30
0.0
 11
21877.53959286461
 21
-815.1006054542058
 31
0.0
  0
LINE
  5
3CB
330
2
100
AcDbEntity
  8
0
100
AcDbLine
 10
21877.53959286461
 20
-815.1006054542058
 30
0.0
 11
21877.5564378413
 21
-815.1027700249878
 31
0.0
  0
LINE
  5
3CC
330
2
100
AcDbEntity
  8
0
100
AcDbLine
 10
21877.5564378413
 20
-815.1027700249878
 30
0.0
 11
21877.5732648878
 21
-815.1049744809579
 31
0.0
  0
LINE
  5
3CD
330
2
100
AcDbEntity
  8
0
100
AcDbLine
 10
21877.5732648878
 20
-815.1049744809579
 30
0.0
 11
21877.59007404724
 21
-815.1072183799087
 31
0.0
  0
LINE
  5
3CE
330
2
100
AcDbEntity
  8
0
100
AcDbLine
 10
21877.59007404724
 20
-815.1072183799087
 30
0.0
 11
21877.60686536273
 21
-815.109501279624
 31
0.0
  0
LINE
  5
3CF
330
2
100
AcDbEntity
  8
0
100
AcDbLine
 10
21877.60686536273
 20
-815.109501279624
 30
0.0
 11
21877.62363887737
 21
-815.1118227378947
 31
0.0
  0
LINE
  5
3D0
330
2
100
AcDbEntity
  8
0
100
AcDbLine
 10
21877.62363887737
 20
-815.1118227378947
 30
0.0
 11
21877.64039463429
 21
-815.1141823125117
 31
0.0
  0
LINE
  5
3D1
330
2
100
AcDbEntity
  8
0
100
AcDbLine
 10
21877.64039463429
 20
-815.1141823125117
 30
0.0
 11
21877.65713267658
 21
-815.1165795612605
 31
0.0
  0
LINE
  5
3D2
330
2
100
AcDbEntity
  8
0
100
AcDbLine
 10
21877.65713267658
 20
-815.1165795612605
 30
0.0
 11
21877.67385304736
 21
-815.1190140419322
 31
0.0
  0
LINE
  5
3D3
330
2
100
AcDbEntity
  8
0
100
AcDbLine
 10
21877.67385304736
 20
-815.1190140419322
 30
0.0
 11
21877.69055578975
 21
-815.1214853123155
 31
0.0
  0
LINE
  5
3D4
330
2
100
AcDbEntity
  8
0
100
AcDbLine
 10
21877.69055578975
 20
-815.1214853123155
 30
0.0
 11
21877.70724094684
 21
-815.1239929301983
 31
0.0
  0
LINE
  5
3D5
330
2
100
AcDbEntity
  8
0
100
AcDbLine
 10
21877.70724094684
 20
-815.1239929301983
 30
0.0
 11
21877.72390856176
 21
-815.1265364533692
 31
0.0
  0
LINE
  5
3D6
330
2
100
AcDbEntity
  8
0
100
AcDbLine
 10
21877.72390856176
 20
-815.1265364533692
 30
0.0
 11
21877.74055867762
 21
-815.1291154396176
 31
0.0
  0
LINE
  5
3D7
330
2
100
AcDbEntity
  8
0
100
AcDbLine
 10
21877.74055867762
 20
-815.1291154396176
 30
0.0
 11
21877.75719133753
 21
-815.1317294467308
 31
0.0
  0
LINE
  5
3D8
330
2
100
AcDbEntity
  8
0
100
AcDbLine
 10
21877.75719133753
 20
-815.1317294467308
 30
0.0
 11
21877.77380658459
 21
-815.1343780325014
 31
0.0
  0
LINE
  5
3D9
330
2
100
AcDbEntity
  8
0
100
AcDbLine
 10
21877.77380658459
 20
-815.1343780325014
 30
0.0
 11
21877.79040446192
 21
-815.1370607547132
 31
0.0
  0
LINE
  5
3DA
330
2
100
AcDbEntity
  8
0
100
AcDbLine
 10
21877.79040446192
 20
-815.1370607547132
 30
0.0
 11
21877.80698501263
 21
-815.1397771711609
 31
0.0
  0
LINE
  5
3DB
330
2
100
AcDbEntity
  8
0
100
AcDbLine
 10
21877.80698501263
 20
-815.1397771711609
 30
0.0
 11
21877.82354827984
 21
-815.1425268396279
 31
0.0
  0
LINE
  5
3DC
330
2
100
AcDbEntity
  8
0
100
AcDbLine
 10
21877.82354827984
 20
-815.1425268396279
 30
0.0
 11
21877.84009430665
 21
-815.1453093179052
 31
0.0
  0
LINE
  5
3DD
330
2
100
AcDbEntity
  8
0
100
AcDbLine
 10
21877.84009430665
 20
-815.1453093179052
 30
0.0
 11
21877.85662313618
 21
-815.1481241637821
 31
0.0
  0
LINE
  5
3DE
330
2
100
AcDbEntity
  8
0
100
AcDbLine
 10
21877.85662313618
 20
-815.1481241637821
 30
0.0
 11
21877.87313481153
 21
-815.1509709350458
 31
0.0
  0
LINE
  5
3DF
330
2
100
AcDbEntity
  8
0
100
AcDbLine
 10
21877.87313481153
 20
-815.1509709350458
 30
0.0
 11
21877.88962937581
 21
-815.1538491894871
 31
0.0
  0
LINE
  5
3E0
330
2
100
AcDbEntity
  8
0
100
AcDbLine
 10
21877.88962937581
 20
-815.1538491894871
 30
0.0
 11
21877.90610687214
 21
-815.1567584848935
 31
0.0
  0
LINE
  5
3E1
330
2
100
AcDbEntity
  8
0
100
AcDbLine
 10
21877.90610687214
 20
-815.1567584848935
 30
0.0
 11
21877.92256734364
 21
-815.1596983790559
 31
0.0
  0
LINE
  5
3E2
330
2
100
AcDbEntity
  8
0
100
AcDbLine
 10
21877.92256734364
 20
-815.1596983790559
 30
0.0
 11
21877.9390108334
 21
-815.1626684297598
 31
0.0
  0
LINE
  5
3E3
330
2
100
AcDbEntity
  8
0
100
AcDbLine
 10
21877.9390108334
 20
-815.1626684297598
 30
0.0
 11
21877.95543738455
 21
-815.1656681947942
 31
0.0
  0
LINE
  5
3E4
330
2
100
AcDbEntity
  8
0
100
AcDbLine
 10
21877.95543738455
 20
-815.1656681947942
 30
0.0
 11
21877.9718470402
 21
-815.168697231952
 31
0.0
  0
LINE
  5
3E5
330
2
100
AcDbEntity
  8
0
100
AcDbLine
 10
21877.9718470402
 20
-815.168697231952
 30
0.0
 11
21877.98823984344
 21
-815.1717550990188
 31
0.0
  0
LINE
  5
3E6
330
2
100
AcDbEntity
  8
0
100
AcDbLine
 10
21877.98823984344
 20
-815.1717550990188
 30
0.0
 11
21878.00461583741
 21
-815.1748413537834
 31
0.0
  0
LINE
  5
3E7
330
2
100
AcDbEntity
  8
0
100
AcDbLine
 10
21878.00461583741
 20
-815.1748413537834
 30
0.0
 11
21878.0209750652
 21
-815.1779555540352
 31
0.0
  0
LINE
  5
3E8
330
2
100
AcDbEntity
  8
0
100
AcDbLine
 10
21878.0209750652
 20
-815.1779555540352
 30
0.0
 11
21878.03731756993
 21
-815.1810972575631
 31
0.0
  0
LINE
  5
3E9
330
2
100
AcDbEntity
  8
0
100
AcDbLine
 10
21878.03731756993
 20
-815.1810972575631
 30
0.0
 11
21878.05364339471
 21
-815.1842660221564
 31
0.0
  0
LINE
  5
3EA
330
2
100
AcDbEntity
  8
0
100
AcDbLine
 10
21878.05364339471
 20
-815.1842660221564
 30
0.0
 11
21878.06995258265
 21
-815.1874614056023
 31
0.0
  0
LINE
  5
3EB
330
2
100
AcDbEntity
  8
0
100
AcDbLine
 10
21878.06995258265
 20
-815.1874614056023
 30
0.0
 11
21878.08624517686
 21
-815.1906829656899
 31
0.0
  0
LINE
  5
3EC
330
2
100
AcDbEntity
  8
0
100
AcDbLine
 10
21878.08624517686
 20
-815.1906829656899
 30
0.0
 11
21878.10252122046
 21
-815.1939302602103
 31
0.0
  0
LINE
  5
3ED
330
2
100
AcDbEntity
  8
0
100
AcDbLine
 10
21878.10252122046
 20
-815.1939302602103
 30
0.0
 11
21878.11878075655
 21
-815.1972028469508
 31
0.0
  0
LINE
  5
3EE
330
2
100
AcDbEntity
  8
0
100
AcDbLine
 10
21878.11878075655
 20
-815.1972028469508
 30
0.0
 11
21878.13502382825
 21
-815.2005002836986
 31
0.0
  0
LINE
  5
3EF
330
2
100
AcDbEntity
  8
0
100
AcDbLine
 10
21878.13502382825
 20
-815.2005002836986
 30
0.0
 11
21878.15125047867
 21
-815.2038221282445
 31
0.0
  0
LINE
  5
3F0
330
2
100
AcDbEntity
  8
0
100
AcDbLine
 10
21878.15125047867
 20
-815.2038221282445
 30
0.0
 11
21878.16746075091
 21
-815.207167938378
 31
0.0
  0
LINE
  5
3F1
330
2
100
AcDbEntity
  8
0
100
AcDbLine
 10
21878.16746075091
 20
-815.207167938378
 30
0.0
 11
21878.18365468809
 21
-815.210537271886
 31
0.0
  0
LINE
  5
3F2
330
2
100
AcDbEntity
  8
0
100
AcDbLine
 10
21878.18365468809
 20
-815.210537271886
 30
0.0
 11
21878.19983233333
 21
-815.2139296865581
 31
0.0
  0
LINE
  5
3F3
330
2
100
AcDbEntity
  8
0
100
AcDbLine
 10
21878.19983233333
 20
-815.2139296865581
 30
0.0
 11
21878.21599372973
 21
-815.2173447401828
 31
0.0
  0
LINE
  5
3F4
330
2
100
AcDbEntity
  8
0
100
AcDbLine
 10
21878.21599372973
 20
-815.2173447401828
 30
0.0
 11
21878.23213892041
 21
-815.2207819905497
 31
0.0
  0
LINE
  5
3F5
330
2
100
AcDbEntity
  8
0
100
AcDbLine
 10
21878.23213892041
 20
-815.2207819905497
 30
0.0
 11
21878.24826794847
 21
-815.2242409954478
 31
0.0
  0
LINE
  5
3F6
330
2
100
AcDbEntity
  8
0
100
AcDbLine
 10
21878.24826794847
 20
-815.2242409954478
 30
0.0
 11
21878.26438085702
 21
-815.2277213126644
 31
0.0
  0
LINE
  5
3F7
330
2
100
AcDbEntity
  8
0
100
AcDbLine
 10
21878.26438085702
 20
-815.2277213126644
 30
0.0
 11
21878.28047768919
 21
-815.2312224999887
 31
0.0
  0
LINE
  5
3F8
330
2
100
AcDbEntity
  8
0
100
AcDbLine
 10
21878.28047768919
 20
-815.2312224999887
 30
0.0
 11
21878.29655848807
 21
-815.2347441152114
 31
0.0
  0
LINE
  5
3F9
330
2
100
AcDbEntity
  8
0
100
AcDbLine
 10
21878.29655848807
 20
-815.2347441152114
 30
0.0
 11
21878.31262329678
 21
-815.2382857161182
 31
0.0
  0
LINE
  5
3FA
330
2
100
AcDbEntity
  8
0
100
AcDbLine
 10
21878.31262329678
 20
-815.2382857161182
 30
0.0
 11
21878.32867215844
 21
-815.2418468605
 31
0.0
  0
LINE
  5
3FB
330
2
100
AcDbEntity
  8
0
100
AcDbLine
 10
21878.32867215844
 20
-815.2418468605
 30
0.0
 11
21878.34470511614
 21
-815.245427106146
 31
0.0
  0
LINE
  5
3FC
330
2
100
AcDbEntity
  8
0
100
AcDbLine
 10
21878.34470511614
 20
-815.245427106146
 30
0.0
 11
21878.36072221302
 21
-815.2490260108434
 31
0.0
  0
LINE
  5
3FD
330
2
100
AcDbEntity
  8
0
100
AcDbLine
 10
21878.36072221302
 20
-815.2490260108434
 30
0.0
 11
21878.37672349216
 21
-815.2526431323831
 31
0.0
  0
LINE
  5
3FE
330
2
100
AcDbEntity
  8
0
100
AcDbLine
 10
21878.37672349216
 20
-815.2526431323831
 30
0.0
 11
21878.3927089967
 21
-815.2562780285506
 31
0.0
  0
LINE
  5
3FF
330
2
100
AcDbEntity
  8
0
100
AcDbLine
 10
21878.3927089967
 20
-815.2562780285506
 30
0.0
 11
21878.40867876973
 21
-815.259930257137
 31
0.0
  0
LINE
  5
400
330
2
100
AcDbEntity
  8
0
100
AcDbLine
 10
21878.40867876973
 20
-815.259930257137
 30
0.0
 11
21878.42463285437
 21
-815.263599375933
 31
0.0
  0
LINE
  5
401
330
2
100
AcDbEntity
  8
0
100
AcDbLine
 10
21878.42463285437
 20
-815.263599375933
 30
0.0
 11
21878.44057129374
 21
-815.2672849427226
 31
0.0
  0
LINE
  5
402
330
2
100
AcDbEntity
  8
0
100
AcDbLine
 10
21878.44057129374
 20
-815.2672849427226
 30
0.0
 11
21878.45649413093
 21
-815.2709865152983
 31
0.0
  0
LINE
  5
403
330
2
100
AcDbEntity
  8
0
100
AcDbLine
 10
21878.45649413093
 20
-815.2709865152983
 30
0.0
 11
21878.47240140907
 21
-815.2747036514492
 31
0.0
  0
LINE
  5
404
330
2
100
AcDbEntity
  8
0
100
AcDbLine
 10
21878.47240140907
 20
-815.2747036514492
 30
0.0
 11
21878.48829317126
 21
-815.278435908961
 31
0.0
  0
LINE
  5
405
330
2
100
AcDbEntity
  8
0
100
AcDbLine
 10
21878.48829317126
 20
-815.278435908961
 30
0.0
 11
21878.50416946062
 21
-815.2821828456245
 31
0.0
  0
LINE
  5
406
330
2
100
AcDbEntity
  8
0
100
AcDbLine
 10
21878.50416946062
 20
-815.2821828456245
 30
0.0
 11
21878.52003032025
 21
-815.2859440192287
 31
0.0
  0
LINE
  5
407
330
2
100
AcDbEntity
  8
0
100
AcDbLine
 10
21878.52003032025
 20
-815.2859440192287
 30
0.0
 11
21878.53587579327
 21
-815.2897189875629
 31
0.0
  0
LINE
  5
408
330
2
100
AcDbEntity
  8
0
100
AcDbLine
 10
21878.53587579327
 20
-815.2897189875629
 30
0.0
 11
21878.55170592279
 21
-815.2935073084126
 31
0.0
  0
LINE
  5
409
330
2
100
AcDbEntity
  8
0
100
AcDbLine
 10
21878.55170592279
 20
-815.2935073084126
 30
0.0
 11
21878.56752075193
 21
-815.2973085395705
 31
0.0
  0
LINE
  5
40A
330
2
100
AcDbEntity
  8
0
100
AcDbLine
 10
21878.56752075193
 20
-815.2973085395705
 30
0.0
 11
21878.58332032379
 21
-815.301122238824
 31
0.0
  0
LINE
  5
40B
330
2
100
AcDbEntity
  8
0
100
AcDbLine
 10
21878.58332032379
 20
-815.301122238824
 30
0.0
 11
21878.59910468147
 21
-815.3049479639621
 31
0.0
  0
LINE
  5
40C
330
2
100
AcDbEntity
  8
0
100
AcDbLine
 10
21878.59910468147
 20
-815.3049479639621
 30
0.0
 11
21878.6148738681
 21
-815.308785272774
 31
0.0
  0
LINE
  5
40D
330
2
100
AcDbEntity
  8
0
100
AcDbLine
 10
21878.6148738681
 20
-815.308785272774
 30
0.0
 11
21878.6306279268
 21
-815.3126337230469
 31
0.0
  0
LINE
  5
40E
330
2
100
AcDbEntity
  8
0
100
AcDbLine
 10
21878.6306279268
 20
-815.3126337230469
 30
0.0
 11
21878.64636690065
 21
-815.3164928725701
 31
0.0
  0
LINE
  5
40F
330
2
100
AcDbEntity
  8
0
100
AcDbLine
 10
21878.64636690065
 20
-815.3164928725701
 30
0.0
 11
21878.66209083278
 21
-815.3203622791343
 31
0.0
  0
LINE
  5
410
330
2
100
AcDbEntity
  8
0
100
AcDbLine
 10
21878.66209083278
 20
-815.3203622791343
 30
0.0
 11
21878.67779976631
 21
-815.3242415005252
 31
0.0
  0
LINE
  5
411
330
2
100
AcDbEntity
  8
0
100
AcDbLine
 10
21878.67779976631
 20
-815.3242415005252
 30
0.0
 11
21878.69349374434
 21
-815.3281300945335
 31
0.0
  0
LINE
  5
412
330
2
100
AcDbEntity
  8
0
100
AcDbLine
 10
21878.69349374434
 20
-815.3281300945335
 30
0.0
 11
21878.70917280998
 21
-815.3320276189488
 31
0.0
  0
LINE
  5
413
330
2
100
AcDbEntity
  8
0
100
AcDbLine
 10
21878.70917280998
 20
-815.3320276189488
 30
0.0
 11
21878.72483700633
 21
-815.3359336315597
 31
0.0
  0
LINE
  5
414
330
2
100
AcDbEntity
  8
0
100
AcDbLine
 10
21878.72483700633
 20
-815.3359336315597
 30
0.0
 11
21878.74048637653
 21
-815.339847690152
 31
0.0
  0
LINE
  5
415
330
2
100
AcDbEntity
  8
0
100
AcDbLine
 10
21878.74048637653
 20
-815.339847690152
 30
0.0
 11
21878.75612096367
 21
-815.3437693525184
 31
0.0
  0
LINE
  5
416
330
2
100
AcDbEntity
  8
0
100
AcDbLine
 10
21878.75612096367
 20
-815.3437693525184
 30
0.0
 11
21878.77174081087
 21
-815.3476981764461
 31
0.0
  0
LINE
  5
417
330
2
100
AcDbEntity
  8
0
100
AcDbLine
 10
21878.77174081087
 20
-815.3476981764461
 30
0.0
 11
21878.78734596124
 21
-815.3516337197224
 31
0.0
  0
LINE
  5
418
330
2
100
AcDbEntity
  8
0
100
AcDbLine
 10
21878.78734596124
 20
-815.3516337197224
 30
0.0
 11
21878.80293645789
 21
-815.3555755401402
 31
0.0
  0
LINE
  5
419
330
2
100
AcDbEntity
  8
0
100
AcDbLine
 10
21878.80293645789
 20
-815.3555755401402
 30
0.0
 11
21878.81851234393
 21
-815.3595231954833
 31
0.0
  0
LINE
  5
41A
330
2
100
AcDbEntity
  8
0
100
AcDbLine
 10
21878.81851234393
 20
-815.3595231954833
 30
0.0
 11
21878.83407366247
 21
-815.3634762435441
 31
0.0
  0
LINE
  5
41B
330
2
100
AcDbEntity
  8
0
100
AcDbLine
 10
21878.83407366247
 20
-815.3634762435441
 30
0.0
 11
21878.84962045663
 21
-815.36743424211
 31
0.0
  0
LINE
  5
41C
330
2
100
AcDbEntity
  8
0
100
AcDbLine
 10
21878.84962045663
 20
-815.36743424211
 30
0.0
 11
21878.86515276951
 21
-815.3713967489684
 31
0.0
  0
LINE
  5
41D
330
2
100
AcDbEntity
  8
0
100
AcDbLine
 10
21878.86515276951
 20
-815.3713967489684
 30
0.0
 11
21878.88067064423
 21
-815.3753633219121
 31
0.0
  0
LINE
  5
41E
330
2
100
AcDbEntity
  8
0
100
AcDbLine
 10
21878.88067064423
 20
-815.3753633219121
 30
0.0
 11
21878.89617412389
 21
-815.3793335187264
 31
0.0
  0
LINE
  5
41F
330
2
100
AcDbEntity
  8
0
100
AcDbLine
 10
21878.89617412389
 20
-815.3793335187264
 30
0.0
 11
21878.91166325162
 21
-815.3833068972026
 31
0.0
  0
LINE
  5
420
330
2
100
AcDbEntity
  8
0
100
AcDbLine
 10
21878.91166325162
 20
-815.3833068972026
 30
0.0
 11
21878.92713807051
 21
-815.3872830151257
 31
0.0
  0
LINE
  5
421
330
2
100
AcDbEntity
  8
0
100
AcDbLine
 10
21878.92713807051
 20
-815.3872830151257
 30
0.0
 11
21878.94259862368
 21
-815.3912614302889
 31
0.0
  0
LINE
  5
422
330
2
100
AcDbEntity
  8
0
100
AcDbLine
 10
21878.94259862368
 20
-815.3912614302889
 30
0.0
 11
21878.95804495425
 21
-815.3952417004793
 31
0.0
  0
LINE
  5
423
330
2
100
AcDbEntity
  8
0
100
AcDbLine
 10
21878.95804495425
 20
-815.3952417004793
 30
0.0
 11
21878.97347710532
 21
-815.3992233834841
 31
0.0
  0
LINE
  5
424
330
2
100
AcDbEntity
  8
0
100
AcDbLine
 10
21878.97347710532
 20
-815.3992233834841
 30
0.0
 11
21878.98889512001
 21
-815.4032060370946
 31
0.0
  0
LINE
  5
425
330
2
100
AcDbEntity
  8
0
100
AcDbLine
 10
21878.98889512001
 20
-815.4032060370946
 30
0.0
 11
21879.00429904142
 21
-815.4071892190977
 31
0.0
  0
LINE
  5
426
330
2
100
AcDbEntity
  8
0
100
AcDbLine
 10
21879.00429904142
 20
-815.4071892190977
 30
0.0
 11
21879.01968891268
 21
-815.4111724872846
 31
0.0
  0
LINE
  5
427
330
2
100
AcDbEntity
  8
0
100
AcDbLine
 10
21879.01968891268
 20
-815.4111724872846
 30
0.0
 11
21879.03506477688
 21
-815.4151553994406
 31
0.0
  0
LINE
  5
428
330
2
100
AcDbEntity
  8
0
100
AcDbLine
 10
21879.03506477688
 20
-815.4151553994406
 30
0.0
 11
21879.05042667714
 21
-815.4191375133569
 31
0.0
  0
LINE
  5
429
330
2
100
AcDbEntity
  8
0
100
AcDbLine
 10
21879.05042667714
 20
-815.4191375133569
 30
0.0
 11
21879.06577465657
 21
-815.4231183868223
 31
0.0
  0
LINE
  5
42A
330
2
100
AcDbEntity
  8
0
100
AcDbLine
 10
21879.06577465657
 20
-815.4231183868223
 30
0.0
 11
21879.08110875829
 21
-815.4270975776261
 31
0.0
  0
LINE
  5
42B
330
2
100
AcDbEntity
  8
0
100
AcDbLine
 10
21879.08110875829
 20
-815.4270975776261
 30
0.0
 11
21879.0964290254
 21
-815.4310746435557
 31
0.0
  0
LINE
  5
42C
330
2
100
AcDbEntity
  8
0
100
AcDbLine
 10
21879.0964290254
 20
-815.4310746435557
 30
0.0
 11
21879.11173550101
 21
-815.4350491424002
 31
0.0
  0
LINE
  5
42D
330
2
100
AcDbEntity
  8
0
100
AcDbLine
 10
21879.11173550101
 20
-815.4350491424002
 30
0.0
 11
21879.12702822824
 21
-815.4390206319485
 31
0.0
  0
LINE
  5
42E
330
2
100
AcDbEntity
  8
0
100
AcDbLine
 10
21879.12702822824
 20
-815.4390206319485
 30
0.0
 11
21879.1423072502
 21
-815.4429886699881
 31
0.0
  0
LINE
  5
42F
330
2
100
AcDbEntity
  8
0
100
AcDbLine
 10
21879.1423072502
 20
-815.4429886699881
 30
0.0
 11
21879.15757261
 21
-815.4469528143117
 31
0.0
  0
LINE
  5
430
330
2
100
AcDbEntity
  8
0
100
AcDbLine
 10
21879.15757261
 20
-815.4469528143117
 30
0.0
 11
21879.17282435075
 21
-815.4509126227049
 31
0.0
  0
LINE
  5
431
330
2
100
AcDbEntity
  8
0
100
AcDbLine
 10
21879.17282435075
 20
-815.4509126227049
 30
0.0
 11
21879.18806251556
 21
-815.4548676529566
 31
0.0
  0
LINE
  5
432
330
2
100
AcDbEntity
  8
0
100
AcDbLine
 10
21879.18806251556
 20
-815.4548676529566
 30
0.0
 11
21879.20328714755
 21
-815.458817462856
 31
0.0
  0
LINE
  5
433
330
2
100
AcDbEntity
  8
0
100
AcDbLine
 10
21879.20328714755
 20
-815.458817462856
 30
0.0
 11
21879.21849828982
 21
-815.4627616101924
 31
0.0
  0
LINE
  5
434
330
2
100
AcDbEntity
  8
0
100
AcDbLine
 10
21879.21849828982
 20
-815.4627616101924
 30
0.0
 11
21879.23369598548
 21
-815.4666996527549
 31
0.0
  0
LINE
  5
435
330
2
100
AcDbEntity
  8
0
100
AcDbLine
 10
21879.23369598548
 20
-815.4666996527549
 30
0.0
 11
21879.24888027765
 21
-815.4706311483323
 31
0.0
  0
LINE
  5
436
330
2
100
AcDbEntity
  8
0
100
AcDbLine
 10
21879.24888027765
 20
-815.4706311483323
 30
0.0
 11
21879.26405120944
 21
-815.4745556547123
 31
0.0
  0
LINE
  5
437
330
2
100
AcDbEntity
  8
0
100
AcDbLine
 10
21879.26405120944
 20
-815.4745556547123
 30
0.0
 11
21879.27920882396
 21
-815.4784727296837
 31
0.0
  0
LINE
  5
438
330
2
100
AcDbEntity
  8
0
100
AcDbLine
 10
21879.27920882396
 20
-815.4784727296837
 30
0.0
 11
21879.29435316433
 21
-815.4823819310376
 31
0.0
  0
LINE
  5
439
330
2
100
AcDbEntity
  8
0
100
AcDbLine
 10
21879.29435316433
 20
-815.4823819310376
 30
0.0
 11
21879.30948427363
 21
-815.4862828165596
 31
0.0
  0
LINE
  5
43A
330
2
100
AcDbEntity
  8
0
100
AcDbLine
 10
21879.30948427363
 20
-815.4862828165596
 30
0.0
 11
21879.32460219501
 21
-815.4901749440405
 31
0.0
  0
LINE
  5
43B
330
2
100
AcDbEntity
  8
0
100
AcDbLine
 10
21879.32460219501
 20
-815.4901749440405
 30
0.0
 11
21879.33970697156
 21
-815.4940578712693
 31
0.0
  0
LINE
  5
43C
330
2
100
AcDbEntity
  8
0
100
AcDbLine
 10
21879.33970697156
 20
-815.4940578712693
 30
0.0
 11
21879.35479864639
 21
-815.4979311560337
 31
0.0
  0
LINE
  5
43D
330
2
100
AcDbEntity
  8
0
100
AcDbLine
 10
21879.35479864639
 20
-815.4979311560337
 30
0.0
 11
21879.36987726263
 21
-815.5017943561224
 31
0.0
  0
LINE
  5
43E
330
2
100
AcDbEntity
  8
0
100
AcDbLine
 10
21879.36987726263
 20
-815.5017943561224
 30
0.0
 11
21879.38494286337
 21
-815.5056470293247
 31
0.0
  0
LINE
  5
43F
330
2
100
AcDbEntity
  8
0
100
AcDbLine
 10
21879.38494286337
 20
-815.5056470293247
 30
0.0
 11
21879.39999549173
 21
-815.5094887334298
 31
0.0
  0
LINE
  5
440
330
2
100
AcDbEntity
  8
0
100
AcDbLine
 10
21879.39999549173
 20
-815.5094887334298
 30
0.0
 11
21879.41503519083
 21
-815.5133190262267
 31
0.0
  0
LINE
  5
441
330
2
100
AcDbEntity
  8
0
100
AcDbLine
 10
21879.41503519083
 20
-815.5133190262267
 30
0.0
 11
21879.43006200376
 21
-815.5171374655047
 31
0.0
  0
LINE
  5
442
330
2
100
AcDbEntity
  8
0
100
AcDbLine
 10
21879.43006200376
 20
-815.5171374655047
 30
0.0
 11
21879.44507597365
 21
-815.520943609049
 31
0.0
  0
LINE
  5
443
330
2
100
AcDbEntity
  8
0
100
AcDbLine
 10
21879.44507597365
 20
-815.520943609049
 30
0.0
 11
21879.4600771436
 21
-815.5247370146543
 31
0.0
  0
LINE
  5
444
330
2
100
AcDbEntity
  8
0
100
AcDbLine
 10
21879.4600771436
 20
-815.5247370146543
 30
0.0
 11
21879.47506555673
 21
-815.5285172401027
 31
0.0
  0
LINE
  5
445
330
2
100
AcDbEntity
  8
0
100
AcDbLine
 10
21879.47506555673
 20
-815.5285172401027
 30
0.0
 11
21879.49004125615
 21
-815.5322838431883
 31
0.0
  0
LINE
  5
446
330
2
100
AcDbEntity
  8
0
100
AcDbLine
 10
21879.49004125615
 20
-815.5322838431883
 30
0.0
 11
21879.50500428496
 21
-815.536036381699
 31
0.0
  0
LINE
  5
447
330
2
100
AcDbEntity
  8
0
100
AcDbLine
 10
21879.50500428496
 20
-815.536036381699
 30
0.0
 11
21879.51995468629
 21
-815.5397744134216
 31
0.0
  0
LINE
  5
448
330
2
100
AcDbEntity
  8
0
100
AcDbLine
 10
21879.51995468629
 20
-815.5397744134216
 30
0.0
 11
21879.53489250323
 21
-815.5434974961453
 31
0.0
  0
LINE
  5
449
330
2
100
AcDbEntity
  8
0
100
AcDbLine
 10
21879.53489250323
 20
-815.5434974961453
 30
0.0
 11
21879.54981777891
 21
-815.5472051876612
 31
0.0
  0
LINE
  5
44A
330
2
100
AcDbEntity
  8
0
100
AcDbLine
 10
21879.54981777891
 20
-815.5472051876612
 30
0.0
 11
21879.56473055643
 21
-815.5508970457567
 31
0.0
  0
LINE
  5
44B
330
2
100
AcDbEntity
  8
0
100
AcDbLine
 10
21879.56473055643
 20
-815.5508970457567
 30
0.0
 11
21879.57963087891
 21
-815.5545726282189
 31
0.0
  0
LINE
  5
44C
330
2
100
AcDbEntity
  8
0
100
AcDbLine
 10
21879.57963087891
 20
-815.5545726282189
 30
0.0
 11
21879.59451878945
 21
-815.5582314928388
 31
0.0
  0
LINE
  5
44D
330
2
100
AcDbEntity
  8
0
100
AcDbLine
 10
21879.59451878945
 20
-815.5582314928388
 30
0.0
 11
21879.60939433117
 21
-815.5618731974037
 31
0.0
  0
LINE
  5
44E
330
2
100
AcDbEntity
  8
0
100
AcDbLine
 10
21879.60939433117
 20
-815.5618731974037
 30
0.0
 11
21879.62425754718
 21
-815.5654972997044
 31
0.0
  0
LINE
  5
44F
330
2
100
AcDbEntity
  8
0
100
AcDbLine
 10
21879.62425754718
 20
-815.5654972997044
 30
0.0
 11
21879.63910848059
 21
-815.5691033575285
 31
0.0
  0
LINE
  5
450
330
2
100
AcDbEntity
  8
0
100
AcDbLine
 10
21879.63910848059
 20
-815.5691033575285
 30
0.0
 11
21879.65394717451
 21
-815.572690928665
 31
0.0
  0
LINE
  5
451
330
2
100
AcDbEntity
  8
0
100
AcDbLine
 10
21879.65394717451
 20
-815.572690928665
 30
0.0
 11
21879.66877367206
 21
-815.5762595709012
 31
0.0
  0
LINE
  5
452
330
2
100
AcDbEntity
  8
0
100
AcDbLine
 10
21879.66877367206
 20
-815.5762595709012
 30
0.0
 11
21879.68358801633
 21
-815.5798088420297
 31
0.0
  0
LINE
  5
453
330
2
100
AcDbEntity
  8
0
100
AcDbLine
 10
21879.68358801633
 20
-815.5798088420297
 30
0.0
 11
21879.69839025046
 21
-815.5833382998343
 31
0.0
  0
LINE
  5
454
330
2
100
AcDbEntity
  8
0
100
AcDbLine
 10
21879.69839025046
 20
-815.5833382998343
 30
0.0
 11
21879.71318041754
 21
-815.586847502108
 31
0.0
  0
LINE
  5
455
330
2
100
AcDbEntity
  8
0
100
AcDbLine
 10
21879.71318041754
 20
-815.586847502108
 30
0.0
 11
21879.72795856068
 21
-815.5903360066377
 31
0.0
  0
LINE
  5
456
330
2
100
AcDbEntity
  8
0
100
AcDbLine
 10
21879.72795856068
 20
-815.5903360066377
 30
0.0
 11
21879.74272472301
 21
-815.5938033712127
 31
0.0
  0
LINE
  5
457
330
2
100
AcDbEntity
  8
0
100
AcDbLine
 10
21879.74272472301
 20
-815.5938033712127
 30
0.0
 11
21879.75747894763
 21
-815.5972491536221
 31
0.0
  0
LINE
  5
458
330
2
100
AcDbEntity
  8
0
100
AcDbLine
 10
21879.75747894763
 20
-815.5972491536221
 30
0.0
 11
21879.77222127764
 21
-815.6006729116533
 31
0.0
  0
LINE
  5
459
330
2
100
AcDbEntity
  8
0
100
AcDbLine
 10
21879.77222127764
 20
-815.6006729116533
 30
0.0
 11
21879.78695175618
 21
-815.6040742030972
 31
0.0
  0
LINE
  5
45A
330
2
100
AcDbEntity
  8
0
100
AcDbLine
 10
21879.78695175618
 20
-815.6040742030972
 30
0.0
 11
21879.80167042633
 21
-815.6074525857411
 31
0.0
  0
LINE
  5
45B
330
2
100
AcDbEntity
  8
0
100
AcDbLine
 10
21879.80167042633
 20
-815.6074525857411
 30
0.0
 11
21879.81637733122
 21
-815.610807617374
 31
0.0
  0
LINE
  5
45C
330
2
100
AcDbEntity
  8
0
100
AcDbLine
 10
21879.81637733122
 20
-815.610807617374
 30
0.0
 11
21879.83107251396
 21
-815.6141388557852
 31
0.0
  0
LINE
  5
45D
330
2
100
AcDbEntity
  8
0
100
AcDbLine
 10
21879.83107251396
 20
-815.6141388557852
 30
0.0
 11
21879.84575601765
 21
-815.6174458587621
 31
0.0
  0
LINE
  5
45E
330
2
100
AcDbEntity
  8
0
100
AcDbLine
 10
21879.84575601765
 20
-815.6174458587621
 30
0.0
 11
21879.86042788542
 21
-815.6207281840952
 31
0.0
  0
LINE
  5
45F
330
2
100
AcDbEntity
  8
0
100
AcDbLine
 10
21879.86042788542
 20
-815.6207281840952
 30
0.0
 11
21879.87508816036
 21
-815.6239853895741
 31
0.0
  0
LINE
  5
460
330
2
100
AcDbEntity
  8
0
100
AcDbLine
 10
21879.87508816036
 20
-815.6239853895741
 30
0.0
 11
21879.8897368856
 21
-815.6272170329838
 31
0.0
  0
LINE
  5
461
330
2
100
AcDbEntity
  8
0
100
AcDbLine
 10
21879.8897368856
 20
-815.6272170329838
 30
0.0
 11
21879.90437410423
 21
-815.6304226721177
 31
0.0
  0
LINE
  5
462
330
2
100
AcDbEntity
  8
0
100
AcDbLine
 10
21879.90437410423
 20
-815.6304226721177
 30
0.0
 11
21879.91899985939
 21
-815.6336018647625
 31
0.0
  0
LINE
  5
463
330
2
100
AcDbEntity
  8
0
100
AcDbLine
 10
21879.91899985939
 20
-815.6336018647625
 30
0.0
 11
21879.93361419417
 21
-815.6367541687059
 31
0.0
  0
LINE
  5
464
330
2
100
AcDbEntity
  8
0
100
AcDbLine
 10
21879.93361419417
 20
-815.6367541687059
 30
0.0
 11
21879.94821715169
 21
-815.6398791417386
 31
0.0
  0
LINE
  5
465
330
2
100
AcDbEntity
  8
0
100
AcDbLine
 10
21879.94821715169
 20
-815.6398791417386
 30
0.0
 11
21879.96280877505
 21
-815.6429763416481
 31
0.0
  0
LINE
  5
466
330
2
100
AcDbEntity
  8
0
100
AcDbLine
 10
21879.96280877505
 20
-815.6429763416481
 30
0.0
 11
21879.97738910738
 21
-815.6460453262234
 31
0.0
  0
LINE
  5
467
330
2
100
AcDbEntity
  8
0
100
AcDbLine
 10
21879.97738910738
 20
-815.6460453262234
 30
0.0
 11
21879.99195819177
 21
-815.6490856532537
 31
0.0
  0
LINE
  5
468
330
2
100
AcDbEntity
  8
0
100
AcDbLine
 10
21879.99195819177
 20
-815.6490856532537
 30
0.0
 11
21880.00651607135
 21
-815.6520968805279
 31
0.0
  0
LINE
  5
469
330
2
100
AcDbEntity
  8
0
100
AcDbLine
 10
21880.00651607135
 20
-815.6520968805279
 30
0.0
 11
21880.02106278922
 21
-815.6550785658355
 31
0.0
  0
LINE
  5
46A
330
2
100
AcDbEntity
  8
0
100
AcDbLine
 10
21880.02106278922
 20
-815.6550785658355
 30
0.0
 11
21880.03559838849
 21
-815.6580302669635
 31
0.0
  0
LINE
  5
46B
330
2
100
AcDbEntity
  8
0
100
AcDbLine
 10
21880.03559838849
 20
-815.6580302669635
 30
0.0
 11
21880.05012291228
 21
-815.6609515417031
 31
0.0
  0
LINE
  5
46C
330
2
100
AcDbEntity
  8
0
100
AcDbLine
 10
21880.05012291228
 20
-815.6609515417031
 30
0.0
 11
21880.0646364037
 21
-815.6638419478413
 31
0.0
  0
LINE
  5
46D
330
2
100
AcDbEntity
  8
0
100
AcDbLine
 10
21880.0646364037
 20
-815.6638419478413
 30
0.0
 11
21880.07913890585
 21
-815.6667010431656
 31
0.0
  0
LINE
  5
46E
330
2
100
AcDbEntity
  8
0
100
AcDbLine
 10
21880.07913890585
 20
-815.6667010431656
 30
0.0
 11
21880.09363046186
 21
-815.6695283854688
 31
0.0
  0
LINE
  5
46F
330
2
100
AcDbEntity
  8
0
100
AcDbLine
 10
21880.09363046186
 20
-815.6695283854688
 30
0.0
 11
21880.10811111482
 21
-815.6723235325344
 31
0.0
  0
LINE
  5
470
330
2
100
AcDbEntity
  8
0
100
AcDbLine
 10
21880.10811111482
 20
-815.6723235325344
 30
0.0
 11
21880.12258090786
 21
-815.6750860421571
 31
0.0
  0
LINE
  5
471
330
2
100
AcDbEntity
  8
0
100
AcDbLine
 10
21880.12258090786
 20
-815.6750860421571
 30
0.0
 11
21880.13703988409
 21
-815.6778154721223
 31
0.0
  0
LINE
  5
472
330
2
100
AcDbEntity
  8
0
100
AcDbLine
 10
21880.13703988409
 20
-815.6778154721223
 30
0.0
 11
21880.1514880866
 21
-815.6805113802175
 31
0.0
  0
LINE
  5
473
330
2
100
AcDbEntity
  8
0
100
AcDbLine
 10
21880.1514880866
 20
-815.6805113802175
 30
0.0
 11
21880.16592555853
 21
-815.6831733242352
 31
0.0
  0
LINE
  5
474
330
2
100
AcDbEntity
  8
0
100
AcDbLine
 10
21880.16592555853
 20
-815.6831733242352
 30
0.0
 11
21880.18035234296
 21
-815.6858008619629
 31
0.0
  0
LINE
  5
475
330
2
100
AcDbEntity
  8
0
100
AcDbLine
 10
21880.18035234296
 20
-815.6858008619629
 30
0.0
 11
21880.19476848303
 21
-815.6883935511878
 31
0.0
  0
LINE
  5
476
330
2
100
AcDbEntity
  8
0
100
AcDbLine
 10
21880.19476848303
 20
-815.6883935511878
 30
0.0
 11
21880.20917402184
 21
-815.6909509496991
 31
0.0
  0
LINE
  5
477
330
2
100
AcDbEntity
  8
0
100
AcDbLine
 10
21880.20917402184
 20
-815.6909509496991
 30
0.0
 11
21880.2235690025
 21
-815.6934726152876
 31
0.0
  0
LINE
  5
478
330
2
100
AcDbEntity
  8
0
100
AcDbLine
 10
21880.2235690025
 20
-815.6934726152876
 30
0.0
 11
21880.23795346813
 21
-815.6959581057408
 31
0.0
  0
LINE
  5
479
330
2
100
AcDbEntity
  8
0
100
AcDbLine
 10
21880.23795346813
 20
-815.6959581057408
 30
0.0
 11
21880.25232746182
 21
-815.6984069788459
 31
0.0
  0
LINE
  5
47A
330
2
100
AcDbEntity
  8
0
100
AcDbLine
 10
21880.25232746182
 20
-815.6984069788459
 30
0.0
 11
21880.2666910267
 21
-815.7008187923956
 31
0.0
  0
LINE
  5
47B
330
2
100
AcDbEntity
  8
0
100
AcDbLine
 10
21880.2666910267
 20
-815.7008187923956
 30
0.0
 11
21880.28104420588
 21
-815.7031931041755
 31
0.0
  0
LINE
  5
47C
330
2
100
AcDbEntity
  8
0
100
AcDbLine
 10
21880.28104420588
 20
-815.7031931041755
 30
0.0
 11
21880.29538704246
 21
-815.7055294719748
 31
0.0
  0
LINE
  5
47D
330
2
100
AcDbEntity
  8
0
100
AcDbLine
 10
21880.29538704246
 20
-815.7055294719748
 30
0.0
 11
21880.30971957956
 21
-815.7078274535825
 31
0.0
  0
LINE
  5
47E
330
2
100
AcDbEntity
  8
0
100
AcDbLine
 10
21880.30971957956
 20
-815.7078274535825
 30
0.0
 11
21880.3240418603
 21
-815.7100866067894
 31
0.0
  0
LINE
  5
47F
330
2
100
AcDbEntity
  8
0
100
AcDbLine
 10
21880.3240418603
 20
-815.7100866067894
 30
0.0
 11
21880.33835392777
 21
-815.7123064893813
 31
0.0
  0
LINE
  5
480
330
2
100
AcDbEntity
  8
0
100
AcDbLine
 10
21880.33835392777
 20
-815.7123064893813
 30
0.0
 11
21880.35265582509
 21
-815.7144866591488
 31
0.0
  0
LINE
  5
481
330
2
100
AcDbEntity
  8
0
100
AcDbLine
 10
21880.35265582509
 20
-815.7144866591488
 30
0.0
 11
21880.36694759539
 21
-815.7166266738814
 31
0.0
  0
LINE
  5
482
330
2
100
AcDbEntity
  8
0
100
AcDbLine
 10
21880.36694759539
 20
-815.7166266738814
 30
0.0
 11
21880.38122928175
 21
-815.718726091366
 31
0.0
  0
LINE
  5
483
330
2
100
AcDbEntity
  8
0
100
AcDbLine
 10
21880.38122928175
 20
-815.718726091366
 30
0.0
 11
21880.39550092731
 21
-815.7207844693921
 31
0.0
  0
LINE
  5
484
330
2
100
AcDbEntity
  8
0
100
AcDbLine
 10
21880.39550092731
 20
-815.7207844693921
 30
0.0
 11
21880.40976257515
 21
-815.7228013657485
 31
0.0
  0
LINE
  5
485
330
2
100
AcDbEntity
  8
0
100
AcDbLine
 10
21880.40976257515
 20
-815.7228013657485
 30
0.0
 11
21880.42401426841
 21
-815.7247763382247
 31
0.0
  0
LINE
  5
486
330
2
100
AcDbEntity
  8
0
100
AcDbLine
 10
21880.42401426841
 20
-815.7247763382247
 30
0.0
 11
21880.43825605019
 21
-815.7267089446095
 31
0.0
  0
LINE
  5
487
330
2
100
AcDbEntity
  8
0
100
AcDbLine
 10
21880.43825605019
 20
-815.7267089446095
 30
0.0
 11
21880.4524879636
 21
-815.7285987426902
 31
0.0
  0
LINE
  5
488
330
2
100
AcDbEntity
  8
0
100
AcDbLine
 10
21880.4524879636
 20
-815.7285987426902
 30
0.0
 11
21880.46671005175
 21
-815.7304452902563
 31
0.0
  0
LINE
  5
489
330
2
100
AcDbEntity
  8
0
100
AcDbLine
 10
21880.46671005175
 20
-815.7304452902563
 30
0.0
 11
21880.48092235777
 21
-815.7322481450982
 31
0.0
  0
LINE
  5
48A
330
2
100
AcDbEntity
  8
0
100
AcDbLine
 10
21880.48092235777
 20
-815.7322481450982
 30
0.0
 11
21880.49512492474
 21
-815.7340068650018
 31
0.0
  0
LINE
  5
48B
330
2
100
AcDbEntity
  8
0
100
AcDbLine
 10
21880.49512492474
 20
-815.7340068650018
 30
0.0
 11
21880.50931779579
 21
-815.7357210077579
 31
0.0
  0
LINE
  5
48C
330
2
100
AcDbEntity
  8
0
100
AcDbLine
 10
21880.50931779579
 20
-815.7357210077579
 30
0.0
 11
21880.52350101402
 21
-815.7373901311556
 31
0.0
  0
LINE
  5
48D
330
2
100
AcDbEntity
  8
0
100
AcDbLine
 10
21880.52350101402
 20
-815.7373901311556
 30
0.0
 11
21880.53767462256
 21
-815.7390137929843
 31
0.0
  0
LINE
  5
48E
330
2
100
AcDbEntity
  8
0
100
AcDbLine
 10
21880.53767462256
 20
-815.7390137929843
 30
0.0
 11
21880.55183866451
 21
-815.740591551029
 31
0.0
  0
LINE
  5
48F
330
2
100
AcDbEntity
  8
0
100
AcDbLine
 10
21880.55183866451
 20
-815.740591551029
 30
0.0
 11
21880.56599318298
 21
-815.7421229630827
 31
0.0
  0
LINE
  5
490
330
2
100
AcDbEntity
  8
0
100
AcDbLine
 10
21880.56599318298
 20
-815.7421229630827
 30
0.0
 11
21880.58013822108
 21
-815.7436075869309
 31
0.0
  0
LINE
  5
491
330
2
100
AcDbEntity
  8
0
100
AcDbLine
 10
21880.58013822108
 20
-815.7436075869309
 30
0.0
 11
21880.59427382192
 21
-815.7450449803663
 31
0.0
  0
LINE
  5
492
330
2
100
AcDbEntity
  8
0
100
AcDbLine
 10
21880.59427382192
 20
-815.7450449803663
 30
0.0
 11
21880.60840002863
 21
-815.7464347011746
 31
0.0
  0
LINE
  5
493
330
2
100
AcDbEntity
  8
0
100
AcDbLine
 10
21880.60840002863
 20
-815.7464347011746
 30
0.0
 11
21880.6225168843
 21
-815.7477763071447
 31
0.0
  0
LINE
  5
494
330
2
100
AcDbEntity
  8
0
100
AcDbLine
 10
21880.6225168843
 20
-815.7477763071447
 30
0.0
 11
21880.63662443204
 21
-815.7490693560676
 31
0.0
  0
LINE
  5
495
330
2
100
AcDbEntity
  8
0
100
AcDbLine
 10
21880.63662443204
 20
-815.7490693560676
 30
0.0
 11
21880.65072271498
 21
-815.7503134057305
 31
0.0
  0
LINE
  5
496
330
2
100
AcDbEntity
  8
0
100
AcDbLine
 10
21880.65072271498
 20
-815.7503134057305
 30
0.0
 11
21880.66481177622
 21
-815.751508013921
 31
0.0
  0
LINE
  5
497
330
2
100
AcDbEntity
  8
0
100
AcDbLine
 10
21880.66481177622
 20
-815.751508013921
 30
0.0
 11
21880.67889165886
 21
-815.7526527384298
 31
0.0
  0
LINE
  5
498
330
2
100
AcDbEntity
  8
0
100
AcDbLine
 10
21880.67889165886
 20
-815.7526527384298
 30
0.0
 11
21880.69296240604
 21
-815.753747137046
 31
0.0
  0
LINE
  5
499
330
2
100
AcDbEntity
  8
0
100
AcDbLine
 10
21880.69296240604
 20
-815.753747137046
 30
0.0
 11
21880.70702406084
 21
-815.7547907675589
 31
0.0
  0
LINE
  5
49A
330
2
100
AcDbEntity
  8
0
100
AcDbLine
 10
21880.70702406084
 20
-815.7547907675589
 30
0.0
 11
21880.72107666639
 21
-815.7557831877538
 31
0.0
  0
LINE
  5
49B
330
2
100
AcDbEntity
  8
0
100
AcDbLine
 10
21880.72107666639
 20
-815.7557831877538
 30
0.0
 11
21880.7351202658
 21
-815.7567239554218
 31
0.0
  0
LINE
  5
49C
330
2
100
AcDbEntity
  8
0
100
AcDbLine
 10
21880.7351202658
 20
-815.7567239554218
 30
0.0
 11
21880.74915490218
 21
-815.7576126283538
 31
0.0
  0
LINE
  5
49D
330
2
100
AcDbEntity
  8
0
100
AcDbLine
 10
21880.74915490218
 20
-815.7576126283538
 30
0.0
 11
21880.76318061863
 21
-815.7584487643353
 31
0.0
  0
LINE
  5
49E
330
2
100
AcDbEntity
  8
0
100
AcDbLine
 10
21880.76318061863
 20
-815.7584487643353
 30
0.0
 11
21880.77719745828
 21
-815.7592319211554
 31
0.0
  0
LINE
  5
49F
330
2
100
AcDbEntity
  8
0
100
AcDbLine
 10
21880.77719745828
 20
-815.7592319211554
 30
0.0
 11
21880.79120546424
 21
-815.7599616566049
 31
0.0
  0
LINE
  5
4A0
330
2
100
AcDbEntity
  8
0
100
AcDbLine
 10
21880.79120546424
 20
-815.7599616566049
 30
0.0
 11
21880.8052046796
 21
-815.7606375284712
 31
0.0
  0
LINE
  5
4A1
330
2
100
AcDbEntity
  8
0
100
AcDbLine
 10
21880.8052046796
 20
-815.7606375284712
 30
0.0
 11
21880.81919514748
 21
-815.7612590945436
 31
0.0
  0
LINE
  5
4A2
330
2
100
AcDbEntity
  8
0
100
AcDbLine
 10
21880.81919514748
 20
-815.7612590945436
 30
0.0
 11
21880.83317691101
 21
-815.7618259126111
 31
0.0
  0
LINE
  5
4A3
330
2
100
AcDbEntity
  8
0
100
AcDbLine
 10
21880.83317691101
 20
-815.7618259126111
 30
0.0
 11
21880.84715001328
 21
-815.7623375404627
 31
0.0
  0
LINE
  5
4A4
330
2
100
AcDbEntity
  8
0
100
AcDbLine
 10
21880.84715001328
 20
-815.7623375404627
 30
0.0
 11
21880.86111449741
 21
-815.762793535886
 31
0.0
  0
LINE
  5
4A5
330
2
100
AcDbEntity
  8
0
100
AcDbLine
 10
21880.86111449741
 20
-815.762793535886
 30
0.0
 11
21880.87507040651
 21
-815.7631934566698
 31
0.0
  0
LINE
  5
4A6
330
2
100
AcDbEntity
  8
0
100
AcDbLine
 10
21880.87507040651
 20
-815.7631934566698
 30
0.0
 11
21880.88901778369
 21
-815.7635368606051
 31
0.0
  0
LINE
  5
4A7
330
2
100
AcDbEntity
  8
0
100
AcDbLine
 10
21880.88901778369
 20
-815.7635368606051
 30
0.0
 11
21880.90295667207
 21
-815.7638233054777
 31
0.0
  0
LINE
  5
4A8
330
2
100
AcDbEntity
  8
0
100
AcDbLine
 10
21880.90295667207
 20
-815.7638233054777
 30
0.0
 11
21880.91688711474
 21
-815.7640523490782
 31
0.0
  0
LINE
  5
4A9
330
2
100
AcDbEntity
  8
0
100
AcDbLine
 10
21880.91688711474
 20
-815.7640523490782
 30
0.0
 11
21880.93080915483
 21
-815.7642235491957
 31
0.0
  0
LINE
  5
4AA
330
2
100
AcDbEntity
  8
0
100
AcDbLine
 10
21880.93080915483
 20
-815.7642235491957
 30
0.0
 11
21880.94472283545
 21
-815.7643364636196
 31
0.0
  0
LINE
  5
4AB
330
2
100
AcDbEntity
  8
0
100
AcDbLine
 10
21880.94472283545
 20
-815.7643364636196
 30
0.0
 11
21880.9586281997
 21
-815.7643906501352
 31
0.0
  0
LINE
  5
4AC
330
2
100
AcDbEntity
  8
0
100
AcDbLine
 10
21880.9586281997
 20
-815.7643906501352
 30
0.0
 11
21880.9725252907
 21
-815.7643856665353
 31
0.0
  0
LINE
  5
4AD
330
2
100
AcDbEntity
  8
0
100
AcDbLine
 10
21880.9725252907
 20
-815.7643856665353
 30
0.0
 11
21880.98641415157
 21
-815.7643210706073
 31
0.0
  0
LINE
  5
4AE
330
2
100
AcDbEntity
  8
0
100
AcDbLine
 10
21880.98641415157
 20
-815.7643210706073
 30
0.0
 11
21881.0002948254
 21
-815.7641964201385
 31
0.0
  0
LINE
  5
4AF
330
2
100
AcDbEntity
  8
0
100
AcDbLine
 10
21881.0002948254
 20
-815.7641964201385
 30
0.0
 11
21881.01416735532
 21
-815.7640112729195
 31
0.0
  0
LINE
  5
4B0
330
2
100
AcDbEntity
  8
0
100
AcDbLine
 10
21881.01416735532
 20
-815.7640112729195
 30
0.0
 11
21881.02803178443
 21
-815.763765186738
 31
0.0
  0
LINE
  5
4B1
330
2
100
AcDbEntity
  8
0
100
AcDbLine
 10
21881.02803178443
 20
-815.763765186738
 30
0.0
 11
21881.04188815585
 21
-815.7634577193848
 31
0.0
  0
LINE
  5
4B2
330
2
100
AcDbEntity
  8
0
100
AcDbLine
 10
21881.04188815585
 20
-815.7634577193848
 30
0.0
 11
21881.05573651268
 21
-815.7630884286472
 31
0.0
  0
LINE
  5
4B3
330
2
100
AcDbEntity
  8
0
100
AcDbLine
 10
21881.05573651268
 20
-815.7630884286472
 30
0.0
 11
21881.06957689804
 21
-815.7626568723143
 31
0.0
  0
LINE
  5
4B4
330
2
100
AcDbEntity
  8
0
100
AcDbLine
 10
21881.06957689804
 20
-815.7626568723143
 30
0.0
 11
21881.08340935504
 21
-815.7621626081736
 31
0.0
  0
LINE
  5
4B5
330
2
100
AcDbEntity
  8
0
100
AcDbLine
 10
21881.08340935504
 20
-815.7621626081736
 30
0.0
 11
21881.09723392679
 21
-815.7616051940157
 31
0.0
  0
LINE
  5
4B6
330
2
100
AcDbEntity
  8
0
100
AcDbLine
 10
21881.09723392679
 20
-815.7616051940157
 30
0.0
 11
21881.1110506564
 21
-815.7609841876283
 31
0.0
  0
LINE
  5
4B7
330
2
100
AcDbEntity
  8
0
100
AcDbLine
 10
21881.1110506564
 20
-815.7609841876283
 30
0.0
 11
21881.12485958698
 21
-815.7602991468021
 31
0.0
  0
LINE
  5
4B8
330
2
100
AcDbEntity
  8
0
100
AcDbLine
 10
21881.12485958698
 20
-815.7602991468021
 30
0.0
 11
21881.13866076165
 21
-815.7595496293224
 31
0.0
  0
LINE
  5
4B9
330
2
100
AcDbEntity
  8
0
100
AcDbLine
 10
21881.13866076165
 20
-815.7595496293224
 30
0.0
 11
21881.15245422352
 21
-815.7587351929823
 31
0.0
  0
LINE
  5
4BA
330
2
100
AcDbEntity
  8
0
100
AcDbLine
 10
21881.15245422352
 20
-815.7587351929823
 30
0.0
 11
21881.16624001569
 21
-815.7578553955673
 31
0.0
  0
LINE
  5
4BB
330
2
100
AcDbEntity
  8
0
100
AcDbLine
 10
21881.16624001569
 20
-815.7578553955673
 30
0.0
 11
21881.18001818127
 21
-815.7569097948663
 31
0.0
  0
LINE
  5
4BC
330
2
100
AcDbEntity
  8
0
100
AcDbLine
 10
21881.18001818127
 20
-815.7569097948663
 30
0.0
 11
21881.19378876339
 21
-815.755897948672
 31
0.0
  0
LINE
  5
4BD
330
2
100
AcDbEntity
  8
0
100
AcDbLine
 10
21881.19378876339
 20
-815.755897948672
 30
0.0
 11
21881.20755180514
 21
-815.7548194147684
 31
0.0
  0
LINE
  5
4BE
330
2
100
AcDbEntity
  8
0
100
AcDbLine
 10
21881.20755180514
 20
-815.7548194147684
 30
0.0
 11
21881.22130734965
 21
-815.7536737509463
 31
0.0
  0
LINE
  5
4BF
330
2
100
AcDbEntity
  8
0
100
AcDbLine
 10
21881.22130734965
 20
-815.7536737509463
 30
0.0
 11
21881.23505544003
 21
-815.7524605149946
 31
0.0
  0
LINE
  5
4C0
330
2
100
AcDbEntity
  8
0
100
AcDbLine
 10
21881.23505544003
 20
-815.7524605149946
 30
0.0
 11
21881.24879611937
 21
-815.7511792647028
 31
0.0
  0
LINE
  5
4C1
330
2
100
AcDbEntity
  8
0
100
AcDbLine
 10
21881.24879611937
 20
-815.7511792647028
 30
0.0
 11
21881.2625294308
 21
-815.749829557858
 31
0.0
  0
LINE
  5
4C2
330
2
100
AcDbEntity
  8
0
100
AcDbLine
 10
21881.2625294308
 20
-815.749829557858
 30
0.0
 11
21881.27625541743
 21
-815.7484109522492
 31
0.0
  0
LINE
  5
4C3
330
2
100
AcDbEntity
  8
0
100
AcDbLine
 10
21881.27625541743
 20
-815.7484109522492
 30
0.0
 11
21881.28997412237
 21
-815.7469230056676
 31
0.0
  0
LINE
  5
4C4
330
2
100
AcDbEntity
  8
0
100
AcDbLine
 10
21881.28997412237
 20
-815.7469230056676
 30
0.0
 11
21881.30368558872
 21
-815.7453652758986
 31
0.0
  0
LINE
  5
4C5
330
2
100
AcDbEntity
  8
0
100
AcDbLine
 10
21881.30368558872
 20
-815.7453652758986
 30
0.0
 11
21881.31738985961
 21
-815.7437373207349
 31
0.0
  0
LINE
  5
4C6
330
2
100
AcDbEntity
  8
0
100
AcDbLine
 10
21881.31738985961
 20
-815.7437373207349
 30
0.0
 11
21881.33108697813
 21
-815.742038697962
 31
0.0
  0
LINE
  5
4C7
330
2
100
AcDbEntity
  8
0
100
AcDbLine
 10
21881.33108697813
 20
-815.742038697962
 30
0.0
 11
21881.34477698742
 21
-815.7402689653689
 31
0.0
  0
LINE
  5
4C8
330
2
100
AcDbEntity
  8
0
100
AcDbLine
 10
21881.34477698742
 20
-815.7402689653689
 30
0.0
 11
21881.35845993056
 21
-815.7384276807469
 31
0.0
  0
LINE
  5
4C9
330
2
100
AcDbEntity
  8
0
100
AcDbLine
 10
21881.35845993056
 20
-815.7384276807469
 30
0.0
 11
21881.37213585068
 21
-815.7365144018831
 31
0.0
  0
LINE
  5
4CA
330
2
100
AcDbEntity
  8
0
100
AcDbLine
 10
21881.37213585068
 20
-815.7365144018831
 30
0.0
 11
21881.38580479089
 21
-815.7345286865666
 31
0.0
  0
LINE
  5
4CB
330
2
100
AcDbEntity
  8
0
100
AcDbLine
 10
21881.38580479089
 20
-815.7345286865666
 30
0.0
 11
21881.3994667943
 21
-815.7324700925846
 31
0.0
  0
LINE
  5
4CC
330
2
100
AcDbEntity
  8
0
100
AcDbLine
 10
21881.3994667943
 20
-815.7324700925846
 30
0.0
 11
21881.41312190401
 21
-815.7303381777282
 31
0.0
  0
LINE
  5
4CD
330
2
100
AcDbEntity
  8
0
100
AcDbLine
 10
21881.41312190401
 20
-815.7303381777282
 30
0.0
 11
21881.42677016315
 21
-815.7281324997866
 31
0.0
  0
LINE
  5
4CE
330
2
100
AcDbEntity
  8
0
100
AcDbLine
 10
21881.42677016315
 20
-815.7281324997866
 30
0.0
 11
21881.44041161482
 21
-815.7258526165469
 31
0.0
  0
LINE
  5
4CF
330
2
100
AcDbEntity
  8
0
100
AcDbLine
 10
21881.44041161482
 20
-815.7258526165469
 30
0.0
 11
21881.45404630213
 21
-815.7234980857984
 31
0.0
  0
LINE
  5
4D0
330
2
100
AcDbEntity
  8
0
100
AcDbLine
 10
21881.45404630213
 20
-815.7234980857984
 30
0.0
 11
21881.4676742682
 21
-815.72106846533
 31
0.0
  0
LINE
  5
4D1
330
2
100
AcDbEntity
  8
0
100
AcDbLine
 10
21881.4676742682
 20
-815.72106846533
 30
0.0
 11
21881.48129555613
 21
-815.7185633129293
 31
0.0
  0
LINE
  5
4D2
330
2
100
AcDbEntity
  8
0
100
AcDbLine
 10
21881.48129555613
 20
-815.7185633129293
 30
0.0
 11
21881.49491020904
 21
-815.7159821863869
 31
0.0
  0
LINE
  5
4D3
330
2
100
AcDbEntity
  8
0
100
AcDbLine
 10
21881.49491020904
 20
-815.7159821863869
 30
0.0
 11
21881.50851827003
 21
-815.7133246434923
 31
0.0
  0
LINE
  5
4D4
330
2
100
AcDbEntity
  8
0
100
AcDbLine
 10
21881.50851827003
 20
-815.7133246434923
 30
0.0
 11
21881.52211978223
 21
-815.7105902420308
 31
0.0
  0
LINE
  5
4D5
330
2
100
AcDbEntity
  8
0
100
AcDbLine
 10
21881.52211978223
 20
-815.7105902420308
 30
0.0
 11
21881.53571478874
 21
-815.707778539795
 31
0.0
  0
LINE
  5
4D6
330
2
100
AcDbEntity
  8
0
100
AcDbLine
 10
21881.53571478874
 20
-815.707778539795
 30
0.0
 11
21881.54930333267
 21
-815.7048890945725
 31
0.0
  0
LINE
  5
4D7
330
2
100
AcDbEntity
  8
0
100
AcDbLine
 10
21881.54930333267
 20
-815.7048890945725
 30
0.0
 11
21881.56288545714
 21
-815.7019214641504
 31
0.0
  0
LINE
  5
4D8
330
2
100
AcDbEntity
  8
0
100
AcDbLine
 10
21881.56288545714
 20
-815.7019214641504
 30
0.0
 11
21881.57646120524
 21
-815.6988752063197
 31
0.0
  0
LINE
  5
4D9
330
2
100
AcDbEntity
  8
0
100
AcDbLine
 10
21881.57646120524
 20
-815.6988752063197
 30
0.0
 11
21881.59003062012
 21
-815.6957498788679
 31
0.0
  0
LINE
  5
4DA
330
2
100
AcDbEntity
  8
0
100
AcDbLine
 10
21881.59003062012
 20
-815.6957498788679
 30
0.0
 11
21881.60359374485
 21
-815.6925450395856
 31
0.0
  0
LINE
  5
4DB
330
2
100
AcDbEntity
  8
0
100
AcDbLine
 10
21881.60359374485
 20
-815.6925450395856
 30
0.0
 11
21881.61715062256
 21
-815.6892602462585
 31
0.0
  0
LINE
  5
4DC
330
2
100
AcDbEntity
  8
0
100
AcDbLine
 10
21881.61715062256
 20
-815.6892602462585
 30
0.0
 11
21881.63070129636
 21
-815.6858950566775
 31
0.0
  0
LINE
  5
4DD
330
2
100
AcDbEntity
  8
0
100
AcDbLine
 10
21881.63070129636
 20
-815.6858950566775
 30
0.0
 11
21881.64424580936
 21
-815.6824490286316
 31
0.0
  0
LINE
  5
4DE
330
2
100
AcDbEntity
  8
0
100
AcDbLine
 10
21881.64424580936
 20
-815.6824490286316
 30
0.0
 11
21881.65778420468
 21
-815.6789217199102
 31
0.0
  0
LINE
  5
4DF
330
2
100
AcDbEntity
  8
0
100
AcDbLine
 10
21881.65778420468
 20
-815.6789217199102
 30
0.0
 11
21881.67131652542
 21
-815.6753126882986
 31
0.0
  0
LINE
  5
4E0
330
2
100
AcDbEntity
  8
0
100
AcDbLine
 10
21881.67131652542
 20
-815.6753126882986
 30
0.0
 11
21881.68484281469
 21
-815.6716214915896
 31
0.0
  0
LINE
  5
4E1
330
2
100
AcDbEntity
  8
0
100
AcDbLine
 10
21881.68484281469
 20
-815.6716214915896
 30
0.0
 11
21881.69836311561
 21
-815.6678476875704
 31
0.0
  0
LINE
  5
4E2
330
2
100
AcDbEntity
  8
0
100
AcDbLine
 10
21881.69836311561
 20
-815.6678476875704
 30
0.0
 11
21881.71187747129
 21
-815.6639908340302
 31
0.0
  0
LINE
  5
4E3
330
2
100
AcDbEntity
  8
0
100
AcDbLine
 10
21881.71187747129
 20
-815.6639908340302
 30
0.0
 11
21881.72538592484
 21
-815.6600504887565
 31
0.0
  0
LINE
  5
4E4
330
2
100
AcDbEntity
  8
0
100
AcDbLine
 10
21881.72538592484
 20
-815.6600504887565
 30
0.0
 11
21881.73888851936
 21
-815.65602620954
 31
0.0
  0
LINE
  5
4E5
330
2
100
AcDbEntity
  8
0
100
AcDbLine
 10
21881.73888851936
 20
-815.65602620954
 30
0.0
 11
21881.75238529798
 21
-815.651917554168
 31
0.0
  0
LINE
  5
4E6
330
2
100
AcDbEntity
  8
0
100
AcDbLine
 10
21881.75238529798
 20
-815.651917554168
 30
0.0
 11
21881.7658763038
 21
-815.6477240804298
 31
0.0
  0
LINE
  5
4E7
330
2
100
AcDbEntity
  8
0
100
AcDbLine
 10
21881.7658763038
 20
-815.6477240804298
 30
0.0
 11
21881.77936157994
 21
-815.6434453461143
 31
0.0
  0
LINE
  5
4E8
330
2
100
AcDbEntity
  8
0
100
AcDbLine
 10
21881.77936157994
 20
-815.6434453461143
 30
0.0
 11
21881.7928411695
 21
-815.6390809090108
 31
0.0
  0
LINE
  5
4E9
330
2
100
AcDbEntity
  8
0
100
AcDbLine
 10
21881.7928411695
 20
-815.6390809090108
 30
0.0
 11
21881.80631511559
 21
-815.6346303269065
 31
0.0
  0
LINE
  5
4EA
330
2
100
AcDbEntity
  8
0
100
AcDbLine
 10
21881.80631511559
 20
-815.6346303269065
 30
0.0
 11
21881.81978346134
 21
-815.6300931575923
 31
0.0
  0
LINE
  5
4EB
330
2
100
AcDbEntity
  8
0
100
AcDbLine
 10
21881.81978346134
 20
-815.6300931575923
 30
0.0
 11
21881.83324624985
 21
-815.6254689588577
 31
0.0
  0
LINE
  5
4EC
330
2
100
AcDbEntity
  8
0
100
AcDbLine
 10
21881.83324624985
 20
-815.6254689588577
 30
0.0
 11
21881.84670352422
 21
-815.6207572884877
 31
0.0
  0
LINE
  5
4ED
330
2
100
AcDbEntity
  8
0
100
AcDbLine
 10
21881.84670352422
 20
-815.6207572884877
 30
0.0
 11
21881.86015532757
 21
-815.6159577042735
 31
0.0
  0
LINE
  5
4EE
330
2
100
AcDbEntity
  8
0
100
AcDbLine
 10
21881.86015532757
 20
-815.6159577042735
 30
0.0
 11
21881.87360170302
 21
-815.6110697640041
 31
0.0
  0
LINE
  5
4EF
330
2
100
AcDbEntity
  8
0
100
AcDbLine
 10
21881.87360170302
 20
-815.6110697640041
 30
0.0
 11
21881.88704269367
 21
-815.6060930254671
 31
0.0
  0
LINE
  5
4F0
330
2
100
AcDbEntity
  8
0
100
AcDbLine
 10
21881.88704269367
 20
-815.6060930254671
 30
0.0
 11
21881.90047834264
 21
-815.601027046453
 31
0.0
  0
LINE
  5
4F1
330
2
100
AcDbEntity
  8
0
100
AcDbLine
 10
21881.90047834264
 20
-815.601027046453
 30
0.0
 11
21881.91390869304
 21
-815.5958713847494
 31
0.0
  0
LINE
  5
4F2
330
2
100
AcDbEntity
  8
0
100
AcDbLine
 10
21881.91390869304
 20
-815.5958713847494
 30
0.0
 11
21881.92733378797
 21
-815.5906255981454
 31
0.0
  0
LINE
  5
4F3
330
2
100
AcDbEntity
  8
0
100
AcDbLine
 10
21881.92733378797
 20
-815.5906255981454
 30
0.0
 11
21881.94075367055
 21
-815.5852892444299
 31
0.0
  0
LINE
  5
4F4
330
2
100
AcDbEntity
  8
0
100
AcDbLine
 10
21881.94075367055
 20
-815.5852892444299
 30
0.0
 11
21881.95416838389
 21
-815.5798618813923
 31
0.0
  0
LINE
  5
4F5
330
2
100
AcDbEntity
  8
0
100
AcDbLine
 10
21881.95416838389
 20
-815.5798618813923
 30
0.0
 11
21881.96757797111
 21
-815.5743430668199
 31
0.0
  0
LINE
  5
4F6
330
2
100
AcDbEntity
  8
0
100
AcDbLine
 10
21881.96757797111
 20
-815.5743430668199
 30
0.0
 11
21881.9809824753
 21
-815.5687323585016
 31
0.0
  0
LINE
  5
4F7
330
2
100
AcDbEntity
  8
0
100
AcDbLine
 10
21881.9809824753
 20
-815.5687323585016
 30
0.0
 11
21881.9943819396
 21
-815.5630293142285
 31
0.0
  0
LINE
  5
4F8
330
2
100
AcDbEntity
  8
0
100
AcDbLine
 10
21881.9943819396
 20
-815.5630293142285
 30
0.0
 11
21882.0077764071
 21
-815.5572334917879
 31
0.0
  0
LINE
  5
4F9
330
2
100
AcDbEntity
  8
0
100
AcDbLine
 10
21882.0077764071
 20
-815.5572334917879
 30
0.0
 11
21882.02116592091
 21
-815.5513444489688
 31
0.0
  0
LINE
  5
4FA
330
2
100
AcDbEntity
  8
0
100
AcDbLine
 10
21882.02116592091
 20
-815.5513444489688
 30
0.0
 11
21882.03455052415
 21
-815.5453617435586
 31
0.0
  0
LINE
  5
4FB
330
2
100
AcDbEntity
  8
0
100
AcDbLine
 10
21882.03455052415
 20
-815.5453617435586
 30
0.0
 11
21882.04793025994
 21
-815.5392849333484
 31
0.0
  0
LINE
  5
4FC
330
2
100
AcDbEntity
  8
0
100
AcDbLine
 10
21882.04793025994
 20
-815.5392849333484
 30
0.0
 11
21882.05768331992
 21
-815.5347847452512
 31
0.0
  0
LINE
  5
4FD
330
2
100
AcDbEntity
  8
0
100
AcDbLine
 10
21869.90565510977
 20
-791.4315488378861
 30
0.0
 11
21869.90565510977
 21
-799.1315488378868
 31
0.0
  0
ARC
  5
4FE
330
2
100
AcDbEntity
  8
0
 48
0.6
100
AcDbCircle
 10
21910.91588305654
 20
-801.5351463873512
 30
0.0
 40
35.255792
100
AcDbArc
 50
179.9962054631616
 51
181.0943561937651
  0
ARC
  5
4FF
330
2
100
AcDbEntity
  8
0
100
AcDbCircle
 10
21879.40565510977
 20
-801.0328114963567
 30
0.0
 40
0.5
100
AcDbArc
 50
270.0
 51
0.0
  0
LINE
  5
500
330
2
100
AcDbEntity
  8
0
100
AcDbLine
 10
21879.90565510977
 20
-800.5328114963567
 30
0.0
 11
21879.90565510977
 21
-801.0328114963567
 31
0.0
  0
ARC
  5
501
330
2
100
AcDbEntity
  8
0
 48
0.6
100
AcDbCircle
 10
21911.20837710977
 20
-801.6214574963569
 30
0.0
 40
33.955792
100
AcDbArc
 50
179.85042300002
 51
180.8634200380008
  0
ARC
  5
502
330
2
100
AcDbEntity
  8
0
100
AcDbCircle
 10
21879.37576905145
 20
-807.633135700872
 30
0.0
 40
0.5
100
AcDbArc
 50
90.0
 51
177.9685271120394
  0
ARC
  5
503
330
2
100
AcDbEntity
  8
0
 48
0.6
100
AcDbCircle
 10
21917.84801174205
 20
-798.9454228836903
 30
0.0
 40
39.44812461369086
100
AcDbArc
 50
195.25776166648
 51
204.8684405629854
  0
LINE
  5
504
330
2
100
AcDbEntity
  8
0
100
AcDbLine
 10
21878.87608329857
 20
-807.6154114697173
 30
0.0
 11
21878.87608329857
 21
-807.7496795681227
 31
0.0
  0
ARC
  5
505
330
2
100
AcDbEntity
  8
0
100
AcDbCircle
 10
21870.40565510977
 20
-801.0328114963567
 30
0.0
 40
0.5
100
AcDbArc
 50
180.0
 51
270.0
  0
LINE
  5
506
330
2
100
AcDbEntity
  8
0
100
AcDbLine
 10
21869.90565510977
 20
-800.5328114963567
 30
0.0
 11
21869.90565510977
 21
-801.0328114963567
 31
0.0
  0
ARC
  5
507
330
2
100
AcDbEntity
  8
0
 48
0.6
100
AcDbCircle
 10
21911.20837710977
 20
-801.6214574963569
 30
0.0
 40
39.155792
100
AcDbArc
 50
179.8702870000233
 51
183.6102158837714
  0
ARC
  5
508
330
2
100
AcDbEntity
  8
0
 48
0.6
100
AcDbCircle
 10
21911.50458304566
 20
-801.6968459722075
 30
0.0
 40
37.855792
100
AcDbArc
 50
179.8658330000312
 51
183.9724199931055
  0
LINE
  5
509
330
2
100
AcDbEntity
  8
0
100
AcDbLine
 10
21869.00565510977
 20
-799.1315488378868
 30
0.0
 11
21869.90565510977
 21
-799.1315488378868
 31
0.0
  0
LINE
  5
50A
330
2
100
AcDbEntity
  8
0
100
AcDbLine
 10
21874.39398037336
 20
-803.8813719401833
 30
0.0
 11
21874.39398037336
 21
-804.5024712257827
 31
0.0
  0
LINE
  5
50B
330
2
100
AcDbEntity
  8
0
100
AcDbLine
 10
21862.40565510977
 20
-797.0328114963567
 30
0.0
 11
21860.40565510977
 21
-797.0328114963567
 31
0.0
  0
LINE
  5
50C
330
2
100
AcDbEntity
  8
0
100
AcDbLine
 10
21879.40565510977
 20
-801.5328114963567
 30
0.0
 11
21870.40565510977
 21
-801.5328114963567
 31
0.0
  0
ARC
  5
50D
330
2
100
AcDbEntity
  8
0
100
AcDbCircle
 10
21876.19731967682
 20
-803.9327115998013
 30
0.0
 40
1.804069955425966
100
AcDbArc
 50
94.04501748588252
 51
178.3692744375838
  0
ARC
  5
50E
330
2
100
AcDbEntity
  8
0
100
AcDbCircle
 10
21871.66778643666
 20
-812.9823355402141
 30
0.0
 40
8.907313409310658
100
AcDbArc
 50
24.23072274293117
 51
94.90087069769113
  0
ARC
  5
50F
330
2
100
AcDbEntity
  8
0
 48
0.6
100
AcDbCircle
 10
21936.63907937364
 20
-789.238992221025
 30
0.0
 40
67.39291900811399
100
AcDbArc
 50
192.7457730550604
 51
202.995586132711
  0
LINE
  5
510
330
2
100
AcDbEntity
  8
0
100
AcDbLine
 10
21869.00565510977
 20
-791.4315488378861
 30
0.0
 11
21869.90565510977
 21
-791.4315488378861
 31
0.0
  0
DIMENSION
  5
511
102
{ACAD_XDICTIONARY
360
512
102
}
102
{ACAD_REACTORS
330
513
102
}
330
2
100
AcDbEntity
  8
0
100
AcDbDimension
  2
*D5
 10
21862.40565510977
 20
-676.0556477886138
 30
0.0
 11
21843.90565510977
 21
-676.0556477886138
 31
0.0
 70
   128
 71
     5
 42
-1.0
  3
STANDARD
100
AcDbAlignedDimension
 13
21825.40565510977
 23
-750.5328114963567
 33
0.0
 14
21862.40565510977
 24
-710.5328114963567
 34
0.0
100
AcDbRotatedDimension
  0
LINE
  5
520
330
2
100
AcDbEntity
  8
0
  6
CENTER
 62
     1
 48
0.6
100
AcDbLine
 10
22088.86125010464
 20
-755.5328114963567
 30
0.0
 11
21817.55565856044
 21
-755.5328114963567
 31
0.0
  0
DIMENSION
  5
521
102
{ACAD_XDICTIONARY
360
522
102
}
102
{ACAD_REACTORS
330
523
102
}
330
2
100
AcDbEntity
  8
0
100
AcDbDimension
  2
*D6
 10
21802.06869334835
 20
-749.5328114963568
 30
0.0
 11
21802.06869334835
 21
-755.5328114963532
 31
0.0
 70
   128
  1
\A1;{\f??|b0|i0|c0|p49;%%C}12{\f??|b0|i0|c0|p49;\H0.7x;\S+0^ -0.018;\H1.429x;(h}7{\f??|b0|i0|c0|p49;)}
 71
     5
 42
-1.0
  3
STANDARD
100
AcDbAlignedDimension
 13
21825.40565510977
 23
-761.5328114963567
 33
0.0
 14
21855.40565510977
 24
-749.5328114963568
 34
0.0
 50
90.0
100
AcDbRotatedDimension
  0
DIMENSION
  5
530
102
{ACAD_XDICTIONARY
360
531
102
}
102
{ACAD_REACTORS
330
532
102
}
330
2
100
AcDbEntity
  8
0
100
AcDbDimension
  2
*D7
 10
21855.40565510977
 20
-733.451675207053
 30
0.0
 11
21840.52142623446
 21
-733.451675207053
 31
0.0
 70
   128
 71
     5
 42
-1.0
  3
STANDARD
100
AcDbAlignedDimension
 13
21825.40565510977
 23
-750.5328114963567
 33
0.0
 14
21855.40565510977
 24
-749.5328114963568
 34
0.0
100
AcDbRotatedDimension
  0
LINE
  5
53F
102
{ACAD_REACTORS
330
543
330
523
102
}
330
2
100
AcDbEntity
  8
0
  6
ByBlock
 62
     0
100
AcDbLine
 10
21860.40565510977
 20
-761.5328114963567
 30
0.0
 11
21825.40565510977
 21
-761.5328114963567
 31
0.0
  0
LINE
  5
540
102
{ACAD_REACTORS
330
532
330
543
330
513
102
}
330
2
100
AcDbEntity
  8
0
  6
ByBlock
 62
     0
100
AcDbLine
 10
21855.40565510977
 20
-750.5328114963567
 30
0.0
 11
21825.40565510977
 21
-750.5328114963567
 31
0.0
  0
DIMENSION
  5
541
102
{ACAD_XDICTIONARY
360
542
102
}
102
{ACAD_REACTORS
330
543
102
}
330
2
100
AcDbEntity
  8
0
100
AcDbDimension
  2
*D8
 10
21812.93717422906
 20
-750.5328114963567
 30
0.0
 11
21812.93717422906
 21
-756.0328114963567
 31
0.0
 70
   128
  1
<>
 71
     5
 42
-1.0
  3
STANDARD
100
AcDbAlignedDimension
 13
21825.40565510977
 23
-761.5328114963567
 33
0.0
 14
21825.40565510977
 24
-750.5328114963567
 34
0.0
 50
90.0
100
AcDbRotatedDimension
  0
LINE
  5
550
330
2
100
AcDbEntity
  8
0
100
AcDbLine
 10
21825.40565510977
 20
-750.5328114963567
 30
0.0
 11
21825.40565510977
 21
-761.5328114963567
 31
0.0
  0
LINE
  5
551
330
2
100
AcDbEntity
  8
0
  6
CENTER
 62
     1
 48
0.6
100
AcDbLine
 10
22017.40637760046
 20
-707.0490459903185
 30
0.0
 11
22017.40637760046
 21
-713.6299027030545
 31
0.0
  0
LINE
  5
552
330
2
100
AcDbEntity
  8
0
  6
CENTER
 62
     1
 48
0.6
100
AcDbLine
 10
22082.40787035575
 20
-719.5328114963567
 30
0.0
 11
22076.40637760046
 21
-719.5328114963567
 31
0.0
  0
DIMENSION
  5
553
102
{ACAD_XDICTIONARY
360
554
102
}
102
{ACAD_REACTORS
330
555
102
}
330
2
100
AcDbEntity
  8
0
100
AcDbDimension
  2
*D9
 10
21869.90565510977
 20
-688.8227596969227
 30
0.0
 11
21884.64375034786
 21
-688.8227596969227
 31
0.0
 70
   128
 71
     5
 42
-1.0
  3
STANDARD
100
AcDbAlignedDimension
 13
21862.40565510977
 23
-710.5328114963567
 33
0.0
 14
21869.90565510977
 24
-711.9340741548267
 34
0.0
100
AcDbRotatedDimension
  0
DIMENSION
  5
564
330
2
100
AcDbEntity
  8
0
100
AcDbDimension
  2
*D0
 10
22078.40637760046
 20
-676.0556477886138
 30
0.0
 11
21965.40565510977
 21
-676.0556477886138
 31
0.0
 70
   128
  1
M
 71
     5
 42
-1.0
  3
STANDARD
100
AcDbAlignedDimension
 13
21862.40565510977
 23
-710.5328114963567
 33
0.0
 14
22078.40637760046
 24
-714.0328114963567
 34
0.0
100
AcDbRotatedDimension
  0
LINE
  5
571
330
2
100
AcDbEntity
  8
0
100
AcDbLine
 10
22080.40787035575
 20
-720.6828114963582
 30
0.0
 11
22080.40787035575
 21
-718.3828114963571
 31
0.0
  0
ARC
  5
572
330
2
100
AcDbEntity
  8
0
100
AcDbCircle
 10
22078.51770624734
 20
-719.662974640908
 30
0.0
 40
2.282879329571919
100
AcDbArc
 50
34.10884998158306
 51
92.79523867891287
  0
ARC
  5
573
330
2
100
AcDbEntity
  8
0
100
AcDbCircle
 10
22078.51770624734
 20
-719.4026483518054
 30
0.0
 40
2.282879329572159
100
AcDbArc
 50
267.2047613210871
 51
325.8911500184115
  0
LINE
  5
574
330
2
100
AcDbEntity
  8
0
  6
CENTER
 62
     1
100
AcDbLine
 10
22017.40637760046
 20
-758.9856088270489
 30
0.0
 11
22017.40637760046
 21
-752.0800141656645
 31
0.0
  0
CIRCLE
  5
575
330
2
100
AcDbEntity
  8
0
100
AcDbCircle
 10
22017.40637760046
 20
-755.5328114963567
 30
0.0
 40
2.2
  0
LINE
  5
576
330
2
100
AcDbEntity
  8
0
100
AcDbLine
 10
22016.90637760046
 20
-755.0328114963559
 30
0.0
 11
22016.90637760046
 21
-753.6593120968382
 31
0.0
  0
LINE
  5
577
330
2
100
AcDbEntity
  8
0
100
AcDbLine
 10
22016.90637760046
 20
-755.0328114963559
 30
0.0
 11
22015.53287820094
 21
-755.0328114963569
 31
0.0
  0
ARC
  5
578
330
2
100
AcDbEntity
  8
0
100
AcDbCircle
 10
22017.27876002615
 20
-710.4216202835114
 30
0.0
 40
2.280330085890314
100
AcDbArc
 50
357.2050912589677
 51
55.92501109514411
  0
ARC
  5
579
330
2
100
AcDbEntity
  8
0
100
AcDbCircle
 10
22017.53399517477
 20
-710.4216202835114
 30
0.0
 40
2.280330085889914
100
AcDbArc
 50
124.0749889048559
 51
182.7949087410322
  0
LINE
  5
57A
330
2
100
AcDbEntity
  8
0
100
AcDbLine
 10
22018.55637760046
 20
-708.5328114963568
 30
0.0
 11
22016.25637760046
 21
-708.5328114963568
 31
0.0
  0
LINE
  5
57B
330
2
100
AcDbEntity
  8
0
100
AcDbLine
 10
21862.40565510977
 20
-710.5328114963567
 30
0.0
 11
22074.90637760046
 21
-710.5328114963567
 31
0.0
  0
ARC
  5
57C
330
2
100
AcDbEntity
  8
0
100
AcDbCircle
 10
22074.90637760046
 20
-714.0328114963567
 30
0.0
 40
3.5
100
AcDbArc
 50
0.0
 51
90.0
  0
DIMENSION
  5
57D
330
2
100
AcDbEntity
  8
0
100
AcDbDimension
  2
*D1
 10
21862.40565510977
 20
-699.5091914310178
 30
0.0
 11
21848.29600757574
 21
-699.5091914310178
 31
0.0
 70
   128
 71
     5
 42
-1.0
  3
STANDARD
100
AcDbAlignedDimension
 13
21860.40565510977
 23
-714.0328114963567
 33
0.0
 14
21862.40565510977
 24
-710.5328114963567
 34
0.0
100
AcDbRotatedDimension
  0
LINE
  5
58C
102
{ACAD_REACTORS
330
532
330
523
102
}
330
2
100
AcDbEntity
  8
0
  6
ByBlock
 62
     0
100
AcDbLine
 10
21860.40565510977
 20
-749.5328114963568
 30
0.0
 11
21855.40565510977
 21
-749.5328114963568
 31
0.0
  0
LINE
  5
58D
330
2
100
AcDbEntity
  8
0
100
AcDbLine
 10
21855.40565510977
 20
-749.5328114963568
 30
0.0
 11
21855.40565510977
 21
-750.5328114963567
 31
0.0
  0
LINE
  5
58E
102
{ACAD_REACTORS
330
555
102
}
330
2
100
AcDbEntity
  8
0
100
AcDbLine
 10
21869.00565510977
 20
-711.9340741548267
 30
0.0
 11
21869.90565510977
 21
-711.9340741548267
 31
0.0
  0
LINE
  5
58F
330
2
100
AcDbEntity
  8
0
100
AcDbLine
 10
21869.00565510977
 20
-719.6340741548274
 30
0.0
 11
21869.90565510977
 21
-719.6340741548274
 31
0.0
  0
LINE
  5
590
330
2
100
AcDbEntity
  8
0
100
AcDbLine
 10
21869.90565510977
 20
-719.6340741548274
 30
0.0
 11
21869.90565510977
 21
-711.9340741548267
 31
0.0
  0
LINE
  5
591
330
2
100
AcDbEntity
  8
0
100
AcDbLine
 10
21862.40565510977
 20
-714.0328114963567
 30
0.0
 11
21860.40565510977
 21
-714.0328114963567
 31
0.0
  0
LINE
  5
592
330
2
100
AcDbEntity
  8
0
 62
     3
100
AcDbLine
 10
22095.95596934568
 20
-762.3288133704163
 30
0.0
 11
22098.94369711934
 21
-762.3288133704163
 31
0.0
  0
LINE
  5
593
330
2
100
AcDbEntity
  8
0
 62
     3
100
AcDbLine
 10
22098.94369711934
 20
-762.3288133704163
 30
0.0
 11
22098.94369711934
 21
-759.6836896160212
 31
0.0
  0
LINE
  5
594
330
2
100
AcDbEntity
  8
0
 62
     3
100
AcDbLine
 10
22098.94369711934
 20
-759.6836896160212
 30
0.0
 11
22095.95596934568
 21
-759.6836896160212
 31
0.0
  0
LINE
  5
595
330
2
100
AcDbEntity
  8
0
 62
     3
100
AcDbLine
 10
22095.95596934568
 20
-759.6836896160212
 30
0.0
 11
22095.95596934568
 21
-762.3288133704163
 31
0.0
  0
LINE
  5
596
330
2
100
AcDbEntity
  8
0
100
AcDbLine
 10
22017.90637760045
 20
-755.0328114963644
 30
0.0
 11
22017.90637760047
 21
-753.6593120968468
 31
0.0
  0
LINE
  5
597
330
2
100
AcDbEntity
  8
0
100
AcDbLine
 10
22017.90637760045
 20
-755.0328114963644
 30
0.0
 11
22019.27987699997
 21
-755.0328114963893
 31
0.0
  0
LINE
  5
598
330
2
100
AcDbEntity
  8
0
100
AcDbLine
 10
22016.90637760046
 20
-756.0328114963576
 30
0.0
 11
22016.90637760046
 21
-757.4063108958753
 31
0.0
  0
LINE
  5
599
330
2
100
AcDbEntity
  8
0
100
AcDbLine
 10
22016.90637760046
 20
-756.0328114963576
 30
0.0
 11
22015.53287820094
 21
-756.032811496356
 31
0.0
  0
LINE
  5
59A
330
2
100
AcDbEntity
  8
0
100
AcDbLine
 10
22017.90637760045
 20
-756.0328114963493
 30
0.0
 11
22017.90637760047
 21
-757.406310895867
 31
0.0
  0
LINE
  5
59B
330
2
100
AcDbEntity
  8
0
100
AcDbLine
 10
22017.90637760045
 20
-756.0328114963493
 30
0.0
 11
22019.27987699996
 21
-756.0328114963249
 31
0.0
  0
ENDSEC
  0
SECTION
  2
OBJECTS
  0
DICTIONARY
  5
C
330
0
100
AcDbDictionary
281
     1
  3
ACAD_COLOR
350
3B
  3
ACAD_GROUP
350
36
  3
ACAD_LAYOUT
350
18
  3
ACAD_MATERIAL
350
E
  3
ACAD_MLINESTYLE
350
37
  3
ACAD_PLOTSETTINGS
350
38
  3
ACAD_PLOTSTYLENAME
350
B
  3
ACAD_SCALELIST
350
3C
  3
ACAD_TABLESTYLE
350
3D
  3
ACAD_VISUALSTYLE
350
2E
  3
ACDB_RECOMPOSE_DATA
350
5AD
  3
AcDbVariableDictionary
350
5A0
  0
DICTIONARY
  5
2F
330
2B
100
AcDbDictionary
280
     1
281
     1
  0
DICTIONARY
  5
21
330
20
100
AcDbDictionary
280
     1
281
     1
  3
ACAD_LAYERSTATES
360
22
  0
DICTIONARY
  5
8
330
7
100
AcDbDictionary
280
     1
281
     1
  3
ADSK_XREC_LAYER_RECONCILED
360
9
  0
DICTIONARY
  5
3
330
2
100
AcDbDictionary
280
     1
281
     1
  3
ACAD_LAYOUTSELFREF
360
4
  3
ACAD_SORTENTS
360
59C
  0
DICTIONARY
  5
1B
330
1A
100
AcDbDictionary
280
     1
281
     1
  3
ACAD_LAYOUTSELFREF
360
1C
  0
DICTIONARY
  5
5B8
330
AA
100
AcDbDictionary
280
     1
281
     1
  3
ACAD_MTEXT_RT
360
5B9
  0
DICTIONARY
  5
A4
330
A3
100
AcDbDictionary
280
     1
281
     1
  3
ACAD_DIMASSOC
360
A5
  0
DICTIONARY
  5
306
330
305
100
AcDbDictionary
280
     1
281
     1
  3
ACAD_DIMASSOC
360
307
  0
DICTIONARY
  5
512
330
511
100
AcDbDictionary
280
     1
281
     1
  3
ACAD_DIMASSOC
360
513
  0
DICTIONARY
  5
522
330
521
100
AcDbDictionary
280
     1
281
     1
  3
ACAD_DIMASSOC
360
523
  0
DICTIONARY
  5
531
330
530
100
AcDbDictionary
280
     1
281
     1
  3
ACAD_DIMASSOC
360
532
  0
DICTIONARY
  5
542
330
541
100
AcDbDictionary
280
     1
281
     1
  3
ACAD_DIMASSOC
360
543
  0
DICTIONARY
  5
554
330
553
100
AcDbDictionary
280
     1
281
     1
  3
ACAD_DIMASSOC
360
555
  0
DICTIONARY
  5
3B
102
{ACAD_REACTORS
330
C
102
}
330
C
100
AcDbDictionary
281
     1
  0
DICTIONARY
  5
36
102
{ACAD_REACTORS
330
C
102
}
330
C
100
AcDbDictionary
281
     1
  0
DICTIONARY
  5
18
102
{ACAD_REACTORS
330
C
102
}
330
C
100
AcDbDictionary
281
     1
  3
Model
350
17
  3
배치1
350
1F
  0
DICTIONARY
  5
E
102
{ACAD_REACTORS
330
C
102
}
330
C
100
AcDbDictionary
281
     1
  3
ByBlock
350
3A
  3
ByLayer
350
39
  3
Global
350
D
  0
DICTIONARY
  5
37
102
{ACAD_REACTORS
330
C
102
}
330
C
100
AcDbDictionary
281
     1
  3
Standard
350
3E
  0
DICTIONARY
  5
38
102
{ACAD_REACTORS
330
C
102
}
330
C
100
AcDbDictionary
281
     1
  0
ACDBDICTIONARYWDFLT
  5
B
102
{ACAD_REACTORS
330
C
102
}
330
C
100
AcDbDictionary
281
     1
  3
Normal
350
A
100
AcDbDictionaryWithDefault
340
A
  0
DICTIONARY
  5
3C
102
{ACAD_REACTORS
330
C
102
}
330
C
100
AcDbDictionary
281
     1
  3
A0
350
43
  3
A1
350
44
  3
A2
350
45
  3
A3
350
46
  3
A4
350
47
  3
A5
350
48
  3
A6
350
49
  3
A7
350
4A
  3
A8
350
4B
  3
A9
350
4C
  3
B0
350
4D
  3
B1
350
4E
  3
B2
350
4F
  3
B3
350
50
  3
B4
350
51
  3
B5
350
52
  3
B6
350
53
  3
B7
350
54
  3
B8
350
55
  3
B9
350
56
  3
C0
350
57
  3
C1
350
58
  3
C2
350
59
  3
C3
350
5A
  3
C4
350
5B
  3
C5
350
5C
  3
C6
350
5D
  3
C7
350
5E
  3
C8
350
5F
  3
C9
350
60
  3
D0
350
61
  3
D1
350
62
  3
D2
350
63
  0
DICTIONARY
  5
3D
102
{ACAD_REACTORS
330
C
102
}
330
C
100
AcDbDictionary
281
     1
  3
Standard
350
3F
  0
DICTIONARY
  5
2E
102
{ACAD_REACTORS
330
C
102
}
330
C
100
AcDbDictionary
281
     1
  3
2dWireframe
350
2D
  3
3dWireframe
350
42
  3
Realistic
350
41
  0
XRECORD
  5
5AD
102
{ACAD_REACTORS
330
C
102
}
330
C
100
AcDbXrecord
280
     1
 90
        1
330
3F
330
A3
  0
DICTIONARY
  5
5A0
102
{ACAD_REACTORS
330
C
102
}
330
C
100
AcDbDictionary
281
     1
  3
CANNOSCALE
350
5A4
  3
CMLEADERSTYLE
350
5A2
  3
CTABLESTYLE
350
5A1
  3
DIMASSOC
350
5A9
  3
HIDETEXT
350
5A8
  3
INDEXCTL
350
5A7
  3
LIGHTINGUNITS
350
5A5
  3
MSLTSCALE
350
5A3
  3
PSOLHEIGHT
350
5AB
  3
PSOLWIDTH
350
5AA
  3
SORTENTS
350
5A6
  0
DICTIONARY
  5
22
102
{ACAD_REACTORS
330
21
102
}
330
21
100
AcDbDictionary
281
     1
  0
XRECORD
  5
9
102
{ACAD_REACTORS
330
8
102
}
330
8
100
AcDbXrecord
280
     1
290
     1
  0
XRECORD
  5
4
102
{ACAD_REACTORS
330
3
102
}
330
3
100
AcDbXrecord
280
     1
340
2
  0
SORTENTSTABLE
  5
59C
102
{ACAD_REACTORS
330
3
102
}
330
3
100
AcDbSortentsTable
330
2
  0
XRECORD
  5
1C
102
{ACAD_REACTORS
330
1B
102
}
330
1B
100
AcDbXrecord
280
     1
340
1A
  0
XRECORD
  5
5B9
102
{ACAD_REACTORS
330
5B8
102
}
330
5B8
100
AcDbXrecord
280
     1
 40
11034.0
  1
\A1;\U+2205104%%P0.5
  0
DIMASSOC
  5
A5
102
{ACAD_REACTORS
330
A4
102
}
330
A4
100
AcDbDimAssoc
330
A3
 90
        2
 70
     0
 71
     0
  1
AcDbOsnapPointRef
 72
     3
331
A2
 73
     2
 91
        0
 40
0.0
 10
0.0
 20
0.0
 30
0.0
 75
     0
  0
DIMASSOC
  5
307
102
{ACAD_REACTORS
330
306
102
}
330
306
100
AcDbDimAssoc
330
305
 90
        3
 70
     0
 71
     0
  1
AcDbOsnapPointRef
 72
    13
331
315
 73
     2
 91
        0
 40
0.0
 10
-13415.1909693057
 20
-4052.550979178138
 30
0.0
 75
     0
  1
AcDbOsnapPointRef
 72
     1
331
315
 73
     2
 91
        0
 40
1.0
 10
-13415.1909693057
 20
-4135.550979178138
 30
0.0
 75
     0
  0
DIMASSOC
  5
513
102
{ACAD_REACTORS
330
512
102
}
330
512
100
AcDbDimAssoc
330
511
 90
        1
 70
     0
 71
     0
  1
AcDbOsnapPointRef
 72
     1
331
540
 73
     2
 91
        0
 40
1.0
 10
-13450.1909693057
 20
-4089.050979178138
 30
0.0
 75
     0
  0
DIMASSOC
  5
523
102
{ACAD_REACTORS
330
522
102
}
330
522
100
AcDbDimAssoc
330
521
 90
        3
 70
     0
 71
     0
  1
AcDbOsnapPointRef
 72
     1
331
53F
 73
     2
 91
        0
 40
1.0
 10
-13450.1909693057
 20
-4100.050979178138
 30
0.0
 75
     0
  1
AcDbOsnapPointRef
 72
     1
331
58C
 73
     2
 91
        0
 40
1.0
 10
-13420.1909693057
 20
-4088.050979178138
 30
0.0
 75
     0
  0
DIMASSOC
  5
532
102
{ACAD_REACTORS
330
531
102
}
330
531
100
AcDbDimAssoc
330
530
 90
        3
 70
     0
 71
     0
  1
AcDbOsnapPointRef
 72
     1
331
540
 73
     2
 91
        0
 40
1.0
 10
-13450.1909693057
 20
-4089.050979178138
 30
0.0
 75
     0
  1
AcDbOsnapPointRef
 72
     1
331
58C
 73
     2
 91
        0
 40
1.0
 10
-13420.1909693057
 20
-4088.050979178138
 30
0.0
 75
     0
  0
DIMASSOC
  5
543
102
{ACAD_REACTORS
330
542
102
}
330
542
100
AcDbDimAssoc
330
541
 90
        3
 70
     0
 71
     0
  1
AcDbOsnapPointRef
 72
     1
331
53F
 73
     2
 91
        0
 40
1.0
 10
-13450.1909693057
 20
-4100.050979178138
 30
0.0
 75
     0
  1
AcDbOsnapPointRef
 72
     1
331
540
 73
     2
 91
        0
 40
1.0
 10
-13450.1909693057
 20
-4089.050979178138
 30
0.0
 75
     0
  0
DIMASSOC
  5
555
102
{ACAD_REACTORS
330
554
102
}
330
554
100
AcDbDimAssoc
330
553
 90
        2
 70
     0
 71
     0
  1
AcDbOsnapPointRef
 72
     1
331
58E
 73
     2
 91
        0
 40
1.0
 10
-13405.6909693057
 20
-4050.452241836608
 30
0.0
 75
     0
  0
LAYOUT
  5
17
102
{ACAD_XDICTIONARY
360
5AF
102
}
102
{ACAD_REACTORS
330
18
102
}
330
18
100
AcDbPlotSettings
  1

  2
none_device
  4
ISO_A4_(210.00_x_297.00_MM)
  6

 40
7.5
 41
20.0
 42
7.5
 43
20.0
 44
210.0
 45
297.0
 46
11.54999923706054
 47
-13.65000009536743
 48
0.0
 49
0.0
140
0.0
141
0.0
142
1.0
143
8.704084754739808
 70
 11952
 72
     1
 73
     0
 74
     0
  7

 75
     0
147
0.1148885871608098
148
0.0
149
0.0
100
AcDbLayout
  1
Model
 70
     1
 71
     0
 10
0.0
 20
0.0
 11
12.0
 21
9.0
 12
0.0
 22
0.0
 32
0.0
 14
0.0
 24
0.0
 34
0.0
 15
0.0
 25
0.0
 35
0.0
146
0.0
 13
0.0
 23
0.0
 33
0.0
 16
1.0
 26
0.0
 36
0.0
 17
0.0
 27
1.0
 37
0.0
 76
     0
330
2
331
2C
1001
ACAD_PSEXT
1000
None
1000
None
1000
Not applicable
1000
The layout will not be plotted unless a new plotter configuration name is selected.
1070
     0
  0
LAYOUT
  5
1F
102
{ACAD_XDICTIONARY
360
5B1
102
}
102
{ACAD_REACTORS
330
18
102
}
330
18
100
AcDbPlotSettings
  1

  2
C:\Documents and Settings\basas\Application Data\Autodesk\AutoCAD 2005\R16.1\enu\plotters\Default Windows System Printer.pc3
  4

  6

 40
0.0
 41
0.0
 42
0.0
 43
0.0
 44
0.0
 45
0.0
 46
0.0
 47
0.0
 48
0.0
 49
0.0
140
0.0
141
0.0
142
1.0
143
1.0
 70
   688
 72
     0
 73
     0
 74
     5
  7

 75
    16
147
1.0
148
0.0
149
0.0
100
AcDbLayout
  1
배치1
 70
     1
 71
     1
 10
0.0
 20
0.0
 11
12.0
 21
9.0
 12
0.0
 22
0.0
 32
0.0
 14
0.0
 24
0.0
 34
0.0
 15
0.0
 25
0.0
 35
0.0
146
0.0
 13
0.0
 23
0.0
 33
0.0
 16
1.0
 26
0.0
 36
0.0
 17
0.0
 27
1.0
 37
0.0
 76
     0
330
1A
  0
MATERIAL
  5
3A
102
{ACAD_XDICTIONARY
360
5B5
102
}
102
{ACAD_REACTORS
330
E
102
}
330
E
100
AcDbMaterial
  1
ByBlock
  0
MATERIAL
  5
39
102
{ACAD_XDICTIONARY
360
5B3
102
}
102
{ACAD_REACTORS
330
E
102
}
330
E
100
AcDbMaterial
  1
ByLayer
  0
MATERIAL
  5
D
102
{ACAD_XDICTIONARY
360
F
102
}
102
{ACAD_REACTORS
330
E
102
}
330
E
100
AcDbMaterial
  1
Global
 43
0.0007999999797903
 43
0.0
 43
0.0
 43
0.0
 43
0.0
 43
0.0007999999797903
 43
0.0
 43
0.0
 43
0.0
 43
0.0
 43
1.0
 43
0.0
 43
0.0
 43
0.0
 43
0.0
 43
1.0
 49
0.0007999999797903
 49
0.0
 49
0.0
 49
0.0
 49
0.0
 49
0.0007999999797903
 49
0.0
 49
0.0
 49
0.0
 49
0.0
 49
1.0
 49
0.0
 49
0.0
 49
0.0
 49
0.0
 49
1.0
142
0.0007999999797903
142
0.0
142
0.0
142
0.0
142
0.0
142
0.0007999999797903
142
0.0
142
0.0
142
0.0
142
0.0
142
1.0
142
0.0
142
0.0
142
0.0
142
0.0
142
1.0
144
0.0007999999797903
144
0.0
144
0.0
144
0.0
144
0.0
144
0.0007999999797903
144
0.0
144
0.0
144
0.0
144
0.0
144
1.0
144
0.0
144
0.0
144
0.0
144
0.0
144
1.0
1001
ACAD
1070
    -1
1070
     3
1070
     0
1000

1071
        0
1070
     0
  0
MLINESTYLE
  5
3E
102
{ACAD_REACTORS
330
37
102
}
330
37
100
AcDbMlineStyle
  2
STANDARD
 70
     0
  3

 62
   256
 51
90.0
 52
90.0
 71
     2
 49
0.5
 62
   256
  6
BYLAYER
 49
-0.5
 62
   256
  6
BYLAYER
  0
ACDBPLACEHOLDER
  5
A
102
{ACAD_REACTORS
330
B
102
}
330
B
  0
SCALE
  5
43
102
{ACAD_REACTORS
330
3C
102
}
330
3C
100
AcDbScale
 70
     0
300
1:1
140
1.0
141
1.0
290
     1
  0
SCALE
  5
44
102
{ACAD_REACTORS
330
3C
102
}
330
3C
100
AcDbScale
 70
     0
300
1:2
140
1.0
141
2.0
290
     0
  0
SCALE
  5
45
102
{ACAD_REACTORS
330
3C
102
}
330
3C
100
AcDbScale
 70
     0
300
1:4
140
1.0
141
4.0
290
     0
  0
SCALE
  5
46
102
{ACAD_REACTORS
330
3C
102
}
330
3C
100
AcDbScale
 70
     0
300
1:5
140
1.0
141
5.0
290
     0
  0
SCALE
  5
47
102
{ACAD_REACTORS
330
3C
102
}
330
3C
100
AcDbScale
 70
     0
300
1:8
140
1.0
141
8.0
290
     0
  0
SCALE
  5
48
102
{ACAD_REACTORS
330
3C
102
}
330
3C
100
AcDbScale
 70
     0
300
1:10
140
1.0
141
10.0
290
     0
  0
SCALE
  5
49
102
{ACAD_REACTORS
330
3C
102
}
330
3C
100
AcDbScale
 70
     0
300
1:16
140
1.0
141
16.0
290
     0
  0
SCALE
  5
4A
102
{ACAD_REACTORS
330
3C
102
}
330
3C
100
AcDbScale
 70
     0
300
1:20
140
1.0
141
20.0
290
     0
  0
SCALE
  5
4B
102
{ACAD_REACTORS
330
3C
102
}
330
3C
100
AcDbScale
 70
     0
300
1:30
140
1.0
141
30.0
290
     0
  0
SCALE
  5
4C
102
{ACAD_REACTORS
330
3C
102
}
330
3C
100
AcDbScale
 70
     0
300
1:40
140
1.0
141
40.0
290
     0
  0
SCALE
  5
4D
102
{ACAD_REACTORS
330
3C
102
}
330
3C
100
AcDbScale
 70
     0
300
1:50
140
1.0
141
50.0
290
     0
  0
SCALE
  5
4E
102
{ACAD_REACTORS
330
3C
102
}
330
3C
100
AcDbScale
 70
     0
300
1:100
140
1.0
141
100.0
290
     0
  0
SCALE
  5
4F
102
{ACAD_REACTORS
330
3C
102
}
330
3C
100
AcDbScale
 70
     0
300
2:1
140
2.0
141
1.0
290
     0
  0
SCALE
  5
50
102
{ACAD_REACTORS
330
3C
102
}
330
3C
100
AcDbScale
 70
     0
300
4:1
140
4.0
141
1.0
290
     0
  0
SCALE
  5
51
102
{ACAD_REACTORS
330
3C
102
}
330
3C
100
AcDbScale
 70
     0
300
8:1
140
8.0
141
1.0
290
     0
  0
SCALE
  5
52
102
{ACAD_REACTORS
330
3C
102
}
330
3C
100
AcDbScale
 70
     0
300
10:1
140
10.0
141
1.0
290
     0
  0
SCALE
  5
53
102
{ACAD_REACTORS
330
3C
102
}
330
3C
100
AcDbScale
 70
     0
300
100:1
140
100.0
141
1.0
290
     0
  0
SCALE
  5
54
102
{ACAD_REACTORS
330
3C
102
}
330
3C
100
AcDbScale
 70
     0
300
1/128" = 1'-0"
140
0.0078125
141
12.0
290
     0
  0
SCALE
  5
55
102
{ACAD_REACTORS
330
3C
102
}
330
3C
100
AcDbScale
 70
     0
300
1/64" = 1'-0"
140
0.015625
141
12.0
290
     0
  0
SCALE
  5
56
102
{ACAD_REACTORS
330
3C
102
}
330
3C
100
AcDbScale
 70
     0
300
1/32" = 1'-0"
140
0.03125
141
12.0
290
     0
  0
SCALE
  5
57
102
{ACAD_REACTORS
330
3C
102
}
330
3C
100
AcDbScale
 70
     0
300
1/16" = 1'-0"
140
0.0625
141
12.0
290
     0
  0
SCALE
  5
58
102
{ACAD_REACTORS
330
3C
102
}
330
3C
100
AcDbScale
 70
     0
300
3/32" = 1'-0"
140
0.09375
141
12.0
290
     0
  0
SCALE
  5
59
102
{ACAD_REACTORS
330
3C
102
}
330
3C
100
AcDbScale
 70
     0
300
1/8" = 1'-0"
140
0.125
141
12.0
290
     0
  0
SCALE
  5
5A
102
{ACAD_REACTORS
330
3C
102
}
330
3C
100
AcDbScale
 70
     0
300
3/16" = 1'-0"
140
0.1875
141
12.0
290
     0
  0
SCALE
  5
5B
102
{ACAD_REACTORS
330
3C
102
}
330
3C
100
AcDbScale
 70
     0
300
1/4" = 1'-0"
140
0.25
141
12.0
290
     0
  0
SCALE
  5
5C
102
{ACAD_REACTORS
330
3C
102
}
330
3C
100
AcDbScale
 70
     0
300
3/8" = 1'-0"
140
0.375
141
12.0
290
     0
  0
SCALE
  5
5D
102
{ACAD_REACTORS
330
3C
102
}
330
3C
100
AcDbScale
 70
     0
300
1/2" = 1'-0"
140
0.5
141
12.0
290
     0
  0
SCALE
  5
5E
102
{ACAD_REACTORS
330
3C
102
}
330
3C
100
AcDbScale
 70
     0
300
3/4" = 1'-0"
140
0.75
141
12.0
290
     0
  0
SCALE
  5
5F
102
{ACAD_REACTORS
330
3C
102
}
330
3C
100
AcDbScale
 70
     0
300
1" = 1'-0"
140
1.0
141
12.0
290
     0
  0
SCALE
  5
60
102
{ACAD_REACTORS
330
3C
102
}
330
3C
100
AcDbScale
 70
     0
300
1-1/2" = 1'-0"
140
1.5
141
12.0
290
     0
  0
SCALE
  5
61
102
{ACAD_REACTORS
330
3C
102
}
330
3C
100
AcDbScale
 70
     0
300
3" = 1'-0"
140
3.0
141
12.0
290
     0
  0
SCALE
  5
62
102
{ACAD_REACTORS
330
3C
102
}
330
3C
100
AcDbScale
 70
     0
300
6" = 1'-0"
140
6.0
141
12.0
290
     0
  0
SCALE
  5
63
102
{ACAD_REACTORS
330
3C
102
}
330
3C
100
AcDbScale
 70
     0
300
1'-0" = 1'-0"
140
12.0
141
12.0
290
     0
  0
TABLESTYLE
  5
3F
102
{ACAD_XDICTIONARY
360
40
102
}
102
{ACAD_REACTORS
330
3D
102
}
330
3D
100
AcDbTableStyle
  3
Standard
 70
     0
 71
     0
 40
1.5
 41
1.5
280
     0
281
     0
  7
Standard
140
4.5
170
     2
 62
     0
 63
     7
283
     0
274
    -2
284
     1
 64
     0
275
    -2
285
     1
 65
     0
276
    -2
286
     1
 66
     0
277
    -2
287
     1
 67
     0
278
    -2
288
     1
 68
     0
279
    -2
289
     1
 69
     0
  7
Standard
140
6.0
170
     5
 62
     0
 63
     7
283
     0
274
    -2
284
     1
 64
     0
275
    -2
285
     1
 65
     0
276
    -2
286
     1
 66
     0
277
    -2
287
     1
 67
     0
278
    -2
288
     1
 68
     0
279
    -2
289
     1
 69
     0
  7
Standard
140
4.5
170
     5
 62
     0
 63
     7
283
     0
274
    -2
284
     1
 64
     0
275
    -2
285
     1
 65
     0
276
    -2
286
     1
 66
     0
277
    -2
287
     1
 67
     0
278
    -2
288
     1
 68
     0
279
    -2
289
     1
 69
     0
  0
VISUALSTYLE
  5
2D
102
{ACAD_REACTORS
330
2E
102
}
330
2E
100
AcDbVisualStyle
  2
2dWireframe
 70
     4
 71
     0
 72
     2
 73
     1
 90
        0
 40
-0.6
 41
-30.0
 62
     5
 63
     7
 74
     1
 91
        4
 64
     7
 65
   257
 75
     1
175
     1
 42
1.0
 92
        0
 66
   257
 43
1.0
 76
     1
 77
     6
 78
     2
 67
     7
 79
     5
170
     0
171
     0
290
     0
174
     0
 93
        1
 44
0.0
173
     0
291
     0
 45
0.0
1001
ACAD
1000
AcDbSavedByObjectVersion
1070
     0
  0
VISUALSTYLE
  5
42
102
{ACAD_REACTORS
330
2E
102
}
330
2E
100
AcDbVisualStyle
  2
3dWireframe
 70
     5
 71
     0
 72
     2
 73
     1
 90
        0
 40
-0.6
 41
-30.0
 62
     5
 63
     7
 74
     1
 91
        4
 64
     7
 65
   257
 75
     1
175
     1
 42
1.0
 92
        0
 66
   257
 43
1.0
 76
     1
 77
     6
 78
     2
 67
     7
 79
     5
170
     0
171
     0
290
     0
174
     0
 93
        1
 44
0.0
173
     0
291
     0
 45
0.0
1001
ACAD
1000
AcDbSavedByObjectVersion
1070
     0
  0
VISUALSTYLE
  5
41
102
{ACAD_REACTORS
330
2E
102
}
330
2E
100
AcDbVisualStyle
  2
Realistic
 70
     8
 71
     2
 72
     2
 73
     1
 90
        0
 40
-0.6
 41
-30.0
 62
     5
 63
     7
 74
     1
 91
        0
 64
     7
 65
   257
 75
     1
175
     1
 42
1.0
 92
        8
 66
     8
 43
1.0
 76
     1
 77
     6
 78
     2
 67
     7
 79
     5
170
     0
171
     0
290
     0
174
     0
 93
       13
 44
0.0
173
     0
291
     0
 45
0.0
1001
ACAD
1000
AcDbSavedByObjectVersion
1070
     0
  0
DICTIONARYVAR
  5
5A4
102
{ACAD_REACTORS
330
5A0
102
}
330
5A0
100
DictionaryVariables
280
     0
  1
1:1
  0
DICTIONARYVAR
  5
5A2
102
{ACAD_REACTORS
330
5A0
102
}
330
5A0
100
DictionaryVariables
280
     0
  1
STANDARD
  0
DICTIONARYVAR
  5
5A1
102
{ACAD_REACTORS
330
5A0
102
}
330
5A0
100
DictionaryVariables
280
     0
  1
STANDARD
  0
DICTIONARYVAR
  5
5A9
102
{ACAD_REACTORS
330
5A0
102
}
330
5A0
100
DictionaryVariables
280
     0
  1
2
  0
DICTIONARYVAR
  5
5A8
102
{ACAD_REACTORS
330
5A0
102
}
330
5A0
100
DictionaryVariables
280
     0
  1
1
  0
DICTIONARYVAR
  5
5A7
102
{ACAD_REACTORS
330
5A0
102
}
330
5A0
100
DictionaryVariables
280
     0
  1
0
  0
DICTIONARYVAR
  5
5A5
102
{ACAD_REACTORS
330
5A0
102
}
330
5A0
100
DictionaryVariables
280
     0
  1
2
  0
DICTIONARYVAR
  5
5A3
102
{ACAD_REACTORS
330
5A0
102
}
330
5A0
100
DictionaryVariables
280
     0
  1
1
  0
DICTIONARYVAR
  5
5AB
102
{ACAD_REACTORS
330
5A0
102
}
330
5A0
100
DictionaryVariables
280
     0
  1
80.000000
  0
DICTIONARYVAR
  5
5AA
102
{ACAD_REACTORS
330
5A0
102
}
330
5A0
100
DictionaryVariables
280
     0
  1
5.000000
  0
DICTIONARYVAR
  5
5A6
102
{ACAD_REACTORS
330
5A0
102
}
330
5A0
100
DictionaryVariables
280
     0
  1
127
  0
DICTIONARY
  5
5AF
330
17
100
AcDbDictionary
280
     1
281
     1
  3
ACAD_XREC_ROUNDTRIP
360
5B0
  0
DICTIONARY
  5
5B1
330
1F
100
AcDbDictionary
280
     1
281
     1
  3
ACAD_XREC_ROUNDTRIP
360
5B2
  0
DICTIONARY
  5
5B5
330
3A
100
AcDbDictionary
280
     1
281
     1
  3
ACAD_XREC_ROUNDTRIP
360
5B6
  0
DICTIONARY
  5
5B3
330
39
100
AcDbDictionary
280
     1
281
     1
  3
ACAD_XREC_ROUNDTRIP
360
5B4
  0
DICTIONARY
  5
F
330
D
100
AcDbDictionary
280
     1
281
     1
  3
ACAD_XREC_ROUNDTRIP
360
5AE
  3
BUMPTILE
360
10
  3
DIFFUSETILE
360
11
  3
OPACITYTILE
360
12
  3
REFLECTIONTILE
360
13
  0
DICTIONARY
  5
40
330
3F
100
AcDbDictionary
280
     1
281
     1
  3
ACAD_ROUNDTRIP_2008_TABLESTYLE_CELLSTYLEMAP
360
5AC
  3
ACAD_XREC_ROUNDTRIP
360
5B7
  0
XRECORD
  5
5B0
102
{ACAD_REACTORS
330
5AF
102
}
330
5AF
100
AcDbXrecord
280
     1
102
SHADEPLOT
 70
     0
102
SHADEPLOTRESLEVEL
 70
     2
102
SHADEPLOTCUSTOMDPI
 70
   300
  0
XRECORD
  5
5B2
102
{ACAD_REACTORS
330
5B1
102
}
330
5B1
100
AcDbXrecord
280
     1
102
SHADEPLOT
 70
     0
102
SHADEPLOTRESLEVEL
 70
     2
102
SHADEPLOTCUSTOMDPI
 70
   300
  0
XRECORD
  5
5B6
102
{ACAD_REACTORS
330
5B5
102
}
330
5B5
100
AcDbXrecord
280
     1
102
MATERIAL
148
0.0
149
0.0
149
0.0
 93
        0
 94
       63
282
     0
 72
     1
 77
     1
171
     1
175
     1
179
     1
273
     0
  0
XRECORD
  5
5B4
102
{ACAD_REACTORS
330
5B3
102
}
330
5B3
100
AcDbXrecord
280
     1
102
MATERIAL
148
0.0
149
0.0
149
0.0
 93
        0
 94
       63
282
     0
 72
     1
 77
     1
171
     1
175
     1
179
     1
273
     0
  0
XRECORD
  5
5AE
102
{ACAD_REACTORS
330
F
102
}
330
F
100
AcDbXrecord
280
     1
102
MATERIAL
148
0.0
149
0.0
149
0.0
 93
        0
 94
       63
282
     0
 72
     1
 77
     1
171
     1
175
     1
179
     1
273
     0
  0
XRECORD
  5
10
102
{ACAD_REACTORS
330
F
102
}
330
F
100
AcDbXrecord
280
     1
270
     1
271
     1
  0
XRECORD
  5
11
102
{ACAD_REACTORS
330
F
102
}
330
F
100
AcDbXrecord
280
     1
270
     1
271
     1
  0
XRECORD
  5
12
102
{ACAD_REACTORS
330
F
102
}
330
F
100
AcDbXrecord
280
     1
270
     1
271
     1
  0
XRECORD
  5
13
102
{ACAD_REACTORS
330
F
102
}
330
F
100
AcDbXrecord
280
     1
270
     1
271
     1
  0
CELLSTYLEMAP
  5
5AC
102
{ACAD_REACTORS
330
40
102
}
330
40
100
AcDbCellStyleMap
 90
        3
300
CELLSTYLE
  1
TABLEFORMAT_BEGIN
 90
        5
170
     1
 91
        0
 92
    32768
 62
   257
 93
        1
300
CONTENTFORMAT
  1
CONTENTFORMAT_BEGIN
 90
        0
 91
        0
 92
      512
 93
        0
300

 40
0.0
140
1.0
 94
        5
 62
     0
340
24
144
6.0
309
CONTENTFORMAT_END
171
     1
301
MARGIN
  1
CELLMARGIN_BEGIN
 40
1.5
 40
1.5
 40
1.5
 40
1.5
 40
4.5
 40
4.5
309
CELLMARGIN_END
 94
        6
 95
        1
302
GRIDFORMAT
  1
GRIDFORMAT_BEGIN
 90
        0
 91
        1
 62
     0
 92
       -2
340
27
 93
        0
 40
1.125
309
GRIDFORMAT_END
 95
        2
302
GRIDFORMAT
  1
GRIDFORMAT_BEGIN
 90
        0
 91
        1
 62
     0
 92
       -2
340
27
 93
        0
 40
1.125
309
GRIDFORMAT_END
 95
        4
302
GRIDFORMAT
  1
GRIDFORMAT_BEGIN
 90
        0
 91
        1
 62
     0
 92
       -2
340
27
 93
        0
 40
1.125
309
GRIDFORMAT_END
 95
        8
302
GRIDFORMAT
  1
GRIDFORMAT_BEGIN
 90
        0
 91
        1
 62
     0
 92
       -2
340
27
 93
        0
 40
1.125
309
GRIDFORMAT_END
 95
       16
302
GRIDFORMAT
  1
GRIDFORMAT_BEGIN
 90
        0
 91
        1
 62
     0
 92
       -2
340
27
 93
        0
 40
1.125
309
GRIDFORMAT_END
 95
       32
302
GRIDFORMAT
  1
GRIDFORMAT_BEGIN
 90
        0
 91
        1
 62
     0
 92
       -2
340
27
 93
        0
 40
1.125
309
GRIDFORMAT_END
309
TABLEFORMAT_END
  1
CELLSTYLE_BEGIN
 90
        1
 91
        1
300
_TITLE
309
CELLSTYLE_END
300
CELLSTYLE
  1
TABLEFORMAT_BEGIN
 90
        5
170
     1
 91
        0
 92
        0
 62
   257
 93
        1
300
CONTENTFORMAT
  1
CONTENTFORMAT_BEGIN
 90
        0
 91
        0
 92
      512
 93
        0
300

 40
0.0
140
1.0
 94
        5
 62
     0
340
24
144
4.5
309
CONTENTFORMAT_END
171
     1
301
MARGIN
  1
CELLMARGIN_BEGIN
 40
1.5
 40
1.5
 40
1.5
 40
1.5
 40
4.5
 40
4.5
309
CELLMARGIN_END
 94
        6
 95
        1
302
GRIDFORMAT
  1
GRIDFORMAT_BEGIN
 90
        0
 91
        1
 62
     0
 92
       -2
340
27
 93
        0
 40
1.125
309
GRIDFORMAT_END
 95
        2
302
GRIDFORMAT
  1
GRIDFORMAT_BEGIN
 90
        0
 91
        1
 62
     0
 92
       -2
340
27
 93
        0
 40
1.125
309
GRIDFORMAT_END
 95
        4
302
GRIDFORMAT
  1
GRIDFORMAT_BEGIN
 90
        0
 91
        1
 62
     0
 92
       -2
340
27
 93
        0
 40
1.125
309
GRIDFORMAT_END
 95
        8
302
GRIDFORMAT
  1
GRIDFORMAT_BEGIN
 90
        0
 91
        1
 62
     0
 92
       -2
340
27
 93
        0
 40
1.125
309
GRIDFORMAT_END
 95
       16
302
GRIDFORMAT
  1
GRIDFORMAT_BEGIN
 90
        0
 91
        1
 62
     0
 92
       -2
340
27
 93
        0
 40
1.125
309
GRIDFORMAT_END
 95
       32
302
GRIDFORMAT
  1
GRIDFORMAT_BEGIN
 90
        0
 91
        1
 62
     0
 92
       -2
340
27
 93
        0
 40
1.125
309
GRIDFORMAT_END
309
TABLEFORMAT_END
  1
CELLSTYLE_BEGIN
 90
        2
 91
        1
300
_HEADER
309
CELLSTYLE_END
300
CELLSTYLE
  1
TABLEFORMAT_BEGIN
 90
        5
170
     1
 91
        0
 92
        0
 62
   257
 93
        1
300
CONTENTFORMAT
  1
CONTENTFORMAT_BEGIN
 90
        0
 91
        0
 92
      512
 93
        0
300

 40
0.0
140
1.0
 94
        2
 62
     0
340
24
144
4.5
309
CONTENTFORMAT_END
171
     1
301
MARGIN
  1
CELLMARGIN_BEGIN
 40
1.5
 40
1.5
 40
1.5
 40
1.5
 40
4.5
 40
4.5
309
CELLMARGIN_END
 94
        6
 95
        1
302
GRIDFORMAT
  1
GRIDFORMAT_BEGIN
 90
        0
 91
        1
 62
     0
 92
       -2
340
27
 93
        0
 40
1.125
309
GRIDFORMAT_END
 95
        2
302
GRIDFORMAT
  1
GRIDFORMAT_BEGIN
 90
        0
 91
        1
 62
     0
 92
       -2
340
27
 93
        0
 40
1.125
309
GRIDFORMAT_END
 95
        4
302
GRIDFORMAT
  1
GRIDFORMAT_BEGIN
 90
        0
 91
        1
 62
     0
 92
       -2
340
27
 93
        0
 40
1.125
309
GRIDFORMAT_END
 95
        8
302
GRIDFORMAT
  1
GRIDFORMAT_BEGIN
 90
        0
 91
        1
 62
     0
 92
       -2
340
27
 93
        0
 40
1.125
309
GRIDFORMAT_END
 95
       16
302
GRIDFORMAT
  1
GRIDFORMAT_BEGIN
 90
        0
 91
        1
 62
     0
 92
       -2
340
27
 93
        0
 40
1.125
309
GRIDFORMAT_END
 95
       32
302
GRIDFORMAT
  1
GRIDFORMAT_BEGIN
 90
        0
 91
        1
 62
     0
 92
       -2
340
27
 93
        0
 40
1.125
309
GRIDFORMAT_END
309
TABLEFORMAT_END
  1
CELLSTYLE_BEGIN
 90
        3
 91
        2
300
_DATA
309
CELLSTYLE_END
  0
XRECORD
  5
5B7
102
{ACAD_REACTORS
330
40
102
}
330
40
100
AcDbXrecord
280
     1
102
ACAD_ROUNDTRIP_PRE2007_TABLESTYLE
 90
      512
 91
        0
  1

 92
      512
 93
        0
  2

 94
      512
 95
        0
  3

  0
ENDSEC
  0
EOF
