  0
SECTION
  2
HEADER
  9
$ACADVER
  1
AC1014
  9
$ACADMAINTVER
 70
     9
  9
$DWGCODEPAGE
  3
ANSI_949
  9
$INSBASE
 10
20926.23269378688
 20
-5565.255571338923
 30
0.0
  9
$EXTMIN
 10
-0.3087352697766619
 20
-3.108144564797839
 30
-0.0000000000119164
  9
$EXTMAX
 10
351.0960957631468
 20
359.8261485289731
 30
0.0000000000664171
  9
$LIMMIN
 10
0.0
 20
0.0
  9
$LIMMAX
 10
420.0
 20
297.0
  9
$ORTHOMODE
 70
     0
  9
$REGENMODE
 70
     1
  9
$FILLMODE
 70
     1
  9
$QTEXTMODE
 70
     0
  9
$MIRRTEXT
 70
     0
  9
$DRAGMODE
 70
     2
  9
$LTSCALE
 40
0.2
  9
$OSMODE
 70
   567
  9
$ATTMODE
 70
     1
  9
$TEXTSIZE
 40
5.777225951253058
  9
$TRACEWID
 40
1.0
  9
$TEXTSTYLE
  7
STANDARD
  9
$CLAYER
  8
0
  9
$CELTYPE
  6
BYLAYER
  9
$CECOLOR
 62
   256
  9
$CELTSCALE
 40
1.0
  9
$DELOBJ
 70
     1
  9
$DISPSILH
 70
     0
  9
$DIMSCALE
 40
1.0
  9
$DIMASZ
 40
3.0
  9
$DIMEXO
 40
1.0
  9
$DIMDLI
 40
10.0
  9
$DIMRND
 40
0.0
  9
$DIMDLE
 40
0.0
  9
$DIMEXE
 40
0.6
  9
$DIMTP
 40
0.0
  9
$DIMTM
 40
0.0
  9
$DIMTXT
 40
3.5
  9
$DIMCEN
 40
0.09
  9
$DIMTSZ
 40
0.0
  9
$DIMTOL
 70
     0
  9
$DIMLIM
 70
     0
  9
$DIMTIH
 70
     0
  9
$DIMTOH
 70
     0
  9
$DIMSE1
 70
     0
  9
$DIMSE2
 70
     0
  9
$DIMTAD
 70
     1
  9
$DIMZIN
 70
     8
  9
$DIMBLK
  1

  9
$DIMASO
 70
     1
  9
$DIMSHO
 70
     1
  9
$DIMPOST
  1

  9
$DIMAPOST
  1

  9
$DIMALT
 70
     0
  9
$DIMALTD
 70
     2
  9
$DIMALTF
 40
25.4
  9
$DIMLFAC
 40
1.0
  9
$DIMTOFL
 70
     1
  9
$DIMTVP
 40
0.0
  9
$DIMTIX
 70
     1
  9
$DIMSOXD
 70
     0
  9
$DIMSAH
 70
     0
  9
$DIMBLK1
  1

  9
$DIMBLK2
  1

  9
$DIMSTYLE
  2
1_1_2
  9
$DIMCLRD
 70
   123
  9
$DIMCLRE
 70
   123
  9
$DIMCLRT
 70
     3
  9
$DIMTFAC
 40
1.0
  9
$DIMGAP
 40
1.0
  9
$DIMJUST
 70
     0
  9
$DIMSD1
 70
     0
  9
$DIMSD2
 70
     0
  9
$DIMTOLJ
 70
     1
  9
$DIMTZIN
 70
     0
  9
$DIMALTZ
 70
     0
  9
$DIMALTTZ
 70
     0
  9
$DIMFIT
 70
     0
  9
$DIMUPT
 70
     1
  9
$DIMUNIT
 70
     2
  9
$DIMDEC
 70
     2
  9
$DIMTDEC
 70
     2
  9
$DIMALTU
 70
     2
  9
$DIMALTTD
 70
     2
  9
$DIMTXSTY
  7
STANDARD
  9
$DIMAUNIT
 70
     1
  9
$LUNITS
 70
     2
  9
$LUPREC
 70
     4
  9
$SKETCHINC
 40
1.0
  9
$FILLETRAD
 40
0.5
  9
$AUNITS
 70
     0
  9
$AUPREC
 70
     0
  9
$MENU
  1
.
  9
$ELEVATION
 40
0.0
  9
$PELEVATION
 40
0.0
  9
$THICKNESS
 40
0.0
  9
$LIMCHECK
 70
     0
  9
$BLIPMODE
 70
     1
  9
$CHAMFERA
 40
1.0
  9
$CHAMFERB
 40
1.0
  9
$CHAMFERC
 40
20.0
  9
$CHAMFERD
 40
0.0
  9
$SKPOLY
 70
     0
  9
$TDCREATE
 40
2452839.586179271
  9
$TDUPDATE
 40
2453376.710668935
  9
$TDINDWG
 40
11.1218921296
  9
$TDUSRTIMER
 40
11.1218919444
  9
$USRTIMER
 70
     1
  9
$ANGBASE
 50
0.0
  9
$ANGDIR
 70
     0
  9
$PDMODE
 70
     0
  9
$PDSIZE
 40
0.0
  9
$PLINEWID
 40
0.0
  9
$COORDS
 70
     2
  9
$SPLFRAME
 70
     0
  9
$SPLINETYPE
 70
     6
  9
$SPLINESEGS
 70
   800
  9
$ATTDIA
 70
     0
  9
$ATTREQ
 70
     1
  9
$HANDLING
 70
 22529
  9
$HANDSEED
  5
415
  9
$SURFTAB1
 70
     6
  9
$SURFTAB2
 70
     6
  9
$SURFTYPE
 70
     6
  9
$SURFU
 70
     6
  9
$SURFV
 70
     6
  9
$UCSNAME
  2

  9
$UCSORG
 10
0.0
 20
0.0
 30
0.0
  9
$UCSXDIR
 10
1.0
 20
0.0
 30
0.0
  9
$UCSYDIR
 10
0.0
 20
1.0
 30
0.0
  9
$PUCSNAME
  2

  9
$PUCSORG
 10
0.0
 20
0.0
 30
0.0
  9
$PUCSXDIR
 10
1.0
 20
0.0
 30
0.0
  9
$PUCSYDIR
 10
0.0
 20
1.0
 30
0.0
  9
$USERI1
 70
     0
  9
$USERI2
 70
     0
  9
$USERI3
 70
     0
  9
$USERI4
 70
     0
  9
$USERI5
 70
     0
  9
$USERR1
 40
0.0
  9
$USERR2
 40
0.0
  9
$USERR3
 40
0.0
  9
$USERR4
 40
0.0
  9
$USERR5
 40
0.0
  9
$WORLDVIEW
 70
     1
  9
$SHADEDGE
 70
     3
  9
$SHADEDIF
 70
    70
  9
$TILEMODE
 70
     1
  9
$MAXACTVP
 70
    48
  9
$PINSBASE
 10
0.0
 20
0.0
 30
0.0
  9
$PLIMCHECK
 70
     0
  9
$PEXTMIN
 10
0.0
 20
0.0
 30
0.0
  9
$PEXTMAX
 10
0.0
 20
0.0
 30
0.0
  9
$PLIMMIN
 10
0.0
 20
0.0
  9
$PLIMMAX
 10
12.0
 20
9.0
  9
$UNITMODE
 70
     0
  9
$VISRETAIN
 70
     1
  9
$PLINEGEN
 70
     0
  9
$PSLTSCALE
 70
     1
  9
$TREEDEPTH
 70
  3020
  9
$PICKSTYLE
 70
     0
  9
$CMLSTYLE
  2
STANDARD
  9
$CMLJUST
 70
     0
  9
$CMLSCALE
 40
20.0
  9
$PROXYGRAPHICS
 70
     1
  9
$MEASUREMENT
 70
     1
  0
ENDSEC
  0
SECTION
  2
CLASSES
  0
CLASS
  1
ACDBDICTIONARYWDFLT
  2
AcDbDictionaryWithDefault
  3
AutoCAD 2000
 90
        0
280
     0
281
     0
  0
CLASS
  1
ACDBPLACEHOLDER
  2
AcDbPlaceHolder
  3
AutoCAD 2000
 90
        0
280
     0
281
     0
  0
CLASS
  1
LAYOUT
  2
AcDbLayout
  3
AutoCAD 2000
 90
        0
280
     0
281
     0
  0
CLASS
  1
DICTIONARYVAR
  2
AcDbDictionaryVar
  3
AutoCAD 2000
 90
        0
280
     0
281
     0
  0
CLASS
  1
DIMASSOC
  2
AcDbDimAssoc
  3
"AcDbDimAssoc|Product Desc:     AcDim ARX App For Dimension|Company:          Autodesk, Inc.|WEB Address:      www.autodesk.com"
 90
        0
280
     0
281
     0
  0
CLASS
  1
LONG_TRANSACTION
  2
AcDbLongTransaction
  3
AutoCAD 2000
 90
        0
280
     0
281
     0
  0
CLASS
  1
LWPOLYLINE
  2
AcDbPolyline
  3
AutoCAD 2000
 90
        0
280
     0
281
     1
  0
CLASS
  1
HATCH
  2
AcDbHatch
  3
AutoCAD 2000
 90
        0
280
     0
281
     1
  0
CLASS
  1
XRECORD
  2
AcDbXrecord
  3
AutoCAD 2000
 90
        0
280
     0
281
     0
  0
CLASS
  1
LONG_TRANSACTION
  2
AcDbLongTransaction
  3
AutoCAD 2000
 90
        0
280
     0
281
     0
  0
CLASS
  1
LWPOLYLINE
  2
AcDbPolyline
  3
AutoCAD 2000
 90
        0
280
     0
281
     1
  0
CLASS
  1
HATCH
  2
AcDbHatch
  3
AutoCAD 2000
 90
        0
280
     0
281
     1
  0
CLASS
  1
XRECORD
  2
AcDbXrecord
  3
AutoCAD 2000
 90
        0
280
     0
281
     0
  0
CLASS
  1
LONG_TRANSACTION
  2
AcDbLongTransaction
  3
AutoCAD 2000
 90
        0
280
     0
281
     0
  0
CLASS
  1
LWPOLYLINE
  2
AcDbPolyline
  3
AutoCAD 2000
 90
        0
280
     0
281
     1
  0
CLASS
  1
HATCH
  2
AcDbHatch
  3
AutoCAD 2000
 90
        0
280
     0
281
     1
  0
CLASS
  1
XRECORD
  2
AcDbXrecord
  3
AutoCAD 2000
 90
        0
280
     0
281
     0
  0
CLASS
  1
LONG_TRANSACTION
  2
AcDbLongTransaction
  3
AutoCAD 2000
 90
        0
280
     0
281
     0
  0
CLASS
  1
LWPOLYLINE
  2
AcDbPolyline
  3
AutoCAD 2000
 90
        0
280
     0
281
     1
  0
CLASS
  1
HATCH
  2
AcDbHatch
  3
AutoCAD 2000
 90
        0
280
     0
281
     1
  0
CLASS
  1
XRECORD
  2
AcDbXrecord
  3
AutoCAD 2000
 90
        0
280
     0
281
     0
  0
CLASS
  1
LONG_TRANSACTION
  2
AcDbLongTransaction
  3
AutoCAD 2000
 90
        0
280
     0
281
     0
  0
CLASS
  1
LWPOLYLINE
  2
AcDbPolyline
  3
AutoCAD 2000
 90
        0
280
     0
281
     1
  0
CLASS
  1
HATCH
  2
AcDbHatch
  3
AutoCAD 2000
 90
        0
280
     0
281
     1
  0
CLASS
  1
XRECORD
  2
AcDbXrecord
  3
AutoCAD 2000
 90
        0
280
     0
281
     0
  0
CLASS
  1
LONG_TRANSACTION
  2
AcDbLongTransaction
  3
AutoCAD 2000
 90
        0
280
     0
281
     0
  0
CLASS
  1
LWPOLYLINE
  2
AcDbPolyline
  3
AutoCAD 2000
 90
        0
280
     0
281
     1
  0
CLASS
  1
HATCH
  2
AcDbHatch
  3
AutoCAD 2000
 90
        0
280
     0
281
     1
  0
CLASS
  1
XRECORD
  2
AcDbXrecord
  3
AutoCAD 2000
 90
        0
280
     0
281
     0
  0
CLASS
  1
LONG_TRANSACTION
  2
AcDbLongTransaction
  3
AutoCAD 2000
 90
        0
280
     0
281
     0
  0
CLASS
  1
LWPOLYLINE
  2
AcDbPolyline
  3
AutoCAD 2000
 90
        0
280
     0
281
     1
  0
CLASS
  1
HATCH
  2
AcDbHatch
  3
AutoCAD 2000
 90
        0
280
     0
281
     1
  0
CLASS
  1
XRECORD
  2
AcDbXrecord
  3
AutoCAD 2000
 90
        0
280
     0
281
     0
  0
CLASS
  1
LONG_TRANSACTION
  2
AcDbLongTransaction
  3
AutoCAD 2000
 90
        0
280
     0
281
     0
  0
CLASS
  1
LWPOLYLINE
  2
AcDbPolyline
  3
AutoCAD 2000
 90
        0
280
     0
281
     1
  0
CLASS
  1
HATCH
  2
AcDbHatch
  3
AutoCAD 2000
 90
        0
280
     0
281
     1
  0
CLASS
  1
XRECORD
  2
AcDbXrecord
  3
AutoCAD 2000
 90
        0
280
     0
281
     0
  0
CLASS
  1
LONG_TRANSACTION
  2
AcDbLongTransaction
  3
AutoCAD 2000
 90
        0
280
     0
281
     0
  0
CLASS
  1
LWPOLYLINE
  2
AcDbPolyline
  3
AutoCAD 2000
 90
        0
280
     0
281
     1
  0
CLASS
  1
HATCH
  2
AcDbHatch
  3
AutoCAD 2000
 90
        0
280
     0
281
     1
  0
CLASS
  1
XRECORD
  2
AcDbXrecord
  3
AutoCAD 2000
 90
        0
280
     0
281
     0
  0
CLASS
  1
LONG_TRANSACTION
  2
AcDbLongTransaction
  3
AutoCAD 2000
 90
        0
280
     0
281
     0
  0
CLASS
  1
LWPOLYLINE
  2
AcDbPolyline
  3
AutoCAD 2000
 90
        0
280
     0
281
     1
  0
CLASS
  1
HATCH
  2
AcDbHatch
  3
AutoCAD 2000
 90
        0
280
     0
281
     1
  0
CLASS
  1
XRECORD
  2
AcDbXrecord
  3
AutoCAD 2000
 90
        0
280
     0
281
     0
  0
CLASS
  1
LONG_TRANSACTION
  2
AcDbLongTransaction
  3
AutoCAD 2000
 90
        0
280
     0
281
     0
  0
CLASS
  1
LWPOLYLINE
  2
AcDbPolyline
  3
AutoCAD 2000
 90
        0
280
     0
281
     1
  0
CLASS
  1
HATCH
  2
AcDbHatch
  3
AutoCAD 2000
 90
        0
280
     0
281
     1
  0
CLASS
  1
XRECORD
  2
AcDbXrecord
  3
AutoCAD 2000
 90
        0
280
     0
281
     0
  0
CLASS
  1
LONG_TRANSACTION
  2
AcDbLongTransaction
  3
AutoCAD 2000
 90
        0
280
     0
281
     0
  0
CLASS
  1
LWPOLYLINE
  2
AcDbPolyline
  3
AutoCAD 2000
 90
        0
280
     0
281
     1
  0
CLASS
  1
HATCH
  2
AcDbHatch
  3
AutoCAD 2000
 90
        0
280
     0
281
     1
  0
CLASS
  1
XRECORD
  2
AcDbXrecord
  3
AutoCAD 2000
 90
        0
280
     0
281
     0
  0
CLASS
  1
LONG_TRANSACTION
  2
AcDbLongTransaction
  3
AutoCAD 2000
 90
        0
280
     0
281
     0
  0
CLASS
  1
LWPOLYLINE
  2
AcDbPolyline
  3
AutoCAD 2000
 90
        0
280
     0
281
     1
  0
CLASS
  1
HATCH
  2
AcDbHatch
  3
AutoCAD 2000
 90
        0
280
     0
281
     1
  0
CLASS
  1
XRECORD
  2
AcDbXrecord
  3
AutoCAD 2000
 90
        0
280
     0
281
     0
  0
CLASS
  1
LONG_TRANSACTION
  2
AcDbLongTransaction
  3
AutoCAD 2000
 90
        0
280
     0
281
     0
  0
CLASS
  1
LWPOLYLINE
  2
AcDbPolyline
  3
AutoCAD 2000
 90
        0
280
     0
281
     1
  0
CLASS
  1
HATCH
  2
AcDbHatch
  3
AutoCAD 2000
 90
        0
280
     0
281
     1
  0
CLASS
  1
XRECORD
  2
AcDbXrecord
  3
AutoCAD 2000
 90
        0
280
     0
281
     0
  0
CLASS
  1
LONG_TRANSACTION
  2
AcDbLongTransaction
  3
AutoCAD 2000
 90
        0
280
     0
281
     0
  0
CLASS
  1
LWPOLYLINE
  2
AcDbPolyline
  3
AutoCAD 2000
 90
        0
280
     0
281
     1
  0
CLASS
  1
HATCH
  2
AcDbHatch
  3
AutoCAD 2000
 90
        0
280
     0
281
     1
  0
CLASS
  1
XRECORD
  2
AcDbXrecord
  3
AutoCAD 2000
 90
        0
280
     0
281
     0
  0
CLASS
  1
LONG_TRANSACTION
  2
AcDbLongTransaction
  3
AutoCAD 2000
 90
        0
280
     0
281
     0
  0
CLASS
  1
LWPOLYLINE
  2
AcDbPolyline
  3
AutoCAD 2000
 90
        0
280
     0
281
     1
  0
CLASS
  1
HATCH
  2
AcDbHatch
  3
AutoCAD 2000
 90
        0
280
     0
281
     1
  0
CLASS
  1
XRECORD
  2
AcDbXrecord
  3
AutoCAD 2000
 90
        0
280
     0
281
     0
  0
CLASS
  1
LONG_TRANSACTION
  2
AcDbLongTransaction
  3
AutoCAD 2000
 90
        0
280
     0
281
     0
  0
CLASS
  1
LWPOLYLINE
  2
AcDbPolyline
  3
AutoCAD 2000
 90
        0
280
     0
281
     1
  0
CLASS
  1
HATCH
  2
AcDbHatch
  3
AutoCAD 2000
 90
        0
280
     0
281
     1
  0
CLASS
  1
XRECORD
  2
AcDbXrecord
  3
AutoCAD 2000
 90
        0
280
     0
281
     0
  0
CLASS
  1
LONG_TRANSACTION
  2
AcDbLongTransaction
  3
AutoCAD 2000
 90
        0
280
     0
281
     0
  0
CLASS
  1
LWPOLYLINE
  2
AcDbPolyline
  3
AutoCAD 2000
 90
        0
280
     0
281
     1
  0
CLASS
  1
HATCH
  2
AcDbHatch
  3
AutoCAD 2000
 90
        0
280
     0
281
     1
  0
CLASS
  1
XRECORD
  2
AcDbXrecord
  3
AutoCAD 2000
 90
        0
280
     0
281
     0
  0
CLASS
  1
LONG_TRANSACTION
  2
AcDbLongTransaction
  3
AutoCAD 2000
 90
        0
280
     0
281
     0
  0
CLASS
  1
LWPOLYLINE
  2
AcDbPolyline
  3
AutoCAD 2000
 90
        0
280
     0
281
     1
  0
CLASS
  1
HATCH
  2
AcDbHatch
  3
AutoCAD 2000
 90
        0
280
     0
281
     1
  0
CLASS
  1
XRECORD
  2
AcDbXrecord
  3
AutoCAD 2000
 90
        0
280
     0
281
     0
  0
CLASS
  1
LONG_TRANSACTION
  2
AcDbLongTransaction
  3
AutoCAD 2000
 90
        0
280
     0
281
     0
  0
CLASS
  1
LWPOLYLINE
  2
AcDbPolyline
  3
AutoCAD 2000
 90
        0
280
     0
281
     1
  0
CLASS
  1
HATCH
  2
AcDbHatch
  3
AutoCAD 2000
 90
        0
280
     0
281
     1
  0
CLASS
  1
XRECORD
  2
AcDbXrecord
  3
AutoCAD 2000
 90
        0
280
     0
281
     0
  0
CLASS
  1
LONG_TRANSACTION
  2
AcDbLongTransaction
  3
AutoCAD 2000
 90
        0
280
     0
281
     0
  0
CLASS
  1
LWPOLYLINE
  2
AcDbPolyline
  3
AutoCAD 2000
 90
        0
280
     0
281
     1
  0
CLASS
  1
HATCH
  2
AcDbHatch
  3
AutoCAD 2000
 90
        0
280
     0
281
     1
  0
CLASS
  1
XRECORD
  2
AcDbXrecord
  3
AutoCAD 2000
 90
        0
280
     0
281
     0
  0
CLASS
  1
LONG_TRANSACTION
  2
AcDbLongTransaction
  3
AutoCAD 2000
 90
        0
280
     0
281
     0
  0
CLASS
  1
LWPOLYLINE
  2
AcDbPolyline
  3
AutoCAD 2000
 90
        0
280
     0
281
     1
  0
CLASS
  1
HATCH
  2
AcDbHatch
  3
AutoCAD 2000
 90
        0
280
     0
281
     1
  0
CLASS
  1
XRECORD
  2
AcDbXrecord
  3
AutoCAD 2000
 90
        0
280
     0
281
     0
  0
CLASS
  1
LONG_TRANSACTION
  2
AcDbLongTransaction
  3
AutoCAD 2000
 90
        0
280
     0
281
     0
  0
CLASS
  1
LWPOLYLINE
  2
AcDbPolyline
  3
AutoCAD 2000
 90
        0
280
     0
281
     1
  0
CLASS
  1
HATCH
  2
AcDbHatch
  3
AutoCAD 2000
 90
        0
280
     0
281
     1
  0
CLASS
  1
XRECORD
  2
AcDbXrecord
  3
AutoCAD 2000
 90
        0
280
     0
281
     0
  0
CLASS
  1
LONG_TRANSACTION
  2
AcDbLongTransaction
  3
AutoCAD 2000
 90
        0
280
     0
281
     0
  0
CLASS
  1
LWPOLYLINE
  2
AcDbPolyline
  3
AutoCAD 2000
 90
        0
280
     0
281
     1
  0
CLASS
  1
HATCH
  2
AcDbHatch
  3
AutoCAD 2000
 90
        0
280
     0
281
     1
  0
CLASS
  1
XRECORD
  2
AcDbXrecord
  3
AutoCAD 2000
 90
        0
280
     0
281
     0
  0
CLASS
  1
LONG_TRANSACTION
  2
AcDbLongTransaction
  3
AutoCAD 2000
 90
        0
280
     0
281
     0
  0
CLASS
  1
LWPOLYLINE
  2
AcDbPolyline
  3
AutoCAD 2000
 90
        0
280
     0
281
     1
  0
CLASS
  1
HATCH
  2
AcDbHatch
  3
AutoCAD 2000
 90
        0
280
     0
281
     1
  0
CLASS
  1
XRECORD
  2
AcDbXrecord
  3
AutoCAD 2000
 90
        0
280
     0
281
     0
  0
CLASS
  1
LONG_TRANSACTION
  2
AcDbLongTransaction
  3
AutoCAD 2000
 90
        0
280
     0
281
     0
  0
CLASS
  1
LWPOLYLINE
  2
AcDbPolyline
  3
AutoCAD 2000
 90
        0
280
     0
281
     1
  0
CLASS
  1
HATCH
  2
AcDbHatch
  3
AutoCAD 2000
 90
        0
280
     0
281
     1
  0
CLASS
  1
XRECORD
  2
AcDbXrecord
  3
AutoCAD 2000
 90
        0
280
     0
281
     0
  0
CLASS
  1
LONG_TRANSACTION
  2
AcDbLongTransaction
  3
AutoCAD 2000
 90
        0
280
     0
281
     0
  0
CLASS
  1
LWPOLYLINE
  2
AcDbPolyline
  3
AutoCAD 2000
 90
        0
280
     0
281
     1
  0
CLASS
  1
HATCH
  2
AcDbHatch
  3
AutoCAD 2000
 90
        0
280
     0
281
     1
  0
CLASS
  1
XRECORD
  2
AcDbXrecord
  3
AutoCAD 2000
 90
        0
280
     0
281
     0
  0
CLASS
  1
LONG_TRANSACTION
  2
AcDbLongTransaction
  3
AutoCAD 2000
 90
        0
280
     0
281
     0
  0
CLASS
  1
LWPOLYLINE
  2
AcDbPolyline
  3
AutoCAD 2000
 90
        0
280
     0
281
     1
  0
CLASS
  1
HATCH
  2
AcDbHatch
  3
AutoCAD 2000
 90
        0
280
     0
281
     1
  0
CLASS
  1
XRECORD
  2
AcDbXrecord
  3
AutoCAD 2000
 90
        0
280
     0
281
     0
  0
CLASS
  1
LONG_TRANSACTION
  2
AcDbLongTransaction
  3
AutoCAD 2000
 90
        0
280
     0
281
     0
  0
CLASS
  1
LWPOLYLINE
  2
AcDbPolyline
  3
AutoCAD 2000
 90
        0
280
     0
281
     1
  0
CLASS
  1
HATCH
  2
AcDbHatch
  3
AutoCAD 2000
 90
        0
280
     0
281
     1
  0
CLASS
  1
XRECORD
  2
AcDbXrecord
  3
AutoCAD 2000
 90
        0
280
     0
281
     0
  0
CLASS
  1
LONG_TRANSACTION
  2
AcDbLongTransaction
  3
AutoCAD 2000
 90
        0
280
     0
281
     0
  0
CLASS
  1
LWPOLYLINE
  2
AcDbPolyline
  3
AutoCAD 2000
 90
        0
280
     0
281
     1
  0
CLASS
  1
HATCH
  2
AcDbHatch
  3
AutoCAD 2000
 90
        0
280
     0
281
     1
  0
CLASS
  1
XRECORD
  2
AcDbXrecord
  3
AutoCAD 2000
 90
        0
280
     0
281
     0
  0
CLASS
  1
LONG_TRANSACTION
  2
AcDbLongTransaction
  3
AutoCAD 2000
 90
        0
280
     0
281
     0
  0
CLASS
  1
LWPOLYLINE
  2
AcDbPolyline
  3
AutoCAD 2000
 90
        0
280
     0
281
     1
  0
CLASS
  1
HATCH
  2
AcDbHatch
  3
AutoCAD 2000
 90
        0
280
     0
281
     1
  0
CLASS
  1
XRECORD
  2
AcDbXrecord
  3
AutoCAD 2000
 90
        0
280
     0
281
     0
  0
CLASS
  1
LONG_TRANSACTION
  2
AcDbLongTransaction
  3
AutoCAD 2000
 90
        0
280
     0
281
     0
  0
CLASS
  1
LWPOLYLINE
  2
AcDbPolyline
  3
AutoCAD 2000
 90
        0
280
     0
281
     1
  0
CLASS
  1
HATCH
  2
AcDbHatch
  3
AutoCAD 2000
 90
        0
280
     0
281
     1
  0
CLASS
  1
XRECORD
  2
AcDbXrecord
  3
AutoCAD 2000
 90
        0
280
     0
281
     0
  0
CLASS
  1
LONG_TRANSACTION
  2
AcDbLongTransaction
  3
AutoCAD 2000
 90
        0
280
     0
281
     0
  0
CLASS
  1
LWPOLYLINE
  2
AcDbPolyline
  3
AutoCAD 2000
 90
        0
280
     0
281
     1
  0
CLASS
  1
HATCH
  2
AcDbHatch
  3
AutoCAD 2000
 90
        0
280
     0
281
     1
  0
CLASS
  1
XRECORD
  2
AcDbXrecord
  3
AutoCAD 2000
 90
        0
280
     0
281
     0
  0
CLASS
  1
LONG_TRANSACTION
  2
AcDbLongTransaction
  3
AutoCAD 2000
 90
        0
280
     0
281
     0
  0
CLASS
  1
LWPOLYLINE
  2
AcDbPolyline
  3
AutoCAD 2000
 90
        0
280
     0
281
     1
  0
CLASS
  1
HATCH
  2
AcDbHatch
  3
AutoCAD 2000
 90
        0
280
     0
281
     1
  0
CLASS
  1
XRECORD
  2
AcDbXrecord
  3
AutoCAD 2000
 90
        0
280
     0
281
     0
  0
CLASS
  1
LONG_TRANSACTION
  2
AcDbLongTransaction
  3
AutoCAD 2000
 90
        0
280
     0
281
     0
  0
CLASS
  1
LWPOLYLINE
  2
AcDbPolyline
  3
AutoCAD 2000
 90
        0
280
     0
281
     1
  0
CLASS
  1
HATCH
  2
AcDbHatch
  3
AutoCAD 2000
 90
        0
280
     0
281
     1
  0
CLASS
  1
XRECORD
  2
AcDbXrecord
  3
AutoCAD 2000
 90
        0
280
     0
281
     0
  0
CLASS
  1
LONG_TRANSACTION
  2
AcDbLongTransaction
  3
AutoCAD 2000
 90
        0
280
     0
281
     0
  0
CLASS
  1
LWPOLYLINE
  2
AcDbPolyline
  3
AutoCAD 2000
 90
        0
280
     0
281
     1
  0
CLASS
  1
HATCH
  2
AcDbHatch
  3
AutoCAD 2000
 90
        0
280
     0
281
     1
  0
CLASS
  1
XRECORD
  2
AcDbXrecord
  3
AutoCAD 2000
 90
        0
280
     0
281
     0
  0
CLASS
  1
LONG_TRANSACTION
  2
AcDbLongTransaction
  3
AutoCAD 2000
 90
        0
280
     0
281
     0
  0
CLASS
  1
LWPOLYLINE
  2
AcDbPolyline
  3
AutoCAD 2000
 90
        0
280
     0
281
     1
  0
CLASS
  1
HATCH
  2
AcDbHatch
  3
AutoCAD 2000
 90
        0
280
     0
281
     1
  0
CLASS
  1
XRECORD
  2
AcDbXrecord
  3
AutoCAD 2000
 90
        0
280
     0
281
     0
  0
CLASS
  1
LONG_TRANSACTION
  2
AcDbLongTransaction
  3
AutoCAD 2000
 90
        0
280
     0
281
     0
  0
CLASS
  1
LWPOLYLINE
  2
AcDbPolyline
  3
AutoCAD 2000
 90
        0
280
     0
281
     1
  0
CLASS
  1
HATCH
  2
AcDbHatch
  3
AutoCAD 2000
 90
        0
280
     0
281
     1
  0
CLASS
  1
XRECORD
  2
AcDbXrecord
  3
AutoCAD 2000
 90
        0
280
     0
281
     0
  0
CLASS
  1
LONG_TRANSACTION
  2
AcDbLongTransaction
  3
AutoCAD 2000
 90
        0
280
     0
281
     0
  0
CLASS
  1
LWPOLYLINE
  2
AcDbPolyline
  3
AutoCAD 2000
 90
        0
280
     0
281
     1
  0
CLASS
  1
HATCH
  2
AcDbHatch
  3
AutoCAD 2000
 90
        0
280
     0
281
     1
  0
CLASS
  1
XRECORD
  2
AcDbXrecord
  3
AutoCAD 2000
 90
        0
280
     0
281
     0
  0
CLASS
  1
LONG_TRANSACTION
  2
AcDbLongTransaction
  3
AutoCAD 2000
 90
        0
280
     0
281
     0
  0
CLASS
  1
LWPOLYLINE
  2
AcDbPolyline
  3
AutoCAD 2000
 90
        0
280
     0
281
     1
  0
CLASS
  1
HATCH
  2
AcDbHatch
  3
AutoCAD 2000
 90
        0
280
     0
281
     1
  0
CLASS
  1
XRECORD
  2
AcDbXrecord
  3
AutoCAD 2000
 90
        0
280
     0
281
     0
  0
CLASS
  1
LONG_TRANSACTION
  2
AcDbLongTransaction
  3
AutoCAD 2000
 90
        0
280
     0
281
     0
  0
CLASS
  1
LWPOLYLINE
  2
AcDbPolyline
  3
AutoCAD 2000
 90
        0
280
     0
281
     1
  0
CLASS
  1
HATCH
  2
AcDbHatch
  3
AutoCAD 2000
 90
        0
280
     0
281
     1
  0
CLASS
  1
XRECORD
  2
AcDbXrecord
  3
AutoCAD 2000
 90
        0
280
     0
281
     0
  0
CLASS
  1
LONG_TRANSACTION
  2
AcDbLongTransaction
  3
AutoCAD 2000
 90
        0
280
     0
281
     0
  0
CLASS
  1
LWPOLYLINE
  2
AcDbPolyline
  3
AutoCAD 2000
 90
        0
280
     0
281
     1
  0
CLASS
  1
HATCH
  2
AcDbHatch
  3
AutoCAD 2000
 90
        0
280
     0
281
     1
  0
CLASS
  1
XRECORD
  2
AcDbXrecord
  3
AutoCAD 2000
 90
        0
280
     0
281
     0
  0
CLASS
  1
LONG_TRANSACTION
  2
AcDbLongTransaction
  3
AutoCAD 2000
 90
        0
280
     0
281
     0
  0
CLASS
  1
LWPOLYLINE
  2
AcDbPolyline
  3
AutoCAD 2000
 90
        0
280
     0
281
     1
  0
CLASS
  1
HATCH
  2
AcDbHatch
  3
AutoCAD 2000
 90
        0
280
     0
281
     1
  0
CLASS
  1
XRECORD
  2
AcDbXrecord
  3
AutoCAD 2000
 90
        0
280
     0
281
     0
  0
CLASS
  1
LONG_TRANSACTION
  2
AcDbLongTransaction
  3
AutoCAD 2000
 90
        0
280
     0
281
     0
  0
CLASS
  1
LWPOLYLINE
  2
AcDbPolyline
  3
AutoCAD 2000
 90
        0
280
     0
281
     1
  0
CLASS
  1
HATCH
  2
AcDbHatch
  3
AutoCAD 2000
 90
        0
280
     0
281
     1
  0
CLASS
  1
XRECORD
  2
AcDbXrecord
  3
AutoCAD 2000
 90
        0
280
     0
281
     0
  0
CLASS
  1
LONG_TRANSACTION
  2
AcDbLongTransaction
  3
AutoCAD 2000
 90
        0
280
     0
281
     0
  0
CLASS
  1
LWPOLYLINE
  2
AcDbPolyline
  3
AutoCAD 2000
 90
        0
280
     0
281
     1
  0
CLASS
  1
HATCH
  2
AcDbHatch
  3
AutoCAD 2000
 90
        0
280
     0
281
     1
  0
CLASS
  1
XRECORD
  2
AcDbXrecord
  3
AutoCAD 2000
 90
        0
280
     0
281
     0
  0
CLASS
  1
LONG_TRANSACTION
  2
AcDbLongTransaction
  3
AutoCAD 2000
 90
        0
280
     0
281
     0
  0
CLASS
  1
LWPOLYLINE
  2
AcDbPolyline
  3
AutoCAD 2000
 90
        0
280
     0
281
     1
  0
CLASS
  1
HATCH
  2
AcDbHatch
  3
AutoCAD 2000
 90
        0
280
     0
281
     1
  0
CLASS
  1
XRECORD
  2
AcDbXrecord
  3
AutoCAD 2000
 90
        0
280
     0
281
     0
  0
CLASS
  1
LONG_TRANSACTION
  2
AcDbLongTransaction
  3
AutoCAD 2000
 90
        0
280
     0
281
     0
  0
CLASS
  1
LWPOLYLINE
  2
AcDbPolyline
  3
AutoCAD 2000
 90
        0
280
     0
281
     1
  0
CLASS
  1
HATCH
  2
AcDbHatch
  3
AutoCAD 2000
 90
        0
280
     0
281
     1
  0
CLASS
  1
XRECORD
  2
AcDbXrecord
  3
AutoCAD 2000
 90
        0
280
     0
281
     0
  0
CLASS
  1
LONG_TRANSACTION
  2
AcDbLongTransaction
  3
AutoCAD 2000
 90
        0
280
     0
281
     0
  0
CLASS
  1
LWPOLYLINE
  2
AcDbPolyline
  3
AutoCAD 2000
 90
        0
280
     0
281
     1
  0
CLASS
  1
HATCH
  2
AcDbHatch
  3
AutoCAD 2000
 90
        0
280
     0
281
     1
  0
CLASS
  1
XRECORD
  2
AcDbXrecord
  3
AutoCAD 2000
 90
        0
280
     0
281
     0
  0
CLASS
  1
LONG_TRANSACTION
  2
AcDbLongTransaction
  3
AutoCAD 2000
 90
        0
280
     0
281
     0
  0
CLASS
  1
LWPOLYLINE
  2
AcDbPolyline
  3
AutoCAD 2000
 90
        0
280
     0
281
     1
  0
CLASS
  1
HATCH
  2
AcDbHatch
  3
AutoCAD 2000
 90
        0
280
     0
281
     1
  0
CLASS
  1
XRECORD
  2
AcDbXrecord
  3
AutoCAD 2000
 90
        0
280
     0
281
     0
  0
CLASS
  1
LONG_TRANSACTION
  2
AcDbLongTransaction
  3
AutoCAD 2000
 90
        0
280
     0
281
     0
  0
CLASS
  1
LWPOLYLINE
  2
AcDbPolyline
  3
AutoCAD 2000
 90
        0
280
     0
281
     1
  0
CLASS
  1
HATCH
  2
AcDbHatch
  3
AutoCAD 2000
 90
        0
280
     0
281
     1
  0
CLASS
  1
XRECORD
  2
AcDbXrecord
  3
AutoCAD 2000
 90
        0
280
     0
281
     0
  0
CLASS
  1
LONG_TRANSACTION
  2
AcDbLongTransaction
  3
AutoCAD 2000
 90
        0
280
     0
281
     0
  0
CLASS
  1
LWPOLYLINE
  2
AcDbPolyline
  3
AutoCAD 2000
 90
        0
280
     0
281
     1
  0
CLASS
  1
HATCH
  2
AcDbHatch
  3
AutoCAD 2000
 90
        0
280
     0
281
     1
  0
CLASS
  1
XRECORD
  2
AcDbXrecord
  3
AutoCAD 2000
 90
        0
280
     0
281
     0
  0
CLASS
  1
LONG_TRANSACTION
  2
AcDbLongTransaction
  3
AutoCAD 2000
 90
        0
280
     0
281
     0
  0
CLASS
  1
LWPOLYLINE
  2
AcDbPolyline
  3
AutoCAD 2000
 90
        0
280
     0
281
     1
  0
CLASS
  1
HATCH
  2
AcDbHatch
  3
AutoCAD 2000
 90
        0
280
     0
281
     1
  0
CLASS
  1
XRECORD
  2
AcDbXrecord
  3
AutoCAD 2000
 90
        0
280
     0
281
     0
  0
CLASS
  1
LONG_TRANSACTION
  2
AcDbLongTransaction
  3
AutoCAD 2000
 90
        0
280
     0
281
     0
  0
CLASS
  1
LWPOLYLINE
  2
AcDbPolyline
  3
AutoCAD 2000
 90
        0
280
     0
281
     1
  0
CLASS
  1
HATCH
  2
AcDbHatch
  3
AutoCAD 2000
 90
        0
280
     0
281
     1
  0
CLASS
  1
XRECORD
  2
AcDbXrecord
  3
AutoCAD 2000
 90
        0
280
     0
281
     0
  0
CLASS
  1
LONG_TRANSACTION
  2
AcDbLongTransaction
  3
AutoCAD 2000
 90
        0
280
     0
281
     0
  0
CLASS
  1
LWPOLYLINE
  2
AcDbPolyline
  3
AutoCAD 2000
 90
        0
280
     0
281
     1
  0
CLASS
  1
HATCH
  2
AcDbHatch
  3
AutoCAD 2000
 90
        0
280
     0
281
     1
  0
CLASS
  1
XRECORD
  2
AcDbXrecord
  3
AutoCAD 2000
 90
        0
280
     0
281
     0
  0
CLASS
  1
LONG_TRANSACTION
  2
AcDbLongTransaction
  3
AutoCAD 2000
 90
        0
280
     0
281
     0
  0
CLASS
  1
LWPOLYLINE
  2
AcDbPolyline
  3
AutoCAD 2000
 90
        0
280
     0
281
     1
  0
CLASS
  1
HATCH
  2
AcDbHatch
  3
AutoCAD 2000
 90
        0
280
     0
281
     1
  0
CLASS
  1
XRECORD
  2
AcDbXrecord
  3
AutoCAD 2000
 90
        0
280
     0
281
     0
  0
CLASS
  1
LONG_TRANSACTION
  2
AcDbLongTransaction
  3
AutoCAD 2000
 90
        0
280
     0
281
     0
  0
CLASS
  1
LWPOLYLINE
  2
AcDbPolyline
  3
AutoCAD 2000
 90
        0
280
     0
281
     1
  0
CLASS
  1
HATCH
  2
AcDbHatch
  3
AutoCAD 2000
 90
        0
280
     0
281
     1
  0
CLASS
  1
XRECORD
  2
AcDbXrecord
  3
AutoCAD 2000
 90
        0
280
     0
281
     0
  0
CLASS
  1
LONG_TRANSACTION
  2
AcDbLongTransaction
  3
AutoCAD 2000
 90
        0
280
     0
281
     0
  0
CLASS
  1
LWPOLYLINE
  2
AcDbPolyline
  3
AutoCAD 2000
 90
        0
280
     0
281
     1
  0
CLASS
  1
HATCH
  2
AcDbHatch
  3
AutoCAD 2000
 90
        0
280
     0
281
     1
  0
CLASS
  1
XRECORD
  2
AcDbXrecord
  3
AutoCAD 2000
 90
        0
280
     0
281
     0
  0
CLASS
  1
LONG_TRANSACTION
  2
AcDbLongTransaction
  3
AutoCAD 2000
 90
        0
280
     0
281
     0
  0
CLASS
  1
LWPOLYLINE
  2
AcDbPolyline
  3
AutoCAD 2000
 90
        0
280
     0
281
     1
  0
CLASS
  1
HATCH
  2
AcDbHatch
  3
AutoCAD 2000
 90
        0
280
     0
281
     1
  0
CLASS
  1
XRECORD
  2
AcDbXrecord
  3
AutoCAD 2000
 90
        0
280
     0
281
     0
  0
CLASS
  1
LONG_TRANSACTION
  2
AcDbLongTransaction
  3
AutoCAD 2000
 90
        0
280
     0
281
     0
  0
CLASS
  1
LWPOLYLINE
  2
AcDbPolyline
  3
AutoCAD 2000
 90
        0
280
     0
281
     1
  0
CLASS
  1
HATCH
  2
AcDbHatch
  3
AutoCAD 2000
 90
        0
280
     0
281
     1
  0
CLASS
  1
XRECORD
  2
AcDbXrecord
  3
AutoCAD 2000
 90
        0
280
     0
281
     0
  0
CLASS
  1
LONG_TRANSACTION
  2
AcDbLongTransaction
  3
AutoCAD 2000
 90
        0
280
     0
281
     0
  0
CLASS
  1
LWPOLYLINE
  2
AcDbPolyline
  3
AutoCAD 2000
 90
        0
280
     0
281
     1
  0
CLASS
  1
HATCH
  2
AcDbHatch
  3
AutoCAD 2000
 90
        0
280
     0
281
     1
  0
CLASS
  1
XRECORD
  2
AcDbXrecord
  3
AutoCAD 2000
 90
        0
280
     0
281
     0
  0
CLASS
  1
LONG_TRANSACTION
  2
AcDbLongTransaction
  3
AutoCAD 2000
 90
        0
280
     0
281
     0
  0
CLASS
  1
LWPOLYLINE
  2
AcDbPolyline
  3
AutoCAD 2000
 90
        0
280
     0
281
     1
  0
CLASS
  1
HATCH
  2
AcDbHatch
  3
AutoCAD 2000
 90
        0
280
     0
281
     1
  0
CLASS
  1
XRECORD
  2
AcDbXrecord
  3
AutoCAD 2000
 90
        0
280
     0
281
     0
  0
CLASS
  1
LONG_TRANSACTION
  2
AcDbLongTransaction
  3
AutoCAD 2000
 90
        0
280
     0
281
     0
  0
CLASS
  1
LWPOLYLINE
  2
AcDbPolyline
  3
AutoCAD 2000
 90
        0
280
     0
281
     1
  0
CLASS
  1
HATCH
  2
AcDbHatch
  3
AutoCAD 2000
 90
        0
280
     0
281
     1
  0
CLASS
  1
XRECORD
  2
AcDbXrecord
  3
AutoCAD 2000
 90
        0
280
     0
281
     0
  0
CLASS
  1
LONG_TRANSACTION
  2
AcDbLongTransaction
  3
AutoCAD 2000
 90
        0
280
     0
281
     0
  0
CLASS
  1
LWPOLYLINE
  2
AcDbPolyline
  3
AutoCAD 2000
 90
        0
280
     0
281
     1
  0
CLASS
  1
HATCH
  2
AcDbHatch
  3
AutoCAD 2000
 90
        0
280
     0
281
     1
  0
CLASS
  1
XRECORD
  2
AcDbXrecord
  3
AutoCAD 2000
 90
        0
280
     0
281
     0
  0
CLASS
  1
LONG_TRANSACTION
  2
AcDbLongTransaction
  3
AutoCAD 2000
 90
        0
280
     0
281
     0
  0
CLASS
  1
LWPOLYLINE
  2
AcDbPolyline
  3
AutoCAD 2000
 90
        0
280
     0
281
     1
  0
CLASS
  1
HATCH
  2
AcDbHatch
  3
AutoCAD 2000
 90
        0
280
     0
281
     1
  0
CLASS
  1
XRECORD
  2
AcDbXrecord
  3
AutoCAD 2000
 90
        0
280
     0
281
     0
  0
CLASS
  1
LONG_TRANSACTION
  2
AcDbLongTransaction
  3
AutoCAD 2000
 90
        0
280
     0
281
     0
  0
CLASS
  1
LWPOLYLINE
  2
AcDbPolyline
  3
AutoCAD 2000
 90
        0
280
     0
281
     1
  0
CLASS
  1
HATCH
  2
AcDbHatch
  3
AutoCAD 2000
 90
        0
280
     0
281
     1
  0
CLASS
  1
XRECORD
  2
AcDbXrecord
  3
AutoCAD 2000
 90
        0
280
     0
281
     0
  0
CLASS
  1
LONG_TRANSACTION
  2
AcDbLongTransaction
  3
AutoCAD 2000
 90
        0
280
     0
281
     0
  0
CLASS
  1
LWPOLYLINE
  2
AcDbPolyline
  3
AutoCAD 2000
 90
        0
280
     0
281
     1
  0
CLASS
  1
HATCH
  2
AcDbHatch
  3
AutoCAD 2000
 90
        0
280
     0
281
     1
  0
CLASS
  1
XRECORD
  2
AcDbXrecord
  3
AutoCAD 2000
 90
        0
280
     0
281
     0
  0
CLASS
  1
LONG_TRANSACTION
  2
AcDbLongTransaction
  3
AutoCAD 2000
 90
        0
280
     0
281
     0
  0
CLASS
  1
LWPOLYLINE
  2
AcDbPolyline
  3
AutoCAD 2000
 90
        0
280
     0
281
     1
  0
CLASS
  1
HATCH
  2
AcDbHatch
  3
AutoCAD 2000
 90
        0
280
     0
281
     1
  0
CLASS
  1
XRECORD
  2
AcDbXrecord
  3
AutoCAD 2000
 90
        0
280
     0
281
     0
  0
CLASS
  1
LONG_TRANSACTION
  2
AcDbLongTransaction
  3
AutoCAD 2000
 90
        0
280
     0
281
     0
  0
CLASS
  1
LWPOLYLINE
  2
AcDbPolyline
  3
AutoCAD 2000
 90
        0
280
     0
281
     1
  0
CLASS
  1
HATCH
  2
AcDbHatch
  3
AutoCAD 2000
 90
        0
280
     0
281
     1
  0
CLASS
  1
XRECORD
  2
AcDbXrecord
  3
AutoCAD 2000
 90
        0
280
     0
281
     0
  0
CLASS
  1
LONG_TRANSACTION
  2
AcDbLongTransaction
  3
AutoCAD 2000
 90
        0
280
     0
281
     0
  0
CLASS
  1
LWPOLYLINE
  2
AcDbPolyline
  3
AutoCAD 2000
 90
        0
280
     0
281
     1
  0
CLASS
  1
HATCH
  2
AcDbHatch
  3
AutoCAD 2000
 90
        0
280
     0
281
     1
  0
CLASS
  1
XRECORD
  2
AcDbXrecord
  3
AutoCAD 2000
 90
        0
280
     0
281
     0
  0
CLASS
  1
LONG_TRANSACTION
  2
AcDbLongTransaction
  3
AutoCAD 2000
 90
        0
280
     0
281
     0
  0
CLASS
  1
LWPOLYLINE
  2
AcDbPolyline
  3
AutoCAD 2000
 90
        0
280
     0
281
     1
  0
CLASS
  1
HATCH
  2
AcDbHatch
  3
AutoCAD 2000
 90
        0
280
     0
281
     1
  0
CLASS
  1
XRECORD
  2
AcDbXrecord
  3
AutoCAD 2000
 90
        0
280
     0
281
     0
  0
CLASS
  1
LONG_TRANSACTION
  2
AcDbLongTransaction
  3
AutoCAD 2000
 90
        0
280
     0
281
     0
  0
CLASS
  1
LWPOLYLINE
  2
AcDbPolyline
  3
AutoCAD 2000
 90
        0
280
     0
281
     1
  0
CLASS
  1
HATCH
  2
AcDbHatch
  3
AutoCAD 2000
 90
        0
280
     0
281
     1
  0
CLASS
  1
XRECORD
  2
AcDbXrecord
  3
AutoCAD 2000
 90
        0
280
     0
281
     0
  0
CLASS
  1
LONG_TRANSACTION
  2
AcDbLongTransaction
  3
AutoCAD 2000
 90
        0
280
     0
281
     0
  0
CLASS
  1
LWPOLYLINE
  2
AcDbPolyline
  3
AutoCAD 2000
 90
        0
280
     0
281
     1
  0
CLASS
  1
HATCH
  2
AcDbHatch
  3
AutoCAD 2000
 90
        0
280
     0
281
     1
  0
CLASS
  1
XRECORD
  2
AcDbXrecord
  3
AutoCAD 2000
 90
        0
280
     0
281
     0
  0
CLASS
  1
LONG_TRANSACTION
  2
AcDbLongTransaction
  3
AutoCAD 2000
 90
        0
280
     0
281
     0
  0
CLASS
  1
LWPOLYLINE
  2
AcDbPolyline
  3
AutoCAD 2000
 90
        0
280
     0
281
     1
  0
CLASS
  1
HATCH
  2
AcDbHatch
  3
AutoCAD 2000
 90
        0
280
     0
281
     1
  0
CLASS
  1
XRECORD
  2
AcDbXrecord
  3
AutoCAD 2000
 90
        0
280
     0
281
     0
  0
CLASS
  1
LONG_TRANSACTION
  2
AcDbLongTransaction
  3
AutoCAD 2000
 90
        0
280
     0
281
     0
  0
CLASS
  1
LWPOLYLINE
  2
AcDbPolyline
  3
AutoCAD 2000
 90
        0
280
     0
281
     1
  0
CLASS
  1
HATCH
  2
AcDbHatch
  3
AutoCAD 2000
 90
        0
280
     0
281
     1
  0
CLASS
  1
XRECORD
  2
AcDbXrecord
  3
AutoCAD 2000
 90
        0
280
     0
281
     0
  0
CLASS
  1
LONG_TRANSACTION
  2
AcDbLongTransaction
  3
AutoCAD 2000
 90
        0
280
     0
281
     0
  0
CLASS
  1
LWPOLYLINE
  2
AcDbPolyline
  3
AutoCAD 2000
 90
        0
280
     0
281
     1
  0
CLASS
  1
HATCH
  2
AcDbHatch
  3
AutoCAD 2000
 90
        0
280
     0
281
     1
  0
CLASS
  1
XRECORD
  2
AcDbXrecord
  3
AutoCAD 2000
 90
        0
280
     0
281
     0
  0
CLASS
  1
LONG_TRANSACTION
  2
AcDbLongTransaction
  3
AutoCAD 2000
 90
        0
280
     0
281
     0
  0
CLASS
  1
LWPOLYLINE
  2
AcDbPolyline
  3
AutoCAD 2000
 90
        0
280
     0
281
     1
  0
CLASS
  1
HATCH
  2
AcDbHatch
  3
AutoCAD 2000
 90
        0
280
     0
281
     1
  0
CLASS
  1
XRECORD
  2
AcDbXrecord
  3
AutoCAD 2000
 90
        0
280
     0
281
     0
  0
CLASS
  1
LONG_TRANSACTION
  2
AcDbLongTransaction
  3
AutoCAD 2000
 90
        0
280
     0
281
     0
  0
CLASS
  1
LWPOLYLINE
  2
AcDbPolyline
  3
AutoCAD 2000
 90
        0
280
     0
281
     1
  0
CLASS
  1
HATCH
  2
AcDbHatch
  3
AutoCAD 2000
 90
        0
280
     0
281
     1
  0
CLASS
  1
XRECORD
  2
AcDbXrecord
  3
AutoCAD 2000
 90
        0
280
     0
281
     0
  0
CLASS
  1
LONG_TRANSACTION
  2
AcDbLongTransaction
  3
AutoCAD 2000
 90
        0
280
     0
281
     0
  0
CLASS
  1
LWPOLYLINE
  2
AcDbPolyline
  3
AutoCAD 2000
 90
        0
280
     0
281
     1
  0
CLASS
  1
HATCH
  2
AcDbHatch
  3
AutoCAD 2000
 90
        0
280
     0
281
     1
  0
CLASS
  1
XRECORD
  2
AcDbXrecord
  3
AutoCAD 2000
 90
        0
280
     0
281
     0
  0
CLASS
  1
LONG_TRANSACTION
  2
AcDbLongTransaction
  3
AutoCAD 2000
 90
        0
280
     0
281
     0
  0
CLASS
  1
LWPOLYLINE
  2
AcDbPolyline
  3
AutoCAD 2000
 90
        0
280
     0
281
     1
  0
CLASS
  1
HATCH
  2
AcDbHatch
  3
AutoCAD 2000
 90
        0
280
     0
281
     1
  0
CLASS
  1
XRECORD
  2
AcDbXrecord
  3
AutoCAD 2000
 90
        0
280
     0
281
     0
  0
CLASS
  1
LONG_TRANSACTION
  2
AcDbLongTransaction
  3
AutoCAD 2000
 90
        0
280
     0
281
     0
  0
CLASS
  1
LWPOLYLINE
  2
AcDbPolyline
  3
AutoCAD 2000
 90
        0
280
     0
281
     1
  0
CLASS
  1
HATCH
  2
AcDbHatch
  3
AutoCAD 2000
 90
        0
280
     0
281
     1
  0
CLASS
  1
XRECORD
  2
AcDbXrecord
  3
AutoCAD 2000
 90
        0
280
     0
281
     0
  0
CLASS
  1
LONG_TRANSACTION
  2
AcDbLongTransaction
  3
AutoCAD 2000
 90
        0
280
     0
281
     0
  0
CLASS
  1
LWPOLYLINE
  2
AcDbPolyline
  3
AutoCAD 2000
 90
        0
280
     0
281
     1
  0
CLASS
  1
HATCH
  2
AcDbHatch
  3
AutoCAD 2000
 90
        0
280
     0
281
     1
  0
CLASS
  1
XRECORD
  2
AcDbXrecord
  3
AutoCAD 2000
 90
        0
280
     0
281
     0
  0
CLASS
  1
LONG_TRANSACTION
  2
AcDbLongTransaction
  3
AutoCAD 2000
 90
        0
280
     0
281
     0
  0
CLASS
  1
LWPOLYLINE
  2
AcDbPolyline
  3
AutoCAD 2000
 90
        0
280
     0
281
     1
  0
CLASS
  1
HATCH
  2
AcDbHatch
  3
AutoCAD 2000
 90
        0
280
     0
281
     1
  0
CLASS
  1
XRECORD
  2
AcDbXrecord
  3
AutoCAD 2000
 90
        0
280
     0
281
     0
  0
CLASS
  1
LONG_TRANSACTION
  2
AcDbLongTransaction
  3
AutoCAD 2000
 90
        0
280
     0
281
     0
  0
CLASS
  1
LWPOLYLINE
  2
AcDbPolyline
  3
AutoCAD 2000
 90
        0
280
     0
281
     1
  0
CLASS
  1
HATCH
  2
AcDbHatch
  3
AutoCAD 2000
 90
        0
280
     0
281
     1
  0
CLASS
  1
XRECORD
  2
AcDbXrecord
  3
AutoCAD 2000
 90
        0
280
     0
281
     0
  0
CLASS
  1
LONG_TRANSACTION
  2
AcDbLongTransaction
  3
AutoCAD 2000
 90
        0
280
     0
281
     0
  0
CLASS
  1
LWPOLYLINE
  2
AcDbPolyline
  3
AutoCAD 2000
 90
        0
280
     0
281
     1
  0
CLASS
  1
HATCH
  2
AcDbHatch
  3
AutoCAD 2000
 90
        0
280
     0
281
     1
  0
CLASS
  1
XRECORD
  2
AcDbXrecord
  3
AutoCAD 2000
 90
        0
280
     0
281
     0
  0
CLASS
  1
LONG_TRANSACTION
  2
AcDbLongTransaction
  3
AutoCAD 2000
 90
        0
280
     0
281
     0
  0
CLASS
  1
LWPOLYLINE
  2
AcDbPolyline
  3
AutoCAD 2000
 90
        0
280
     0
281
     1
  0
CLASS
  1
HATCH
  2
AcDbHatch
  3
AutoCAD 2000
 90
        0
280
     0
281
     1
  0
CLASS
  1
XRECORD
  2
AcDbXrecord
  3
AutoCAD 2000
 90
        0
280
     0
281
     0
  0
CLASS
  1
LONG_TRANSACTION
  2
AcDbLongTransaction
  3
AutoCAD 2000
 90
        0
280
     0
281
     0
  0
CLASS
  1
LWPOLYLINE
  2
AcDbPolyline
  3
AutoCAD 2000
 90
        0
280
     0
281
     1
  0
CLASS
  1
HATCH
  2
AcDbHatch
  3
AutoCAD 2000
 90
        0
280
     0
281
     1
  0
CLASS
  1
XRECORD
  2
AcDbXrecord
  3
AutoCAD 2000
 90
        0
280
     0
281
     0
  0
CLASS
  1
LONG_TRANSACTION
  2
AcDbLongTransaction
  3
AutoCAD 2000
 90
        0
280
     0
281
     0
  0
CLASS
  1
LWPOLYLINE
  2
AcDbPolyline
  3
AutoCAD 2000
 90
        0
280
     0
281
     1
  0
CLASS
  1
HATCH
  2
AcDbHatch
  3
AutoCAD 2000
 90
        0
280
     0
281
     1
  0
CLASS
  1
XRECORD
  2
AcDbXrecord
  3
AutoCAD 2000
 90
        0
280
     0
281
     0
  0
CLASS
  1
LONG_TRANSACTION
  2
AcDbLongTransaction
  3
AutoCAD 2000
 90
        0
280
     0
281
     0
  0
CLASS
  1
LWPOLYLINE
  2
AcDbPolyline
  3
AutoCAD 2000
 90
        0
280
     0
281
     1
  0
CLASS
  1
HATCH
  2
AcDbHatch
  3
AutoCAD 2000
 90
        0
280
     0
281
     1
  0
CLASS
  1
XRECORD
  2
AcDbXrecord
  3
AutoCAD 2000
 90
        0
280
     0
281
     0
  0
CLASS
  1
LONG_TRANSACTION
  2
AcDbLongTransaction
  3
AutoCAD 2000
 90
        0
280
     0
281
     0
  0
CLASS
  1
LWPOLYLINE
  2
AcDbPolyline
  3
AutoCAD 2000
 90
        0
280
     0
281
     1
  0
CLASS
  1
HATCH
  2
AcDbHatch
  3
AutoCAD 2000
 90
        0
280
     0
281
     1
  0
CLASS
  1
XRECORD
  2
AcDbXrecord
  3
AutoCAD 2000
 90
        0
280
     0
281
     0
  0
CLASS
  1
LONG_TRANSACTION
  2
AcDbLongTransaction
  3
AutoCAD 2000
 90
        0
280
     0
281
     0
  0
CLASS
  1
LWPOLYLINE
  2
AcDbPolyline
  3
AutoCAD 2000
 90
        0
280
     0
281
     1
  0
CLASS
  1
HATCH
  2
AcDbHatch
  3
AutoCAD 2000
 90
        0
280
     0
281
     1
  0
CLASS
  1
XRECORD
  2
AcDbXrecord
  3
AutoCAD 2000
 90
        0
280
     0
281
     0
  0
CLASS
  1
LONG_TRANSACTION
  2
AcDbLongTransaction
  3
AutoCAD 2000
 90
        0
280
     0
281
     0
  0
CLASS
  1
LWPOLYLINE
  2
AcDbPolyline
  3
AutoCAD 2000
 90
        0
280
     0
281
     1
  0
CLASS
  1
HATCH
  2
AcDbHatch
  3
AutoCAD 2000
 90
        0
280
     0
281
     1
  0
CLASS
  1
XRECORD
  2
AcDbXrecord
  3
AutoCAD 2000
 90
        0
280
     0
281
     0
  0
CLASS
  1
LONG_TRANSACTION
  2
AcDbLongTransaction
  3
AutoCAD 2000
 90
        0
280
     0
281
     0
  0
CLASS
  1
LWPOLYLINE
  2
AcDbPolyline
  3
AutoCAD 2000
 90
        0
280
     0
281
     1
  0
CLASS
  1
HATCH
  2
AcDbHatch
  3
AutoCAD 2000
 90
        0
280
     0
281
     1
  0
CLASS
  1
XRECORD
  2
AcDbXrecord
  3
AutoCAD 2000
 90
        0
280
     0
281
     0
  0
CLASS
  1
LONG_TRANSACTION
  2
AcDbLongTransaction
  3
AutoCAD 2000
 90
        0
280
     0
281
     0
  0
CLASS
  1
LWPOLYLINE
  2
AcDbPolyline
  3
AutoCAD 2000
 90
        0
280
     0
281
     1
  0
CLASS
  1
HATCH
  2
AcDbHatch
  3
AutoCAD 2000
 90
        0
280
     0
281
     1
  0
CLASS
  1
XRECORD
  2
AcDbXrecord
  3
AutoCAD 2000
 90
        0
280
     0
281
     0
  0
CLASS
  1
LONG_TRANSACTION
  2
AcDbLongTransaction
  3
AutoCAD 2000
 90
        0
280
     0
281
     0
  0
CLASS
  1
LWPOLYLINE
  2
AcDbPolyline
  3
AutoCAD 2000
 90
        0
280
     0
281
     1
  0
CLASS
  1
HATCH
  2
AcDbHatch
  3
AutoCAD 2000
 90
        0
280
     0
281
     1
  0
CLASS
  1
XRECORD
  2
AcDbXrecord
  3
AutoCAD 2000
 90
        0
280
     0
281
     0
  0
CLASS
  1
LONG_TRANSACTION
  2
AcDbLongTransaction
  3
AutoCAD 2000
 90
        0
280
     0
281
     0
  0
CLASS
  1
LWPOLYLINE
  2
AcDbPolyline
  3
AutoCAD 2000
 90
        0
280
     0
281
     1
  0
CLASS
  1
HATCH
  2
AcDbHatch
  3
AutoCAD 2000
 90
        0
280
     0
281
     1
  0
CLASS
  1
XRECORD
  2
AcDbXrecord
  3
AutoCAD 2000
 90
        0
280
     0
281
     0
  0
CLASS
  1
LONG_TRANSACTION
  2
AcDbLongTransaction
  3
AutoCAD 2000
 90
        0
280
     0
281
     0
  0
CLASS
  1
LWPOLYLINE
  2
AcDbPolyline
  3
AutoCAD 2000
 90
        0
280
     0
281
     1
  0
CLASS
  1
HATCH
  2
AcDbHatch
  3
AutoCAD 2000
 90
        0
280
     0
281
     1
  0
CLASS
  1
XRECORD
  2
AcDbXrecord
  3
AutoCAD 2000
 90
        0
280
     0
281
     0
  0
CLASS
  1
LONG_TRANSACTION
  2
AcDbLongTransaction
  3
AutoCAD 2000
 90
        0
280
     0
281
     0
  0
CLASS
  1
LWPOLYLINE
  2
AcDbPolyline
  3
AutoCAD 2000
 90
        0
280
     0
281
     1
  0
CLASS
  1
HATCH
  2
AcDbHatch
  3
AutoCAD 2000
 90
        0
280
     0
281
     1
  0
CLASS
  1
XRECORD
  2
AcDbXrecord
  3
AutoCAD 2000
 90
        0
280
     0
281
     0
  0
CLASS
  1
LONG_TRANSACTION
  2
AcDbLongTransaction
  3
AutoCAD 2000
 90
        0
280
     0
281
     0
  0
CLASS
  1
LWPOLYLINE
  2
AcDbPolyline
  3
AutoCAD 2000
 90
        0
280
     0
281
     1
  0
CLASS
  1
HATCH
  2
AcDbHatch
  3
AutoCAD 2000
 90
        0
280
     0
281
     1
  0
CLASS
  1
XRECORD
  2
AcDbXrecord
  3
AutoCAD 2000
 90
        0
280
     0
281
     0
  0
CLASS
  1
LONG_TRANSACTION
  2
AcDbLongTransaction
  3
AutoCAD 2000
 90
        0
280
     0
281
     0
  0
CLASS
  1
LWPOLYLINE
  2
AcDbPolyline
  3
AutoCAD 2000
 90
        0
280
     0
281
     1
  0
CLASS
  1
HATCH
  2
AcDbHatch
  3
AutoCAD 2000
 90
        0
280
     0
281
     1
  0
CLASS
  1
XRECORD
  2
AcDbXrecord
  3
AutoCAD 2000
 90
        0
280
     0
281
     0
  0
ENDSEC
  0
SECTION
  2
TABLES
  0
TABLE
  2
VPORT
  5
90
330
0
100
AcDbSymbolTable
 70
     2
  0
VPORT
  5
3DA
330
90
100
AcDbSymbolTableRecord
100
AcDbViewportTableRecord
  2
*ACTIVE
 70
     0
 10
0.0
 20
0.0
 11
1.0
 21
1.0
 12
209.8456323651116
 22
178.3590019820876
 13
0.0
 23
0.0
 14
10.0
 24
10.0
 15
10.0
 25
10.0
 16
0.0
 26
0.0
 36
1.0
 17
0.0
 27
0.0
 37
0.0
 40
365.6872712967579
 41
1.549367088607595
 42
50.0
 43
0.0
 44
0.0
 50
0.0
 51
0.0
 71
     0
 72
 10000
 73
     1
 74
     3
 75
     0
 76
     0
 77
     0
 78
     1
  0
ENDTAB
  0
TABLE
  2
LTYPE
  5
8B
330
0
100
AcDbSymbolTable
 70
     3
  0
LTYPE
  5
8C
330
8B
100
AcDbSymbolTableRecord
100
AcDbLinetypeTableRecord
  2
BYBLOCK
 70
     0
  3

 72
    65
 73
     0
 40
0.0
  0
LTYPE
  5
8D
330
8B
100
AcDbSymbolTableRecord
100
AcDbLinetypeTableRecord
  2
BYLAYER
 70
     0
  3

 72
    65
 73
     0
 40
0.0
  0
LTYPE
  5
9
330
8B
100
AcDbSymbolTableRecord
100
AcDbLinetypeTableRecord
  2
CONTINUOUS
 70
     0
  3
Solid line
 72
    65
 73
     0
 40
0.0
  0
LTYPE
  5
D9
330
8B
100
AcDbSymbolTableRecord
100
AcDbLinetypeTableRecord
  2
CENTER
 70
     0
  3
Center ____ _ ____ _ ____ _ ____ _ ____ _ ____
 72
    65
 73
     4
 40
50.8
 49
31.75
 74
     0
 49
-6.349999999999998
 74
     0
 49
6.349999999999998
 74
     0
 49
-6.349999999999998
 74
     0
  0
LTYPE
  5
11B
330
8B
100
AcDbSymbolTableRecord
100
AcDbLinetypeTableRecord
  2
CENTERX2
 70
     0
  3
Center (2x) ________  __  ________  __  _____
 72
    65
 73
     4
 40
101.6
 49
63.5
 74
     0
 49
-12.7
 74
     0
 49
12.7
 74
     0
 49
-12.7
 74
     0
  0
ENDTAB
  0
TABLE
  2
LAYER
  5
12
102
{ACAD_XDICTIONARY
360
13
102
}
330
0
100
AcDbSymbolTable
 70
     7
  0
LAYER
  5
5
330
12
100
AcDbSymbolTableRecord
100
AcDbLayerTableRecord
  2
0
 70
     0
 62
     7
  6
CONTINUOUS
  0
LAYER
  5
205
330
12
100
AcDbSymbolTableRecord
100
AcDbLayerTableRecord
  2
3
 70
     0
 62
     3
  6
CONTINUOUS
  0
LAYER
  5
AC
330
12
100
AcDbSymbolTableRecord
100
AcDbLayerTableRecord
  2
DEFPOINTS
 70
     0
 62
     7
  6
CONTINUOUS
  0
LAYER
  5
9D
330
12
100
AcDbSymbolTableRecord
100
AcDbLayerTableRecord
  2
DIM
 70
     0
 62
     3
  6
CONTINUOUS
  0
LAYER
  5
11A
330
12
100
AcDbSymbolTableRecord
100
AcDbLayerTableRecord
  2
CL
 70
     0
 62
     1
  6
CENTERX2
  0
LAYER
  5
D8
330
12
100
AcDbSymbolTableRecord
100
AcDbLayerTableRecord
  2
CEN
 70
     0
 62
     1
  6
CENTER
  0
LAYER
  5
22E
330
12
100
AcDbSymbolTableRecord
100
AcDbLayerTableRecord
  2
2
 70
     0
 62
     2
  6
CONTINUOUS
  0
ENDTAB
  0
TABLE
  2
STYLE
  5
88
330
0
100
AcDbSymbolTable
 70
     1
  0
STYLE
  5
89
330
88
100
AcDbSymbolTableRecord
100
AcDbTextStyleTableRecord
  2
STANDARD
 70
     0
 40
0.0
 41
1.0
 50
0.0
 71
     0
 42
5.777225951253058
  3
romans.shx
  4
whgtxt.shx
  0
ENDTAB
  0
TABLE
  2
VIEW
  5
8E
330
0
100
AcDbSymbolTable
 70
     0
  0
ENDTAB
  0
TABLE
  2
UCS
  5
8F
330
0
100
AcDbSymbolTable
 70
     0
  0
ENDTAB
  0
TABLE
  2
APPID
  5
92
330
0
100
AcDbSymbolTable
 70
     2
  0
APPID
  5
93
330
92
100
AcDbSymbolTableRecord
100
AcDbRegAppTableRecord
  2
ACAD
 70
     0
  0
APPID
  5
414
330
92
100
AcDbSymbolTableRecord
100
AcDbRegAppTableRecord
  2
CONTENTBLOCKICON
 70
     0
  0
ENDTAB
  0
TABLE
  2
DIMSTYLE
  5
94
330
0
100
AcDbSymbolTable
 70
     2
  0
DIMSTYLE
105
A3
102
{ACAD_REACTORS
330
11D
330
293
330
DB
330
2CB
330
106
330
2B0
330
2A1
330
F7
330
1F7
330
C7
330
216
330
146
330
1E0
330
155
330
1D0
330
1BC
330
207
330
EA
330
B3
330
A2
102
}
330
94
100
AcDbSymbolTableRecord
100
AcDbDimStyleTableRecord
  2
STANDARD
 70
     0
  3

  4

  5

  6

  7

 40
1.0
 41
2.5
 42
1.0
 43
10.0
 44
0.6
 45
0.0
 46
0.0
 47
0.0
 48
0.0
140
3.0
141
0.09
142
0.0
143
25.4
144
1.0
145
0.0
146
1.0
147
1.0
 71
     0
 72
     0
 73
     0
 74
     0
 75
     0
 76
     0
 77
     1
 78
     8
170
     0
171
     2
172
     1
173
     0
174
     1
175
     0
176
   123
177
   123
178
     3
270
     2
271
     2
272
     2
273
     2
274
     2
340
89
275
     1
280
     0
281
     0
282
     0
283
     1
284
     0
285
     0
286
     0
287
     0
288
     1
  0
DIMSTYLE
105
95
330
94
100
AcDbSymbolTableRecord
100
AcDbDimStyleTableRecord
  2
1_1_2
 70
     0
  3

  4

  5

  6

  7

 40
1.0
 41
3.0
 42
1.0
 43
10.0
 44
0.6
 45
0.0
 46
0.0
 47
0.0
 48
0.0
140
3.5
141
0.09
142
0.0
143
25.4
144
1.0
145
0.0
146
1.0
147
1.0
 71
     0
 72
     0
 73
     0
 74
     0
 75
     0
 76
     0
 77
     1
 78
     8
170
     0
171
     2
172
     1
173
     0
174
     1
175
     0
176
   123
177
   123
178
     3
270
     2
271
     2
272
     2
273
     2
274
     2
340
89
275
     1
280
     0
281
     0
282
     0
283
     1
284
     0
285
     0
286
     0
287
     0
288
     1
  0
ENDTAB
  0
TABLE
  2
BLOCK_RECORD
  5
1
330
0
100
AcDbSymbolTable
 70
    40
  0
BLOCK_RECORD
  5
2
102
{ACAD_XDICTIONARY
360
3
102
}
330
1
100
AcDbSymbolTableRecord
100
AcDbBlockTableRecord
  2
*MODEL_SPACE
  0
BLOCK_RECORD
  5
D
102
{ACAD_XDICTIONARY
360
E
102
}
330
1
100
AcDbSymbolTableRecord
100
AcDbBlockTableRecord
  2
*PAPER_SPACE
  0
BLOCK_RECORD
  5
120
330
1
100
AcDbSymbolTableRecord
100
AcDbBlockTableRecord
  2
*D0
  0
BLOCK_RECORD
  5
116
330
1
100
AcDbSymbolTableRecord
100
AcDbBlockTableRecord
  2
4
1001
ACAD
1000
DesignCenter Data
1002
{
1070
     1
1070
     4
1002
}
1001
CONTENTBLOCKICON
1071
        0
1004
2800000020000000200000000100080000000000000400000000000000000000000000000000000000000000000080000080000000808000800000008000800080800000C0C0C000C0DCC000F0CAA6000020400000206000002080000020A0000020C0000020E00000400000004020000040400000406000004080000040A0
1004
000040C0000040E00000600000006020000060400000606000006080000060A0000060C0000060E00000800000008020000080400000806000008080000080A0000080C0000080E00000A0000000A0200000A0400000A0600000A0800000A0A00000A0C00000A0E00000C0000000C0200000C0400000C0600000C0800000C0
1004
A00000C0C00000C0E00000E0000000E0200000E0400000E0600000E0800000E0A00000E0C00000E0E00040000000400020004000400040006000400080004000A0004000C0004000E00040200000402020004020400040206000402080004020A0004020C0004020E000404000004040200040404000404060004040800040
1004
40A0004040C0004040E00040600000406020004060400040606000406080004060A0004060C0004060E00040800000408020004080400040806000408080004080A0004080C0004080E00040A0000040A0200040A0400040A0600040A0800040A0A00040A0C00040A0E00040C0000040C0200040C0400040C0600040C08000
1004
40C0A00040C0C00040C0E00040E0000040E0200040E0400040E0600040E0800040E0A00040E0C00040E0E00080000000800020008000400080006000800080008000A0008000C0008000E00080200000802020008020400080206000802080008020A0008020C0008020E00080400000804020008040400080406000804080
1004
008040A0008040C0008040E00080600000806020008060400080606000806080008060A0008060C0008060E00080800000808020008080400080806000808080008080A0008080C0008080E00080A0000080A0200080A0400080A0600080A0800080A0A00080A0C00080A0E00080C0000080C0200080C0400080C0600080C0
1004
800080C0A00080C0C00080C0E00080E0000080E0200080E0400080E0600080E0800080E0A00080E0C00080E0E000C0000000C0002000C0004000C0006000C0008000C000A000C000C000C000E000C0200000C0202000C0204000C0206000C0208000C020A000C020C000C020E000C0400000C0402000C0404000C0406000C0
1004
408000C040A000C040C000C040E000C0600000C0602000C0604000C0606000C0608000C060A000C060C000C060E000C0800000C0802000C0804000C0806000C0808000C080A000C080C000C080E000C0A00000C0A02000C0A04000C0A06000C0A08000C0A0A000C0A0C000C0A0E000C0C00000C0C02000C0C04000C0C06000
1004
C0C08000C0C0A000F0FBFF00A4A0A000808080000000FF0000FF000000FFFF00FF000000FF00FF00FFFF0000FFFFFF0000000000000000000000000000000000000000000000000000000000000000000000000000000000000000000000000000000000000000000000000000000000000000000000000000000000000000
1004
0000000000000000000000000000000000000000FFFFFFFFFFFFFFFFFFFFFFFFFFFFFFFFFFFFFFFFFF000000000000000000FFFFFF00F9000000000000000000000000000000F9FFF9FF0000000000000000FF00FFF90000000000000000000000000000000000FFFFFF0000000000000000F3F3F9F9000000000000000000
1004
00000000000000F9FFF9FF0000000000000000FFF9000000000000000000000000000000000000000000FF0000000000000000FF00F3F300000000000000000000000000000000000000FF0000000000000000FF000000F3000000000000000000000000000000000000FF0000000000000000FF00000000F3000000000000
1004
0000000000000000000000FF0000000000000000FF0000000000F3F3000000000000000000000000000000FF0000000000000000FF00000000000000F30000000000000000000000000000FF0000000000000000FF0000000000000000F3F3000000000000000000000000FF0000000000000000FF00000000000000000000
1004
F30000000000000000000000FF0000000000000000FF0000000000000000000000F300000000000000000000FF0000000000000000FF000000000000000000000000F3F30000000000000000FF0000000000000000FF0000000000000000000000000000F300000000000000FF0000000000000000FF000000000000000000
1004
000000000000F3F30000000000FF0000000000000000FF0000000000000000000000000000000000F300000000FF0000000000000000FF000000000000000000000000000000000000F3000000FF0000000000000000FF00000000000000000000000000000000000000F3F300FF0000000000000000FF0000000000000000
1004
00000000000000000000000000FFFF0000000000000000FF00FFF900000000000000000000000000000000F9F900F30000000000000000FF00FFFF00000000000000000000000000000000F9F9FFFFFAF300000000000000FFF900F90000000000000000000000000000F90000F9FFFAFAF300000000000000FFFFFFFFFFFF
1004
FFFFFFFFFFFFFFFFFFFFFFFFFFFFFF0000FAFAFAF30000000000000000000000000000000000000000000000000000000000FAFAFAF30000000000000000000000000000000000000000000000000000000000FAFA000000000000000000000000000000000000000000000000000000000000000000000000000000000000
1004
0000000000000000000000000000000000000000000000000000000000000000000000000000000000000000000000000000000000000000
  0
BLOCK_RECORD
  5
294
330
1
100
AcDbSymbolTableRecord
100
AcDbBlockTableRecord
  2
*D2
  0
BLOCK_RECORD
  5
DC
330
1
100
AcDbSymbolTableRecord
100
AcDbBlockTableRecord
  2
*D3
  0
BLOCK_RECORD
  5
2CC
330
1
100
AcDbSymbolTableRecord
100
AcDbBlockTableRecord
  2
*D4
  0
BLOCK_RECORD
  5
107
330
1
100
AcDbSymbolTableRecord
100
AcDbBlockTableRecord
  2
*D5
  0
BLOCK_RECORD
  5
2A2
330
1
100
AcDbSymbolTableRecord
100
AcDbBlockTableRecord
  2
*D6
  0
BLOCK_RECORD
  5
1F8
330
1
100
AcDbSymbolTableRecord
100
AcDbBlockTableRecord
  2
*D7
  0
BLOCK_RECORD
  5
C8
330
1
100
AcDbSymbolTableRecord
100
AcDbBlockTableRecord
  2
*D8
  0
BLOCK_RECORD
  5
217
330
1
100
AcDbSymbolTableRecord
100
AcDbBlockTableRecord
  2
*D9
  0
BLOCK_RECORD
  5
EB
330
1
100
AcDbSymbolTableRecord
100
AcDbBlockTableRecord
  2
*D10
  0
BLOCK_RECORD
  5
B4
330
1
100
AcDbSymbolTableRecord
100
AcDbBlockTableRecord
  2
*D11
  0
BLOCK_RECORD
  5
A4
330
1
100
AcDbSymbolTableRecord
100
AcDbBlockTableRecord
  2
*D12
  0
BLOCK_RECORD
  5
2B3
330
1
100
AcDbSymbolTableRecord
100
AcDbBlockTableRecord
  2
*D13
  0
BLOCK_RECORD
  5
FA
330
1
100
AcDbSymbolTableRecord
100
AcDbBlockTableRecord
  2
*D14
  0
BLOCK_RECORD
  5
149
330
1
100
AcDbSymbolTableRecord
100
AcDbBlockTableRecord
  2
*D15
  0
BLOCK_RECORD
  5
1E3
330
1
100
AcDbSymbolTableRecord
100
AcDbBlockTableRecord
  2
*D16
  0
BLOCK_RECORD
  5
158
330
1
100
AcDbSymbolTableRecord
100
AcDbBlockTableRecord
  2
*D17
  0
BLOCK_RECORD
  5
1D3
330
1
100
AcDbSymbolTableRecord
100
AcDbBlockTableRecord
  2
*D18
  0
BLOCK_RECORD
  5
1BF
330
1
100
AcDbSymbolTableRecord
100
AcDbBlockTableRecord
  2
*D19
  0
BLOCK_RECORD
  5
20A
330
1
100
AcDbSymbolTableRecord
100
AcDbBlockTableRecord
  2
*D20
  0
BLOCK_RECORD
  5
2E5
330
1
100
AcDbSymbolTableRecord
100
AcDbBlockTableRecord
  2
*D21
  0
BLOCK_RECORD
  5
2F1
330
1
100
AcDbSymbolTableRecord
100
AcDbBlockTableRecord
  2
*D22
  0
BLOCK_RECORD
  5
2FD
330
1
100
AcDbSymbolTableRecord
100
AcDbBlockTableRecord
  2
*D23
  0
BLOCK_RECORD
  5
309
330
1
100
AcDbSymbolTableRecord
100
AcDbBlockTableRecord
  2
*D24
  0
BLOCK_RECORD
  5
317
330
1
100
AcDbSymbolTableRecord
100
AcDbBlockTableRecord
  2
*D25
  0
BLOCK_RECORD
  5
323
330
1
100
AcDbSymbolTableRecord
100
AcDbBlockTableRecord
  2
*D26
  0
BLOCK_RECORD
  5
32F
330
1
100
AcDbSymbolTableRecord
100
AcDbBlockTableRecord
  2
*D27
  0
BLOCK_RECORD
  5
33B
330
1
100
AcDbSymbolTableRecord
100
AcDbBlockTableRecord
  2
*D28
  0
BLOCK_RECORD
  5
347
330
1
100
AcDbSymbolTableRecord
100
AcDbBlockTableRecord
  2
*D29
  0
BLOCK_RECORD
  5
355
330
1
100
AcDbSymbolTableRecord
100
AcDbBlockTableRecord
  2
*D30
  0
BLOCK_RECORD
  5
361
330
1
100
AcDbSymbolTableRecord
100
AcDbBlockTableRecord
  2
*D31
  0
BLOCK_RECORD
  5
36D
330
1
100
AcDbSymbolTableRecord
100
AcDbBlockTableRecord
  2
*D32
  0
BLOCK_RECORD
  5
379
330
1
100
AcDbSymbolTableRecord
100
AcDbBlockTableRecord
  2
*D33
  0
BLOCK_RECORD
  5
385
330
1
100
AcDbSymbolTableRecord
100
AcDbBlockTableRecord
  2
*D34
  0
BLOCK_RECORD
  5
393
330
1
100
AcDbSymbolTableRecord
100
AcDbBlockTableRecord
  2
*D35
  0
BLOCK_RECORD
  5
39F
330
1
100
AcDbSymbolTableRecord
100
AcDbBlockTableRecord
  2
*D36
  0
BLOCK_RECORD
  5
3AB
330
1
100
AcDbSymbolTableRecord
100
AcDbBlockTableRecord
  2
*D37
  0
BLOCK_RECORD
  5
3B7
330
1
100
AcDbSymbolTableRecord
100
AcDbBlockTableRecord
  2
*D38
  0
BLOCK_RECORD
  5
3C3
330
1
100
AcDbSymbolTableRecord
100
AcDbBlockTableRecord
  2
*D39
  0
ENDTAB
  0
ENDSEC
  0
SECTION
  2
BLOCKS
  0
BLOCK
  5
4
330
2
100
AcDbEntity
  8
0
100
AcDbBlockBegin
  2
*MODEL_SPACE
 70
     0
 10
0.0
 20
0.0
 30
0.0
  3
*MODEL_SPACE
  1

  0
ENDBLK
  5
A
330
2
100
AcDbEntity
  8
0
100
AcDbBlockEnd
  0
BLOCK
  5
F
330
D
100
AcDbEntity
 67
     1
  8
0
100
AcDbBlockBegin
  2
*PAPER_SPACE
 70
     0
 10
0.0
 20
0.0
 30
0.0
  3
*PAPER_SPACE
  1

  0
ENDBLK
  5
10
330
D
100
AcDbEntity
 67
     1
  8
0
100
AcDbBlockEnd
  0
BLOCK
  5
129
330
120
100
AcDbEntity
  8
0
100
AcDbBlockBegin
  2
*D0
 70
     1
 10
0.0
 20
0.0
 30
0.0
  3
*D0
  1

  0
LINE
  5
121
330
120
100
AcDbEntity
  8
0
 62
   123
100
AcDbLine
 10
-474.0668181331803
 20
-2516.925402556208
 30
0.0
 11
-497.6135875546876
 21
-2534.857403328699
 31
0.0
  0
LINE
  5
122
330
120
100
AcDbEntity
  8
0
 62
   123
100
AcDbLine
 10
-584.3305466904876
 20
-2600.896550796242
 30
0.0
 11
-586.3194677715838
 21
-2602.411210141828
 31
0.0
  0
MTEXT
  5
123
330
120
100
AcDbEntity
  8
0
 62
     3
100
AcDbMText
 10
-484.8441670850144
 20
-2521.990466427412
 30
0.0
 40
3.0
 41
0.0
 71
     5
 72
     1
  1
\A1;\U+2205104%%P0.5
 11
0.7955684324385314
 21
0.6058637382343476
 31
0.0
1001
ACAD
1000
MTEXTBEGIN
1070
    73
1070
     1
1070
    44
1040
1.0
1070
    74
1070
     0
1000
MTEXTEND
  0
LINE
  5
124
330
120
100
AcDbEntity
  8
0
 62
   123
100
AcDbLine
 10
-582.3416256093914
 20
-2599.381891450657
 30
0.0
 11
-499.6025086357839
 21
-2536.372062674285
 31
0.0
  0
SOLID
  5
125
330
120
100
AcDbEntity
  8
0
 62
   123
100
AcDbTrace
 10
-584.5829899147519
 20
-2600.565063949392
 30
0.0
 11
-584.0781034662234
 21
-2601.228037643092
 31
0.0
 12
-582.3416256093914
 22
-2599.381891450657
 32
0.0
 13
-582.3416256093914
 23
-2599.381891450657
 33
0.0
  0
SOLID
  5
126
330
120
100
AcDbEntity
  8
0
 62
   123
100
AcDbTrace
 10
-497.8660307789517
 20
-2534.52591648185
 30
0.0
 11
-497.3611443304232
 21
-2535.188890175549
 31
0.0
 12
-499.6025086357839
 22
-2536.372062674285
 32
0.0
 13
-499.6025086357839
 23
-2536.372062674285
 33
0.0
  0
POINT
  5
127
330
120
100
AcDbEntity
  8
DEFPOINTS
 62
     0
100
AcDbPoint
 10
-499.6025086357839
 20
-2536.372062674285
 30
0.0
  0
POINT
  5
128
330
120
100
AcDbEntity
  8
DEFPOINTS
 62
     0
100
AcDbPoint
 10
-582.3416256093914
 20
-2599.381891450657
 30
0.0
  0
ENDBLK
  5
12A
330
120
100
AcDbEntity
  8
0
100
AcDbBlockEnd
  0
BLOCK
  5
134
330
116
100
AcDbEntity
  8
0
100
AcDbBlockBegin
  2
4
 70
     0
 10
0.0
 20
0.0
 30
0.0
  3
4
  1

  0
LWPOLYLINE
  5
117
330
116
100
AcDbEntity
  8
0
100
AcDbPolyline
 90
        8
 70
     1
 43
0.0
 10
-40.0
 20
-45.00000000000045
 10
40.0
 20
-45.0
 42
0.4142135623730951
 10
45.0
 20
-40.0
 10
45.0
 20
40.0
 42
0.4142135623730951
 10
40.0
 20
45.0
 10
-40.0
 20
45.0
 42
0.4142135623730951
 10
-45.0
 20
40.0
 10
-45.0
 20
-40.00000000000045
 42
0.4142135623730951
  0
CIRCLE
  5
118
330
116
100
AcDbEntity
  8
0
100
AcDbCircle
 10
36.76955262170071
 20
36.76955262170031
 30
0.0
 40
3.25
  0
LINE
  5
119
330
116
100
AcDbEntity
  8
CL
 48
0.6
100
AcDbLine
 10
33.05724202047111
 20
33.05724202047122
 30
0.0
 11
40.48186322293008
 21
40.48186322292986
 31
0.0
  0
ARC
  5
11C
102
{ACAD_REACTORS
330
11F
102
}
330
116
100
AcDbEntity
  8
CL
 48
0.6
100
AcDbCircle
 10
0.0
 20
0.0
 30
0.0
 40
51.9999999999996
100
AcDbArc
 50
35.90024337538245
 51
54.09975662462136
  0
DIMENSION
  5
11D
102
{ACAD_XDICTIONARY
360
11E
102
}
102
{ACAD_REACTORS
330
11F
102
}
330
116
100
AcDbEntity
  8
0
100
AcDbDimension
  2
*D0
 10
-41.36955848680371
 20
-31.50491438818607
 30
0.0
 11
57.64255938315909
 21
43.89758955396246
 31
0.0
 12
540.9720671225876
 22
2567.87697706247
 32
0.0
 70
   131
  1
<>%%P0.5
  3
STANDARD
100
AcDbDiametricDimension
 15
41.36955848680371
 25
31.50491438818607
 35
0.0
 40
0.0
1001
ACAD
1000
DSTYLE
1002
{
1070
   287
1070
     4
1070
   287
1070
     4
1070
   287
1070
     4
1070
   287
1070
     4
1070
   279
1070
     1
1070
   289
1070
     3
1002
}
  0
ARC
  5
12B
330
116
100
AcDbEntity
  8
CL
 48
0.6
100
AcDbCircle
 10
-0.0000000000002274
 20
0.0
 30
0.0
 40
52.0
100
AcDbArc
 50
129.2128702778055
 51
140.7871297221883
  0
LINE
  5
12C
330
116
100
AcDbEntity
  8
CL
 48
0.6
100
AcDbLine
 10
-33.05724202047122
 20
33.05724202047122
 30
0.0
 11
-40.48186322292986
 21
40.48186322293031
 31
0.0
  0
CIRCLE
  5
12D
330
116
100
AcDbEntity
  8
0
100
AcDbCircle
 10
-36.76955262170054
 20
36.76955262170077
 30
0.0
 40
3.25
  0
LINE
  5
12E
330
116
100
AcDbEntity
  8
CL
 48
0.6
100
AcDbLine
 10
-33.05724202047122
 20
-33.05724202047122
 30
0.0
 11
-40.48186322293008
 21
-40.48186322292986
 31
0.0
  0
CIRCLE
  5
12F
330
116
100
AcDbEntity
  8
0
100
AcDbCircle
 10
-36.76955262170077
 20
-36.76955262170031
 30
0.0
 40
3.25
  0
ARC
  5
130
330
116
100
AcDbEntity
  8
CL
 48
0.6
100
AcDbCircle
 10
0.0
 20
0.0
 30
0.0
 40
51.9999999999996
100
AcDbArc
 50
215.9002433753824
 51
234.0997566246214
  0
ARC
  5
131
330
116
100
AcDbEntity
  8
CL
 48
0.6
100
AcDbCircle
 10
0.0
 20
0.0000000000004547
 30
0.0
 40
52.0
100
AcDbArc
 50
309.2128702778056
 51
320.7871297221883
  0
LINE
  5
132
330
116
100
AcDbEntity
  8
CL
 48
0.6
100
AcDbLine
 10
33.05724202047076
 20
-33.05724202047122
 30
0.0
 11
40.48186322292941
 21
-40.48186322293031
 31
0.0
  0
CIRCLE
  5
133
330
116
100
AcDbEntity
  8
0
100
AcDbCircle
 10
36.76955262170025
 20
-36.76955262170077
 30
0.0
 40
3.25
  0
ENDBLK
  5
135
330
116
100
AcDbEntity
  8
0
100
AcDbBlockEnd
  0
BLOCK
  5
29E
330
294
100
AcDbEntity
  8
0
100
AcDbBlockBegin
  2
*D2
 70
     1
 10
0.0
 20
0.0
 30
0.0
  3
*D2
  1

  0
LINE
  5
295
330
294
100
AcDbEntity
  8
0
 62
   123
100
AcDbLine
 10
20945.4310566465
 20
-5243.90095169052
 30
0.0
 11
20945.4310566465
 21
-5222.839752755219
 31
0.0
  0
LINE
  5
296
330
294
100
AcDbEntity
  8
0
 62
   123
100
AcDbLine
 10
21035.4310566465
 20
-5243.90095169052
 30
0.0
 11
21035.4310566465
 21
-5222.839752755219
 31
0.0
  0
LINE
  5
297
330
294
100
AcDbEntity
  8
0
 62
   123
100
AcDbLine
 10
20947.9310566465
 20
-5223.439752755218
 30
0.0
 11
21032.9310566465
 21
-5223.439752755218
 31
0.0
  0
SOLID
  5
298
330
294
100
AcDbEntity
  8
0
 62
   123
100
AcDbTrace
 10
20947.9310566465
 20
-5223.023086088552
 30
0.0
 11
20947.9310566465
 21
-5223.856419421886
 31
0.0
 12
20945.4310566465
 22
-5223.439752755218
 32
0.0
 13
20945.4310566465
 23
-5223.439752755218
 33
0.0
  0
SOLID
  5
299
330
294
100
AcDbEntity
  8
0
 62
   123
100
AcDbTrace
 10
21032.9310566465
 20
-5223.023086088552
 30
0.0
 11
21032.9310566465
 21
-5223.856419421886
 31
0.0
 12
21035.4310566465
 22
-5223.439752755218
 32
0.0
 13
21035.4310566465
 23
-5223.439752755218
 33
0.0
  0
MTEXT
  5
29A
330
294
100
AcDbEntity
  8
0
 62
     3
100
AcDbMText
 10
20990.43105664649
 20
-5220.939752755219
 30
0.0
 40
3.0
 41
0.0
 71
     5
 72
     1
  1
\A1;90
1001
ACAD
1000
MTEXTBEGIN
1070
    73
1070
     1
1070
    44
1040
1.0
1070
    74
1070
     0
1000
MTEXTEND
  0
POINT
  5
29B
330
294
100
AcDbEntity
  8
DEFPOINTS
 62
     0
100
AcDbPoint
 10
20945.4310566465
 20
-5244.90095169052
 30
0.0
  0
POINT
  5
29C
330
294
100
AcDbEntity
  8
DEFPOINTS
 62
     0
100
AcDbPoint
 10
21035.4310566465
 20
-5244.90095169052
 30
0.0
  0
POINT
  5
29D
330
294
100
AcDbEntity
  8
DEFPOINTS
 62
     0
100
AcDbPoint
 10
21035.4310566465
 20
-5223.439752755218
 30
0.0
  0
ENDBLK
  5
29F
330
294
100
AcDbEntity
  8
0
100
AcDbBlockEnd
  0
BLOCK
  5
E6
330
DC
100
AcDbEntity
  8
0
100
AcDbBlockBegin
  2
*D3
 70
     1
 10
0.0
 20
0.0
 30
0.0
  3
*D3
  1

  0
LINE
  5
DD
330
DC
100
AcDbEntity
  8
0
 62
   123
100
AcDbLine
 10
21240.49611311082
 20
-5239.858157931721
 30
0.0
 11
21265.69400310576
 21
-5239.858157931721
 31
0.0
  0
LINE
  5
DE
330
DC
100
AcDbEntity
  8
0
 62
   123
100
AcDbLine
 10
21240.49611311082
 20
-5329.858157931724
 30
0.0
 11
21265.69400310576
 21
-5329.858157931724
 31
0.0
  0
LINE
  5
DF
330
DC
100
AcDbEntity
  8
0
 62
   123
100
AcDbLine
 10
21265.09400310575
 20
-5242.358157931722
 30
0.0
 11
21265.09400310575
 21
-5327.358157931723
 31
0.0
  0
SOLID
  5
E0
330
DC
100
AcDbEntity
  8
0
 62
   123
100
AcDbTrace
 10
21264.67733643909
 20
-5242.358157931722
 30
0.0
 11
21265.51066977242
 21
-5242.358157931722
 31
0.0
 12
21265.09400310575
 22
-5239.858157931721
 32
0.0
 13
21265.09400310575
 23
-5239.858157931721
 33
0.0
  0
SOLID
  5
E1
330
DC
100
AcDbEntity
  8
0
 62
   123
100
AcDbTrace
 10
21264.67733643909
 20
-5327.358157931723
 30
0.0
 11
21265.51066977242
 21
-5327.358157931723
 31
0.0
 12
21265.09400310575
 22
-5329.858157931724
 32
0.0
 13
21265.09400310575
 23
-5329.858157931724
 33
0.0
  0
MTEXT
  5
E2
330
DC
100
AcDbEntity
  8
0
 62
     3
100
AcDbMText
 10
21262.59400310575
 20
-5284.858157931723
 30
0.0
 40
3.0
 41
0.0
 71
     5
 72
     1
  1
\A1;%%C90
 11
0.0000000000000001
 21
1.0
 31
0.0
1001
ACAD
1000
MTEXTBEGIN
1070
    73
1070
     1
1070
    44
1040
1.0
1070
    74
1070
     0
1000
MTEXTEND
  0
POINT
  5
E3
330
DC
100
AcDbEntity
  8
DEFPOINTS
 62
     0
100
AcDbPoint
 10
21239.49611311084
 20
-5239.858157931721
 30
0.0
  0
POINT
  5
E4
330
DC
100
AcDbEntity
  8
DEFPOINTS
 62
     0
100
AcDbPoint
 10
21239.49611311084
 20
-5329.858157931724
 30
0.0
  0
POINT
  5
E5
330
DC
100
AcDbEntity
  8
DEFPOINTS
 62
     0
100
AcDbPoint
 10
21265.09400310575
 20
-5329.858157931724
 30
0.0
  0
ENDBLK
  5
E7
330
DC
100
AcDbEntity
  8
0
100
AcDbBlockEnd
  0
BLOCK
  5
2D6
330
2CC
100
AcDbEntity
  8
0
100
AcDbBlockBegin
  2
*D4
 70
     1
 10
0.0
 20
0.0
 30
0.0
  3
*D4
  1

  0
LINE
  5
2CD
330
2CC
100
AcDbEntity
  8
0
 62
   123
100
AcDbLine
 10
21111.49611311084
 20
-5223.758157931722
 30
0.0
 11
21111.49611311084
 21
-5206.073399023813
 31
0.0
  0
LINE
  5
2CE
330
2CC
100
AcDbEntity
  8
0
 62
   123
100
AcDbLine
 10
21246.49611311084
 20
-5246.358157931723
 30
0.0
 11
21246.49611311084
 21
-5206.073399023813
 31
0.0
  0
LINE
  5
2CF
330
2CC
100
AcDbEntity
  8
0
 62
   123
100
AcDbLine
 10
21113.99611311084
 20
-5206.673399023813
 30
0.0
 11
21243.99611311083
 21
-5206.673399023813
 31
0.0
  0
SOLID
  5
2D0
330
2CC
100
AcDbEntity
  8
0
 62
   123
100
AcDbTrace
 10
21113.99611311084
 20
-5206.256732357148
 30
0.0
 11
21113.99611311084
 21
-5207.090065690479
 31
0.0
 12
21111.49611311084
 22
-5206.673399023813
 32
0.0
 13
21111.49611311084
 23
-5206.673399023813
 33
0.0
  0
SOLID
  5
2D1
330
2CC
100
AcDbEntity
  8
0
 62
   123
100
AcDbTrace
 10
21243.99611311083
 20
-5206.256732357148
 30
0.0
 11
21243.99611311083
 21
-5207.090065690479
 31
0.0
 12
21246.49611311084
 22
-5206.673399023813
 32
0.0
 13
21246.49611311084
 23
-5206.673399023813
 33
0.0
  0
MTEXT
  5
2D2
330
2CC
100
AcDbEntity
  8
0
 62
     3
100
AcDbMText
 10
21178.99611311083
 20
-5204.173399023813
 30
0.0
 40
3.0
 41
0.0
 71
     5
 72
     1
  1
\A1;135
1001
ACAD
1000
MTEXTBEGIN
1070
    73
1070
     1
1070
    44
1040
1.0
1070
    74
1070
     0
1000
MTEXTEND
  0
POINT
  5
2D3
330
2CC
100
AcDbEntity
  8
DEFPOINTS
 62
     0
100
AcDbPoint
 10
21111.49611311084
 20
-5224.758157931723
 30
0.0
  0
POINT
  5
2D4
330
2CC
100
AcDbEntity
  8
DEFPOINTS
 62
     0
100
AcDbPoint
 10
21246.49611311084
 20
-5247.358157931722
 30
0.0
  0
POINT
  5
2D5
330
2CC
100
AcDbEntity
  8
DEFPOINTS
 62
     0
100
AcDbPoint
 10
21246.49611311084
 20
-5206.673399023813
 30
0.0
  0
ENDBLK
  5
2D7
330
2CC
100
AcDbEntity
  8
0
100
AcDbBlockEnd
  0
BLOCK
  5
111
330
107
100
AcDbEntity
  8
0
100
AcDbBlockBegin
  2
*D5
 70
     1
 10
0.0
 20
0.0
 30
0.0
  3
*D5
  1

  0
LINE
  5
108
330
107
100
AcDbEntity
  8
0
 62
   123
100
AcDbLine
 10
21090.49611311084
 20
-5279.208157931723
 30
0.0
 11
21090.49611311084
 21
-5206.073399023813
 31
0.0
  0
LINE
  5
109
330
107
100
AcDbEntity
  8
0
 62
   123
100
AcDbLine
 10
21111.49611311084
 20
-5238.858157931723
 30
0.0
 11
21111.49611311084
 21
-5206.073399023813
 31
0.0
  0
LINE
  5
10A
330
107
100
AcDbEntity
  8
0
 62
   123
100
AcDbLine
 10
21092.99611311084
 20
-5206.673399023813
 30
0.0
 11
21108.99611311082
 21
-5206.673399023813
 31
0.0
  0
SOLID
  5
10B
330
107
100
AcDbEntity
  8
0
 62
   123
100
AcDbTrace
 10
21092.99611311084
 20
-5206.256732357148
 30
0.0
 11
21092.99611311084
 21
-5207.090065690479
 31
0.0
 12
21090.49611311084
 22
-5206.673399023813
 32
0.0
 13
21090.49611311084
 23
-5206.673399023813
 33
0.0
  0
SOLID
  5
10C
330
107
100
AcDbEntity
  8
0
 62
   123
100
AcDbTrace
 10
21108.99611311082
 20
-5206.256732357148
 30
0.0
 11
21108.99611311082
 21
-5207.090065690479
 31
0.0
 12
21111.49611311084
 22
-5206.673399023813
 32
0.0
 13
21111.49611311084
 23
-5206.673399023813
 33
0.0
  0
MTEXT
  5
10D
330
107
100
AcDbEntity
  8
0
 62
     3
100
AcDbMText
 10
21100.99611311083
 20
-5204.173399023813
 30
0.0
 40
3.0
 41
0.0
 71
     5
 72
     1
  1
\A1;21
1001
ACAD
1000
MTEXTBEGIN
1070
    73
1070
     1
1070
    44
1040
1.0
1070
    74
1070
     0
1000
MTEXTEND
  0
POINT
  5
10E
330
107
100
AcDbEntity
  8
DEFPOINTS
 62
     0
100
AcDbPoint
 10
21090.49611311084
 20
-5280.208157931723
 30
0.0
  0
POINT
  5
10F
330
107
100
AcDbEntity
  8
DEFPOINTS
 62
     0
100
AcDbPoint
 10
21111.49611311084
 20
-5239.858157931721
 30
0.0
  0
POINT
  5
110
330
107
100
AcDbEntity
  8
DEFPOINTS
 62
     0
100
AcDbPoint
 10
21111.49611311084
 20
-5206.673399023813
 30
0.0
  0
ENDBLK
  5
112
330
107
100
AcDbEntity
  8
0
100
AcDbBlockEnd
  0
BLOCK
  5
2AE
330
2A2
100
AcDbEntity
  8
0
100
AcDbBlockBegin
  2
*D6
 70
     1
 10
0.0
 20
0.0
 30
0.0
  3
*D6
  1

  0
LINE
  5
2A3
330
2A2
100
AcDbEntity
  8
0
 62
   123
100
AcDbLine
 10
21109.49611311084
 20
-5242.358157931723
 30
0.0
 11
21109.49611311084
 21
-5227.657173017327
 31
0.0
  0
LINE
  5
2A4
330
2A2
100
AcDbEntity
  8
0
 62
   123
100
AcDbLine
 10
21111.49611311084
 20
-5238.858157931723
 30
0.0
 11
21111.49611311084
 21
-5227.657173017327
 31
0.0
  0
LINE
  5
2A5
330
2A2
100
AcDbEntity
  8
0
 62
   123
100
AcDbLine
 10
21106.99611311082
 20
-5228.257173017325
 30
0.0
 11
21104.49611311083
 21
-5228.257173017325
 31
0.0
  0
LINE
  5
2A6
330
2A2
100
AcDbEntity
  8
0
 62
   123
100
AcDbLine
 10
21113.99611311084
 20
-5228.257173017325
 30
0.0
 11
21116.49611311082
 21
-5228.257173017325
 31
0.0
  0
LINE
  5
2A7
330
2A2
100
AcDbEntity
  8
0
 62
   123
100
AcDbLine
 10
21109.49611311084
 20
-5228.257173017325
 30
0.0
 11
21111.49611311084
 21
-5228.257173017325
 31
0.0
  0
SOLID
  5
2A8
330
2A2
100
AcDbEntity
  8
0
 62
   123
100
AcDbTrace
 10
21106.99611311082
 20
-5227.840506350659
 30
0.0
 11
21106.99611311082
 21
-5228.673839683994
 31
0.0
 12
21109.49611311084
 22
-5228.257173017325
 32
0.0
 13
21109.49611311084
 23
-5228.257173017325
 33
0.0
  0
SOLID
  5
2A9
330
2A2
100
AcDbEntity
  8
0
 62
   123
100
AcDbTrace
 10
21113.99611311084
 20
-5227.840506350659
 30
0.0
 11
21113.99611311084
 21
-5228.673839683994
 31
0.0
 12
21111.49611311084
 22
-5228.257173017325
 32
0.0
 13
21111.49611311084
 23
-5228.257173017325
 33
0.0
  0
MTEXT
  5
2AA
330
2A2
100
AcDbEntity
  8
0
 62
     3
100
AcDbMText
 10
21110.49611311083
 20
-5225.757173017328
 30
0.0
 40
3.0
 41
0.0
 71
     5
 72
     1
  1
\A1;2
1001
ACAD
1000
MTEXTBEGIN
1070
    73
1070
     1
1070
    44
1040
1.0
1070
    74
1070
     0
1000
MTEXTEND
  0
POINT
  5
2AB
330
2A2
100
AcDbEntity
  8
DEFPOINTS
 62
     0
100
AcDbPoint
 10
21109.49611311084
 20
-5243.358157931723
 30
0.0
  0
POINT
  5
2AC
330
2A2
100
AcDbEntity
  8
DEFPOINTS
 62
     0
100
AcDbPoint
 10
21111.49611311084
 20
-5239.858157931721
 30
0.0
  0
POINT
  5
2AD
330
2A2
100
AcDbEntity
  8
DEFPOINTS
 62
     0
100
AcDbPoint
 10
21111.49611311084
 20
-5228.257173017325
 30
0.0
  0
ENDBLK
  5
2AF
330
2A2
100
AcDbEntity
  8
0
100
AcDbBlockEnd
  0
BLOCK
  5
202
330
1F8
100
AcDbEntity
  8
0
100
AcDbBlockBegin
  2
*D7
 70
     1
 10
0.0
 20
0.0
 30
0.0
  3
*D7
  1

  0
LINE
  5
1F9
330
1F8
100
AcDbEntity
  8
0
 62
   123
100
AcDbLine
 10
20927.03737137505
 20
-5438.384806409676
 30
0.0
 11
20927.03737137505
 21
-5421.139580008021
 31
0.0
  0
LINE
  5
1FA
330
1F8
100
AcDbEntity
  8
0
 62
   123
100
AcDbLine
 10
21017.03737137504
 20
-5438.384806409676
 30
0.0
 11
21017.03737137504
 21
-5421.139580008021
 31
0.0
  0
LINE
  5
1FB
330
1F8
100
AcDbEntity
  8
0
 62
   123
100
AcDbLine
 10
20929.53737137504
 20
-5421.739580008021
 30
0.0
 11
21014.53737137505
 21
-5421.739580008021
 31
0.0
  0
SOLID
  5
1FC
330
1F8
100
AcDbEntity
  8
0
 62
   123
100
AcDbTrace
 10
20929.53737137504
 20
-5421.322913341353
 30
0.0
 11
20929.53737137504
 21
-5422.156246674688
 31
0.0
 12
20927.03737137505
 22
-5421.739580008021
 32
0.0
 13
20927.03737137505
 23
-5421.739580008021
 33
0.0
  0
SOLID
  5
1FD
330
1F8
100
AcDbEntity
  8
0
 62
   123
100
AcDbTrace
 10
21014.53737137505
 20
-5421.322913341353
 30
0.0
 11
21014.53737137505
 21
-5422.156246674688
 31
0.0
 12
21017.03737137504
 22
-5421.739580008021
 32
0.0
 13
21017.03737137504
 23
-5421.739580008021
 33
0.0
  0
MTEXT
  5
1FE
330
1F8
100
AcDbEntity
  8
0
 62
     3
100
AcDbMText
 10
20972.03737137505
 20
-5419.239580008021
 30
0.0
 40
3.0
 41
0.0
 71
     5
 72
     1
  1
\A1;90
1001
ACAD
1000
MTEXTBEGIN
1070
    73
1070
     1
1070
    44
1040
1.0
1070
    74
1070
     0
1000
MTEXTEND
  0
POINT
  5
1FF
330
1F8
100
AcDbEntity
  8
DEFPOINTS
 62
     0
100
AcDbPoint
 10
20927.03737137505
 20
-5439.384806409673
 30
0.0
  0
POINT
  5
200
330
1F8
100
AcDbEntity
  8
DEFPOINTS
 62
     0
100
AcDbPoint
 10
21017.03737137504
 20
-5439.384806409673
 30
0.0
  0
POINT
  5
201
330
1F8
100
AcDbEntity
  8
DEFPOINTS
 62
     0
100
AcDbPoint
 10
21017.03737137504
 20
-5421.739580008021
 30
0.0
  0
ENDBLK
  5
203
330
1F8
100
AcDbEntity
  8
0
100
AcDbBlockEnd
  0
BLOCK
  5
D2
330
C8
100
AcDbEntity
  8
0
100
AcDbBlockBegin
  2
*D8
 70
     1
 10
0.0
 20
0.0
 30
0.0
  3
*D8
  1

  0
LINE
  5
C9
330
C8
100
AcDbEntity
  8
0
 62
   123
100
AcDbLine
 10
21121.3812397271
 20
-5418.242012650878
 30
0.0
 11
21121.3812397271
 21
-5394.654026584394
 31
0.0
  0
LINE
  5
CA
330
C8
100
AcDbEntity
  8
0
 62
   123
100
AcDbLine
 10
21256.3812397271
 20
-5440.842012650878
 30
0.0
 11
21256.3812397271
 21
-5394.654026584394
 31
0.0
  0
LINE
  5
CB
330
C8
100
AcDbEntity
  8
0
 62
   123
100
AcDbLine
 10
21123.8812397271
 20
-5395.254026584392
 30
0.0
 11
21253.88123972709
 21
-5395.254026584392
 31
0.0
  0
SOLID
  5
CC
330
C8
100
AcDbEntity
  8
0
 62
   123
100
AcDbTrace
 10
21123.8812397271
 20
-5394.837359917726
 30
0.0
 11
21123.8812397271
 21
-5395.67069325106
 31
0.0
 12
21121.3812397271
 22
-5395.254026584392
 32
0.0
 13
21121.3812397271
 23
-5395.254026584392
 33
0.0
  0
SOLID
  5
CD
330
C8
100
AcDbEntity
  8
0
 62
   123
100
AcDbTrace
 10
21253.88123972709
 20
-5394.837359917726
 30
0.0
 11
21253.88123972709
 21
-5395.67069325106
 31
0.0
 12
21256.3812397271
 22
-5395.254026584392
 32
0.0
 13
21256.3812397271
 23
-5395.254026584392
 33
0.0
  0
MTEXT
  5
CE
330
C8
100
AcDbEntity
  8
0
 62
     3
100
AcDbMText
 10
21188.88123972709
 20
-5392.754026584394
 30
0.0
 40
3.0
 41
0.0
 71
     5
 72
     1
  1
\A1;135
1001
ACAD
1000
MTEXTBEGIN
1070
    73
1070
     1
1070
    44
1040
1.0
1070
    74
1070
     0
1000
MTEXTEND
  0
POINT
  5
CF
330
C8
100
AcDbEntity
  8
DEFPOINTS
 62
     0
100
AcDbPoint
 10
21121.3812397271
 20
-5419.242012650879
 30
0.0
  0
POINT
  5
D0
330
C8
100
AcDbEntity
  8
DEFPOINTS
 62
     0
100
AcDbPoint
 10
21256.3812397271
 20
-5441.842012650878
 30
0.0
  0
POINT
  5
D1
330
C8
100
AcDbEntity
  8
DEFPOINTS
 62
     0
100
AcDbPoint
 10
21256.3812397271
 20
-5395.254026584392
 30
0.0
  0
ENDBLK
  5
D3
330
C8
100
AcDbEntity
  8
0
100
AcDbBlockEnd
  0
BLOCK
  5
223
330
217
100
AcDbEntity
  8
0
100
AcDbBlockBegin
  2
*D9
 70
     1
 10
0.0
 20
0.0
 30
0.0
  3
*D9
  1

  0
LINE
  5
218
330
217
100
AcDbEntity
  8
0
 62
   123
100
AcDbLine
 10
21119.3812397271
 20
-5436.842012650878
 30
0.0
 11
21119.3812397271
 21
-5419.693822019284
 31
0.0
  0
LINE
  5
219
330
217
100
AcDbEntity
  8
0
 62
   123
100
AcDbLine
 10
21121.3812397271
 20
-5433.342012650877
 30
0.0
 11
21121.3812397271
 21
-5419.693822019284
 31
0.0
  0
LINE
  5
21A
330
217
100
AcDbEntity
  8
0
 62
   123
100
AcDbLine
 10
21116.88123972709
 20
-5420.293822019285
 30
0.0
 11
21114.3812397271
 21
-5420.293822019285
 31
0.0
  0
LINE
  5
21B
330
217
100
AcDbEntity
  8
0
 62
   123
100
AcDbLine
 10
21123.8812397271
 20
-5420.293822019285
 30
0.0
 11
21126.38123972709
 21
-5420.293822019285
 31
0.0
  0
LINE
  5
21C
330
217
100
AcDbEntity
  8
0
 62
   123
100
AcDbLine
 10
21119.3812397271
 20
-5420.293822019285
 30
0.0
 11
21121.3812397271
 21
-5420.293822019285
 31
0.0
  0
SOLID
  5
21D
330
217
100
AcDbEntity
  8
0
 62
   123
100
AcDbTrace
 10
21116.88123972709
 20
-5419.877155352618
 30
0.0
 11
21116.88123972709
 21
-5420.71048868595
 31
0.0
 12
21119.3812397271
 22
-5420.293822019285
 32
0.0
 13
21119.3812397271
 23
-5420.293822019285
 33
0.0
  0
SOLID
  5
21E
330
217
100
AcDbEntity
  8
0
 62
   123
100
AcDbTrace
 10
21123.8812397271
 20
-5419.877155352618
 30
0.0
 11
21123.8812397271
 21
-5420.71048868595
 31
0.0
 12
21121.3812397271
 22
-5420.293822019285
 32
0.0
 13
21121.3812397271
 23
-5420.293822019285
 33
0.0
  0
MTEXT
  5
21F
330
217
100
AcDbEntity
  8
0
 62
     3
100
AcDbMText
 10
21120.38123972709
 20
-5417.793822019286
 30
0.0
 40
3.0
 41
0.0
 71
     5
 72
     1
  1
\A1;2
1001
ACAD
1000
MTEXTBEGIN
1070
    73
1070
     1
1070
    44
1040
1.0
1070
    74
1070
     0
1000
MTEXTEND
  0
POINT
  5
220
330
217
100
AcDbEntity
  8
DEFPOINTS
 62
     0
100
AcDbPoint
 10
21119.3812397271
 20
-5437.842012650879
 30
0.0
  0
POINT
  5
221
330
217
100
AcDbEntity
  8
DEFPOINTS
 62
     0
100
AcDbPoint
 10
21121.3812397271
 20
-5434.342012650877
 30
0.0
  0
POINT
  5
222
330
217
100
AcDbEntity
  8
DEFPOINTS
 62
     0
100
AcDbPoint
 10
21121.3812397271
 20
-5420.293822019285
 30
0.0
  0
ENDBLK
  5
224
330
217
100
AcDbEntity
  8
0
100
AcDbBlockEnd
  0
BLOCK
  5
F5
330
EB
100
AcDbEntity
  8
0
100
AcDbBlockBegin
  2
*D10
 70
     1
 10
0.0
 20
0.0
 30
0.0
  3
*D10
  1

  0
LINE
  5
EC
330
EB
100
AcDbEntity
  8
0
 62
   123
100
AcDbLine
 10
21250.38123972709
 20
-5434.342012650878
 30
0.0
 11
21271.56524974458
 21
-5434.342012650878
 31
0.0
  0
LINE
  5
ED
330
EB
100
AcDbEntity
  8
0
 62
   123
100
AcDbLine
 10
21250.38123972709
 20
-5524.342012650878
 30
0.0
 11
21271.56524974458
 21
-5524.342012650878
 31
0.0
  0
LINE
  5
EE
330
EB
100
AcDbEntity
  8
0
 62
   123
100
AcDbLine
 10
21270.96524974458
 20
-5436.842012650878
 30
0.0
 11
21270.96524974458
 21
-5521.842012650878
 31
0.0
  0
SOLID
  5
EF
330
EB
100
AcDbEntity
  8
0
 62
   123
100
AcDbTrace
 10
21270.54858307792
 20
-5436.842012650878
 30
0.0
 11
21271.38191641126
 21
-5436.842012650878
 31
0.0
 12
21270.96524974458
 22
-5434.342012650878
 32
0.0
 13
21270.96524974458
 23
-5434.342012650878
 33
0.0
  0
SOLID
  5
F0
330
EB
100
AcDbEntity
  8
0
 62
   123
100
AcDbTrace
 10
21270.54858307792
 20
-5521.842012650878
 30
0.0
 11
21271.38191641126
 21
-5521.842012650878
 31
0.0
 12
21270.96524974458
 22
-5524.342012650878
 32
0.0
 13
21270.96524974458
 23
-5524.342012650878
 33
0.0
  0
MTEXT
  5
F1
330
EB
100
AcDbEntity
  8
0
 62
     3
100
AcDbMText
 10
21268.46524974459
 20
-5479.342012650878
 30
0.0
 40
3.0
 41
0.0
 71
     5
 72
     1
  1
\A1;%%C90
 11
0.0000000000000001
 21
1.0
 31
0.0
1001
ACAD
1000
MTEXTBEGIN
1070
    73
1070
     1
1070
    44
1040
1.0
1070
    74
1070
     0
1000
MTEXTEND
  0
POINT
  5
F2
330
EB
100
AcDbEntity
  8
DEFPOINTS
 62
     0
100
AcDbPoint
 10
21249.3812397271
 20
-5434.342012650878
 30
0.0
  0
POINT
  5
F3
330
EB
100
AcDbEntity
  8
DEFPOINTS
 62
     0
100
AcDbPoint
 10
21249.3812397271
 20
-5524.342012650878
 30
0.0
  0
POINT
  5
F4
330
EB
100
AcDbEntity
  8
DEFPOINTS
 62
     0
100
AcDbPoint
 10
21270.96524974458
 20
-5524.342012650878
 30
0.0
  0
ENDBLK
  5
F6
330
EB
100
AcDbEntity
  8
0
100
AcDbBlockEnd
  0
BLOCK
  5
C0
330
B4
100
AcDbEntity
  8
0
100
AcDbBlockBegin
  2
*D11
 70
     1
 10
0.0
 20
0.0
 30
0.0
  3
*D11
  1

  0
LINE
  5
B5
330
B4
100
AcDbEntity
  8
0
 62
   123
100
AcDbLine
 10
20972.03115370416
 20
-5533.993554294017
 30
0.0
 11
20972.03115370416
 21
-5552.412141687489
 31
0.0
  0
LINE
  5
B6
330
B4
100
AcDbEntity
  8
0
 62
   123
100
AcDbLine
 10
20991.05977406475
 20
-5525.287243926452
 30
0.0
 11
20999.99365195558
 21
-5546.848340895099
 31
0.0
  0
ARC
  5
B7
330
B4
100
AcDbEntity
  8
0
 62
   123
100
AcDbCircle
 10
20972.03115370416
 20
-5479.363409530273
 30
0.0
 40
72.44873215721447
100
AcDbArc
 50
271.9772127434095
 51
290.529544153982
  0
SOLID
  5
B8
330
B4
100
AcDbEntity
  8
0
 62
   123
100
AcDbTrace
 10
20974.5379705606
 20
-5552.185612381484
 30
0.0
 11
20974.52359257724
 21
-5551.352403093226
 31
0.0
 12
20972.03115370416
 22
-5551.812141687488
 32
0.0
 13
20972.03115370416
 23
-5551.812141687488
 33
0.0
  0
SOLID
  5
B9
330
B4
100
AcDbEntity
  8
0
 62
   123
100
AcDbTrace
 10
20997.28539133245
 20
-5546.823404546252
 30
0.0
 11
20997.59105462579
 21
-5547.598655728485
 31
0.0
 12
20999.76397652583
 22
-5546.294040257387
 32
0.0
 13
20999.76397652583
 23
-5546.294040257387
 33
0.0
  0
MTEXT
  5
BA
330
B4
100
AcDbEntity
  8
0
 62
     3
100
AcDbMText
 10
20985.62576302526
 20
-5547.687070559021
 30
0.0
 40
3.0
 41
0.0
 71
     5
 72
     1
  1
\A1;22°30'
 11
0.9807737751869572
 21
0.1951481537333221
 31
0.0
1001
ACAD
1000
MTEXTBEGIN
1070
    73
1070
     1
1070
    44
1040
1.0
1070
    74
1070
     0
1000
MTEXTEND
  0
POINT
  5
BB
330
B4
100
AcDbEntity
  8
DEFPOINTS
 62
     0
100
AcDbPoint
 10
20981.49043443402
 20
-5551.191960951427
 30
0.0
  0
POINT
  5
BC
330
B4
100
AcDbEntity
  8
DEFPOINTS
 62
     0
100
AcDbPoint
 10
20972.03115370416
 20
-5532.993554294018
 30
0.0
  0
POINT
  5
BD
330
B4
100
AcDbEntity
  8
DEFPOINTS
 62
     0
100
AcDbPoint
 10
20972.03115370416
 20
-5479.363409530268
 30
0.0
  0
POINT
  5
BE
330
B4
100
AcDbEntity
  8
DEFPOINTS
 62
     0
100
AcDbPoint
 10
20990.67698168183
 20
-5524.363409530266
 30
0.0
  0
POINT
  5
BF
330
B4
100
AcDbEntity
  8
DEFPOINTS
 62
     0
100
AcDbPoint
 10
20972.03115370416
 20
-5425.733264766514
 30
0.0
  0
ENDBLK
  5
C1
330
B4
100
AcDbEntity
  8
0
100
AcDbBlockEnd
  0
BLOCK
  5
B1
330
A4
100
AcDbEntity
  8
0
100
AcDbBlockBegin
  2
*D12
 70
     1
 10
0.0
 20
0.0
 30
0.0
  3
*D12
  1

  0
LINE
  5
A5
330
A4
100
AcDbEntity
  8
0
 62
   123
100
AcDbLine
 10
20990.43105664649
 20
-5339.509699574865
 30
0.0
 11
20990.43105664649
 21
-5357.928286968337
 31
0.0
  0
LINE
  5
A6
330
A4
100
AcDbEntity
  8
0
 62
   123
100
AcDbLine
 10
21009.45967700709
 20
-5330.803389207303
 30
0.0
 11
21018.3935548979
 21
-5352.364486175949
 31
0.0
  0
ARC
  5
A7
330
A4
100
AcDbEntity
  8
0
 62
   123
100
AcDbCircle
 10
20990.43105664649
 20
-5284.879554811111
 30
0.0
 40
72.44873215722487
100
AcDbArc
 50
271.9772127434123
 51
290.5295441539806
  0
SOLID
  5
A8
330
A4
100
AcDbEntity
  8
0
 62
   123
100
AcDbTrace
 10
20992.93787350295
 20
-5357.701757662335
 30
0.0
 11
20992.92349551958
 21
-5356.868548374076
 31
0.0
 12
20990.43105664649
 22
-5357.328286968337
 32
0.0
 13
20990.43105664649
 23
-5357.328286968337
 33
0.0
  0
SOLID
  5
A9
330
A4
100
AcDbEntity
  8
0
 62
   123
100
AcDbTrace
 10
21015.6852942748
 20
-5352.3395498271
 30
0.0
 11
21015.99095756813
 21
-5353.114801009336
 31
0.0
 12
21018.16387946816
 22
-5351.810185538234
 32
0.0
 13
21018.16387946816
 23
-5351.810185538234
 33
0.0
  0
MTEXT
  5
AA
330
A4
100
AcDbEntity
  8
0
 62
     3
100
AcDbMText
 10
21004.0256659676
 20
-5353.203215839871
 30
0.0
 40
3.0
 41
0.0
 71
     5
 72
     1
  1
\A1;22°30'
 11
0.9807737751869572
 21
0.1951481537333221
 31
0.0
1001
ACAD
1000
MTEXTBEGIN
1070
    73
1070
     1
1070
    44
1040
1.0
1070
    74
1070
     0
1000
MTEXTEND
  0
POINT
  5
AB
330
A4
100
AcDbEntity
  8
DEFPOINTS
 62
     0
100
AcDbPoint
 10
20999.89033737637
 20
-5356.708106232275
 30
0.0
  0
POINT
  5
AD
330
A4
100
AcDbEntity
  8
DEFPOINTS
 62
     0
100
AcDbPoint
 10
20990.43105664649
 20
-5338.509699574865
 30
0.0
  0
POINT
  5
AE
330
A4
100
AcDbEntity
  8
DEFPOINTS
 62
     0
100
AcDbPoint
 10
20990.43105664649
 20
-5284.879554811111
 30
0.0
  0
POINT
  5
AF
330
A4
100
AcDbEntity
  8
DEFPOINTS
 62
     0
100
AcDbPoint
 10
21009.07688462417
 20
-5329.879554811111
 30
0.0
  0
POINT
  5
B0
330
A4
100
AcDbEntity
  8
DEFPOINTS
 62
     0
100
AcDbPoint
 10
20990.43105664649
 20
-5231.249410047357
 30
0.0
  0
ENDBLK
  5
B2
330
A4
100
AcDbEntity
  8
0
100
AcDbBlockEnd
  0
BLOCK
  5
2BD
330
2B3
100
AcDbEntity
  8
0
100
AcDbBlockBegin
  2
*D13
 70
     1
 10
0.0
 20
0.0
 30
0.0
  3
*D13
  1

  0
LINE
  5
2B4
330
2B3
100
AcDbEntity
  8
0
 62
   123
100
AcDbLine
 10
21111.49611311084
 20
-5239.649824598389
 30
0.0
 11
21111.49611311084
 21
-5216.926847357125
 31
0.0
  0
LINE
  5
2B5
330
2B3
100
AcDbEntity
  8
0
 62
   123
100
AcDbLine
 10
21118.99611311084
 20
-5240.259420590193
 30
0.0
 11
21118.99611311084
 21
-5216.926847357125
 31
0.0
  0
LINE
  5
2B6
330
2B3
100
AcDbEntity
  8
0
 62
   123
100
AcDbLine
 10
21113.99611311084
 20
-5217.526847357127
 30
0.0
 11
21116.49611311082
 21
-5217.526847357127
 31
0.0
  0
SOLID
  5
2B7
330
2B3
100
AcDbEntity
  8
0
 62
   123
100
AcDbTrace
 10
21113.99611311084
 20
-5217.11018069046
 30
0.0
 11
21113.99611311084
 21
-5217.943514023794
 31
0.0
 12
21111.49611311084
 22
-5217.526847357127
 32
0.0
 13
21111.49611311084
 23
-5217.526847357127
 33
0.0
  0
SOLID
  5
2B8
330
2B3
100
AcDbEntity
  8
0
 62
   123
100
AcDbTrace
 10
21116.49611311082
 20
-5217.11018069046
 30
0.0
 11
21116.49611311082
 21
-5217.943514023794
 31
0.0
 12
21118.99611311084
 22
-5217.526847357127
 32
0.0
 13
21118.99611311084
 23
-5217.526847357127
 33
0.0
  0
MTEXT
  5
2B9
330
2B3
100
AcDbEntity
  8
0
 62
     3
100
AcDbMText
 10
21115.24611311084
 20
-5215.026847357126
 30
0.0
 40
3.0
 41
0.0
 71
     5
 72
     1
  1
\A1;7.5
1001
ACAD
1000
MTEXTBEGIN
1070
    73
1070
     1
1070
    44
1040
1.0
1070
    74
1070
     0
1000
MTEXTEND
  0
POINT
  5
2BA
330
2B3
100
AcDbEntity
  8
DEFPOINTS
 62
     0
100
AcDbPoint
 10
21111.49611311084
 20
-5240.649824598389
 30
0.0
  0
POINT
  5
2BB
330
2B3
100
AcDbEntity
  8
DEFPOINTS
 62
     0
100
AcDbPoint
 10
21118.99611311084
 20
-5241.259420590193
 30
0.0
  0
POINT
  5
2BC
330
2B3
100
AcDbEntity
  8
DEFPOINTS
 62
     0
100
AcDbPoint
 10
21118.99611311084
 20
-5217.526847357127
 30
0.0
  0
ENDBLK
  5
2BE
330
2B3
100
AcDbEntity
  8
0
100
AcDbBlockEnd
  0
BLOCK
  5
104
330
FA
100
AcDbEntity
  8
0
100
AcDbBlockBegin
  2
*D14
 70
     1
 10
0.0
 20
0.0
 30
0.0
  3
*D14
  1

  0
LINE
  5
FB
330
FA
100
AcDbEntity
  8
0
 62
   123
100
AcDbLine
 10
21108.49611311083
 20
-5243.358157931723
 30
0.0
 11
21079.47585551571
 21
-5243.358157931723
 31
0.0
  0
LINE
  5
FC
330
FA
100
AcDbEntity
  8
0
 62
   123
100
AcDbLine
 10
21108.49611311083
 20
-5326.358157931723
 30
0.0
 11
21079.47585551571
 21
-5326.358157931723
 31
0.0
  0
LINE
  5
FD
330
FA
100
AcDbEntity
  8
0
 62
   123
100
AcDbLine
 10
21080.07585551571
 20
-5245.858157931723
 30
0.0
 11
21080.07585551571
 21
-5323.858157931724
 31
0.0
  0
SOLID
  5
FE
330
FA
100
AcDbEntity
  8
0
 62
   123
100
AcDbTrace
 10
21079.65918884905
 20
-5245.858157931723
 30
0.0
 11
21080.49252218239
 21
-5245.858157931723
 31
0.0
 12
21080.07585551571
 22
-5243.358157931723
 32
0.0
 13
21080.07585551571
 23
-5243.358157931723
 33
0.0
  0
SOLID
  5
FF
330
FA
100
AcDbEntity
  8
0
 62
   123
100
AcDbTrace
 10
21079.65918884905
 20
-5323.858157931724
 30
0.0
 11
21080.49252218239
 21
-5323.858157931724
 31
0.0
 12
21080.07585551571
 22
-5326.358157931723
 32
0.0
 13
21080.07585551571
 23
-5326.358157931723
 33
0.0
  0
MTEXT
  5
100
330
FA
100
AcDbEntity
  8
0
 62
     3
100
AcDbMText
 10
21076.12570551571
 20
-5284.628000377896
 30
0.0
 40
3.0
 41
0.0
 71
     5
 72
     1
  1
\A1;\A1;{\f??|b0|i0|c0|p49;%%c}83{\f??|b0|i0|c0|p49;\H0.7x;\S+0^ -0.035;\H1.429x;(h7)}
 11
0.0000000000000001
 21
1.0
 31
0.0
1001
ACAD
1000
MTEXTBEGIN
1070
    73
1070
     1
1070
    44
1040
1.0
1070
    74
1070
     0
1000
MTEXTEND
  0
POINT
  5
101
330
FA
100
AcDbEntity
  8
DEFPOINTS
 62
     0
100
AcDbPoint
 10
21109.49611311084
 20
-5243.358157931723
 30
0.0
  0
POINT
  5
102
330
FA
100
AcDbEntity
  8
DEFPOINTS
 62
     0
100
AcDbPoint
 10
21109.49611311084
 20
-5326.358157931723
 30
0.0
  0
POINT
  5
103
330
FA
100
AcDbEntity
  8
DEFPOINTS
 62
     0
100
AcDbPoint
 10
21080.07585551571
 20
-5326.358157931723
 30
0.0
  0
ENDBLK
  5
105
330
FA
100
AcDbEntity
  8
0
100
AcDbBlockEnd
  0
BLOCK
  5
153
330
149
100
AcDbEntity
  8
0
100
AcDbBlockBegin
  2
*D15
 70
     1
 10
0.0
 20
0.0
 30
0.0
  3
*D15
  1

  0
LINE
  5
14A
330
149
100
AcDbEntity
  8
0
 62
   123
100
AcDbLine
 10
21084.38123972709
 20
-5473.342012650878
 30
0.0
 11
21084.38123972709
 21
-5394.654026584395
 31
0.0
  0
LINE
  5
14B
330
149
100
AcDbEntity
  8
0
 62
   123
100
AcDbLine
 10
21121.3812397271
 20
-5433.133679317545
 30
0.0
 11
21121.3812397271
 21
-5394.654026584395
 31
0.0
  0
LINE
  5
14C
330
149
100
AcDbEntity
  8
0
 62
   123
100
AcDbLine
 10
21086.8812397271
 20
-5395.254026584396
 30
0.0
 11
21118.88123972709
 21
-5395.254026584396
 31
0.0
  0
SOLID
  5
14D
330
149
100
AcDbEntity
  8
0
 62
   123
100
AcDbTrace
 10
21086.8812397271
 20
-5394.837359917729
 30
0.0
 11
21086.8812397271
 21
-5395.670693251062
 31
0.0
 12
21084.38123972709
 22
-5395.254026584396
 32
0.0
 13
21084.38123972709
 23
-5395.254026584396
 33
0.0
  0
SOLID
  5
14E
330
149
100
AcDbEntity
  8
0
 62
   123
100
AcDbTrace
 10
21118.88123972709
 20
-5394.837359917729
 30
0.0
 11
21118.88123972709
 21
-5395.670693251062
 31
0.0
 12
21121.3812397271
 22
-5395.254026584396
 32
0.0
 13
21121.3812397271
 23
-5395.254026584396
 33
0.0
  0
MTEXT
  5
14F
330
149
100
AcDbEntity
  8
0
 62
     3
100
AcDbMText
 10
21102.8812397271
 20
-5392.754026584396
 30
0.0
 40
3.0
 41
0.0
 71
     5
 72
     1
  1
\A1;37
1001
ACAD
1000
MTEXTBEGIN
1070
    73
1070
     1
1070
    44
1040
1.0
1070
    74
1070
     0
1000
MTEXTEND
  0
POINT
  5
150
330
149
100
AcDbEntity
  8
DEFPOINTS
 62
     0
100
AcDbPoint
 10
21084.38123972709
 20
-5474.342012650878
 30
0.0
  0
POINT
  5
151
330
149
100
AcDbEntity
  8
DEFPOINTS
 62
     0
100
AcDbPoint
 10
21121.3812397271
 20
-5434.133679317545
 30
0.0
  0
POINT
  5
152
330
149
100
AcDbEntity
  8
DEFPOINTS
 62
     0
100
AcDbPoint
 10
21121.3812397271
 20
-5395.254026584396
 30
0.0
  0
ENDBLK
  5
154
330
149
100
AcDbEntity
  8
0
100
AcDbBlockEnd
  0
BLOCK
  5
1ED
330
1E3
100
AcDbEntity
  8
0
100
AcDbBlockBegin
  2
*D16
 70
     1
 10
0.0
 20
0.0
 30
0.0
  3
*D16
  1

  0
LINE
  5
1E4
330
1E3
100
AcDbEntity
  8
0
 62
   123
100
AcDbLine
 10
21083.3812397271
 20
-5485.342012650879
 30
0.0
 11
21059.88607622444
 21
-5485.342012650879
 31
0.0
  0
LINE
  5
1E5
330
1E3
100
AcDbEntity
  8
0
 62
   123
100
AcDbLine
 10
21113.3812397271
 20
-5473.342012650879
 30
0.0
 11
21059.88607622444
 21
-5473.342012650879
 31
0.0
  0
LINE
  5
1E6
330
1E3
100
AcDbEntity
  8
0
 62
   123
100
AcDbLine
 10
21060.48607622444
 20
-5482.842012650879
 30
0.0
 11
21060.48607622444
 21
-5475.842012650879
 31
0.0
  0
SOLID
  5
1E7
330
1E3
100
AcDbEntity
  8
0
 62
   123
100
AcDbTrace
 10
21060.06940955776
 20
-5482.842012650879
 30
0.0
 11
21060.9027428911
 21
-5482.842012650879
 31
0.0
 12
21060.48607622444
 22
-5485.342012650879
 32
0.0
 13
21060.48607622444
 23
-5485.342012650879
 33
0.0
  0
SOLID
  5
1E8
330
1E3
100
AcDbEntity
  8
0
 62
   123
100
AcDbTrace
 10
21060.06940955776
 20
-5475.842012650879
 30
0.0
 11
21060.9027428911
 21
-5475.842012650879
 31
0.0
 12
21060.48607622444
 22
-5473.342012650879
 32
0.0
 13
21060.48607622444
 23
-5473.342012650879
 33
0.0
  0
MTEXT
  5
1E9
330
1E3
100
AcDbEntity
  8
0
 62
     3
100
AcDbMText
 10
21056.53592622444
 20
-5479.342012650875
 30
0.0
 40
3.0
 41
0.0
 71
     5
 72
     1
  1
\A1;\A1;{\f??|b0|i0|c0|p49;%%C}12{\f??|b0|i0|c0|p49;\H0.7x;\S+0^ -0.018;\H1.429x;(h}7{\f??|b0|i0|c0|p49;)}
 11
0.0000000000000001
 21
1.0
 31
0.0
1001
ACAD
1000
MTEXTBEGIN
1070
    73
1070
     1
1070
    44
1040
1.0
1070
    74
1070
     0
1000
MTEXTEND
  0
POINT
  5
1EA
330
1E3
100
AcDbEntity
  8
DEFPOINTS
 62
     0
100
AcDbPoint
 10
21084.38123972709
 20
-5485.342012650879
 30
0.0
  0
POINT
  5
1EB
330
1E3
100
AcDbEntity
  8
DEFPOINTS
 62
     0
100
AcDbPoint
 10
21114.3812397271
 20
-5473.342012650879
 30
0.0
  0
POINT
  5
1EC
330
1E3
100
AcDbEntity
  8
DEFPOINTS
 62
     0
100
AcDbPoint
 10
21060.48607622444
 20
-5473.342012650879
 30
0.0
  0
ENDBLK
  5
1EE
330
1E3
100
AcDbEntity
  8
0
100
AcDbBlockEnd
  0
BLOCK
  5
162
330
158
100
AcDbEntity
  8
0
100
AcDbBlockBegin
  2
*D17
 70
     1
 10
0.0
 20
0.0
 30
0.0
  3
*D17
  1

  0
LINE
  5
159
330
158
100
AcDbEntity
  8
0
 62
   123
100
AcDbLine
 10
21118.38123972709
 20
-5437.842012650879
 30
0.0
 11
21047.82892496473
 21
-5437.842012650879
 31
0.0
  0
LINE
  5
15A
330
158
100
AcDbEntity
  8
0
 62
   123
100
AcDbLine
 10
21118.38123972709
 20
-5520.842012650879
 30
0.0
 11
21047.82892496473
 21
-5520.842012650879
 31
0.0
  0
LINE
  5
15B
330
158
100
AcDbEntity
  8
0
 62
   123
100
AcDbLine
 10
21048.42892496473
 20
-5440.342012650879
 30
0.0
 11
21048.42892496473
 21
-5518.342012650879
 31
0.0
  0
SOLID
  5
15C
330
158
100
AcDbEntity
  8
0
 62
   123
100
AcDbTrace
 10
21048.01225829806
 20
-5440.342012650879
 30
0.0
 11
21048.84559163139
 21
-5440.342012650879
 31
0.0
 12
21048.42892496473
 22
-5437.842012650879
 32
0.0
 13
21048.42892496473
 23
-5437.842012650879
 33
0.0
  0
SOLID
  5
15D
330
158
100
AcDbEntity
  8
0
 62
   123
100
AcDbTrace
 10
21048.01225829806
 20
-5518.342012650879
 30
0.0
 11
21048.84559163139
 21
-5518.342012650879
 31
0.0
 12
21048.42892496473
 22
-5520.842012650879
 32
0.0
 13
21048.42892496473
 23
-5520.842012650879
 33
0.0
  0
MTEXT
  5
15E
330
158
100
AcDbEntity
  8
0
 62
     3
100
AcDbMText
 10
21044.47877496473
 20
-5477.977056018127
 30
0.0
 40
3.0
 41
0.0
 71
     5
 72
     1
  1
\A1;\A1;{\f??|b0|i0|c0|p49;%%C}83{\f??|b0|i0|c0|p49;\H0.7x;\S+0^ -0.035;\H1.429x;(h}7{\f??|b0|i0|c0|p49;)}
 11
0.0000000000000001
 21
1.0
 31
0.0
1001
ACAD
1000
MTEXTBEGIN
1070
    73
1070
     1
1070
    44
1040
1.0
1070
    74
1070
     0
1000
MTEXTEND
  0
POINT
  5
15F
330
158
100
AcDbEntity
  8
DEFPOINTS
 62
     0
100
AcDbPoint
 10
21119.3812397271
 20
-5437.842012650879
 30
0.0
  0
POINT
  5
160
330
158
100
AcDbEntity
  8
DEFPOINTS
 62
     0
100
AcDbPoint
 10
21119.3812397271
 20
-5520.842012650879
 30
0.0
  0
POINT
  5
161
330
158
100
AcDbEntity
  8
DEFPOINTS
 62
     0
100
AcDbPoint
 10
21048.42892496473
 20
-5520.842012650879
 30
0.0
  0
ENDBLK
  5
163
330
158
100
AcDbEntity
  8
0
100
AcDbBlockEnd
  0
BLOCK
  5
1DD
330
1D3
100
AcDbEntity
  8
0
100
AcDbBlockBegin
  2
*D18
 70
     1
 10
0.0
 20
0.0
 30
0.0
  3
*D18
  1

  0
LINE
  5
1D4
330
1D3
100
AcDbEntity
  8
0
 62
   123
100
AcDbLine
 10
21084.38123972709
 20
-5473.342012650879
 30
0.0
 11
21084.38123972709
 21
-5453.810635174729
 31
0.0
  0
LINE
  5
1D5
330
1D3
100
AcDbEntity
  8
0
 62
   123
100
AcDbLine
 10
21114.3812397271
 20
-5472.342012650879
 30
0.0
 11
21114.3812397271
 21
-5453.810635174729
 31
0.0
  0
LINE
  5
1D6
330
1D3
100
AcDbEntity
  8
0
 62
   123
100
AcDbLine
 10
21086.8812397271
 20
-5454.410635174729
 30
0.0
 11
21111.8812397271
 21
-5454.410635174729
 31
0.0
  0
SOLID
  5
1D7
330
1D3
100
AcDbEntity
  8
0
 62
   123
100
AcDbTrace
 10
21086.8812397271
 20
-5453.993968508061
 30
0.0
 11
21086.8812397271
 21
-5454.827301841397
 31
0.0
 12
21084.38123972709
 22
-5454.410635174729
 32
0.0
 13
21084.38123972709
 23
-5454.410635174729
 33
0.0
  0
SOLID
  5
1D8
330
1D3
100
AcDbEntity
  8
0
 62
   123
100
AcDbTrace
 10
21111.8812397271
 20
-5453.993968508061
 30
0.0
 11
21111.8812397271
 21
-5454.827301841397
 31
0.0
 12
21114.3812397271
 22
-5454.410635174729
 32
0.0
 13
21114.3812397271
 23
-5454.410635174729
 33
0.0
  0
MTEXT
  5
1D9
330
1D3
100
AcDbEntity
  8
0
 62
     3
100
AcDbMText
 10
21100.63992409159
 20
-5451.91063517473
 30
0.0
 40
3.0
 41
0.0
 71
     5
 72
     1
  1
\A1;30
1001
ACAD
1000
MTEXTBEGIN
1070
    73
1070
     1
1070
    44
1040
1.0
1070
    74
1070
     0
1000
MTEXTEND
  0
POINT
  5
1DA
330
1D3
100
AcDbEntity
  8
DEFPOINTS
 62
     0
100
AcDbPoint
 10
21084.38123972709
 20
-5474.342012650879
 30
0.0
  0
POINT
  5
1DB
330
1D3
100
AcDbEntity
  8
DEFPOINTS
 62
     0
100
AcDbPoint
 10
21114.3812397271
 20
-5473.342012650879
 30
0.0
  0
POINT
  5
1DC
330
1D3
100
AcDbEntity
  8
DEFPOINTS
 62
     0
100
AcDbPoint
 10
21114.3812397271
 20
-5454.410635174729
 30
0.0
  0
ENDBLK
  5
1DE
330
1D3
100
AcDbEntity
  8
0
100
AcDbBlockEnd
  0
BLOCK
  5
1C9
330
1BF
100
AcDbEntity
  8
0
100
AcDbBlockBegin
  2
*D19
 70
     1
 10
0.0
 20
0.0
 30
0.0
  3
*D19
  1

  0
LINE
  5
1C0
330
1BF
100
AcDbEntity
  8
0
 62
   123
100
AcDbLine
 10
21083.3812397271
 20
-5485.342012650879
 30
0.0
 11
21070.09613896303
 21
-5485.342012650879
 31
0.0
  0
LINE
  5
1C1
330
1BF
100
AcDbEntity
  8
0
 62
   123
100
AcDbLine
 10
21083.3812397271
 20
-5474.342012650879
 30
0.0
 11
21070.09613896303
 21
-5474.342012650879
 31
0.0
  0
LINE
  5
1C2
330
1BF
100
AcDbEntity
  8
0
 62
   123
100
AcDbLine
 10
21070.69613896303
 20
-5482.842012650879
 30
0.0
 11
21070.69613896303
 21
-5476.842012650879
 31
0.0
  0
SOLID
  5
1C3
330
1BF
100
AcDbEntity
  8
0
 62
   123
100
AcDbTrace
 10
21070.27947229636
 20
-5482.842012650879
 30
0.0
 11
21071.11280562969
 21
-5482.842012650879
 31
0.0
 12
21070.69613896303
 22
-5485.342012650879
 32
0.0
 13
21070.69613896303
 23
-5485.342012650879
 33
0.0
  0
SOLID
  5
1C4
330
1BF
100
AcDbEntity
  8
0
 62
   123
100
AcDbTrace
 10
21070.27947229636
 20
-5476.842012650879
 30
0.0
 11
21071.11280562969
 21
-5476.842012650879
 31
0.0
 12
21070.69613896303
 22
-5474.342012650879
 32
0.0
 13
21070.69613896303
 23
-5474.342012650879
 33
0.0
  0
MTEXT
  5
1C5
330
1BF
100
AcDbEntity
  8
0
 62
     3
100
AcDbMText
 10
21068.19613896303
 20
-5479.84201265088
 30
0.0
 40
3.0
 41
0.0
 71
     5
 72
     1
  1
\A1;11
 11
0.0000000000000001
 21
1.0
 31
0.0
1001
ACAD
1000
MTEXTBEGIN
1070
    73
1070
     1
1070
    44
1040
1.0
1070
    74
1070
     0
1000
MTEXTEND
  0
POINT
  5
1C6
330
1BF
100
AcDbEntity
  8
DEFPOINTS
 62
     0
100
AcDbPoint
 10
21084.38123972709
 20
-5485.342012650879
 30
0.0
  0
POINT
  5
1C7
330
1BF
100
AcDbEntity
  8
DEFPOINTS
 62
     0
100
AcDbPoint
 10
21084.38123972709
 20
-5474.342012650879
 30
0.0
  0
POINT
  5
1C8
330
1BF
100
AcDbEntity
  8
DEFPOINTS
 62
     0
100
AcDbPoint
 10
21070.69613896303
 20
-5474.342012650879
 30
0.0
  0
ENDBLK
  5
1CA
330
1BF
100
AcDbEntity
  8
0
100
AcDbBlockEnd
  0
BLOCK
  5
214
330
20A
100
AcDbEntity
  8
0
100
AcDbBlockBegin
  2
*D20
 70
     1
 10
0.0
 20
0.0
 30
0.0
  3
*D20
  1

  0
LINE
  5
20B
330
20A
100
AcDbEntity
  8
0
 62
   123
100
AcDbLine
 10
21121.3812397271
 20
-5434.133679317545
 30
0.0
 11
21121.3812397271
 21
-5408.453964721023
 31
0.0
  0
LINE
  5
20C
330
20A
100
AcDbEntity
  8
0
 62
   123
100
AcDbLine
 10
21128.8812397271
 20
-5434.743275309349
 30
0.0
 11
21128.8812397271
 21
-5408.453964721023
 31
0.0
  0
LINE
  5
20D
330
20A
100
AcDbEntity
  8
0
 62
   123
100
AcDbLine
 10
21123.8812397271
 20
-5409.053964721024
 30
0.0
 11
21126.38123972709
 21
-5409.053964721024
 31
0.0
  0
SOLID
  5
20E
330
20A
100
AcDbEntity
  8
0
 62
   123
100
AcDbTrace
 10
21123.8812397271
 20
-5408.637298054356
 30
0.0
 11
21123.8812397271
 21
-5409.470631387691
 31
0.0
 12
21121.3812397271
 22
-5409.053964721024
 32
0.0
 13
21121.3812397271
 23
-5409.053964721024
 33
0.0
  0
SOLID
  5
20F
330
20A
100
AcDbEntity
  8
0
 62
   123
100
AcDbTrace
 10
21126.38123972709
 20
-5408.637298054356
 30
0.0
 11
21126.38123972709
 21
-5409.470631387691
 31
0.0
 12
21128.8812397271
 22
-5409.053964721024
 32
0.0
 13
21128.8812397271
 23
-5409.053964721024
 33
0.0
  0
MTEXT
  5
210
330
20A
100
AcDbEntity
  8
0
 62
     3
100
AcDbMText
 10
21125.1312397271
 20
-5406.553964721023
 30
0.0
 40
3.0
 41
0.0
 71
     5
 72
     1
  1
\A1;7.5
1001
ACAD
1000
MTEXTBEGIN
1070
    73
1070
     1
1070
    44
1040
1.0
1070
    74
1070
     0
1000
MTEXTEND
  0
POINT
  5
211
330
20A
100
AcDbEntity
  8
DEFPOINTS
 62
     0
100
AcDbPoint
 10
21121.3812397271
 20
-5435.133679317544
 30
0.0
  0
POINT
  5
212
330
20A
100
AcDbEntity
  8
DEFPOINTS
 62
     0
100
AcDbPoint
 10
21128.8812397271
 20
-5435.743275309349
 30
0.0
  0
POINT
  5
213
330
20A
100
AcDbEntity
  8
DEFPOINTS
 62
     0
100
AcDbPoint
 10
21128.8812397271
 20
-5409.053964721024
 30
0.0
  0
ENDBLK
  5
215
330
20A
100
AcDbEntity
  8
0
100
AcDbBlockEnd
  0
BLOCK
  5
2EF
330
2E5
100
AcDbEntity
  8
0
100
AcDbBlockBegin
  2
*D21
 70
     1
 10
0.0
 20
0.0
 30
0.0
  3
*D21
  1

  0
LINE
  5
2E6
330
2E5
100
AcDbEntity
  8
0
 62
   123
100
AcDbLine
 10
168.0223445640403
 20
283.0416261525397
 30
0.0
 11
168.0223445640403
 21
356.1763850604498
 31
0.0
  0
LINE
  5
2E7
330
2E5
100
AcDbEntity
  8
0
 62
   123
100
AcDbLine
 10
189.0223445640403
 20
323.391626152541
 30
0.0
 11
189.0223445640403
 21
356.1763850604498
 31
0.0
  0
LINE
  5
2E8
330
2E5
100
AcDbEntity
  8
0
 62
   123
100
AcDbLine
 10
170.5223445640404
 20
355.5763850604498
 30
0.0
 11
186.5223445640403
 21
355.5763850604498
 31
0.0
  0
SOLID
  5
2E9
330
2E5
100
AcDbEntity
  8
0
 62
   123
100
AcDbTrace
 10
170.5223445640404
 20
355.9930517271165
 30
0.0
 11
170.5223445640404
 21
355.1597183937831
 31
0.0
 12
168.0223445640403
 22
355.5763850604498
 32
0.0
 13
168.0223445640403
 23
355.5763850604498
 33
0.0
  0
SOLID
  5
2EA
330
2E5
100
AcDbEntity
  8
0
 62
   123
100
AcDbTrace
 10
186.5223445640403
 20
355.9930517271165
 30
0.0
 11
186.5223445640403
 21
355.1597183937831
 31
0.0
 12
189.0223445640403
 22
355.5763850604498
 32
0.0
 13
189.0223445640403
 23
355.5763850604498
 33
0.0
  0
MTEXT
  5
2EB
330
2E5
100
AcDbEntity
  8
0
 62
     3
100
AcDbMText
 10
178.5223445640294
 20
358.0763850604498
 30
0.0
 40
3.0
 41
0.0
 71
     5
 72
     1
  1
\A1;21
1001
ACAD
1000
MTEXTBEGIN
1070
    73
1070
     1
1070
    44
1040
1.0
1070
    74
1070
     0
1000
MTEXTEND
  0
POINT
  5
2EC
330
2E5
100
AcDbEntity
  8
DEFPOINTS
 62
     0
100
AcDbPoint
 10
168.0223445640403
 20
282.0416261525397
 30
0.0
  0
POINT
  5
2ED
330
2E5
100
AcDbEntity
  8
DEFPOINTS
 62
     0
100
AcDbPoint
 10
189.0223445640403
 20
322.391626152541
 30
0.0
  0
POINT
  5
2EE
330
2E5
100
AcDbEntity
  8
DEFPOINTS
 62
     0
100
AcDbPoint
 10
189.0223445640403
 20
355.5763850604498
 30
0.0
  0
ENDBLK
  5
2F0
330
2E5
100
AcDbEntity
  8
0
100
AcDbBlockEnd
  0
BLOCK
  5
2FB
330
2F1
100
AcDbEntity
  8
0
100
AcDbBlockBegin
  2
*D22
 70
     1
 10
0.0
 20
0.0
 30
0.0
  3
*D22
  1

  0
LINE
  5
2F2
330
2F1
100
AcDbEntity
  8
0
 62
   123
100
AcDbLine
 10
186.0223445640404
 20
318.8916261525391
 30
0.0
 11
157.00208696892
 21
318.8916261525391
 31
0.0
  0
LINE
  5
2F3
330
2F1
100
AcDbEntity
  8
0
 62
   123
100
AcDbLine
 10
186.0223445640404
 20
235.8916261525391
 30
0.0
 11
157.00208696892
 21
235.8916261525391
 31
0.0
  0
LINE
  5
2F4
330
2F1
100
AcDbEntity
  8
0
 62
   123
100
AcDbLine
 10
157.60208696892
 20
316.3916261525391
 30
0.0
 11
157.60208696892
 21
238.3916261525391
 31
0.0
  0
SOLID
  5
2F5
330
2F1
100
AcDbEntity
  8
0
 62
   123
100
AcDbTrace
 10
157.1854203022534
 20
316.3916261525391
 30
0.0
 11
158.0187536355867
 21
316.3916261525391
 31
0.0
 12
157.60208696892
 22
318.8916261525391
 32
0.0
 13
157.60208696892
 23
318.8916261525391
 33
0.0
  0
SOLID
  5
2F6
330
2F1
100
AcDbEntity
  8
0
 62
   123
100
AcDbTrace
 10
157.1854203022534
 20
238.3916261525391
 30
0.0
 11
158.0187536355867
 21
238.3916261525391
 31
0.0
 12
157.60208696892
 22
235.8916261525391
 32
0.0
 13
157.60208696892
 23
235.8916261525391
 33
0.0
  0
MTEXT
  5
2F7
330
2F1
100
AcDbEntity
  8
0
 62
     3
100
AcDbMText
 10
153.65193696892
 20
277.6217837063659
 30
0.0
 40
3.0
 41
0.0
 71
     5
 72
     1
  1
\A1;\A1;{\f??|b0|i0|c0|p49;%%c}83{\f??|b0|i0|c0|p49;\H0.7x;\S+0^ -0.035;\H1.429x;(h7)}
 11
0.0000000000000001
 21
1.0
 31
0.0
1001
ACAD
1000
MTEXTBEGIN
1070
    73
1070
     1
1070
    44
1040
1.0
1070
    74
1070
     0
1000
MTEXTEND
  0
POINT
  5
2F8
330
2F1
100
AcDbEntity
  8
DEFPOINTS
 62
     0
100
AcDbPoint
 10
187.0223445640403
 20
318.8916261525391
 30
0.0
  0
POINT
  5
2F9
330
2F1
100
AcDbEntity
  8
DEFPOINTS
 62
     0
100
AcDbPoint
 10
187.0223445640403
 20
235.8916261525391
 30
0.0
  0
POINT
  5
2FA
330
2F1
100
AcDbEntity
  8
DEFPOINTS
 62
     0
100
AcDbPoint
 10
157.60208696892
 20
235.8916261525391
 30
0.0
  0
ENDBLK
  5
2FC
330
2F1
100
AcDbEntity
  8
0
100
AcDbBlockEnd
  0
BLOCK
  5
307
330
2FD
100
AcDbEntity
  8
0
100
AcDbBlockBegin
  2
*D23
 70
     1
 10
0.0
 20
0.0
 30
0.0
  3
*D23
  1

  0
LINE
  5
2FE
330
2FD
100
AcDbEntity
  8
0
 62
   123
100
AcDbLine
 10
318.0223445640403
 20
322.391626152541
 30
0.0
 11
343.2202345589591
 21
322.391626152541
 31
0.0
  0
LINE
  5
2FF
330
2FD
100
AcDbEntity
  8
0
 62
   123
100
AcDbLine
 10
318.0223445640403
 20
232.3916261525382
 30
0.0
 11
343.2202345589591
 21
232.3916261525382
 31
0.0
  0
LINE
  5
300
330
2FD
100
AcDbEntity
  8
0
 62
   123
100
AcDbLine
 10
342.6202345589591
 20
319.8916261525409
 30
0.0
 11
342.6202345589591
 21
234.8916261525382
 31
0.0
  0
SOLID
  5
301
330
2FD
100
AcDbEntity
  8
0
 62
   123
100
AcDbTrace
 10
342.2035678922924
 20
319.8916261525409
 30
0.0
 11
343.0369012256258
 21
319.8916261525409
 31
0.0
 12
342.6202345589591
 22
322.391626152541
 32
0.0
 13
342.6202345589591
 23
322.391626152541
 33
0.0
  0
SOLID
  5
302
330
2FD
100
AcDbEntity
  8
0
 62
   123
100
AcDbTrace
 10
342.2035678922924
 20
234.8916261525382
 30
0.0
 11
343.0369012256258
 21
234.8916261525382
 31
0.0
 12
342.6202345589591
 22
232.3916261525382
 32
0.0
 13
342.6202345589591
 23
232.3916261525382
 33
0.0
  0
MTEXT
  5
303
330
2FD
100
AcDbEntity
  8
0
 62
     3
100
AcDbMText
 10
340.120234558959
 20
277.3916261525391
 30
0.0
 40
3.0
 41
0.0
 71
     5
 72
     1
  1
\A1;%%C90
 11
0.0000000000000001
 21
1.0
 31
0.0
1001
ACAD
1000
MTEXTBEGIN
1070
    73
1070
     1
1070
    44
1040
1.0
1070
    74
1070
     0
1000
MTEXTEND
  0
POINT
  5
304
330
2FD
100
AcDbEntity
  8
DEFPOINTS
 62
     0
100
AcDbPoint
 10
317.0223445640404
 20
322.391626152541
 30
0.0
  0
POINT
  5
305
330
2FD
100
AcDbEntity
  8
DEFPOINTS
 62
     0
100
AcDbPoint
 10
317.0223445640404
 20
232.3916261525382
 30
0.0
  0
POINT
  5
306
330
2FD
100
AcDbEntity
  8
DEFPOINTS
 62
     0
100
AcDbPoint
 10
342.6202345589591
 20
232.3916261525382
 30
0.0
  0
ENDBLK
  5
308
330
2FD
100
AcDbEntity
  8
0
100
AcDbBlockEnd
  0
BLOCK
  5
315
330
309
100
AcDbEntity
  8
0
100
AcDbBlockBegin
  2
*D24
 70
     1
 10
0.0
 20
0.0
 30
0.0
  3
*D24
  1

  0
LINE
  5
3FE
330
309
100
AcDbEntity
  8
0
 62
   123
100
AcDbLine
 10
67.95728809969294
 20
222.7400845093989
 30
0.0
 11
67.95728809969293
 21
204.3214971159259
 31
0.0
  0
LINE
  5
3FF
330
309
100
AcDbEntity
  8
0
 62
   123
100
AcDbLine
 10
86.98590846028654
 20
231.4463948769624
 30
0.0
 11
95.9197863511196
 21
209.8852979083125
 31
0.0
  0
ARC
  5
400
330
309
100
AcDbEntity
  8
0
 62
   123
100
AcDbCircle
 10
67.95728809969293
 20
277.3702292731505
 30
0.0
 40
72.44873215722449
100
AcDbArc
 50
271.9772127434109
 51
290.52954415398
  0
SOLID
  5
401
330
309
100
AcDbEntity
  8
0
 62
   123
100
AcDbTrace
 10
70.46410495615387
 20
204.5480264219293
 30
0.0
 11
70.44972697277653
 21
205.3812357101867
 31
0.0
 12
67.95728809969293
 22
204.921497115926
 32
0.0
 13
67.95728809969293
 23
204.921497115926
 33
0.0
  0
SOLID
  5
402
330
309
100
AcDbEntity
  8
0
 62
   123
100
AcDbTrace
 10
93.21152572800185
 20
209.9102342571604
 30
0.0
 11
93.51718902132947
 21
209.1349830749256
 31
0.0
 12
95.69011092137023
 22
210.4395985460259
 32
0.0
 13
95.69011092137023
 23
210.4395985460259
 33
0.0
  0
MTEXT
  5
403
330
309
100
AcDbEntity
  8
0
 62
     3
100
AcDbMText
 10
81.55189742080956
 20
209.0465682443929
 30
0.0
 40
3.0
 41
0.0
 71
     5
 72
     1
  1
\A1;22°30'
 11
0.980773775186957
 21
0.1951481537333221
 31
0.0
  0
POINT
  5
404
330
309
100
AcDbEntity
  8
DEFPOINTS
 62
     0
100
AcDbPoint
 10
77.41656882956462
 20
205.5416778519869
 30
0.0
  0
POINT
  5
405
330
309
100
AcDbEntity
  8
DEFPOINTS
 62
     0
100
AcDbPoint
 10
67.95728809969296
 20
223.7400845093989
 30
0.0
  0
POINT
  5
406
330
309
100
AcDbEntity
  8
DEFPOINTS
 62
     0
100
AcDbPoint
 10
67.95728809969296
 20
277.3702292731504
 30
0.0
  0
POINT
  5
407
330
309
100
AcDbEntity
  8
DEFPOINTS
 62
     0
100
AcDbPoint
 10
86.60311607737094
 20
232.3702292731513
 30
0.0
  0
POINT
  5
408
330
309
100
AcDbEntity
  8
DEFPOINTS
 62
     0
100
AcDbPoint
 10
67.95728809969293
 20
331.0003740369019
 30
0.0
  0
ENDBLK
  5
316
330
309
100
AcDbEntity
  8
0
100
AcDbBlockEnd
  0
BLOCK
  5
321
330
317
100
AcDbEntity
  8
0
100
AcDbBlockBegin
  2
*D25
 70
     1
 10
0.0
 20
0.0
 30
0.0
  3
*D25
  1

  0
LINE
  5
318
330
317
100
AcDbEntity
  8
0
 62
   123
100
AcDbLine
 10
195.9074711803005
 20
124.4077714333834
 30
0.0
 11
125.355156417931
 21
124.4077714333834
 31
0.0
  0
LINE
  5
319
330
317
100
AcDbEntity
  8
0
 62
   123
100
AcDbLine
 10
195.9074711803005
 20
41.40777143338346
 30
0.0
 11
125.355156417931
 21
41.40777143338348
 31
0.0
  0
LINE
  5
31A
330
317
100
AcDbEntity
  8
0
 62
   123
100
AcDbLine
 10
125.955156417931
 20
121.9077714333834
 30
0.0
 11
125.955156417931
 21
43.90777143338348
 31
0.0
  0
SOLID
  5
31B
330
317
100
AcDbEntity
  8
0
 62
   123
100
AcDbTrace
 10
125.5384897512643
 20
121.9077714333834
 30
0.0
 11
126.3718230845976
 21
121.9077714333834
 31
0.0
 12
125.955156417931
 22
124.4077714333834
 32
0.0
 13
125.955156417931
 23
124.4077714333834
 33
0.0
  0
SOLID
  5
31C
330
317
100
AcDbEntity
  8
0
 62
   123
100
AcDbTrace
 10
125.5384897512643
 20
43.90777143338348
 30
0.0
 11
126.3718230845976
 21
43.90777143338348
 31
0.0
 12
125.955156417931
 22
41.40777143338348
 32
0.0
 13
125.955156417931
 23
41.40777143338348
 33
0.0
  0
MTEXT
  5
31D
330
317
100
AcDbEntity
  8
0
 62
     3
100
AcDbMText
 10
122.0050064179309
 20
84.27272806613563
 30
0.0
 40
3.0
 41
0.0
 71
     5
 72
     1
  1
\A1;\A1;{\f??|b0|i0|c0|p49;%%C}83{\f??|b0|i0|c0|p49;\H0.7x;\S+0^ -0.035;\H1.429x;(h}7{\f??|b0|i0|c0|p49;)}
 11
0.0000000000000001
 21
1.0
 31
0.0
1001
ACAD
1000
MTEXTBEGIN
1070
    73
1070
     1
1070
    44
1040
1.0
1070
    74
1070
     0
1000
MTEXTEND
  0
POINT
  5
31E
330
317
100
AcDbEntity
  8
DEFPOINTS
 62
     0
100
AcDbPoint
 10
196.9074711803004
 20
124.4077714333834
 30
0.0
  0
POINT
  5
31F
330
317
100
AcDbEntity
  8
DEFPOINTS
 62
     0
100
AcDbPoint
 10
196.9074711803004
 20
41.40777143338346
 30
0.0
  0
POINT
  5
320
330
317
100
AcDbEntity
  8
DEFPOINTS
 62
     0
100
AcDbPoint
 10
125.955156417931
 20
41.40777143338348
 30
0.0
  0
ENDBLK
  5
322
330
317
100
AcDbEntity
  8
0
100
AcDbBlockEnd
  0
BLOCK
  5
32D
330
323
100
AcDbEntity
  8
0
100
AcDbBlockBegin
  2
*D26
 70
     1
 10
0.0
 20
0.0
 30
0.0
  3
*D26
  1

  0
LINE
  5
3D1
330
323
100
AcDbEntity
  8
0
 62
   123
100
AcDbLine
 10
161.9074711803004
 20
88.90777143338437
 30
0.0
 11
161.9074711803004
 21
167.5957574998661
 31
0.0
  0
LINE
  5
3D2
330
323
100
AcDbEntity
  8
0
 62
   123
100
AcDbLine
 10
198.9074711803004
 20
129.1161047667173
 30
0.0
 11
198.9074711803004
 21
167.5957574998661
 31
0.0
  0
LINE
  5
3D3
330
323
100
AcDbEntity
  8
0
 62
   123
100
AcDbLine
 10
164.4074711803004
 20
166.9957574998661
 30
0.0
 11
196.4074711803004
 21
166.9957574998661
 31
0.0
  0
SOLID
  5
3D4
330
323
100
AcDbEntity
  8
0
 62
   123
100
AcDbTrace
 10
164.4074711803004
 20
167.4124241665328
 30
0.0
 11
164.4074711803004
 21
166.5790908331995
 31
0.0
 12
161.9074711803004
 22
166.9957574998661
 32
0.0
 13
161.9074711803004
 23
166.9957574998661
 33
0.0
  0
SOLID
  5
3D5
330
323
100
AcDbEntity
  8
0
 62
   123
100
AcDbTrace
 10
196.4074711803004
 20
167.4124241665328
 30
0.0
 11
196.4074711803004
 21
166.5790908331995
 31
0.0
 12
198.9074711803004
 22
166.9957574998661
 32
0.0
 13
198.9074711803004
 23
166.9957574998661
 33
0.0
  0
MTEXT
  5
3D6
330
323
100
AcDbEntity
  8
0
 62
     3
100
AcDbMText
 10
180.4074711803004
 20
169.4957574998661
 30
0.0
 40
3.0
 41
0.0
 71
     5
 72
     1
  1
\A1;37
1001
ACAD
1000
MTEXTBEGIN
1070
    73
1070
     1
1070
    44
1040
1.0
1070
    74
1070
     0
1000
MTEXTEND
  0
POINT
  5
3D7
330
323
100
AcDbEntity
  8
DEFPOINTS
 62
     0
100
AcDbPoint
 10
161.9074711803004
 20
87.90777143338436
 30
0.0
  0
POINT
  5
3D8
330
323
100
AcDbEntity
  8
DEFPOINTS
 62
     0
100
AcDbPoint
 10
198.9074711803004
 20
128.1161047667173
 30
0.0
  0
POINT
  5
3D9
330
323
100
AcDbEntity
  8
DEFPOINTS
 62
     0
100
AcDbPoint
 10
198.9074711803004
 20
166.9957574998661
 30
0.0
  0
ENDBLK
  5
32E
330
323
100
AcDbEntity
  8
0
100
AcDbBlockEnd
  0
BLOCK
  5
339
330
32F
100
AcDbEntity
  8
0
100
AcDbBlockBegin
  2
*D27
 70
     1
 10
0.0
 20
0.0
 30
0.0
  3
*D27
  1

  0
LINE
  5
330
330
32F
100
AcDbEntity
  8
0
 62
   123
100
AcDbLine
 10
327.9074711803005
 20
127.9077714333843
 30
0.0
 11
349.0914811977796
 21
127.9077714333843
 31
0.0
  0
LINE
  5
331
330
32F
100
AcDbEntity
  8
0
 62
   123
100
AcDbLine
 10
327.9074711803005
 20
37.90777143338436
 30
0.0
 11
349.0914811977796
 21
37.90777143338436
 31
0.0
  0
LINE
  5
332
330
32F
100
AcDbEntity
  8
0
 62
   123
100
AcDbLine
 10
348.4914811977796
 20
125.4077714333843
 30
0.0
 11
348.4914811977796
 21
40.40777143338436
 31
0.0
  0
SOLID
  5
333
330
32F
100
AcDbEntity
  8
0
 62
   123
100
AcDbTrace
 10
348.0748145311129
 20
125.4077714333843
 30
0.0
 11
348.9081478644463
 21
125.4077714333843
 31
0.0
 12
348.4914811977796
 22
127.9077714333843
 32
0.0
 13
348.4914811977796
 23
127.9077714333843
 33
0.0
  0
SOLID
  5
334
330
32F
100
AcDbEntity
  8
0
 62
   123
100
AcDbTrace
 10
348.0748145311129
 20
40.40777143338436
 30
0.0
 11
348.9081478644463
 21
40.40777143338436
 31
0.0
 12
348.4914811977796
 22
37.90777143338436
 32
0.0
 13
348.4914811977796
 23
37.90777143338436
 33
0.0
  0
MTEXT
  5
335
330
32F
100
AcDbEntity
  8
0
 62
     3
100
AcDbMText
 10
345.9914811977796
 20
82.90777143338438
 30
0.0
 40
3.0
 41
0.0
 71
     5
 72
     1
  1
\A1;%%C90
 11
0.0000000000000001
 21
1.0
 31
0.0
1001
ACAD
1000
MTEXTBEGIN
1070
    73
1070
     1
1070
    44
1040
1.0
1070
    74
1070
     0
1000
MTEXTEND
  0
POINT
  5
336
330
32F
100
AcDbEntity
  8
DEFPOINTS
 62
     0
100
AcDbPoint
 10
326.9074711803004
 20
127.9077714333843
 30
0.0
  0
POINT
  5
337
330
32F
100
AcDbEntity
  8
DEFPOINTS
 62
     0
100
AcDbPoint
 10
326.9074711803004
 20
37.90777143338436
 30
0.0
  0
POINT
  5
338
330
32F
100
AcDbEntity
  8
DEFPOINTS
 62
     0
100
AcDbPoint
 10
348.4914811977796
 20
37.90777143338436
 30
0.0
  0
ENDBLK
  5
33A
330
32F
100
AcDbEntity
  8
0
100
AcDbBlockEnd
  0
BLOCK
  5
345
330
33B
100
AcDbEntity
  8
0
100
AcDbBlockBegin
  2
*D28
 70
     1
 10
0.0
 20
0.0
 30
0.0
  3
*D28
  1

  0
LINE
  5
33C
330
33B
100
AcDbEntity
  8
0
 62
   123
100
AcDbLine
 10
198.9074711803004
 20
144.0077714333838
 30
0.0
 11
198.9074711803004
 21
167.5957574998697
 31
0.0
  0
LINE
  5
33D
330
33B
100
AcDbEntity
  8
0
 62
   123
100
AcDbLine
 10
333.9074711803005
 20
121.4077714333843
 30
0.0
 11
333.9074711803005
 21
167.5957574998697
 31
0.0
  0
LINE
  5
33E
330
33B
100
AcDbEntity
  8
0
 62
   123
100
AcDbLine
 10
201.4074711803004
 20
166.9957574998697
 30
0.0
 11
331.4074711803005
 21
166.9957574998697
 31
0.0
  0
SOLID
  5
33F
330
33B
100
AcDbEntity
  8
0
 62
   123
100
AcDbTrace
 10
201.4074711803004
 20
167.4124241665364
 30
0.0
 11
201.4074711803004
 21
166.5790908332031
 31
0.0
 12
198.9074711803004
 22
166.9957574998697
 32
0.0
 13
198.9074711803004
 23
166.9957574998697
 33
0.0
  0
SOLID
  5
340
330
33B
100
AcDbEntity
  8
0
 62
   123
100
AcDbTrace
 10
331.4074711803005
 20
167.4124241665364
 30
0.0
 11
331.4074711803005
 21
166.5790908332031
 31
0.0
 12
333.9074711803005
 22
166.9957574998697
 32
0.0
 13
333.9074711803005
 23
166.9957574998697
 33
0.0
  0
MTEXT
  5
341
330
33B
100
AcDbEntity
  8
0
 62
     3
100
AcDbMText
 10
266.4074711803004
 20
169.4957574998698
 30
0.0
 40
3.0
 41
0.0
 71
     5
 72
     1
  1
\A1;135
1001
ACAD
1000
MTEXTBEGIN
1070
    73
1070
     1
1070
    44
1040
1.0
1070
    74
1070
     0
1000
MTEXTEND
  0
POINT
  5
342
330
33B
100
AcDbEntity
  8
DEFPOINTS
 62
     0
100
AcDbPoint
 10
198.9074711803004
 20
143.0077714333838
 30
0.0
  0
POINT
  5
343
330
33B
100
AcDbEntity
  8
DEFPOINTS
 62
     0
100
AcDbPoint
 10
333.9074711803005
 20
120.4077714333843
 30
0.0
  0
POINT
  5
344
330
33B
100
AcDbEntity
  8
DEFPOINTS
 62
     0
100
AcDbPoint
 10
333.9074711803005
 20
166.9957574998697
 30
0.0
  0
ENDBLK
  5
346
330
33B
100
AcDbEntity
  8
0
100
AcDbBlockEnd
  0
BLOCK
  5
353
330
347
100
AcDbEntity
  8
0
100
AcDbBlockBegin
  2
*D29
 70
     1
 10
0.0
 20
0.0
 30
0.0
  3
*D29
  1

  0
LINE
  5
409
330
347
100
AcDbEntity
  8
0
 62
   123
100
AcDbLine
 10
49.55738515736084
 20
28.2562297902441
 30
0.0
 11
49.55738515736083
 21
9.837642396776269
 31
0.0
  0
LINE
  5
40A
330
347
100
AcDbEntity
  8
0
 62
   123
100
AcDbLine
 10
68.586005517947
 20
36.96254015780756
 30
0.0
 11
77.51988340877616
 21
15.40144318915857
 31
0.0
  0
ARC
  5
40B
330
347
100
AcDbEntity
  8
0
 62
   123
100
AcDbCircle
 10
49.55738515736084
 20
82.88637455399566
 30
0.0
 40
72.44873215721939
100
AcDbArc
 50
271.9772127434111
 51
290.5295441539719
  0
SOLID
  5
40C
330
347
100
AcDbEntity
  8
0
 62
   123
100
AcDbTrace
 10
52.06420201382178
 20
10.06417170277961
 30
0.0
 11
52.04982403044443
 21
10.89738099103703
 31
0.0
 12
49.55738515736083
 22
10.43764239677626
 32
0.0
 13
49.55738515736083
 23
10.43764239677626
 33
0.0
  0
SOLID
  5
40D
330
347
100
AcDbEntity
  8
0
 62
   123
100
AcDbTrace
 10
74.81162278565843
 20
15.42637953800685
 30
0.0
 11
75.11728607898596
 21
14.65112835577195
 31
0.0
 12
77.2902079790269
 22
15.95574382687198
 32
0.0
 13
77.2902079790269
 23
15.95574382687198
 33
0.0
  0
MTEXT
  5
40E
330
347
100
AcDbEntity
  8
0
 62
     3
100
AcDbMText
 10
63.15199447847174
 20
14.5627135252422
 30
0.0
 40
3.0
 41
0.0
 71
     5
 72
     1
  1
\A1;22°30'
 11
0.9807737751869705
 21
0.1951481537332542
 31
0.0
  0
POINT
  5
40F
330
347
100
AcDbEntity
  8
DEFPOINTS
 62
     0
100
AcDbPoint
 10
59.01666588722854
 20
11.05782313283676
 30
0.0
  0
POINT
  5
410
330
347
100
AcDbEntity
  8
DEFPOINTS
 62
     0
100
AcDbPoint
 10
49.55738515736084
 20
29.2562297902441
 30
0.0
  0
POINT
  5
411
330
347
100
AcDbEntity
  8
DEFPOINTS
 62
     0
100
AcDbPoint
 10
49.55738515736084
 20
82.88637455399566
 30
0.0
  0
POINT
  5
412
330
347
100
AcDbEntity
  8
DEFPOINTS
 62
     0
100
AcDbPoint
 10
68.20321313503154
 20
37.88637455399657
 30
0.0
  0
POINT
  5
413
330
347
100
AcDbEntity
  8
DEFPOINTS
 62
     0
100
AcDbPoint
 10
49.55738515736084
 20
136.5165193177481
 30
0.0
  0
ENDBLK
  5
354
330
347
100
AcDbEntity
  8
0
100
AcDbBlockEnd
  0
BLOCK
  5
35F
330
355
100
AcDbEntity
  8
0
100
AcDbBlockBegin
  2
*D30
 70
     1
 10
0.0
 20
0.0
 30
0.0
  3
*D30
  1

  0
LINE
  5
356
330
355
100
AcDbEntity
  8
0
 62
   123
100
AcDbLine
 10
160.9074711803004
 20
76.90777143338346
 30
0.0
 11
137.4123076776435
 21
76.90777143338348
 31
0.0
  0
LINE
  5
357
330
355
100
AcDbEntity
  8
0
 62
   123
100
AcDbLine
 10
190.9074711803004
 20
88.90777143338345
 30
0.0
 11
137.4123076776435
 21
88.90777143338347
 31
0.0
  0
LINE
  5
358
330
355
100
AcDbEntity
  8
0
 62
   123
100
AcDbLine
 10
138.0123076776435
 20
79.40777143338348
 30
0.0
 11
138.0123076776435
 21
86.40777143338347
 31
0.0
  0
SOLID
  5
359
330
355
100
AcDbEntity
  8
0
 62
   123
100
AcDbTrace
 10
137.5956410109769
 20
79.40777143338348
 30
0.0
 11
138.4289743443102
 21
79.40777143338348
 31
0.0
 12
138.0123076776435
 22
76.90777143338348
 32
0.0
 13
138.0123076776435
 23
76.90777143338348
 33
0.0
  0
SOLID
  5
35A
330
355
100
AcDbEntity
  8
0
 62
   123
100
AcDbTrace
 10
137.5956410109769
 20
86.40777143338347
 30
0.0
 11
138.4289743443102
 21
86.40777143338347
 31
0.0
 12
138.0123076776435
 22
88.90777143338347
 32
0.0
 13
138.0123076776435
 23
88.90777143338347
 33
0.0
  0
MTEXT
  5
35B
330
355
100
AcDbEntity
  8
0
 62
     3
100
AcDbMText
 10
134.0621576776435
 20
82.90777143338349
 30
0.0
 40
3.0
 41
0.0
 71
     5
 72
     1
  1
\A1;\A1;{\f??|b0|i0|c0|p49;%%C}12{\f??|b0|i0|c0|p49;\H0.7x;\S+0^ -0.018;\H1.429x;(h}7{\f??|b0|i0|c0|p49;)}
 11
0.0000000000000001
 21
1.0
 31
0.0
1001
ACAD
1000
MTEXTBEGIN
1070
    73
1070
     1
1070
    44
1040
1.0
1070
    74
1070
     0
1000
MTEXTEND
  0
POINT
  5
35C
330
355
100
AcDbEntity
  8
DEFPOINTS
 62
     0
100
AcDbPoint
 10
161.9074711803004
 20
76.90777143338346
 30
0.0
  0
POINT
  5
35D
330
355
100
AcDbEntity
  8
DEFPOINTS
 62
     0
100
AcDbPoint
 10
191.9074711803004
 20
88.90777143338345
 30
0.0
  0
POINT
  5
35E
330
355
100
AcDbEntity
  8
DEFPOINTS
 62
     0
100
AcDbPoint
 10
138.0123076776435
 20
88.90777143338347
 30
0.0
  0
ENDBLK
  5
360
330
355
100
AcDbEntity
  8
0
100
AcDbBlockEnd
  0
BLOCK
  5
36B
330
361
100
AcDbEntity
  8
0
100
AcDbBlockBegin
  2
*D31
 70
     1
 10
0.0
 20
0.0
 30
0.0
  3
*D31
  1

  0
LINE
  5
362
330
361
100
AcDbEntity
  8
0
 62
   123
100
AcDbLine
 10
161.9074711803004
 20
88.90777143338345
 30
0.0
 11
161.9074711803004
 21
108.4391489095338
 31
0.0
  0
LINE
  5
363
330
361
100
AcDbEntity
  8
0
 62
   123
100
AcDbLine
 10
191.9074711803004
 20
89.90777143338346
 30
0.0
 11
191.9074711803004
 21
108.4391489095338
 31
0.0
  0
LINE
  5
364
330
361
100
AcDbEntity
  8
0
 62
   123
100
AcDbLine
 10
164.4074711803004
 20
107.8391489095338
 30
0.0
 11
189.4074711803004
 21
107.8391489095338
 31
0.0
  0
SOLID
  5
365
330
361
100
AcDbEntity
  8
0
 62
   123
100
AcDbTrace
 10
164.4074711803004
 20
108.2558155762004
 30
0.0
 11
164.4074711803004
 21
107.4224822428671
 31
0.0
 12
161.9074711803004
 22
107.8391489095338
 32
0.0
 13
161.9074711803004
 23
107.8391489095338
 33
0.0
  0
SOLID
  5
366
330
361
100
AcDbEntity
  8
0
 62
   123
100
AcDbTrace
 10
189.4074711803004
 20
108.2558155762004
 30
0.0
 11
189.4074711803004
 21
107.4224822428671
 31
0.0
 12
191.9074711803004
 22
107.8391489095338
 32
0.0
 13
191.9074711803004
 23
107.8391489095338
 33
0.0
  0
MTEXT
  5
367
330
361
100
AcDbEntity
  8
0
 62
     3
100
AcDbMText
 10
178.1661555447935
 20
110.3391489095338
 30
0.0
 40
3.0
 41
0.0
 71
     5
 72
     1
  1
\A1;30
1001
ACAD
1000
MTEXTBEGIN
1070
    73
1070
     1
1070
    44
1040
1.0
1070
    74
1070
     0
1000
MTEXTEND
  0
POINT
  5
368
330
361
100
AcDbEntity
  8
DEFPOINTS
 62
     0
100
AcDbPoint
 10
161.9074711803004
 20
87.90777143338345
 30
0.0
  0
POINT
  5
369
330
361
100
AcDbEntity
  8
DEFPOINTS
 62
     0
100
AcDbPoint
 10
191.9074711803004
 20
88.90777143338345
 30
0.0
  0
POINT
  5
36A
330
361
100
AcDbEntity
  8
DEFPOINTS
 62
     0
100
AcDbPoint
 10
191.9074711803004
 20
107.8391489095338
 30
0.0
  0
ENDBLK
  5
36C
330
361
100
AcDbEntity
  8
0
100
AcDbBlockEnd
  0
BLOCK
  5
377
330
36D
100
AcDbEntity
  8
0
100
AcDbBlockBegin
  2
*D32
 70
     1
 10
0.0
 20
0.0
 30
0.0
  3
*D32
  1

  0
LINE
  5
36E
330
36D
100
AcDbEntity
  8
0
 62
   123
100
AcDbLine
 10
160.9074711803004
 20
76.90777143338346
 30
0.0
 11
147.6223704162316
 21
76.90777143338348
 31
0.0
  0
LINE
  5
36F
330
36D
100
AcDbEntity
  8
0
 62
   123
100
AcDbLine
 10
160.9074711803004
 20
87.90777143338345
 30
0.0
 11
147.6223704162316
 21
87.90777143338347
 31
0.0
  0
LINE
  5
370
330
36D
100
AcDbEntity
  8
0
 62
   123
100
AcDbLine
 10
148.2223704162316
 20
79.40777143338348
 30
0.0
 11
148.2223704162316
 21
85.40777143338347
 31
0.0
  0
SOLID
  5
371
330
36D
100
AcDbEntity
  8
0
 62
   123
100
AcDbTrace
 10
147.8057037495649
 20
79.40777143338348
 30
0.0
 11
148.6390370828982
 21
79.40777143338348
 31
0.0
 12
148.2223704162316
 22
76.90777143338348
 32
0.0
 13
148.2223704162316
 23
76.90777143338348
 33
0.0
  0
SOLID
  5
372
330
36D
100
AcDbEntity
  8
0
 62
   123
100
AcDbTrace
 10
147.8057037495649
 20
85.40777143338347
 30
0.0
 11
148.6390370828982
 21
85.40777143338347
 31
0.0
 12
148.2223704162316
 22
87.90777143338347
 32
0.0
 13
148.2223704162316
 23
87.90777143338347
 33
0.0
  0
MTEXT
  5
373
330
36D
100
AcDbEntity
  8
0
 62
     3
100
AcDbMText
 10
145.7223704162315
 20
82.40777143338254
 30
0.0
 40
3.0
 41
0.0
 71
     5
 72
     1
  1
\A1;11
 11
0.0000000000000001
 21
1.0
 31
0.0
1001
ACAD
1000
MTEXTBEGIN
1070
    73
1070
     1
1070
    44
1040
1.0
1070
    74
1070
     0
1000
MTEXTEND
  0
POINT
  5
374
330
36D
100
AcDbEntity
  8
DEFPOINTS
 62
     0
100
AcDbPoint
 10
161.9074711803004
 20
76.90777143338346
 30
0.0
  0
POINT
  5
375
330
36D
100
AcDbEntity
  8
DEFPOINTS
 62
     0
100
AcDbPoint
 10
161.9074711803004
 20
87.90777143338345
 30
0.0
  0
POINT
  5
376
330
36D
100
AcDbEntity
  8
DEFPOINTS
 62
     0
100
AcDbPoint
 10
148.2223704162316
 20
87.90777143338347
 30
0.0
  0
ENDBLK
  5
378
330
36D
100
AcDbEntity
  8
0
100
AcDbBlockEnd
  0
BLOCK
  5
383
330
379
100
AcDbEntity
  8
0
100
AcDbBlockBegin
  2
*D33
 70
     1
 10
0.0
 20
0.0
 30
0.0
  3
*D33
  1

  0
LINE
  5
37A
330
379
100
AcDbEntity
  8
0
 62
   123
100
AcDbLine
 10
4.563602828249713
 20
123.8649776745887
 30
0.0
 11
4.563602828249714
 21
141.1102040762412
 31
0.0
  0
LINE
  5
37B
330
379
100
AcDbEntity
  8
0
 62
   123
100
AcDbLine
 10
94.56360282824972
 20
123.8649776745887
 30
0.0
 11
94.56360282824972
 21
141.1102040762412
 31
0.0
  0
LINE
  5
37C
330
379
100
AcDbEntity
  8
0
 62
   123
100
AcDbLine
 10
7.063602828249714
 20
140.5102040762412
 30
0.0
 11
92.06360282824972
 21
140.5102040762412
 31
0.0
  0
SOLID
  5
37D
330
379
100
AcDbEntity
  8
0
 62
   123
100
AcDbTrace
 10
7.063602828249714
 20
140.9268707429079
 30
0.0
 11
7.063602828249714
 21
140.0935374095746
 31
0.0
 12
4.563602828249714
 22
140.5102040762412
 32
0.0
 13
4.563602828249714
 23
140.5102040762412
 33
0.0
  0
SOLID
  5
37E
330
379
100
AcDbEntity
  8
0
 62
   123
100
AcDbTrace
 10
92.06360282824972
 20
140.9268707429079
 30
0.0
 11
92.06360282824972
 21
140.0935374095746
 31
0.0
 12
94.56360282824972
 22
140.5102040762412
 32
0.0
 13
94.56360282824972
 23
140.5102040762412
 33
0.0
  0
MTEXT
  5
37F
330
379
100
AcDbEntity
  8
0
 62
     3
100
AcDbMText
 10
49.56360282824971
 20
143.0102040762412
 30
0.0
 40
3.0
 41
0.0
 71
     5
 72
     1
  1
\A1;90
1001
ACAD
1000
MTEXTBEGIN
1070
    73
1070
     1
1070
    44
1040
1.0
1070
    74
1070
     0
1000
MTEXTEND
  0
POINT
  5
380
330
379
100
AcDbEntity
  8
DEFPOINTS
 62
     0
100
AcDbPoint
 10
4.563602828249713
 20
122.8649776745887
 30
0.0
  0
POINT
  5
381
330
379
100
AcDbEntity
  8
DEFPOINTS
 62
     0
100
AcDbPoint
 10
94.56360282824972
 20
122.8649776745887
 30
0.0
  0
POINT
  5
382
330
379
100
AcDbEntity
  8
DEFPOINTS
 62
     0
100
AcDbPoint
 10
94.56360282824972
 20
140.5102040762412
 30
0.0
  0
ENDBLK
  5
384
330
379
100
AcDbEntity
  8
0
100
AcDbBlockEnd
  0
BLOCK
  5
391
330
385
100
AcDbEntity
  8
0
100
AcDbBlockBegin
  2
*D34
 70
     1
 10
0.0
 20
0.0
 30
0.0
  3
*D34
  1

  0
LINE
  5
386
330
385
100
AcDbEntity
  8
0
 62
   123
100
AcDbLine
 10
196.9074711803004
 20
125.4077714333834
 30
0.0
 11
196.9074711803004
 21
142.555962064977
 31
0.0
  0
LINE
  5
387
330
385
100
AcDbEntity
  8
0
 62
   123
100
AcDbLine
 10
198.9074711803004
 20
128.9077714333852
 30
0.0
 11
198.9074711803004
 21
142.555962064977
 31
0.0
  0
LINE
  5
388
330
385
100
AcDbEntity
  8
0
 62
   123
100
AcDbLine
 10
194.4074711803004
 20
141.955962064977
 30
0.0
 11
191.9074711803004
 21
141.955962064977
 31
0.0
  0
LINE
  5
389
330
385
100
AcDbEntity
  8
0
 62
   123
100
AcDbLine
 10
201.4074711803004
 20
141.955962064977
 30
0.0
 11
203.9074711803004
 21
141.955962064977
 31
0.0
  0
LINE
  5
38A
330
385
100
AcDbEntity
  8
0
 62
   123
100
AcDbLine
 10
196.9074711803004
 20
141.955962064977
 30
0.0
 11
198.9074711803004
 21
141.955962064977
 31
0.0
  0
SOLID
  5
38B
330
385
100
AcDbEntity
  8
0
 62
   123
100
AcDbTrace
 10
194.4074711803004
 20
142.3726287316436
 30
0.0
 11
194.4074711803004
 21
141.5392953983103
 31
0.0
 12
196.9074711803004
 22
141.955962064977
 32
0.0
 13
196.9074711803004
 23
141.955962064977
 33
0.0
  0
SOLID
  5
38C
330
385
100
AcDbEntity
  8
0
 62
   123
100
AcDbTrace
 10
201.4074711803004
 20
142.3726287316436
 30
0.0
 11
201.4074711803004
 21
141.5392953983103
 31
0.0
 12
198.9074711803004
 22
141.955962064977
 32
0.0
 13
198.9074711803004
 23
141.955962064977
 33
0.0
  0
MTEXT
  5
38D
330
385
100
AcDbEntity
  8
0
 62
     3
100
AcDbMText
 10
197.9074711803004
 20
144.455962064977
 30
0.0
 40
3.0
 41
0.0
 71
     5
 72
     1
  1
\A1;2
1001
ACAD
1000
MTEXTBEGIN
1070
    73
1070
     1
1070
    44
1040
1.0
1070
    74
1070
     0
1000
MTEXTEND
  0
POINT
  5
38E
330
385
100
AcDbEntity
  8
DEFPOINTS
 62
     0
100
AcDbPoint
 10
196.9074711803004
 20
124.4077714333834
 30
0.0
  0
POINT
  5
38F
330
385
100
AcDbEntity
  8
DEFPOINTS
 62
     0
100
AcDbPoint
 10
198.9074711803004
 20
127.9077714333852
 30
0.0
  0
POINT
  5
390
330
385
100
AcDbEntity
  8
DEFPOINTS
 62
     0
100
AcDbPoint
 10
198.9074711803004
 20
141.955962064977
 30
0.0
  0
ENDBLK
  5
392
330
385
100
AcDbEntity
  8
0
100
AcDbBlockEnd
  0
BLOCK
  5
39D
330
393
100
AcDbEntity
  8
0
100
AcDbBlockBegin
  2
*D35
 70
     1
 10
0.0
 20
0.0
 30
0.0
  3
*D35
  1

  0
LINE
  5
394
330
393
100
AcDbEntity
  8
0
 62
   123
100
AcDbLine
 10
198.9074711803004
 20
128.1161047667183
 30
0.0
 11
198.9074711803004
 21
153.7958193632381
 31
0.0
  0
LINE
  5
395
330
393
100
AcDbEntity
  8
0
 62
   123
100
AcDbLine
 10
206.4074711803004
 20
127.5065087749135
 30
0.0
 11
206.4074711803004
 21
153.7958193632381
 31
0.0
  0
LINE
  5
396
330
393
100
AcDbEntity
  8
0
 62
   123
100
AcDbLine
 10
201.4074711803004
 20
153.1958193632381
 30
0.0
 11
203.9074711803004
 21
153.1958193632381
 31
0.0
  0
SOLID
  5
397
330
393
100
AcDbEntity
  8
0
 62
   123
100
AcDbTrace
 10
201.4074711803004
 20
153.6124860299047
 30
0.0
 11
201.4074711803004
 21
152.7791526965714
 31
0.0
 12
198.9074711803004
 22
153.1958193632381
 32
0.0
 13
198.9074711803004
 23
153.1958193632381
 33
0.0
  0
SOLID
  5
398
330
393
100
AcDbEntity
  8
0
 62
   123
100
AcDbTrace
 10
203.9074711803004
 20
153.6124860299047
 30
0.0
 11
203.9074711803004
 21
152.7791526965714
 31
0.0
 12
206.4074711803004
 22
153.1958193632381
 32
0.0
 13
206.4074711803004
 23
153.1958193632381
 33
0.0
  0
MTEXT
  5
399
330
393
100
AcDbEntity
  8
0
 62
     3
100
AcDbMText
 10
202.6574711803005
 20
155.6958193632381
 30
0.0
 40
3.0
 41
0.0
 71
     5
 72
     1
  1
\A1;7.5
1001
ACAD
1000
MTEXTBEGIN
1070
    73
1070
     1
1070
    44
1040
1.0
1070
    74
1070
     0
1000
MTEXTEND
  0
POINT
  5
39A
330
393
100
AcDbEntity
  8
DEFPOINTS
 62
     0
100
AcDbPoint
 10
198.9074711803004
 20
127.1161047667183
 30
0.0
  0
POINT
  5
39B
330
393
100
AcDbEntity
  8
DEFPOINTS
 62
     0
100
AcDbPoint
 10
206.4074711803004
 20
126.5065087749135
 30
0.0
  0
POINT
  5
39C
330
393
100
AcDbEntity
  8
DEFPOINTS
 62
     0
100
AcDbPoint
 10
206.4074711803004
 20
153.1958193632381
 30
0.0
  0
ENDBLK
  5
39E
330
393
100
AcDbEntity
  8
0
100
AcDbBlockEnd
  0
BLOCK
  5
3A9
330
39F
100
AcDbEntity
  8
0
100
AcDbBlockBegin
  2
*D36
 70
     1
 10
0.0
 20
0.0
 30
0.0
  3
*D36
  1

  0
LINE
  5
3A0
330
39F
100
AcDbEntity
  8
0
 62
   123
100
AcDbLine
 10
22.95728809970023
 20
318.3488323937426
 30
0.0
 11
22.95728809970023
 21
339.4100313290442
 31
0.0
  0
LINE
  5
3A1
330
39F
100
AcDbEntity
  8
0
 62
   123
100
AcDbLine
 10
112.9572880997002
 20
318.3488323937426
 30
0.0
 11
112.9572880997002
 21
339.4100313290442
 31
0.0
  0
LINE
  5
3A2
330
39F
100
AcDbEntity
  8
0
 62
   123
100
AcDbLine
 10
25.45728809970023
 20
338.8100313290442
 30
0.0
 11
110.4572880997002
 21
338.8100313290442
 31
0.0
  0
SOLID
  5
3A3
330
39F
100
AcDbEntity
  8
0
 62
   123
100
AcDbTrace
 10
25.45728809970023
 20
339.2266979957109
 30
0.0
 11
25.45728809970023
 21
338.3933646623775
 31
0.0
 12
22.95728809970023
 22
338.8100313290442
 32
0.0
 13
22.95728809970023
 23
338.8100313290442
 33
0.0
  0
SOLID
  5
3A4
330
39F
100
AcDbEntity
  8
0
 62
   123
100
AcDbTrace
 10
110.4572880997002
 20
339.2266979957109
 30
0.0
 11
110.4572880997002
 21
338.3933646623775
 31
0.0
 12
112.9572880997002
 22
338.8100313290442
 32
0.0
 13
112.9572880997002
 23
338.8100313290442
 33
0.0
  0
MTEXT
  5
3A5
330
39F
100
AcDbEntity
  8
0
 62
     3
100
AcDbMText
 10
67.95728809969296
 20
341.3100313290442
 30
0.0
 40
3.0
 41
0.0
 71
     5
 72
     1
  1
\A1;90
1001
ACAD
1000
MTEXTBEGIN
1070
    73
1070
     1
1070
    44
1040
1.0
1070
    74
1070
     0
1000
MTEXTEND
  0
POINT
  5
3A6
330
39F
100
AcDbEntity
  8
DEFPOINTS
 62
     0
100
AcDbPoint
 10
22.95728809970023
 20
317.3488323937426
 30
0.0
  0
POINT
  5
3A7
330
39F
100
AcDbEntity
  8
DEFPOINTS
 62
     0
100
AcDbPoint
 10
112.9572880997002
 20
317.3488323937426
 30
0.0
  0
POINT
  5
3A8
330
39F
100
AcDbEntity
  8
DEFPOINTS
 62
     0
100
AcDbPoint
 10
112.9572880997002
 20
338.8100313290442
 30
0.0
  0
ENDBLK
  5
3AA
330
39F
100
AcDbEntity
  8
0
100
AcDbBlockEnd
  0
BLOCK
  5
3B5
330
3AB
100
AcDbEntity
  8
0
100
AcDbBlockBegin
  2
*D37
 70
     1
 10
0.0
 20
0.0
 30
0.0
  3
*D37
  1

  0
LINE
  5
3AC
330
3AB
100
AcDbEntity
  8
0
 62
   123
100
AcDbLine
 10
189.0223445640403
 20
338.4916261525395
 30
0.0
 11
189.0223445640403
 21
356.1763850604498
 31
0.0
  0
LINE
  5
3AD
330
3AB
100
AcDbEntity
  8
0
 62
   123
100
AcDbLine
 10
324.0223445640403
 20
315.8916261525409
 30
0.0
 11
324.0223445640403
 21
356.1763850604498
 31
0.0
  0
LINE
  5
3AE
330
3AB
100
AcDbEntity
  8
0
 62
   123
100
AcDbLine
 10
191.5223445640403
 20
355.5763850604498
 30
0.0
 11
321.5223445640404
 21
355.5763850604498
 31
0.0
  0
SOLID
  5
3AF
330
3AB
100
AcDbEntity
  8
0
 62
   123
100
AcDbTrace
 10
191.5223445640403
 20
355.9930517271165
 30
0.0
 11
191.5223445640403
 21
355.1597183937831
 31
0.0
 12
189.0223445640403
 22
355.5763850604498
 32
0.0
 13
189.0223445640403
 23
355.5763850604498
 33
0.0
  0
SOLID
  5
3B0
330
3AB
100
AcDbEntity
  8
0
 62
   123
100
AcDbTrace
 10
321.5223445640404
 20
355.9930517271165
 30
0.0
 11
321.5223445640404
 21
355.1597183937831
 31
0.0
 12
324.0223445640403
 22
355.5763850604498
 32
0.0
 13
324.0223445640403
 23
355.5763850604498
 33
0.0
  0
MTEXT
  5
3B1
330
3AB
100
AcDbEntity
  8
0
 62
     3
100
AcDbMText
 10
256.5223445640294
 20
358.0763850604498
 30
0.0
 40
3.0
 41
0.0
 71
     5
 72
     1
  1
\A1;135
1001
ACAD
1000
MTEXTBEGIN
1070
    73
1070
     1
1070
    44
1040
1.0
1070
    74
1070
     0
1000
MTEXTEND
  0
POINT
  5
3B2
330
3AB
100
AcDbEntity
  8
DEFPOINTS
 62
     0
100
AcDbPoint
 10
189.0223445640403
 20
337.4916261525395
 30
0.0
  0
POINT
  5
3B3
330
3AB
100
AcDbEntity
  8
DEFPOINTS
 62
     0
100
AcDbPoint
 10
324.0223445640403
 20
314.891626152541
 30
0.0
  0
POINT
  5
3B4
330
3AB
100
AcDbEntity
  8
DEFPOINTS
 62
     0
100
AcDbPoint
 10
324.0223445640403
 20
355.5763850604498
 30
0.0
  0
ENDBLK
  5
3B6
330
3AB
100
AcDbEntity
  8
0
100
AcDbBlockEnd
  0
BLOCK
  5
3C1
330
3B7
100
AcDbEntity
  8
0
100
AcDbBlockBegin
  2
*D38
 70
     1
 10
0.0
 20
0.0
 30
0.0
  3
*D38
  1

  0
LINE
  5
3B8
330
3B7
100
AcDbEntity
  8
0
 62
   123
100
AcDbLine
 10
189.0223445640403
 20
322.5999594858731
 30
0.0
 11
189.0223445640403
 21
345.3229367271357
 31
0.0
  0
LINE
  5
3B9
330
3B7
100
AcDbEntity
  8
0
 62
   123
100
AcDbLine
 10
196.5223445640404
 20
321.9903634940692
 30
0.0
 11
196.5223445640404
 21
345.3229367271357
 31
0.0
  0
LINE
  5
3BA
330
3B7
100
AcDbEntity
  8
0
 62
   123
100
AcDbLine
 10
191.5223445640403
 20
344.7229367271356
 30
0.0
 11
194.0223445640403
 21
344.7229367271356
 31
0.0
  0
SOLID
  5
3BB
330
3B7
100
AcDbEntity
  8
0
 62
   123
100
AcDbTrace
 10
191.5223445640403
 20
345.1396033938023
 30
0.0
 11
191.5223445640403
 21
344.306270060469
 31
0.0
 12
189.0223445640403
 22
344.7229367271356
 32
0.0
 13
189.0223445640403
 23
344.7229367271356
 33
0.0
  0
SOLID
  5
3BC
330
3B7
100
AcDbEntity
  8
0
 62
   123
100
AcDbTrace
 10
194.0223445640403
 20
345.1396033938023
 30
0.0
 11
194.0223445640403
 21
344.306270060469
 31
0.0
 12
196.5223445640404
 22
344.7229367271356
 32
0.0
 13
196.5223445640404
 23
344.7229367271356
 33
0.0
  0
MTEXT
  5
3BD
330
3B7
100
AcDbEntity
  8
0
 62
     3
100
AcDbMText
 10
192.7723445640403
 20
347.2229367271356
 30
0.0
 40
3.0
 41
0.0
 71
     5
 72
     1
  1
\A1;7.5
1001
ACAD
1000
MTEXTBEGIN
1070
    73
1070
     1
1070
    44
1040
1.0
1070
    74
1070
     0
1000
MTEXTEND
  0
POINT
  5
3BE
330
3B7
100
AcDbEntity
  8
DEFPOINTS
 62
     0
100
AcDbPoint
 10
189.0223445640403
 20
321.5999594858731
 30
0.0
  0
POINT
  5
3BF
330
3B7
100
AcDbEntity
  8
DEFPOINTS
 62
     0
100
AcDbPoint
 10
196.5223445640404
 20
320.9903634940692
 30
0.0
  0
POINT
  5
3C0
330
3B7
100
AcDbEntity
  8
DEFPOINTS
 62
     0
100
AcDbPoint
 10
196.5223445640404
 20
344.7229367271356
 30
0.0
  0
ENDBLK
  5
3C2
330
3B7
100
AcDbEntity
  8
0
100
AcDbBlockEnd
  0
BLOCK
  5
3CF
330
3C3
100
AcDbEntity
  8
0
100
AcDbBlockBegin
  2
*D39
 70
     1
 10
0.0
 20
0.0
 30
0.0
  3
*D39
  1

  0
LINE
  5
3C4
330
3C3
100
AcDbEntity
  8
0
 62
   123
100
AcDbLine
 10
187.0223445640403
 20
319.8916261525391
 30
0.0
 11
187.0223445640403
 21
334.5926110669366
 31
0.0
  0
LINE
  5
3C5
330
3C3
100
AcDbEntity
  8
0
 62
   123
100
AcDbLine
 10
189.0223445640403
 20
323.391626152541
 30
0.0
 11
189.0223445640403
 21
334.5926110669366
 31
0.0
  0
LINE
  5
3C6
330
3C3
100
AcDbEntity
  8
0
 62
   123
100
AcDbLine
 10
184.5223445640403
 20
333.9926110669366
 30
0.0
 11
182.0223445640404
 21
333.9926110669366
 31
0.0
  0
LINE
  5
3C7
330
3C3
100
AcDbEntity
  8
0
 62
   123
100
AcDbLine
 10
191.5223445640403
 20
333.9926110669366
 30
0.0
 11
194.0223445640403
 21
333.9926110669366
 31
0.0
  0
LINE
  5
3C8
330
3C3
100
AcDbEntity
  8
0
 62
   123
100
AcDbLine
 10
187.0223445640403
 20
333.9926110669366
 30
0.0
 11
189.0223445640403
 21
333.9926110669366
 31
0.0
  0
SOLID
  5
3C9
330
3C3
100
AcDbEntity
  8
0
 62
   123
100
AcDbTrace
 10
184.5223445640403
 20
334.4092777336033
 30
0.0
 11
184.5223445640403
 21
333.5759444002699
 31
0.0
 12
187.0223445640403
 22
333.9926110669366
 32
0.0
 13
187.0223445640403
 23
333.9926110669366
 33
0.0
  0
SOLID
  5
3CA
330
3C3
100
AcDbEntity
  8
0
 62
   123
100
AcDbTrace
 10
191.5223445640403
 20
334.4092777336033
 30
0.0
 11
191.5223445640403
 21
333.5759444002699
 31
0.0
 12
189.0223445640403
 22
333.9926110669366
 32
0.0
 13
189.0223445640403
 23
333.9926110669366
 33
0.0
  0
MTEXT
  5
3CB
330
3C3
100
AcDbEntity
  8
0
 62
     3
100
AcDbMText
 10
188.0223445640403
 20
336.4926110669366
 30
0.0
 40
3.0
 41
0.0
 71
     5
 72
     1
  1
\A1;2
1001
ACAD
1000
MTEXTBEGIN
1070
    73
1070
     1
1070
    44
1040
1.0
1070
    74
1070
     0
1000
MTEXTEND
  0
POINT
  5
3CC
330
3C3
100
AcDbEntity
  8
DEFPOINTS
 62
     0
100
AcDbPoint
 10
187.0223445640403
 20
318.8916261525391
 30
0.0
  0
POINT
  5
3CD
330
3C3
100
AcDbEntity
  8
DEFPOINTS
 62
     0
100
AcDbPoint
 10
189.0223445640403
 20
322.391626152541
 30
0.0
  0
POINT
  5
3CE
330
3C3
100
AcDbEntity
  8
DEFPOINTS
 62
     0
100
AcDbPoint
 10
189.0223445640403
 20
333.9926110669366
 30
0.0
  0
ENDBLK
  5
3D0
330
3C3
100
AcDbEntity
  8
0
100
AcDbBlockEnd
  0
ENDSEC
  0
SECTION
  2
ENTITIES
  0
MTEXT
  5
9B
102
{ACAD_REACTORS
330
C4
102
}
330
2
100
AcDbEntity
  8
0
 62
     3
100
AcDbMText
 10
93.96149835318283
 20
349.8398314579199
 30
0.0
 40
3.0
 41
0.0
 71
     9
 72
     1
  1
4-%%C6.5 hole
1001
ACAD
1000
MTEXTBEGIN
1070
    73
1070
     1
1070
    44
1040
1.0
1070
    74
1070
     0
1000
MTEXTEND
  0
MTEXT
  5
9C
330
2
100
AcDbEntity
  8
DIM
100
AcDbMText
 10
240.353189881469
 20
193.7841705753107
 30
0.0
 40
3.5
 41
0.0
 71
     5
 72
     1
  1
UL Style 3271 , AWG20
1001
ACAD
1000
MTEXTBEGIN
1070
    73
1070
     1
1070
    44
1040
1.0
1070
    74
1070
     0
1000
MTEXTEND
  0
MTEXT
  5
9E
330
2
100
AcDbEntity
  8
DIM
100
AcDbMText
 10
244.5501095540421
 20
200.1684722333784
 30
0.0
 40
3.5
 41
0.0
 71
     5
 72
     1
  1
MOTOR LEAD WIRE 300mm
1001
ACAD
1000
MTEXTBEGIN
1070
    73
1070
     1
1070
    44
1040
1.0
1070
    74
1070
     0
1000
MTEXTEND
  0
MTEXT
  5
9F
102
{ACAD_REACTORS
330
C5
102
}
330
2
100
AcDbEntity
  8
0
 62
     3
100
AcDbMText
 10
75.56781308173959
 20
155.3559767387659
 30
0.0
 40
3.0
 41
0.0
 71
     9
 72
     1
  1
4-%%C6.5 hole
1001
ACAD
1000
MTEXTBEGIN
1070
    73
1070
     1
1070
    44
1040
1.0
1070
    74
1070
     0
1000
MTEXTEND
  0
MTEXT
  5
A0
330
2
100
AcDbEntity
  8
DIM
100
AcDbMText
 10
254.3603285140016
 20
5.684617514224555
 30
0.0
 40
3.5
 41
0.0
 71
     5
 72
     1
  1
MOTOR LEAD WIRE 300mm
1001
ACAD
1000
MTEXTBEGIN
1070
    73
1070
     1
1070
    44
1040
1.0
1070
    74
1070
     0
1000
MTEXTEND
  0
MTEXT
  5
A1
330
2
100
AcDbEntity
  8
DIM
100
AcDbMText
 10
249.0286273293604
 20
-0.6752180024832342
 30
0.0
 40
3.5
 41
0.0
 71
     5
 72
     1
  1
UL Style 3271, AWG20
1001
ACAD
1000
MTEXTBEGIN
1070
    73
1070
     1
1070
    44
1040
1.0
1070
    74
1070
     0
1000
MTEXTEND
  0
DIMENSION
  5
A2
330
2
100
AcDbEntity
  8
0
100
AcDbDimension
  2
*D24
 10
67.95728809969296
 20
331.000374036902
 30
0.0
 11
81.55189742080954
 21
209.0465682443929
 31
0.0
 70
    34
  1
<>
  3
STANDARD
100
AcDb2LineAngularDimension
 13
67.95728809969296
 23
277.3702292731504
 33
0.0
 14
86.60311607737094
 24
232.3702292731514
 34
0.0
 15
67.95728809969296
 25
223.7400845093989
 35
0.0
 16
77.41656882956462
 26
205.5416778519869
 36
0.0
1001
ACAD
1000
DSTYLE
1002
{
1070
   271
1070
     1
1070
   271
1070
     1
1002
}
  0
DIMENSION
  5
B3
330
2
100
AcDbEntity
  8
0
100
AcDbDimension
  2
*D29
 10
49.55738515736084
 20
136.5165193177481
 30
0.0
 11
63.15199447847174
 21
14.5627135252422
 31
0.0
 70
    34
  1
<>
  3
STANDARD
100
AcDb2LineAngularDimension
 13
49.55738515736084
 23
82.88637455399566
 33
0.0
 14
68.20321313503154
 24
37.88637455399657
 34
0.0
 15
49.55738515736084
 25
29.2562297902441
 35
0.0
 16
59.01666588722854
 26
11.05782313283676
 36
0.0
1001
ACAD
1000
DSTYLE
1002
{
1070
   271
1070
     1
1070
   271
1070
     1
1002
}
  0
LEADER
  5
C2
330
2
100
AcDbEntity
  8
0
100
AcDbLeader
  3
STANDARD
 76
     2
 10
203.6596088971418
 20
217.150742826886
 30
0.0
 10
208.2960428132683
 20
197.6684722333784
 30
0.0
1001
ACAD
1000
DSTYLE
1002
{
1070
     5
1000

1070
   342
1005
0
1002
}
  0
LEADER
  5
C3
330
2
100
AcDbEntity
  8
0
100
AcDbLeader
  3
STANDARD
 76
     2
 10
213.3803063727427
 20
22.66688810772939
 30
0.0
 10
218.0167402888837
 20
3.184617514223646
 30
0.0
1001
ACAD
1000
DSTYLE
1002
{
1070
     5
1000

1070
   342
1005
0
1002
}
  0
LEADER
  5
C4
330
2
100
AcDbEntity
  8
0
100
AcDbLeader
  3
STANDARD
 73
     0
 75
     1
 40
3.0
 41
26.65178571428571
 76
     3
 10
104.7514812961198
 20
317.3108006053444
 30
0.0
 10
97.46149835318284
 20
348.8398314579199
 30
0.0
 10
94.96149835318282
 20
348.8398314579199
 30
0.0
340
9B
1001
ACAD
1000
DSTYLE
1002
{
1070
     5
1000

1070
   342
1005
0
1002
}
  0
LEADER
  5
C5
330
2
100
AcDbEntity
  8
0
100
AcDbLeader
  3
STANDARD
 73
     0
 75
     1
 40
3.0
 41
26.65178571428571
 76
     3
 10
86.35779602468392
 20
122.8269458861896
 30
0.0
 10
79.06781308173958
 20
154.355976738766
 30
0.0
 10
76.56781308173958
 20
154.355976738766
 30
0.0
340
9F
1001
ACAD
1000
DSTYLE
1002
{
1070
     5
1000

1070
   342
1005
0
1002
}
  0
ARC
  5
C6
330
2
100
AcDbEntity
  8
0
100
AcDbCircle
 10
326.9074711803004
 20
120.9077714333834
 30
0.0
 40
7.0
100
AcDbArc
 50
359.9999999999998
 51
90.0000000000001
  0
DIMENSION
  5
C7
330
2
100
AcDbEntity
  8
0
100
AcDbDimension
  2
*D28
 10
333.9074711803005
 20
166.9957574998697
 30
0.0
 11
266.4074711803004
 21
166.9957574998697
 31
0.0
 70
   160
  3
STANDARD
100
AcDbAlignedDimension
 13
198.9074711803004
 23
143.0077714333838
 33
0.0
 14
333.9074711803005
 24
120.4077714333843
 34
0.0
100
AcDbRotatedDimension
  0
ARC
  5
D4
330
2
100
AcDbEntity
  8
0
100
AcDbCircle
 10
326.9074711803004
 20
55.50384683162338
 30
0.0
 40
7.0
100
AcDbArc
 50
359.9999999999997
 51
89.99999999999984
  0
ARC
  5
D5
330
2
100
AcDbEntity
  8
0
100
AcDbCircle
 10
326.9074711803004
 20
69.50384683162337
 30
0.0
 40
7.0
100
AcDbArc
 50
269.9999999999998
 51
359.9999999999998
  0
ARC
  5
D6
330
2
100
AcDbEntity
  8
0
100
AcDbCircle
 10
326.9074711803004
 20
44.90777143338346
 30
0.0
 40
7.0
100
AcDbArc
 50
269.9999999999998
 51
359.9999999999997
  0
LINE
  5
D7
330
2
100
AcDbEntity
  8
CEN
 48
0.6
100
AcDbLine
 10
338.7357666618409
 20
82.90777143338345
 30
0.0
 11
154.0574746309612
 21
82.90777143338345
 31
0.0
  0
LINE
  5
DA
330
2
100
AcDbEntity
  8
CEN
 48
0.6
100
AcDbLine
 10
331.3856116533679
 20
277.3916261525391
 30
0.0
 11
160.5288340165425
 21
277.3916261525391
 31
0.0
  0
DIMENSION
  5
DB
330
2
100
AcDbEntity
  8
0
100
AcDbDimension
  2
*D23
 10
342.6202345589591
 20
232.3916261525382
 30
0.0
 11
342.620234558959
 21
277.3916261525391
 31
0.0
 70
   160
  1
%%C<>
  3
STANDARD
100
AcDbAlignedDimension
 13
317.0223445640404
 23
322.391626152541
 33
0.0
 14
317.0223445640404
 24
232.3916261525382
 34
0.0
 50
90.0
100
AcDbRotatedDimension
  0
ARC
  5
E8
330
2
100
AcDbEntity
  8
0
100
AcDbCircle
 10
326.9074711803004
 20
110.3116960351453
 30
0.0
 40
7.0
100
AcDbArc
 50
270.0
 51
359.9999999999998
  0
ARC
  5
E9
330
2
100
AcDbEntity
  8
0
100
AcDbCircle
 10
326.9074711803004
 20
96.31169603514535
 30
0.0
 40
7.0
100
AcDbArc
 50
359.9999999999998
 51
90.0
  0
DIMENSION
  5
EA
330
2
100
AcDbEntity
  8
0
100
AcDbDimension
  2
*D27
 10
348.4914811977796
 20
37.90777143338436
 30
0.0
 11
348.4914811977796
 21
82.90777143338436
 31
0.0
 70
   160
  1
%%C<>
  3
STANDARD
100
AcDbAlignedDimension
 13
326.9074711803004
 23
127.9077714333843
 33
0.0
 14
326.9074711803004
 24
37.90777143338436
 34
0.0
 50
90.0
100
AcDbRotatedDimension
  0
DIMENSION
  5
F7
102
{ACAD_XDICTIONARY
360
F8
102
}
102
{ACAD_REACTORS
330
F9
102
}
330
2
100
AcDbEntity
  8
0
100
AcDbDimension
  2
*D22
 10
157.60208696892
 20
235.8916261525391
 30
0.0
 11
157.60208696892
 21
277.6217837063659
 31
0.0
 70
   160
  1
\A1;{\f??|b0|i0|c0|p49;%%c}<>{\f??|b0|i0|c0|p49;\H0.7x;\S+0^ -0.035;\H1.429x;(h7)}
  3
STANDARD
100
AcDbAlignedDimension
 13
187.0223445640403
 23
318.8916261525391
 33
0.0
 14
187.0223445640403
 24
235.8916261525391
 34
0.0
 50
90.0
100
AcDbRotatedDimension
  0
DIMENSION
  5
106
330
2
100
AcDbEntity
  8
0
100
AcDbDimension
  2
*D21
 10
189.0223445640403
 20
355.5763850604498
 30
0.0
 11
178.5223445640294
 21
355.5763850604498
 31
0.0
 70
   160
  3
STANDARD
100
AcDbAlignedDimension
 13
168.0223445640403
 23
282.0416261525397
 33
0.0
 14
189.0223445640403
 24
322.391626152541
 34
0.0
100
AcDbRotatedDimension
  0
ARC
  5
113
330
2
100
AcDbEntity
  8
0
 48
0.6
100
AcDbCircle
 10
67.88182378551209
 20
277.3916261525391
 30
0.0
 40
36.81561599999999
100
AcDbArc
 50
26.36567250321681
 51
63.63432749678904
  0
ARC
  5
114
330
2
100
AcDbEntity
  8
0
 48
0.6
100
AcDbCircle
 10
67.88182378551209
 20
277.3916261525391
 30
0.0
 40
36.81561599999999
100
AcDbArc
 50
116.3656725032109
 51
153.634327496783
  0
INSERT
  5
115
330
2
100
AcDbEntity
  8
0
100
AcDbBlockReference
  2
4
 10
67.95728809969296
 20
277.3916261525391
 30
0.0
  0
LINE
  5
136
330
2
100
AcDbEntity
  8
CEN
 48
0.6
100
AcDbLine
 10
67.95728809969296
 20
224.8016958353982
 30
0.0
 11
67.95728809969296
 21
329.9815564696809
 31
0.0
  0
CIRCLE
  5
137
330
2
100
AcDbEntity
  8
0
 48
0.6
100
AcDbCircle
 10
67.95728809969296
 20
277.3916261525391
 30
0.0
 40
42.00000000000005
  0
CIRCLE
  5
138
330
2
100
AcDbEntity
  8
0
 48
0.6
100
AcDbCircle
 10
67.95728809969296
 20
277.3916261525391
 30
0.0
 40
43.5
  0
ARC
  5
139
330
2
100
AcDbEntity
  8
0
100
AcDbCircle
 10
317.0223445640404
 20
304.7955507543001
 30
0.0
 40
7.0
100
AcDbArc
 50
270.0
 51
359.9999999999998
  0
ARC
  5
13A
330
2
100
AcDbEntity
  8
0
100
AcDbCircle
 10
317.0223445640404
 20
290.7955507543019
 30
0.0
 40
7.0
100
AcDbArc
 50
359.9999999999998
 51
90.0
  0
LINE
  5
13B
330
2
100
AcDbEntity
  8
0
100
AcDbLine
 10
257.1223445640425
 20
304.8916261525391
 30
0.0
 11
257.1223445640425
 21
249.8916261525391
 31
0.0
  0
LINE
  5
13C
330
2
100
AcDbEntity
  8
0
100
AcDbLine
 10
324.0223445640403
 20
304.7955507543001
 30
0.0
 11
324.0223445640403
 21
249.9877015507791
 31
0.0
  0
LINE
  5
13D
330
2
100
AcDbEntity
  8
0
100
AcDbLine
 10
299.0223445640403
 20
322.391626152541
 30
0.0
 11
299.0223445640294
 21
232.3916261525382
 31
0.0
  0
LINE
  5
13E
330
2
100
AcDbEntity
  8
0
100
AcDbLine
 10
195.6223445640425
 20
322.3916261525382
 30
0.0
 11
195.6223445640425
 21
232.3916261525382
 31
0.0
  0
LINE
  5
13F
102
{ACAD_REACTORS
330
F9
102
}
330
2
100
AcDbEntity
  8
0
100
AcDbLine
 10
187.0223445640403
 20
318.8916261525391
 30
0.0
 11
187.0223445640403
 21
235.8916261525391
 31
0.0
  0
LINE
  5
140
330
2
100
AcDbEntity
  8
0
100
AcDbLine
 10
189.0223445640403
 20
322.3916261525382
 30
0.0
 11
189.0223445640403
 21
232.3916261525382
 31
0.0
  0
LINE
  5
141
330
2
100
AcDbEntity
  8
0
100
AcDbLine
 10
206.4074711803004
 20
118.8065087749137
 30
0.0
 11
206.4074711803004
 21
126.5065087749135
 31
0.0
  0
INSERT
  5
142
330
2
100
AcDbEntity
  8
0
100
AcDbBlockReference
  2
4
 10
49.56360282824971
 20
82.90777143338164
 30
0.0
  0
CIRCLE
  5
143
330
2
100
AcDbEntity
  8
0
 48
0.6
100
AcDbCircle
 10
49.56360282824971
 20
82.90777143338345
 30
0.0
 40
42.00000000000005
  0
CIRCLE
  5
144
330
2
100
AcDbEntity
  8
0
 48
0.6
100
AcDbCircle
 10
49.56360282824971
 20
82.90777143338345
 30
0.0
 40
43.5
  0
LINE
  5
145
330
2
100
AcDbEntity
  8
CEN
 48
0.6
100
AcDbLine
 10
49.56360282824971
 20
31.13833738739685
 30
0.0
 11
49.56360282824971
 21
134.6772054793718
 31
0.0
  0
DIMENSION
  5
146
102
{ACAD_XDICTIONARY
360
147
102
}
102
{ACAD_REACTORS
330
148
102
}
330
2
100
AcDbEntity
  8
0
100
AcDbDimension
  2
*D26
 10
198.9074711803004
 20
166.9957574998661
 30
0.0
 11
180.4074711803004
 21
166.9957574998661
 31
0.0
 70
   160
  3
STANDARD
100
AcDbAlignedDimension
 13
161.9074711803004
 23
87.90777143338436
 33
0.0
 14
198.9074711803004
 24
128.1161047667173
 34
0.0
100
AcDbRotatedDimension
  0
DIMENSION
  5
155
102
{ACAD_XDICTIONARY
360
156
102
}
102
{ACAD_REACTORS
330
157
102
}
330
2
100
AcDbEntity
  8
0
100
AcDbDimension
  2
*D25
 10
125.955156417931
 20
41.40777143338348
 30
0.0
 11
125.955156417931
 21
84.27272806613563
 31
0.0
 70
   160
  1
\A1;{\f??|b0|i0|c0|p49;%%C}<>{\f??|b0|i0|c0|p49;\H0.7x;\S+0^ -0.035;\H1.429x;(h}7{\f??|b0|i0|c0|p49;)}
  3
STANDARD
100
AcDbAlignedDimension
 13
196.9074711803004
 23
124.4077714333834
 33
0.0
 14
196.9074711803004
 24
41.40777143338346
 34
0.0
 50
90.0
100
AcDbRotatedDimension
  0
LINE
  5
164
102
{ACAD_REACTORS
330
157
102
}
330
2
100
AcDbEntity
  8
0
100
AcDbLine
 10
196.9074711803004
 20
124.4077714333834
 30
0.0
 11
196.9074711803004
 21
41.40777143338346
 31
0.0
  0
LINE
  5
165
330
2
100
AcDbEntity
  8
0
100
AcDbLine
 10
308.9074711803005
 20
127.9077714333834
 30
0.0
 11
308.9074711803005
 21
37.90777143338255
 31
0.0
  0
LINE
  5
166
330
2
100
AcDbEntity
  8
0
100
AcDbLine
 10
205.507471180299
 20
127.9077714333852
 30
0.0
 11
205.507471180299
 21
37.90777143338255
 31
0.0
  0
LINE
  5
167
330
2
100
AcDbEntity
  8
0
100
AcDbLine
 10
198.9074711803004
 20
127.9077714333834
 30
0.0
 11
198.9074711803004
 21
37.90777143338255
 31
0.0
  0
LINE
  5
168
330
2
100
AcDbEntity
  8
0
100
AcDbLine
 10
308.9074711803005
 20
103.3116960351453
 30
0.0
 11
326.9074711803004
 21
103.3116960351453
 31
0.0
  0
LINE
  5
169
330
2
100
AcDbEntity
  8
0
100
AcDbLine
 10
267.007471180299
 20
110.4077714333834
 30
0.0
 11
205.507471180299
 21
110.4077714333834
 31
0.0
  0
LINE
  5
16A
330
2
100
AcDbEntity
  8
0
100
AcDbLine
 10
205.507471180299
 20
118.8065087749137
 30
0.0
 11
206.4074711803004
 21
118.8065087749137
 31
0.0
  0
ARC
  5
16B
330
2
100
AcDbEntity
  8
0
 48
0.6
100
AcDbCircle
 10
49.48813851406885
 20
82.90777143338345
 30
0.0
 40
33.74764799999999
100
AcDbArc
 50
72.28019184719491
 51
107.719808152805
  0
ARC
  5
16C
330
2
100
AcDbEntity
  8
0
 48
0.6
100
AcDbCircle
 10
38.28284947401334
 20
117.9767189366684
 30
0.0
 40
3.067967999999998
100
AcDbArc
 50
231.948674480613
 51
287.7198081528051
  0
ARC
  5
16D
330
2
100
AcDbEntity
  8
0
 48
0.6
100
AcDbCircle
 10
34.5008602259586
 20
113.1449213494533
 30
0.0
 40
3.067967999999998
100
AcDbArc
 50
51.94867448061305
 51
116.3656725032109
  0
ARC
  5
16E
330
2
100
AcDbEntity
  8
0
 48
0.6
100
AcDbCircle
 10
60.69342755413163
 20
117.9767189366684
 30
0.0
 40
3.067967999999998
100
AcDbArc
 50
252.2801918471949
 51
308.0513255193868
  0
ARC
  5
16F
330
2
100
AcDbEntity
  8
0
 48
0.6
100
AcDbCircle
 10
64.47541680217182
 20
113.1449213494533
 30
0.0
 40
3.067967999999998
100
AcDbArc
 50
63.63432749678904
 51
128.0513255193868
  0
LINE
  5
170
330
2
100
AcDbEntity
  8
0
100
AcDbLine
 10
314.3472933613338
 20
83.76279444509055
 30
0.0
 11
316.0537005886617
 21
82.05638721776267
 31
0.0
  0
LINE
  5
171
330
2
100
AcDbEntity
  8
0
100
AcDbLine
 10
316.0573393847517
 20
83.76279444509055
 30
0.0
 11
314.3509321574201
 21
82.05638721776267
 31
0.0
  0
LINE
  5
172
330
2
100
AcDbEntity
  8
0
100
AcDbLine
 10
308.9074711803005
 20
62.50384683162337
 30
0.0
 11
326.9074711803004
 21
62.50384683162337
 31
0.0
  0
LINE
  5
173
330
2
100
AcDbEntity
  8
0
100
AcDbLine
 10
316.8078306017305
 20
37.01883604773866
 30
0.0
 11
316.8078306017305
 21
37.90777143338255
 31
0.0
  0
LINE
  5
174
330
2
100
AcDbEntity
  8
0
100
AcDbLine
 10
313.3745111292082
 20
36.01883604773866
 30
0.0
 11
315.8078306017305
 21
36.01883604773866
 31
0.0
  0
ARC
  5
175
330
2
100
AcDbEntity
  8
0
100
AcDbCircle
 10
315.8078306017305
 20
37.01883604773866
 30
0.0
 40
1.0
100
AcDbArc
 50
269.9999999999998
 51
0.0
  0
LINE
  5
176
330
2
100
AcDbEntity
  8
0
100
AcDbLine
 10
312.3745111292082
 20
37.90777143338255
 30
0.0
 11
312.3745111292082
 21
37.01883604773866
 31
0.0
  0
ARC
  5
177
330
2
100
AcDbEntity
  8
0
100
AcDbCircle
 10
313.3745111292082
 20
37.01883604773866
 30
0.0
 40
1.0
100
AcDbArc
 50
180.0
 51
270.0
  0
LINE
  5
178
330
2
100
AcDbEntity
  8
0
100
AcDbLine
 10
267.007471180299
 20
55.40777143338345
 30
0.0
 11
205.507471180299
 21
55.40777143338345
 31
0.0
  0
LINE
  5
179
330
2
100
AcDbEntity
  8
0
100
AcDbLine
 10
205.507471180299
 20
47.00903409185412
 30
0.0
 11
206.4074711803004
 21
47.00903409185412
 31
0.0
  0
LINE
  5
17A
330
2
100
AcDbEntity
  8
0
100
AcDbLine
 10
215.9074711803004
 20
37.90777143338255
 30
0.0
 11
215.9074711803004
 21
37.40777143338346
 31
0.0
  0
ARC
  5
17B
330
2
100
AcDbEntity
  8
0
100
AcDbCircle
 10
215.4074711803005
 20
37.40777143338346
 30
0.0
 40
0.5
100
AcDbArc
 50
270.0
 51
0.0
  0
ARC
  5
17C
330
2
100
AcDbEntity
  8
0
100
AcDbCircle
 10
247.2101931803008
 20
36.81912543338603
 30
0.0
 40
37.855792
100
AcDbArc
 50
212.7486590000019
 51
219.5987459999966
  0
ARC
  5
17D
330
2
100
AcDbEntity
  8
0
100
AcDbCircle
 10
217.183537180299
 20
17.14010443338338
 30
0.0
 40
0.7499080000000001
100
AcDbArc
 50
242.6628950000009
 51
2.834422999996808
  0
ARC
  5
17E
330
2
100
AcDbEntity
  8
0
100
AcDbCircle
 10
247.2101931803008
 20
36.81912543338603
 30
0.0
 40
36.555792
100
AcDbArc
 50
205.2470409999969
 51
213.8176429999978
  0
ARC
  5
17F
330
2
100
AcDbEntity
  8
0
100
AcDbCircle
 10
216.1205061803011
 20
16.37793743338352
 30
0.0
 40
0.7499080000000001
100
AcDbArc
 50
62.66289500000094
 51
182.8344229999968
  0
ARC
  5
180
330
2
100
AcDbEntity
  8
0
100
AcDbCircle
 10
214.6225251803007
 20
16.30377143338319
 30
0.0
 40
0.7499080000000001
100
AcDbArc
 50
242.6628950000009
 51
2.834422999996808
  0
ARC
  5
181
330
2
100
AcDbEntity
  8
0
100
AcDbCircle
 10
214.8937351802997
 20
21.16625643338648
 30
0.0
 40
0.7499080000000001
100
AcDbArc
 50
55.16127700000105
 51
175.3328050000016
  0
ARC
  5
182
330
2
100
AcDbEntity
  8
0
100
AcDbCircle
 10
213.3988921802993
 20
21.28829343338475
 30
0.0
 40
0.7499080000000001
100
AcDbArc
 50
235.1612770000011
 51
355.3328050000017
  0
ARC
  5
183
330
2
100
AcDbEntity
  8
0
100
AcDbCircle
 10
218.6815191802998
 20
17.21427043338644
 30
0.0
 40
0.7499080000000001
100
AcDbArc
 50
62.66289500000094
 51
182.8344229999968
  0
ARC
  5
184
330
2
100
AcDbEntity
  8
0
100
AcDbCircle
 10
218.3037401803012
 20
13.39205243338438
 30
0.0
 40
0.7499080000000001
100
AcDbArc
 50
249.5129820000002
 51
9.684509999999278
  0
ARC
  5
185
330
2
100
AcDbEntity
  8
0
100
AcDbCircle
 10
219.7821821803009
 20
13.64435543338641
 30
0.0
 40
0.7499080000000001
100
AcDbArc
 50
69.51298200000024
 51
189.6845099999992
  0
ARC
  5
186
330
2
100
AcDbEntity
  8
0
100
AcDbCircle
 10
247.2101931803008
 20
36.81912543338603
 30
0.0
 40
35.255792
100
AcDbArc
 50
213.8564239999994
 51
219.5987459999966
  0
ARC
  5
187
330
2
100
AcDbEntity
  8
0
100
AcDbCircle
 10
247.2101931803008
 20
36.81912543338603
 30
0.0
 40
33.95579199999999
100
AcDbArc
 50
179.8504230000004
 51
213.8981229999992
  0
ARC
  5
188
330
2
100
AcDbEntity
  8
0
100
AcDbCircle
 10
247.2101931803008
 20
36.81912543338603
 30
0.0
 40
35.255792
100
AcDbArc
 50
179.8559380000023
 51
205.2470409999969
  0
LINE
  5
189
330
2
100
AcDbEntity
  8
0
100
AcDbLine
 10
205.9074711803004
 20
37.90777143338255
 30
0.0
 11
205.9074711803004
 21
37.40777143338346
 31
0.0
  0
LINE
  5
18A
330
2
100
AcDbEntity
  8
0
100
AcDbLine
 10
205.507471180299
 20
39.30903409185521
 30
0.0
 11
206.4074711803004
 21
39.30903409185521
 31
0.0
  0
ARC
  5
18B
330
2
100
AcDbEntity
  8
0
100
AcDbCircle
 10
206.4074711803004
 20
37.40777143338346
 30
0.0
 40
0.5
100
AcDbArc
 50
180.0
 51
270.0
  0
ARC
  5
18C
330
2
100
AcDbEntity
  8
0
100
AcDbCircle
 10
247.2101931803008
 20
36.81912543338603
 30
0.0
 40
39.15579199999999
100
AcDbArc
 50
179.8702869999971
 51
212.7486590000019
  0
ARC
  5
18D
330
2
100
AcDbEntity
  8
0
100
AcDbCircle
 10
247.2101931803008
 20
36.81912543338603
 30
0.0
 40
37.855792
100
AcDbArc
 50
179.8658329999985
 51
205.2470409999969
  0
LINE
  5
18E
330
2
100
AcDbEntity
  8
0
100
AcDbLine
 10
215.4074711803005
 20
36.90777143338346
 30
0.0
 11
206.4074711803004
 21
36.90777143338346
 31
0.0
  0
LINE
  5
18F
330
2
100
AcDbEntity
  8
0
 62
   123
100
AcDbLine
 10
218.0167402888837
 20
3.184617514223646
 30
0.0
 11
289.8541096439839
 21
3.184617514223646
 31
0.0
  0
LINE
  5
190
330
2
100
AcDbEntity
  8
0
100
AcDbLine
 10
206.4074711803004
 20
47.00903409185412
 30
0.0
 11
206.4074711803004
 21
39.30903409185521
 31
0.0
  0
LINE
  5
191
330
2
100
AcDbEntity
  8
0
100
AcDbLine
 10
326.9074711803004
 20
37.90777143338255
 30
0.0
 11
205.507471180299
 21
37.90777143338255
 31
0.0
  0
CIRCLE
  5
192
330
2
100
AcDbEntity
  8
0
100
AcDbCircle
 10
315.2023163730409
 20
82.90777143338345
 30
0.0
 40
2.147836038934201
  0
LINE
  5
193
330
2
100
AcDbEntity
  8
CEN
 48
0.6
100
AcDbLine
 10
0.310326613849611
 20
82.90777143338164
 30
0.0
 11
98.81687904265346
 21
82.90777143338164
 31
0.0
  0
ARC
  5
194
330
2
100
AcDbEntity
  8
0
 48
0.6
100
AcDbCircle
 10
49.48813851406885
 20
82.90777143338345
 30
0.0
 40
33.74764799999999
100
AcDbArc
 50
252.2801918471949
 51
287.7198081528051
  0
LINE
  5
195
330
2
100
AcDbEntity
  8
CL
 48
0.6
100
AcDbLine
 10
68.20321313503154
 20
37.90777143339437
 30
0.0
 11
49.56360282824971
 21
82.90777143339255
 31
0.0
  0
CIRCLE
  5
196
330
2
100
AcDbEntity
  8
0
 48
0.6
100
AcDbCircle
 10
49.56360282824971
 20
82.90777143338345
 30
0.0
 40
6.0
  0
LINE
  5
197
330
2
100
AcDbEntity
  8
0
 48
0.6
100
AcDbLine
 10
46.2469780378924
 20
87.90777143338345
 30
0.0
 11
52.88022761859974
 21
87.90777143338345
 31
0.0
  0
ARC
  5
198
330
2
100
AcDbEntity
  8
0
 48
0.6
100
AcDbCircle
 10
14.41919101078019
 20
94.11306047344806
 30
0.0
 40
3.067967999999998
100
AcDbArc
 50
342.2801918472014
 51
38.05132551937779
  0
ARC
  5
199
330
2
100
AcDbEntity
  8
0
 48
0.6
100
AcDbCircle
 10
19.25098859799982
 20
97.89504972148643
 30
0.0
 40
3.067967999999998
100
AcDbArc
 50
153.634327496783
 51
218.0513255193776
  0
ARC
  5
19A
330
2
100
AcDbEntity
  8
0
 48
0.6
100
AcDbCircle
 10
14.41919101078019
 20
71.70248239332159
 30
0.0
 40
3.067967999999998
100
AcDbArc
 50
321.9486744806221
 51
17.71980815279839
  0
ARC
  5
19B
330
2
100
AcDbEntity
  8
0
 48
0.6
100
AcDbCircle
 10
38.28284947401334
 20
47.83882393010026
 30
0.0
 40
3.067967999999998
100
AcDbArc
 50
72.28019184719491
 51
128.0513255193868
  0
ARC
  5
19C
330
2
100
AcDbEntity
  8
0
 48
0.6
100
AcDbCircle
 10
49.48813851406885
 20
82.90777143338345
 30
0.0
 40
36.81561599999999
100
AcDbArc
 50
206.3656725032168
 51
243.634327496789
  0
ARC
  5
19D
330
2
100
AcDbEntity
  8
0
 48
0.6
100
AcDbCircle
 10
34.5008602259586
 20
52.67062151731443
 30
0.0
 40
3.067967999999998
100
AcDbArc
 50
243.634327496789
 51
308.0513255193868
  0
ARC
  5
19E
330
2
100
AcDbEntity
  8
0
 48
0.6
100
AcDbCircle
 10
19.25098859799982
 20
67.92049314528139
 30
0.0
 40
3.067967999999998
100
AcDbArc
 50
141.9486744806222
 51
206.3656725032168
  0
ARC
  5
19F
330
2
100
AcDbEntity
  8
0
 48
0.6
100
AcDbCircle
 10
49.48813851406885
 20
82.90777143338345
 30
0.0
 40
33.74764799999999
100
AcDbArc
 50
162.2801918472015
 51
197.7198081527984
  0
LINE
  5
1A0
330
2
100
AcDbEntity
  8
0
100
AcDbLine
 10
191.9074711803004
 20
88.90777143338345
 30
0.0
 11
191.9074711803004
 21
87.90777143338345
 31
0.0
  0
LINE
  5
1A1
102
{ACAD_REACTORS
330
1D2
330
1E2
102
}
330
2
100
AcDbEntity
  8
CL
  6
BYBLOCK
 62
     0
100
AcDbLine
 10
196.9074711803004
 20
88.90777143338345
 30
0.0
 11
191.9074711803004
 21
88.90777143338345
 31
0.0
  0
ARC
  5
1A2
330
2
100
AcDbEntity
  8
0
 48
0.6
100
AcDbCircle
 10
84.55708601735024
 20
94.11306047344806
 30
0.0
 40
3.067967999999998
100
AcDbArc
 50
141.9486744806222
 51
197.7198081527984
  0
ARC
  5
1A3
330
2
100
AcDbEntity
  8
0
 48
0.6
100
AcDbCircle
 10
79.72528843014152
 20
97.89504972148643
 30
0.0
 40
3.067967999999998
100
AcDbArc
 50
321.9486744806221
 51
26.36567250321681
  0
LINE
  5
1A4
102
{ACAD_REACTORS
330
1D2
330
1BE
330
148
102
}
330
2
100
AcDbEntity
  8
CL
  6
BYBLOCK
 62
     0
100
AcDbLine
 10
191.9074711803004
 20
87.90777143338345
 30
0.0
 11
161.9074711803004
 21
87.90777143338345
 31
0.0
  0
ARC
  5
1A5
330
2
100
AcDbEntity
  8
0
 48
0.6
100
AcDbCircle
 10
84.55708601735024
 20
71.70248239332159
 30
0.0
 40
3.067967999999998
100
AcDbArc
 50
162.2801918472015
 51
218.0513255193776
  0
ARC
  5
1A6
330
2
100
AcDbEntity
  8
0
 48
0.6
100
AcDbCircle
 10
49.48813851406885
 20
82.90777143338345
 30
0.0
 40
36.81561599999999
100
AcDbArc
 50
296.3656725032108
 51
333.6343274967831
  0
ARC
  5
1A7
330
2
100
AcDbEntity
  8
0
 48
0.6
100
AcDbCircle
 10
79.72528843014152
 20
67.92049314528139
 30
0.0
 40
3.067967999999998
100
AcDbArc
 50
333.6343274967831
 51
38.05132551937779
  0
ARC
  5
1A8
330
2
100
AcDbEntity
  8
0
 48
0.6
100
AcDbCircle
 10
60.69342755413163
 20
47.83882393010026
 30
0.0
 40
3.067967999999998
100
AcDbArc
 50
51.94867448061305
 51
107.719808152805
  0
ARC
  5
1A9
330
2
100
AcDbEntity
  8
0
 48
0.6
100
AcDbCircle
 10
64.47541680217182
 20
52.67062151731443
 30
0.0
 40
3.067967999999998
100
AcDbArc
 50
231.948674480613
 51
296.3656725032108
  0
LINE
  5
1AA
102
{ACAD_REACTORS
330
1BE
330
1E2
102
}
330
2
100
AcDbEntity
  8
CL
  6
BYBLOCK
 62
     0
100
AcDbLine
 10
196.9074711803004
 20
76.90777143338346
 30
0.0
 11
161.9074711803004
 21
76.90777143338346
 31
0.0
  0
LINE
  5
1AB
330
2
100
AcDbEntity
  8
0
100
AcDbLine
 10
198.9074711803004
 20
41.40777143338346
 30
0.0
 11
196.9074711803004
 21
41.40777143338346
 31
0.0
  0
LINE
  5
1AC
330
2
100
AcDbEntity
  8
0
 48
0.6
100
AcDbLine
 10
71.08849864809963
 20
37.90777143338619
 30
0.0
 11
65.34744842156943
 21
37.90777143338619
 31
0.0
  0
ARC
  5
1AD
330
2
100
AcDbEntity
  8
0
100
AcDbCircle
 10
101.8814181790694
 20
52.21832408192494
 30
0.0
 40
37.855792
100
AcDbArc
 50
235.2486590000054
 51
242.0987460000029
  0
ARC
  5
1AE
330
2
100
AcDbEntity
  8
0
100
AcDbCircle
 10
79.62522417907166
 20
20.79384808192571
 30
0.0
 40
0.7499080000000001
100
AcDbArc
 50
265.1628950000044
 51
25.33442299999946
  0
ARC
  5
1AF
330
2
100
AcDbEntity
  8
0
100
AcDbCircle
 10
80.98079717906875
 20
21.43562108192509
 30
0.0
 40
0.7499080000000001
100
AcDbArc
 50
85.16289500000455
 51
205.3344229999993
  0
ARC
  5
1B0
330
2
100
AcDbEntity
  8
0
100
AcDbCircle
 10
83.026813179069
 20
23.18834808192332
 30
0.0
 40
0.7499080000000001
100
AcDbArc
 50
85.16289500000455
 51
205.3344229999993
  0
ARC
  5
1B1
330
2
100
AcDbEntity
  8
0
100
AcDbCircle
 10
85.40984117906919
 20
20.31138308192475
 30
0.0
 40
0.7499080000000001
100
AcDbArc
 50
92.01298199999559
 51
212.184510000001
  0
ARC
  5
1B2
330
2
100
AcDbEntity
  8
0
100
AcDbCircle
 10
84.14049017907018
 20
19.51251008192502
 30
0.0
 40
0.7499080000000001
100
AcDbArc
 50
272.0129819999954
 51
32.18451000000101
  0
ARC
  5
1B3
330
2
100
AcDbEntity
  8
0
100
AcDbCircle
 10
101.8814181790694
 20
52.21832408192494
 30
0.0
 40
35.255792
100
AcDbArc
 50
236.3564240000014
 51
242.0987460000029
  0
ARC
  5
1B4
330
2
100
AcDbEntity
  8
0
100
AcDbCircle
 10
81.6712411790686
 20
22.54657608192337
 30
0.0
 40
0.7499080000000001
100
AcDbArc
 50
265.1628950000044
 51
25.33442299999946
  0
ARC
  5
1B5
330
2
100
AcDbEntity
  8
0
100
AcDbCircle
 10
76.58724117906968
 20
24.9306820819238
 30
0.0
 40
0.7499080000000001
100
AcDbArc
 50
257.6612769999992
 51
17.83280500000109
  0
ARC
  5
1B6
330
2
100
AcDbEntity
  8
0
 48
0.6
100
AcDbCircle
 10
78.01499717907063
 20
25.38998608192651
 30
0.0
 40
0.7499080000000001
100
AcDbArc
 50
77.66127699999917
 51
197.832805000001
  0
ARC
  5
1B7
330
2
100
AcDbEntity
  8
0
100
AcDbCircle
 10
101.8814181790694
 20
52.21832408192494
 30
0.0
 40
36.555792
100
AcDbArc
 50
227.7470409999976
 51
236.3176429999981
  0
ARC
  5
1B8
330
2
100
AcDbEntity
  8
0
100
AcDbCircle
 10
101.8814181790694
 20
52.21832408192494
 30
0.0
 40
33.95579199999999
100
AcDbArc
 50
204.9259499999998
 51
236.3981230000006
  0
ARC
  5
1B9
330
2
100
AcDbEntity
  8
0
 48
0.6
100
AcDbCircle
 10
101.8814181790694
 20
52.21832408192494
 30
0.0
 40
35.255792
100
AcDbArc
 50
203.947941
 51
227.7470409999976
  0
ARC
  5
1BA
330
2
100
AcDbEntity
  8
0
100
AcDbCircle
 10
101.8814181790694
 20
52.21832408192494
 30
0.0
 40
37.855792
100
AcDbArc
 50
202.2115912309427
 51
227.7470409999976
  0
ARC
  5
1BB
330
2
100
AcDbEntity
  8
0
100
AcDbCircle
 10
101.8814181790694
 20
52.21832408192494
 30
0.0
 40
39.15579199999999
100
AcDbArc
 50
201.4369589999971
 51
235.2486590000054
  0
DIMENSION
  5
1BC
102
{ACAD_XDICTIONARY
360
1BD
102
}
102
{ACAD_REACTORS
330
1BE
102
}
330
2
100
AcDbEntity
  8
0
100
AcDbDimension
  2
*D32
 10
148.2223704162316
 20
87.90777143338347
 30
0.0
 11
148.2223704162315
 21
82.40777143338254
 31
0.0
 70
   160
  1
<>
  3
STANDARD
100
AcDbAlignedDimension
 13
161.9074711803004
 23
76.90777143338346
 33
0.0
 14
161.9074711803004
 24
87.90777143338345
 34
0.0
 50
90.0
100
AcDbRotatedDimension
  0
LINE
  5
1CB
330
2
100
AcDbEntity
  8
0
100
AcDbLine
 10
161.9074711803004
 20
87.90777143338345
 30
0.0
 11
161.9074711803004
 21
76.90777143338346
 31
0.0
  0
ARC
  5
1CC
330
2
100
AcDbEntity
  8
0
 48
0.6
100
AcDbCircle
 10
49.48813851406885
 20
82.90777143338345
 30
0.0
 40
33.74764799999999
100
AcDbArc
 50
342.2801918472014
 51
17.71980815279839
  0
LINE
  5
1CD
330
2
100
AcDbEntity
  8
0
100
AcDbLine
 10
198.9074711803004
 20
37.90777143338255
 30
0.0
 11
205.507471180299
 21
37.90777143338255
 31
0.0
  0
CIRCLE
  5
1CE
330
2
100
AcDbEntity
  8
0
 48
0.6
100
AcDbCircle
 10
49.56360282824971
 20
82.90777143338164
 30
0.0
 40
20.0
  0
ARC
  5
1CF
330
2
100
AcDbEntity
  8
0
 48
0.6
100
AcDbCircle
 10
49.48813851406885
 20
82.90777143338345
 30
0.0
 40
36.81561599999999
100
AcDbArc
 50
116.3656725032109
 51
153.634327496783
  0
DIMENSION
  5
1D0
102
{ACAD_XDICTIONARY
360
1D1
102
}
102
{ACAD_REACTORS
330
1D2
102
}
330
2
100
AcDbEntity
  8
0
100
AcDbDimension
  2
*D31
 10
191.9074711803004
 20
107.8391489095338
 30
0.0
 11
178.1661555447935
 21
107.8391489095338
 31
0.0
 70
   160
  3
STANDARD
100
AcDbAlignedDimension
 13
161.9074711803004
 23
87.90777143338345
 33
0.0
 14
191.9074711803004
 24
88.90777143338345
 34
0.0
100
AcDbRotatedDimension
  0
ARC
  5
1DF
330
2
100
AcDbEntity
  8
0
 48
0.6
100
AcDbCircle
 10
49.48813851406885
 20
82.90777143338345
 30
0.0
 40
36.81561599999999
100
AcDbArc
 50
26.36567250321681
 51
63.63432749678904
  0
DIMENSION
  5
1E0
102
{ACAD_XDICTIONARY
360
1E1
102
}
102
{ACAD_REACTORS
330
1E2
102
}
330
2
100
AcDbEntity
  8
0
100
AcDbDimension
  2
*D30
 10
138.0123076776435
 20
88.90777143338347
 30
0.0
 11
138.0123076776435
 21
82.90777143338349
 31
0.0
 70
   160
  1
\A1;{\f??|b0|i0|c0|p49;%%C}12{\f??|b0|i0|c0|p49;\H0.7x;\S+0^ -0.018;\H1.429x;(h}7{\f??|b0|i0|c0|p49;)}
  3
STANDARD
100
AcDbAlignedDimension
 13
161.9074711803004
 23
76.90777143338346
 33
0.0
 14
191.9074711803004
 24
88.90777143338345
 34
0.0
 50
90.0
100
AcDbRotatedDimension
  0
LINE
  5
1EF
330
2
100
AcDbEntity
  8
0
100
AcDbLine
 10
267.007471180299
 20
110.4077714333834
 30
0.0
 11
267.007471180299
 21
55.40777143338345
 31
0.0
  0
ARC
  5
1F0
330
2
100
AcDbEntity
  8
0
100
AcDbCircle
 10
315.8078306017305
 20
128.7967068190291
 30
0.0
 40
1.0
100
AcDbArc
 50
359.9999999999998
 51
90.00000000000005
  0
ARC
  5
1F1
330
2
100
AcDbEntity
  8
0
100
AcDbCircle
 10
313.3745111292082
 20
128.7967068190291
 30
0.0
 40
1.0
100
AcDbArc
 50
89.99999999999991
 51
179.9999999999998
  0
LINE
  5
1F2
330
2
100
AcDbEntity
  8
0
100
AcDbLine
 10
316.8078306017305
 20
128.7967068190291
 30
0.0
 11
316.8078306017305
 21
127.9077714333834
 31
0.0
  0
LINE
  5
1F3
330
2
100
AcDbEntity
  8
0
100
AcDbLine
 10
312.3745111292082
 20
127.9077714333834
 30
0.0
 11
312.3745111292082
 21
128.7967068190291
 31
0.0
  0
LINE
  5
1F4
330
2
100
AcDbEntity
  8
0
100
AcDbLine
 10
313.3745111292082
 20
129.7967068190291
 30
0.0
 11
315.8078306017305
 21
129.7967068190291
 31
0.0
  0
LINE
  5
1F5
102
{ACAD_REACTORS
330
209
102
}
330
2
100
AcDbEntity
  8
0
100
AcDbLine
 10
205.507471180299
 20
126.5065087749135
 30
0.0
 11
206.4074711803004
 21
126.5065087749135
 31
0.0
  0
LINE
  5
1F6
330
2
100
AcDbEntity
  8
0
100
AcDbLine
 10
326.9074711803004
 20
127.9077714333834
 30
0.0
 11
205.507471180299
 21
127.9077714333834
 31
0.0
  0
DIMENSION
  5
1F7
330
2
100
AcDbEntity
  8
0
100
AcDbDimension
  2
*D33
 10
94.56360282824972
 20
140.5102040762412
 30
0.0
 11
49.56360282824971
 21
140.5102040762412
 31
0.0
 70
   160
  3
STANDARD
100
AcDbAlignedDimension
 13
4.563602828249713
 23
122.8649776745887
 33
0.0
 14
94.56360282824972
 24
122.8649776745887
 34
0.0
100
AcDbRotatedDimension
  0
LWPOLYLINE
  5
204
330
2
100
AcDbEntity
  8
3
100
AcDbPolyline
 90
        4
 70
     1
 43
0.0
 10
43.26810758411738
 20
141.2861556034513
 10
46.5681075841203
 20
141.2861556034513
 10
46.5681075841203
 20
144.7861556034513
 10
43.26810758411738
 20
144.7861556034513
  0
LINE
  5
206
330
2
100
AcDbEntity
  8
0
100
AcDbLine
 10
198.9074711803004
 20
124.4077714333834
 30
0.0
 11
196.9074711803004
 21
124.4077714333834
 31
0.0
  0
DIMENSION
  5
207
102
{ACAD_XDICTIONARY
360
208
102
}
102
{ACAD_REACTORS
330
209
102
}
330
2
100
AcDbEntity
  8
0
100
AcDbDimension
  2
*D35
 10
206.4074711803004
 20
153.1958193632381
 30
0.0
 11
202.6574711803005
 21
153.1958193632381
 31
0.0
 70
   160
  3
STANDARD
100
AcDbAlignedDimension
 13
198.9074711803004
 23
127.1161047667183
 33
0.0
 14
206.4074711803004
 24
126.5065087749135
 34
0.0
100
AcDbRotatedDimension
  0
DIMENSION
  5
216
330
2
100
AcDbEntity
  8
0
100
AcDbDimension
  2
*D34
 10
198.9074711803004
 20
141.955962064977
 30
0.0
 11
197.9074711803004
 21
141.955962064977
 31
0.0
 70
   160
  3
STANDARD
100
AcDbAlignedDimension
 13
196.9074711803004
 23
124.4077714333834
 33
0.0
 14
198.9074711803004
 24
127.9077714333852
 34
0.0
100
AcDbRotatedDimension
  0
LINE
  5
225
330
2
100
AcDbEntity
  8
0
100
AcDbLine
 10
198.9074711803004
 20
127.9077714333834
 30
0.0
 11
205.507471180299
 21
127.9077714333834
 31
0.0
  0
LINE
  5
226
330
2
100
AcDbEntity
  8
0
100
AcDbLine
 10
324.0223445640403
 20
249.9877015507791
 30
0.0
 11
324.0223445640403
 21
239.3916261525391
 31
0.0
  0
LINE
  5
227
330
2
100
AcDbEntity
  8
0
100
AcDbLine
 10
324.0223445640403
 20
290.7955507543019
 30
0.0
 11
324.0223445640403
 21
263.987701550779
 31
0.0
  0
LINE
  5
228
330
2
100
AcDbEntity
  8
0
100
AcDbLine
 10
169.0223445640294
 20
283.0416261525379
 30
0.0
 11
187.0223445640403
 21
283.0416261525379
 31
0.0
  0
LINE
  5
229
330
2
100
AcDbEntity
  8
0
100
AcDbLine
 10
169.0223445640294
 20
282.1416261525391
 30
0.0
 11
182.0223445640294
 21
282.1416261525391
 31
0.0
  0
LINE
  5
22A
330
2
100
AcDbEntity
  8
CEN
 48
0.6
100
AcDbLine
 10
166.4615126423887
 20
282.5311261525385
 30
0.0
 11
190.0223445640294
 21
282.5311261525385
 31
0.0
  0
LINE
  5
22B
330
2
100
AcDbEntity
  8
0
100
AcDbLine
 10
169.0223445640294
 20
271.7416261525395
 30
0.0
 11
187.0223445640403
 21
271.7416261525395
 31
0.0
  0
LINE
  5
22C
330
2
100
AcDbEntity
  8
0
100
AcDbLine
 10
169.0223445640294
 20
272.6416261525382
 30
0.0
 11
182.0223445640294
 21
272.6416261525382
 31
0.0
  0
LINE
  5
22D
330
2
100
AcDbEntity
  8
2
100
AcDbLine
 10
182.0223445640294
 20
280.9902562562238
 30
0.0
 11
169.0223445640294
 21
274.4228969441919
 31
0.0
  0
LINE
  5
22F
330
2
100
AcDbEntity
  8
2
100
AcDbLine
 10
182.0223445640294
 20
280.011715529552
 30
0.0
 11
169.0223445640294
 21
273.131624821709
 31
0.0
  0
LINE
  5
230
330
2
100
AcDbEntity
  8
2
100
AcDbLine
 10
182.0223445640294
 20
278.8465260368902
 30
0.0
 11
170.1197967269399
 21
272.6416261525382
 31
0.0
  0
LINE
  5
231
330
2
100
AcDbEntity
  8
CEN
 48
0.6
100
AcDbLine
 10
166.268067416684
 20
272.2521261525407
 30
0.0
 11
190.0223445640294
 21
272.2521261525407
 31
0.0
  0
ARC
  5
232
330
2
100
AcDbEntity
  8
0
 48
0.6
100
AcDbCircle
 10
98.11897370158114
 20
292.3789044406412
 30
0.0
 40
3.067967999999998
100
AcDbArc
 50
321.9486744806221
 51
26.36567250321681
  0
ARC
  5
233
330
2
100
AcDbEntity
  8
0
 48
0.6
100
AcDbCircle
 10
102.9507712888007
 20
288.5969151926037
 30
0.0
 40
3.067967999999998
100
AcDbArc
 50
141.9486744806222
 51
197.7198081527984
  0
LINE
  5
234
330
2
100
AcDbEntity
  8
0
100
AcDbLine
 10
168.0223445640403
 20
282.0416261525378
 30
0.0
 11
169.0223445640294
 21
283.0416261525379
 31
0.0
  0
ARC
  5
235
330
2
100
AcDbEntity
  8
0
 48
0.6
100
AcDbCircle
 10
37.64467386944307
 20
292.3789044406412
 30
0.0
 40
3.067967999999998
100
AcDbArc
 50
153.634327496783
 51
218.0513255193776
  0
ARC
  5
236
330
2
100
AcDbEntity
  8
0
 48
0.6
100
AcDbCircle
 10
32.81287628223072
 20
288.5969151926037
 30
0.0
 40
3.067967999999998
100
AcDbArc
 50
342.2801918472014
 51
38.05132551937779
  0
ARC
  5
237
330
2
100
AcDbEntity
  8
0
 48
0.6
100
AcDbCircle
 10
98.11897370158114
 20
262.404347864438
 30
0.0
 40
3.067967999999998
100
AcDbArc
 50
333.6343274967831
 51
38.05132551937779
  0
ARC
  5
238
330
2
100
AcDbEntity
  8
0
 48
0.6
100
AcDbCircle
 10
82.86910207362234
 20
247.154476236471
 30
0.0
 40
3.067967999999998
100
AcDbArc
 50
231.948674480613
 51
296.3656725032108
  0
ARC
  5
239
330
2
100
AcDbEntity
  8
0
 48
0.6
100
AcDbCircle
 10
79.08711282558215
 20
242.3226786492559
 30
0.0
 40
3.067967999999998
100
AcDbArc
 50
51.94867448061305
 51
107.719808152805
  0
ARC
  5
23A
330
2
100
AcDbEntity
  8
0
 48
0.6
100
AcDbCircle
 10
67.88182378551209
 20
277.3916261525391
 30
0.0
 40
36.81561599999999
100
AcDbArc
 50
296.3656725032108
 51
333.6343274967831
  0
ARC
  5
23B
330
2
100
AcDbEntity
  8
0
 48
0.6
100
AcDbCircle
 10
102.9507712888007
 20
266.1863371124773
 30
0.0
 40
3.067967999999998
100
AcDbArc
 50
162.2801918472015
 51
218.0513255193776
  0
ARC
  5
23C
330
2
100
AcDbEntity
  8
0
 48
0.6
100
AcDbCircle
 10
67.88182378551209
 20
277.3916261525391
 30
0.0
 40
33.74764799999999
100
AcDbArc
 50
252.2801918471949
 51
287.7198081528051
  0
CIRCLE
  5
23D
330
2
100
AcDbEntity
  8
0
 48
0.6
100
AcDbCircle
 10
67.95728809969296
 20
277.3916261525391
 30
0.0
 40
4.244956963364869
  0
ARC
  5
23E
330
2
100
AcDbEntity
  8
0
100
AcDbCircle
 10
103.8035264505088
 20
214.7952378010795
 30
0.0
 40
0.7499080000000001
100
AcDbArc
 50
92.01298199999559
 51
212.184510000001
  0
ARC
  5
23F
330
2
100
AcDbEntity
  8
0
100
AcDbCircle
 10
102.5341754505098
 20
213.9963648010807
 30
0.0
 40
0.7499080000000001
100
AcDbArc
 50
272.0129819999954
 51
32.18451000000101
  0
ARC
  5
240
330
2
100
AcDbEntity
  8
0
100
AcDbCircle
 10
120.275103450509
 20
246.7021788010779
 30
0.0
 40
35.255792
100
AcDbArc
 50
236.3564240000014
 51
242.0987460000029
  0
ARC
  5
241
330
2
100
AcDbEntity
  8
0
100
AcDbCircle
 10
100.0649264505118
 20
217.030430801079
 30
0.0
 40
0.7499080000000001
100
AcDbArc
 50
265.1628950000044
 51
25.33442299999946
  0
ARC
  5
242
330
2
100
AcDbEntity
  8
0
100
AcDbCircle
 10
101.4204984505122
 20
217.6722028010808
 30
0.0
 40
0.7499080000000001
100
AcDbArc
 50
85.16289500000455
 51
205.3344229999993
  0
ARC
  5
243
330
2
100
AcDbEntity
  8
0
100
AcDbCircle
 10
120.275103450509
 20
246.7021788010779
 30
0.0
 40
35.255792
100
AcDbArc
 50
203.947941
 51
227.7470409999976
  0
ARC
  5
244
330
2
100
AcDbEntity
  8
0
100
AcDbCircle
 10
94.98092645050929
 20
219.4145368010795
 30
0.0
 40
0.7499080000000001
100
AcDbArc
 50
257.6612769999992
 51
17.83280500000109
  0
ARC
  5
245
330
2
100
AcDbEntity
  8
0
100
AcDbCircle
 10
96.40868245051024
 20
219.8738408010795
 30
0.0
 40
0.7499080000000001
100
AcDbArc
 50
77.66127699999917
 51
197.832805000001
  0
ARC
  5
246
330
2
100
AcDbEntity
  8
0
100
AcDbCircle
 10
98.01890945051127
 20
215.2777028010796
 30
0.0
 40
0.7499080000000001
100
AcDbArc
 50
265.1628950000044
 51
25.33442299999946
  0
ARC
  5
247
330
2
100
AcDbEntity
  8
0
100
AcDbCircle
 10
99.374482450512
 20
215.9194758010798
 30
0.0
 40
0.7499080000000001
100
AcDbArc
 50
85.16289500000455
 51
205.3344229999993
  0
ARC
  5
248
330
2
100
AcDbEntity
  8
0
100
AcDbCircle
 10
120.275103450509
 20
246.7021788010779
 30
0.0
 40
39.15579199999999
100
AcDbArc
 50
201.4369589999971
 51
235.2486590000054
  0
ARC
  5
249
330
2
100
AcDbEntity
  8
0
100
AcDbCircle
 10
120.275103450509
 20
246.7021788010779
 30
0.0
 40
37.855792
100
AcDbArc
 50
202.2115912309427
 51
227.7470409999976
  0
LINE
  5
24A
330
2
100
AcDbEntity
  8
0
 48
0.6
100
AcDbLine
 10
89.48218391954288
 20
232.3916261525409
 30
0.0
 11
83.74113369301994
 21
232.3916261525409
 31
0.0
  0
ARC
  5
24B
330
2
100
AcDbEntity
  8
0
100
AcDbCircle
 10
120.275103450509
 20
246.7021788010779
 30
0.0
 40
33.95579199999999
100
AcDbArc
 50
204.9259499999998
 51
236.3981230000006
  0
ARC
  5
24C
330
2
100
AcDbEntity
  8
0
100
AcDbCircle
 10
120.275103450509
 20
246.7021788010779
 30
0.0
 40
36.555792
100
AcDbArc
 50
227.7470409999976
 51
236.3176429999981
  0
ARC
  5
24D
330
2
100
AcDbEntity
  8
0
100
AcDbCircle
 10
120.275103450509
 20
246.7021788010779
 30
0.0
 40
37.855792
100
AcDbArc
 50
235.2486590000054
 51
242.0987460000029
  0
LINE
  5
24E
330
2
100
AcDbEntity
  8
CL
 48
0.6
100
AcDbLine
 10
86.60311607737094
 20
232.3916261525482
 30
0.0
 11
67.96350577058183
 21
277.3916261525482
 31
0.0
  0
LINE
  5
24F
330
2
100
AcDbEntity
  8
0
100
AcDbLine
 10
168.0223445640403
 20
272.7416261525395
 30
0.0
 11
169.0223445640294
 21
271.7416261525395
 31
0.0
  0
ARC
  5
250
330
2
100
AcDbEntity
  8
0
 48
0.6
100
AcDbCircle
 10
52.89454549740913
 20
247.154476236471
 30
0.0
 40
3.067967999999998
100
AcDbArc
 50
243.634327496789
 51
308.0513255193868
  0
ARC
  5
251
330
2
100
AcDbEntity
  8
0
 48
0.6
100
AcDbCircle
 10
37.64467386944307
 20
262.404347864438
 30
0.0
 40
3.067967999999998
100
AcDbArc
 50
141.9486744806222
 51
206.3656725032168
  0
ARC
  5
252
330
2
100
AcDbEntity
  8
0
 48
0.6
100
AcDbCircle
 10
67.88182378551209
 20
277.3916261525391
 30
0.0
 40
36.81561599999999
100
AcDbArc
 50
206.3656725032168
 51
243.634327496789
  0
ARC
  5
253
330
2
100
AcDbEntity
  8
0
 48
0.6
100
AcDbCircle
 10
32.81287628223072
 20
266.1863371124773
 30
0.0
 40
3.067967999999998
100
AcDbArc
 50
321.9486744806221
 51
17.71980815279839
  0
ARC
  5
254
330
2
100
AcDbEntity
  8
0
 48
0.6
100
AcDbCircle
 10
56.67653474545295
 20
242.3226786492559
 30
0.0
 40
3.067967999999998
100
AcDbArc
 50
72.28019184719491
 51
128.0513255193868
  0
LINE
  5
255
330
2
100
AcDbEntity
  8
CEN
 48
0.6
100
AcDbLine
 10
18.71022955619264
 20
277.3916261525391
 30
0.0
 11
117.2167819849819
 21
277.3916261525391
 31
0.0
  0
ARC
  5
256
330
2
100
AcDbEntity
  8
0
 48
0.6
100
AcDbCircle
 10
67.88182378551209
 20
277.3916261525391
 30
0.0
 40
33.74764799999999
100
AcDbArc
 50
342.2801918472014
 51
17.71980815279839
  0
ARC
  5
257
330
2
100
AcDbEntity
  8
0
 48
0.6
100
AcDbCircle
 10
67.88182378551209
 20
277.3916261525391
 30
0.0
 40
33.74764799999999
100
AcDbArc
 50
162.2801918472015
 51
197.7198081527984
  0
CIRCLE
  5
258
330
2
100
AcDbEntity
  8
0
 48
0.6
100
AcDbCircle
 10
67.96350577058183
 20
277.3916261525391
 30
0.0
 40
20.0
  0
CIRCLE
  5
259
330
2
100
AcDbEntity
  8
0
 48
0.6
100
AcDbCircle
 10
67.95728809969296
 20
277.3916261525391
 30
0.0
 40
5.65
  0
LINE
  5
25A
330
2
100
AcDbEntity
  8
2
100
AcDbLine
 10
169.0223445640294
 20
283.0416261525379
 30
0.0
 11
169.0223445640294
 21
271.7416261525395
 31
0.0
  0
LINE
  5
25B
330
2
100
AcDbEntity
  8
0
100
AcDbLine
 10
168.0223445640403
 20
282.0416261525378
 30
0.0
 11
168.0223445640403
 21
272.7416261525395
 31
0.0
  0
LINE
  5
25C
330
2
100
AcDbEntity
  8
0
100
AcDbLine
 10
299.0223445640294
 20
297.7955507543001
 30
0.0
 11
317.0223445640404
 21
297.7955507543001
 31
0.0
  0
ARC
  5
25D
330
2
100
AcDbEntity
  8
0
100
AcDbCircle
 10
182.0655314748692
 20
308.9578570415606
 30
0.0
 40
26.81626566475105
100
AcDbArc
 50
269.9077265708258
 51
280.6520097392901
  0
LINE
  5
25E
330
2
100
AcDbEntity
  8
0
100
AcDbLine
 10
176.0223445640404
 20
283.0416261525379
 30
0.0
 11
187.0223445640403
 21
283.0416261525379
 31
0.0
  0
LINE
  5
25F
330
2
100
AcDbEntity
  8
0
100
AcDbLine
 10
257.1223445640425
 20
249.8916261525391
 30
0.0
 11
195.6223445640425
 21
249.8916261525391
 31
0.0
  0
CIRCLE
  5
260
330
2
100
AcDbEntity
  8
0
100
AcDbCircle
 10
305.3171897567808
 20
277.3916261525391
 30
0.0
 40
2.147836038934201
  0
LINE
  5
261
330
2
100
AcDbEntity
  8
0
100
AcDbLine
 10
304.4621667450701
 20
278.246649164248
 30
0.0
 11
306.1685739724016
 21
276.5402419369184
 31
0.0
  0
LINE
  5
262
330
2
100
AcDbEntity
  8
0
100
AcDbLine
 10
306.1722127684916
 20
278.246649164248
 30
0.0
 11
304.46580554116
 21
276.5402419369184
 31
0.0
  0
LINE
  5
263
330
2
100
AcDbEntity
  8
0
100
AcDbLine
 10
299.0223445640294
 20
256.9877015507791
 30
0.0
 11
317.0223445640404
 21
256.9877015507791
 31
0.0
  0
LINE
  5
264
330
2
100
AcDbEntity
  8
0
100
AcDbLine
 10
195.6223445640425
 20
241.4928888110089
 30
0.0
 11
196.5223445640404
 21
241.4928888110089
 31
0.0
  0
LINE
  5
265
330
2
100
AcDbEntity
  8
0
100
AcDbLine
 10
189.0223445640403
 20
280.2116261525407
 30
0.0
 11
189.0223445640403
 21
274.5716261525394
 31
0.0
  0
LINE
  5
266
330
2
100
AcDbEntity
  8
0
100
AcDbLine
 10
189.0223445640403
 20
280.2116261525407
 30
0.0
 11
189.0223445640403
 21
274.5716261525394
 31
0.0
  0
ARC
  5
267
330
2
100
AcDbEntity
  8
0
100
AcDbCircle
 10
182.0655314748692
 20
245.8253952634895
 30
0.0
 40
26.81626566478071
100
AcDbArc
 50
79.34799026071575
 51
90.09227342916824
  0
LINE
  5
268
330
2
100
AcDbEntity
  8
0
100
AcDbLine
 10
176.0223445640404
 20
271.7416261525395
 30
0.0
 11
187.0223445640403
 21
271.7416261525395
 31
0.0
  0
LINE
  5
269
330
2
100
AcDbEntity
  8
0
100
AcDbLine
 10
303.7999611908126
 20
230.5026907668943
 30
0.0
 11
306.2332806633312
 21
230.5026907668943
 31
0.0
  0
ARC
  5
26A
330
2
100
AcDbEntity
  8
0
100
AcDbCircle
 10
306.2332806633312
 20
231.5026907668943
 30
0.0
 40
1.0
100
AcDbArc
 50
269.9999999999998
 51
0.0
  0
ARC
  5
26B
330
2
100
AcDbEntity
  8
0
100
AcDbCircle
 10
303.7999611908126
 20
231.5026907668943
 30
0.0
 40
1.0
100
AcDbArc
 50
180.0
 51
270.0
  0
LINE
  5
26C
330
2
100
AcDbEntity
  8
0
100
AcDbLine
 10
307.2332806633312
 20
231.5026907668943
 30
0.0
 11
307.2332806633312
 21
232.3916261525382
 31
0.0
  0
LINE
  5
26D
330
2
100
AcDbEntity
  8
0
100
AcDbLine
 10
302.7999611908126
 20
232.3916261525382
 30
0.0
 11
302.7999611908126
 21
231.5026907668943
 31
0.0
  0
LINE
  5
26E
330
2
100
AcDbEntity
  8
0
100
AcDbLine
 10
302.7999611908126
 20
232.3916261525382
 30
0.0
 11
307.2332806633312
 21
232.3916261525382
 31
0.0
  0
ARC
  5
26F
330
2
100
AcDbEntity
  8
0
100
AcDbCircle
 10
237.3250665640407
 20
231.3029801525408
 30
0.0
 40
36.555792
100
AcDbArc
 50
205.2470409999969
 51
213.8176429999978
  0
ARC
  5
270
330
2
100
AcDbEntity
  8
0
100
AcDbCircle
 10
206.235379564041
 20
210.8617921525392
 30
0.0
 40
0.7499080000000001
100
AcDbArc
 50
62.66289500000094
 51
182.8344229999968
  0
ARC
  5
271
330
2
100
AcDbEntity
  8
0
100
AcDbCircle
 10
237.3250665640407
 20
231.3029801525408
 30
0.0
 40
37.855792
100
AcDbArc
 50
212.7486590000019
 51
219.5987459999966
  0
ARC
  5
272
330
2
100
AcDbEntity
  8
0
100
AcDbCircle
 10
237.3250665640407
 20
231.3029801525408
 30
0.0
 40
39.15579199999999
100
AcDbArc
 50
179.8702869999971
 51
212.7486590000019
  0
ARC
  5
273
330
2
100
AcDbEntity
  8
0
100
AcDbCircle
 10
237.3250665640407
 20
231.3029801525408
 30
0.0
 40
37.855792
100
AcDbArc
 50
179.8658329999985
 51
205.2470409999969
  0
ARC
  5
274
330
2
100
AcDbEntity
  8
0
100
AcDbCircle
 10
237.3250665640407
 20
231.3029801525408
 30
0.0
 40
35.255792
100
AcDbArc
 50
179.8559380000023
 51
205.2470409999969
  0
ARC
  5
275
330
2
100
AcDbEntity
  8
0
100
AcDbCircle
 10
204.7373985640297
 20
210.7876261525398
 30
0.0
 40
0.7499080000000001
100
AcDbArc
 50
242.6628950000009
 51
2.834422999996808
  0
ARC
  5
276
330
2
100
AcDbEntity
  8
0
100
AcDbCircle
 10
205.0086085640395
 20
215.6501111525385
 30
0.0
 40
0.7499080000000001
100
AcDbArc
 50
55.16127700000105
 51
175.3328050000016
  0
ARC
  5
277
330
2
100
AcDbEntity
  8
0
100
AcDbCircle
 10
203.5137655640391
 20
215.7721481525404
 30
0.0
 40
0.7499080000000001
100
AcDbArc
 50
235.1612770000011
 51
355.3328050000017
  0
LINE
  5
278
330
2
100
AcDbEntity
  8
0
100
AcDbLine
 10
206.0223445640403
 20
232.3916261525382
 30
0.0
 11
206.0223445640403
 21
231.8916261525391
 31
0.0
  0
LINE
  5
279
330
2
100
AcDbEntity
  8
0
100
AcDbLine
 10
196.0223445640295
 20
232.3916261525382
 30
0.0
 11
196.0223445640295
 21
231.8916261525391
 31
0.0
  0
LINE
  5
27A
330
2
100
AcDbEntity
  8
0
100
AcDbLine
 10
195.6223445640425
 20
233.7928888110109
 30
0.0
 11
196.5223445640404
 21
233.7928888110109
 31
0.0
  0
LINE
  5
27B
330
2
100
AcDbEntity
  8
0
100
AcDbLine
 10
205.5223445640294
 20
231.3916261525391
 30
0.0
 11
196.5223445640404
 21
231.3916261525391
 31
0.0
  0
ARC
  5
27C
330
2
100
AcDbEntity
  8
0
100
AcDbCircle
 10
196.5223445640404
 20
231.8916261525391
 30
0.0
 40
0.5
100
AcDbArc
 50
180.0
 51
270.0
  0
ARC
  5
27D
330
2
100
AcDbEntity
  8
0
100
AcDbCircle
 10
205.5223445640294
 20
231.8916261525391
 30
0.0
 40
0.5
100
AcDbArc
 50
270.0
 51
0.0
  0
ARC
  5
27E
330
2
100
AcDbEntity
  8
0
100
AcDbCircle
 10
207.2984105640425
 20
211.6239591525409
 30
0.0
 40
0.7499080000000001
100
AcDbArc
 50
242.6628950000009
 51
2.834422999996808
  0
ARC
  5
27F
330
2
100
AcDbEntity
  8
0
100
AcDbCircle
 10
237.3250665640407
 20
231.3029801525408
 30
0.0
 40
33.95579199999999
100
AcDbArc
 50
179.8504230000004
 51
213.8981229999992
  0
ARC
  5
280
330
2
100
AcDbEntity
  8
0
100
AcDbCircle
 10
208.7963925640397
 20
211.6981251525394
 30
0.0
 40
0.7499080000000001
100
AcDbArc
 50
62.66289500000094
 51
182.8344229999968
  0
ARC
  5
281
330
2
100
AcDbEntity
  8
0
100
AcDbCircle
 10
208.4186135640411
 20
207.875907152541
 30
0.0
 40
0.7499080000000001
100
AcDbArc
 50
249.5129820000002
 51
9.684509999999278
  0
ARC
  5
282
330
2
100
AcDbEntity
  8
0
100
AcDbCircle
 10
209.8970555640298
 20
208.1282101525394
 30
0.0
 40
0.7499080000000001
100
AcDbArc
 50
69.51298200000024
 51
189.6845099999992
  0
ARC
  5
283
330
2
100
AcDbEntity
  8
0
100
AcDbCircle
 10
237.3250665640407
 20
231.3029801525408
 30
0.0
 40
35.255792
100
AcDbArc
 50
213.8564239999994
 51
219.5987459999966
  0
LINE
  5
284
330
2
100
AcDbEntity
  8
0
100
AcDbLine
 10
317.0223445640404
 20
232.3916261525382
 30
0.0
 11
195.6223445640425
 21
232.3916261525382
 31
0.0
  0
LINE
  5
285
330
2
100
AcDbEntity
  8
0
 62
   123
100
AcDbLine
 10
208.2960428132683
 20
197.6684722333784
 30
0.0
 11
279.4467530183828
 21
197.6684722333784
 31
0.0
  0
LINE
  5
286
330
2
100
AcDbEntity
  8
0
100
AcDbLine
 10
189.0223445640403
 20
235.8916261525391
 30
0.0
 11
187.0223445640403
 21
235.8916261525391
 31
0.0
  0
LINE
  5
287
330
2
100
AcDbEntity
  8
0
100
AcDbLine
 10
189.0223445640403
 20
232.3916261525382
 30
0.0
 11
195.6223445640425
 21
232.3916261525382
 31
0.0
  0
LINE
  5
288
330
2
100
AcDbEntity
  8
0
100
AcDbLine
 10
196.5223445640404
 20
241.4928888110089
 30
0.0
 11
196.5223445640404
 21
233.7928888110109
 31
0.0
  0
LINE
  5
289
330
2
100
AcDbEntity
  8
2
100
AcDbLine
 10
182.0223445640294
 20
282.1416261525391
 30
0.0
 11
182.0223445640294
 21
272.6416261525382
 31
0.0
  0
ARC
  5
28A
330
2
100
AcDbEntity
  8
0
100
AcDbCircle
 10
317.0223445640404
 20
263.987701550779
 30
0.0
 40
7.0
100
AcDbArc
 50
269.9999999999998
 51
359.9999999999998
  0
ARC
  5
28B
330
2
100
AcDbEntity
  8
0
100
AcDbCircle
 10
317.0223445640404
 20
249.9877015507791
 30
0.0
 40
7.0
100
AcDbArc
 50
359.9999999999997
 51
89.99999999999984
  0
ARC
  5
28C
330
2
100
AcDbEntity
  8
0
100
AcDbCircle
 10
317.0223445640404
 20
239.3916261525391
 30
0.0
 40
7.0
100
AcDbArc
 50
269.9999999999998
 51
359.9999999999997
  0
LINE
  5
28D
330
2
100
AcDbEntity
  8
0
100
AcDbLine
 10
324.0223445640403
 20
315.3916261525409
 30
0.0
 11
324.0223445640403
 21
304.7955507543001
 31
0.0
  0
ARC
  5
28E
330
2
100
AcDbEntity
  8
0
 48
0.6
100
AcDbCircle
 10
82.86910207362234
 20
307.6287760686091
 30
0.0
 40
3.067967999999998
100
AcDbArc
 50
63.63432749678904
 51
128.0513255193868
  0
ARC
  5
28F
330
2
100
AcDbEntity
  8
0
 48
0.6
100
AcDbCircle
 10
79.08711282558215
 20
312.4605736558241
 30
0.0
 40
3.067967999999998
100
AcDbArc
 50
252.2801918471949
 51
308.0513255193868
  0
ARC
  5
290
330
2
100
AcDbEntity
  8
0
 48
0.6
100
AcDbCircle
 10
67.88182378551209
 20
277.3916261525391
 30
0.0
 40
33.74764799999999
100
AcDbArc
 50
72.28019184719491
 51
107.719808152805
  0
LWPOLYLINE
  5
291
330
2
100
AcDbEntity
  8
3
100
AcDbPolyline
 90
        4
 70
     1
 43
0.0
 10
61.66179285556063
 20
339.270010322607
 10
64.96179285555991
 20
339.270010322607
 10
64.96179285555991
 20
342.770010322607
 10
61.66179285556063
 20
342.770010322607
  0
ARC
  5
292
330
2
100
AcDbEntity
  8
0
 48
0.6
100
AcDbCircle
 10
52.89454549740913
 20
307.6287760686091
 30
0.0
 40
3.067967999999998
100
AcDbArc
 50
51.94867448061305
 51
116.3656725032109
  0
DIMENSION
  5
293
330
2
100
AcDbEntity
  8
0
100
AcDbDimension
  2
*D36
 10
112.9572880997002
 20
338.8100313290442
 30
0.0
 11
67.95728809969296
 21
338.8100313290442
 31
0.0
 70
   160
  3
STANDARD
100
AcDbAlignedDimension
 13
22.95728809970023
 23
317.3488323937426
 33
0.0
 14
112.9572880997002
 24
317.3488323937426
 34
0.0
100
AcDbRotatedDimension
  0
ARC
  5
2A0
330
2
100
AcDbEntity
  8
0
 48
0.6
100
AcDbCircle
 10
56.67653474545295
 20
312.4605736558241
 30
0.0
 40
3.067967999999998
100
AcDbArc
 50
231.948674480613
 51
287.7198081528051
  0
DIMENSION
  5
2A1
330
2
100
AcDbEntity
  8
0
100
AcDbDimension
  2
*D39
 10
189.0223445640403
 20
333.9926110669366
 30
0.0
 11
188.0223445640403
 21
333.9926110669366
 31
0.0
 70
   160
  3
STANDARD
100
AcDbAlignedDimension
 13
187.0223445640403
 23
318.8916261525391
 33
0.0
 14
189.0223445640403
 24
322.391626152541
 34
0.0
100
AcDbRotatedDimension
  0
DIMENSION
  5
2B0
102
{ACAD_XDICTIONARY
360
2B1
102
}
102
{ACAD_REACTORS
330
2B2
102
}
330
2
100
AcDbEntity
  8
0
100
AcDbDimension
  2
*D38
 10
196.5223445640404
 20
344.7229367271356
 30
0.0
 11
192.7723445640403
 21
344.7229367271356
 31
0.0
 70
   160
  3
STANDARD
100
AcDbAlignedDimension
 13
189.0223445640403
 23
321.5999594858731
 33
0.0
 14
196.5223445640404
 24
320.9903634940692
 34
0.0
100
AcDbRotatedDimension
  0
LINE
  5
2BF
330
2
100
AcDbEntity
  8
0
100
AcDbLine
 10
257.1223445640425
 20
304.8916261525391
 30
0.0
 11
195.6223445640425
 21
304.8916261525391
 31
0.0
  0
ARC
  5
2C0
330
2
100
AcDbEntity
  8
0
100
AcDbCircle
 10
306.2332806633312
 20
323.2805615381848
 30
0.0
 40
1.0
100
AcDbArc
 50
359.9999999999998
 51
90.00000000000005
  0
ARC
  5
2C1
330
2
100
AcDbEntity
  8
0
100
AcDbCircle
 10
303.7999611908126
 20
323.2805615381848
 30
0.0
 40
1.0
100
AcDbArc
 50
89.99999999999991
 51
179.9999999999998
  0
LINE
  5
2C2
330
2
100
AcDbEntity
  8
0
100
AcDbLine
 10
303.7999611908126
 20
324.2805615381848
 30
0.0
 11
306.2332806633312
 21
324.2805615381848
 31
0.0
  0
LINE
  5
2C3
330
2
100
AcDbEntity
  8
0
100
AcDbLine
 10
307.2332806633312
 20
323.2805615381848
 30
0.0
 11
307.2332806633312
 21
322.391626152541
 31
0.0
  0
LINE
  5
2C4
330
2
100
AcDbEntity
  8
0
100
AcDbLine
 10
302.7999611908126
 20
322.391626152541
 30
0.0
 11
302.7999611908126
 21
323.2805615381848
 31
0.0
  0
LINE
  5
2C5
102
{ACAD_REACTORS
330
2B2
102
}
330
2
100
AcDbEntity
  8
0
100
AcDbLine
 10
195.6223445640425
 20
320.9903634940692
 30
0.0
 11
196.5223445640404
 21
320.9903634940692
 31
0.0
  0
LINE
  5
2C6
330
2
100
AcDbEntity
  8
0
100
AcDbLine
 10
195.6223445640425
 20
313.2903634940694
 30
0.0
 11
196.5223445640404
 21
313.2903634940694
 31
0.0
  0
LINE
  5
2C7
330
2
100
AcDbEntity
  8
0
100
AcDbLine
 10
196.5223445640404
 20
313.2903634940694
 30
0.0
 11
196.5223445640404
 21
320.9903634940692
 31
0.0
  0
LINE
  5
2C8
330
2
100
AcDbEntity
  8
0
100
AcDbLine
 10
317.0223445640404
 20
322.391626152541
 30
0.0
 11
195.6223445640425
 21
322.3916261525382
 31
0.0
  0
LINE
  5
2C9
330
2
100
AcDbEntity
  8
0
100
AcDbLine
 10
189.0223445640403
 20
318.8916261525391
 30
0.0
 11
187.0223445640403
 21
318.8916261525391
 31
0.0
  0
LINE
  5
2CA
330
2
100
AcDbEntity
  8
0
100
AcDbLine
 10
189.0223445640403
 20
322.3916261525382
 30
0.0
 11
195.6223445640425
 21
322.3916261525382
 31
0.0
  0
DIMENSION
  5
2CB
330
2
100
AcDbEntity
  8
0
100
AcDbDimension
  2
*D37
 10
324.0223445640403
 20
355.5763850604498
 30
0.0
 11
256.5223445640294
 21
355.5763850604498
 31
0.0
 70
   160
  3
STANDARD
100
AcDbAlignedDimension
 13
189.0223445640403
 23
337.4916261525395
 33
0.0
 14
324.0223445640403
 24
314.891626152541
 34
0.0
100
AcDbRotatedDimension
  0
ARC
  5
2D8
330
2
100
AcDbEntity
  8
0
100
AcDbCircle
 10
317.0223445640404
 20
315.3916261525409
 30
0.0
 40
7.0
100
AcDbArc
 50
359.9999999999998
 51
90.0000000000001
  0
LINE
  5
2D9
330
2
100
AcDbEntity
  8
0
100
AcDbLine
 10
333.9074711803005
 20
120.9077714333834
 30
0.0
 11
333.9074711803005
 21
110.3116960351453
 31
0.0
  0
LINE
  5
2DA
330
2
100
AcDbEntity
  8
0
100
AcDbLine
 10
333.9074711803005
 20
55.50384683162338
 30
0.0
 11
333.9074711803005
 21
44.90777143338346
 31
0.0
  0
LINE
  5
2DB
330
2
100
AcDbEntity
  8
0
100
AcDbLine
 10
333.9074711803005
 20
96.31169603514535
 30
0.0
 11
333.9074711803005
 21
69.50384683162337
 31
0.0
  0
LINE
  5
2DC
330
2
100
AcDbEntity
  8
0
100
AcDbLine
 10
333.9074711803005
 20
110.3116960351453
 30
0.0
 11
333.9074711803005
 21
55.50384683162338
 31
0.0
  0
ENDSEC
  0
SECTION
  2
OBJECTS
  0
DICTIONARY
  5
8
330
0
100
AcDbDictionary
  3
ACAD_GROUP
350
97
  3
ACAD_LAYOUT
350
C
  3
ACAD_MLINESTYLE
350
98
  3
ACAD_PLOTSETTINGS
350
99
  3
ACAD_PLOTSTYLENAME
350
7
  3
ACDBHEADERROUNDTRIPXREC
350
3DB
  3
ACDBVARIABLEDICTIONARY
350
2DD
  0
DICTIONARY
  5
13
330
12
100
AcDbDictionary
280
     1
  3
ACAD_LAYERFILTERS
360
14
  3
ACAD_LAYERSTATES
360
87
  0
DICTIONARY
  5
3
330
2
100
AcDbDictionary
280
     1
  3
ACAD_LAYOUTSELFREF
360
3FC
  0
DICTIONARY
  5
E
330
D
100
AcDbDictionary
280
     1
  3
ACAD_LAYOUTSELFREF
360
3FD
  0
DICTIONARY
  5
11E
330
11D
100
AcDbDictionary
280
     1
  3
ACAD_DIMASSOC
360
11F
  0
DICTIONARY
  5
F8
330
F7
100
AcDbDictionary
280
     1
  3
ACAD_DIMASSOC
360
F9
  0
DICTIONARY
  5
147
330
146
100
AcDbDictionary
280
     1
  3
ACAD_DIMASSOC
360
148
  0
DICTIONARY
  5
156
330
155
100
AcDbDictionary
280
     1
  3
ACAD_DIMASSOC
360
157
  0
DICTIONARY
  5
1BD
330
1BC
100
AcDbDictionary
280
     1
  3
ACAD_DIMASSOC
360
1BE
  0
DICTIONARY
  5
1D1
330
1D0
100
AcDbDictionary
280
     1
  3
ACAD_DIMASSOC
360
1D2
  0
DICTIONARY
  5
1E1
330
1E0
100
AcDbDictionary
280
     1
  3
ACAD_DIMASSOC
360
1E2
  0
DICTIONARY
  5
208
330
207
100
AcDbDictionary
280
     1
  3
ACAD_DIMASSOC
360
209
  0
DICTIONARY
  5
2B1
330
2B0
100
AcDbDictionary
280
     1
  3
ACAD_DIMASSOC
360
2B2
  0
DICTIONARY
  5
97
102
{ACAD_REACTORS
330
8
102
}
330
8
100
AcDbDictionary
  0
DICTIONARY
  5
C
102
{ACAD_REACTORS
330
8
102
}
330
8
100
AcDbDictionary
  0
DICTIONARY
  5
98
102
{ACAD_REACTORS
330
8
102
}
330
8
100
AcDbDictionary
  3
STANDARD
350
9A
  0
DICTIONARY
  5
99
102
{ACAD_REACTORS
330
8
102
}
330
8
100
AcDbDictionary
  0
ACDBDICTIONARYWDFLT
  5
7
102
{ACAD_REACTORS
330
8
102
}
330
8
100
AcDbDictionary
281
     1
  3
Normal
350
6
100
AcDbDictionaryWithDefault
340
6
  0
DICTIONARY
  5
3DB
102
{ACAD_REACTORS
330
8
102
}
330
8
100
AcDbDictionary
  3
CEPSNTYPE
350
3E5
  3
DIMSTYLEDATA
350
3E9
  3
FINGERPRINTGUID
350
3E6
  3
HYPERLINKBASE
350
3DE
  3
INSUNITS
350
3E4
  3
LAYOUTDICT
350
3E0
  3
LWETCUNION
350
3E3
  3
PLOTSETDICT
350
3E1
  3
PLOTSTYLNAMDICT
350
3E2
  3
PSVPSCALE
350
3E8
  3
PUCSBASE
350
3EC
  3
PUCSORGBACK
350
3F2
  3
PUCSORGBOTTOM
350
3EE
  3
PUCSORGFRONT
350
3F1
  3
PUCSORGLEFT
350
3EF
  3
PUCSORGRIGHT
350
3F0
  3
PUCSORGTOP
350
3ED
  3
PUCSORTHOREF
350
3EA
  3
PUCSORTHOVIEW
350
3EB
  3
STYLESHEET
350
3DF
  3
TSTACKALIGN
350
3DC
  3
TSTACKSIZE
350
3DD
  3
UCSBASE
350
3F5
  3
UCSORGBACK
350
3FB
  3
UCSORGBOTTOM
350
3F7
  3
UCSORGFRONT
350
3FA
  3
UCSORGLEFT
350
3F8
  3
UCSORGRIGHT
350
3F9
  3
UCSORGTOP
350
3F6
  3
UCSORTHOREF
350
3F3
  3
UCSORTHOVIEW
350
3F4
  3
VERSIONGUID
350
3E7
  0
DICTIONARY
  5
2DD
102
{ACAD_REACTORS
330
8
102
}
330
8
100
AcDbDictionary
  3
DIMASSOC
350
2DF
  3
HIDETEXT
350
2DE
  0
DICTIONARY
  5
14
102
{ACAD_REACTORS
330
13
102
}
330
13
100
AcDbDictionary
280
     1
  3
$LAYERS
360
15
  3
-_UND_0
360
16
  3
-PEGC
360
17
  3
101
360
18
  3
102
360
19
  3
1DUC
360
1A
  3
1EQ
360
1B
  3
1TUB
360
1C
  3
2
360
1D
  3
2000
360
1E
  3
50
360
1F
  3
58J
360
20
  3
65
360
21
  3
AA
360
22
  3
ACABADOS
360
23
  3
AGUA_Y_DREN
360
24
  3
AIRE
360
25
  3
ALLE_AUS
360
26
  3
ALLES_MIT_S
360
27
  3
AMARILLO
360
28
  3
APAGADOS
360
29
  3
ARR
360
2A
  3
BA
360
2B
  3
BACKS
360
2C
  3
BASE
360
2D
  3
BLOQ_INUTIL
360
2E
  3
CADKON
360
2F
  3
CARPINTERIA
360
30
  3
CERRADOS
360
31
  3
COL
360
32
  3
COLOR
360
33
  3
COLOR_250
360
34
  3
COLORES
360
35
  3
CONGELADOS
360
36
  3
CONJUNTO
360
37
  3
D1
360
38
  3
DA_
360
39
  3
DET-
360
3A
  3
DOR-H
360
3B
  3
EJES
360
3C
  3
ELECTRICO
360
3D
  3
F1
360
3E
  3
FROZEN
360
3F
  3
GRID
360
40
  3
GRIDTXT
360
41
  3
HATCH
360
42
  3
HCAD
360
43
  3
INSTALACIONES
360
44
  3
JIZNI
360
45
  3
KCK
360
46
  3
KKK
360
47
  3
LAY
360
48
  3
LAYER-0
360
4C
  3
LAYER-1
360
4D
  3
LAYER_1_UND_0
360
49
  3
LAYER_2_UND_0
360
4A
  3
LAYER_9_UND_0_SCHRAFFUR
360
4B
  3
LOCK
360
4E
  3
LOCKED
360
4F
  3
LOTES
360
50
  3
LUNAR
360
51
  3
LUNAR2
360
52
  3
M
360
53
  3
MIS_LAYERS
360
54
  3
MRKCK
360
55
  3
NECADKON
360
56
  3
NI_LH
360
57
  3
NI_RH
360
58
  3
NUM
360
59
  3
OFF
360
5A
  3
ON
360
5B
  3
PBASE
360
5C
  3
PEGC
360
5D
  3
PEGCT
360
5E
  3
PFRAME
360
5F
  3
PGRID
360
60
  3
PGRIDT
360
61
  3
PLAFONES
360
62
  3
PLANTAS
360
63
  3
PLOT
360
64
  3
PRENDIDAS
360
65
  3
PRENDIDOS
360
66
  3
PRINT
360
67
  3
PT
360
68
  3
PTH
360
69
  3
PVGRID
360
6A
  3
RED_DE_AGUA_POTABLE
360
6B
  3
RED_DE_ENERGIA_ELECTRICA
360
6C
  3
SEVERNI
360
6D
  3
SHIN
360
6E
  3
SHOW_ALL_LAYER
360
6F
  3
SIN
360
70
  3
STORAGE-CART
360
71
  3
T
360
72
  3
TEXTOS
360
73
  3
TEXTURAS
360
74
  3
TUBERIAS
360
75
  3
UNFRZ
360
76
  3
V\U+0160ECHNY_NEPOU\U+017D\U+00CDVAN\U+00C9
360
77
  3
VA
360
78
  3
VENTILACI\U+00D3N
360
79
  3
VYHODNI
360
7A
  3
YO
360
7B
  3
ZAPADNI
360
7C
  3
사용
360
7D
  3
신규
360
7E
  3
실박스
360
7F
  3
우리토목
360
80
  3
주차
360
81
  3
지상정밀
360
82
  3
쩜선
360
83
  3
플로터_작업층
360
84
  3
현재_작업층
360
85
  3
현재_잠금
360
86
  0
DICTIONARY
  5
87
102
{ACAD_REACTORS
330
13
102
}
330
13
100
AcDbDictionary
  0
XRECORD
  5
3FC
102
{ACAD_REACTORS
330
3
102
}
330
3
100
AcDbXrecord
340
2
  0
XRECORD
  5
3FD
102
{ACAD_REACTORS
330
E
102
}
330
E
100
AcDbXrecord
340
D
  0
DIMASSOC
  5
11F
102
{ACAD_REACTORS
330
11E
102
}
330
11E
100
AcDbDimAssoc
330
11D
 90
        2
 70
     0
 71
     0
  1
AcDbOsnapPointRef
 72
     3
331
11C
 73
     2
 91
        0
 40
0.0
 10
0.0
 20
0.0
 30
0.0
 75
     0
  0
DIMASSOC
  5
F9
102
{ACAD_REACTORS
330
F8
102
}
330
F8
100
AcDbDimAssoc
330
F7
 90
        3
 70
     0
 71
     0
  1
AcDbOsnapPointRef
 72
    13
331
13F
 73
     2
 91
        0
 40
0.0
 10
187.0223445640403
 20
318.8916261525391
 30
0.0
 75
     0
  1
AcDbOsnapPointRef
 72
     1
331
13F
 73
     2
 91
        0
 40
1.0
 10
187.0223445640403
 20
235.8916261525391
 30
0.0
 75
     0
  0
DIMASSOC
  5
148
102
{ACAD_REACTORS
330
147
102
}
330
147
100
AcDbDimAssoc
330
146
 90
        1
 70
     0
 71
     0
  1
AcDbOsnapPointRef
 72
     1
331
1A4
 73
     2
 91
        0
 40
1.0
 10
161.9074711803004
 20
87.90777143338345
 30
0.0
 75
     0
  0
DIMASSOC
  5
157
102
{ACAD_REACTORS
330
156
102
}
330
156
100
AcDbDimAssoc
330
155
 90
        3
 70
     0
 71
     0
  1
AcDbOsnapPointRef
 72
    13
331
164
 73
     2
 91
        0
 40
0.0
 10
196.9074711803004
 20
124.4077714333834
 30
0.0
 75
     0
  1
AcDbOsnapPointRef
 72
     1
331
164
 73
     2
 91
        0
 40
1.0
 10
196.9074711803004
 20
41.40777143338346
 30
0.0
 75
     0
  0
DIMASSOC
  5
1BE
102
{ACAD_REACTORS
330
1BD
102
}
330
1BD
100
AcDbDimAssoc
330
1BC
 90
        3
 70
     0
 71
     0
  1
AcDbOsnapPointRef
 72
     1
331
1AA
 73
     2
 91
        0
 40
1.0
 10
161.9074711803004
 20
76.90777143338346
 30
0.0
 75
     0
  1
AcDbOsnapPointRef
 72
     1
331
1A4
 73
     2
 91
        0
 40
1.0
 10
161.9074711803004
 20
87.90777143338345
 30
0.0
 75
     0
  0
DIMASSOC
  5
1D2
102
{ACAD_REACTORS
330
1D1
102
}
330
1D1
100
AcDbDimAssoc
330
1D0
 90
        3
 70
     0
 71
     0
  1
AcDbOsnapPointRef
 72
     1
331
1A4
 73
     2
 91
        0
 40
1.0
 10
161.9074711803004
 20
87.90777143338345
 30
0.0
 75
     0
  1
AcDbOsnapPointRef
 72
     1
331
1A1
 73
     2
 91
        0
 40
1.0
 10
191.9074711803004
 20
88.90777143338345
 30
0.0
 75
     0
  0
DIMASSOC
  5
1E2
102
{ACAD_REACTORS
330
1E1
102
}
330
1E1
100
AcDbDimAssoc
330
1E0
 90
        3
 70
     0
 71
     0
  1
AcDbOsnapPointRef
 72
     1
331
1AA
 73
     2
 91
        0
 40
1.0
 10
161.9074711803004
 20
76.90777143338346
 30
0.0
 75
     0
  1
AcDbOsnapPointRef
 72
     1
331
1A1
 73
     2
 91
        0
 40
1.0
 10
191.9074711803004
 20
88.90777143338345
 30
0.0
 75
     0
  0
DIMASSOC
  5
209
102
{ACAD_REACTORS
330
208
102
}
330
208
100
AcDbDimAssoc
330
207
 90
        2
 70
     0
 71
     0
  1
AcDbOsnapPointRef
 72
     1
331
1F5
 73
     2
 91
        0
 40
1.0
 10
206.4074711803004
 20
126.5065087749135
 30
0.0
 75
     0
  0
DIMASSOC
  5
2B2
102
{ACAD_REACTORS
330
2B1
102
}
330
2B1
100
AcDbDimAssoc
330
2B0
 90
        2
 70
     0
 71
     0
  1
AcDbOsnapPointRef
 72
     1
331
2C5
 73
     2
 91
        0
 40
1.0
 10
196.5223445640404
 20
320.9903634940692
 30
0.0
 75
     0
  0
MLINESTYLE
  5
9A
102
{ACAD_REACTORS
330
98
102
}
330
98
100
AcDbMlineStyle
  2
STANDARD
 70
     0
  3

 62
   256
 51
90.0
 52
90.0
 71
     2
 49
0.5
 62
   256
  6
BYLAYER
 49
-0.5
 62
   256
  6
BYLAYER
  0
ACDBPLACEHOLDER
  5
6
102
{ACAD_REACTORS
330
7
102
}
330
7
100
AcDbPlaceHolder
280
     0
  0
XRECORD
  5
3E5
102
{ACAD_REACTORS
330
3DB
102
}
330
3DB
100
AcDbXrecord
 90
        0
  0
XRECORD
  5
3E9
102
{ACAD_REACTORS
330
3DB
102
}
330
3DB
100
AcDbXrecord
1000
DSTYLE
1002
{
1070
    79
 70
     2
1070
   179
 70
     1
1070
   289
 70
     0
1002
}
  0
XRECORD
  5
3E6
102
{ACAD_REACTORS
330
3DB
102
}
330
3DB
100
AcDbXrecord
  1
{FDEAD578-A652-11D2-9A35-0060089B3A3F}
  0
XRECORD
  5
3DE
102
{ACAD_REACTORS
330
3DB
102
}
330
3DB
100
AcDbXrecord
  1

  0
XRECORD
  5
3E4
102
{ACAD_REACTORS
330
3DB
102
}
330
3DB
100
AcDbXrecord
 90
        4
  0
XRECORD
  5
3E0
102
{ACAD_REACTORS
330
3DB
102
}
330
3DB
100
AcDbXrecord
340
C
  0
XRECORD
  5
3E3
102
{ACAD_REACTORS
330
3DB
102
}
330
3DB
100
AcDbXrecord
 90
    10781
  0
XRECORD
  5
3E1
102
{ACAD_REACTORS
330
3DB
102
}
330
3DB
100
AcDbXrecord
340
99
  0
XRECORD
  5
3E2
102
{ACAD_REACTORS
330
3DB
102
}
330
3DB
100
AcDbXrecord
340
7
  0
XRECORD
  5
3E8
102
{ACAD_REACTORS
330
3DB
102
}
330
3DB
100
AcDbXrecord
 40
0.0
  0
XRECORD
  5
3EC
102
{ACAD_REACTORS
330
3DB
102
}
330
3DB
100
AcDbXrecord
340
0
  0
XRECORD
  5
3F2
102
{ACAD_REACTORS
330
3DB
102
}
330
3DB
100
AcDbXrecord
 10
0.0
 20
0.0
 30
0.0
  0
XRECORD
  5
3EE
102
{ACAD_REACTORS
330
3DB
102
}
330
3DB
100
AcDbXrecord
 10
0.0
 20
0.0
 30
0.0
  0
XRECORD
  5
3F1
102
{ACAD_REACTORS
330
3DB
102
}
330
3DB
100
AcDbXrecord
 10
0.0
 20
0.0
 30
0.0
  0
XRECORD
  5
3EF
102
{ACAD_REACTORS
330
3DB
102
}
330
3DB
100
AcDbXrecord
 10
0.0
 20
0.0
 30
0.0
  0
XRECORD
  5
3F0
102
{ACAD_REACTORS
330
3DB
102
}
330
3DB
100
AcDbXrecord
 10
0.0
 20
0.0
 30
0.0
  0
XRECORD
  5
3ED
102
{ACAD_REACTORS
330
3DB
102
}
330
3DB
100
AcDbXrecord
 10
0.0
 20
0.0
 30
0.0
  0
XRECORD
  5
3EA
102
{ACAD_REACTORS
330
3DB
102
}
330
3DB
100
AcDbXrecord
340
0
  0
XRECORD
  5
3EB
102
{ACAD_REACTORS
330
3DB
102
}
330
3DB
100
AcDbXrecord
 70
     0
  0
XRECORD
  5
3DF
102
{ACAD_REACTORS
330
3DB
102
}
330
3DB
100
AcDbXrecord
  1

  0
XRECORD
  5
3DC
102
{ACAD_REACTORS
330
3DB
102
}
330
3DB
100
AcDbXrecord
 90
        1
  0
XRECORD
  5
3DD
102
{ACAD_REACTORS
330
3DB
102
}
330
3DB
100
AcDbXrecord
 90
       70
  0
XRECORD
  5
3F5
102
{ACAD_REACTORS
330
3DB
102
}
330
3DB
100
AcDbXrecord
340
0
  0
XRECORD
  5
3FB
102
{ACAD_REACTORS
330
3DB
102
}
330
3DB
100
AcDbXrecord
 10
0.0
 20
0.0
 30
0.0
  0
XRECORD
  5
3F7
102
{ACAD_REACTORS
330
3DB
102
}
330
3DB
100
AcDbXrecord
 10
0.0
 20
0.0
 30
0.0
  0
XRECORD
  5
3FA
102
{ACAD_REACTORS
330
3DB
102
}
330
3DB
100
AcDbXrecord
 10
0.0
 20
0.0
 30
0.0
  0
XRECORD
  5
3F8
102
{ACAD_REACTORS
330
3DB
102
}
330
3DB
100
AcDbXrecord
 10
0.0
 20
0.0
 30
0.0
  0
XRECORD
  5
3F9
102
{ACAD_REACTORS
330
3DB
102
}
330
3DB
100
AcDbXrecord
 10
0.0
 20
0.0
 30
0.0
  0
XRECORD
  5
3F6
102
{ACAD_REACTORS
330
3DB
102
}
330
3DB
100
AcDbXrecord
 10
0.0
 20
0.0
 30
0.0
  0
XRECORD
  5
3F3
102
{ACAD_REACTORS
330
3DB
102
}
330
3DB
100
AcDbXrecord
340
0
  0
XRECORD
  5
3F4
102
{ACAD_REACTORS
330
3DB
102
}
330
3DB
100
AcDbXrecord
 70
     0
  0
XRECORD
  5
3E7
102
{ACAD_REACTORS
330
3DB
102
}
330
3DB
100
AcDbXrecord
  1
{D3E36CB3-82FB-4A1C-A523-B7A64D133EC3}
  0
DICTIONARYVAR
  5
2DF
102
{ACAD_REACTORS
330
2DD
102
}
330
2DD
100
DictionaryVariables
280
     0
  1
2
  0
DICTIONARYVAR
  5
2DE
102
{ACAD_REACTORS
330
2DD
102
}
330
2DD
100
DictionaryVariables
280
     0
  1
1
  0
XRECORD
  5
15
102
{ACAD_REACTORS
330
14
102
}
330
14
100
AcDbXrecord
  1
$layers
  1
*
  1
*
  1
*
 70
     0
  1
*
  1
*
  0
XRECORD
  5
16
102
{ACAD_REACTORS
330
14
102
}
330
14
100
AcDbXrecord
  1
- und 0
  1
-*,0
  1
*
  1
*
 70
     0
  1
*
  1
*
  0
XRECORD
  5
17
102
{ACAD_REACTORS
330
14
102
}
330
14
100
AcDbXrecord
  1
-pegc
  1
*-pegc
  1
*
  1
*
 70
     0
  1
*
  1
*
  0
XRECORD
  5
18
102
{ACAD_REACTORS
330
14
102
}
330
14
100
AcDbXrecord
  1
101
  1
*101
  1
*
  1
*
 70
   256
  1
*
  1
*
  0
XRECORD
  5
19
102
{ACAD_REACTORS
330
14
102
}
330
14
100
AcDbXrecord
  1
102
  1
102*
  1
*
  1
*
 70
     0
  1
*
  1
*
  0
XRECORD
  5
1A
102
{ACAD_REACTORS
330
14
102
}
330
14
100
AcDbXrecord
  1
1duc
  1
*1duc*
  1
*
  1
*
 70
     0
  1
*
  1
*
  0
XRECORD
  5
1B
102
{ACAD_REACTORS
330
14
102
}
330
14
100
AcDbXrecord
  1
1eq
  1
*1eq*
  1
*
  1
*
 70
     0
  1
*
  1
*
  0
XRECORD
  5
1C
102
{ACAD_REACTORS
330
14
102
}
330
14
100
AcDbXrecord
  1
1tub
  1
*1t*
  1
*
  1
*
 70
     0
  1
*
  1
*
  0
XRECORD
  5
1D
102
{ACAD_REACTORS
330
14
102
}
330
14
100
AcDbXrecord
  1
2
  1
*
  1
2
  1
*
 70
     0
  1
*
  1
*
  0
XRECORD
  5
1E
102
{ACAD_REACTORS
330
14
102
}
330
14
100
AcDbXrecord
  1
2000
  1
2000*
  1
*
  1
*
 70
     0
  1
*
  1
*
  0
XRECORD
  5
1F
102
{ACAD_REACTORS
330
14
102
}
330
14
100
AcDbXrecord
  1
50
  1
*-50
  1
*
  1
*
 70
     0
  1
*
  1
*
  0
XRECORD
  5
20
102
{ACAD_REACTORS
330
14
102
}
330
14
100
AcDbXrecord
  1
58J
  1
*58*
  1
*
  1
*
 70
     0
  1
*
  1
*
  0
XRECORD
  5
21
102
{ACAD_REACTORS
330
14
102
}
330
14
100
AcDbXrecord
  1
65
  1
*65
  1
*
  1
*
 70
     0
  1
*
  1
*
  0
XRECORD
  5
22
102
{ACAD_REACTORS
330
14
102
}
330
14
100
AcDbXrecord
  1
aa
  1
aa*
  1
*
  1
*
 70
     0
  1
*
  1
*
  0
XRECORD
  5
23
102
{ACAD_REACTORS
330
14
102
}
330
14
100
AcDbXrecord
  1
acabados
  1
a-*
  1
*
  1
*
 70
     5
  1
*
  1
*
  0
XRECORD
  5
24
102
{ACAD_REACTORS
330
14
102
}
330
14
100
AcDbXrecord
  1
AGUA Y DREN
  1
A-DS-*
  1
*
  1
*
 70
     0
  1
*
  1
*
  0
XRECORD
  5
25
102
{ACAD_REACTORS
330
14
102
}
330
14
100
AcDbXrecord
  1
Aire
  1
*
  1
*
  1
*
 70
     0
  1
*
  1
*
  0
XRECORD
  5
26
102
{ACAD_REACTORS
330
14
102
}
330
14
100
AcDbXrecord
  1
alle aus
  1
99999999999
  1
*
  1
*
 70
     0
  1
*
  1
*
  0
XRECORD
  5
27
102
{ACAD_REACTORS
330
14
102
}
330
14
100
AcDbXrecord
  1
Alles mit S
  1
s*
  1
*
  1
*
 70
     0
  1
*
  1
*
  0
XRECORD
  5
28
102
{ACAD_REACTORS
330
14
102
}
330
14
100
AcDbXrecord
  1
amarillo
  1
*
  1
yellow
  1
*
 70
     0
  1
*
  1
*
  0
XRECORD
  5
29
102
{ACAD_REACTORS
330
14
102
}
330
14
100
AcDbXrecord
  1
APAGADOS
  1
*
  1
*
  1
*
 70
     4
  1
*
  1
*
  0
XRECORD
  5
2A
102
{ACAD_REACTORS
330
14
102
}
330
14
100
AcDbXrecord
  1
ARR
  1
ARR*
  1
*
  1
*
 70
     0
  1
*
  1
*
  0
XRECORD
  5
2B
102
{ACAD_REACTORS
330
14
102
}
330
14
100
AcDbXrecord
  1
ba
  1
*
  1
*
  1
*
 70
     0
  1
*
  1
*
  0
XRECORD
  5
2C
102
{ACAD_REACTORS
330
14
102
}
330
14
100
AcDbXrecord
  1
BACKS
  1
*-H
  1
*
  1
*
 70
     0
  1
*
  1
*
  0
XRECORD
  5
2D
102
{ACAD_REACTORS
330
14
102
}
330
14
100
AcDbXrecord
  1
BASE
  1
*-PBASE
  1
*
  1
*
 70
     0
  1
*
  1
*
  0
XRECORD
  5
2E
102
{ACAD_REACTORS
330
14
102
}
330
14
100
AcDbXrecord
  1
BLOQ_INUTIL
  1
*
  1
*
  1
*
 70
     0
  1
*
  1
*
  0
XRECORD
  5
2F
102
{ACAD_REACTORS
330
14
102
}
330
14
100
AcDbXrecord
  1
CADKON
  1
?[KAHBSM]?????[23M],?[KAHBSM]?????[23M][1456A-DGHILN-SU-Z]
  1
*
  1
*
 70
     0
  1
*
  1
*
  0
XRECORD
  5
30
102
{ACAD_REACTORS
330
14
102
}
330
14
100
AcDbXrecord
  1
carpinteria
  1
carp*
  1
*
  1
*
 70
     0
  1
*
  1
*
  0
XRECORD
  5
31
102
{ACAD_REACTORS
330
14
102
}
330
14
100
AcDbXrecord
  1
cerrados
  1
*
  1
*
  1
*
 70
   256
  1
*
  1
*
  0
XRECORD
  5
32
102
{ACAD_REACTORS
330
14
102
}
330
14
100
AcDbXrecord
  1
COL
  1
*
  1
*
  1
*
 70
     1
  1
*
  1
*
  0
XRECORD
  5
33
102
{ACAD_REACTORS
330
14
102
}
330
14
100
AcDbXrecord
  1
COLOR
  1
*
  1
253
  1
*
 70
     0
  1
*
  1
*
  0
XRECORD
  5
34
102
{ACAD_REACTORS
330
14
102
}
330
14
100
AcDbXrecord
  1
color 250
  1
*
  1
250
  1
*
 70
     0
  1
*
  1
*
  0
XRECORD
  5
35
102
{ACAD_REACTORS
330
14
102
}
330
14
100
AcDbXrecord
  1
COLORES
  1
*
  1
6
  1
*
 70
     0
  1
*
  1
*
  0
XRECORD
  5
36
102
{ACAD_REACTORS
330
14
102
}
330
14
100
AcDbXrecord
  1
Congelados
  1
*
  1
*
  1
*
 70
     4
  1
*
  1
*
  0
XRECORD
  5
37
102
{ACAD_REACTORS
330
14
102
}
330
14
100
AcDbXrecord
  1
CONJUNTO
  1
CON-*
  1
*
  1
*
 70
     0
  1
*
  1
*
  0
XRECORD
  5
38
102
{ACAD_REACTORS
330
14
102
}
330
14
100
AcDbXrecord
  1
d1
  1
achurados
  1
*
  1
*
 70
     0
  1
*
  1
*
  0
XRECORD
  5
39
102
{ACAD_REACTORS
330
14
102
}
330
14
100
AcDbXrecord
  1
DA_
  1
DA*
  1
*
  1
*
 70
     0
  1
*
  1
*
  0
XRECORD
  5
3A
102
{ACAD_REACTORS
330
14
102
}
330
14
100
AcDbXrecord
  1
DET-
  1
*
  1
*
  1
*
 70
     0
  1
*
  1
*
  0
XRECORD
  5
3B
102
{ACAD_REACTORS
330
14
102
}
330
14
100
AcDbXrecord
  1
DOR-H
  1
*
  1
7
  1
*
 70
     0
  1
*
  1
*
  0
XRECORD
  5
3C
102
{ACAD_REACTORS
330
14
102
}
330
14
100
AcDbXrecord
  1
ejes
  1
eje*
  1
*
  1
*
 70
     0
  1
*
  1
*
  0
XRECORD
  5
3D
102
{ACAD_REACTORS
330
14
102
}
330
14
100
AcDbXrecord
  1
ELECTRICO
  1
ELEC-*
  1
*
  1
*
 70
     0
  1
*
  1
*
  0
XRECORD
  5
3E
102
{ACAD_REACTORS
330
14
102
}
330
14
100
AcDbXrecord
  1
F1
  1
Halaxref*
  1
*
  1
*
 70
     0
  1
*
  1
*
  0
XRECORD
  5
3F
102
{ACAD_REACTORS
330
14
102
}
330
14
100
AcDbXrecord
  1
frozen
  1
*
  1
*
  1
*
 70
     4
  1
*
  1
*
  0
XRECORD
  5
40
102
{ACAD_REACTORS
330
14
102
}
330
14
100
AcDbXrecord
  1
grid
  1
*-PGRID
  1
*
  1
*
 70
     1
  1
*
  1
*
  0
XRECORD
  5
41
102
{ACAD_REACTORS
330
14
102
}
330
14
100
AcDbXrecord
  1
GRIDTXT
  1
*-PGRIDT
  1
*
  1
*
 70
     0
  1
*
  1
*
  0
XRECORD
  5
42
102
{ACAD_REACTORS
330
14
102
}
330
14
100
AcDbXrecord
  1
HATCH
  1
HAT*
  1
*
  1
*
 70
     0
  1
*
  1
*
  0
XRECORD
  5
43
102
{ACAD_REACTORS
330
14
102
}
330
14
100
AcDbXrecord
  1
HCAD
  1
1HCAD-*
  1
*
  1
*
 70
    13
  1
*
  1
*
  0
XRECORD
  5
44
102
{ACAD_REACTORS
330
14
102
}
330
14
100
AcDbXrecord
  1
INSTALACIONES
  1
I-*
  1
*
  1
*
 70
     0
  1
*
  1
*
  0
XRECORD
  5
45
102
{ACAD_REACTORS
330
14
102
}
330
14
100
AcDbXrecord
  1
JIZNI
  1
*-J
  1
*
  1
*
 70
     0
  1
*
  1
*
  0
XRECORD
  5
46
102
{ACAD_REACTORS
330
14
102
}
330
14
100
AcDbXrecord
  1
kck
  1
*
  1
*
  1
*
 70
     0
  1
*
  1
*
  0
XRECORD
  5
47
102
{ACAD_REACTORS
330
14
102
}
330
14
100
AcDbXrecord
  1
kkk
  1
k
  1
*
  1
*
 70
     0
  1
*
  1
*
  0
XRECORD
  5
48
102
{ACAD_REACTORS
330
14
102
}
330
14
100
AcDbXrecord
  1
lay
  1
??-*
  1
*
  1
*
 70
     0
  1
*
  1
*
  0
XRECORD
  5
4C
102
{ACAD_REACTORS
330
14
102
}
330
14
100
AcDbXrecord
  1
Layer-0
  1
0*
  1
*
  1
*
 70
     0
  1
*
  1
*
  0
XRECORD
  5
4D
102
{ACAD_REACTORS
330
14
102
}
330
14
100
AcDbXrecord
  1
Layer-1
  1
1*
  1
*
  1
*
 70
     0
  1
*
  1
*
  0
XRECORD
  5
49
102
{ACAD_REACTORS
330
14
102
}
330
14
100
AcDbXrecord
  1
Layer 1 und 0
  1
1*,0
  1
*
  1
*
 70
     0
  1
*
  1
*
  0
XRECORD
  5
4A
102
{ACAD_REACTORS
330
14
102
}
330
14
100
AcDbXrecord
  1
Layer 2 und 0
  1
2*,0
  1
*
  1
*
 70
     0
  1
*
  1
*
  0
XRECORD
  5
4B
102
{ACAD_REACTORS
330
14
102
}
330
14
100
AcDbXrecord
  1
Layer 9 und 0 Schraffur
  1
9*,0
  1
*
  1
*
 70
     0
  1
*
  1
*
  0
XRECORD
  5
4E
102
{ACAD_REACTORS
330
14
102
}
330
14
100
AcDbXrecord
  1
LOCK
  1
*
  1
*
  1
*
 70
   256
  1
*
  1
*
  0
XRECORD
  5
4F
102
{ACAD_REACTORS
330
14
102
}
330
14
100
AcDbXrecord
  1
locked
  1
*
  1
*
  1
*
 70
   256
  1
*
  1
*
  0
XRECORD
  5
50
102
{ACAD_REACTORS
330
14
102
}
330
14
100
AcDbXrecord
  1
Lotes
  1
*
  1
*
  1
*
 70
     1
  1
*
  1
*
  0
XRECORD
  5
51
102
{ACAD_REACTORS
330
14
102
}
330
14
100
AcDbXrecord
  1
LUNAR
  1
*
  1
*
  1
*
 70
    48
  1
*
  1
*
  0
XRECORD
  5
52
102
{ACAD_REACTORS
330
14
102
}
330
14
100
AcDbXrecord
  1
LUNAR2
  1
*
  1
*
  1
*
 70
    12
  1
*
  1
*
  0
XRECORD
  5
53
102
{ACAD_REACTORS
330
14
102
}
330
14
100
AcDbXrecord
  1
M
  1
M*
  1
*
  1
*
 70
     0
  1
*
  1
*
  0
XRECORD
  5
54
102
{ACAD_REACTORS
330
14
102
}
330
14
100
AcDbXrecord
  1
mis_layers
  1
mis_*
  1
*
  1
*
 70
     0
  1
*
  1
*
  0
XRECORD
  5
55
102
{ACAD_REACTORS
330
14
102
}
330
14
100
AcDbXrecord
  1
MRKCK
  1
*
  1
*
  1
*
 70
     0
  1
*
  1
*
  0
XRECORD
  5
56
102
{ACAD_REACTORS
330
14
102
}
330
14
100
AcDbXrecord
  1
NECADKON
  1
~*?[KAHBSM]?????[23M]*
  1
*
  1
*
 70
     0
  1
*
  1
*
  0
XRECORD
  5
57
102
{ACAD_REACTORS
330
14
102
}
330
14
100
AcDbXrecord
  1
NI_LH
  1
NI_LH*
  1
*
  1
*
 70
     0
  1
*
  1
*
  0
XRECORD
  5
58
102
{ACAD_REACTORS
330
14
102
}
330
14
100
AcDbXrecord
  1
NI_RH
  1
NI_RH*
  1
*
  1
*
 70
     0
  1
*
  1
*
  0
XRECORD
  5
59
102
{ACAD_REACTORS
330
14
102
}
330
14
100
AcDbXrecord
  1
NUM
  1
NUM*
  1
*
  1
*
 70
     0
  1
*
  1
*
  0
XRECORD
  5
5A
102
{ACAD_REACTORS
330
14
102
}
330
14
100
AcDbXrecord
  1
off
  1
*
  1
*
  1
*
 70
     3
  1
*
  1
*
  0
XRECORD
  5
5B
102
{ACAD_REACTORS
330
14
102
}
330
14
100
AcDbXrecord
  1
on
  1
*
  1
*
  1
*
 70
     0
  1
*
  1
*
  0
XRECORD
  5
5C
102
{ACAD_REACTORS
330
14
102
}
330
14
100
AcDbXrecord
  1
PBASE
  1
*PBASE
  1
*
  1
*
 70
     0
  1
*
  1
*
  0
XRECORD
  5
5D
102
{ACAD_REACTORS
330
14
102
}
330
14
100
AcDbXrecord
  1
PEGC
  1
*PEGC
  1
*
  1
*
 70
     0
  1
*
  1
*
  0
XRECORD
  5
5E
102
{ACAD_REACTORS
330
14
102
}
330
14
100
AcDbXrecord
  1
PEGCT
  1
*PEGCT
  1
*
  1
*
 70
     0
  1
*
  1
*
  0
XRECORD
  5
5F
102
{ACAD_REACTORS
330
14
102
}
330
14
100
AcDbXrecord
  1
PFRAME
  1
PFRAME*
  1
*
  1
*
 70
     0
  1
*
  1
*
  0
XRECORD
  5
60
102
{ACAD_REACTORS
330
14
102
}
330
14
100
AcDbXrecord
  1
PGRID
  1
*PGRID
  1
*
  1
*
 70
     0
  1
*
  1
*
  0
XRECORD
  5
61
102
{ACAD_REACTORS
330
14
102
}
330
14
100
AcDbXrecord
  1
PGRIDT
  1
*PGRIDT
  1
*
  1
*
 70
     0
  1
*
  1
*
  0
XRECORD
  5
62
102
{ACAD_REACTORS
330
14
102
}
330
14
100
AcDbXrecord
  1
PLAFONES
  1
0-*
  1
*
  1
*
 70
     0
  1
*
  1
*
  0
XRECORD
  5
63
102
{ACAD_REACTORS
330
14
102
}
330
14
100
AcDbXrecord
  1
PLANTAS
  1
P-*
  1
*
  1
*
 70
     0
  1
*
  1
*
  0
XRECORD
  5
64
102
{ACAD_REACTORS
330
14
102
}
330
14
100
AcDbXrecord
  1
Plot
  1
*
  1
*
  1
*
 70
  1024
  1
*
  1
*
  0
XRECORD
  5
65
102
{ACAD_REACTORS
330
14
102
}
330
14
100
AcDbXrecord
  1
PRENDIDAS
  1
*
  1
*
  1
*
 70
    13
  1
*
  1
*
  0
XRECORD
  5
66
102
{ACAD_REACTORS
330
14
102
}
330
14
100
AcDbXrecord
  1
PRENDIDOS
  1
*
  1
*
  1
*
 70
    12
  1
*
  1
*
  0
XRECORD
  5
67
102
{ACAD_REACTORS
330
14
102
}
330
14
100
AcDbXrecord
  1
print
  1
*
  1
7
  1
*
 70
  1280
  1
*
  1
*
  0
XRECORD
  5
68
102
{ACAD_REACTORS
330
14
102
}
330
14
100
AcDbXrecord
  1
PT
  1
PT-*
  1
*
  1
*
 70
     0
  1
*
  1
*
  0
XRECORD
  5
69
102
{ACAD_REACTORS
330
14
102
}
330
14
100
AcDbXrecord
  1
PTH
  1
PTH*
  1
*
  1
*
 70
     0
  1
*
  1
*
  0
XRECORD
  5
6A
102
{ACAD_REACTORS
330
14
102
}
330
14
100
AcDbXrecord
  1
PVGRID
  1
*PVGRID
  1
*
  1
*
 70
     0
  1
*
  1
*
  0
XRECORD
  5
6B
102
{ACAD_REACTORS
330
14
102
}
330
14
100
AcDbXrecord
  1
Red de Agua Potable
  1
Red de Agua Potable
  1
*
  1
*
 70
     1
  1
*
  1
*
  0
XRECORD
  5
6C
102
{ACAD_REACTORS
330
14
102
}
330
14
100
AcDbXrecord
  1
Red de Energia Electrica
  1
Lotes
  1
*
  1
*
 70
     1
  1
*
  1
*
  0
XRECORD
  5
6D
102
{ACAD_REACTORS
330
14
102
}
330
14
100
AcDbXrecord
  1
SEVERNI
  1
*-S
  1
*
  1
*
 70
     0
  1
*
  1
*
  0
XRECORD
  5
6E
102
{ACAD_REACTORS
330
14
102
}
330
14
100
AcDbXrecord
  1
shin
  1
일*
  1
*
  1
*
 70
     0
  1
*
  1
*
  0
XRECORD
  5
6F
102
{ACAD_REACTORS
330
14
102
}
330
14
100
AcDbXrecord
  1
SHOW ALL LAYER
  1
*
  1
*
  1
*
 70
     0
  1
*
  1
*
  0
XRECORD
  5
70
102
{ACAD_REACTORS
330
14
102
}
330
14
100
AcDbXrecord
  1
sin
  1
sin
  1
*
  1
*
 70
     0
  1
*
  1
*
  0
XRECORD
  5
71
102
{ACAD_REACTORS
330
14
102
}
330
14
100
AcDbXrecord
  1
STORAGE-CART
  1
STORAGE-CART*
  1
*
  1
*
 70
     0
  1
*
  1
*
  0
XRECORD
  5
72
102
{ACAD_REACTORS
330
14
102
}
330
14
100
AcDbXrecord
  1
T
  1
T*
  1
*
  1
*
 70
     0
  1
*
  1
*
  0
XRECORD
  5
73
102
{ACAD_REACTORS
330
14
102
}
330
14
100
AcDbXrecord
  1
TEXTOS
  1
TXT*
  1
*
  1
*
 70
     0
  1
*
  1
*
  0
XRECORD
  5
74
102
{ACAD_REACTORS
330
14
102
}
330
14
100
AcDbXrecord
  1
TEXTURAS
  1
*TEXTURAS
  1
*
  1
*
 70
     0
  1
*
  1
*
  0
XRECORD
  5
75
102
{ACAD_REACTORS
330
14
102
}
330
14
100
AcDbXrecord
  1
TUBERIAS
  1
T*
  1
*
  1
*
 70
     0
  1
*
  1
*
  0
XRECORD
  5
76
102
{ACAD_REACTORS
330
14
102
}
330
14
100
AcDbXrecord
  1
UNFRZ
  1
*
  1
*
  1
*
 70
    12
  1
*
  1
*
  0
XRECORD
  5
77
102
{ACAD_REACTORS
330
14
102
}
330
14
100
AcDbXrecord
  1
v\U+0161echny nepou\U+017E\U+00EDvan\U+00E9
  1
*
  1
*
  1
*
 70
     0
  1
*
  1
*
  0
XRECORD
  5
78
102
{ACAD_REACTORS
330
14
102
}
330
14
100
AcDbXrecord
  1
VA
  1
VA*
  1
*
  1
*
 70
     0
  1
*
  1
*
  0
XRECORD
  5
79
102
{ACAD_REACTORS
330
14
102
}
330
14
100
AcDbXrecord
  1
Ventilaci\U+00F3n
  1
*
  1
*
  1
*
 70
     0
  1
*
  1
*
  0
XRECORD
  5
7A
102
{ACAD_REACTORS
330
14
102
}
330
14
100
AcDbXrecord
  1
VYHODNI
  1
*-V
  1
*
  1
*
 70
     0
  1
*
  1
*
  0
XRECORD
  5
7B
102
{ACAD_REACTORS
330
14
102
}
330
14
100
AcDbXrecord
  1
Yo
  1
Muros
  1
*
  1
*
 70
     0
  1
*
  1
*
  0
XRECORD
  5
7C
102
{ACAD_REACTORS
330
14
102
}
330
14
100
AcDbXrecord
  1
ZAPADNI
  1
*-Z
  1
*
  1
*
 70
     0
  1
*
  1
*
  0
XRECORD
  5
7D
102
{ACAD_REACTORS
330
14
102
}
330
14
100
AcDbXrecord
  1
사용
  1
*
  1
*
  1
*
 70
   256
  1
*
  1
*
  0
XRECORD
  5
7E
102
{ACAD_REACTORS
330
14
102
}
330
14
100
AcDbXrecord
  1
신규
  1
신규
  1
*
  1
*
 70
     0
  1
*
  1
*
  0
XRECORD
  5
7F
102
{ACAD_REACTORS
330
14
102
}
330
14
100
AcDbXrecord
  1
실박스
  1
BLO,SYM,SYM1,SYM2
  1
*
  1
*
 70
     0
  1
*
  1
*
  0
XRECORD
  5
80
102
{ACAD_REACTORS
330
14
102
}
330
14
100
AcDbXrecord
  1
우리토목
  1
w-*
  1
*
  1
*
 70
     0
  1
*
  1
*
  0
XRECORD
  5
81
102
{ACAD_REACTORS
330
14
102
}
330
14
100
AcDbXrecord
  1
주차
  1
car*
  1
*
  1
*
 70
     0
  1
*
  1
*
  0
XRECORD
  5
82
102
{ACAD_REACTORS
330
14
102
}
330
14
100
AcDbXrecord
  1
지상정밀
  1
*
  1
*
  1
*
 70
     0
  1
*
  1
*
  0
XRECORD
  5
83
102
{ACAD_REACTORS
330
14
102
}
330
14
100
AcDbXrecord
  1
쩜선
  1
*
  1
*
  1
*
 70
     0
  1
*
  1
*
  0
XRECORD
  5
84
102
{ACAD_REACTORS
330
14
102
}
330
14
100
AcDbXrecord
  1
플로터 작업층
  1
*
  1
*
  1
*
 70
  1025
  1
*
  1
*
  0
XRECORD
  5
85
102
{ACAD_REACTORS
330
14
102
}
330
14
100
AcDbXrecord
  1
현재 작업층
  1
*
  1
*
  1
*
 70
     1
  1
*
  1
*
  0
XRECORD
  5
86
102
{ACAD_REACTORS
330
14
102
}
330
14
100
AcDbXrecord
  1
현재 잠금
  1
*
  1
*
  1
*
 70
   257
  1
*
  1
*
  0
ENDSEC
  0
EOF
