  0
SECTION
  2
HEADER
  9
$ACADVER
  1
AC1014
  9
$ACADMAINTVER
 70
     9
  9
$DWGCODEPAGE
  3
ANSI_949
  9
$INSBASE
 10
21114.93707611169
 20
-1393.042849301519
 30
0.0
  9
$EXTMIN
 10
-110.3338460262683
 20
-155.4280492276325
 30
-0.0000000000000156
  9
$EXTMAX
 10
119.9458750057722
 20
142.3552772767673
 30
0.0000000000000056
  9
$LIMMIN
 10
0.0
 20
0.0
  9
$LIMMAX
 10
420.0
 20
297.0
  9
$ORTHOMODE
 70
     0
  9
$REGENMODE
 70
     1
  9
$FILLMODE
 70
     1
  9
$QTEXTMODE
 70
     0
  9
$MIRRTEXT
 70
     0
  9
$DRAGMODE
 70
     2
  9
$LTSCALE
 40
0.2
  9
$OSMODE
 70
   567
  9
$ATTMODE
 70
     1
  9
$TEXTSIZE
 40
5.777225951253058
  9
$TRACEWID
 40
1.0
  9
$TEXTSTYLE
  7
STANDARD
  9
$CLAYER
  8
0
  9
$CELTYPE
  6
BYLAYER
  9
$CECOLOR
 62
   256
  9
$CELTSCALE
 40
1.0
  9
$DELOBJ
 70
     1
  9
$DISPSILH
 70
     0
  9
$DIMSCALE
 40
1.0
  9
$DIMASZ
 40
3.0
  9
$DIMEXO
 40
1.0
  9
$DIMDLI
 40
10.0
  9
$DIMRND
 40
0.0
  9
$DIMDLE
 40
0.0
  9
$DIMEXE
 40
0.6
  9
$DIMTP
 40
0.0
  9
$DIMTM
 40
0.0
  9
$DIMTXT
 40
3.5
  9
$DIMCEN
 40
0.09
  9
$DIMTSZ
 40
0.0
  9
$DIMTOL
 70
     0
  9
$DIMLIM
 70
     0
  9
$DIMTIH
 70
     0
  9
$DIMTOH
 70
     0
  9
$DIMSE1
 70
     0
  9
$DIMSE2
 70
     0
  9
$DIMTAD
 70
     1
  9
$DIMZIN
 70
     8
  9
$DIMBLK
  1

  9
$DIMASO
 70
     1
  9
$DIMSHO
 70
     1
  9
$DIMPOST
  1

  9
$DIMAPOST
  1

  9
$DIMALT
 70
     0
  9
$DIMALTD
 70
     2
  9
$DIMALTF
 40
25.4
  9
$DIMLFAC
 40
1.0
  9
$DIMTOFL
 70
     1
  9
$DIMTVP
 40
0.0
  9
$DIMTIX
 70
     1
  9
$DIMSOXD
 70
     0
  9
$DIMSAH
 70
     0
  9
$DIMBLK1
  1

  9
$DIMBLK2
  1

  9
$DIMSTYLE
  2
1_1_2
  9
$DIMCLRD
 70
   123
  9
$DIMCLRE
 70
   123
  9
$DIMCLRT
 70
     3
  9
$DIMTFAC
 40
1.0
  9
$DIMGAP
 40
1.0
  9
$DIMJUST
 70
     0
  9
$DIMSD1
 70
     0
  9
$DIMSD2
 70
     0
  9
$DIMTOLJ
 70
     1
  9
$DIMTZIN
 70
     0
  9
$DIMALTZ
 70
     0
  9
$DIMALTTZ
 70
     0
  9
$DIMFIT
 70
     3
  9
$DIMUPT
 70
     1
  9
$DIMUNIT
 70
     2
  9
$DIMDEC
 70
     2
  9
$DIMTDEC
 70
     2
  9
$DIMALTU
 70
     2
  9
$DIMALTTD
 70
     2
  9
$DIMTXSTY
  7
STANDARD
  9
$DIMAUNIT
 70
     1
  9
$LUNITS
 70
     2
  9
$LUPREC
 70
     4
  9
$SKETCHINC
 40
1.0
  9
$FILLETRAD
 40
0.5
  9
$AUNITS
 70
     0
  9
$AUPREC
 70
     0
  9
$MENU
  1
.
  9
$ELEVATION
 40
0.0
  9
$PELEVATION
 40
0.0
  9
$THICKNESS
 40
0.0
  9
$LIMCHECK
 70
     0
  9
$BLIPMODE
 70
     1
  9
$CHAMFERA
 40
1.0
  9
$CHAMFERB
 40
1.0
  9
$CHAMFERC
 40
20.0
  9
$CHAMFERD
 40
0.0
  9
$SKPOLY
 70
     0
  9
$TDCREATE
 40
2452839.586179271
  9
$TDUPDATE
 40
2453376.699524548
  9
$TDINDWG
 40
11.1166711227
  9
$TDUSRTIMER
 40
11.1166711227
  9
$USRTIMER
 70
     1
  9
$ANGBASE
 50
0.0
  9
$ANGDIR
 70
     0
  9
$PDMODE
 70
     0
  9
$PDSIZE
 40
0.0
  9
$PLINEWID
 40
0.0
  9
$COORDS
 70
     2
  9
$SPLFRAME
 70
     0
  9
$SPLINETYPE
 70
     6
  9
$SPLINESEGS
 70
   800
  9
$ATTDIA
 70
     0
  9
$ATTREQ
 70
     1
  9
$HANDLING
 70
 22529
  9
$HANDSEED
  5
75F
  9
$SURFTAB1
 70
     6
  9
$SURFTAB2
 70
     6
  9
$SURFTYPE
 70
     6
  9
$SURFU
 70
     6
  9
$SURFV
 70
     6
  9
$UCSNAME
  2

  9
$UCSORG
 10
0.0
 20
0.0
 30
0.0
  9
$UCSXDIR
 10
1.0
 20
0.0
 30
0.0
  9
$UCSYDIR
 10
0.0
 20
1.0
 30
0.0
  9
$PUCSNAME
  2

  9
$PUCSORG
 10
0.0
 20
0.0
 30
0.0
  9
$PUCSXDIR
 10
1.0
 20
0.0
 30
0.0
  9
$PUCSYDIR
 10
0.0
 20
1.0
 30
0.0
  9
$USERI1
 70
     0
  9
$USERI2
 70
     0
  9
$USERI3
 70
     0
  9
$USERI4
 70
     0
  9
$USERI5
 70
     0
  9
$USERR1
 40
0.0
  9
$USERR2
 40
0.0
  9
$USERR3
 40
0.0
  9
$USERR4
 40
0.0
  9
$USERR5
 40
0.0
  9
$WORLDVIEW
 70
     1
  9
$SHADEDGE
 70
     3
  9
$SHADEDIF
 70
    70
  9
$TILEMODE
 70
     1
  9
$MAXACTVP
 70
    48
  9
$PINSBASE
 10
0.0
 20
0.0
 30
0.0
  9
$PLIMCHECK
 70
     0
  9
$PEXTMIN
 10
0.0
 20
0.0
 30
0.0
  9
$PEXTMAX
 10
0.0
 20
0.0
 30
0.0
  9
$PLIMMIN
 10
0.0
 20
0.0
  9
$PLIMMAX
 10
12.0
 20
9.0
  9
$UNITMODE
 70
     0
  9
$VISRETAIN
 70
     1
  9
$PLINEGEN
 70
     0
  9
$PSLTSCALE
 70
     1
  9
$TREEDEPTH
 70
  3020
  9
$PICKSTYLE
 70
     0
  9
$CMLSTYLE
  2
STANDARD
  9
$CMLJUST
 70
     0
  9
$CMLSCALE
 40
20.0
  9
$PROXYGRAPHICS
 70
     1
  9
$MEASUREMENT
 70
     1
  0
ENDSEC
  0
SECTION
  2
CLASSES
  0
CLASS
  1
ACDBDICTIONARYWDFLT
  2
AcDbDictionaryWithDefault
  3
AutoCAD 2000
 90
        0
280
     0
281
     0
  0
CLASS
  1
ACDBPLACEHOLDER
  2
AcDbPlaceHolder
  3
AutoCAD 2000
 90
        0
280
     0
281
     0
  0
CLASS
  1
LAYOUT
  2
AcDbLayout
  3
AutoCAD 2000
 90
        0
280
     0
281
     0
  0
CLASS
  1
DICTIONARYVAR
  2
AcDbDictionaryVar
  3
AutoCAD 2000
 90
        0
280
     0
281
     0
  0
CLASS
  1
DIMASSOC
  2
AcDbDimAssoc
  3
"AcDbDimAssoc|Product Desc:     AcDim ARX App For Dimension|Company:          Autodesk, Inc.|WEB Address:      www.autodesk.com"
 90
        0
280
     0
281
     0
  0
CLASS
  1
LONG_TRANSACTION
  2
AcDbLongTransaction
  3
AutoCAD 2000
 90
        0
280
     0
281
     0
  0
CLASS
  1
LWPOLYLINE
  2
AcDbPolyline
  3
AutoCAD 2000
 90
        0
280
     0
281
     1
  0
CLASS
  1
HATCH
  2
AcDbHatch
  3
AutoCAD 2000
 90
        0
280
     0
281
     1
  0
CLASS
  1
XRECORD
  2
AcDbXrecord
  3
AutoCAD 2000
 90
        0
280
     0
281
     0
  0
CLASS
  1
LONG_TRANSACTION
  2
AcDbLongTransaction
  3
AutoCAD 2000
 90
        0
280
     0
281
     0
  0
CLASS
  1
LWPOLYLINE
  2
AcDbPolyline
  3
AutoCAD 2000
 90
        0
280
     0
281
     1
  0
CLASS
  1
HATCH
  2
AcDbHatch
  3
AutoCAD 2000
 90
        0
280
     0
281
     1
  0
CLASS
  1
XRECORD
  2
AcDbXrecord
  3
AutoCAD 2000
 90
        0
280
     0
281
     0
  0
CLASS
  1
LONG_TRANSACTION
  2
AcDbLongTransaction
  3
AutoCAD 2000
 90
        0
280
     0
281
     0
  0
CLASS
  1
LWPOLYLINE
  2
AcDbPolyline
  3
AutoCAD 2000
 90
        0
280
     0
281
     1
  0
CLASS
  1
HATCH
  2
AcDbHatch
  3
AutoCAD 2000
 90
        0
280
     0
281
     1
  0
CLASS
  1
XRECORD
  2
AcDbXrecord
  3
AutoCAD 2000
 90
        0
280
     0
281
     0
  0
CLASS
  1
LONG_TRANSACTION
  2
AcDbLongTransaction
  3
AutoCAD 2000
 90
        0
280
     0
281
     0
  0
CLASS
  1
LWPOLYLINE
  2
AcDbPolyline
  3
AutoCAD 2000
 90
        0
280
     0
281
     1
  0
CLASS
  1
HATCH
  2
AcDbHatch
  3
AutoCAD 2000
 90
        0
280
     0
281
     1
  0
CLASS
  1
XRECORD
  2
AcDbXrecord
  3
AutoCAD 2000
 90
        0
280
     0
281
     0
  0
CLASS
  1
LONG_TRANSACTION
  2
AcDbLongTransaction
  3
AutoCAD 2000
 90
        0
280
     0
281
     0
  0
CLASS
  1
LWPOLYLINE
  2
AcDbPolyline
  3
AutoCAD 2000
 90
        0
280
     0
281
     1
  0
CLASS
  1
HATCH
  2
AcDbHatch
  3
AutoCAD 2000
 90
        0
280
     0
281
     1
  0
CLASS
  1
XRECORD
  2
AcDbXrecord
  3
AutoCAD 2000
 90
        0
280
     0
281
     0
  0
CLASS
  1
LONG_TRANSACTION
  2
AcDbLongTransaction
  3
AutoCAD 2000
 90
        0
280
     0
281
     0
  0
CLASS
  1
LWPOLYLINE
  2
AcDbPolyline
  3
AutoCAD 2000
 90
        0
280
     0
281
     1
  0
CLASS
  1
HATCH
  2
AcDbHatch
  3
AutoCAD 2000
 90
        0
280
     0
281
     1
  0
CLASS
  1
XRECORD
  2
AcDbXrecord
  3
AutoCAD 2000
 90
        0
280
     0
281
     0
  0
CLASS
  1
LONG_TRANSACTION
  2
AcDbLongTransaction
  3
AutoCAD 2000
 90
        0
280
     0
281
     0
  0
CLASS
  1
LWPOLYLINE
  2
AcDbPolyline
  3
AutoCAD 2000
 90
        0
280
     0
281
     1
  0
CLASS
  1
HATCH
  2
AcDbHatch
  3
AutoCAD 2000
 90
        0
280
     0
281
     1
  0
CLASS
  1
XRECORD
  2
AcDbXrecord
  3
AutoCAD 2000
 90
        0
280
     0
281
     0
  0
CLASS
  1
LONG_TRANSACTION
  2
AcDbLongTransaction
  3
AutoCAD 2000
 90
        0
280
     0
281
     0
  0
CLASS
  1
LWPOLYLINE
  2
AcDbPolyline
  3
AutoCAD 2000
 90
        0
280
     0
281
     1
  0
CLASS
  1
HATCH
  2
AcDbHatch
  3
AutoCAD 2000
 90
        0
280
     0
281
     1
  0
CLASS
  1
XRECORD
  2
AcDbXrecord
  3
AutoCAD 2000
 90
        0
280
     0
281
     0
  0
CLASS
  1
LONG_TRANSACTION
  2
AcDbLongTransaction
  3
AutoCAD 2000
 90
        0
280
     0
281
     0
  0
CLASS
  1
LWPOLYLINE
  2
AcDbPolyline
  3
AutoCAD 2000
 90
        0
280
     0
281
     1
  0
CLASS
  1
HATCH
  2
AcDbHatch
  3
AutoCAD 2000
 90
        0
280
     0
281
     1
  0
CLASS
  1
XRECORD
  2
AcDbXrecord
  3
AutoCAD 2000
 90
        0
280
     0
281
     0
  0
CLASS
  1
LONG_TRANSACTION
  2
AcDbLongTransaction
  3
AutoCAD 2000
 90
        0
280
     0
281
     0
  0
CLASS
  1
LWPOLYLINE
  2
AcDbPolyline
  3
AutoCAD 2000
 90
        0
280
     0
281
     1
  0
CLASS
  1
HATCH
  2
AcDbHatch
  3
AutoCAD 2000
 90
        0
280
     0
281
     1
  0
CLASS
  1
XRECORD
  2
AcDbXrecord
  3
AutoCAD 2000
 90
        0
280
     0
281
     0
  0
CLASS
  1
LONG_TRANSACTION
  2
AcDbLongTransaction
  3
AutoCAD 2000
 90
        0
280
     0
281
     0
  0
CLASS
  1
LWPOLYLINE
  2
AcDbPolyline
  3
AutoCAD 2000
 90
        0
280
     0
281
     1
  0
CLASS
  1
HATCH
  2
AcDbHatch
  3
AutoCAD 2000
 90
        0
280
     0
281
     1
  0
CLASS
  1
XRECORD
  2
AcDbXrecord
  3
AutoCAD 2000
 90
        0
280
     0
281
     0
  0
CLASS
  1
LONG_TRANSACTION
  2
AcDbLongTransaction
  3
AutoCAD 2000
 90
        0
280
     0
281
     0
  0
CLASS
  1
LWPOLYLINE
  2
AcDbPolyline
  3
AutoCAD 2000
 90
        0
280
     0
281
     1
  0
CLASS
  1
HATCH
  2
AcDbHatch
  3
AutoCAD 2000
 90
        0
280
     0
281
     1
  0
CLASS
  1
XRECORD
  2
AcDbXrecord
  3
AutoCAD 2000
 90
        0
280
     0
281
     0
  0
CLASS
  1
LONG_TRANSACTION
  2
AcDbLongTransaction
  3
AutoCAD 2000
 90
        0
280
     0
281
     0
  0
CLASS
  1
LWPOLYLINE
  2
AcDbPolyline
  3
AutoCAD 2000
 90
        0
280
     0
281
     1
  0
CLASS
  1
HATCH
  2
AcDbHatch
  3
AutoCAD 2000
 90
        0
280
     0
281
     1
  0
CLASS
  1
XRECORD
  2
AcDbXrecord
  3
AutoCAD 2000
 90
        0
280
     0
281
     0
  0
CLASS
  1
LONG_TRANSACTION
  2
AcDbLongTransaction
  3
AutoCAD 2000
 90
        0
280
     0
281
     0
  0
CLASS
  1
LWPOLYLINE
  2
AcDbPolyline
  3
AutoCAD 2000
 90
        0
280
     0
281
     1
  0
CLASS
  1
HATCH
  2
AcDbHatch
  3
AutoCAD 2000
 90
        0
280
     0
281
     1
  0
CLASS
  1
XRECORD
  2
AcDbXrecord
  3
AutoCAD 2000
 90
        0
280
     0
281
     0
  0
CLASS
  1
LONG_TRANSACTION
  2
AcDbLongTransaction
  3
AutoCAD 2000
 90
        0
280
     0
281
     0
  0
CLASS
  1
LWPOLYLINE
  2
AcDbPolyline
  3
AutoCAD 2000
 90
        0
280
     0
281
     1
  0
CLASS
  1
HATCH
  2
AcDbHatch
  3
AutoCAD 2000
 90
        0
280
     0
281
     1
  0
CLASS
  1
XRECORD
  2
AcDbXrecord
  3
AutoCAD 2000
 90
        0
280
     0
281
     0
  0
CLASS
  1
LONG_TRANSACTION
  2
AcDbLongTransaction
  3
AutoCAD 2000
 90
        0
280
     0
281
     0
  0
CLASS
  1
LWPOLYLINE
  2
AcDbPolyline
  3
AutoCAD 2000
 90
        0
280
     0
281
     1
  0
CLASS
  1
HATCH
  2
AcDbHatch
  3
AutoCAD 2000
 90
        0
280
     0
281
     1
  0
CLASS
  1
XRECORD
  2
AcDbXrecord
  3
AutoCAD 2000
 90
        0
280
     0
281
     0
  0
CLASS
  1
LONG_TRANSACTION
  2
AcDbLongTransaction
  3
AutoCAD 2000
 90
        0
280
     0
281
     0
  0
CLASS
  1
LWPOLYLINE
  2
AcDbPolyline
  3
AutoCAD 2000
 90
        0
280
     0
281
     1
  0
CLASS
  1
HATCH
  2
AcDbHatch
  3
AutoCAD 2000
 90
        0
280
     0
281
     1
  0
CLASS
  1
XRECORD
  2
AcDbXrecord
  3
AutoCAD 2000
 90
        0
280
     0
281
     0
  0
CLASS
  1
LONG_TRANSACTION
  2
AcDbLongTransaction
  3
AutoCAD 2000
 90
        0
280
     0
281
     0
  0
CLASS
  1
LWPOLYLINE
  2
AcDbPolyline
  3
AutoCAD 2000
 90
        0
280
     0
281
     1
  0
CLASS
  1
HATCH
  2
AcDbHatch
  3
AutoCAD 2000
 90
        0
280
     0
281
     1
  0
CLASS
  1
XRECORD
  2
AcDbXrecord
  3
AutoCAD 2000
 90
        0
280
     0
281
     0
  0
CLASS
  1
LONG_TRANSACTION
  2
AcDbLongTransaction
  3
AutoCAD 2000
 90
        0
280
     0
281
     0
  0
CLASS
  1
LWPOLYLINE
  2
AcDbPolyline
  3
AutoCAD 2000
 90
        0
280
     0
281
     1
  0
CLASS
  1
HATCH
  2
AcDbHatch
  3
AutoCAD 2000
 90
        0
280
     0
281
     1
  0
CLASS
  1
XRECORD
  2
AcDbXrecord
  3
AutoCAD 2000
 90
        0
280
     0
281
     0
  0
CLASS
  1
LONG_TRANSACTION
  2
AcDbLongTransaction
  3
AutoCAD 2000
 90
        0
280
     0
281
     0
  0
CLASS
  1
LWPOLYLINE
  2
AcDbPolyline
  3
AutoCAD 2000
 90
        0
280
     0
281
     1
  0
CLASS
  1
HATCH
  2
AcDbHatch
  3
AutoCAD 2000
 90
        0
280
     0
281
     1
  0
CLASS
  1
XRECORD
  2
AcDbXrecord
  3
AutoCAD 2000
 90
        0
280
     0
281
     0
  0
CLASS
  1
LONG_TRANSACTION
  2
AcDbLongTransaction
  3
AutoCAD 2000
 90
        0
280
     0
281
     0
  0
CLASS
  1
LWPOLYLINE
  2
AcDbPolyline
  3
AutoCAD 2000
 90
        0
280
     0
281
     1
  0
CLASS
  1
HATCH
  2
AcDbHatch
  3
AutoCAD 2000
 90
        0
280
     0
281
     1
  0
CLASS
  1
XRECORD
  2
AcDbXrecord
  3
AutoCAD 2000
 90
        0
280
     0
281
     0
  0
CLASS
  1
LONG_TRANSACTION
  2
AcDbLongTransaction
  3
AutoCAD 2000
 90
        0
280
     0
281
     0
  0
CLASS
  1
LWPOLYLINE
  2
AcDbPolyline
  3
AutoCAD 2000
 90
        0
280
     0
281
     1
  0
CLASS
  1
HATCH
  2
AcDbHatch
  3
AutoCAD 2000
 90
        0
280
     0
281
     1
  0
CLASS
  1
XRECORD
  2
AcDbXrecord
  3
AutoCAD 2000
 90
        0
280
     0
281
     0
  0
CLASS
  1
LONG_TRANSACTION
  2
AcDbLongTransaction
  3
AutoCAD 2000
 90
        0
280
     0
281
     0
  0
CLASS
  1
LWPOLYLINE
  2
AcDbPolyline
  3
AutoCAD 2000
 90
        0
280
     0
281
     1
  0
CLASS
  1
HATCH
  2
AcDbHatch
  3
AutoCAD 2000
 90
        0
280
     0
281
     1
  0
CLASS
  1
XRECORD
  2
AcDbXrecord
  3
AutoCAD 2000
 90
        0
280
     0
281
     0
  0
CLASS
  1
LONG_TRANSACTION
  2
AcDbLongTransaction
  3
AutoCAD 2000
 90
        0
280
     0
281
     0
  0
CLASS
  1
LWPOLYLINE
  2
AcDbPolyline
  3
AutoCAD 2000
 90
        0
280
     0
281
     1
  0
CLASS
  1
HATCH
  2
AcDbHatch
  3
AutoCAD 2000
 90
        0
280
     0
281
     1
  0
CLASS
  1
XRECORD
  2
AcDbXrecord
  3
AutoCAD 2000
 90
        0
280
     0
281
     0
  0
CLASS
  1
LONG_TRANSACTION
  2
AcDbLongTransaction
  3
AutoCAD 2000
 90
        0
280
     0
281
     0
  0
CLASS
  1
LWPOLYLINE
  2
AcDbPolyline
  3
AutoCAD 2000
 90
        0
280
     0
281
     1
  0
CLASS
  1
HATCH
  2
AcDbHatch
  3
AutoCAD 2000
 90
        0
280
     0
281
     1
  0
CLASS
  1
XRECORD
  2
AcDbXrecord
  3
AutoCAD 2000
 90
        0
280
     0
281
     0
  0
CLASS
  1
LONG_TRANSACTION
  2
AcDbLongTransaction
  3
AutoCAD 2000
 90
        0
280
     0
281
     0
  0
CLASS
  1
LWPOLYLINE
  2
AcDbPolyline
  3
AutoCAD 2000
 90
        0
280
     0
281
     1
  0
CLASS
  1
HATCH
  2
AcDbHatch
  3
AutoCAD 2000
 90
        0
280
     0
281
     1
  0
CLASS
  1
XRECORD
  2
AcDbXrecord
  3
AutoCAD 2000
 90
        0
280
     0
281
     0
  0
CLASS
  1
LONG_TRANSACTION
  2
AcDbLongTransaction
  3
AutoCAD 2000
 90
        0
280
     0
281
     0
  0
CLASS
  1
LWPOLYLINE
  2
AcDbPolyline
  3
AutoCAD 2000
 90
        0
280
     0
281
     1
  0
CLASS
  1
HATCH
  2
AcDbHatch
  3
AutoCAD 2000
 90
        0
280
     0
281
     1
  0
CLASS
  1
XRECORD
  2
AcDbXrecord
  3
AutoCAD 2000
 90
        0
280
     0
281
     0
  0
CLASS
  1
LONG_TRANSACTION
  2
AcDbLongTransaction
  3
AutoCAD 2000
 90
        0
280
     0
281
     0
  0
CLASS
  1
LWPOLYLINE
  2
AcDbPolyline
  3
AutoCAD 2000
 90
        0
280
     0
281
     1
  0
CLASS
  1
HATCH
  2
AcDbHatch
  3
AutoCAD 2000
 90
        0
280
     0
281
     1
  0
CLASS
  1
XRECORD
  2
AcDbXrecord
  3
AutoCAD 2000
 90
        0
280
     0
281
     0
  0
CLASS
  1
LONG_TRANSACTION
  2
AcDbLongTransaction
  3
AutoCAD 2000
 90
        0
280
     0
281
     0
  0
CLASS
  1
LWPOLYLINE
  2
AcDbPolyline
  3
AutoCAD 2000
 90
        0
280
     0
281
     1
  0
CLASS
  1
HATCH
  2
AcDbHatch
  3
AutoCAD 2000
 90
        0
280
     0
281
     1
  0
CLASS
  1
XRECORD
  2
AcDbXrecord
  3
AutoCAD 2000
 90
        0
280
     0
281
     0
  0
CLASS
  1
LONG_TRANSACTION
  2
AcDbLongTransaction
  3
AutoCAD 2000
 90
        0
280
     0
281
     0
  0
CLASS
  1
LWPOLYLINE
  2
AcDbPolyline
  3
AutoCAD 2000
 90
        0
280
     0
281
     1
  0
CLASS
  1
HATCH
  2
AcDbHatch
  3
AutoCAD 2000
 90
        0
280
     0
281
     1
  0
CLASS
  1
XRECORD
  2
AcDbXrecord
  3
AutoCAD 2000
 90
        0
280
     0
281
     0
  0
CLASS
  1
LONG_TRANSACTION
  2
AcDbLongTransaction
  3
AutoCAD 2000
 90
        0
280
     0
281
     0
  0
CLASS
  1
LWPOLYLINE
  2
AcDbPolyline
  3
AutoCAD 2000
 90
        0
280
     0
281
     1
  0
CLASS
  1
HATCH
  2
AcDbHatch
  3
AutoCAD 2000
 90
        0
280
     0
281
     1
  0
CLASS
  1
XRECORD
  2
AcDbXrecord
  3
AutoCAD 2000
 90
        0
280
     0
281
     0
  0
CLASS
  1
LONG_TRANSACTION
  2
AcDbLongTransaction
  3
AutoCAD 2000
 90
        0
280
     0
281
     0
  0
CLASS
  1
LWPOLYLINE
  2
AcDbPolyline
  3
AutoCAD 2000
 90
        0
280
     0
281
     1
  0
CLASS
  1
HATCH
  2
AcDbHatch
  3
AutoCAD 2000
 90
        0
280
     0
281
     1
  0
CLASS
  1
XRECORD
  2
AcDbXrecord
  3
AutoCAD 2000
 90
        0
280
     0
281
     0
  0
CLASS
  1
LONG_TRANSACTION
  2
AcDbLongTransaction
  3
AutoCAD 2000
 90
        0
280
     0
281
     0
  0
CLASS
  1
LWPOLYLINE
  2
AcDbPolyline
  3
AutoCAD 2000
 90
        0
280
     0
281
     1
  0
CLASS
  1
HATCH
  2
AcDbHatch
  3
AutoCAD 2000
 90
        0
280
     0
281
     1
  0
CLASS
  1
XRECORD
  2
AcDbXrecord
  3
AutoCAD 2000
 90
        0
280
     0
281
     0
  0
CLASS
  1
LONG_TRANSACTION
  2
AcDbLongTransaction
  3
AutoCAD 2000
 90
        0
280
     0
281
     0
  0
CLASS
  1
LWPOLYLINE
  2
AcDbPolyline
  3
AutoCAD 2000
 90
        0
280
     0
281
     1
  0
CLASS
  1
HATCH
  2
AcDbHatch
  3
AutoCAD 2000
 90
        0
280
     0
281
     1
  0
CLASS
  1
XRECORD
  2
AcDbXrecord
  3
AutoCAD 2000
 90
        0
280
     0
281
     0
  0
CLASS
  1
LONG_TRANSACTION
  2
AcDbLongTransaction
  3
AutoCAD 2000
 90
        0
280
     0
281
     0
  0
CLASS
  1
LWPOLYLINE
  2
AcDbPolyline
  3
AutoCAD 2000
 90
        0
280
     0
281
     1
  0
CLASS
  1
HATCH
  2
AcDbHatch
  3
AutoCAD 2000
 90
        0
280
     0
281
     1
  0
CLASS
  1
XRECORD
  2
AcDbXrecord
  3
AutoCAD 2000
 90
        0
280
     0
281
     0
  0
CLASS
  1
LONG_TRANSACTION
  2
AcDbLongTransaction
  3
AutoCAD 2000
 90
        0
280
     0
281
     0
  0
CLASS
  1
LWPOLYLINE
  2
AcDbPolyline
  3
AutoCAD 2000
 90
        0
280
     0
281
     1
  0
CLASS
  1
HATCH
  2
AcDbHatch
  3
AutoCAD 2000
 90
        0
280
     0
281
     1
  0
CLASS
  1
XRECORD
  2
AcDbXrecord
  3
AutoCAD 2000
 90
        0
280
     0
281
     0
  0
CLASS
  1
LONG_TRANSACTION
  2
AcDbLongTransaction
  3
AutoCAD 2000
 90
        0
280
     0
281
     0
  0
CLASS
  1
LWPOLYLINE
  2
AcDbPolyline
  3
AutoCAD 2000
 90
        0
280
     0
281
     1
  0
CLASS
  1
HATCH
  2
AcDbHatch
  3
AutoCAD 2000
 90
        0
280
     0
281
     1
  0
CLASS
  1
XRECORD
  2
AcDbXrecord
  3
AutoCAD 2000
 90
        0
280
     0
281
     0
  0
CLASS
  1
LONG_TRANSACTION
  2
AcDbLongTransaction
  3
AutoCAD 2000
 90
        0
280
     0
281
     0
  0
CLASS
  1
LWPOLYLINE
  2
AcDbPolyline
  3
AutoCAD 2000
 90
        0
280
     0
281
     1
  0
CLASS
  1
HATCH
  2
AcDbHatch
  3
AutoCAD 2000
 90
        0
280
     0
281
     1
  0
CLASS
  1
XRECORD
  2
AcDbXrecord
  3
AutoCAD 2000
 90
        0
280
     0
281
     0
  0
CLASS
  1
LONG_TRANSACTION
  2
AcDbLongTransaction
  3
AutoCAD 2000
 90
        0
280
     0
281
     0
  0
CLASS
  1
LWPOLYLINE
  2
AcDbPolyline
  3
AutoCAD 2000
 90
        0
280
     0
281
     1
  0
CLASS
  1
HATCH
  2
AcDbHatch
  3
AutoCAD 2000
 90
        0
280
     0
281
     1
  0
CLASS
  1
XRECORD
  2
AcDbXrecord
  3
AutoCAD 2000
 90
        0
280
     0
281
     0
  0
CLASS
  1
LONG_TRANSACTION
  2
AcDbLongTransaction
  3
AutoCAD 2000
 90
        0
280
     0
281
     0
  0
CLASS
  1
LWPOLYLINE
  2
AcDbPolyline
  3
AutoCAD 2000
 90
        0
280
     0
281
     1
  0
CLASS
  1
HATCH
  2
AcDbHatch
  3
AutoCAD 2000
 90
        0
280
     0
281
     1
  0
CLASS
  1
XRECORD
  2
AcDbXrecord
  3
AutoCAD 2000
 90
        0
280
     0
281
     0
  0
CLASS
  1
LONG_TRANSACTION
  2
AcDbLongTransaction
  3
AutoCAD 2000
 90
        0
280
     0
281
     0
  0
CLASS
  1
LWPOLYLINE
  2
AcDbPolyline
  3
AutoCAD 2000
 90
        0
280
     0
281
     1
  0
CLASS
  1
HATCH
  2
AcDbHatch
  3
AutoCAD 2000
 90
        0
280
     0
281
     1
  0
CLASS
  1
XRECORD
  2
AcDbXrecord
  3
AutoCAD 2000
 90
        0
280
     0
281
     0
  0
CLASS
  1
LONG_TRANSACTION
  2
AcDbLongTransaction
  3
AutoCAD 2000
 90
        0
280
     0
281
     0
  0
CLASS
  1
LWPOLYLINE
  2
AcDbPolyline
  3
AutoCAD 2000
 90
        0
280
     0
281
     1
  0
CLASS
  1
HATCH
  2
AcDbHatch
  3
AutoCAD 2000
 90
        0
280
     0
281
     1
  0
CLASS
  1
XRECORD
  2
AcDbXrecord
  3
AutoCAD 2000
 90
        0
280
     0
281
     0
  0
CLASS
  1
LONG_TRANSACTION
  2
AcDbLongTransaction
  3
AutoCAD 2000
 90
        0
280
     0
281
     0
  0
CLASS
  1
LWPOLYLINE
  2
AcDbPolyline
  3
AutoCAD 2000
 90
        0
280
     0
281
     1
  0
CLASS
  1
HATCH
  2
AcDbHatch
  3
AutoCAD 2000
 90
        0
280
     0
281
     1
  0
CLASS
  1
XRECORD
  2
AcDbXrecord
  3
AutoCAD 2000
 90
        0
280
     0
281
     0
  0
CLASS
  1
LONG_TRANSACTION
  2
AcDbLongTransaction
  3
AutoCAD 2000
 90
        0
280
     0
281
     0
  0
CLASS
  1
LWPOLYLINE
  2
AcDbPolyline
  3
AutoCAD 2000
 90
        0
280
     0
281
     1
  0
CLASS
  1
HATCH
  2
AcDbHatch
  3
AutoCAD 2000
 90
        0
280
     0
281
     1
  0
CLASS
  1
XRECORD
  2
AcDbXrecord
  3
AutoCAD 2000
 90
        0
280
     0
281
     0
  0
CLASS
  1
LONG_TRANSACTION
  2
AcDbLongTransaction
  3
AutoCAD 2000
 90
        0
280
     0
281
     0
  0
CLASS
  1
LWPOLYLINE
  2
AcDbPolyline
  3
AutoCAD 2000
 90
        0
280
     0
281
     1
  0
CLASS
  1
HATCH
  2
AcDbHatch
  3
AutoCAD 2000
 90
        0
280
     0
281
     1
  0
CLASS
  1
XRECORD
  2
AcDbXrecord
  3
AutoCAD 2000
 90
        0
280
     0
281
     0
  0
CLASS
  1
LONG_TRANSACTION
  2
AcDbLongTransaction
  3
AutoCAD 2000
 90
        0
280
     0
281
     0
  0
CLASS
  1
LWPOLYLINE
  2
AcDbPolyline
  3
AutoCAD 2000
 90
        0
280
     0
281
     1
  0
CLASS
  1
HATCH
  2
AcDbHatch
  3
AutoCAD 2000
 90
        0
280
     0
281
     1
  0
CLASS
  1
XRECORD
  2
AcDbXrecord
  3
AutoCAD 2000
 90
        0
280
     0
281
     0
  0
CLASS
  1
LONG_TRANSACTION
  2
AcDbLongTransaction
  3
AutoCAD 2000
 90
        0
280
     0
281
     0
  0
CLASS
  1
LWPOLYLINE
  2
AcDbPolyline
  3
AutoCAD 2000
 90
        0
280
     0
281
     1
  0
CLASS
  1
HATCH
  2
AcDbHatch
  3
AutoCAD 2000
 90
        0
280
     0
281
     1
  0
CLASS
  1
XRECORD
  2
AcDbXrecord
  3
AutoCAD 2000
 90
        0
280
     0
281
     0
  0
CLASS
  1
LONG_TRANSACTION
  2
AcDbLongTransaction
  3
AutoCAD 2000
 90
        0
280
     0
281
     0
  0
CLASS
  1
LWPOLYLINE
  2
AcDbPolyline
  3
AutoCAD 2000
 90
        0
280
     0
281
     1
  0
CLASS
  1
HATCH
  2
AcDbHatch
  3
AutoCAD 2000
 90
        0
280
     0
281
     1
  0
CLASS
  1
XRECORD
  2
AcDbXrecord
  3
AutoCAD 2000
 90
        0
280
     0
281
     0
  0
CLASS
  1
LONG_TRANSACTION
  2
AcDbLongTransaction
  3
AutoCAD 2000
 90
        0
280
     0
281
     0
  0
CLASS
  1
LWPOLYLINE
  2
AcDbPolyline
  3
AutoCAD 2000
 90
        0
280
     0
281
     1
  0
CLASS
  1
HATCH
  2
AcDbHatch
  3
AutoCAD 2000
 90
        0
280
     0
281
     1
  0
CLASS
  1
XRECORD
  2
AcDbXrecord
  3
AutoCAD 2000
 90
        0
280
     0
281
     0
  0
CLASS
  1
LONG_TRANSACTION
  2
AcDbLongTransaction
  3
AutoCAD 2000
 90
        0
280
     0
281
     0
  0
CLASS
  1
LWPOLYLINE
  2
AcDbPolyline
  3
AutoCAD 2000
 90
        0
280
     0
281
     1
  0
CLASS
  1
HATCH
  2
AcDbHatch
  3
AutoCAD 2000
 90
        0
280
     0
281
     1
  0
CLASS
  1
XRECORD
  2
AcDbXrecord
  3
AutoCAD 2000
 90
        0
280
     0
281
     0
  0
CLASS
  1
LONG_TRANSACTION
  2
AcDbLongTransaction
  3
AutoCAD 2000
 90
        0
280
     0
281
     0
  0
CLASS
  1
LWPOLYLINE
  2
AcDbPolyline
  3
AutoCAD 2000
 90
        0
280
     0
281
     1
  0
CLASS
  1
HATCH
  2
AcDbHatch
  3
AutoCAD 2000
 90
        0
280
     0
281
     1
  0
CLASS
  1
XRECORD
  2
AcDbXrecord
  3
AutoCAD 2000
 90
        0
280
     0
281
     0
  0
CLASS
  1
LONG_TRANSACTION
  2
AcDbLongTransaction
  3
AutoCAD 2000
 90
        0
280
     0
281
     0
  0
CLASS
  1
LWPOLYLINE
  2
AcDbPolyline
  3
AutoCAD 2000
 90
        0
280
     0
281
     1
  0
CLASS
  1
HATCH
  2
AcDbHatch
  3
AutoCAD 2000
 90
        0
280
     0
281
     1
  0
CLASS
  1
XRECORD
  2
AcDbXrecord
  3
AutoCAD 2000
 90
        0
280
     0
281
     0
  0
CLASS
  1
LONG_TRANSACTION
  2
AcDbLongTransaction
  3
AutoCAD 2000
 90
        0
280
     0
281
     0
  0
CLASS
  1
LWPOLYLINE
  2
AcDbPolyline
  3
AutoCAD 2000
 90
        0
280
     0
281
     1
  0
CLASS
  1
HATCH
  2
AcDbHatch
  3
AutoCAD 2000
 90
        0
280
     0
281
     1
  0
CLASS
  1
XRECORD
  2
AcDbXrecord
  3
AutoCAD 2000
 90
        0
280
     0
281
     0
  0
CLASS
  1
LONG_TRANSACTION
  2
AcDbLongTransaction
  3
AutoCAD 2000
 90
        0
280
     0
281
     0
  0
CLASS
  1
LWPOLYLINE
  2
AcDbPolyline
  3
AutoCAD 2000
 90
        0
280
     0
281
     1
  0
CLASS
  1
HATCH
  2
AcDbHatch
  3
AutoCAD 2000
 90
        0
280
     0
281
     1
  0
CLASS
  1
XRECORD
  2
AcDbXrecord
  3
AutoCAD 2000
 90
        0
280
     0
281
     0
  0
CLASS
  1
LONG_TRANSACTION
  2
AcDbLongTransaction
  3
AutoCAD 2000
 90
        0
280
     0
281
     0
  0
CLASS
  1
LWPOLYLINE
  2
AcDbPolyline
  3
AutoCAD 2000
 90
        0
280
     0
281
     1
  0
CLASS
  1
HATCH
  2
AcDbHatch
  3
AutoCAD 2000
 90
        0
280
     0
281
     1
  0
CLASS
  1
XRECORD
  2
AcDbXrecord
  3
AutoCAD 2000
 90
        0
280
     0
281
     0
  0
CLASS
  1
LONG_TRANSACTION
  2
AcDbLongTransaction
  3
AutoCAD 2000
 90
        0
280
     0
281
     0
  0
CLASS
  1
LWPOLYLINE
  2
AcDbPolyline
  3
AutoCAD 2000
 90
        0
280
     0
281
     1
  0
CLASS
  1
HATCH
  2
AcDbHatch
  3
AutoCAD 2000
 90
        0
280
     0
281
     1
  0
CLASS
  1
XRECORD
  2
AcDbXrecord
  3
AutoCAD 2000
 90
        0
280
     0
281
     0
  0
CLASS
  1
LONG_TRANSACTION
  2
AcDbLongTransaction
  3
AutoCAD 2000
 90
        0
280
     0
281
     0
  0
CLASS
  1
LWPOLYLINE
  2
AcDbPolyline
  3
AutoCAD 2000
 90
        0
280
     0
281
     1
  0
CLASS
  1
HATCH
  2
AcDbHatch
  3
AutoCAD 2000
 90
        0
280
     0
281
     1
  0
CLASS
  1
XRECORD
  2
AcDbXrecord
  3
AutoCAD 2000
 90
        0
280
     0
281
     0
  0
CLASS
  1
LONG_TRANSACTION
  2
AcDbLongTransaction
  3
AutoCAD 2000
 90
        0
280
     0
281
     0
  0
CLASS
  1
LWPOLYLINE
  2
AcDbPolyline
  3
AutoCAD 2000
 90
        0
280
     0
281
     1
  0
CLASS
  1
HATCH
  2
AcDbHatch
  3
AutoCAD 2000
 90
        0
280
     0
281
     1
  0
CLASS
  1
XRECORD
  2
AcDbXrecord
  3
AutoCAD 2000
 90
        0
280
     0
281
     0
  0
CLASS
  1
LONG_TRANSACTION
  2
AcDbLongTransaction
  3
AutoCAD 2000
 90
        0
280
     0
281
     0
  0
CLASS
  1
LWPOLYLINE
  2
AcDbPolyline
  3
AutoCAD 2000
 90
        0
280
     0
281
     1
  0
CLASS
  1
HATCH
  2
AcDbHatch
  3
AutoCAD 2000
 90
        0
280
     0
281
     1
  0
CLASS
  1
XRECORD
  2
AcDbXrecord
  3
AutoCAD 2000
 90
        0
280
     0
281
     0
  0
CLASS
  1
LONG_TRANSACTION
  2
AcDbLongTransaction
  3
AutoCAD 2000
 90
        0
280
     0
281
     0
  0
CLASS
  1
LWPOLYLINE
  2
AcDbPolyline
  3
AutoCAD 2000
 90
        0
280
     0
281
     1
  0
CLASS
  1
HATCH
  2
AcDbHatch
  3
AutoCAD 2000
 90
        0
280
     0
281
     1
  0
CLASS
  1
XRECORD
  2
AcDbXrecord
  3
AutoCAD 2000
 90
        0
280
     0
281
     0
  0
CLASS
  1
LONG_TRANSACTION
  2
AcDbLongTransaction
  3
AutoCAD 2000
 90
        0
280
     0
281
     0
  0
CLASS
  1
LWPOLYLINE
  2
AcDbPolyline
  3
AutoCAD 2000
 90
        0
280
     0
281
     1
  0
CLASS
  1
HATCH
  2
AcDbHatch
  3
AutoCAD 2000
 90
        0
280
     0
281
     1
  0
CLASS
  1
XRECORD
  2
AcDbXrecord
  3
AutoCAD 2000
 90
        0
280
     0
281
     0
  0
CLASS
  1
LONG_TRANSACTION
  2
AcDbLongTransaction
  3
AutoCAD 2000
 90
        0
280
     0
281
     0
  0
CLASS
  1
LWPOLYLINE
  2
AcDbPolyline
  3
AutoCAD 2000
 90
        0
280
     0
281
     1
  0
CLASS
  1
HATCH
  2
AcDbHatch
  3
AutoCAD 2000
 90
        0
280
     0
281
     1
  0
CLASS
  1
XRECORD
  2
AcDbXrecord
  3
AutoCAD 2000
 90
        0
280
     0
281
     0
  0
CLASS
  1
LONG_TRANSACTION
  2
AcDbLongTransaction
  3
AutoCAD 2000
 90
        0
280
     0
281
     0
  0
CLASS
  1
LWPOLYLINE
  2
AcDbPolyline
  3
AutoCAD 2000
 90
        0
280
     0
281
     1
  0
CLASS
  1
HATCH
  2
AcDbHatch
  3
AutoCAD 2000
 90
        0
280
     0
281
     1
  0
CLASS
  1
XRECORD
  2
AcDbXrecord
  3
AutoCAD 2000
 90
        0
280
     0
281
     0
  0
CLASS
  1
LONG_TRANSACTION
  2
AcDbLongTransaction
  3
AutoCAD 2000
 90
        0
280
     0
281
     0
  0
CLASS
  1
LWPOLYLINE
  2
AcDbPolyline
  3
AutoCAD 2000
 90
        0
280
     0
281
     1
  0
CLASS
  1
HATCH
  2
AcDbHatch
  3
AutoCAD 2000
 90
        0
280
     0
281
     1
  0
CLASS
  1
XRECORD
  2
AcDbXrecord
  3
AutoCAD 2000
 90
        0
280
     0
281
     0
  0
CLASS
  1
LONG_TRANSACTION
  2
AcDbLongTransaction
  3
AutoCAD 2000
 90
        0
280
     0
281
     0
  0
CLASS
  1
LWPOLYLINE
  2
AcDbPolyline
  3
AutoCAD 2000
 90
        0
280
     0
281
     1
  0
CLASS
  1
HATCH
  2
AcDbHatch
  3
AutoCAD 2000
 90
        0
280
     0
281
     1
  0
CLASS
  1
XRECORD
  2
AcDbXrecord
  3
AutoCAD 2000
 90
        0
280
     0
281
     0
  0
CLASS
  1
LONG_TRANSACTION
  2
AcDbLongTransaction
  3
AutoCAD 2000
 90
        0
280
     0
281
     0
  0
CLASS
  1
LWPOLYLINE
  2
AcDbPolyline
  3
AutoCAD 2000
 90
        0
280
     0
281
     1
  0
CLASS
  1
HATCH
  2
AcDbHatch
  3
AutoCAD 2000
 90
        0
280
     0
281
     1
  0
CLASS
  1
XRECORD
  2
AcDbXrecord
  3
AutoCAD 2000
 90
        0
280
     0
281
     0
  0
CLASS
  1
LONG_TRANSACTION
  2
AcDbLongTransaction
  3
AutoCAD 2000
 90
        0
280
     0
281
     0
  0
CLASS
  1
LWPOLYLINE
  2
AcDbPolyline
  3
AutoCAD 2000
 90
        0
280
     0
281
     1
  0
CLASS
  1
HATCH
  2
AcDbHatch
  3
AutoCAD 2000
 90
        0
280
     0
281
     1
  0
CLASS
  1
XRECORD
  2
AcDbXrecord
  3
AutoCAD 2000
 90
        0
280
     0
281
     0
  0
CLASS
  1
LONG_TRANSACTION
  2
AcDbLongTransaction
  3
AutoCAD 2000
 90
        0
280
     0
281
     0
  0
CLASS
  1
LWPOLYLINE
  2
AcDbPolyline
  3
AutoCAD 2000
 90
        0
280
     0
281
     1
  0
CLASS
  1
HATCH
  2
AcDbHatch
  3
AutoCAD 2000
 90
        0
280
     0
281
     1
  0
CLASS
  1
XRECORD
  2
AcDbXrecord
  3
AutoCAD 2000
 90
        0
280
     0
281
     0
  0
CLASS
  1
LONG_TRANSACTION
  2
AcDbLongTransaction
  3
AutoCAD 2000
 90
        0
280
     0
281
     0
  0
CLASS
  1
LWPOLYLINE
  2
AcDbPolyline
  3
AutoCAD 2000
 90
        0
280
     0
281
     1
  0
CLASS
  1
HATCH
  2
AcDbHatch
  3
AutoCAD 2000
 90
        0
280
     0
281
     1
  0
CLASS
  1
XRECORD
  2
AcDbXrecord
  3
AutoCAD 2000
 90
        0
280
     0
281
     0
  0
CLASS
  1
LONG_TRANSACTION
  2
AcDbLongTransaction
  3
AutoCAD 2000
 90
        0
280
     0
281
     0
  0
CLASS
  1
LWPOLYLINE
  2
AcDbPolyline
  3
AutoCAD 2000
 90
        0
280
     0
281
     1
  0
CLASS
  1
HATCH
  2
AcDbHatch
  3
AutoCAD 2000
 90
        0
280
     0
281
     1
  0
CLASS
  1
XRECORD
  2
AcDbXrecord
  3
AutoCAD 2000
 90
        0
280
     0
281
     0
  0
CLASS
  1
LONG_TRANSACTION
  2
AcDbLongTransaction
  3
AutoCAD 2000
 90
        0
280
     0
281
     0
  0
CLASS
  1
LWPOLYLINE
  2
AcDbPolyline
  3
AutoCAD 2000
 90
        0
280
     0
281
     1
  0
CLASS
  1
HATCH
  2
AcDbHatch
  3
AutoCAD 2000
 90
        0
280
     0
281
     1
  0
CLASS
  1
XRECORD
  2
AcDbXrecord
  3
AutoCAD 2000
 90
        0
280
     0
281
     0
  0
CLASS
  1
LONG_TRANSACTION
  2
AcDbLongTransaction
  3
AutoCAD 2000
 90
        0
280
     0
281
     0
  0
CLASS
  1
LWPOLYLINE
  2
AcDbPolyline
  3
AutoCAD 2000
 90
        0
280
     0
281
     1
  0
CLASS
  1
HATCH
  2
AcDbHatch
  3
AutoCAD 2000
 90
        0
280
     0
281
     1
  0
CLASS
  1
XRECORD
  2
AcDbXrecord
  3
AutoCAD 2000
 90
        0
280
     0
281
     0
  0
CLASS
  1
LONG_TRANSACTION
  2
AcDbLongTransaction
  3
AutoCAD 2000
 90
        0
280
     0
281
     0
  0
CLASS
  1
LWPOLYLINE
  2
AcDbPolyline
  3
AutoCAD 2000
 90
        0
280
     0
281
     1
  0
CLASS
  1
HATCH
  2
AcDbHatch
  3
AutoCAD 2000
 90
        0
280
     0
281
     1
  0
CLASS
  1
XRECORD
  2
AcDbXrecord
  3
AutoCAD 2000
 90
        0
280
     0
281
     0
  0
CLASS
  1
LONG_TRANSACTION
  2
AcDbLongTransaction
  3
AutoCAD 2000
 90
        0
280
     0
281
     0
  0
CLASS
  1
LWPOLYLINE
  2
AcDbPolyline
  3
AutoCAD 2000
 90
        0
280
     0
281
     1
  0
CLASS
  1
HATCH
  2
AcDbHatch
  3
AutoCAD 2000
 90
        0
280
     0
281
     1
  0
CLASS
  1
XRECORD
  2
AcDbXrecord
  3
AutoCAD 2000
 90
        0
280
     0
281
     0
  0
CLASS
  1
LONG_TRANSACTION
  2
AcDbLongTransaction
  3
AutoCAD 2000
 90
        0
280
     0
281
     0
  0
CLASS
  1
LWPOLYLINE
  2
AcDbPolyline
  3
AutoCAD 2000
 90
        0
280
     0
281
     1
  0
CLASS
  1
HATCH
  2
AcDbHatch
  3
AutoCAD 2000
 90
        0
280
     0
281
     1
  0
CLASS
  1
XRECORD
  2
AcDbXrecord
  3
AutoCAD 2000
 90
        0
280
     0
281
     0
  0
CLASS
  1
LONG_TRANSACTION
  2
AcDbLongTransaction
  3
AutoCAD 2000
 90
        0
280
     0
281
     0
  0
CLASS
  1
LWPOLYLINE
  2
AcDbPolyline
  3
AutoCAD 2000
 90
        0
280
     0
281
     1
  0
CLASS
  1
HATCH
  2
AcDbHatch
  3
AutoCAD 2000
 90
        0
280
     0
281
     1
  0
CLASS
  1
XRECORD
  2
AcDbXrecord
  3
AutoCAD 2000
 90
        0
280
     0
281
     0
  0
CLASS
  1
LONG_TRANSACTION
  2
AcDbLongTransaction
  3
AutoCAD 2000
 90
        0
280
     0
281
     0
  0
CLASS
  1
LWPOLYLINE
  2
AcDbPolyline
  3
AutoCAD 2000
 90
        0
280
     0
281
     1
  0
CLASS
  1
HATCH
  2
AcDbHatch
  3
AutoCAD 2000
 90
        0
280
     0
281
     1
  0
CLASS
  1
XRECORD
  2
AcDbXrecord
  3
AutoCAD 2000
 90
        0
280
     0
281
     0
  0
CLASS
  1
LONG_TRANSACTION
  2
AcDbLongTransaction
  3
AutoCAD 2000
 90
        0
280
     0
281
     0
  0
CLASS
  1
LWPOLYLINE
  2
AcDbPolyline
  3
AutoCAD 2000
 90
        0
280
     0
281
     1
  0
CLASS
  1
HATCH
  2
AcDbHatch
  3
AutoCAD 2000
 90
        0
280
     0
281
     1
  0
CLASS
  1
XRECORD
  2
AcDbXrecord
  3
AutoCAD 2000
 90
        0
280
     0
281
     0
  0
CLASS
  1
LONG_TRANSACTION
  2
AcDbLongTransaction
  3
AutoCAD 2000
 90
        0
280
     0
281
     0
  0
CLASS
  1
LWPOLYLINE
  2
AcDbPolyline
  3
AutoCAD 2000
 90
        0
280
     0
281
     1
  0
CLASS
  1
HATCH
  2
AcDbHatch
  3
AutoCAD 2000
 90
        0
280
     0
281
     1
  0
CLASS
  1
XRECORD
  2
AcDbXrecord
  3
AutoCAD 2000
 90
        0
280
     0
281
     0
  0
CLASS
  1
LONG_TRANSACTION
  2
AcDbLongTransaction
  3
AutoCAD 2000
 90
        0
280
     0
281
     0
  0
CLASS
  1
LWPOLYLINE
  2
AcDbPolyline
  3
AutoCAD 2000
 90
        0
280
     0
281
     1
  0
CLASS
  1
HATCH
  2
AcDbHatch
  3
AutoCAD 2000
 90
        0
280
     0
281
     1
  0
CLASS
  1
XRECORD
  2
AcDbXrecord
  3
AutoCAD 2000
 90
        0
280
     0
281
     0
  0
CLASS
  1
LONG_TRANSACTION
  2
AcDbLongTransaction
  3
AutoCAD 2000
 90
        0
280
     0
281
     0
  0
CLASS
  1
LWPOLYLINE
  2
AcDbPolyline
  3
AutoCAD 2000
 90
        0
280
     0
281
     1
  0
CLASS
  1
HATCH
  2
AcDbHatch
  3
AutoCAD 2000
 90
        0
280
     0
281
     1
  0
CLASS
  1
XRECORD
  2
AcDbXrecord
  3
AutoCAD 2000
 90
        0
280
     0
281
     0
  0
CLASS
  1
LONG_TRANSACTION
  2
AcDbLongTransaction
  3
AutoCAD 2000
 90
        0
280
     0
281
     0
  0
CLASS
  1
LWPOLYLINE
  2
AcDbPolyline
  3
AutoCAD 2000
 90
        0
280
     0
281
     1
  0
CLASS
  1
HATCH
  2
AcDbHatch
  3
AutoCAD 2000
 90
        0
280
     0
281
     1
  0
CLASS
  1
XRECORD
  2
AcDbXrecord
  3
AutoCAD 2000
 90
        0
280
     0
281
     0
  0
CLASS
  1
LONG_TRANSACTION
  2
AcDbLongTransaction
  3
AutoCAD 2000
 90
        0
280
     0
281
     0
  0
CLASS
  1
LWPOLYLINE
  2
AcDbPolyline
  3
AutoCAD 2000
 90
        0
280
     0
281
     1
  0
CLASS
  1
HATCH
  2
AcDbHatch
  3
AutoCAD 2000
 90
        0
280
     0
281
     1
  0
CLASS
  1
XRECORD
  2
AcDbXrecord
  3
AutoCAD 2000
 90
        0
280
     0
281
     0
  0
CLASS
  1
LONG_TRANSACTION
  2
AcDbLongTransaction
  3
AutoCAD 2000
 90
        0
280
     0
281
     0
  0
CLASS
  1
LWPOLYLINE
  2
AcDbPolyline
  3
AutoCAD 2000
 90
        0
280
     0
281
     1
  0
CLASS
  1
HATCH
  2
AcDbHatch
  3
AutoCAD 2000
 90
        0
280
     0
281
     1
  0
CLASS
  1
XRECORD
  2
AcDbXrecord
  3
AutoCAD 2000
 90
        0
280
     0
281
     0
  0
CLASS
  1
LONG_TRANSACTION
  2
AcDbLongTransaction
  3
AutoCAD 2000
 90
        0
280
     0
281
     0
  0
CLASS
  1
LWPOLYLINE
  2
AcDbPolyline
  3
AutoCAD 2000
 90
        0
280
     0
281
     1
  0
CLASS
  1
HATCH
  2
AcDbHatch
  3
AutoCAD 2000
 90
        0
280
     0
281
     1
  0
CLASS
  1
XRECORD
  2
AcDbXrecord
  3
AutoCAD 2000
 90
        0
280
     0
281
     0
  0
CLASS
  1
LONG_TRANSACTION
  2
AcDbLongTransaction
  3
AutoCAD 2000
 90
        0
280
     0
281
     0
  0
CLASS
  1
LWPOLYLINE
  2
AcDbPolyline
  3
AutoCAD 2000
 90
        0
280
     0
281
     1
  0
CLASS
  1
HATCH
  2
AcDbHatch
  3
AutoCAD 2000
 90
        0
280
     0
281
     1
  0
CLASS
  1
XRECORD
  2
AcDbXrecord
  3
AutoCAD 2000
 90
        0
280
     0
281
     0
  0
CLASS
  1
LONG_TRANSACTION
  2
AcDbLongTransaction
  3
AutoCAD 2000
 90
        0
280
     0
281
     0
  0
CLASS
  1
LWPOLYLINE
  2
AcDbPolyline
  3
AutoCAD 2000
 90
        0
280
     0
281
     1
  0
CLASS
  1
HATCH
  2
AcDbHatch
  3
AutoCAD 2000
 90
        0
280
     0
281
     1
  0
CLASS
  1
XRECORD
  2
AcDbXrecord
  3
AutoCAD 2000
 90
        0
280
     0
281
     0
  0
CLASS
  1
LONG_TRANSACTION
  2
AcDbLongTransaction
  3
AutoCAD 2000
 90
        0
280
     0
281
     0
  0
CLASS
  1
LWPOLYLINE
  2
AcDbPolyline
  3
AutoCAD 2000
 90
        0
280
     0
281
     1
  0
CLASS
  1
HATCH
  2
AcDbHatch
  3
AutoCAD 2000
 90
        0
280
     0
281
     1
  0
CLASS
  1
XRECORD
  2
AcDbXrecord
  3
AutoCAD 2000
 90
        0
280
     0
281
     0
  0
CLASS
  1
LONG_TRANSACTION
  2
AcDbLongTransaction
  3
AutoCAD 2000
 90
        0
280
     0
281
     0
  0
CLASS
  1
LWPOLYLINE
  2
AcDbPolyline
  3
AutoCAD 2000
 90
        0
280
     0
281
     1
  0
CLASS
  1
HATCH
  2
AcDbHatch
  3
AutoCAD 2000
 90
        0
280
     0
281
     1
  0
CLASS
  1
XRECORD
  2
AcDbXrecord
  3
AutoCAD 2000
 90
        0
280
     0
281
     0
  0
CLASS
  1
LONG_TRANSACTION
  2
AcDbLongTransaction
  3
AutoCAD 2000
 90
        0
280
     0
281
     0
  0
CLASS
  1
LWPOLYLINE
  2
AcDbPolyline
  3
AutoCAD 2000
 90
        0
280
     0
281
     1
  0
CLASS
  1
HATCH
  2
AcDbHatch
  3
AutoCAD 2000
 90
        0
280
     0
281
     1
  0
CLASS
  1
XRECORD
  2
AcDbXrecord
  3
AutoCAD 2000
 90
        0
280
     0
281
     0
  0
CLASS
  1
LONG_TRANSACTION
  2
AcDbLongTransaction
  3
AutoCAD 2000
 90
        0
280
     0
281
     0
  0
CLASS
  1
LWPOLYLINE
  2
AcDbPolyline
  3
AutoCAD 2000
 90
        0
280
     0
281
     1
  0
CLASS
  1
HATCH
  2
AcDbHatch
  3
AutoCAD 2000
 90
        0
280
     0
281
     1
  0
CLASS
  1
XRECORD
  2
AcDbXrecord
  3
AutoCAD 2000
 90
        0
280
     0
281
     0
  0
CLASS
  1
LONG_TRANSACTION
  2
AcDbLongTransaction
  3
AutoCAD 2000
 90
        0
280
     0
281
     0
  0
CLASS
  1
LWPOLYLINE
  2
AcDbPolyline
  3
AutoCAD 2000
 90
        0
280
     0
281
     1
  0
CLASS
  1
HATCH
  2
AcDbHatch
  3
AutoCAD 2000
 90
        0
280
     0
281
     1
  0
CLASS
  1
XRECORD
  2
AcDbXrecord
  3
AutoCAD 2000
 90
        0
280
     0
281
     0
  0
CLASS
  1
LONG_TRANSACTION
  2
AcDbLongTransaction
  3
AutoCAD 2000
 90
        0
280
     0
281
     0
  0
CLASS
  1
LWPOLYLINE
  2
AcDbPolyline
  3
AutoCAD 2000
 90
        0
280
     0
281
     1
  0
CLASS
  1
HATCH
  2
AcDbHatch
  3
AutoCAD 2000
 90
        0
280
     0
281
     1
  0
CLASS
  1
XRECORD
  2
AcDbXrecord
  3
AutoCAD 2000
 90
        0
280
     0
281
     0
  0
CLASS
  1
LONG_TRANSACTION
  2
AcDbLongTransaction
  3
AutoCAD 2000
 90
        0
280
     0
281
     0
  0
CLASS
  1
LWPOLYLINE
  2
AcDbPolyline
  3
AutoCAD 2000
 90
        0
280
     0
281
     1
  0
CLASS
  1
HATCH
  2
AcDbHatch
  3
AutoCAD 2000
 90
        0
280
     0
281
     1
  0
CLASS
  1
XRECORD
  2
AcDbXrecord
  3
AutoCAD 2000
 90
        0
280
     0
281
     0
  0
CLASS
  1
LONG_TRANSACTION
  2
AcDbLongTransaction
  3
AutoCAD 2000
 90
        0
280
     0
281
     0
  0
CLASS
  1
LWPOLYLINE
  2
AcDbPolyline
  3
AutoCAD 2000
 90
        0
280
     0
281
     1
  0
CLASS
  1
HATCH
  2
AcDbHatch
  3
AutoCAD 2000
 90
        0
280
     0
281
     1
  0
CLASS
  1
XRECORD
  2
AcDbXrecord
  3
AutoCAD 2000
 90
        0
280
     0
281
     0
  0
CLASS
  1
LONG_TRANSACTION
  2
AcDbLongTransaction
  3
AutoCAD 2000
 90
        0
280
     0
281
     0
  0
CLASS
  1
LWPOLYLINE
  2
AcDbPolyline
  3
AutoCAD 2000
 90
        0
280
     0
281
     1
  0
CLASS
  1
HATCH
  2
AcDbHatch
  3
AutoCAD 2000
 90
        0
280
     0
281
     1
  0
CLASS
  1
XRECORD
  2
AcDbXrecord
  3
AutoCAD 2000
 90
        0
280
     0
281
     0
  0
CLASS
  1
LONG_TRANSACTION
  2
AcDbLongTransaction
  3
AutoCAD 2000
 90
        0
280
     0
281
     0
  0
CLASS
  1
LWPOLYLINE
  2
AcDbPolyline
  3
AutoCAD 2000
 90
        0
280
     0
281
     1
  0
CLASS
  1
HATCH
  2
AcDbHatch
  3
AutoCAD 2000
 90
        0
280
     0
281
     1
  0
CLASS
  1
XRECORD
  2
AcDbXrecord
  3
AutoCAD 2000
 90
        0
280
     0
281
     0
  0
CLASS
  1
LONG_TRANSACTION
  2
AcDbLongTransaction
  3
AutoCAD 2000
 90
        0
280
     0
281
     0
  0
CLASS
  1
LWPOLYLINE
  2
AcDbPolyline
  3
AutoCAD 2000
 90
        0
280
     0
281
     1
  0
CLASS
  1
HATCH
  2
AcDbHatch
  3
AutoCAD 2000
 90
        0
280
     0
281
     1
  0
CLASS
  1
XRECORD
  2
AcDbXrecord
  3
AutoCAD 2000
 90
        0
280
     0
281
     0
  0
CLASS
  1
LONG_TRANSACTION
  2
AcDbLongTransaction
  3
AutoCAD 2000
 90
        0
280
     0
281
     0
  0
CLASS
  1
LWPOLYLINE
  2
AcDbPolyline
  3
AutoCAD 2000
 90
        0
280
     0
281
     1
  0
CLASS
  1
HATCH
  2
AcDbHatch
  3
AutoCAD 2000
 90
        0
280
     0
281
     1
  0
CLASS
  1
XRECORD
  2
AcDbXrecord
  3
AutoCAD 2000
 90
        0
280
     0
281
     0
  0
CLASS
  1
LONG_TRANSACTION
  2
AcDbLongTransaction
  3
AutoCAD 2000
 90
        0
280
     0
281
     0
  0
CLASS
  1
LWPOLYLINE
  2
AcDbPolyline
  3
AutoCAD 2000
 90
        0
280
     0
281
     1
  0
CLASS
  1
HATCH
  2
AcDbHatch
  3
AutoCAD 2000
 90
        0
280
     0
281
     1
  0
CLASS
  1
XRECORD
  2
AcDbXrecord
  3
AutoCAD 2000
 90
        0
280
     0
281
     0
  0
ENDSEC
  0
SECTION
  2
TABLES
  0
TABLE
  2
VPORT
  5
90
330
0
100
AcDbSymbolTable
 70
     2
  0
VPORT
  5
725
330
90
100
AcDbSymbolTableRecord
100
AcDbViewportTableRecord
  2
*ACTIVE
 70
     0
 10
0.0
 20
0.0
 11
1.0
 21
1.0
 12
4.80601448975193
 22
-6.536385975432608
 13
0.0
 23
0.0
 14
10.0
 24
10.0
 15
10.0
 25
10.0
 16
0.0
 26
0.0
 36
1.0
 17
0.0
 27
0.0
 37
0.0
 40
300.042112798997
 41
1.549367088607595
 42
50.0
 43
0.0
 44
0.0
 50
0.0
 51
0.0
 71
     0
 72
 10000
 73
     1
 74
     3
 75
     0
 76
     0
 77
     0
 78
     1
  0
ENDTAB
  0
TABLE
  2
LTYPE
  5
8B
330
0
100
AcDbSymbolTable
 70
     2
  0
LTYPE
  5
8C
330
8B
100
AcDbSymbolTableRecord
100
AcDbLinetypeTableRecord
  2
BYBLOCK
 70
     0
  3

 72
    65
 73
     0
 40
0.0
  0
LTYPE
  5
8D
330
8B
100
AcDbSymbolTableRecord
100
AcDbLinetypeTableRecord
  2
BYLAYER
 70
     0
  3

 72
    65
 73
     0
 40
0.0
  0
LTYPE
  5
9
330
8B
100
AcDbSymbolTableRecord
100
AcDbLinetypeTableRecord
  2
CONTINUOUS
 70
     0
  3
Solid line
 72
    65
 73
     0
 40
0.0
  0
LTYPE
  5
E1
330
8B
100
AcDbSymbolTableRecord
100
AcDbLinetypeTableRecord
  2
CENTER
 70
     0
  3
Center ____ _ ____ _ ____ _ ____ _ ____ _ ____
 72
    65
 73
     4
 40
50.8
 49
31.75
 74
     0
 49
-6.349999999999997
 74
     0
 49
6.349999999999997
 74
     0
 49
-6.349999999999997
 74
     0
  0
ENDTAB
  0
TABLE
  2
LAYER
  5
12
102
{ACAD_XDICTIONARY
360
13
102
}
330
0
100
AcDbSymbolTable
 70
     6
  0
LAYER
  5
5
330
12
100
AcDbSymbolTableRecord
100
AcDbLayerTableRecord
  2
0
 70
     0
 62
     7
  6
CONTINUOUS
  0
LAYER
  5
183
330
12
100
AcDbSymbolTableRecord
100
AcDbLayerTableRecord
  2
3
 70
     0
 62
     3
  6
CONTINUOUS
  0
LAYER
  5
A9
330
12
100
AcDbSymbolTableRecord
100
AcDbLayerTableRecord
  2
DEFPOINTS
 70
     0
 62
     7
  6
CONTINUOUS
  0
LAYER
  5
B2
330
12
100
AcDbSymbolTableRecord
100
AcDbLayerTableRecord
  2
DIM
 70
     0
 62
     3
  6
CONTINUOUS
  0
LAYER
  5
E0
330
12
100
AcDbSymbolTableRecord
100
AcDbLayerTableRecord
  2
CEN
 70
     0
 62
     1
  6
CENTER
  0
LAYER
  5
164
330
12
100
AcDbSymbolTableRecord
100
AcDbLayerTableRecord
  2
2
 70
     0
 62
     2
  6
CONTINUOUS
  0
ENDTAB
  0
TABLE
  2
STYLE
  5
88
330
0
100
AcDbSymbolTable
 70
     1
  0
STYLE
  5
89
330
88
100
AcDbSymbolTableRecord
100
AcDbTextStyleTableRecord
  2
STANDARD
 70
     0
 40
0.0
 41
1.0
 50
0.0
 71
     0
 42
5.777225951253058
  3
romans.shx
  4
whgtxt.shx
  0
ENDTAB
  0
TABLE
  2
VIEW
  5
8E
330
0
100
AcDbSymbolTable
 70
     0
  0
ENDTAB
  0
TABLE
  2
UCS
  5
8F
330
0
100
AcDbSymbolTable
 70
     0
  0
ENDTAB
  0
TABLE
  2
APPID
  5
92
330
0
100
AcDbSymbolTable
 70
     1
  0
APPID
  5
93
330
92
100
AcDbSymbolTableRecord
100
AcDbRegAppTableRecord
  2
ACAD
 70
     0
  0
ENDTAB
  0
TABLE
  2
DIMSTYLE
  5
94
330
0
100
AcDbSymbolTable
 70
     2
  0
DIMSTYLE
105
9D
102
{ACAD_REACTORS
330
1C4
330
1B7
330
1A1
330
190
330
105
330
E2
330
F1
330
16D
330
B9
330
CA
330
1E8
330
2A6
330
290
330
9E
330
24D
330
25D
330
2B8
330
1D3
330
2C5
102
}
330
94
100
AcDbSymbolTableRecord
100
AcDbDimStyleTableRecord
  2
STANDARD
 70
     0
  3

  4

  5

  6

  7

 40
1.0
 41
2.5
 42
1.0
 43
10.0
 44
0.6
 45
0.0
 46
0.0
 47
0.0
 48
0.0
140
3.0
141
0.09
142
0.0
143
25.4
144
1.0
145
0.0
146
1.0
147
1.0
 71
     0
 72
     0
 73
     0
 74
     0
 75
     0
 76
     0
 77
     1
 78
     8
170
     0
171
     2
172
     1
173
     0
174
     1
175
     0
176
   123
177
   123
178
     3
270
     2
271
     2
272
     2
273
     2
274
     2
340
89
275
     1
280
     0
281
     0
282
     0
283
     1
284
     0
285
     0
286
     0
287
     3
288
     1
  0
DIMSTYLE
105
95
330
94
100
AcDbSymbolTableRecord
100
AcDbDimStyleTableRecord
  2
1_1_2
 70
     0
  3

  4

  5

  6

  7

 40
1.0
 41
3.0
 42
1.0
 43
10.0
 44
0.6
 45
0.0
 46
0.0
 47
0.0
 48
0.0
140
3.5
141
0.09
142
0.0
143
25.4
144
1.0
145
0.0
146
1.0
147
1.0
 71
     0
 72
     0
 73
     0
 74
     0
 75
     0
 76
     0
 77
     1
 78
     8
170
     0
171
     2
172
     1
173
     0
174
     1
175
     0
176
   123
177
   123
178
     3
270
     2
271
     2
272
     2
273
     2
274
     2
340
89
275
     1
280
     0
281
     0
282
     0
283
     1
284
     0
285
     0
286
     0
287
     3
288
     1
  0
ENDTAB
  0
TABLE
  2
BLOCK_RECORD
  5
1
330
0
100
AcDbSymbolTable
 70
    38
  0
BLOCK_RECORD
  5
2
102
{ACAD_XDICTIONARY
360
3
102
}
330
1
100
AcDbSymbolTableRecord
100
AcDbBlockTableRecord
  2
*MODEL_SPACE
  0
BLOCK_RECORD
  5
D
102
{ACAD_XDICTIONARY
360
E
102
}
330
1
100
AcDbSymbolTableRecord
100
AcDbBlockTableRecord
  2
*PAPER_SPACE
  0
BLOCK_RECORD
  5
1B8
330
1
100
AcDbSymbolTableRecord
100
AcDbBlockTableRecord
  2
*D0
  0
BLOCK_RECORD
  5
2B9
330
1
100
AcDbSymbolTableRecord
100
AcDbBlockTableRecord
  2
*D1
  0
BLOCK_RECORD
  5
E3
330
1
100
AcDbSymbolTableRecord
100
AcDbBlockTableRecord
  2
*D2
  0
BLOCK_RECORD
  5
1C7
330
1
100
AcDbSymbolTableRecord
100
AcDbBlockTableRecord
  2
*D3
  0
BLOCK_RECORD
  5
250
330
1
100
AcDbSymbolTableRecord
100
AcDbBlockTableRecord
  2
*D4
  0
BLOCK_RECORD
  5
2C8
330
1
100
AcDbSymbolTableRecord
100
AcDbBlockTableRecord
  2
*D5
  0
BLOCK_RECORD
  5
2A9
330
1
100
AcDbSymbolTableRecord
100
AcDbBlockTableRecord
  2
*D6
  0
BLOCK_RECORD
  5
293
330
1
100
AcDbSymbolTableRecord
100
AcDbBlockTableRecord
  2
*D7
  0
BLOCK_RECORD
  5
260
330
1
100
AcDbSymbolTableRecord
100
AcDbBlockTableRecord
  2
*D8
  0
BLOCK_RECORD
  5
1D6
330
1
100
AcDbSymbolTableRecord
100
AcDbBlockTableRecord
  2
*D9
  0
BLOCK_RECORD
  5
A1
330
1
100
AcDbSymbolTableRecord
100
AcDbBlockTableRecord
  2
*D10
  0
BLOCK_RECORD
  5
1EB
330
1
100
AcDbSymbolTableRecord
100
AcDbBlockTableRecord
  2
*D11
  0
BLOCK_RECORD
  5
170
330
1
100
AcDbSymbolTableRecord
100
AcDbBlockTableRecord
  2
*D12
  0
BLOCK_RECORD
  5
CD
330
1
100
AcDbSymbolTableRecord
100
AcDbBlockTableRecord
  2
*D13
  0
BLOCK_RECORD
  5
BC
330
1
100
AcDbSymbolTableRecord
100
AcDbBlockTableRecord
  2
*D14
  0
BLOCK_RECORD
  5
193
330
1
100
AcDbSymbolTableRecord
100
AcDbBlockTableRecord
  2
*D15
  0
BLOCK_RECORD
  5
1A4
330
1
100
AcDbSymbolTableRecord
100
AcDbBlockTableRecord
  2
*D16
  0
BLOCK_RECORD
  5
F4
330
1
100
AcDbSymbolTableRecord
100
AcDbBlockTableRecord
  2
*D17
  0
BLOCK_RECORD
  5
108
330
1
100
AcDbSymbolTableRecord
100
AcDbBlockTableRecord
  2
*D18
  0
BLOCK_RECORD
  5
2DC
330
1
100
AcDbSymbolTableRecord
100
AcDbBlockTableRecord
  2
*D19
  0
BLOCK_RECORD
  5
2E8
330
1
100
AcDbSymbolTableRecord
100
AcDbBlockTableRecord
  2
*D20
  0
BLOCK_RECORD
  5
2F4
330
1
100
AcDbSymbolTableRecord
100
AcDbBlockTableRecord
  2
*D21
  0
BLOCK_RECORD
  5
300
330
1
100
AcDbSymbolTableRecord
100
AcDbBlockTableRecord
  2
*D22
  0
BLOCK_RECORD
  5
30E
330
1
100
AcDbSymbolTableRecord
100
AcDbBlockTableRecord
  2
*D23
  0
BLOCK_RECORD
  5
31A
330
1
100
AcDbSymbolTableRecord
100
AcDbBlockTableRecord
  2
*D24
  0
BLOCK_RECORD
  5
326
330
1
100
AcDbSymbolTableRecord
100
AcDbBlockTableRecord
  2
*D25
  0
BLOCK_RECORD
  5
332
330
1
100
AcDbSymbolTableRecord
100
AcDbBlockTableRecord
  2
*D26
  0
BLOCK_RECORD
  5
340
330
1
100
AcDbSymbolTableRecord
100
AcDbBlockTableRecord
  2
*D27
  0
BLOCK_RECORD
  5
34B
330
1
100
AcDbSymbolTableRecord
100
AcDbBlockTableRecord
  2
*D28
  0
BLOCK_RECORD
  5
359
330
1
100
AcDbSymbolTableRecord
100
AcDbBlockTableRecord
  2
*D29
  0
BLOCK_RECORD
  5
365
330
1
100
AcDbSymbolTableRecord
100
AcDbBlockTableRecord
  2
*D30
  0
BLOCK_RECORD
  5
371
330
1
100
AcDbSymbolTableRecord
100
AcDbBlockTableRecord
  2
*D31
  0
BLOCK_RECORD
  5
37D
330
1
100
AcDbSymbolTableRecord
100
AcDbBlockTableRecord
  2
*D32
  0
BLOCK_RECORD
  5
388
330
1
100
AcDbSymbolTableRecord
100
AcDbBlockTableRecord
  2
*D33
  0
BLOCK_RECORD
  5
396
330
1
100
AcDbSymbolTableRecord
100
AcDbBlockTableRecord
  2
*D34
  0
BLOCK_RECORD
  5
3A2
330
1
100
AcDbSymbolTableRecord
100
AcDbBlockTableRecord
  2
*D35
  0
BLOCK_RECORD
  5
3AE
330
1
100
AcDbSymbolTableRecord
100
AcDbBlockTableRecord
  2
*D36
  0
BLOCK_RECORD
  5
3BA
330
1
100
AcDbSymbolTableRecord
100
AcDbBlockTableRecord
  2
*D37
  0
ENDTAB
  0
ENDSEC
  0
SECTION
  2
BLOCKS
  0
BLOCK
  5
4
330
2
100
AcDbEntity
  8
0
100
AcDbBlockBegin
  2
*MODEL_SPACE
 70
     0
 10
0.0
 20
0.0
 30
0.0
  3
*MODEL_SPACE
  1

  0
ENDBLK
  5
A
330
2
100
AcDbEntity
  8
0
100
AcDbBlockEnd
  0
BLOCK
  5
F
330
D
100
AcDbEntity
 67
     1
  8
0
100
AcDbBlockBegin
  2
*PAPER_SPACE
 70
     0
 10
0.0
 20
0.0
 30
0.0
  3
*PAPER_SPACE
  1

  0
ENDBLK
  5
10
330
D
100
AcDbEntity
 67
     1
  8
0
100
AcDbBlockEnd
  0
BLOCK
  5
1C2
330
1B8
100
AcDbEntity
  8
0
100
AcDbBlockBegin
  2
*D0
 70
     1
 10
0.0
 20
0.0
 30
0.0
  3
*D0
  1

  0
LINE
  5
1B9
330
1B8
100
AcDbEntity
  8
0
 62
   123
100
AcDbLine
 10
21120.13236170895
 20
-1479.275832186293
 30
0.0
 11
21120.13236170895
 21
-1432.278454537946
 31
0.0
  0
LINE
  5
1BA
330
1B8
100
AcDbEntity
  8
0
 62
   123
100
AcDbLine
 10
21144.13236170895
 20
-1451.275944971463
 30
0.0
 11
21144.13236170895
 21
-1432.278454537946
 31
0.0
  0
LINE
  5
1BB
330
1B8
100
AcDbEntity
  8
0
 62
   123
100
AcDbLine
 10
21122.63236170895
 20
-1432.878454537944
 30
0.0
 11
21141.63236170895
 21
-1432.878454537944
 31
0.0
  0
SOLID
  5
1BC
330
1B8
100
AcDbEntity
  8
0
 62
   123
100
AcDbTrace
 10
21122.63236170895
 20
-1432.461787871279
 30
0.0
 11
21122.63236170895
 21
-1433.295121204612
 31
0.0
 12
21120.13236170895
 22
-1432.878454537944
 32
0.0
 13
21120.13236170895
 23
-1432.878454537944
 33
0.0
  0
SOLID
  5
1BD
330
1B8
100
AcDbEntity
  8
0
 62
   123
100
AcDbTrace
 10
21141.63236170895
 20
-1432.461787871279
 30
0.0
 11
21141.63236170895
 21
-1433.295121204612
 31
0.0
 12
21144.13236170895
 22
-1432.878454537944
 32
0.0
 13
21144.13236170895
 23
-1432.878454537944
 33
0.0
  0
MTEXT
  5
1BE
330
1B8
100
AcDbEntity
  8
0
 62
     3
100
AcDbMText
 10
21132.13236170895
 20
-1430.378454537945
 30
0.0
 40
3.0
 41
0.0
 71
     5
 72
     1
  1
\A1;24
1001
ACAD
1000
MTEXTBEGIN
1070
    73
1070
     1
1070
    44
1040
1.0
1070
    74
1070
     0
1000
MTEXTEND
1000
MTEXTBEGIN
1070
    73
1070
     1
1070
    44
1040
1.0
1070
    74
1070
     0
1000
MTEXTEND
  0
POINT
  5
1BF
330
1B8
100
AcDbEntity
  8
DEFPOINTS
 62
     0
100
AcDbPoint
 10
21120.13236170895
 20
-1480.275832186292
 30
0.0
  0
POINT
  5
1C0
330
1B8
100
AcDbEntity
  8
DEFPOINTS
 62
     0
100
AcDbPoint
 10
21144.13236170895
 20
-1452.275944971463
 30
0.0
  0
POINT
  5
1C1
330
1B8
100
AcDbEntity
  8
DEFPOINTS
 62
     0
100
AcDbPoint
 10
21144.13236170895
 20
-1432.878454537944
 30
0.0
  0
ENDBLK
  5
1C3
330
1B8
100
AcDbEntity
  8
0
100
AcDbBlockEnd
  0
BLOCK
  5
2C3
330
2B9
100
AcDbEntity
  8
0
100
AcDbBlockBegin
  2
*D1
 70
     1
 10
0.0
 20
0.0
 30
0.0
  3
*D1
  1

  0
LINE
  5
2BA
330
2B9
100
AcDbEntity
  8
0
 62
   123
100
AcDbLine
 10
21121.21115378088
 20
-1308.321870879932
 30
0.0
 11
21121.21115378088
 21
-1261.891498661635
 31
0.0
  0
LINE
  5
2BB
330
2B9
100
AcDbEntity
  8
0
 62
   123
100
AcDbLine
 10
21133.71186321796
 20
-1280.641870879932
 30
0.0
 11
21133.71186321796
 21
-1261.891498661635
 31
0.0
  0
LINE
  5
2BC
330
2B9
100
AcDbEntity
  8
0
 62
   123
100
AcDbLine
 10
21123.71115378088
 20
-1262.491498661635
 30
0.0
 11
21131.21186321798
 21
-1262.491498661635
 31
0.0
  0
SOLID
  5
2BD
330
2B9
100
AcDbEntity
  8
0
 62
   123
100
AcDbTrace
 10
21123.71115378088
 20
-1262.074831994968
 30
0.0
 11
21123.71115378088
 21
-1262.908165328301
 31
0.0
 12
21121.21115378088
 22
-1262.491498661635
 32
0.0
 13
21121.21115378088
 23
-1262.491498661635
 33
0.0
  0
SOLID
  5
2BE
330
2B9
100
AcDbEntity
  8
0
 62
   123
100
AcDbTrace
 10
21131.21186321798
 20
-1262.074831994968
 30
0.0
 11
21131.21186321798
 21
-1262.908165328301
 31
0.0
 12
21133.71186321796
 22
-1262.491498661635
 32
0.0
 13
21133.71186321796
 23
-1262.491498661635
 33
0.0
  0
MTEXT
  5
2BF
330
2B9
100
AcDbEntity
  8
0
 62
     3
100
AcDbMText
 10
21127.46186321798
 20
-1259.991498661634
 30
0.0
 40
3.0
 41
0.0
 71
     5
 72
     1
  1
\A1;12.5
1001
ACAD
1000
MTEXTBEGIN
1070
    73
1070
     1
1070
    44
1040
1.0
1070
    74
1070
     0
1000
MTEXTEND
1000
MTEXTBEGIN
1070
    73
1070
     1
1070
    44
1040
1.0
1070
    74
1070
     0
1000
MTEXTEND
  0
POINT
  5
2C0
330
2B9
100
AcDbEntity
  8
DEFPOINTS
 62
     0
100
AcDbPoint
 10
21121.21115378088
 20
-1309.321870879932
 30
0.0
  0
POINT
  5
2C1
330
2B9
100
AcDbEntity
  8
DEFPOINTS
 62
     0
100
AcDbPoint
 10
21133.71186321796
 20
-1281.641870879932
 30
0.0
  0
POINT
  5
2C2
330
2B9
100
AcDbEntity
  8
DEFPOINTS
 62
     0
100
AcDbPoint
 10
21133.71186321796
 20
-1262.491498661635
 30
0.0
  0
ENDBLK
  5
2C4
330
2B9
100
AcDbEntity
  8
0
100
AcDbBlockEnd
  0
BLOCK
  5
EF
330
E3
100
AcDbEntity
  8
0
100
AcDbBlockBegin
  2
*D2
 70
     1
 10
0.0
 20
0.0
 30
0.0
  3
*D2
  1

  0
LINE
  5
E4
330
E3
100
AcDbEntity
  8
0
 62
   123
100
AcDbLine
 10
21119.63236170895
 20
-1479.276055356919
 30
0.0
 11
21111.2602810267
 21
-1479.276055356919
 31
0.0
  0
LINE
  5
E5
330
E3
100
AcDbEntity
  8
0
 62
   123
100
AcDbLine
 10
21119.63236170895
 20
-1485.275834586007
 30
0.0
 11
21111.2602810267
 21
-1485.275834586007
 31
0.0
  0
LINE
  5
E6
330
E3
100
AcDbEntity
  8
0
 62
   123
100
AcDbLine
 10
21111.86028102669
 20
-1476.77605535692
 30
0.0
 11
21111.86028102669
 21
-1474.276055356918
 31
0.0
  0
LINE
  5
E7
330
E3
100
AcDbEntity
  8
0
 62
   123
100
AcDbLine
 10
21111.86028102669
 20
-1487.775834586007
 30
0.0
 11
21111.86028102669
 21
-1490.275834586006
 31
0.0
  0
LINE
  5
E8
330
E3
100
AcDbEntity
  8
0
 62
   123
100
AcDbLine
 10
21111.86028102669
 20
-1479.276055356919
 30
0.0
 11
21111.86028102669
 21
-1485.275834586007
 31
0.0
  0
SOLID
  5
E9
330
E3
100
AcDbEntity
  8
0
 62
   123
100
AcDbTrace
 10
21111.44361436004
 20
-1476.77605535692
 30
0.0
 11
21112.27694769338
 21
-1476.77605535692
 31
0.0
 12
21111.86028102669
 22
-1479.276055356919
 32
0.0
 13
21111.86028102669
 23
-1479.276055356919
 33
0.0
  0
SOLID
  5
EA
330
E3
100
AcDbEntity
  8
0
 62
   123
100
AcDbTrace
 10
21111.44361436004
 20
-1487.775834586007
 30
0.0
 11
21112.27694769338
 21
-1487.775834586007
 31
0.0
 12
21111.86028102669
 22
-1485.275834586007
 32
0.0
 13
21111.86028102669
 23
-1485.275834586007
 33
0.0
  0
MTEXT
  5
EB
330
E3
100
AcDbEntity
  8
0
 62
     3
100
AcDbMText
 10
21107.91013102671
 20
-1482.275944971459
 30
0.0
 40
3.0
 41
0.0
 71
     5
 72
     1
  1
\A1;\A1;%%c6{\H0.7x;\S+0^ -0.012;\f??|b0|i0|c0|p49;\H1.429x;(h7)}  
 11
0.0000000000000001
 21
1.0
 31
0.0
1001
ACAD
1000
MTEXTBEGIN
1070
    73
1070
     1
1070
    44
1040
1.0
1070
    74
1070
     0
1000
MTEXTEND
1000
MTEXTBEGIN
1070
    73
1070
     1
1070
    44
1040
1.0
1070
    74
1070
     0
1000
MTEXTEND
  0
POINT
  5
EC
330
E3
100
AcDbEntity
  8
DEFPOINTS
 62
     0
100
AcDbPoint
 10
21120.63236170895
 20
-1479.276055356919
 30
0.0
  0
POINT
  5
ED
330
E3
100
AcDbEntity
  8
DEFPOINTS
 62
     0
100
AcDbPoint
 10
21120.63236170895
 20
-1485.275834586007
 30
0.0
  0
POINT
  5
EE
330
E3
100
AcDbEntity
  8
DEFPOINTS
 62
     0
100
AcDbPoint
 10
21111.86028102669
 20
-1485.275834586007
 30
0.0
  0
ENDBLK
  5
F0
330
E3
100
AcDbEntity
  8
0
100
AcDbBlockEnd
  0
BLOCK
  5
1D1
330
1C7
100
AcDbEntity
  8
0
100
AcDbBlockBegin
  2
*D3
 70
     1
 10
0.0
 20
0.0
 30
0.0
  3
*D3
  1

  0
LINE
  5
1C8
330
1C7
100
AcDbEntity
  8
0
 62
   123
100
AcDbLine
 10
21144.13236170895
 20
-1431.878454537945
 30
0.0
 11
21144.13236170895
 21
-1432.278454537946
 31
0.0
  0
LINE
  5
1C9
330
1C7
100
AcDbEntity
  8
0
 62
   123
100
AcDbLine
 10
21219.13236170895
 20
-1453.775944971464
 30
0.0
 11
21219.13236170895
 21
-1432.278454537946
 31
0.0
  0
LINE
  5
1CA
330
1C7
100
AcDbEntity
  8
0
 62
   123
100
AcDbLine
 10
21146.63236170895
 20
-1432.878454537944
 30
0.0
 11
21216.63236170895
 21
-1432.878454537944
 31
0.0
  0
SOLID
  5
1CB
330
1C7
100
AcDbEntity
  8
0
 62
   123
100
AcDbTrace
 10
21146.63236170895
 20
-1432.461787871279
 30
0.0
 11
21146.63236170895
 21
-1433.295121204612
 31
0.0
 12
21144.13236170895
 22
-1432.878454537944
 32
0.0
 13
21144.13236170895
 23
-1432.878454537944
 33
0.0
  0
SOLID
  5
1CC
330
1C7
100
AcDbEntity
  8
0
 62
   123
100
AcDbTrace
 10
21216.63236170895
 20
-1432.461787871279
 30
0.0
 11
21216.63236170895
 21
-1433.295121204612
 31
0.0
 12
21219.13236170895
 22
-1432.878454537944
 32
0.0
 13
21219.13236170895
 23
-1432.878454537944
 33
0.0
  0
MTEXT
  5
1CD
330
1C7
100
AcDbEntity
  8
0
 62
     3
100
AcDbMText
 10
21181.63236170895
 20
-1430.378454537945
 30
0.0
 40
3.0
 41
0.0
 71
     5
 72
     1
  1
\A1;75
1001
ACAD
1000
MTEXTBEGIN
1070
    73
1070
     1
1070
    44
1040
1.0
1070
    74
1070
     0
1000
MTEXTEND
1000
MTEXTBEGIN
1070
    73
1070
     1
1070
    44
1040
1.0
1070
    74
1070
     0
1000
MTEXTEND
  0
POINT
  5
1CE
330
1C7
100
AcDbEntity
  8
DEFPOINTS
 62
     0
100
AcDbPoint
 10
21144.13236170895
 20
-1432.878454537944
 30
0.0
  0
POINT
  5
1CF
330
1C7
100
AcDbEntity
  8
DEFPOINTS
 62
     0
100
AcDbPoint
 10
21219.13236170895
 20
-1454.775944971465
 30
0.0
  0
POINT
  5
1D0
330
1C7
100
AcDbEntity
  8
DEFPOINTS
 62
     0
100
AcDbPoint
 10
21219.13236170895
 20
-1432.878454537944
 30
0.0
  0
ENDBLK
  5
1D2
330
1C7
100
AcDbEntity
  8
0
100
AcDbBlockEnd
  0
BLOCK
  5
25A
330
250
100
AcDbEntity
  8
0
100
AcDbBlockBegin
  2
*D4
 70
     1
 10
0.0
 20
0.0
 30
0.0
  3
*D4
  1

  0
LINE
  5
251
330
250
100
AcDbEntity
  8
0
 62
   123
100
AcDbLine
 10
21133.71186321796
 20
-1271.433537546599
 30
0.0
 11
21133.71186321796
 21
-1271.833537546598
 31
0.0
  0
LINE
  5
252
330
250
100
AcDbEntity
  8
0
 62
   123
100
AcDbLine
 10
21140.71186321798
 20
-1282.043133538403
 30
0.0
 11
21140.71186321798
 21
-1271.833537546598
 31
0.0
  0
LINE
  5
253
330
250
100
AcDbEntity
  8
0
 62
   123
100
AcDbLine
 10
21136.21186321797
 20
-1272.433537546598
 30
0.0
 11
21138.21186321797
 21
-1272.433537546598
 31
0.0
  0
SOLID
  5
254
330
250
100
AcDbEntity
  8
0
 62
   123
100
AcDbTrace
 10
21136.21186321797
 20
-1272.016870879931
 30
0.0
 11
21136.21186321797
 21
-1272.850204213265
 31
0.0
 12
21133.71186321796
 22
-1272.433537546598
 32
0.0
 13
21133.71186321796
 23
-1272.433537546598
 33
0.0
  0
SOLID
  5
255
330
250
100
AcDbEntity
  8
0
 62
   123
100
AcDbTrace
 10
21138.21186321797
 20
-1272.016870879931
 30
0.0
 11
21138.21186321797
 21
-1272.850204213265
 31
0.0
 12
21140.71186321798
 22
-1272.433537546598
 32
0.0
 13
21140.71186321798
 23
-1272.433537546598
 33
0.0
  0
MTEXT
  5
256
330
250
100
AcDbEntity
  8
0
 62
     3
100
AcDbMText
 10
21137.21186321797
 20
-1269.933537546598
 30
0.0
 40
3.0
 41
0.0
 71
     5
 72
     1
  1
\A1;7
1001
ACAD
1000
MTEXTBEGIN
1070
    73
1070
     1
1070
    44
1040
1.0
1070
    74
1070
     0
1000
MTEXTEND
1000
MTEXTBEGIN
1070
    73
1070
     1
1070
    44
1040
1.0
1070
    74
1070
     0
1000
MTEXTEND
  0
POINT
  5
257
330
250
100
AcDbEntity
  8
DEFPOINTS
 62
     0
100
AcDbPoint
 10
21133.71186321796
 20
-1272.433537546598
 30
0.0
  0
POINT
  5
258
330
250
100
AcDbEntity
  8
DEFPOINTS
 62
     0
100
AcDbPoint
 10
21140.71186321798
 20
-1283.043133538403
 30
0.0
  0
POINT
  5
259
330
250
100
AcDbEntity
  8
DEFPOINTS
 62
     0
100
AcDbPoint
 10
21140.71186321798
 20
-1272.433537546598
 30
0.0
  0
ENDBLK
  5
25B
330
250
100
AcDbEntity
  8
0
100
AcDbBlockEnd
  0
BLOCK
  5
2D2
330
2C8
100
AcDbEntity
  8
0
100
AcDbBlockBegin
  2
*D5
 70
     1
 10
0.0
 20
0.0
 30
0.0
  3
*D5
  1

  0
LINE
  5
2C9
330
2C8
100
AcDbEntity
  8
0
 62
   123
100
AcDbLine
 10
21133.71186321796
 20
-1261.491498661635
 30
0.0
 11
21133.71186321796
 21
-1261.891498661635
 31
0.0
  0
LINE
  5
2CA
330
2C8
100
AcDbEntity
  8
0
 62
   123
100
AcDbLine
 10
21208.71186321797
 20
-1283.141870879932
 30
0.0
 11
21208.71186321797
 21
-1261.891498661635
 31
0.0
  0
LINE
  5
2CB
330
2C8
100
AcDbEntity
  8
0
 62
   123
100
AcDbLine
 10
21136.21186321797
 20
-1262.491498661635
 30
0.0
 11
21206.21186321796
 21
-1262.491498661635
 31
0.0
  0
SOLID
  5
2CC
330
2C8
100
AcDbEntity
  8
0
 62
   123
100
AcDbTrace
 10
21136.21186321797
 20
-1262.074831994968
 30
0.0
 11
21136.21186321797
 21
-1262.908165328301
 31
0.0
 12
21133.71186321796
 22
-1262.491498661635
 32
0.0
 13
21133.71186321796
 23
-1262.491498661635
 33
0.0
  0
SOLID
  5
2CD
330
2C8
100
AcDbEntity
  8
0
 62
   123
100
AcDbTrace
 10
21206.21186321796
 20
-1262.074831994968
 30
0.0
 11
21206.21186321796
 21
-1262.908165328301
 31
0.0
 12
21208.71186321797
 22
-1262.491498661635
 32
0.0
 13
21208.71186321797
 23
-1262.491498661635
 33
0.0
  0
MTEXT
  5
2CE
330
2C8
100
AcDbEntity
  8
0
 62
     3
100
AcDbMText
 10
21171.21186321798
 20
-1259.991498661634
 30
0.0
 40
3.0
 41
0.0
 71
     5
 72
     1
  1
\A1;75
1001
ACAD
1000
MTEXTBEGIN
1070
    73
1070
     1
1070
    44
1040
1.0
1070
    74
1070
     0
1000
MTEXTEND
1000
MTEXTBEGIN
1070
    73
1070
     1
1070
    44
1040
1.0
1070
    74
1070
     0
1000
MTEXTEND
  0
POINT
  5
2CF
330
2C8
100
AcDbEntity
  8
DEFPOINTS
 62
     0
100
AcDbPoint
 10
21133.71186321796
 20
-1262.491498661635
 30
0.0
  0
POINT
  5
2D0
330
2C8
100
AcDbEntity
  8
DEFPOINTS
 62
     0
100
AcDbPoint
 10
21208.71186321797
 20
-1284.141870879932
 30
0.0
  0
POINT
  5
2D1
330
2C8
100
AcDbEntity
  8
DEFPOINTS
 62
     0
100
AcDbPoint
 10
21208.71186321797
 20
-1262.491498661635
 30
0.0
  0
ENDBLK
  5
2D3
330
2C8
100
AcDbEntity
  8
0
100
AcDbBlockEnd
  0
BLOCK
  5
2B3
330
2A9
100
AcDbEntity
  8
0
100
AcDbBlockBegin
  2
*D6
 70
     1
 10
0.0
 20
0.0
 30
0.0
  3
*D6
  1

  0
LINE
  5
2AA
330
2A9
100
AcDbEntity
  8
0
 62
   123
100
AcDbLine
 10
21017.38385646611
 20
-1285.641870879931
 30
0.0
 11
21017.38385646611
 21
-1267.390773085626
 31
0.0
  0
LINE
  5
2AB
330
2A9
100
AcDbEntity
  8
0
 62
   123
100
AcDbLine
 10
21077.3838564661
 20
-1285.641870879931
 30
0.0
 11
21077.3838564661
 21
-1267.390773085626
 31
0.0
  0
LINE
  5
2AC
330
2A9
100
AcDbEntity
  8
0
 62
   123
100
AcDbLine
 10
21019.88385646611
 20
-1267.990773085625
 30
0.0
 11
21074.88385646611
 21
-1267.990773085625
 31
0.0
  0
SOLID
  5
2AD
330
2A9
100
AcDbEntity
  8
0
 62
   123
100
AcDbTrace
 10
21019.88385646611
 20
-1267.57410641896
 30
0.0
 11
21019.88385646611
 21
-1268.407439752293
 31
0.0
 12
21017.38385646611
 22
-1267.990773085625
 32
0.0
 13
21017.38385646611
 23
-1267.990773085625
 33
0.0
  0
SOLID
  5
2AE
330
2A9
100
AcDbEntity
  8
0
 62
   123
100
AcDbTrace
 10
21074.88385646611
 20
-1267.57410641896
 30
0.0
 11
21074.88385646611
 21
-1268.407439752293
 31
0.0
 12
21077.3838564661
 22
-1267.990773085625
 32
0.0
 13
21077.3838564661
 23
-1267.990773085625
 33
0.0
  0
MTEXT
  5
2AF
330
2A9
100
AcDbEntity
  8
0
 62
     3
100
AcDbMText
 10
21047.05311770645
 20
-1265.490773085626
 30
0.0
 40
3.0
 41
0.0
 71
     5
 72
     1
  1
\A1;60
1001
ACAD
1000
MTEXTBEGIN
1070
    73
1070
     1
1070
    44
1040
1.0
1070
    74
1070
     0
1000
MTEXTEND
1000
MTEXTBEGIN
1070
    73
1070
     1
1070
    44
1040
1.0
1070
    74
1070
     0
1000
MTEXTEND
  0
POINT
  5
2B0
330
2A9
100
AcDbEntity
  8
DEFPOINTS
 62
     0
100
AcDbPoint
 10
21017.38385646611
 20
-1286.641870879932
 30
0.0
  0
POINT
  5
2B1
330
2A9
100
AcDbEntity
  8
DEFPOINTS
 62
     0
100
AcDbPoint
 10
21077.3838564661
 20
-1286.641870879932
 30
0.0
  0
POINT
  5
2B2
330
2A9
100
AcDbEntity
  8
DEFPOINTS
 62
     0
100
AcDbPoint
 10
21077.3838564661
 20
-1267.990773085625
 30
0.0
  0
ENDBLK
  5
2B4
330
2A9
100
AcDbEntity
  8
0
100
AcDbBlockEnd
  0
BLOCK
  5
29C
330
293
100
AcDbEntity
  8
0
100
AcDbBlockBegin
  2
*D7
 70
     1
 10
0.0
 20
0.0
 30
0.0
  3
*D7
  1

  0
LINE
  5
294
330
293
100
AcDbEntity
  8
0
 62
   123
100
AcDbLine
 10
21015.51752334811
 20
-1331.410199428712
 30
0.0
 11
21013.39310114024
 21
-1332.728087998632
 31
0.0
  0
LINE
  5
295
330
293
100
AcDbEntity
  8
0
 62
   123
100
AcDbLine
 10
21079.25018958411
 20
-1291.87354233115
 30
0.0
 11
21100.43371388543
 21
-1278.732310591089
 31
0.0
  0
LINE
  5
296
330
293
100
AcDbEntity
  8
0
 62
   123
100
AcDbLine
 10
21017.64194555598
 20
-1330.092310858794
 30
0.0
 11
21077.12576737624
 21
-1293.191430901067
 31
0.0
  0
SOLID
  5
297
330
293
100
AcDbEntity
  8
0
 62
   123
100
AcDbTrace
 10
21015.29787525313
 20
-1331.056129060733
 30
0.0
 11
21015.73717144309
 21
-1331.764269796688
 31
0.0
 12
21017.64194555598
 22
-1330.092310858794
 32
0.0
 13
21017.64194555598
 23
-1330.092310858794
 33
0.0
  0
SOLID
  5
298
330
293
100
AcDbEntity
  8
0
 62
   123
100
AcDbTrace
 10
21079.0305414891
 20
-1291.519471963172
 30
0.0
 11
21079.46983767909
 21
-1292.227612699127
 31
0.0
 12
21077.12576737624
 22
-1293.191430901067
 32
0.0
 13
21077.12576737624
 23
-1293.191430901067
 33
0.0
  0
MTEXT
  5
299
330
293
100
AcDbEntity
  8
0
 62
     3
100
AcDbMText
 10
21090.43604315194
 20
-1281.992404540318
 30
0.0
 40
3.0
 41
0.0
 71
     5
 72
     1
  1
\A1;\U+220570%%p0.5
 11
0.8497688831466826
 21
0.5271554279675397
 31
0.0
1001
ACAD
1000
MTEXTBEGIN
1070
    73
1070
     1
1070
    44
1040
1.0
1070
    74
1070
     0
1000
MTEXTEND
1000
MTEXTBEGIN
1070
    73
1070
     1
1070
    44
1040
1.0
1070
    74
1070
     0
1000
MTEXTEND
  0
POINT
  5
29A
330
293
100
AcDbEntity
  8
DEFPOINTS
 62
     0
100
AcDbPoint
 10
21077.12576737624
 20
-1293.191430901067
 30
0.0
  0
POINT
  5
29B
330
293
100
AcDbEntity
  8
DEFPOINTS
 62
     0
100
AcDbPoint
 10
21017.64194555598
 20
-1330.092310858794
 30
0.0
  0
ENDBLK
  5
29D
330
293
100
AcDbEntity
  8
0
100
AcDbBlockEnd
  0
BLOCK
  5
26C
330
260
100
AcDbEntity
  8
0
100
AcDbBlockBegin
  2
*D8
 70
     1
 10
0.0
 20
0.0
 30
0.0
  3
*D8
  1

  0
LINE
  5
261
330
260
100
AcDbEntity
  8
0
 62
   123
100
AcDbLine
 10
21131.71186321797
 20
-1283.641870879931
 30
0.0
 11
21131.71186321797
 21
-1271.833537546598
 31
0.0
  0
LINE
  5
262
330
260
100
AcDbEntity
  8
0
 62
   123
100
AcDbLine
 10
21133.71186321796
 20
-1280.641870879932
 30
0.0
 11
21133.71186321796
 21
-1271.833537546598
 31
0.0
  0
LINE
  5
263
330
260
100
AcDbEntity
  8
0
 62
   123
100
AcDbLine
 10
21136.21186321797
 20
-1272.433537546598
 30
0.0
 11
21138.71186321798
 21
-1272.433537546598
 31
0.0
  0
LINE
  5
264
330
260
100
AcDbEntity
  8
0
 62
   123
100
AcDbLine
 10
21129.21186321798
 20
-1272.433537546598
 30
0.0
 11
21122.71186321796
 21
-1272.433537546598
 31
0.0
  0
LINE
  5
265
330
260
100
AcDbEntity
  8
0
 62
   123
100
AcDbLine
 10
21133.71186321796
 20
-1272.433537546598
 30
0.0
 11
21131.71186321797
 21
-1272.433537546598
 31
0.0
  0
SOLID
  5
266
330
260
100
AcDbEntity
  8
0
 62
   123
100
AcDbTrace
 10
21136.21186321797
 20
-1272.016870879931
 30
0.0
 11
21136.21186321797
 21
-1272.850204213265
 31
0.0
 12
21133.71186321796
 22
-1272.433537546598
 32
0.0
 13
21133.71186321796
 23
-1272.433537546598
 33
0.0
  0
SOLID
  5
267
330
260
100
AcDbEntity
  8
0
 62
   123
100
AcDbTrace
 10
21129.21186321798
 20
-1272.016870879931
 30
0.0
 11
21129.21186321798
 21
-1272.850204213265
 31
0.0
 12
21131.71186321797
 22
-1272.433537546598
 32
0.0
 13
21131.71186321797
 23
-1272.433537546598
 33
0.0
  0
MTEXT
  5
268
330
260
100
AcDbEntity
  8
0
 62
     3
100
AcDbMText
 10
21124.71186321797
 20
-1269.933537546598
 30
0.0
 40
3.0
 41
0.0
 71
     5
 72
     1
  1
\A1;2
1001
ACAD
1000
MTEXTBEGIN
1070
    73
1070
     1
1070
    44
1040
1.0
1070
    74
1070
     0
1000
MTEXTEND
1000
MTEXTBEGIN
1070
    73
1070
     1
1070
    44
1040
1.0
1070
    74
1070
     0
1000
MTEXTEND
  0
POINT
  5
269
330
260
100
AcDbEntity
  8
DEFPOINTS
 62
     0
100
AcDbPoint
 10
21131.71186321797
 20
-1284.641870879932
 30
0.0
  0
POINT
  5
26A
330
260
100
AcDbEntity
  8
DEFPOINTS
 62
     0
100
AcDbPoint
 10
21133.71186321796
 20
-1281.641870879932
 30
0.0
  0
POINT
  5
26B
330
260
100
AcDbEntity
  8
DEFPOINTS
 62
     0
100
AcDbPoint
 10
21133.71186321796
 20
-1272.433537546598
 30
0.0
  0
ENDBLK
  5
26D
330
260
100
AcDbEntity
  8
0
100
AcDbBlockEnd
  0
BLOCK
  5
1E0
330
1D6
100
AcDbEntity
  8
0
100
AcDbBlockBegin
  2
*D9
 70
     1
 10
0.0
 20
0.0
 30
0.0
  3
*D9
  1

  0
LINE
  5
1D7
330
1D6
100
AcDbEntity
  8
0
 62
   123
100
AcDbLine
 10
21130.71186321797
 20
-1284.641870879932
 30
0.0
 11
21112.3655164159
 21
-1284.641870879932
 31
0.0
  0
LINE
  5
1D8
330
1D6
100
AcDbEntity
  8
0
 62
   123
100
AcDbLine
 10
21130.71186321797
 20
-1338.641870879932
 30
0.0
 11
21112.3655164159
 21
-1338.641870879932
 31
0.0
  0
LINE
  5
1D9
330
1D6
100
AcDbEntity
  8
0
 62
   123
100
AcDbLine
 10
21112.9655164159
 20
-1287.141870879932
 30
0.0
 11
21112.9655164159
 21
-1336.141870879932
 31
0.0
  0
SOLID
  5
1DA
330
1D6
100
AcDbEntity
  8
0
 62
   123
100
AcDbTrace
 10
21112.54884974924
 20
-1287.141870879932
 30
0.0
 11
21113.38218308257
 21
-1287.141870879932
 31
0.0
 12
21112.9655164159
 22
-1284.641870879932
 32
0.0
 13
21112.9655164159
 23
-1284.641870879932
 33
0.0
  0
SOLID
  5
1DB
330
1D6
100
AcDbEntity
  8
0
 62
   123
100
AcDbTrace
 10
21112.54884974924
 20
-1336.141870879932
 30
0.0
 11
21113.38218308257
 21
-1336.141870879932
 31
0.0
 12
21112.9655164159
 22
-1338.641870879932
 32
0.0
 13
21112.9655164159
 23
-1338.641870879932
 33
0.0
  0
MTEXT
  5
1DC
330
1D6
100
AcDbEntity
  8
0
 62
     3
100
AcDbMText
 10
21109.01536641589
 20
-1313.48490191784
 30
0.0
 40
3.0
 41
0.0
 71
     5
 72
     1
  1
\A1;\A1;%%C54{\f??|b0|i0|c0|p49;\H0.7x;\S+0^ -0.03;\H1.429x;(h7)} 
 11
0.0000000000000001
 21
1.0
 31
0.0
1001
ACAD
1000
MTEXTBEGIN
1070
    73
1070
     1
1070
    44
1040
1.0
1070
    74
1070
     0
1000
MTEXTEND
1000
MTEXTBEGIN
1070
    73
1070
     1
1070
    44
1040
1.0
1070
    74
1070
     0
1000
MTEXTEND
  0
POINT
  5
1DD
330
1D6
100
AcDbEntity
  8
DEFPOINTS
 62
     0
100
AcDbPoint
 10
21131.71186321797
 20
-1284.641870879932
 30
0.0
  0
POINT
  5
1DE
330
1D6
100
AcDbEntity
  8
DEFPOINTS
 62
     0
100
AcDbPoint
 10
21131.71186321797
 20
-1338.641870879932
 30
0.0
  0
POINT
  5
1DF
330
1D6
100
AcDbEntity
  8
DEFPOINTS
 62
     0
100
AcDbPoint
 10
21112.9655164159
 20
-1338.641870879932
 30
0.0
  0
ENDBLK
  5
1E1
330
1D6
100
AcDbEntity
  8
0
100
AcDbBlockEnd
  0
BLOCK
  5
AE
330
A1
100
AcDbEntity
  8
0
100
AcDbBlockBegin
  2
*D10
 70
     1
 10
0.0
 20
0.0
 30
0.0
  3
*D10
  1

  0
LINE
  5
A2
330
A1
100
AcDbEntity
  8
0
 62
   123
100
AcDbLine
 10
21047.3838564661
 20
-1347.641870879932
 30
0.0
 11
21047.3838564661
 21
-1366.152233282788
 31
0.0
  0
LINE
  5
A3
330
A1
100
AcDbEntity
  8
0
 62
   123
100
AcDbLine
 10
21061.05994851664
 20
-1344.658877788572
 30
0.0
 11
21068.2440690499
 21
-1362.002879013704
 31
0.0
  0
ARC
  5
A4
330
A1
100
AcDbEntity
  8
0
 62
   123
100
AcDbCircle
 10
21047.3838564661
 20
-1311.641870879931
 30
0.0
 40
53.91036240285614
100
AcDbArc
 50
272.6572310078979
 51
289.8427689920954
  0
SOLID
  5
A5
330
A1
100
AcDbEntity
  8
0
 62
   123
100
AcDbTrace
 10
21049.8928454493
 20
-1365.910821337869
 30
0.0
 11
21049.87352325185
 21
-1365.077712043039
 31
0.0
 12
21047.3838564661
 22
-1365.552233282788
 32
0.0
 13
21047.3838564661
 23
-1365.552233282788
 33
0.0
  0
SOLID
  5
A6
330
A1
100
AcDbEntity
  8
0
 62
   123
100
AcDbTrace
 10
21065.53271538758
 20
-1361.962905064074
 30
0.0
 11
21065.83368112932
 21
-1362.73999197475
 31
0.0
 12
21068.01445899048
 22
-1361.448551294198
 32
0.0
 13
21068.01445899048
 23
-1361.448551294198
 33
0.0
  0
MTEXT
  5
A7
330
A1
100
AcDbEntity
  8
0
 62
     3
100
AcDbMText
 10
21057.08731380186
 20
-1361.837214895436
 30
0.0
 40
3.0
 41
0.0
 71
     5
 72
     1
  1
\A1;22°30'
 11
0.9818227775473978
 21
0.1897999828480319
 31
0.0
1001
ACAD
1000
MTEXTBEGIN
1070
    73
1070
     1
1070
    44
1040
1.0
1070
    74
1070
     0
1000
MTEXTEND
1000
MTEXTBEGIN
1070
    73
1070
     1
1070
    44
1040
1.0
1070
    74
1070
     0
1000
MTEXTEND
  0
POINT
  5
A8
330
A1
100
AcDbEntity
  8
DEFPOINTS
 62
     0
100
AcDbPoint
 10
21061.33688498434
 20
-1363.715282229454
 30
0.0
  0
POINT
  5
AA
330
A1
100
AcDbEntity
  8
DEFPOINTS
 62
     0
100
AcDbPoint
 10
21047.3838564661
 20
-1346.641870879931
 30
0.0
  0
POINT
  5
AB
330
A1
100
AcDbEntity
  8
DEFPOINTS
 62
     0
100
AcDbPoint
 10
21047.3838564661
 20
-1311.641870879931
 30
0.0
  0
POINT
  5
AC
330
A1
100
AcDbEntity
  8
DEFPOINTS
 62
     0
100
AcDbPoint
 10
21060.67726508427
 20
-1343.73499825606
 30
0.0
  0
POINT
  5
AD
330
A1
100
AcDbEntity
  8
DEFPOINTS
 62
     0
100
AcDbPoint
 10
21047.3838564661
 20
-1276.641870879931
 30
0.0
  0
ENDBLK
  5
AF
330
A1
100
AcDbEntity
  8
0
100
AcDbBlockEnd
  0
BLOCK
  5
1F5
330
1EB
100
AcDbEntity
  8
0
100
AcDbBlockBegin
  2
*D11
 70
     1
 10
0.0
 20
0.0
 30
0.0
  3
*D11
  1

  0
LINE
  5
1EC
330
1EB
100
AcDbEntity
  8
0
 62
   123
100
AcDbLine
 10
21202.71186321796
 20
-1281.641870879932
 30
0.0
 11
21221.52362434906
 21
-1281.641870879932
 31
0.0
  0
LINE
  5
1ED
330
1EB
100
AcDbEntity
  8
0
 62
   123
100
AcDbLine
 10
21202.71186321796
 20
-1341.641870879932
 30
0.0
 11
21221.52362434906
 21
-1341.641870879932
 31
0.0
  0
LINE
  5
1EE
330
1EB
100
AcDbEntity
  8
0
 62
   123
100
AcDbLine
 10
21220.92362434905
 20
-1284.141870879932
 30
0.0
 11
21220.92362434905
 21
-1339.141870879932
 31
0.0
  0
SOLID
  5
1EF
330
1EB
100
AcDbEntity
  8
0
 62
   123
100
AcDbTrace
 10
21220.5069576824
 20
-1284.141870879932
 30
0.0
 11
21221.34029101573
 21
-1284.141870879932
 31
0.0
 12
21220.92362434905
 22
-1281.641870879932
 32
0.0
 13
21220.92362434905
 23
-1281.641870879932
 33
0.0
  0
SOLID
  5
1F0
330
1EB
100
AcDbEntity
  8
0
 62
   123
100
AcDbTrace
 10
21220.5069576824
 20
-1339.141870879932
 30
0.0
 11
21221.34029101573
 21
-1339.141870879932
 31
0.0
 12
21220.92362434905
 22
-1341.641870879932
 32
0.0
 13
21220.92362434905
 23
-1341.641870879932
 33
0.0
  0
MTEXT
  5
1F1
330
1EB
100
AcDbEntity
  8
0
 62
     3
100
AcDbMText
 10
21218.42362434906
 20
-1312.141870879932
 30
0.0
 40
3.0
 41
0.0
 71
     5
 72
     1
  1
\A1;%%C60
 11
0.0000000000000001
 21
1.0
 31
0.0
1001
ACAD
1000
MTEXTBEGIN
1070
    73
1070
     1
1070
    44
1040
1.0
1070
    74
1070
     0
1000
MTEXTEND
1000
MTEXTBEGIN
1070
    73
1070
     1
1070
    44
1040
1.0
1070
    74
1070
     0
1000
MTEXTEND
  0
POINT
  5
1F2
330
1EB
100
AcDbEntity
  8
DEFPOINTS
 62
     0
100
AcDbPoint
 10
21201.71186321798
 20
-1281.641870879932
 30
0.0
  0
POINT
  5
1F3
330
1EB
100
AcDbEntity
  8
DEFPOINTS
 62
     0
100
AcDbPoint
 10
21201.71186321798
 20
-1341.641870879932
 30
0.0
  0
POINT
  5
1F4
330
1EB
100
AcDbEntity
  8
DEFPOINTS
 62
     0
100
AcDbPoint
 10
21220.92362434905
 20
-1341.641870879932
 30
0.0
  0
ENDBLK
  5
1F6
330
1EB
100
AcDbEntity
  8
0
100
AcDbBlockEnd
  0
BLOCK
  5
17A
330
170
100
AcDbEntity
  8
0
100
AcDbBlockBegin
  2
*D12
 70
     1
 10
0.0
 20
0.0
 30
0.0
  3
*D12
  1

  0
LINE
  5
171
330
170
100
AcDbEntity
  8
0
 62
   123
100
AcDbLine
 10
21010.52440218021
 20
-1456.275944971463
 30
0.0
 11
21010.52440218021
 21
-1438.024847177159
 31
0.0
  0
LINE
  5
172
330
170
100
AcDbEntity
  8
0
 62
   123
100
AcDbLine
 10
21070.52440218021
 20
-1456.275944971463
 30
0.0
 11
21070.52440218021
 21
-1438.024847177159
 31
0.0
  0
LINE
  5
173
330
170
100
AcDbEntity
  8
0
 62
   123
100
AcDbLine
 10
21013.02440218021
 20
-1438.624847177159
 30
0.0
 11
21068.02440218021
 21
-1438.624847177159
 31
0.0
  0
SOLID
  5
174
330
170
100
AcDbEntity
  8
0
 62
   123
100
AcDbTrace
 10
21013.02440218021
 20
-1438.208180510493
 30
0.0
 11
21013.02440218021
 21
-1439.041513843825
 31
0.0
 12
21010.52440218021
 22
-1438.624847177159
 32
0.0
 13
21010.52440218021
 23
-1438.624847177159
 33
0.0
  0
SOLID
  5
175
330
170
100
AcDbEntity
  8
0
 62
   123
100
AcDbTrace
 10
21068.02440218021
 20
-1438.208180510493
 30
0.0
 11
21068.02440218021
 21
-1439.041513843825
 31
0.0
 12
21070.52440218021
 22
-1438.624847177159
 32
0.0
 13
21070.52440218021
 23
-1438.624847177159
 33
0.0
  0
MTEXT
  5
176
330
170
100
AcDbEntity
  8
0
 62
     3
100
AcDbMText
 10
21040.19366342054
 20
-1436.124847177159
 30
0.0
 40
3.0
 41
0.0
 71
     5
 72
     1
  1
\A1;60
1001
ACAD
1000
MTEXTBEGIN
1070
    73
1070
     1
1070
    44
1040
1.0
1070
    74
1070
     0
1000
MTEXTEND
1000
MTEXTBEGIN
1070
    73
1070
     1
1070
    44
1040
1.0
1070
    74
1070
     0
1000
MTEXTEND
  0
POINT
  5
177
330
170
100
AcDbEntity
  8
DEFPOINTS
 62
     0
100
AcDbPoint
 10
21010.52440218021
 20
-1457.275944971463
 30
0.0
  0
POINT
  5
178
330
170
100
AcDbEntity
  8
DEFPOINTS
 62
     0
100
AcDbPoint
 10
21070.52440218021
 20
-1457.275944971463
 30
0.0
  0
POINT
  5
179
330
170
100
AcDbEntity
  8
DEFPOINTS
 62
     0
100
AcDbPoint
 10
21070.52440218021
 20
-1438.624847177159
 30
0.0
  0
ENDBLK
  5
17B
330
170
100
AcDbEntity
  8
0
100
AcDbBlockEnd
  0
BLOCK
  5
D6
330
CD
100
AcDbEntity
  8
0
100
AcDbBlockBegin
  2
*D13
 70
     1
 10
0.0
 20
0.0
 30
0.0
  3
*D13
  1

  0
LINE
  5
CE
330
CD
100
AcDbEntity
  8
0
 62
   123
100
AcDbLine
 10
21009.05018096615
 20
-1502.662788743126
 30
0.0
 11
21006.95189955188
 21
-1504.021911661236
 31
0.0
  0
LINE
  5
CF
330
CD
100
AcDbEntity
  8
0
 62
   123
100
AcDbLine
 10
21071.99862339423
 20
-1461.889101199807
 30
0.0
 11
21093.37031638264
 21
-1448.045982949877
 31
0.0
  0
LINE
  5
D0
330
CD
100
AcDbEntity
  8
0
 62
   123
100
AcDbLine
 10
21011.14846238043
 20
-1501.303665825014
 30
0.0
 11
21069.90034197996
 21
-1463.248224117917
 31
0.0
  0
SOLID
  5
D1
330
CD
100
AcDbEntity
  8
0
 62
   123
100
AcDbTrace
 10
21008.8236604798
 20
-1502.313075174081
 30
0.0
 11
21009.2767014525
 21
-1503.012502312168
 31
0.0
 12
21011.14846238043
 22
-1501.303665825014
 32
0.0
 13
21011.14846238043
 23
-1501.303665825014
 33
0.0
  0
SOLID
  5
D2
330
CD
100
AcDbEntity
  8
0
 62
   123
100
AcDbTrace
 10
21071.77210290788
 20
-1461.539387630762
 30
0.0
 11
21072.22514388058
 21
-1462.23881476885
 31
0.0
 12
21069.90034197996
 22
-1463.248224117917
 32
0.0
 13
21069.90034197996
 23
-1463.248224117917
 33
0.0
  0
MTEXT
  5
D3
330
CD
100
AcDbEntity
  8
0
 62
     3
100
AcDbMText
 10
21083.43821511481
 20
-1451.500689458171
 30
0.0
 40
3.0
 41
0.0
 71
     5
 72
     1
  1
\A1;\U+220570%%p0.5
 11
0.8393125657076582
 21
0.5436491672441224
 31
0.0
1001
ACAD
1000
MTEXTBEGIN
1070
    73
1070
     1
1070
    44
1040
1.0
1070
    74
1070
     0
1000
MTEXTEND
1000
MTEXTBEGIN
1070
    73
1070
     1
1070
    44
1040
1.0
1070
    74
1070
     0
1000
MTEXTEND
  0
POINT
  5
D4
330
CD
100
AcDbEntity
  8
DEFPOINTS
 62
     0
100
AcDbPoint
 10
21069.90034197996
 20
-1463.248224117917
 30
0.0
  0
POINT
  5
D5
330
CD
100
AcDbEntity
  8
DEFPOINTS
 62
     0
100
AcDbPoint
 10
21011.14846238043
 20
-1501.303665825014
 30
0.0
  0
ENDBLK
  5
D7
330
CD
100
AcDbEntity
  8
0
100
AcDbBlockEnd
  0
BLOCK
  5
C8
330
BC
100
AcDbEntity
  8
0
100
AcDbBlockBegin
  2
*D14
 70
     1
 10
0.0
 20
0.0
 30
0.0
  3
*D14
  1

  0
LINE
  5
BD
330
BC
100
AcDbEntity
  8
0
 62
   123
100
AcDbLine
 10
21040.5244021802
 20
-1518.275944971465
 30
0.0
 11
21040.5244021802
 21
-1534.794803811807
 31
0.0
  0
LINE
  5
BE
330
BC
100
AcDbEntity
  8
0
 62
   123
100
AcDbLine
 10
21054.20049423074
 20
-1515.292951880104
 30
0.0
 11
21060.62249934513
 21
-1530.797043724909
 31
0.0
  0
ARC
  5
BF
330
BC
100
AcDbEntity
  8
0
 62
   123
100
AcDbCircle
 10
21040.5244021802
 20
-1482.275944971458
 30
0.0
 40
51.91885884034974
100
AcDbArc
 50
272.7591764118522
 51
289.7408235881431
  0
SOLID
  5
C0
330
BC
100
AcDbEntity
  8
0
 62
   123
100
AcDbTrace
 10
21043.03370918529
 20
-1534.551159624612
 30
0.0
 11
21043.01364582702
 21
-1533.718067849294
 31
0.0
 12
21040.5244021802
 22
-1534.194803811806
 32
0.0
 13
21040.5244021802
 23
-1534.194803811806
 33
0.0
  0
SOLID
  5
C1
330
BC
100
AcDbEntity
  8
0
 62
   123
100
AcDbTrace
 10
21057.91068907453
 20
-1530.754861709976
 30
0.0
 11
21058.2109633685
 21
-1531.532216064707
 31
0.0
 12
21060.39288928571
 22
-1530.242716005401
 32
0.0
 13
21060.39288928571
 23
-1530.242716005401
 33
0.0
  0
MTEXT
  5
C2
330
BC
100
AcDbEntity
  8
0
 62
     3
100
AcDbMText
 10
21050.10980317304
 20
-1530.465009930566
 30
0.0
 40
3.0
 41
0.0
 71
     5
 72
     1
  1
\A1;22°30'
 11
0.9807852804032334
 21
0.1950903220161137
 31
0.0
1001
ACAD
1000
MTEXTBEGIN
1070
    73
1070
     1
1070
    44
1040
1.0
1070
    74
1070
     0
1000
MTEXTEND
1000
MTEXTBEGIN
1070
    73
1070
     1
1070
    44
1040
1.0
1070
    74
1070
     0
1000
MTEXTEND
  0
POINT
  5
C3
330
BC
100
AcDbEntity
  8
DEFPOINTS
 62
     0
100
AcDbPoint
 10
21047.30117312905
 20
-1533.750630777116
 30
0.0
  0
POINT
  5
C4
330
BC
100
AcDbEntity
  8
DEFPOINTS
 62
     0
100
AcDbPoint
 10
21040.5244021802
 20
-1517.275944971464
 30
0.0
  0
POINT
  5
C5
330
BC
100
AcDbEntity
  8
DEFPOINTS
 62
     0
100
AcDbPoint
 10
21040.5244021802
 20
-1482.275944971462
 30
0.0
  0
POINT
  5
C6
330
BC
100
AcDbEntity
  8
DEFPOINTS
 62
     0
100
AcDbPoint
 10
21053.81781079837
 20
-1514.369072347593
 30
0.0
  0
POINT
  5
C7
330
BC
100
AcDbEntity
  8
DEFPOINTS
 62
     0
100
AcDbPoint
 10
21040.5244021802
 20
-1447.275944971464
 30
0.0
  0
ENDBLK
  5
C9
330
BC
100
AcDbEntity
  8
0
100
AcDbBlockEnd
  0
BLOCK
  5
19F
330
193
100
AcDbEntity
  8
0
100
AcDbBlockBegin
  2
*D15
 70
     1
 10
0.0
 20
0.0
 30
0.0
  3
*D15
  1

  0
LINE
  5
194
330
193
100
AcDbEntity
  8
0
 62
   123
100
AcDbLine
 10
21142.13236170895
 20
-1454.275944971465
 30
0.0
 11
21142.13236170895
 21
-1442.467611638131
 31
0.0
  0
LINE
  5
195
330
193
100
AcDbEntity
  8
0
 62
   123
100
AcDbLine
 10
21144.13236170895
 20
-1451.275944971465
 30
0.0
 11
21144.13236170895
 21
-1442.467611638131
 31
0.0
  0
LINE
  5
196
330
193
100
AcDbEntity
  8
0
 62
   123
100
AcDbLine
 10
21146.63236170895
 20
-1443.067611638131
 30
0.0
 11
21149.13236170895
 21
-1443.067611638131
 31
0.0
  0
LINE
  5
197
330
193
100
AcDbEntity
  8
0
 62
   123
100
AcDbLine
 10
21139.63236170895
 20
-1443.067611638131
 30
0.0
 11
21133.13236170895
 21
-1443.067611638131
 31
0.0
  0
LINE
  5
198
330
193
100
AcDbEntity
  8
0
 62
   123
100
AcDbLine
 10
21144.13236170895
 20
-1443.067611638131
 30
0.0
 11
21142.13236170895
 21
-1443.067611638131
 31
0.0
  0
SOLID
  5
199
330
193
100
AcDbEntity
  8
0
 62
   123
100
AcDbTrace
 10
21146.63236170895
 20
-1442.650944971464
 30
0.0
 11
21146.63236170895
 21
-1443.484278304797
 31
0.0
 12
21144.13236170895
 22
-1443.067611638131
 32
0.0
 13
21144.13236170895
 23
-1443.067611638131
 33
0.0
  0
SOLID
  5
19A
330
193
100
AcDbEntity
  8
0
 62
   123
100
AcDbTrace
 10
21139.63236170895
 20
-1442.650944971464
 30
0.0
 11
21139.63236170895
 21
-1443.484278304797
 31
0.0
 12
21142.13236170895
 22
-1443.067611638131
 32
0.0
 13
21142.13236170895
 23
-1443.067611638131
 33
0.0
  0
MTEXT
  5
19B
330
193
100
AcDbEntity
  8
0
 62
     3
100
AcDbMText
 10
21135.13236170895
 20
-1440.56761163813
 30
0.0
 40
3.0
 41
0.0
 71
     5
 72
     1
  1
\A1;2
1001
ACAD
1000
MTEXTBEGIN
1070
    73
1070
     1
1070
    44
1040
1.0
1070
    74
1070
     0
1000
MTEXTEND
1000
MTEXTBEGIN
1070
    73
1070
     1
1070
    44
1040
1.0
1070
    74
1070
     0
1000
MTEXTEND
  0
POINT
  5
19C
330
193
100
AcDbEntity
  8
DEFPOINTS
 62
     0
100
AcDbPoint
 10
21142.13236170895
 20
-1455.275944971464
 30
0.0
  0
POINT
  5
19D
330
193
100
AcDbEntity
  8
DEFPOINTS
 62
     0
100
AcDbPoint
 10
21144.13236170895
 20
-1452.275944971465
 30
0.0
  0
POINT
  5
19E
330
193
100
AcDbEntity
  8
DEFPOINTS
 62
     0
100
AcDbPoint
 10
21144.13236170895
 20
-1443.067611638131
 30
0.0
  0
ENDBLK
  5
1A0
330
193
100
AcDbEntity
  8
0
100
AcDbBlockEnd
  0
BLOCK
  5
1AE
330
1A4
100
AcDbEntity
  8
0
100
AcDbBlockBegin
  2
*D16
 70
     1
 10
0.0
 20
0.0
 30
0.0
  3
*D16
  1

  0
LINE
  5
1A5
330
1A4
100
AcDbEntity
  8
0
 62
   123
100
AcDbLine
 10
21144.13236170895
 20
-1442.067611638131
 30
0.0
 11
21144.13236170895
 21
-1442.467611638131
 31
0.0
  0
LINE
  5
1A6
330
1A4
100
AcDbEntity
  8
0
 62
   123
100
AcDbLine
 10
21151.13236170895
 20
-1452.677207629935
 30
0.0
 11
21151.13236170895
 21
-1442.467611638131
 31
0.0
  0
LINE
  5
1A7
330
1A4
100
AcDbEntity
  8
0
 62
   123
100
AcDbLine
 10
21146.63236170895
 20
-1443.067611638131
 30
0.0
 11
21148.63236170895
 21
-1443.067611638131
 31
0.0
  0
SOLID
  5
1A8
330
1A4
100
AcDbEntity
  8
0
 62
   123
100
AcDbTrace
 10
21146.63236170895
 20
-1442.650944971464
 30
0.0
 11
21146.63236170895
 21
-1443.484278304797
 31
0.0
 12
21144.13236170895
 22
-1443.067611638131
 32
0.0
 13
21144.13236170895
 23
-1443.067611638131
 33
0.0
  0
SOLID
  5
1A9
330
1A4
100
AcDbEntity
  8
0
 62
   123
100
AcDbTrace
 10
21148.63236170895
 20
-1442.650944971464
 30
0.0
 11
21148.63236170895
 21
-1443.484278304797
 31
0.0
 12
21151.13236170895
 22
-1443.067611638131
 32
0.0
 13
21151.13236170895
 23
-1443.067611638131
 33
0.0
  0
MTEXT
  5
1AA
330
1A4
100
AcDbEntity
  8
0
 62
     3
100
AcDbMText
 10
21147.63236170895
 20
-1440.56761163813
 30
0.0
 40
3.0
 41
0.0
 71
     5
 72
     1
  1
\A1;7
1001
ACAD
1000
MTEXTBEGIN
1070
    73
1070
     1
1070
    44
1040
1.0
1070
    74
1070
     0
1000
MTEXTEND
1000
MTEXTBEGIN
1070
    73
1070
     1
1070
    44
1040
1.0
1070
    74
1070
     0
1000
MTEXTEND
  0
POINT
  5
1AB
330
1A4
100
AcDbEntity
  8
DEFPOINTS
 62
     0
100
AcDbPoint
 10
21144.13236170895
 20
-1443.067611638131
 30
0.0
  0
POINT
  5
1AC
330
1A4
100
AcDbEntity
  8
DEFPOINTS
 62
     0
100
AcDbPoint
 10
21151.13236170895
 20
-1453.677207629934
 30
0.0
  0
POINT
  5
1AD
330
1A4
100
AcDbEntity
  8
DEFPOINTS
 62
     0
100
AcDbPoint
 10
21151.13236170895
 20
-1443.067611638131
 30
0.0
  0
ENDBLK
  5
1AF
330
1A4
100
AcDbEntity
  8
0
100
AcDbBlockEnd
  0
BLOCK
  5
FE
330
F4
100
AcDbEntity
  8
0
100
AcDbBlockBegin
  2
*D17
 70
     1
 10
0.0
 20
0.0
 30
0.0
  3
*D17
  1

  0
LINE
  5
F5
330
F4
100
AcDbEntity
  8
0
 62
   123
100
AcDbLine
 10
21141.13236170895
 20
-1455.275944971464
 30
0.0
 11
21100.3831229688
 21
-1455.275944971464
 31
0.0
  0
LINE
  5
F6
330
F4
100
AcDbEntity
  8
0
 62
   123
100
AcDbLine
 10
21141.13236170895
 20
-1509.275944971465
 30
0.0
 11
21100.3831229688
 21
-1509.275944971465
 31
0.0
  0
LINE
  5
F7
330
F4
100
AcDbEntity
  8
0
 62
   123
100
AcDbLine
 10
21100.9831229688
 20
-1457.775944971465
 30
0.0
 11
21100.9831229688
 21
-1506.775944971465
 31
0.0
  0
SOLID
  5
F8
330
F4
100
AcDbEntity
  8
0
 62
   123
100
AcDbTrace
 10
21100.56645630213
 20
-1457.775944971465
 30
0.0
 11
21101.39978963545
 21
-1457.775944971465
 31
0.0
 12
21100.9831229688
 22
-1455.275944971464
 32
0.0
 13
21100.9831229688
 23
-1455.275944971464
 33
0.0
  0
SOLID
  5
F9
330
F4
100
AcDbEntity
  8
0
 62
   123
100
AcDbTrace
 10
21100.56645630213
 20
-1506.775944971465
 30
0.0
 11
21101.39978963545
 21
-1506.775944971465
 31
0.0
 12
21100.9831229688
 22
-1509.275944971465
 32
0.0
 13
21100.9831229688
 23
-1509.275944971465
 33
0.0
  0
MTEXT
  5
FA
330
F4
100
AcDbEntity
  8
0
 62
     3
100
AcDbMText
 10
21097.0329729688
 20
-1485.604790795425
 30
0.0
 40
3.0
 41
0.0
 71
     5
 72
     1
  1
\A1;\A1;%%C54{\f??|b0|i0|c0|p49;\H0.7x;\S+0^ -0.03;\H1.429x;(h7)} 
 11
0.0000000000000001
 21
1.0
 31
0.0
1001
ACAD
1000
MTEXTBEGIN
1070
    73
1070
     1
1070
    44
1040
1.0
1070
    74
1070
     0
1000
MTEXTEND
1000
MTEXTBEGIN
1070
    73
1070
     1
1070
    44
1040
1.0
1070
    74
1070
     0
1000
MTEXTEND
  0
POINT
  5
FB
330
F4
100
AcDbEntity
  8
DEFPOINTS
 62
     0
100
AcDbPoint
 10
21142.13236170895
 20
-1455.275944971464
 30
0.0
  0
POINT
  5
FC
330
F4
100
AcDbEntity
  8
DEFPOINTS
 62
     0
100
AcDbPoint
 10
21142.13236170895
 20
-1509.275944971465
 30
0.0
  0
POINT
  5
FD
330
F4
100
AcDbEntity
  8
DEFPOINTS
 62
     0
100
AcDbPoint
 10
21100.9831229688
 20
-1509.275944971465
 30
0.0
  0
ENDBLK
  5
FF
330
F4
100
AcDbEntity
  8
0
100
AcDbBlockEnd
  0
BLOCK
  5
112
330
108
100
AcDbEntity
  8
0
100
AcDbBlockBegin
  2
*D18
 70
     1
 10
0.0
 20
0.0
 30
0.0
  3
*D18
  1

  0
LINE
  5
109
330
108
100
AcDbEntity
  8
0
 62
   123
100
AcDbLine
 10
21213.13236170895
 20
-1452.275944971465
 30
0.0
 11
21231.94412284004
 21
-1452.275944971465
 31
0.0
  0
LINE
  5
10A
330
108
100
AcDbEntity
  8
0
 62
   123
100
AcDbLine
 10
21213.13236170895
 20
-1512.275944971465
 30
0.0
 11
21231.94412284004
 21
-1512.275944971465
 31
0.0
  0
LINE
  5
10B
330
108
100
AcDbEntity
  8
0
 62
   123
100
AcDbLine
 10
21231.34412284004
 20
-1454.775944971465
 30
0.0
 11
21231.34412284004
 21
-1509.775944971464
 31
0.0
  0
SOLID
  5
10C
330
108
100
AcDbEntity
  8
0
 62
   123
100
AcDbTrace
 10
21230.92745617336
 20
-1454.775944971465
 30
0.0
 11
21231.76078950669
 21
-1454.775944971465
 31
0.0
 12
21231.34412284004
 22
-1452.275944971465
 32
0.0
 13
21231.34412284004
 23
-1452.275944971465
 33
0.0
  0
SOLID
  5
10D
330
108
100
AcDbEntity
  8
0
 62
   123
100
AcDbTrace
 10
21230.92745617336
 20
-1509.775944971464
 30
0.0
 11
21231.76078950669
 21
-1509.775944971464
 31
0.0
 12
21231.34412284004
 22
-1512.275944971465
 32
0.0
 13
21231.34412284004
 23
-1512.275944971465
 33
0.0
  0
MTEXT
  5
10E
330
108
100
AcDbEntity
  8
0
 62
     3
100
AcDbMText
 10
21228.84412284004
 20
-1482.275944971465
 30
0.0
 40
3.0
 41
0.0
 71
     5
 72
     1
  1
\A1;%%C60
 11
0.0000000000000001
 21
1.0
 31
0.0
1001
ACAD
1000
MTEXTBEGIN
1070
    73
1070
     1
1070
    44
1040
1.0
1070
    74
1070
     0
1000
MTEXTEND
1000
MTEXTBEGIN
1070
    73
1070
     1
1070
    44
1040
1.0
1070
    74
1070
     0
1000
MTEXTEND
  0
POINT
  5
10F
330
108
100
AcDbEntity
  8
DEFPOINTS
 62
     0
100
AcDbPoint
 10
21212.13236170895
 20
-1452.275944971465
 30
0.0
  0
POINT
  5
110
330
108
100
AcDbEntity
  8
DEFPOINTS
 62
     0
100
AcDbPoint
 10
21212.13236170895
 20
-1512.275944971465
 30
0.0
  0
POINT
  5
111
330
108
100
AcDbEntity
  8
DEFPOINTS
 62
     0
100
AcDbPoint
 10
21231.34412284004
 20
-1512.275944971465
 30
0.0
  0
ENDBLK
  5
113
330
108
100
AcDbEntity
  8
0
100
AcDbBlockEnd
  0
BLOCK
  5
2E6
330
2DC
100
AcDbEntity
  8
0
100
AcDbBlockBegin
  2
*D19
 70
     1
 10
0.0
 20
0.0
 30
0.0
  3
*D19
  1

  0
LINE
  5
662
330
2DC
100
AcDbEntity
  8
0
 62
   123
100
AcDbLine
 10
28.30693842575943
 20
-33.81643734376207
 30
0.0
 11
28.30693842575943
 21
-34.21643734376207
 31
0.0
  0
LINE
  5
663
330
2DC
100
AcDbEntity
  8
0
 62
   123
100
AcDbLine
 10
103.3069384257593
 20
-55.71392777728233
 30
0.0
 11
103.3069384257593
 21
-34.21643734376207
 31
0.0
  0
LINE
  5
664
330
2DC
100
AcDbEntity
  8
0
 62
   123
100
AcDbLine
 10
30.80693842575942
 20
-34.81643734376207
 30
0.0
 11
100.8069384257593
 21
-34.81643734376207
 31
0.0
  0
SOLID
  5
665
330
2DC
100
AcDbEntity
  8
0
 62
   123
100
AcDbTrace
 10
30.80693842575942
 20
-34.39977067709541
 30
0.0
 11
30.80693842575942
 21
-35.23310401042873
 31
0.0
 12
28.30693842575943
 22
-34.81643734376207
 32
0.0
 13
28.30693842575943
 23
-34.81643734376207
 33
0.0
  0
SOLID
  5
666
330
2DC
100
AcDbEntity
  8
0
 62
   123
100
AcDbTrace
 10
100.8069384257593
 20
-34.39977067709541
 30
0.0
 11
100.8069384257593
 21
-35.23310401042873
 31
0.0
 12
103.3069384257593
 22
-34.81643734376207
 32
0.0
 13
103.3069384257593
 23
-34.81643734376207
 33
0.0
  0
MTEXT
  5
667
330
2DC
100
AcDbEntity
  8
0
 62
     3
100
AcDbMText
 10
65.80693842575943
 20
-32.31643734376207
 30
0.0
 40
3.0
 41
0.0
 71
     5
 72
     1
  1
\A1;75
1001
ACAD
1000
MTEXTBEGIN
1070
    73
1070
     1
1070
    44
1040
1.0
1070
    74
1070
     0
1000
MTEXTEND
  0
POINT
  5
668
330
2DC
100
AcDbEntity
  8
DEFPOINTS
 62
     0
100
AcDbPoint
 10
28.30693842575943
 20
-34.81643734376207
 30
0.0
  0
POINT
  5
669
330
2DC
100
AcDbEntity
  8
DEFPOINTS
 62
     0
100
AcDbPoint
 10
103.3069384257593
 20
-56.71392777728232
 30
0.0
  0
POINT
  5
66A
330
2DC
100
AcDbEntity
  8
DEFPOINTS
 62
     0
100
AcDbPoint
 10
103.3069384257593
 20
-34.81643734376207
 30
0.0
  0
ENDBLK
  5
2E7
330
2DC
100
AcDbEntity
  8
0
100
AcDbBlockEnd
  0
BLOCK
  5
2F2
330
2E8
100
AcDbEntity
  8
0
100
AcDbBlockBegin
  2
*D20
 70
     1
 10
0.0
 20
0.0
 30
0.0
  3
*D20
  1

  0
LINE
  5
69B
330
2E8
100
AcDbEntity
  8
0
 62
   123
100
AcDbLine
 10
4.306938425759426
 20
-81.21381499211105
 30
0.0
 11
4.306938425759429
 21
-34.21643734376207
 31
0.0
  0
LINE
  5
69C
330
2E8
100
AcDbEntity
  8
0
 62
   123
100
AcDbLine
 10
28.30693842575943
 20
-53.21392777728028
 30
0.0
 11
28.30693842575943
 21
-34.21643734376207
 31
0.0
  0
LINE
  5
69D
330
2E8
100
AcDbEntity
  8
0
 62
   123
100
AcDbLine
 10
6.806938425759429
 20
-34.81643734376207
 30
0.0
 11
25.80693842575942
 21
-34.81643734376207
 31
0.0
  0
SOLID
  5
69E
330
2E8
100
AcDbEntity
  8
0
 62
   123
100
AcDbTrace
 10
6.806938425759429
 20
-34.39977067709541
 30
0.0
 11
6.806938425759429
 21
-35.23310401042873
 31
0.0
 12
4.306938425759429
 22
-34.81643734376207
 32
0.0
 13
4.306938425759429
 23
-34.81643734376207
 33
0.0
  0
SOLID
  5
69F
330
2E8
100
AcDbEntity
  8
0
 62
   123
100
AcDbTrace
 10
25.80693842575942
 20
-34.39977067709541
 30
0.0
 11
25.80693842575942
 21
-35.23310401042873
 31
0.0
 12
28.30693842575943
 22
-34.81643734376207
 32
0.0
 13
28.30693842575943
 23
-34.81643734376207
 33
0.0
  0
MTEXT
  5
6A0
330
2E8
100
AcDbEntity
  8
0
 62
     3
100
AcDbMText
 10
16.30693842575942
 20
-32.31643734376207
 30
0.0
 40
3.0
 41
0.0
 71
     5
 72
     1
  1
\A1;24
1001
ACAD
1000
MTEXTBEGIN
1070
    73
1070
     1
1070
    44
1040
1.0
1070
    74
1070
     0
1000
MTEXTEND
  0
POINT
  5
6A1
330
2E8
100
AcDbEntity
  8
DEFPOINTS
 62
     0
100
AcDbPoint
 10
4.306938425759426
 20
-82.21381499211105
 30
0.0
  0
POINT
  5
6A2
330
2E8
100
AcDbEntity
  8
DEFPOINTS
 62
     0
100
AcDbPoint
 10
28.30693842575943
 20
-54.21392777728029
 30
0.0
  0
POINT
  5
6A3
330
2E8
100
AcDbEntity
  8
DEFPOINTS
 62
     0
100
AcDbPoint
 10
28.30693842575943
 20
-34.81643734376207
 30
0.0
  0
ENDBLK
  5
2F3
330
2E8
100
AcDbEntity
  8
0
100
AcDbBlockEnd
  0
BLOCK
  5
2FE
330
2F4
100
AcDbEntity
  8
0
100
AcDbBlockBegin
  2
*D21
 70
     1
 10
0.0
 20
0.0
 30
0.0
  3
*D21
  1

  0
LINE
  5
6A4
330
2F4
100
AcDbEntity
  8
0
 62
   123
100
AcDbLine
 10
28.30693842575943
 20
-44.0055944439484
 30
0.0
 11
28.30693842575943
 21
-44.4055944439484
 31
0.0
  0
LINE
  5
6A5
330
2F4
100
AcDbEntity
  8
0
 62
   123
100
AcDbLine
 10
35.30693842575942
 20
-54.61519043575136
 30
0.0
 11
35.30693842575942
 21
-44.4055944439484
 31
0.0
  0
LINE
  5
6A6
330
2F4
100
AcDbEntity
  8
0
 62
   123
100
AcDbLine
 10
30.80693842575942
 20
-45.0055944439484
 30
0.0
 11
32.80693842575942
 21
-45.0055944439484
 31
0.0
  0
SOLID
  5
6A7
330
2F4
100
AcDbEntity
  8
0
 62
   123
100
AcDbTrace
 10
30.80693842575942
 20
-44.58892777728173
 30
0.0
 11
30.80693842575942
 21
-45.42226111061506
 31
0.0
 12
28.30693842575943
 22
-45.0055944439484
 32
0.0
 13
28.30693842575943
 23
-45.0055944439484
 33
0.0
  0
SOLID
  5
6A8
330
2F4
100
AcDbEntity
  8
0
 62
   123
100
AcDbTrace
 10
32.80693842575942
 20
-44.58892777728173
 30
0.0
 11
32.80693842575942
 21
-45.42226111061506
 31
0.0
 12
35.30693842575942
 22
-45.0055944439484
 32
0.0
 13
35.30693842575942
 23
-45.0055944439484
 33
0.0
  0
MTEXT
  5
6A9
330
2F4
100
AcDbEntity
  8
0
 62
     3
100
AcDbMText
 10
31.80693842575943
 20
-42.5055944439484
 30
0.0
 40
3.0
 41
0.0
 71
     5
 72
     1
  1
\A1;7
1001
ACAD
1000
MTEXTBEGIN
1070
    73
1070
     1
1070
    44
1040
1.0
1070
    74
1070
     0
1000
MTEXTEND
  0
POINT
  5
6AA
330
2F4
100
AcDbEntity
  8
DEFPOINTS
 62
     0
100
AcDbPoint
 10
28.30693842575943
 20
-45.0055944439484
 30
0.0
  0
POINT
  5
6AB
330
2F4
100
AcDbEntity
  8
DEFPOINTS
 62
     0
100
AcDbPoint
 10
35.30693842575942
 20
-55.61519043575136
 30
0.0
  0
POINT
  5
6AC
330
2F4
100
AcDbEntity
  8
DEFPOINTS
 62
     0
100
AcDbPoint
 10
35.30693842575942
 20
-45.0055944439484
 30
0.0
  0
ENDBLK
  5
2FF
330
2F4
100
AcDbEntity
  8
0
100
AcDbBlockEnd
  0
BLOCK
  5
30C
330
300
100
AcDbEntity
  8
0
100
AcDbBlockBegin
  2
*D22
 70
     1
 10
0.0
 20
0.0
 30
0.0
  3
*D22
  1

  0
LINE
  5
6AD
330
300
100
AcDbEntity
  8
0
 62
   123
100
AcDbLine
 10
26.30693842575942
 20
-56.21392777728118
 30
0.0
 11
26.30693842575942
 21
-44.4055944439484
 31
0.0
  0
LINE
  5
6AE
330
300
100
AcDbEntity
  8
0
 62
   123
100
AcDbLine
 10
28.30693842575943
 20
-53.21392777728233
 30
0.0
 11
28.30693842575943
 21
-44.4055944439484
 31
0.0
  0
LINE
  5
6AF
330
300
100
AcDbEntity
  8
0
 62
   123
100
AcDbLine
 10
30.80693842575942
 20
-45.0055944439484
 30
0.0
 11
33.30693842575942
 21
-45.0055944439484
 31
0.0
  0
LINE
  5
6B0
330
300
100
AcDbEntity
  8
0
 62
   123
100
AcDbLine
 10
23.80693842575942
 20
-45.0055944439484
 30
0.0
 11
17.30693842575942
 21
-45.0055944439484
 31
0.0
  0
LINE
  5
6B1
330
300
100
AcDbEntity
  8
0
 62
   123
100
AcDbLine
 10
28.30693842575943
 20
-45.0055944439484
 30
0.0
 11
26.30693842575942
 21
-45.0055944439484
 31
0.0
  0
SOLID
  5
6B2
330
300
100
AcDbEntity
  8
0
 62
   123
100
AcDbTrace
 10
30.80693842575942
 20
-44.58892777728173
 30
0.0
 11
30.80693842575942
 21
-45.42226111061506
 31
0.0
 12
28.30693842575943
 22
-45.0055944439484
 32
0.0
 13
28.30693842575943
 23
-45.0055944439484
 33
0.0
  0
SOLID
  5
6B3
330
300
100
AcDbEntity
  8
0
 62
   123
100
AcDbTrace
 10
23.80693842575942
 20
-44.58892777728173
 30
0.0
 11
23.80693842575942
 21
-45.42226111061506
 31
0.0
 12
26.30693842575942
 22
-45.0055944439484
 32
0.0
 13
26.30693842575942
 23
-45.0055944439484
 33
0.0
  0
MTEXT
  5
6B4
330
300
100
AcDbEntity
  8
0
 62
     3
100
AcDbMText
 10
19.30693842575942
 20
-42.5055944439484
 30
0.0
 40
3.0
 41
0.0
 71
     5
 72
     1
  1
\A1;2
1001
ACAD
1000
MTEXTBEGIN
1070
    73
1070
     1
1070
    44
1040
1.0
1070
    74
1070
     0
1000
MTEXTEND
  0
POINT
  5
6B5
330
300
100
AcDbEntity
  8
DEFPOINTS
 62
     0
100
AcDbPoint
 10
26.30693842575942
 20
-57.21392777728119
 30
0.0
  0
POINT
  5
6B6
330
300
100
AcDbEntity
  8
DEFPOINTS
 62
     0
100
AcDbPoint
 10
28.30693842575943
 20
-54.21392777728232
 30
0.0
  0
POINT
  5
6B7
330
300
100
AcDbEntity
  8
DEFPOINTS
 62
     0
100
AcDbPoint
 10
28.30693842575943
 20
-45.0055944439484
 30
0.0
  0
ENDBLK
  5
30D
330
300
100
AcDbEntity
  8
0
100
AcDbBlockEnd
  0
BLOCK
  5
318
330
30E
100
AcDbEntity
  8
0
100
AcDbBlockBegin
  2
*D23
 70
     1
 10
0.0
 20
0.0
 30
0.0
  3
*D23
  1

  0
LINE
  5
67E
330
30E
100
AcDbEntity
  8
0
 62
   123
100
AcDbLine
 10
-105.3010211029816
 20
-58.21392777728028
 30
0.0
 11
-105.3010211029816
 21
-39.96282998297633
 31
0.0
  0
LINE
  5
67F
330
30E
100
AcDbEntity
  8
0
 62
   123
100
AcDbLine
 10
-45.30102110298162
 20
-58.21392777728028
 30
0.0
 11
-45.30102110298162
 21
-39.96282998297633
 31
0.0
  0
LINE
  5
680
330
30E
100
AcDbEntity
  8
0
 62
   123
100
AcDbLine
 10
-102.8010211029816
 20
-40.56282998297634
 30
0.0
 11
-47.80102110298162
 21
-40.56282998297634
 31
0.0
  0
SOLID
  5
681
330
30E
100
AcDbEntity
  8
0
 62
   123
100
AcDbTrace
 10
-102.8010211029816
 20
-40.14616331630967
 30
0.0
 11
-102.8010211029816
 21
-40.979496649643
 31
0.0
 12
-105.3010211029816
 22
-40.56282998297634
 32
0.0
 13
-105.3010211029816
 23
-40.56282998297634
 33
0.0
  0
SOLID
  5
682
330
30E
100
AcDbEntity
  8
0
 62
   123
100
AcDbTrace
 10
-47.80102110298162
 20
-40.14616331630967
 30
0.0
 11
-47.80102110298162
 21
-40.979496649643
 31
0.0
 12
-45.30102110298162
 22
-40.56282998297634
 32
0.0
 13
-45.30102110298162
 23
-40.56282998297634
 33
0.0
  0
MTEXT
  5
683
330
30E
100
AcDbEntity
  8
0
 62
     3
100
AcDbMText
 10
-75.63175986264309
 20
-38.06282998297634
 30
0.0
 40
3.0
 41
0.0
 71
     5
 72
     1
  1
\A1;60
1001
ACAD
1000
MTEXTBEGIN
1070
    73
1070
     1
1070
    44
1040
1.0
1070
    74
1070
     0
1000
MTEXTEND
  0
POINT
  5
684
330
30E
100
AcDbEntity
  8
DEFPOINTS
 62
     0
100
AcDbPoint
 10
-105.3010211029816
 20
-59.21392777728029
 30
0.0
  0
POINT
  5
685
330
30E
100
AcDbEntity
  8
DEFPOINTS
 62
     0
100
AcDbPoint
 10
-45.30102110298162
 20
-59.21392777728029
 30
0.0
  0
POINT
  5
686
330
30E
100
AcDbEntity
  8
DEFPOINTS
 62
     0
100
AcDbPoint
 10
-45.30102110298162
 20
-40.56282998297634
 30
0.0
  0
ENDBLK
  5
319
330
30E
100
AcDbEntity
  8
0
100
AcDbBlockEnd
  0
BLOCK
  5
324
330
31A
100
AcDbEntity
  8
0
100
AcDbBlockBegin
  2
*D24
 70
     1
 10
0.0
 20
0.0
 30
0.0
  3
*D24
  1

  0
LINE
  5
6B8
330
31A
100
AcDbEntity
  8
0
 62
   123
100
AcDbLine
 10
97.30693842575931
 20
-54.21392777728232
 30
0.0
 11
116.1186995568488
 21
-54.21392777728233
 31
0.0
  0
LINE
  5
6B9
330
31A
100
AcDbEntity
  8
0
 62
   123
100
AcDbLine
 10
97.30693842575931
 20
-114.2139277772822
 30
0.0
 11
116.1186995568488
 21
-114.2139277772822
 31
0.0
  0
LINE
  5
6BA
330
31A
100
AcDbEntity
  8
0
 62
   123
100
AcDbLine
 10
115.5186995568488
 20
-56.71392777728233
 30
0.0
 11
115.5186995568488
 21
-111.7139277772822
 31
0.0
  0
SOLID
  5
6BB
330
31A
100
AcDbEntity
  8
0
 62
   123
100
AcDbTrace
 10
115.1020328901822
 20
-56.71392777728233
 30
0.0
 11
115.9353662235155
 21
-56.71392777728233
 31
0.0
 12
115.5186995568488
 22
-54.21392777728233
 32
0.0
 13
115.5186995568488
 23
-54.21392777728233
 33
0.0
  0
SOLID
  5
6BC
330
31A
100
AcDbEntity
  8
0
 62
   123
100
AcDbTrace
 10
115.1020328901821
 20
-111.7139277772822
 30
0.0
 11
115.9353662235155
 21
-111.7139277772822
 31
0.0
 12
115.5186995568488
 22
-114.2139277772822
 32
0.0
 13
115.5186995568488
 23
-114.2139277772822
 33
0.0
  0
MTEXT
  5
6BD
330
31A
100
AcDbEntity
  8
0
 62
     3
100
AcDbMText
 10
113.0186995568489
 20
-84.21392777728234
 30
0.0
 40
3.0
 41
0.0
 71
     5
 72
     1
  1
\A1;%%C60
 11
0.0000000000000001
 21
1.0
 31
0.0
1001
ACAD
1000
MTEXTBEGIN
1070
    73
1070
     1
1070
    44
1040
1.0
1070
    74
1070
     0
1000
MTEXTEND
  0
POINT
  5
6BE
330
31A
100
AcDbEntity
  8
DEFPOINTS
 62
     0
100
AcDbPoint
 10
96.30693842575931
 20
-54.21392777728232
 30
0.0
  0
POINT
  5
6BF
330
31A
100
AcDbEntity
  8
DEFPOINTS
 62
     0
100
AcDbPoint
 10
96.30693842575931
 20
-114.2139277772822
 30
0.0
  0
POINT
  5
6C0
330
31A
100
AcDbEntity
  8
DEFPOINTS
 62
     0
100
AcDbPoint
 10
115.5186995568488
 20
-114.2139277772822
 30
0.0
  0
ENDBLK
  5
325
330
31A
100
AcDbEntity
  8
0
100
AcDbBlockEnd
  0
BLOCK
  5
330
330
326
100
AcDbEntity
  8
0
100
AcDbBlockBegin
  2
*D25
 70
     1
 10
0.0
 20
0.0
 30
0.0
  3
*D25
  1

  0
LINE
  5
692
330
326
100
AcDbEntity
  8
0
 62
   123
100
AcDbLine
 10
25.30693842575942
 20
-57.21392777728119
 30
0.0
 11
-15.44230031439279
 21
-57.21392777728118
 31
0.0
  0
LINE
  5
693
330
326
100
AcDbEntity
  8
0
 62
   123
100
AcDbLine
 10
25.30693842575942
 20
-111.2139277772822
 30
0.0
 11
-15.44230031439281
 21
-111.2139277772822
 31
0.0
  0
LINE
  5
694
330
326
100
AcDbEntity
  8
0
 62
   123
100
AcDbLine
 10
-14.84230031439279
 20
-59.71392777728118
 30
0.0
 11
-14.8423003143928
 21
-108.7139277772822
 31
0.0
  0
SOLID
  5
695
330
326
100
AcDbEntity
  8
0
 62
   123
100
AcDbTrace
 10
-15.25896698105946
 20
-59.71392777728118
 30
0.0
 11
-14.42563364772612
 21
-59.71392777728118
 31
0.0
 12
-14.84230031439279
 22
-57.21392777728118
 32
0.0
 13
-14.84230031439279
 23
-57.21392777728118
 33
0.0
  0
SOLID
  5
696
330
326
100
AcDbEntity
  8
0
 62
   123
100
AcDbTrace
 10
-15.25896698105947
 20
-108.7139277772822
 30
0.0
 11
-14.42563364772614
 21
-108.7139277772822
 31
0.0
 12
-14.8423003143928
 22
-111.2139277772822
 32
0.0
 13
-14.8423003143928
 23
-111.2139277772822
 33
0.0
  0
MTEXT
  5
697
330
326
100
AcDbEntity
  8
0
 62
     3
100
AcDbMText
 10
-18.79245031439278
 20
-87.54277360124223
 30
0.0
 40
3.0
 41
0.0
 71
     5
 72
     1
  1
\A1;\A1;%%C54{\f??|b0|i0|c0|p49;\H0.7x;\S+0^ -0.03;\H1.429x;(h7)} 
 11
0.0000000000000001
 21
1.0
 31
0.0
1001
ACAD
1000
MTEXTBEGIN
1070
    73
1070
     1
1070
    44
1040
1.0
1070
    74
1070
     0
1000
MTEXTEND
  0
POINT
  5
698
330
326
100
AcDbEntity
  8
DEFPOINTS
 62
     0
100
AcDbPoint
 10
26.30693842575942
 20
-57.21392777728119
 30
0.0
  0
POINT
  5
699
330
326
100
AcDbEntity
  8
DEFPOINTS
 62
     0
100
AcDbPoint
 10
26.30693842575942
 20
-111.2139277772822
 30
0.0
  0
POINT
  5
69A
330
326
100
AcDbEntity
  8
DEFPOINTS
 62
     0
100
AcDbPoint
 10
-14.8423003143928
 20
-111.2139277772822
 30
0.0
  0
ENDBLK
  5
331
330
326
100
AcDbEntity
  8
0
100
AcDbBlockEnd
  0
BLOCK
  5
33E
330
332
100
AcDbEntity
  8
0
100
AcDbBlockBegin
  2
*D26
 70
     1
 10
0.0
 20
0.0
 30
0.0
  3
*D26
  1

  0
LINE
  5
687
330
332
100
AcDbEntity
  8
0
 62
   123
100
AcDbLine
 10
3.806938425759426
 20
-81.21403816273705
 30
0.0
 11
-4.565142256484126
 21
-81.21403816273705
 31
0.0
  0
LINE
  5
688
330
332
100
AcDbEntity
  8
0
 62
   123
100
AcDbLine
 10
3.806938425759426
 20
-87.21381739182421
 30
0.0
 11
-4.565142256484127
 21
-87.21381739182421
 31
0.0
  0
LINE
  5
689
330
332
100
AcDbEntity
  8
0
 62
   123
100
AcDbLine
 10
-3.965142256484126
 20
-78.71403816273705
 30
0.0
 11
-3.965142256484125
 21
-76.21403816273705
 31
0.0
  0
LINE
  5
68A
330
332
100
AcDbEntity
  8
0
 62
   123
100
AcDbLine
 10
-3.965142256484128
 20
-89.71381739182421
 30
0.0
 11
-3.965142256484129
 21
-92.21381739182421
 31
0.0
  0
LINE
  5
68B
330
332
100
AcDbEntity
  8
0
 62
   123
100
AcDbLine
 10
-3.965142256484126
 20
-81.21403816273705
 30
0.0
 11
-3.965142256484128
 21
-87.21381739182421
 31
0.0
  0
SOLID
  5
68C
330
332
100
AcDbEntity
  8
0
 62
   123
100
AcDbTrace
 10
-4.381808923150793
 20
-78.71403816273705
 30
0.0
 11
-3.548475589817459
 21
-78.71403816273705
 31
0.0
 12
-3.965142256484126
 22
-81.21403816273705
 32
0.0
 13
-3.965142256484126
 23
-81.21403816273705
 33
0.0
  0
SOLID
  5
68D
330
332
100
AcDbEntity
  8
0
 62
   123
100
AcDbTrace
 10
-4.381808923150795
 20
-89.71381739182421
 30
0.0
 11
-3.548475589817462
 21
-89.71381739182421
 31
0.0
 12
-3.965142256484128
 22
-87.21381739182421
 32
0.0
 13
-3.965142256484128
 23
-87.21381739182421
 33
0.0
  0
MTEXT
  5
68E
330
332
100
AcDbEntity
  8
0
 62
     3
100
AcDbMText
 10
-7.915292256484113
 20
-84.21392777728064
 30
0.0
 40
3.0
 41
0.0
 71
     5
 72
     1
  1
\A1;\A1;%%c6{\H0.7x;\S+0^ -0.012;\f??|b0|i0|c0|p49;\H1.429x;(h7)}  
 11
0.0000000000000001
 21
1.0
 31
0.0
1001
ACAD
1000
MTEXTBEGIN
1070
    73
1070
     1
1070
    44
1040
1.0
1070
    74
1070
     0
1000
MTEXTEND
  0
POINT
  5
68F
330
332
100
AcDbEntity
  8
DEFPOINTS
 62
     0
100
AcDbPoint
 10
4.806938425759426
 20
-81.21403816273705
 30
0.0
  0
POINT
  5
690
330
332
100
AcDbEntity
  8
DEFPOINTS
 62
     0
100
AcDbPoint
 10
4.806938425759426
 20
-87.21381739182421
 30
0.0
  0
POINT
  5
691
330
332
100
AcDbEntity
  8
DEFPOINTS
 62
     0
100
AcDbPoint
 10
-3.965142256484128
 20
-87.21381739182421
 30
0.0
  0
ENDBLK
  5
33F
330
332
100
AcDbEntity
  8
0
100
AcDbBlockEnd
  0
BLOCK
  5
349
330
340
100
AcDbEntity
  8
0
100
AcDbBlockBegin
  2
*D27
 70
     1
 10
0.0
 20
0.0
 30
0.0
  3
*D27
  1

  0
LINE
  5
71D
330
340
100
AcDbEntity
  8
0
 62
   123
100
AcDbLine
 10
-22.45510690054443
 20
-49.98396575569198
 30
0.0
 11
-43.82679988895525
 21
-63.82708400562584
 31
0.0
  0
LINE
  5
71E
330
340
100
AcDbEntity
  8
0
 62
   123
100
AcDbLine
 10
-106.7752423170328
 20
-104.6007715489367
 30
0.0
 11
-108.873523731302
 21
-105.959894467047
 31
0.0
  0
MTEXT
  5
71F
330
340
100
AcDbEntity
  8
0
 62
     3
100
AcDbMText
 10
-32.38720816838297
 20
-53.43867226398776
 30
0.0
 40
3.0
 41
0.0
 71
     5
 72
     1
  1
\A1;\U+220570%%p0.5
 11
0.8393125657076602
 21
0.5436491672441194
 31
0.0
1001
ACAD
1000
MTEXTBEGIN
1070
    73
1070
     1
1070
    44
1040
1.0
1070
    74
1070
     0
1000
MTEXTEND
  0
LINE
  5
720
330
340
100
AcDbEntity
  8
0
 62
   123
100
AcDbLine
 10
-104.6769609027637
 20
-103.2416486308264
 30
0.0
 11
-45.92508130322441
 21
-65.18620692373613
 31
0.0
  0
SOLID
  5
721
330
340
100
AcDbEntity
  8
0
 62
   123
100
AcDbTrace
 10
-107.0017628033845
 20
-104.2510579798918
 30
0.0
 11
-106.5487218306811
 21
-104.9504851179815
 31
0.0
 12
-104.6769609027637
 22
-103.2416486308264
 32
0.0
 13
-104.6769609027637
 23
-103.2416486308264
 33
0.0
  0
SOLID
  5
722
330
340
100
AcDbEntity
  8
0
 62
   123
100
AcDbTrace
 10
-44.05332037530697
 20
-63.47737043658097
 30
0.0
 11
-43.60027940260354
 21
-64.1767975746707
 31
0.0
 12
-45.92508130322441
 22
-65.18620692373613
 32
0.0
 13
-45.92508130322441
 23
-65.18620692373613
 33
0.0
  0
POINT
  5
723
330
340
100
AcDbEntity
  8
DEFPOINTS
 62
     0
100
AcDbPoint
 10
-45.92508130322441
 20
-65.18620692373613
 30
0.0
  0
POINT
  5
724
330
340
100
AcDbEntity
  8
DEFPOINTS
 62
     0
100
AcDbPoint
 10
-104.6769609027637
 20
-103.2416486308264
 30
0.0
  0
ENDBLK
  5
34A
330
340
100
AcDbEntity
  8
0
100
AcDbBlockEnd
  0
BLOCK
  5
357
330
34B
100
AcDbEntity
  8
0
100
AcDbBlockBegin
  2
*D28
 70
     1
 10
0.0
 20
0.0
 30
0.0
  3
*D28
  1

  0
LINE
  5
754
330
34B
100
AcDbEntity
  8
0
 62
   123
100
AcDbLine
 10
-75.30102110298162
 20
-120.2139277772822
 30
0.0
 11
-75.30102110298162
 21
-136.7327866176259
 31
0.0
  0
LINE
  5
755
330
34B
100
AcDbEntity
  8
0
 62
   123
100
AcDbLine
 10
-61.62492905245709
 20
-117.2309346859215
 30
0.0
 11
-55.20292393806162
 21
-132.7350265307255
 31
0.0
  0
ARC
  5
756
330
34B
100
AcDbEntity
  8
0
 62
   123
100
AcDbCircle
 10
-75.30102110298162
 20
-84.2139277772803
 30
0.0
 40
51.91885884034563
100
AcDbArc
 50
272.7591764118522
 51
289.7408235881464
  0
SOLID
  5
757
330
34B
100
AcDbEntity
  8
0
 62
   123
100
AcDbTrace
 10
-72.7917140978918
 20
-136.4891424304285
 30
0.0
 11
-72.81177745617688
 21
-135.6560506551127
 31
0.0
 12
-75.30102110298162
 22
-136.1327866176259
 32
0.0
 13
-75.30102110298162
 23
-136.1327866176259
 33
0.0
  0
SOLID
  5
758
330
34B
100
AcDbEntity
  8
0
 62
   123
100
AcDbTrace
 10
-57.91473420866373
 20
-132.6928445157929
 30
0.0
 11
-57.61445991468383
 21
-133.470198870524
 31
0.0
 12
-55.43253399748065
 22
-132.1806988112187
 32
0.0
 13
-55.43253399748065
 23
-132.1806988112187
 33
0.0
  0
MTEXT
  5
759
330
34B
100
AcDbEntity
  8
0
 62
     3
100
AcDbMText
 10
-65.65988001814957
 20
-132.6832171022164
 30
0.0
 40
3.0
 41
0.0
 71
     5
 72
     1
  1
\A1;22°
 11
0.9807852804032325
 21
0.1950903220161171
 31
0.0
  0
POINT
  5
75A
330
34B
100
AcDbEntity
  8
DEFPOINTS
 62
     0
100
AcDbPoint
 10
-68.52425015414133
 20
-135.6886135829332
 30
0.0
  0
POINT
  5
75B
330
34B
100
AcDbEntity
  8
DEFPOINTS
 62
     0
100
AcDbPoint
 10
-75.30102110298162
 20
-119.2139277772822
 30
0.0
  0
POINT
  5
75C
330
34B
100
AcDbEntity
  8
DEFPOINTS
 62
     0
100
AcDbPoint
 10
-75.30102110298162
 20
-84.2139277772803
 30
0.0
  0
POINT
  5
75D
330
34B
100
AcDbEntity
  8
DEFPOINTS
 62
     0
100
AcDbPoint
 10
-62.00761248482216
 20
-116.3070551534102
 30
0.0
  0
POINT
  5
75E
330
34B
100
AcDbEntity
  8
DEFPOINTS
 62
     0
100
AcDbPoint
 10
-75.30102110298162
 20
-49.21392777728121
 30
0.0
  0
ENDBLK
  5
358
330
34B
100
AcDbEntity
  8
0
100
AcDbBlockEnd
  0
BLOCK
  5
363
330
359
100
AcDbEntity
  8
0
100
AcDbBlockBegin
  2
*D29
 70
     1
 10
0.0
 20
0.0
 30
0.0
  3
*D29
  1

  0
LINE
  5
6C1
330
359
100
AcDbEntity
  8
0
 62
   123
100
AcDbLine
 10
17.88643993477831
 20
136.5705185325477
 30
0.0
 11
17.88643993477831
 21
136.1705185325477
 31
0.0
  0
LINE
  5
6C2
330
359
100
AcDbEntity
  8
0
 62
   123
100
AcDbLine
 10
92.88643993477819
 20
114.9201463142508
 30
0.0
 11
92.88643993477819
 21
136.1705185325477
 31
0.0
  0
LINE
  5
6C3
330
359
100
AcDbEntity
  8
0
 62
   123
100
AcDbLine
 10
20.38643993477831
 20
135.5705185325477
 30
0.0
 11
90.38643993477819
 21
135.5705185325477
 31
0.0
  0
SOLID
  5
6C4
330
359
100
AcDbEntity
  8
0
 62
   123
100
AcDbTrace
 10
20.38643993477831
 20
135.9871851992143
 30
0.0
 11
20.38643993477831
 21
135.153851865881
 31
0.0
 12
17.88643993477831
 22
135.5705185325477
 32
0.0
 13
17.88643993477831
 23
135.5705185325477
 33
0.0
  0
SOLID
  5
6C5
330
359
100
AcDbEntity
  8
0
 62
   123
100
AcDbTrace
 10
90.38643993477819
 20
135.9871851992143
 30
0.0
 11
90.38643993477819
 21
135.153851865881
 31
0.0
 12
92.88643993477819
 22
135.5705185325477
 32
0.0
 13
92.88643993477819
 23
135.5705185325477
 33
0.0
  0
MTEXT
  5
6C6
330
359
100
AcDbEntity
  8
0
 62
     3
100
AcDbMText
 10
55.38643993478922
 20
138.0705185325477
 30
0.0
 40
3.0
 41
0.0
 71
     5
 72
     1
  1
\A1;75
1001
ACAD
1000
MTEXTBEGIN
1070
    73
1070
     1
1070
    44
1040
1.0
1070
    74
1070
     0
1000
MTEXTEND
  0
POINT
  5
6C7
330
359
100
AcDbEntity
  8
DEFPOINTS
 62
     0
100
AcDbPoint
 10
17.88643993477831
 20
135.5705185325477
 30
0.0
  0
POINT
  5
6C8
330
359
100
AcDbEntity
  8
DEFPOINTS
 62
     0
100
AcDbPoint
 10
92.88643993477819
 20
113.9201463142508
 30
0.0
  0
POINT
  5
6C9
330
359
100
AcDbEntity
  8
DEFPOINTS
 62
     0
100
AcDbPoint
 10
92.88643993477819
 20
135.5705185325477
 30
0.0
  0
ENDBLK
  5
364
330
359
100
AcDbEntity
  8
0
100
AcDbBlockEnd
  0
BLOCK
  5
36F
330
365
100
AcDbEntity
  8
0
100
AcDbBlockBegin
  2
*D30
 70
     1
 10
0.0
 20
0.0
 30
0.0
  3
*D30
  1

  0
LINE
  5
6CA
330
365
100
AcDbEntity
  8
0
 62
   123
100
AcDbLine
 10
5.385730497689792
 20
89.74014631425081
 30
0.0
 11
5.385730497689794
 21
136.1705185325477
 31
0.0
  0
LINE
  5
6CB
330
365
100
AcDbEntity
  8
0
 62
   123
100
AcDbLine
 10
17.88643993477831
 20
117.4201463142508
 30
0.0
 11
17.88643993477831
 21
136.1705185325477
 31
0.0
  0
LINE
  5
6CC
330
365
100
AcDbEntity
  8
0
 62
   123
100
AcDbLine
 10
7.885730497689794
 20
135.5705185325477
 30
0.0
 11
15.38643993477831
 21
135.5705185325477
 31
0.0
  0
SOLID
  5
6CD
330
365
100
AcDbEntity
  8
0
 62
   123
100
AcDbTrace
 10
7.885730497689794
 20
135.9871851992143
 30
0.0
 11
7.885730497689794
 21
135.153851865881
 31
0.0
 12
5.385730497689794
 22
135.5705185325477
 32
0.0
 13
5.385730497689794
 23
135.5705185325477
 33
0.0
  0
SOLID
  5
6CE
330
365
100
AcDbEntity
  8
0
 62
   123
100
AcDbTrace
 10
15.38643993477831
 20
135.9871851992143
 30
0.0
 11
15.38643993477831
 21
135.153851865881
 31
0.0
 12
17.88643993477831
 22
135.5705185325477
 32
0.0
 13
17.88643993477831
 23
135.5705185325477
 33
0.0
  0
MTEXT
  5
6CF
330
365
100
AcDbEntity
  8
0
 62
     3
100
AcDbMText
 10
11.63643993478922
 20
138.0705185325477
 30
0.0
 40
3.0
 41
0.0
 71
     5
 72
     1
  1
\A1;12.5
1001
ACAD
1000
MTEXTBEGIN
1070
    73
1070
     1
1070
    44
1040
1.0
1070
    74
1070
     0
1000
MTEXTEND
  0
POINT
  5
6D0
330
365
100
AcDbEntity
  8
DEFPOINTS
 62
     0
100
AcDbPoint
 10
5.385730497689792
 20
88.74014631425081
 30
0.0
  0
POINT
  5
6D1
330
365
100
AcDbEntity
  8
DEFPOINTS
 62
     0
100
AcDbPoint
 10
17.88643993477831
 20
116.4201463142508
 30
0.0
  0
POINT
  5
6D2
330
365
100
AcDbEntity
  8
DEFPOINTS
 62
     0
100
AcDbPoint
 10
17.88643993477831
 20
135.5705185325477
 30
0.0
  0
ENDBLK
  5
370
330
365
100
AcDbEntity
  8
0
100
AcDbBlockEnd
  0
BLOCK
  5
37B
330
371
100
AcDbEntity
  8
0
100
AcDbBlockBegin
  2
*D31
 70
     1
 10
0.0
 20
0.0
 30
0.0
  3
*D31
  1

  0
LINE
  5
6DB
330
371
100
AcDbEntity
  8
0
 62
   123
100
AcDbLine
 10
-98.4415668170825
 20
112.4201463142508
 30
0.0
 11
-98.4415668170825
 21
130.6712441085568
 31
0.0
  0
LINE
  5
6DC
330
371
100
AcDbEntity
  8
0
 62
   123
100
AcDbLine
 10
-38.4415668170825
 20
112.4201463142508
 30
0.0
 11
-38.4415668170825
 21
130.6712441085568
 31
0.0
  0
LINE
  5
6DD
330
371
100
AcDbEntity
  8
0
 62
   123
100
AcDbLine
 10
-95.9415668170825
 20
130.0712441085568
 30
0.0
 11
-40.9415668170825
 21
130.0712441085568
 31
0.0
  0
SOLID
  5
6DE
330
371
100
AcDbEntity
  8
0
 62
   123
100
AcDbTrace
 10
-95.9415668170825
 20
130.4879107752235
 30
0.0
 11
-95.9415668170825
 21
129.6545774418902
 31
0.0
 12
-98.4415668170825
 22
130.0712441085568
 32
0.0
 13
-98.4415668170825
 23
130.0712441085568
 33
0.0
  0
SOLID
  5
6DF
330
371
100
AcDbEntity
  8
0
 62
   123
100
AcDbTrace
 10
-40.9415668170825
 20
130.4879107752235
 30
0.0
 11
-40.9415668170825
 21
129.6545774418902
 31
0.0
 12
-38.4415668170825
 22
130.0712441085568
 32
0.0
 13
-38.4415668170825
 23
130.0712441085568
 33
0.0
  0
MTEXT
  5
6E0
330
371
100
AcDbEntity
  8
0
 62
     3
100
AcDbMText
 10
-68.77230557674034
 20
132.5712441085568
 30
0.0
 40
3.0
 41
0.0
 71
     5
 72
     1
  1
\A1;60
1001
ACAD
1000
MTEXTBEGIN
1070
    73
1070
     1
1070
    44
1040
1.0
1070
    74
1070
     0
1000
MTEXTEND
  0
POINT
  5
6E1
330
371
100
AcDbEntity
  8
DEFPOINTS
 62
     0
100
AcDbPoint
 10
-98.4415668170825
 20
111.4201463142508
 30
0.0
  0
POINT
  5
6E2
330
371
100
AcDbEntity
  8
DEFPOINTS
 62
     0
100
AcDbPoint
 10
-38.4415668170825
 20
111.4201463142508
 30
0.0
  0
POINT
  5
6E3
330
371
100
AcDbEntity
  8
DEFPOINTS
 62
     0
100
AcDbPoint
 10
-38.4415668170825
 20
130.0712441085568
 30
0.0
  0
ENDBLK
  5
37C
330
371
100
AcDbEntity
  8
0
100
AcDbBlockEnd
  0
BLOCK
  5
386
330
37D
100
AcDbEntity
  8
0
100
AcDbBlockBegin
  2
*D32
 70
     1
 10
0.0
 20
0.0
 30
0.0
  3
*D32
  1

  0
LINE
  5
715
330
37D
100
AcDbEntity
  8
0
 62
   123
100
AcDbLine
 10
-15.39170939775896
 20
119.3297066030942
 30
0.0
 11
-36.57523369908141
 21
106.1884748630327
 31
0.0
  0
LINE
  5
716
330
37D
100
AcDbEntity
  8
0
 62
   123
100
AcDbLine
 10
-100.3078999350776
 20
66.6518177654726
 30
0.0
 11
-102.4323221429443
 21
65.33392919555379
 31
0.0
  0
MTEXT
  5
717
330
37D
100
AcDbEntity
  8
0
 62
     3
100
AcDbMText
 10
-25.38938013124758
 20
116.0696126538642
 30
0.0
 40
3.0
 41
0.0
 71
     5
 72
     1
  1
\A1;\U+220570%%p0.5
 11
0.8497688831466955
 21
0.5271554279675185
 31
0.0
1001
ACAD
1000
MTEXTBEGIN
1070
    73
1070
     1
1070
    44
1040
1.0
1070
    74
1070
     0
1000
MTEXTEND
  0
LINE
  5
718
330
37D
100
AcDbEntity
  8
0
 62
   123
100
AcDbLine
 10
-98.18347772721086
 20
67.96970633539139
 30
0.0
 11
-38.69965590694815
 21
104.8705862931139
 31
0.0
  0
SOLID
  5
719
330
37D
100
AcDbEntity
  8
0
 62
   123
100
AcDbTrace
 10
-100.527548030064
 20
67.00588813345039
 30
0.0
 11
-100.0882518400911
 21
66.29774739749482
 31
0.0
 12
-98.18347772721086
 22
67.96970633539139
 32
0.0
 13
-98.18347772721086
 23
67.96970633539139
 33
0.0
  0
SOLID
  5
71A
330
37D
100
AcDbEntity
  8
0
 62
   123
100
AcDbTrace
 10
-36.79488179406788
 20
106.5425452310105
 30
0.0
 11
-36.35558560409494
 21
105.8344044950549
 31
0.0
 12
-38.69965590694815
 22
104.8705862931139
 32
0.0
 13
-38.69965590694815
 23
104.8705862931139
 33
0.0
  0
POINT
  5
71B
330
37D
100
AcDbEntity
  8
DEFPOINTS
 62
     0
100
AcDbPoint
 10
-38.69965590694815
 20
104.8705862931139
 30
0.0
  0
POINT
  5
71C
330
37D
100
AcDbEntity
  8
DEFPOINTS
 62
     0
100
AcDbPoint
 10
-98.18347772721086
 20
67.96970633539139
 30
0.0
  0
ENDBLK
  5
387
330
37D
100
AcDbEntity
  8
0
100
AcDbBlockEnd
  0
BLOCK
  5
394
330
388
100
AcDbEntity
  8
0
100
AcDbBlockBegin
  2
*D33
 70
     1
 10
0.0
 20
0.0
 30
0.0
  3
*D33
  1

  0
LINE
  5
6F8
330
388
100
AcDbEntity
  8
0
 62
   123
100
AcDbLine
 10
15.8864399347783
 20
114.4201463142508
 30
0.0
 11
15.8864399347783
 21
126.2284796475847
 31
0.0
  0
LINE
  5
6F9
330
388
100
AcDbEntity
  8
0
 62
   123
100
AcDbLine
 10
17.88643993477831
 20
117.4201463142508
 30
0.0
 11
17.88643993477831
 21
126.2284796475847
 31
0.0
  0
LINE
  5
6FA
330
388
100
AcDbEntity
  8
0
 62
   123
100
AcDbLine
 10
20.38643993477831
 20
125.6284796475847
 30
0.0
 11
22.88643993477831
 21
125.6284796475847
 31
0.0
  0
LINE
  5
6FB
330
388
100
AcDbEntity
  8
0
 62
   123
100
AcDbLine
 10
13.3864399347783
 20
125.6284796475847
 30
0.0
 11
6.886439934778309
 21
125.6284796475847
 31
0.0
  0
LINE
  5
6FC
330
388
100
AcDbEntity
  8
0
 62
   123
100
AcDbLine
 10
17.88643993477831
 20
125.6284796475847
 30
0.0
 11
15.8864399347783
 21
125.6284796475847
 31
0.0
  0
SOLID
  5
6FD
330
388
100
AcDbEntity
  8
0
 62
   123
100
AcDbTrace
 10
20.38643993477831
 20
126.0451463142514
 30
0.0
 11
20.38643993477831
 21
125.211812980918
 31
0.0
 12
17.88643993477831
 22
125.6284796475847
 32
0.0
 13
17.88643993477831
 23
125.6284796475847
 33
0.0
  0
SOLID
  5
6FE
330
388
100
AcDbEntity
  8
0
 62
   123
100
AcDbTrace
 10
13.3864399347783
 20
126.0451463142514
 30
0.0
 11
13.3864399347783
 21
125.211812980918
 31
0.0
 12
15.8864399347783
 22
125.6284796475847
 32
0.0
 13
15.8864399347783
 23
125.6284796475847
 33
0.0
  0
MTEXT
  5
6FF
330
388
100
AcDbEntity
  8
0
 62
     3
100
AcDbMText
 10
8.886439934778309
 20
128.1284796475847
 30
0.0
 40
3.0
 41
0.0
 71
     5
 72
     1
  1
\A1;2
1001
ACAD
1000
MTEXTBEGIN
1070
    73
1070
     1
1070
    44
1040
1.0
1070
    74
1070
     0
1000
MTEXTEND
  0
POINT
  5
700
330
388
100
AcDbEntity
  8
DEFPOINTS
 62
     0
100
AcDbPoint
 10
15.8864399347783
 20
113.4201463142508
 30
0.0
  0
POINT
  5
701
330
388
100
AcDbEntity
  8
DEFPOINTS
 62
     0
100
AcDbPoint
 10
17.88643993477831
 20
116.4201463142508
 30
0.0
  0
POINT
  5
702
330
388
100
AcDbEntity
  8
DEFPOINTS
 62
     0
100
AcDbPoint
 10
17.88643993477831
 20
125.6284796475847
 30
0.0
  0
ENDBLK
  5
395
330
388
100
AcDbEntity
  8
0
100
AcDbBlockEnd
  0
BLOCK
  5
3A0
330
396
100
AcDbEntity
  8
0
100
AcDbBlockBegin
  2
*D34
 70
     1
 10
0.0
 20
0.0
 30
0.0
  3
*D34
  1

  0
LINE
  5
703
330
396
100
AcDbEntity
  8
0
 62
   123
100
AcDbLine
 10
17.88643993477831
 20
126.6284796475838
 30
0.0
 11
17.88643993477831
 21
126.2284796475847
 31
0.0
  0
LINE
  5
704
330
396
100
AcDbEntity
  8
0
 62
   123
100
AcDbLine
 10
24.88643993478922
 20
116.0188836557797
 30
0.0
 11
24.88643993478922
 21
126.2284796475847
 31
0.0
  0
LINE
  5
705
330
396
100
AcDbEntity
  8
0
 62
   123
100
AcDbLine
 10
20.38643993477831
 20
125.6284796475847
 30
0.0
 11
22.38643993478922
 21
125.6284796475847
 31
0.0
  0
SOLID
  5
706
330
396
100
AcDbEntity
  8
0
 62
   123
100
AcDbTrace
 10
20.38643993477831
 20
126.0451463142514
 30
0.0
 11
20.38643993477831
 21
125.211812980918
 31
0.0
 12
17.88643993477831
 22
125.6284796475847
 32
0.0
 13
17.88643993477831
 23
125.6284796475847
 33
0.0
  0
SOLID
  5
707
330
396
100
AcDbEntity
  8
0
 62
   123
100
AcDbTrace
 10
22.38643993478922
 20
126.0451463142514
 30
0.0
 11
22.38643993478922
 21
125.211812980918
 31
0.0
 12
24.88643993478922
 22
125.6284796475847
 32
0.0
 13
24.88643993478922
 23
125.6284796475847
 33
0.0
  0
MTEXT
  5
708
330
396
100
AcDbEntity
  8
0
 62
     3
100
AcDbMText
 10
21.38643993477831
 20
128.1284796475847
 30
0.0
 40
3.0
 41
0.0
 71
     5
 72
     1
  1
\A1;7
1001
ACAD
1000
MTEXTBEGIN
1070
    73
1070
     1
1070
    44
1040
1.0
1070
    74
1070
     0
1000
MTEXTEND
  0
POINT
  5
709
330
396
100
AcDbEntity
  8
DEFPOINTS
 62
     0
100
AcDbPoint
 10
17.88643993477831
 20
125.6284796475838
 30
0.0
  0
POINT
  5
70A
330
396
100
AcDbEntity
  8
DEFPOINTS
 62
     0
100
AcDbPoint
 10
24.88643993478922
 20
115.0188836557797
 30
0.0
  0
POINT
  5
70B
330
396
100
AcDbEntity
  8
DEFPOINTS
 62
     0
100
AcDbPoint
 10
24.88643993478922
 20
125.6284796475847
 30
0.0
  0
ENDBLK
  5
3A1
330
396
100
AcDbEntity
  8
0
100
AcDbBlockEnd
  0
BLOCK
  5
3AC
330
3A2
100
AcDbEntity
  8
0
100
AcDbBlockBegin
  2
*D35
 70
     1
 10
0.0
 20
0.0
 30
0.0
  3
*D35
  1

  0
LINE
  5
70C
330
3A2
100
AcDbEntity
  8
0
 62
   123
100
AcDbLine
 10
86.8864399347891
 20
116.4201463142508
 30
0.0
 11
105.6982010658678
 21
116.4201463142507
 31
0.0
  0
LINE
  5
70D
330
3A2
100
AcDbEntity
  8
0
 62
   123
100
AcDbLine
 10
86.8864399347891
 20
56.42014631425087
 30
0.0
 11
105.6982010658678
 21
56.42014631425087
 31
0.0
  0
LINE
  5
70E
330
3A2
100
AcDbEntity
  8
0
 62
   123
100
AcDbLine
 10
105.0982010658678
 20
113.9201463142508
 30
0.0
 11
105.0982010658678
 21
58.92014631425087
 31
0.0
  0
SOLID
  5
70F
330
3A2
100
AcDbEntity
  8
0
 62
   123
100
AcDbTrace
 10
104.6815343992012
 20
113.9201463142508
 30
0.0
 11
105.5148677325345
 21
113.9201463142508
 31
0.0
 12
105.0982010658678
 22
116.4201463142507
 32
0.0
 13
105.0982010658678
 23
116.4201463142507
 33
0.0
  0
SOLID
  5
710
330
3A2
100
AcDbEntity
  8
0
 62
   123
100
AcDbTrace
 10
104.6815343992011
 20
58.92014631425087
 30
0.0
 11
105.5148677325345
 21
58.92014631425087
 31
0.0
 12
105.0982010658678
 22
56.42014631425087
 32
0.0
 13
105.0982010658678
 23
56.42014631425087
 33
0.0
  0
MTEXT
  5
711
330
3A2
100
AcDbEntity
  8
0
 62
     3
100
AcDbMText
 10
102.5982010658678
 20
85.92014631425087
 30
0.0
 40
3.0
 41
0.0
 71
     5
 72
     1
  1
\A1;%%C60
 11
0.0000000000000001
 21
1.0
 31
0.0
1001
ACAD
1000
MTEXTBEGIN
1070
    73
1070
     1
1070
    44
1040
1.0
1070
    74
1070
     0
1000
MTEXTEND
  0
POINT
  5
712
330
3A2
100
AcDbEntity
  8
DEFPOINTS
 62
     0
100
AcDbPoint
 10
85.8864399347891
 20
116.4201463142508
 30
0.0
  0
POINT
  5
713
330
3A2
100
AcDbEntity
  8
DEFPOINTS
 62
     0
100
AcDbPoint
 10
85.8864399347891
 20
56.42014631425087
 30
0.0
  0
POINT
  5
714
330
3A2
100
AcDbEntity
  8
DEFPOINTS
 62
     0
100
AcDbPoint
 10
105.0982010658678
 20
56.42014631425087
 30
0.0
  0
ENDBLK
  5
3AD
330
3A2
100
AcDbEntity
  8
0
100
AcDbBlockEnd
  0
BLOCK
  5
3B8
330
3AE
100
AcDbEntity
  8
0
100
AcDbBlockBegin
  2
*D36
 70
     1
 10
0.0
 20
0.0
 30
0.0
  3
*D36
  1

  0
LINE
  5
6EF
330
3AE
100
AcDbEntity
  8
0
 62
   123
100
AcDbLine
 10
14.88643993477831
 20
113.4201463142508
 30
0.0
 11
-3.459906867290399
 21
113.4201463142508
 31
0.0
  0
LINE
  5
6F0
330
3AE
100
AcDbEntity
  8
0
 62
   123
100
AcDbLine
 10
14.88643993477831
 20
59.42014631425087
 30
0.0
 11
-3.459906867290412
 21
59.42014631425087
 31
0.0
  0
LINE
  5
6F1
330
3AE
100
AcDbEntity
  8
0
 62
   123
100
AcDbLine
 10
-2.8599068672904
 20
110.9201463142508
 30
0.0
 11
-2.859906867290411
 21
61.92014631425087
 31
0.0
  0
SOLID
  5
6F2
330
3AE
100
AcDbEntity
  8
0
 62
   123
100
AcDbTrace
 10
-3.276573533957066
 20
110.9201463142508
 30
0.0
 11
-2.443240200623733
 21
110.9201463142508
 31
0.0
 12
-2.859906867290399
 22
113.4201463142508
 32
0.0
 13
-2.859906867290399
 23
113.4201463142508
 33
0.0
  0
SOLID
  5
6F3
330
3AE
100
AcDbEntity
  8
0
 62
   123
100
AcDbTrace
 10
-3.276573533957077
 20
61.92014631425087
 30
0.0
 11
-2.443240200623744
 21
61.92014631425087
 31
0.0
 12
-2.859906867290411
 22
59.42014631425087
 32
0.0
 13
-2.859906867290411
 23
59.42014631425087
 33
0.0
  0
MTEXT
  5
6F4
330
3AE
100
AcDbEntity
  8
0
 62
     3
100
AcDbMText
 10
-6.810056867290418
 20
84.57711527634279
 30
0.0
 40
3.0
 41
0.0
 71
     5
 72
     1
  1
\A1;\A1;%%C54{\f??|b0|i0|c0|p49;\H0.7x;\S+0^ -0.03;\H1.429x;(h7)} 
 11
0.0000000000000001
 21
1.0
 31
0.0
1001
ACAD
1000
MTEXTBEGIN
1070
    73
1070
     1
1070
    44
1040
1.0
1070
    74
1070
     0
1000
MTEXTEND
  0
POINT
  5
6F5
330
3AE
100
AcDbEntity
  8
DEFPOINTS
 62
     0
100
AcDbPoint
 10
15.8864399347783
 20
113.4201463142508
 30
0.0
  0
POINT
  5
6F6
330
3AE
100
AcDbEntity
  8
DEFPOINTS
 62
     0
100
AcDbPoint
 10
15.8864399347783
 20
59.42014631425087
 30
0.0
  0
POINT
  5
6F7
330
3AE
100
AcDbEntity
  8
DEFPOINTS
 62
     0
100
AcDbPoint
 10
-2.859906867290411
 20
59.42014631425087
 30
0.0
  0
ENDBLK
  5
3B9
330
3AE
100
AcDbEntity
  8
0
100
AcDbBlockEnd
  0
BLOCK
  5
3C6
330
3BA
100
AcDbEntity
  8
0
100
AcDbBlockBegin
  2
*D37
 70
     1
 10
0.0
 20
0.0
 30
0.0
  3
*D37
  1

  0
LINE
  5
749
330
3BA
100
AcDbEntity
  8
0
 62
   123
100
AcDbLine
 10
-68.44156681708252
 20
50.42014631425086
 30
0.0
 11
-68.44156681708253
 21
31.90978391139648
 31
0.0
  0
LINE
  5
74A
330
3BA
100
AcDbEntity
  8
0
 62
   123
100
AcDbLine
 10
-54.76547476655797
 20
53.40313940561159
 30
0.0
 11
-47.5813542332933
 21
36.05913818048092
 31
0.0
  0
ARC
  5
74B
330
3BA
100
AcDbEntity
  8
0
 62
   123
100
AcDbCircle
 10
-68.44156681708252
 20
86.42014631425082
 30
0.0
 40
53.91036240285433
100
AcDbArc
 50
272.6572310079006
 51
289.8427689920992
  0
SOLID
  5
74C
330
3BA
100
AcDbEntity
  8
0
 62
   123
100
AcDbTrace
 10
-65.93257783387336
 20
32.15119585631632
 30
0.0
 11
-65.95190003131811
 21
32.98430515114524
 31
0.0
 12
-68.44156681708253
 22
32.50978391139649
 32
0.0
 13
-68.44156681708253
 23
32.50978391139649
 33
0.0
  0
SOLID
  5
74D
330
3BA
100
AcDbEntity
  8
0
 62
   123
100
AcDbTrace
 10
-50.29270789561044
 20
36.09911213011177
 30
0.0
 11
-49.99174215387241
 21
35.32202521943542
 31
0.0
 12
-47.81096429271237
 22
36.6134658999877
 32
0.0
 13
-47.81096429271237
 23
36.6134658999877
 33
0.0
  0
MTEXT
  5
74E
330
3BA
100
AcDbEntity
  8
0
 62
     3
100
AcDbMText
 10
-58.68388091481286
 20
35.94428150516145
 30
0.0
 40
3.0
 41
0.0
 71
     5
 72
     1
  1
\A1;22°
 11
0.9818227775474099
 21
0.1897999828479691
 31
0.0
  0
POINT
  5
74F
330
3BA
100
AcDbEntity
  8
DEFPOINTS
 62
     0
100
AcDbPoint
 10
-54.48853829884495
 20
34.34673496473062
 30
0.0
  0
POINT
  5
750
330
3BA
100
AcDbEntity
  8
DEFPOINTS
 62
     0
100
AcDbPoint
 10
-68.44156681708252
 20
51.42014631425086
 30
0.0
  0
POINT
  5
751
330
3BA
100
AcDbEntity
  8
DEFPOINTS
 62
     0
100
AcDbPoint
 10
-68.44156681708252
 20
86.42014631425082
 30
0.0
  0
POINT
  5
752
330
3BA
100
AcDbEntity
  8
DEFPOINTS
 62
     0
100
AcDbPoint
 10
-55.14815819892306
 20
54.32701893812287
 30
0.0
  0
POINT
  5
753
330
3BA
100
AcDbEntity
  8
DEFPOINTS
 62
     0
100
AcDbPoint
 10
-68.44156681708252
 20
121.4201463142508
 30
0.0
  0
ENDBLK
  5
3C7
330
3BA
100
AcDbEntity
  8
0
100
AcDbBlockEnd
  0
ENDSEC
  0
SECTION
  2
ENTITIES
  0
LEADER
  5
9B
330
2
100
AcDbEntity
  8
0
100
AcDbLeader
  3
STANDARD
 73
     0
 75
     1
 40
3.0
 41
26.65178571428571
 76
     3
 10
-43.69282947555098
 20
112.9188836557807
 30
0.0
 10
-48.69414663428166
 20
138.3487371762228
 30
0.0
 10
-51.19414663428166
 20
138.3487371762228
 30
0.0
340
9C
1001
ACAD
1000
DSTYLE
1002
{
1070
     5
1000

1070
    77
1070
     1
1070
   147
1040
1.0
1070
   342
1005
0
1002
}
  0
MTEXT
  5
9C
102
{ACAD_REACTORS
330
9B
102
}
330
2
100
AcDbEntity
  8
0
 62
     3
100
AcDbMText
 10
-52.19414663428165
 20
139.3487371762228
 30
0.0
 40
3.0
 41
0.0
 71
     9
 72
     1
  1
4-%%c4.5 hole
1001
ACAD
1000
MTEXTBEGIN
1070
    73
1070
     1
1070
    44
1040
1.0
1070
    74
1070
     0
1000
MTEXTEND
1000
MTEXTBEGIN
1070
    73
1070
     1
1070
    44
1040
1.0
1070
    74
1070
     0
1000
MTEXTEND
  0
DIMENSION
  5
9E
102
{ACAD_XDICTIONARY
360
9F
102
}
102
{ACAD_REACTORS
330
A0
102
}
330
2
100
AcDbEntity
  8
0
100
AcDbDimension
  2
*D37
 10
-68.4415668170825
 20
121.4201463142508
 30
0.0
 11
-58.20938095769294
 21
33.48972456129293
 31
0.0
 70
   162
  3
STANDARD
100
AcDb2LineAngularDimension
 13
-68.4415668170825
 23
86.42014631425082
 33
0.0
 14
-55.14815819892305
 24
54.32701893812287
 34
0.0
 15
-68.4415668170825
 25
51.42014631425086
 35
0.0
 16
-54.48853829884495
 26
34.34673496473062
 36
0.0
1001
ACAD
1000
DSTYLE
1002
{
1070
   271
1070
     0
1070
   271
1070
     1
1070
   271
1070
     1
1070
   271
1070
     1
1070
   271
1070
     1
1070
   271
1070
     1
1070
   271
1070
     1
1070
   271
1070
     1
1070
   271
1070
     1
1070
   271
1070
     1
1070
   271
1070
     1
1070
   271
1070
     1
1070
   271
1070
     1
1070
   271
1070
     1
1070
   271
1070
     1
1070
   271
1070
     1
1070
   271
1070
     1
1070
   271
1070
     1
1070
   271
1070
     1
1070
   271
1070
     1
1070
   271
1070
     1
1070
   271
1070
     1
1070
   271
1070
     1
1070
   271
1070
     1
1070
   271
1070
     1
1070
   271
1070
     1
1070
   271
1070
     1
1070
   271
1070
     1
1070
   271
1070
     1
1070
   271
1070
     1
1070
   271
1070
     1
1070
   271
1070
     1
1070
   271
1070
     1
1070
   271
1070
     1
1070
   271
1070
     1
1070
   271
1070
     1
1070
   271
1070
     1
1070
   271
1070
     1
1070
   271
1070
     1
1070
   271
1070
     1
1070
   271
1070
     1
1070
   271
1070
     1
1070
   271
1070
     1
1070
   271
1070
     1
1070
   271
1070
     1
1070
   271
1070
     1
1070
   271
1070
     1
1070
   271
1070
     1
1070
   271
1070
     1
1070
   271
1070
     1
1070
   271
1070
     1
1070
   271
1070
     1
1070
   271
1070
     1
1070
   271
1070
     1
1070
   271
1070
     1
1070
   271
1070
     1
1070
   271
1070
     1
1070
   271
1070
     1
1070
   271
1070
     1
1070
   271
1070
     1
1070
   271
1070
     1
1070
   271
1070
     1
1070
   271
1070
     1
1070
   271
1070
     1
1070
   271
1070
     1
1070
   271
1070
     1
1070
   271
1070
     1
1070
   271
1070
     1
1070
   271
1070
     1
1070
   271
1070
     1
1070
   271
1070
     1
1070
   271
1070
     1
1070
   271
1070
     1
1070
   271
1070
     1
1070
   271
1070
     1
1070
   271
1070
     1
1070
   271
1070
     1
1070
   271
1070
     1
1070
   271
1070
     1
1070
   271
1070
     1
1070
   271
1070
     1
1070
   271
1070
     1
1070
   271
1070
     1
1070
   271
1070
     1
1070
   271
1070
     1
1070
   271
1070
     1
1070
   271
1070
     1
1070
   271
1070
     1
1070
   271
1070
     1
1070
   271
1070
     1
1070
   271
1070
     1
1070
   271
1070
     1
1070
   271
1070
     1
1070
   271
1070
     1
1070
   271
1070
     1
1070
   271
1070
     1
1070
   271
1070
     1
1070
   271
1070
     1
1070
   271
1070
     1
1002
}
  0
LEADER
  5
B0
330
2
100
AcDbEntity
  8
0
100
AcDbLeader
  3
STANDARD
 76
     2
 10
32.5237042678907
 20
41.67926298859588
 30
0.0
 10
37.16013818401711
 20
22.1969923950899
 30
0.0
1001
ACAD
1000
DSTYLE
1002
{
1070
     5
1000

1070
    77
1070
     1
1070
   147
1040
1.0
1070
   342
1005
0
1002
}
  0
MTEXT
  5
B1
330
2
100
AcDbEntity
  8
DIM
100
AcDbMText
 10
73.55229810497781
 20
25.70272461285485
 30
0.0
 40
3.5
 41
0.0
 71
     5
 72
     1
  1
MOTOR LEAD WIRE 300mm
1001
ACAD
1000
MTEXTBEGIN
1070
    73
1070
     1
1070
    44
1040
1.0
1070
    74
1070
     0
1000
MTEXTEND
1000
MTEXTBEGIN
1070
    73
1070
     1
1070
    44
1040
1.0
1070
    74
1070
     0
1000
MTEXTEND
  0
MTEXT
  5
B3
330
2
100
AcDbEntity
  8
DIM
100
AcDbMText
 10
69.45522687764764
 20
17.02025222285287
 30
0.0
 40
3.5
 41
0.0
 71
     5
 72
     1
  1
UL Style 3266 , AWG20
1001
ACAD
1000
MTEXTBEGIN
1070
    73
1070
     1
1070
    44
1040
1.0
1070
    74
1070
     0
1000
MTEXTEND
1000
MTEXTBEGIN
1070
    73
1070
     1
1070
    44
1040
1.0
1070
    74
1070
     0
1000
MTEXTEND
  0
LEADER
  5
B4
330
2
100
AcDbEntity
  8
0
100
AcDbLeader
  3
STANDARD
 73
     0
 75
     1
 40
3.0
 41
26.65178571428571
 76
     3
 10
-50.4738254497845
 20
-57.71382208484915
 30
0.0
 10
-55.47514260850062
 20
-32.28396856440595
 30
0.0
 10
-57.97514260850062
 20
-32.28396856440595
 30
0.0
340
B5
1001
ACAD
1000
DSTYLE
1002
{
1070
     5
1000

1070
    77
1070
     1
1070
   147
1040
1.0
1070
   342
1005
0
1002
}
  0
MTEXT
  5
B5
102
{ACAD_REACTORS
330
B4
102
}
330
2
100
AcDbEntity
  8
0
 62
     3
100
AcDbMText
 10
-58.97514260850062
 20
-31.28396856440595
 30
0.0
 40
3.0
 41
0.0
 71
     9
 72
     1
  1
4-%%c4.5 hole
1001
ACAD
1000
MTEXTBEGIN
1070
    73
1070
     1
1070
    44
1040
1.0
1070
    74
1070
     0
1000
MTEXTEND
1000
MTEXTBEGIN
1070
    73
1070
     1
1070
    44
1040
1.0
1070
    74
1070
     0
1000
MTEXTEND
  0
LEADER
  5
B6
330
2
100
AcDbEntity
  8
0
 48
0.6
100
AcDbLeader
  3
STANDARD
 76
     2
 10
42.94420275886091
 20
-128.9548111029363
 30
0.0
 10
47.58063667499095
 20
-148.437081696443
 30
0.0
1001
ACAD
1000
DSTYLE
1002
{
1070
     5
1000

1070
    77
1070
     1
1070
   147
1040
1.0
1070
   342
1005
0
1002
}
  0
MTEXT
  5
B7
330
2
100
AcDbEntity
  8
DIM
100
AcDbMText
 10
84.32281053474225
 20
-144.9719725698811
 30
0.0
 40
3.5
 41
0.0
 71
     5
 72
     1
  1
MOTOR LEAD WIRE 300mm
1001
ACAD
1000
MTEXTBEGIN
1070
    73
1070
     1
1070
    44
1040
1.0
1070
    74
1070
     0
1000
MTEXTEND
1000
MTEXTBEGIN
1070
    73
1070
     1
1070
    44
1040
1.0
1070
    74
1070
     0
1000
MTEXTEND
  0
MTEXT
  5
B8
330
2
100
AcDbEntity
  8
DIM
100
AcDbMText
 10
80.26413752691746
 20
-153.0801891011882
 30
0.0
 40
3.5
 41
0.0
 71
     5
 72
     1
  1
UL Style 3266 , AWG20
1001
ACAD
1000
MTEXTBEGIN
1070
    73
1070
     1
1070
    44
1040
1.0
1070
    74
1070
     0
1000
MTEXTEND
1000
MTEXTBEGIN
1070
    73
1070
     1
1070
    44
1040
1.0
1070
    74
1070
     0
1000
MTEXTEND
  0
DIMENSION
  5
B9
102
{ACAD_XDICTIONARY
360
BA
102
}
102
{ACAD_REACTORS
330
BB
102
}
330
2
100
AcDbEntity
  8
0
 48
0.6
100
AcDbDimension
  2
*D28
 10
-75.30102110298162
 20
-49.21392777728121
 30
0.0
 11
-65.65988001814957
 21
-132.6832171022164
 31
0.0
 70
    34
  1
<>
  3
STANDARD
100
AcDb2LineAngularDimension
 13
-75.30102110298162
 23
-84.2139277772803
 33
0.0
 14
-62.00761248482217
 24
-116.3070551534102
 34
0.0
 15
-75.30102110298162
 25
-119.2139277772822
 35
0.0
 16
-68.52425015414133
 26
-135.6886135829332
 36
0.0
1001
ACAD
1000
DSTYLE
1002
{
1070
   271
1070
     0
1070
   271
1070
     1
1070
   271
1070
     1
1070
   271
1070
     1
1070
   271
1070
     1
1070
   271
1070
     1
1070
   271
1070
     1
1070
   271
1070
     1
1070
   271
1070
     1
1070
   271
1070
     1
1070
   271
1070
     1
1070
   271
1070
     1
1070
   271
1070
     1
1070
   271
1070
     1
1070
   271
1070
     1
1070
   271
1070
     1
1070
   271
1070
     1
1070
   271
1070
     1
1070
   271
1070
     1
1070
   271
1070
     1
1070
   271
1070
     1
1070
   271
1070
     1
1070
   271
1070
     1
1070
   271
1070
     1
1070
   271
1070
     1
1070
   271
1070
     1
1070
   271
1070
     1
1070
   271
1070
     1
1070
   271
1070
     1
1070
   271
1070
     1
1070
   271
1070
     1
1070
   271
1070
     1
1070
   271
1070
     1
1070
   271
1070
     1
1070
   271
1070
     1
1070
   271
1070
     1
1070
   271
1070
     1
1070
   271
1070
     1
1070
   271
1070
     1
1070
   271
1070
     1
1070
   271
1070
     1
1070
   271
1070
     1
1070
   271
1070
     1
1070
   271
1070
     1
1070
   271
1070
     1
1070
   271
1070
     1
1070
   271
1070
     1
1070
   271
1070
     1
1070
   271
1070
     1
1070
   271
1070
     1
1070
   271
1070
     1
1070
   271
1070
     1
1070
   271
1070
     1
1070
   271
1070
     1
1070
   271
1070
     1
1070
   271
1070
     1
1070
   271
1070
     1
1070
   271
1070
     1
1070
   271
1070
     1
1070
   271
1070
     1
1070
   271
1070
     1
1070
   271
1070
     1
1070
   271
1070
     1
1070
   271
1070
     1
1070
   271
1070
     1
1070
   271
1070
     1
1070
   271
1070
     1
1070
   271
1070
     1
1070
   271
1070
     1
1070
   271
1070
     1
1070
   271
1070
     1
1070
   271
1070
     1
1070
   271
1070
     1
1070
   271
1070
     1
1070
   271
1070
     1
1070
   271
1070
     1
1070
   271
1070
     1
1070
   271
1070
     1
1070
   271
1070
     1
1070
   271
1070
     1
1070
   271
1070
     1
1070
   271
1070
     1
1070
   271
1070
     1
1070
   271
1070
     1
1070
   271
1070
     1
1070
   271
1070
     1
1070
   271
1070
     1
1070
   271
1070
     1
1070
   271
1070
     1
1070
   271
1070
     1
1070
   271
1070
     1
1070
   271
1070
     1
1070
   271
1070
     1
1070
   271
1070
     1
1070
   271
1070
     1
1070
   271
1070
     1
1070
   271
1070
     1
1070
   271
1070
     1
1070
   271
1070
     1
1002
}
  0
DIMENSION
  5
CA
102
{ACAD_XDICTIONARY
360
CB
102
}
102
{ACAD_REACTORS
330
CC
102
}
330
2
100
AcDbEntity
  8
0
 48
0.6
100
AcDbDimension
  2
*D27
 10
-104.6769609027637
 20
-103.2416486308264
 30
0.0
 11
-31.02808525027268
 21
-55.53695367825691
 31
0.0
 70
   163
  1
<>%%p0.5
  3
STANDARD
100
AcDbDiametricDimension
 15
-45.92508130322441
 25
-65.18620692373613
 35
0.0
 40
0.0
  0
CIRCLE
  5
D8
330
2
100
AcDbEntity
  8
0
 48
0.6
100
AcDbCircle
 10
-75.30102110298162
 20
-84.21392777728234
 30
0.0
 40
28.5
  0
CIRCLE
  5
D9
330
2
100
AcDbEntity
  8
0
 48
0.6
100
AcDbCircle
 10
-75.30102110298162
 20
-84.21392777728234
 30
0.0
 40
27.00000000000005
  0
CIRCLE
  5
DA
330
2
100
AcDbEntity
  8
0
 48
0.6
100
AcDbCircle
 10
-75.30102110298162
 20
-84.21392777728234
 30
0.0
 40
13.0
  0
LINE
  5
DB
330
2
100
AcDbEntity
  8
0
 48
0.6
100
AcDbLine
 10
-104.3010211029816
 20
-59.21392777728029
 30
0.0
 11
-104.3010211029816
 21
-109.2139277772802
 31
0.0
  0
LINE
  5
DC
102
{ACAD_REACTORS
330
16F
102
}
330
2
100
AcDbEntity
  8
0
 48
0.6
100
AcDbLine
 10
-105.3010211029816
 20
-59.21392777728029
 30
0.0
 11
-105.3010211029816
 21
-109.2139277772802
 31
0.0
  0
ARC
  5
DD
330
2
100
AcDbEntity
  8
0
 48
0.6
100
AcDbCircle
 10
-75.30102110298162
 20
-84.21392777728234
 30
0.0
 40
24.0
100
AcDbArc
 50
116.3656725032109
 51
153.634327496783
  0
ARC
  5
DE
330
2
100
AcDbEntity
  8
0
 48
0.6
100
AcDbCircle
 10
-75.30102110298162
 20
-84.21392777728234
 30
0.0
 40
24.0
100
AcDbArc
 50
26.36567250321681
 51
63.63432749678904
  0
LINE
  5
DF
102
{ACAD_REACTORS
330
BB
102
}
330
2
100
AcDbEntity
  8
CEN
 48
0.6
100
AcDbLine
 10
-75.30102110298162
 20
-119.2139277772822
 30
0.0
 11
-75.30102110298162
 21
-49.21392777728121
 31
0.0
  0
DIMENSION
  5
E2
330
2
100
AcDbEntity
  8
0
 48
0.6
100
AcDbDimension
  2
*D26
 10
-3.965142256484128
 20
-87.21381739182421
 30
0.0
 11
-3.965142256484114
 21
-84.21392777728064
 31
0.0
 70
   160
  1
\A1;%%c<>{\H0.7x;\S+0^ -0.012;\f??|b0|i0|c0|p49;\H1.429x;(h7)}  
  3
STANDARD
100
AcDbAlignedDimension
 13
4.806938425759426
 23
-81.21403816273705
 33
0.0
 14
4.806938425759426
 24
-87.21381739182421
 34
0.0
 50
90.0
100
AcDbRotatedDimension
  0
DIMENSION
  5
F1
102
{ACAD_XDICTIONARY
360
F2
102
}
102
{ACAD_REACTORS
330
F3
102
}
330
2
100
AcDbEntity
  8
0
 48
0.6
100
AcDbDimension
  2
*D25
 10
-14.8423003143928
 20
-111.2139277772822
 30
0.0
 11
-14.84230031439278
 21
-87.54277360124223
 31
0.0
 70
   160
  1
\A1;%%C<>{\f??|b0|i0|c0|p49;\H0.7x;\S+0^ -0.03;\H1.429x;(h7)} 
  3
STANDARD
100
AcDbAlignedDimension
 13
26.30693842575942
 23
-57.21392777728119
 33
0.0
 14
26.30693842575942
 24
-111.2139277772822
 34
0.0
 50
90.0
100
AcDbRotatedDimension
  0
LINE
  5
100
102
{ACAD_REACTORS
330
192
102
}
330
2
100
AcDbEntity
  8
0
 48
0.6
100
AcDbLine
 10
28.30693842575943
 20
-54.21392777728029
 30
0.0
 11
28.30693842575943
 21
-114.2139277772822
 31
0.0
  0
LINE
  5
101
102
{ACAD_REACTORS
330
F3
330
192
102
}
330
2
100
AcDbEntity
  8
0
 48
0.6
100
AcDbLine
 10
26.30693842575942
 20
-57.21392777728119
 30
0.0
 11
26.30693842575942
 21
-111.2139277772822
 31
0.0
  0
LINE
  5
102
330
2
100
AcDbEntity
  8
0
 48
0.6
100
AcDbLine
 10
34.40693842575797
 20
-54.21392777728029
 30
0.0
 11
34.40693842575797
 21
-114.2139277772822
 31
0.0
  0
LINE
  5
103
330
2
100
AcDbEntity
  8
0
 48
0.6
100
AcDbLine
 10
-46.30102110298162
 20
-59.21392777728029
 30
0.0
 11
-46.30102110298162
 21
-109.2139277772802
 31
0.0
  0
LINE
  5
104
102
{ACAD_REACTORS
330
16F
102
}
330
2
100
AcDbEntity
  8
0
 48
0.6
100
AcDbLine
 10
-45.30102110298162
 20
-59.21392777728029
 30
0.0
 11
-45.30102110298162
 21
-109.2139277772802
 31
0.0
  0
DIMENSION
  5
105
102
{ACAD_XDICTIONARY
360
106
102
}
102
{ACAD_REACTORS
330
107
102
}
330
2
100
AcDbEntity
  8
0
 48
0.6
100
AcDbDimension
  2
*D24
 10
115.5186995568488
 20
-114.2139277772822
 30
0.0
 11
115.5186995568489
 21
-84.21392777728234
 31
0.0
 70
   160
  1
%%C<>
  3
STANDARD
100
AcDbAlignedDimension
 13
96.30693842575931
 23
-54.21392777728232
 33
0.0
 14
96.30693842575931
 24
-114.2139277772822
 34
0.0
 50
90.0
100
AcDbRotatedDimension
  0
LINE
  5
114
330
2
100
AcDbEntity
  8
0
 48
0.6
100
AcDbLine
 10
102.3069384257593
 20
-55.71392777728121
 30
0.0
 11
102.3069384257593
 21
-112.7139277772822
 31
0.0
  0
LINE
  5
115
102
{ACAD_REACTORS
330
107
102
}
330
2
100
AcDbEntity
  8
0
 48
0.6
100
AcDbLine
 10
96.30693842575931
 20
-114.2139277772822
 30
0.0
 11
96.30693842575931
 21
-54.21392777728232
 31
0.0
  0
LINE
  5
116
102
{ACAD_REACTORS
330
1C6
102
}
330
2
100
AcDbEntity
  8
0
 48
0.6
100
AcDbLine
 10
103.3069384257593
 20
-56.71392777728232
 30
0.0
 11
103.3069384257593
 21
-111.7139277772811
 31
0.0
  0
ARC
  5
117
330
2
100
AcDbEntity
  8
0
 48
0.6
100
AcDbCircle
 10
-29.2580963514722
 20
-99.90337512874219
 30
0.0
 40
36.555792
100
AcDbArc
 50
227.7470409999976
 51
236.3176429999981
  0
ARC
  5
118
330
2
100
AcDbEntity
  8
0
 48
0.6
100
AcDbCircle
 10
-29.2580963514722
 20
-99.90337512874219
 30
0.0
 40
33.95579199999998
100
AcDbArc
 50
204.9259499999998
 51
236.3981230000006
  0
ARC
  5
119
330
2
100
AcDbEntity
  8
0
 48
0.6
100
AcDbCircle
 10
-29.2580963514722
 20
-99.90337512874219
 30
0.0
 40
39.15579199999999
100
AcDbArc
 50
201.4369589999971
 51
235.2486590000054
  0
ARC
  5
11A
330
2
100
AcDbEntity
  8
CEN
 48
0.6
100
AcDbCircle
 10
-75.30102110299253
 20
-84.2139277772803
 30
0.0
 40
35.0
100
AcDbArc
 50
304.6885525890122
 51
322.9113558998458
  0
LINE
  5
11B
330
2
100
AcDbEntity
  8
CEN
 48
0.6
100
AcDbLine
 10
-53.55748758150207
 20
-105.9574612987661
 30
0.0
 11
-47.54707994140903
 21
-111.9678689388521
 31
0.0
  0
LINE
  5
11C
330
2
100
AcDbEntity
  8
CEN
 48
0.6
100
AcDbLine
 10
-110.3010211029816
 20
-84.21392777728234
 30
0.0
 11
-40.30102110298162
 21
-84.21392777728234
 31
0.0
  0
LINE
  5
11D
330
2
100
AcDbEntity
  8
0
 48
0.6
100
AcDbLine
 10
-100.3010211029816
 20
-113.2139277772802
 30
0.0
 11
-50.30102110299253
 21
-113.2139277772802
 31
0.0
  0
LINE
  5
11E
330
2
100
AcDbEntity
  8
0
 48
0.6
100
AcDbLine
 10
-100.3010211029816
 20
-114.2139277772802
 30
0.0
 11
-50.30102110299253
 21
-114.2139277772802
 31
0.0
  0
LINE
  5
11F
102
{ACAD_REACTORS
330
BB
102
}
330
2
100
AcDbEntity
  8
0
  6
CENTER
 62
     1
 48
0.6
100
AcDbLine
 10
-75.30102110298162
 20
-84.2139277772803
 30
0.0
 11
-62.00761248482217
 21
-116.3070551534102
 31
0.0
  0
ARC
  5
120
330
2
100
AcDbEntity
  8
0
 48
0.6
100
AcDbCircle
 10
-55.58950526183093
 20
-74.44376179895103
 30
0.0
 40
2.0
100
AcDbArc
 50
321.9486744806221
 51
26.36567250321681
  0
ARC
  5
121
330
2
100
AcDbEntity
  8
0
 48
0.6
100
AcDbCircle
 10
-52.43966954828124
 20
-76.9092303097311
 30
0.0
 40
2.0
100
AcDbArc
 50
141.9486744806222
 51
197.7198081527984
  0
ARC
  5
122
330
2
100
AcDbEntity
  8
0
 48
0.6
100
AcDbCircle
 10
-55.58950526183093
 20
-93.98409375561023
 30
0.0
 40
2.0
100
AcDbArc
 50
333.6343274967831
 51
38.05132551937779
  0
ARC
  5
123
330
2
100
AcDbEntity
  8
0
 48
0.6
100
AcDbCircle
 10
-52.43966954828124
 20
-91.51862524483199
 30
0.0
 40
2.0
100
AcDbArc
 50
162.2801918472015
 51
218.0513255193776
  0
ARC
  5
124
330
2
100
AcDbEntity
  8
0
 48
0.6
100
AcDbCircle
 10
-67.99632363543264
 20
-107.0752793319801
 30
0.0
 40
2.0
100
AcDbArc
 50
51.94867448061305
 51
107.719808152805
  0
ARC
  5
125
330
2
100
AcDbEntity
  8
0
 48
0.6
100
AcDbCircle
 10
-65.53085512465099
 20
-103.92544361843
 30
0.0
 40
2.0
100
AcDbArc
 50
231.948674480613
 51
296.3656725032108
  0
ARC
  5
126
330
2
100
AcDbEntity
  8
0
 48
0.6
100
AcDbCircle
 10
-75.30102110298162
 20
-84.21392777728234
 30
0.0
 40
22.0
100
AcDbArc
 50
342.2801918472013
 51
17.71980815279839
  0
ARC
  5
127
330
2
100
AcDbEntity
  8
0
 48
0.6
100
AcDbCircle
 10
-54.55227335148288
 20
-127.191017128741
 30
0.0
 40
0.7499080000000001
100
AcDbArc
 50
257.6612769999992
 51
17.83280500000109
  0
ARC
  5
128
330
2
100
AcDbEntity
  8
0
 48
0.6
100
AcDbCircle
 10
-53.12451735148193
 20
-126.731713128741
 30
0.0
 40
0.7499080000000001
100
AcDbArc
 50
77.66127699999917
 51
197.832805000001
  0
ARC
  5
129
330
2
100
AcDbEntity
  8
0
 48
0.6
100
AcDbCircle
 10
-29.2580963514722
 20
-99.90337512874219
 30
0.0
 40
37.855792
100
AcDbArc
 50
202.2115912309427
 51
227.7470409999976
  0
ARC
  5
12A
330
2
100
AcDbEntity
  8
0
 48
0.6
100
AcDbCircle
 10
-29.2580963514722
 20
-99.90337512874219
 30
0.0
 40
35.255792
100
AcDbArc
 50
203.9479409999999
 51
227.7470409999976
  0
ARC
  5
12B
330
2
100
AcDbEntity
  8
0
 48
0.6
100
AcDbCircle
 10
-75.30102110298162
 20
-84.21392777728234
 30
0.0
 40
24.0
100
AcDbArc
 50
296.3656725032108
 51
333.6343274967831
  0
CIRCLE
  5
12C
330
2
100
AcDbEntity
  8
0
 48
0.6
100
AcDbCircle
 10
-75.30102110298162
 20
-84.21392777728234
 30
0.0
 40
2.000000000000054
  0
CIRCLE
  5
12D
330
2
100
AcDbEntity
  8
0
 48
0.6
100
AcDbCircle
 10
-75.30102110298162
 20
-84.21392777728234
 30
0.0
 40
3.000000000000055
  0
ARC
  5
12E
330
2
100
AcDbEntity
  8
0
 48
0.6
100
AcDbCircle
 10
-85.07118708132315
 20
-103.92544361843
 30
0.0
 40
2.0
100
AcDbArc
 50
243.634327496789
 51
308.0513255193868
  0
ARC
  5
12F
330
2
100
AcDbEntity
  8
0
 48
0.6
100
AcDbCircle
 10
-82.60571857053424
 20
-107.0752793319801
 30
0.0
 40
2.0
100
AcDbArc
 50
72.28019184719491
 51
128.0513255193867
  0
ARC
  5
130
330
2
100
AcDbEntity
  8
0
 48
0.6
100
AcDbCircle
 10
-95.01253694413231
 20
-74.44376179895103
 30
0.0
 40
2.0
100
AcDbArc
 50
153.634327496783
 51
218.0513255193776
  0
ARC
  5
131
330
2
100
AcDbEntity
  8
0
 48
0.6
100
AcDbCircle
 10
-98.16237265768201
 20
-76.9092303097311
 30
0.0
 40
2.0
100
AcDbArc
 50
342.2801918472013
 51
38.05132551937779
  0
ARC
  5
132
330
2
100
AcDbEntity
  8
0
 48
0.6
100
AcDbCircle
 10
-95.01253694413231
 20
-93.98409375561023
 30
0.0
 40
2.0
100
AcDbArc
 50
141.9486744806222
 51
206.3656725032168
  0
ARC
  5
133
330
2
100
AcDbEntity
  8
0
 48
0.6
100
AcDbCircle
 10
-98.16237265768201
 20
-91.51862524483199
 30
0.0
 40
2.0
100
AcDbArc
 50
321.9486744806221
 51
17.71980815279839
  0
ARC
  5
134
330
2
100
AcDbEntity
  8
0
 48
0.6
100
AcDbCircle
 10
-75.30102110298162
 20
-84.21392777728234
 30
0.0
 40
22.0
100
AcDbArc
 50
162.2801918472015
 51
197.7198081527984
  0
ARC
  5
135
330
2
100
AcDbEntity
  8
0
 48
0.6
100
AcDbCircle
 10
-100.3010211029816
 20
-109.2139277772802
 30
0.0
 40
4.0
100
AcDbArc
 50
180.0
 51
270.0
  0
CIRCLE
  5
136
330
2
100
AcDbEntity
  8
0
 48
0.6
100
AcDbCircle
 10
-100.0497584445095
 20
-108.9626651188113
 30
0.0
 40
2.25
  0
ARC
  5
137
330
2
100
AcDbEntity
  8
0
 48
0.6
100
AcDbCircle
 10
-100.3010211029816
 20
-109.2139277772802
 30
0.0
 40
5.0
100
AcDbArc
 50
180.0
 51
270.0
  0
ARC
  5
138
330
2
100
AcDbEntity
  8
CEN
 48
0.6
100
AcDbCircle
 10
-75.30102110299253
 20
-84.2139277772803
 30
0.0
 40
35.0
100
AcDbArc
 50
199.5241366191914
 51
231.1865505975711
  0
LINE
  5
139
330
2
100
AcDbEntity
  8
CEN
 48
0.6
100
AcDbLine
 10
-97.04455462447208
 20
-105.9574612987661
 30
0.0
 11
-103.0549622645505
 21
-111.9678689388521
 31
0.0
  0
ARC
  5
13A
330
2
100
AcDbEntity
  8
0
 48
0.6
100
AcDbCircle
 10
-75.30102110298162
 20
-84.21392777728234
 30
0.0
 40
24.0
100
AcDbArc
 50
206.3656725032168
 51
243.634327496789
  0
ARC
  5
13B
330
2
100
AcDbEntity
  8
0
 48
0.6
100
AcDbCircle
 10
-75.30102110298162
 20
-84.21392777728234
 30
0.0
 40
22.0
100
AcDbArc
 50
252.2801918471949
 51
287.7198081528051
  0
ARC
  5
13C
330
2
100
AcDbEntity
  8
0
 48
0.6
100
AcDbCircle
 10
-45.72967335148336
 20
-131.8103161287409
 30
0.0
 40
0.7499080000000001
100
AcDbArc
 50
92.01298199999559
 51
212.184510000001
  0
ARC
  5
13D
330
2
100
AcDbEntity
  8
0
 48
0.6
100
AcDbCircle
 10
-46.99902435148238
 20
-132.6091891287409
 30
0.0
 40
0.7499080000000001
100
AcDbArc
 50
272.0129819999954
 51
32.18451000000101
  0
CIRCLE
  5
13E
330
2
100
AcDbEntity
  8
0
 48
0.6
100
AcDbCircle
 10
-50.55228376145009
 20
-108.9626651188113
 30
0.0
 40
2.25
  0
ARC
  5
13F
330
2
100
AcDbEntity
  8
0
 48
0.6
100
AcDbCircle
 10
-48.11270135147265
 20
-128.9333511287401
 30
0.0
 40
0.7499080000000001
100
AcDbArc
 50
85.16289500000455
 51
205.3344229999992
  0
ARC
  5
140
330
2
100
AcDbEntity
  8
0
 48
0.6
100
AcDbCircle
 10
-49.46827335147304
 20
-129.575123128741
 30
0.0
 40
0.7499080000000001
100
AcDbArc
 50
265.1628950000044
 51
25.33442299999946
  0
ARC
  5
141
330
2
100
AcDbEntity
  8
0
 48
0.6
100
AcDbCircle
 10
-51.5142903514809
 20
-131.3278511287422
 30
0.0
 40
0.7499080000000001
100
AcDbArc
 50
265.1628950000044
 51
25.33442299999946
  0
ARC
  5
142
330
2
100
AcDbEntity
  8
0
 48
0.6
100
AcDbCircle
 10
-50.15871735147289
 20
-130.6860781287411
 30
0.0
 40
0.7499080000000001
100
AcDbArc
 50
85.16289500000455
 51
205.3344229999992
  0
ARC
  5
143
330
2
100
AcDbEntity
  8
0
 48
0.6
100
AcDbCircle
 10
-29.2580963514722
 20
-99.90337512874219
 30
0.0
 40
37.855792
100
AcDbArc
 50
235.2486590000054
 51
242.0987460000029
  0
ARC
  5
144
330
2
100
AcDbEntity
  8
0
 48
0.6
100
AcDbCircle
 10
-29.2580963514722
 20
-99.90337512874219
 30
0.0
 40
35.255792
100
AcDbArc
 50
236.3564240000014
 51
242.0987460000029
  0
ARC
  5
145
330
2
100
AcDbEntity
  8
0
 48
0.6
100
AcDbCircle
 10
-50.30102110299253
 20
-109.2139277772802
 30
0.0
 40
4.0
100
AcDbArc
 50
270.0
 51
0.0
  0
ARC
  5
146
330
2
100
AcDbEntity
  8
0
 48
0.6
100
AcDbCircle
 10
-50.30102110299253
 20
-109.2139277772802
 30
0.0
 40
5.0
100
AcDbArc
 50
270.0
 51
0.0
  0
LINE
  5
147
102
{ACAD_REACTORS
330
107
102
}
330
2
100
AcDbEntity
  8
0
 48
0.6
100
AcDbLine
 10
96.30693842575931
 20
-114.2139277772822
 30
0.0
 11
34.40693842575797
 21
-114.2139277772822
 31
0.0
  0
LINE
  5
148
330
2
100
AcDbEntity
  8
0
 62
   123
 48
0.6
100
AcDbLine
 10
47.58063667499095
 20
-148.437081696443
 30
0.0
 11
119.9409956855393
 21
-148.437081696443
 31
0.0
  0
LINE
  5
149
330
2
100
AcDbEntity
  8
CEN
 48
0.6
100
AcDbLine
 10
106.7942434764097
 20
-84.21392777728234
 30
0.0
 11
0.1971471240083247
 21
-84.21392777728234
 31
0.0
  0
LINE
  5
14A
330
2
100
AcDbEntity
  8
0
 48
0.6
100
AcDbLine
 10
44.80693842575942
 20
-115.2139277772811
 30
0.0
 11
35.80693842575942
 21
-115.2139277772811
 31
0.0
  0
ARC
  5
14B
330
2
100
AcDbEntity
  8
0
 48
0.6
100
AcDbCircle
 10
74.44906374971992
 20
-115.293964166288
 30
0.0
 40
35.69518126343977
100
AcDbArc
 50
179.8715315986479
 51
206.0128613674901
  0
ARC
  5
14C
330
2
100
AcDbEntity
  8
0
 48
0.6
100
AcDbCircle
 10
74.96816316657509
 20
-115.290553808033
 30
0.0
 40
37.51427265422899
100
AcDbArc
 50
179.8829693302405
 51
213.4780580786805
  0
ARC
  5
14D
330
2
100
AcDbEntity
  8
0
 48
0.6
100
AcDbCircle
 10
35.80693842575942
 20
-114.7139277772822
 30
0.0
 40
0.5
100
AcDbArc
 50
180.0
 51
270.0
  0
LINE
  5
14E
330
2
100
AcDbEntity
  8
0
 48
0.6
100
AcDbLine
 10
35.30693842575942
 20
-114.2139277772822
 30
0.0
 11
35.30693842575942
 21
-114.7139277772822
 31
0.0
  0
ARC
  5
14F
330
2
100
AcDbEntity
  8
0
 48
0.6
100
AcDbCircle
 10
74.45234867779959
 20
-115.2937759835941
 30
0.0
 40
33.09846512244694
100
AcDbArc
 50
179.8617778036294
 51
206.0708162873097
  0
ARC
  5
150
330
2
100
AcDbEntity
  8
0
 48
0.6
100
AcDbCircle
 10
75.0322016358275
 20
-115.2896279582711
 30
0.0
 40
32.3783059924139
100
AcDbArc
 50
179.8660441688498
 51
214.739597965026
  0
ARC
  5
151
330
2
100
AcDbEntity
  8
0
 48
0.6
100
AcDbCircle
 10
44.80693842575942
 20
-114.7139277772822
 30
0.0
 40
0.5
100
AcDbArc
 50
270.0
 51
0.0
  0
LINE
  5
152
330
2
100
AcDbEntity
  8
0
 48
0.6
100
AcDbLine
 10
45.30693842575942
 20
-114.2139277772822
 30
0.0
 11
45.30693842575942
 21
-114.7139277772822
 31
0.0
  0
LINE
  5
153
330
2
100
AcDbEntity
  8
0
 48
0.6
100
AcDbLine
 10
4.306938425759426
 20
-81.71403816273706
 30
0.0
 11
4.806938425759426
 21
-81.21403816273705
 31
0.0
  0
ARC
  5
154
330
2
100
AcDbEntity
  8
0
 48
0.6
100
AcDbCircle
 10
48.08098642575874
 20
-134.4074287772811
 30
0.0
 40
0.7499080000000001
100
AcDbArc
 50
62.66289500000094
 51
182.8344229999968
  0
ARC
  5
155
330
2
100
AcDbEntity
  8
0
 48
0.6
100
AcDbCircle
 10
76.60966042575978
 20
-114.8025737772801
 30
0.0
 40
35.255792
100
AcDbArc
 50
213.8564239999993
 51
219.5987459999965
  0
ARC
  5
156
330
2
100
AcDbEntity
  8
0
 48
0.6
100
AcDbCircle
 10
47.70320742576018
 20
-138.2296467772811
 30
0.0
 40
0.7499080000000001
100
AcDbArc
 50
249.5129820000002
 51
9.684509999999278
  0
ARC
  5
157
330
2
100
AcDbEntity
  8
0
 48
0.6
100
AcDbCircle
 10
76.60966042575978
 20
-114.8025737772801
 30
0.0
 40
36.555792
100
AcDbArc
 50
205.2470409999968
 51
213.8176429999978
  0
ARC
  5
158
330
2
100
AcDbEntity
  8
0
 48
0.6
100
AcDbCircle
 10
76.60966042575978
 20
-114.8025737772801
 30
0.0
 40
37.855792
100
AcDbArc
 50
212.7486590000019
 51
219.5987459999965
  0
ARC
  5
159
330
2
100
AcDbEntity
  8
0
 48
0.6
100
AcDbCircle
 10
46.58300442575796
 20
-134.48159477728
 30
0.0
 40
0.7499080000000001
100
AcDbArc
 50
242.6628950000009
 51
2.834422999996808
  0
ARC
  5
15A
330
2
100
AcDbEntity
  8
0
 48
0.6
100
AcDbCircle
 10
44.02199242575966
 20
-135.3179277772809
 30
0.0
 40
0.7499080000000001
100
AcDbArc
 50
242.6628950000009
 51
2.834422999996808
  0
ARC
  5
15B
330
2
100
AcDbEntity
  8
0
 48
0.6
100
AcDbCircle
 10
45.5199734257601
 20
-135.243761777281
 30
0.0
 40
0.7499080000000001
100
AcDbArc
 50
62.66289500000094
 51
182.8344229999968
  0
ARC
  5
15C
330
2
100
AcDbEntity
  8
0
 48
0.6
100
AcDbCircle
 10
44.29320242575863
 20
-130.455442777281
 30
0.0
 40
0.7499080000000001
100
AcDbArc
 50
55.16127700000105
 51
175.3328050000016
  0
ARC
  5
15D
330
2
100
AcDbEntity
  8
0
 48
0.6
100
AcDbCircle
 10
42.79835942574732
 20
-130.33340577728
 30
0.0
 40
0.7499080000000001
100
AcDbArc
 50
235.1612770000011
 51
355.3328050000017
  0
ARC
  5
15E
330
2
100
AcDbEntity
  8
0
 48
0.6
100
AcDbCircle
 10
49.18164942575981
 20
-137.9773437772811
 30
0.0
 40
0.7499080000000001
100
AcDbArc
 50
69.51298200000024
 51
189.6845099999992
  0
LINE
  5
15F
330
2
100
AcDbEntity
  8
0
 48
0.6
100
AcDbLine
 10
28.30693842575943
 20
-81.2139277772612
 30
0.0
 11
28.30693842575943
 21
-87.21392777730121
 31
0.0
  0
LINE
  5
160
330
2
100
AcDbEntity
  8
0
 48
0.6
100
AcDbLine
 10
4.806938425759426
 20
-81.21403816273705
 30
0.0
 11
26.30693842575942
 21
-81.21391817852323
 31
0.0
  0
LINE
  5
161
330
2
100
AcDbEntity
  8
0
 48
0.6
100
AcDbLine
 10
34.40693842575797
 20
-105.1126651188111
 30
0.0
 11
35.30693842575942
 21
-105.1126651188111
 31
0.0
  0
LINE
  5
162
330
2
100
AcDbEntity
  8
0
 48
0.6
100
AcDbLine
 10
4.306938425759426
 20
-86.7138173918242
 30
0.0
 11
4.806938425759426
 21
-87.21381739182421
 31
0.0
  0
LINE
  5
163
330
2
100
AcDbEntity
  8
2
 48
0.6
100
AcDbLine
 10
4.806938425759426
 20
-81.21403816273909
 30
0.0
 11
4.806938425759426
 21
-87.21381739182421
 31
0.0
  0
LINE
  5
165
330
2
100
AcDbEntity
  8
0
 48
0.6
100
AcDbLine
 10
4.306938425759426
 20
-81.71403816273706
 30
0.0
 11
4.306938425759426
 21
-86.7138173918242
 31
0.0
  0
LINE
  5
166
330
2
100
AcDbEntity
  8
0
 48
0.6
100
AcDbLine
 10
4.806938425759426
 20
-87.21381739182421
 30
0.0
 11
26.30693842575942
 21
-87.21391817856323
 31
0.0
  0
LINE
  5
167
330
2
100
AcDbEntity
  8
0
 48
0.6
100
AcDbLine
 10
28.30693842575943
 20
-114.2139277772822
 30
0.0
 11
34.40693842575797
 21
-114.2139277772822
 31
0.0
  0
LINE
  5
168
330
2
100
AcDbEntity
  8
0
 48
0.6
100
AcDbLine
 10
34.40693842575797
 20
-112.81266511881
 30
0.0
 11
35.30693842575942
 21
-112.81266511881
 31
0.0
  0
LINE
  5
169
330
2
100
AcDbEntity
  8
0
 48
0.6
100
AcDbLine
 10
28.30693842575943
 20
-111.2139277772822
 30
0.0
 11
26.30693842575942
 21
-111.2139277772822
 31
0.0
  0
LINE
  5
16A
330
2
100
AcDbEntity
  8
0
 48
0.6
100
AcDbLine
 10
35.30693842575942
 20
-105.1126651188111
 30
0.0
 11
35.30693842575942
 21
-112.81266511881
 31
0.0
  0
LINE
  5
16B
330
2
100
AcDbEntity
  8
0
 48
0.6
100
AcDbLine
 10
102.3069384257593
 20
-112.7139277772822
 30
0.0
 11
96.30693842575931
 21
-112.7139277772822
 31
0.0
  0
LINE
  5
16C
330
2
100
AcDbEntity
  8
0
 48
0.6
100
AcDbLine
 10
103.3069384257593
 20
-111.7139277772811
 30
0.0
 11
102.3069384257593
 21
-112.7139277772822
 31
0.0
  0
DIMENSION
  5
16D
102
{ACAD_XDICTIONARY
360
16E
102
}
102
{ACAD_REACTORS
330
16F
102
}
330
2
100
AcDbEntity
  8
0
 48
0.6
100
AcDbDimension
  2
*D23
 10
-45.30102110298162
 20
-40.56282998297634
 30
0.0
 11
-75.63175986264309
 21
-40.56282998297634
 31
0.0
 70
   160
  1
60
  3
STANDARD
100
AcDbAlignedDimension
 13
-105.3010211029816
 23
-59.21392777728029
 33
0.0
 14
-45.30102110298162
 24
-59.21392777728029
 34
0.0
100
AcDbRotatedDimension
  0
LINE
  5
17C
330
2
100
AcDbEntity
  8
CEN
 48
0.6
100
AcDbLine
 10
-53.55748758150207
 20
-62.47039425579528
 30
0.0
 11
-47.54707994140903
 21
-56.45998661570907
 31
0.0
  0
LINE
  5
17D
330
2
100
AcDbEntity
  8
0
 48
0.6
100
AcDbLine
 10
-100.3010211029816
 20
-55.21392777728029
 30
0.0
 11
-50.30102110299253
 21
-55.21392777728029
 31
0.0
  0
LINE
  5
17E
330
2
100
AcDbEntity
  8
0
 48
0.6
100
AcDbLine
 10
-100.3010211029816
 20
-54.21392777728029
 30
0.0
 11
-50.30102110299253
 21
-54.21392777728029
 31
0.0
  0
ARC
  5
17F
102
{ACAD_REACTORS
330
CC
102
}
330
2
100
AcDbEntity
  8
CEN
 48
0.6
100
AcDbCircle
 10
-75.30102110299253
 20
-84.2139277772803
 30
0.0
 40
35.0
100
AcDbArc
 50
21.71935007261406
 51
51.18655059757116
  0
ARC
  5
180
330
2
100
AcDbEntity
  8
0
 48
0.6
100
AcDbCircle
 10
-67.99632363543264
 20
-61.35257622258104
 30
0.0
 40
2.0
100
AcDbArc
 50
252.2801918471949
 51
308.0513255193868
  0
ARC
  5
181
330
2
100
AcDbEntity
  8
0
 48
0.6
100
AcDbCircle
 10
-65.53085512465099
 20
-64.502411936133
 30
0.0
 40
2.0
100
AcDbArc
 50
63.63432749678904
 51
128.0513255193867
  0
LWPOLYLINE
  5
182
330
2
100
AcDbEntity
  8
3
 48
0.6
100
AcDbPolyline
 90
        4
 70
     1
 43
0.0
 10
-82.24928451591244
 20
-39.82274361765231
 10
-78.94928451591318
 20
-39.82274361765231
 10
-78.94928451591318
 20
-36.3227436176523
 10
-82.24928451591244
 20
-36.3227436176523
  0
ARC
  5
184
330
2
100
AcDbEntity
  8
0
 48
0.6
100
AcDbCircle
 10
-85.07118708132315
 20
-64.502411936133
 30
0.0
 40
2.0
100
AcDbArc
 50
51.94867448061305
 51
116.3656725032109
  0
ARC
  5
185
330
2
100
AcDbEntity
  8
0
 48
0.6
100
AcDbCircle
 10
-82.60571857053424
 20
-61.35257622258104
 30
0.0
 40
2.0
100
AcDbArc
 50
231.948674480613
 51
287.7198081528051
  0
ARC
  5
186
330
2
100
AcDbEntity
  8
0
 48
0.6
100
AcDbCircle
 10
-100.3010211029816
 20
-59.21392777728029
 30
0.0
 40
4.0
100
AcDbArc
 50
90.0
 51
180.0
  0
CIRCLE
  5
187
330
2
100
AcDbEntity
  8
0
 48
0.6
100
AcDbCircle
 10
-100.0497584445095
 20
-59.46519043575217
 30
0.0
 40
2.25
  0
LINE
  5
188
330
2
100
AcDbEntity
  8
CEN
 48
0.6
100
AcDbLine
 10
-97.04455462447208
 20
-62.47039425579528
 30
0.0
 11
-103.0549622645505
 21
-56.45998661570907
 31
0.0
  0
ARC
  5
189
330
2
100
AcDbEntity
  8
CEN
 48
0.6
100
AcDbCircle
 10
-75.30102110299253
 20
-84.2139277772803
 30
0.0
 40
35.0
100
AcDbArc
 50
124.6885525890122
 51
145.106569353258
  0
ARC
  5
18A
330
2
100
AcDbEntity
  8
0
 48
0.6
100
AcDbCircle
 10
-100.3010211029816
 20
-59.21392777728029
 30
0.0
 40
5.0
100
AcDbArc
 50
90.0
 51
180.0
  0
ARC
  5
18B
330
2
100
AcDbEntity
  8
0
 48
0.6
100
AcDbCircle
 10
-75.30102110298162
 20
-84.21392777728234
 30
0.0
 40
22.0
100
AcDbArc
 50
72.28019184719491
 51
107.719808152805
  0
CIRCLE
  5
18C
330
2
100
AcDbEntity
  8
0
 48
0.6
100
AcDbCircle
 10
-50.55228376145009
 20
-59.46519043575217
 30
0.0
 40
2.25
  0
ARC
  5
18D
330
2
100
AcDbEntity
  8
0
 48
0.6
100
AcDbCircle
 10
-50.30102110299253
 20
-59.21392777728029
 30
0.0
 40
4.0
100
AcDbArc
 50
0.0
 51
90.0
  0
ARC
  5
18E
330
2
100
AcDbEntity
  8
0
 48
0.6
100
AcDbCircle
 10
-50.30102110299253
 20
-59.21392777728029
 30
0.0
 40
5.0
100
AcDbArc
 50
0.0
 51
90.0
  0
LINE
  5
18F
330
2
100
AcDbEntity
  8
0
 48
0.6
100
AcDbLine
 10
96.30693842575931
 20
-54.21392777728232
 30
0.0
 11
34.40693842575797
 21
-54.21392777728029
 31
0.0
  0
DIMENSION
  5
190
102
{ACAD_XDICTIONARY
360
191
102
}
102
{ACAD_REACTORS
330
192
102
}
330
2
100
AcDbEntity
  8
0
 48
0.6
100
AcDbDimension
  2
*D22
 10
28.30693842575943
 20
-45.0055944439484
 30
0.0
 11
19.30693842575942
 21
-45.0055944439484
 31
0.0
 70
   160
  3
STANDARD
100
AcDbAlignedDimension
 13
26.30693842575942
 23
-57.21392777728119
 33
0.0
 14
28.30693842575943
 24
-54.21392777728232
 34
0.0
100
AcDbRotatedDimension
  0
DIMENSION
  5
1A1
102
{ACAD_XDICTIONARY
360
1A2
102
}
102
{ACAD_REACTORS
330
1A3
102
}
330
2
100
AcDbEntity
  8
0
 48
0.6
100
AcDbDimension
  2
*D21
 10
35.30693842575942
 20
-45.0055944439484
 30
0.0
 11
31.80693842575943
 21
-45.0055944439484
 31
0.0
 70
   160
  3
STANDARD
100
AcDbAlignedDimension
 13
28.30693842575943
 23
-45.0055944439484
 33
0.0
 14
35.30693842575942
 24
-55.61519043575136
 34
0.0
100
AcDbRotatedDimension
  0
LINE
  5
1B0
330
2
100
AcDbEntity
  8
0
 48
0.6
100
AcDbLine
 10
28.30693842575943
 20
-54.21392777728029
 30
0.0
 11
34.40693842575797
 21
-54.21392777728029
 31
0.0
  0
LINE
  5
1B1
330
2
100
AcDbEntity
  8
0
 48
0.6
100
AcDbLine
 10
35.30693842575942
 20
-63.31519043575207
 30
0.0
 11
35.30693842575942
 21
-55.61519043575136
 31
0.0
  0
LINE
  5
1B2
330
2
100
AcDbEntity
  8
0
 48
0.6
100
AcDbLine
 10
34.40693842575797
 20
-63.31519043575207
 30
0.0
 11
35.30693842575942
 21
-63.31519043575207
 31
0.0
  0
LINE
  5
1B3
102
{ACAD_REACTORS
330
1A3
102
}
330
2
100
AcDbEntity
  8
0
 48
0.6
100
AcDbLine
 10
34.40693842575797
 20
-55.61519043575136
 30
0.0
 11
35.30693842575942
 21
-55.61519043575136
 31
0.0
  0
LINE
  5
1B4
330
2
100
AcDbEntity
  8
0
 48
0.6
100
AcDbLine
 10
28.30693842575943
 20
-57.21392777728119
 30
0.0
 11
26.30693842575942
 21
-57.21392777728119
 31
0.0
  0
LINE
  5
1B5
330
2
100
AcDbEntity
  8
0
 48
0.6
100
AcDbLine
 10
102.3069384257593
 20
-55.71392777728121
 30
0.0
 11
96.30693842575931
 21
-55.71392777728121
 31
0.0
  0
LINE
  5
1B6
330
2
100
AcDbEntity
  8
0
 48
0.6
100
AcDbLine
 10
103.3069384257593
 20
-56.71392777728232
 30
0.0
 11
102.3069384257593
 21
-55.71392777728121
 31
0.0
  0
DIMENSION
  5
1B7
330
2
100
AcDbEntity
  8
0
 48
0.6
100
AcDbDimension
  2
*D20
 10
28.30693842575943
 20
-34.81643734376207
 30
0.0
 11
16.30693842575942
 21
-34.81643734376207
 31
0.0
 70
   160
  3
STANDARD
100
AcDbAlignedDimension
 13
4.306938425759426
 23
-82.21381499211105
 33
0.0
 14
28.30693842575943
 24
-54.21392777728029
 34
0.0
100
AcDbRotatedDimension
  0
DIMENSION
  5
1C4
102
{ACAD_XDICTIONARY
360
1C5
102
}
102
{ACAD_REACTORS
330
1C6
102
}
330
2
100
AcDbEntity
  8
0
 48
0.6
100
AcDbDimension
  2
*D19
 10
103.3069384257593
 20
-34.81643734376207
 30
0.0
 11
65.80693842575943
 21
-34.81643734376207
 31
0.0
 70
   160
  3
STANDARD
100
AcDbAlignedDimension
 13
28.30693842575943
 23
-34.81643734376207
 33
0.0
 14
103.3069384257593
 24
-56.71392777728232
 34
0.0
100
AcDbRotatedDimension
  0
DIMENSION
  5
1D3
102
{ACAD_XDICTIONARY
360
1D4
102
}
102
{ACAD_REACTORS
330
1D5
102
}
330
2
100
AcDbEntity
  8
0
100
AcDbDimension
  2
*D36
 10
-2.859906867290411
 20
59.42014631425087
 30
0.0
 11
-2.859906867290419
 21
84.57711527634279
 31
0.0
 70
   160
  1
\A1;%%C<>{\f??|b0|i0|c0|p49;\H0.7x;\S+0^ -0.03;\H1.429x;(h7)} 
  3
STANDARD
100
AcDbAlignedDimension
 13
15.8864399347783
 23
113.4201463142508
 33
0.0
 14
15.8864399347783
 24
59.42014631425087
 34
0.0
 50
90.0
100
AcDbRotatedDimension
  0
ARC
  5
1E2
330
2
100
AcDbEntity
  8
0
100
AcDbCircle
 10
-48.73005097593182
 20
96.19031229258183
 30
0.0
 40
2.0
100
AcDbArc
 50
321.9486744806221
 51
26.36567250321681
  0
LINE
  5
1E3
102
{ACAD_REACTORS
330
1D5
330
25F
102
}
330
2
100
AcDbEntity
  8
0
100
AcDbLine
 10
15.8864399347783
 20
113.4201463142508
 30
0.0
 11
15.8864399347783
 21
59.42014631425087
 31
0.0
  0
LINE
  5
1E4
330
2
100
AcDbEntity
  8
0
100
AcDbLine
 10
23.98643993477685
 20
116.4201463142508
 30
0.0
 11
23.98643993477685
 21
56.42014631425087
 31
0.0
  0
LINE
  5
1E5
102
{ACAD_REACTORS
330
25F
102
}
330
2
100
AcDbEntity
  8
0
100
AcDbLine
 10
17.88643993477831
 20
116.4201463142508
 30
0.0
 11
17.88643993477831
 21
56.42014631425087
 31
0.0
  0
LINE
  5
1E6
102
{ACAD_REACTORS
330
2A8
102
}
330
2
100
AcDbEntity
  8
0
100
AcDbLine
 10
-38.4415668170825
 20
111.4201463142508
 30
0.0
 11
-38.4415668170825
 21
61.42014631425178
 31
0.0
  0
LINE
  5
1E7
330
2
100
AcDbEntity
  8
0
100
AcDbLine
 10
-39.4415668170825
 20
111.4201463142508
 30
0.0
 11
-39.4415668170825
 21
61.42014631425178
 31
0.0
  0
DIMENSION
  5
1E8
102
{ACAD_XDICTIONARY
360
1E9
102
}
102
{ACAD_REACTORS
330
1EA
102
}
330
2
100
AcDbEntity
  8
0
100
AcDbDimension
  2
*D35
 10
105.0982010658678
 20
56.42014631425087
 30
0.0
 11
105.0982010658678
 21
85.92014631425087
 31
0.0
 70
   160
  1
%%C<>
  3
STANDARD
100
AcDbAlignedDimension
 13
85.8864399347891
 23
116.4201463142508
 33
0.0
 14
85.8864399347891
 24
56.42014631425087
 34
0.0
 50
90.0
100
AcDbRotatedDimension
  0
LINE
  5
1F7
102
{ACAD_REACTORS
330
2C7
102
}
330
2
100
AcDbEntity
  8
0
100
AcDbLine
 10
92.88643993477819
 20
113.9201463142508
 30
0.0
 11
92.88643993477819
 21
58.92014631425087
 31
0.0
  0
LINE
  5
1F8
102
{ACAD_REACTORS
330
1EA
102
}
330
2
100
AcDbEntity
  8
0
100
AcDbLine
 10
85.8864399347891
 20
56.42014631425087
 30
0.0
 11
85.8864399347891
 21
116.4201463142508
 31
0.0
  0
LINE
  5
1F9
330
2
100
AcDbEntity
  8
0
100
AcDbLine
 10
91.88643993477819
 20
114.9201463142508
 30
0.0
 11
91.88643993477819
 21
57.92014631425178
 31
0.0
  0
ARC
  5
1FA
330
2
100
AcDbEntity
  8
0
100
AcDbCircle
 10
-45.58021526238213
 20
93.72484378180189
 30
0.0
 40
2.0
100
AcDbArc
 50
141.9486744806222
 51
197.7198081527984
  0
ARC
  5
1FB
330
2
100
AcDbEntity
  8
0
100
AcDbCircle
 10
-45.58021526238213
 20
79.11544884670075
 30
0.0
 40
2.0
100
AcDbArc
 50
162.2801918472015
 51
218.0513255193776
  0
ARC
  5
1FC
330
2
100
AcDbEntity
  8
0
100
AcDbCircle
 10
-48.73005097593182
 20
76.6499803359207
 30
0.0
 40
2.0
100
AcDbArc
 50
333.6343274967831
 51
38.05132551937779
  0
ARC
  5
1FD
330
2
100
AcDbEntity
  8
0
100
AcDbCircle
 10
-68.4415668170825
 20
86.42014631425082
 30
0.0
 40
22.0
100
AcDbArc
 50
342.2801918472013
 51
17.71980815279839
  0
ARC
  5
1FE
330
2
100
AcDbEntity
  8
0
100
AcDbCircle
 10
-43.4415668170825
 20
61.42014631425178
 30
0.0
 40
5.0
100
AcDbArc
 50
270.0
 51
0.0
  0
ARC
  5
1FF
330
2
100
AcDbEntity
  8
0
100
AcDbCircle
 10
-43.4415668170825
 20
61.42014631425178
 30
0.0
 40
4.0
100
AcDbArc
 50
270.0
 51
0.0
  0
CIRCLE
  5
200
330
2
100
AcDbEntity
  8
0
100
AcDbCircle
 10
-43.69282947555098
 20
61.67140897272185
 30
0.0
 40
2.25
  0
ARC
  5
201
330
2
100
AcDbEntity
  8
0
100
AcDbCircle
 10
-46.26506306557189
 20
43.90236096278981
 30
0.0
 40
0.7499080000000001
100
AcDbArc
 50
77.66127699999917
 51
197.832805000001
  0
ARC
  5
202
330
2
100
AcDbEntity
  8
0
100
AcDbCircle
 10
-22.39864206557308
 20
70.73069896279077
 30
0.0
 40
36.555792
100
AcDbArc
 50
227.7470409999976
 51
236.3176429999981
  0
ARC
  5
203
330
2
100
AcDbEntity
  8
0
100
AcDbCircle
 10
-43.29926306557377
 20
39.94799596279181
 30
0.0
 40
0.7499080000000001
100
AcDbArc
 50
85.16289500000455
 51
205.3344229999992
  0
ARC
  5
204
330
2
100
AcDbEntity
  8
0
100
AcDbCircle
 10
-42.60881906557028
 20
41.05895096279077
 30
0.0
 40
0.7499080000000001
100
AcDbArc
 50
265.1628950000044
 51
25.33442299999946
  0
ARC
  5
205
330
2
100
AcDbEntity
  8
0
100
AcDbCircle
 10
-41.25324706557353
 20
41.70072296279072
 30
0.0
 40
0.7499080000000001
100
AcDbArc
 50
85.16289500000455
 51
205.3344229999992
  0
ARC
  5
206
330
2
100
AcDbEntity
  8
0
100
AcDbCircle
 10
-22.39864206557308
 20
70.73069896279077
 30
0.0
 40
35.255792
100
AcDbArc
 50
236.3564240000014
 51
242.0987460000029
  0
ARC
  5
207
330
2
100
AcDbEntity
  8
0
100
AcDbCircle
 10
-40.13957006557234
 20
38.02488496279174
 30
0.0
 40
0.7499080000000001
100
AcDbArc
 50
272.0129819999954
 51
32.18451000000101
  0
ARC
  5
208
330
2
100
AcDbEntity
  8
0
100
AcDbCircle
 10
-38.87021906557333
 20
38.82375796279193
 30
0.0
 40
0.7499080000000001
100
AcDbArc
 50
92.01298199999559
 51
212.184510000001
  0
ARC
  5
209
330
2
100
AcDbEntity
  8
0
100
AcDbCircle
 10
-44.65483606557086
 20
39.30622296279084
 30
0.0
 40
0.7499080000000001
100
AcDbArc
 50
265.1628950000044
 51
25.33442299999946
  0
ARC
  5
20A
330
2
100
AcDbEntity
  8
0
100
AcDbCircle
 10
-22.39864206557308
 20
70.73069896279077
 30
0.0
 40
37.855792
100
AcDbArc
 50
235.2486590000054
 51
242.0987460000029
  0
ARC
  5
20B
330
2
100
AcDbEntity
  8
0
100
AcDbCircle
 10
-47.69281906557284
 20
43.44305696278984
 30
0.0
 40
0.7499080000000001
100
AcDbArc
 50
257.6612769999992
 51
17.83280500000109
  0
ARC
  5
20C
330
2
100
AcDbEntity
  8
0
100
AcDbCircle
 10
-22.39864206557308
 20
70.73069896279077
 30
0.0
 40
35.255792
100
AcDbArc
 50
203.9479409999999
 51
227.7470409999976
  0
ARC
  5
20D
330
2
100
AcDbEntity
  8
0
100
AcDbCircle
 10
-22.39864206557308
 20
70.73069896279077
 30
0.0
 40
33.95579199999998
100
AcDbArc
 50
204.9259499999998
 51
236.3981230000006
  0
ARC
  5
20E
330
2
100
AcDbEntity
  8
0
100
AcDbCircle
 10
-22.39864206557308
 20
70.73069896279077
 30
0.0
 40
37.855792
100
AcDbArc
 50
202.2115912309427
 51
227.7470409999976
  0
LINE
  5
20F
330
2
100
AcDbEntity
  8
CEN
 48
0.6
100
AcDbLine
 10
-46.69803329559203
 20
64.67661279276473
 30
0.0
 11
-40.68762565550992
 21
58.66620515267874
 31
0.0
  0
ARC
  5
210
330
2
100
AcDbEntity
  8
CEN
 48
0.6
100
AcDbCircle
 10
-68.4415668170825
 20
86.42014631425082
 30
0.0
 40
35.0
100
AcDbArc
 50
304.6885525890122
 51
322.9113558998458
  0
ARC
  5
211
330
2
100
AcDbEntity
  8
0
100
AcDbCircle
 10
-68.4415668170825
 20
86.42014631425082
 30
0.0
 40
24.0
100
AcDbArc
 50
296.3656725032108
 51
333.6343274967831
  0
ARC
  5
212
330
2
100
AcDbEntity
  8
0
100
AcDbCircle
 10
-61.13686934953353
 20
63.55879475955095
 30
0.0
 40
2.0
100
AcDbArc
 50
51.94867448061305
 51
107.719808152805
  0
ARC
  5
213
330
2
100
AcDbEntity
  8
0
100
AcDbCircle
 10
-58.67140083875188
 20
66.70863047310087
 30
0.0
 40
2.0
100
AcDbArc
 50
231.948674480613
 51
296.3656725032108
  0
ARC
  5
214
330
2
100
AcDbEntity
  8
0
100
AcDbCircle
 10
-22.39864206557308
 20
70.73069896279077
 30
0.0
 40
39.15579199999999
100
AcDbArc
 50
201.4369589999971
 51
235.2486590000054
  0
LINE
  5
215
102
{ACAD_REACTORS
330
1EA
102
}
330
2
100
AcDbEntity
  8
0
100
AcDbLine
 10
85.8864399347891
 20
56.42014631425087
 30
0.0
 11
23.98643993477685
 21
56.42014631425087
 31
0.0
  0
LINE
  5
216
330
2
100
AcDbEntity
  8
0
 62
   123
100
AcDbLine
 10
37.16013818401711
 20
22.1969923950899
 30
0.0
 11
108.3773422504469
 21
22.1969923950899
 31
0.0
  0
LINE
  5
217
330
2
100
AcDbEntity
  8
CEN
 48
0.6
100
AcDbLine
 10
96.37374498543955
 20
86.42014631425082
 30
0.0
 11
1.441022493059563
 21
86.42014631425082
 31
0.0
  0
ARC
  5
218
330
2
100
AcDbEntity
  8
0
100
AcDbCircle
 10
64.61170314484639
 20
55.34444613326292
 30
0.0
 40
32.37830599241378
100
AcDbArc
 50
179.8660441688498
 51
214.7395979650263
  0
ARC
  5
219
330
2
100
AcDbEntity
  8
0
100
AcDbCircle
 10
64.03185018682939
 20
55.34029810793874
 30
0.0
 40
33.09846512244686
100
AcDbArc
 50
179.8617778036294
 51
206.0708162873097
  0
ARC
  5
21A
330
2
100
AcDbEntity
  8
0
100
AcDbCircle
 10
64.54766467560853
 20
55.34352028349786
 30
0.0
 40
37.51427265422904
100
AcDbArc
 50
179.8829693302405
 51
213.4780580786804
  0
LINE
  5
21B
330
2
100
AcDbEntity
  8
0
100
AcDbLine
 10
34.38643993478922
 20
55.42014631425087
 30
0.0
 11
25.38643993477831
 21
55.42014631425087
 31
0.0
  0
ARC
  5
21C
330
2
100
AcDbEntity
  8
0
100
AcDbCircle
 10
64.02856525873881
 20
55.34010992524492
 30
0.0
 40
35.69518126343965
100
AcDbArc
 50
179.8715315986479
 51
206.0128613674904
  0
LINE
  5
21D
330
2
100
AcDbEntity
  8
0
100
AcDbLine
 10
24.88643993478922
 20
56.42014631425087
 30
0.0
 11
24.88643993478922
 21
55.92014631425087
 31
0.0
  0
ARC
  5
21E
330
2
100
AcDbEntity
  8
0
100
AcDbCircle
 10
25.38643993477831
 20
55.92014631425087
 30
0.0
 40
0.5
100
AcDbArc
 50
180.0
 51
270.0
  0
LINE
  5
21F
330
2
100
AcDbEntity
  8
0
100
AcDbLine
 10
34.88643993477831
 20
56.42014631425087
 30
0.0
 11
34.88643993477831
 21
55.92014631425087
 31
0.0
  0
ARC
  5
220
330
2
100
AcDbEntity
  8
0
100
AcDbCircle
 10
34.38643993478922
 20
55.92014631425087
 30
0.0
 40
0.5
100
AcDbArc
 50
270.0
 51
0.0
  0
ARC
  5
221
330
2
100
AcDbEntity
  8
0
100
AcDbCircle
 10
33.87270393477752
 20
40.17863131425182
 30
0.0
 40
0.7499080000000001
100
AcDbArc
 50
55.16127700000105
 51
175.3328050000016
  0
ARC
  5
222
330
2
100
AcDbEntity
  8
0
100
AcDbCircle
 10
37.28270893477542
 20
32.40442731424973
 30
0.0
 40
0.7499080000000001
100
AcDbArc
 50
249.5129820000002
 51
9.684509999999278
  0
ARC
  5
223
330
2
100
AcDbEntity
  8
0
100
AcDbCircle
 10
38.76115093477869
 20
32.65673031425176
 30
0.0
 40
0.7499080000000001
100
AcDbArc
 50
69.51298200000024
 51
189.6845099999992
  0
ARC
  5
224
330
2
100
AcDbEntity
  8
0
100
AcDbCircle
 10
66.18916193477867
 20
55.83150031425095
 30
0.0
 40
35.255792
100
AcDbArc
 50
213.8564239999993
 51
219.5987459999965
  0
ARC
  5
225
330
2
100
AcDbEntity
  8
0
100
AcDbCircle
 10
35.09947493477534
 20
35.39031231425092
 30
0.0
 40
0.7499080000000001
100
AcDbArc
 50
62.66289500000094
 51
182.8344229999968
  0
ARC
  5
226
330
2
100
AcDbEntity
  8
0
100
AcDbCircle
 10
33.60149393477854
 20
35.31614631425172
 30
0.0
 40
0.7499080000000001
100
AcDbArc
 50
242.6628950000009
 51
2.834422999996808
  0
ARC
  5
227
330
2
100
AcDbEntity
  8
0
100
AcDbCircle
 10
36.16250593477684
 20
36.15247931425078
 30
0.0
 40
0.7499080000000001
100
AcDbArc
 50
242.6628950000009
 51
2.834422999996808
  0
ARC
  5
228
330
2
100
AcDbEntity
  8
0
100
AcDbCircle
 10
37.66048793477762
 20
36.22664531425179
 30
0.0
 40
0.7499080000000001
100
AcDbArc
 50
62.66289500000094
 51
182.8344229999968
  0
ARC
  5
229
330
2
100
AcDbEntity
  8
0
100
AcDbCircle
 10
66.18916193477867
 20
55.83150031425095
 30
0.0
 40
37.855792
100
AcDbArc
 50
212.7486590000019
 51
219.5987459999965
  0
ARC
  5
22A
330
2
100
AcDbEntity
  8
0
100
AcDbCircle
 10
66.18916193477867
 20
55.83150031425095
 30
0.0
 40
36.555792
100
AcDbArc
 50
205.2470409999968
 51
213.8176429999978
  0
ARC
  5
22B
330
2
100
AcDbEntity
  8
0
100
AcDbCircle
 10
10.42656766932646
 20
118.5226280839458
 30
0.0
 40
30.21776684021192
100
AcDbArc
 50
272.7691355265055
 51
280.40961357857
  0
ARC
  5
22C
330
2
100
AcDbEntity
  8
0
100
AcDbCircle
 10
10.42656766932646
 20
54.31766454455379
 30
0.0
 40
30.21776684021463
100
AcDbArc
 50
79.59038642143004
 51
87.23086447349437
  0
LINE
  5
22D
330
2
100
AcDbEntity
  8
2
100
AcDbLine
 10
11.88643993477831
 20
88.34014631425095
 30
0.0
 11
11.88643993477831
 21
84.5001463142508
 31
0.0
  0
LINE
  5
22E
330
2
100
AcDbEntity
  8
0
100
AcDbLine
 10
17.88643993477831
 20
89.2401463142508
 30
0.0
 11
17.88643993477831
 21
83.60014631425178
 31
0.0
  0
LINE
  5
22F
330
2
100
AcDbEntity
  8
0
100
AcDbLine
 10
17.88643993477831
 20
89.2401463142508
 30
0.0
 11
17.88643993477831
 21
83.60014631425178
 31
0.0
  0
LINE
  5
230
330
2
100
AcDbEntity
  8
0
100
AcDbLine
 10
23.98643993477685
 20
65.52140897272176
 30
0.0
 11
24.88643993478922
 21
65.52140897272176
 31
0.0
  0
LINE
  5
231
330
2
100
AcDbEntity
  8
0
100
AcDbLine
 10
5.885730497689792
 20
89.2401463142508
 30
0.0
 11
5.385730497689792
 21
88.74014631425081
 31
0.0
  0
LINE
  5
232
330
2
100
AcDbEntity
  8
0
100
AcDbLine
 10
5.385730497689792
 20
84.10014631425184
 30
0.0
 11
5.885730497689792
 21
83.60014631425178
 31
0.0
  0
LINE
  5
233
330
2
100
AcDbEntity
  8
0
100
AcDbLine
 10
5.385730497689792
 20
88.74014631425081
 30
0.0
 11
5.385730497689792
 21
84.10014631425184
 31
0.0
  0
LINE
  5
234
330
2
100
AcDbEntity
  8
2
100
AcDbLine
 10
5.885730497689792
 20
89.2401463142508
 30
0.0
 11
5.885730497689792
 21
83.60014631425178
 31
0.0
  0
LINE
  5
235
330
2
100
AcDbEntity
  8
0
100
AcDbLine
 10
5.885730497689792
 20
89.2401463142508
 30
0.0
 11
15.8864399347783
 21
89.2401463142508
 31
0.0
  0
LINE
  5
236
330
2
100
AcDbEntity
  8
CEN
 48
0.6
100
AcDbLine
 10
3.386439934778309
 20
88.72964631425094
 30
0.0
 11
18.8864399347783
 21
88.72964631425094
 31
0.0
  0
LINE
  5
237
330
2
100
AcDbEntity
  8
0
100
AcDbLine
 10
5.385730497689792
 20
88.34014631425095
 30
0.0
 11
11.88643993477831
 21
88.34014631425095
 31
0.0
  0
LINE
  5
238
330
2
100
AcDbEntity
  8
0
100
AcDbLine
 10
5.885730497689792
 20
83.60014631425178
 30
0.0
 11
15.8864399347783
 21
83.60014631425178
 31
0.0
  0
LINE
  5
239
330
2
100
AcDbEntity
  8
CEN
 48
0.6
100
AcDbLine
 10
3.386439934778309
 20
84.11064631425171
 30
0.0
 11
18.8864399347783
 21
84.11064631425171
 31
0.0
  0
LINE
  5
23A
330
2
100
AcDbEntity
  8
0
100
AcDbLine
 10
5.385730497689792
 20
84.5001463142508
 30
0.0
 11
11.88643993477831
 21
84.5001463142508
 31
0.0
  0
LINE
  5
23B
330
2
100
AcDbEntity
  8
2
100
AcDbLine
 10
9.886439934778309
 20
88.34014631425095
 30
0.0
 11
5.386439934778309
 21
86.06682962931797
 31
0.0
  0
LINE
  5
23C
330
2
100
AcDbEntity
  8
2
100
AcDbLine
 10
11.88643993477831
 20
88.34014631425095
 30
0.0
 11
5.386439934778309
 21
84.90010096032989
 31
0.0
  0
LINE
  5
23D
330
2
100
AcDbEntity
  8
2
100
AcDbLine
 10
11.88643993477831
 20
87.18544577587072
 30
0.0
 11
6.735364833717312
 21
84.5001463142508
 31
0.0
  0
LINE
  5
23E
330
2
100
AcDbEntity
  8
0
100
AcDbLine
 10
23.98643993477685
 20
57.8214089727208
 30
0.0
 11
24.88643993478922
 21
57.8214089727208
 31
0.0
  0
LINE
  5
23F
330
2
100
AcDbEntity
  8
0
100
AcDbLine
 10
17.88643993477831
 20
59.42014631425087
 30
0.0
 11
15.8864399347783
 21
59.42014631425087
 31
0.0
  0
LINE
  5
240
330
2
100
AcDbEntity
  8
0
100
AcDbLine
 10
17.88643993477831
 20
56.42014631425087
 30
0.0
 11
23.98643993477685
 21
56.42014631425087
 31
0.0
  0
LINE
  5
241
330
2
100
AcDbEntity
  8
0
100
AcDbLine
 10
24.88643993478922
 20
65.52140897272176
 30
0.0
 11
24.88643993478922
 21
57.8214089727208
 31
0.0
  0
ARC
  5
242
330
2
100
AcDbEntity
  8
0
100
AcDbCircle
 10
32.37786093477712
 20
40.30066831425078
 30
0.0
 40
0.7499080000000001
100
AcDbArc
 50
235.1612770000011
 51
355.3328050000017
  0
LINE
  5
243
330
2
100
AcDbEntity
  8
0
100
AcDbLine
 10
91.88643993477819
 20
57.92014631425178
 30
0.0
 11
85.8864399347891
 21
57.92014631425178
 31
0.0
  0
LINE
  5
244
330
2
100
AcDbEntity
  8
0
100
AcDbLine
 10
92.88643993477819
 20
58.92014631425087
 30
0.0
 11
91.88643993477819
 21
57.92014631425178
 31
0.0
  0
ARC
  5
245
330
2
100
AcDbEntity
  8
0
100
AcDbCircle
 10
-43.4415668170825
 20
111.4201463142508
 30
0.0
 40
5.0
100
AcDbArc
 50
0.0
 51
90.0
  0
LINE
  5
246
330
2
100
AcDbEntity
  8
CEN
 48
0.6
100
AcDbLine
 10
-46.69803329559203
 20
108.1636798357378
 30
0.0
 11
-40.68762565550992
 21
114.1740874758236
 31
0.0
  0
ARC
  5
247
330
2
100
AcDbEntity
  8
0
100
AcDbCircle
 10
-43.4415668170825
 20
111.4201463142508
 30
0.0
 40
4.0
100
AcDbArc
 50
0.0
 51
90.0
  0
CIRCLE
  5
248
330
2
100
AcDbEntity
  8
0
100
AcDbCircle
 10
-43.69282947555098
 20
111.1688836557807
 30
0.0
 40
2.25
  0
ARC
  5
249
330
2
100
AcDbEntity
  8
0
100
AcDbCircle
 10
-61.13686934953353
 20
109.2814978689498
 30
0.0
 40
2.0
100
AcDbArc
 50
252.2801918471949
 51
308.0513255193868
  0
ARC
  5
24A
330
2
100
AcDbEntity
  8
0
100
AcDbCircle
 10
-58.67140083875188
 20
106.1316621553999
 30
0.0
 40
2.0
100
AcDbArc
 50
63.63432749678904
 51
128.0513255193867
  0
ARC
  5
24B
330
2
100
AcDbEntity
  8
0
100
AcDbCircle
 10
-68.4415668170825
 20
86.42014631425082
 30
0.0
 40
24.0
100
AcDbArc
 50
26.36567250321681
 51
63.63432749678904
  0
ARC
  5
24C
102
{ACAD_REACTORS
330
292
102
}
330
2
100
AcDbEntity
  8
CEN
 48
0.6
100
AcDbCircle
 10
-68.4415668170825
 20
86.42014631425082
 30
0.0
 40
35.0
100
AcDbArc
 50
21.71935007261406
 51
51.18655059757116
  0
DIMENSION
  5
24D
102
{ACAD_XDICTIONARY
360
24E
102
}
102
{ACAD_REACTORS
330
24F
102
}
330
2
100
AcDbEntity
  8
0
100
AcDbDimension
  2
*D34
 10
24.88643993478922
 20
125.6284796475847
 30
0.0
 11
21.38643993477831
 21
125.6284796475847
 31
0.0
 70
   160
  3
STANDARD
100
AcDbAlignedDimension
 13
17.88643993477831
 23
125.6284796475838
 33
0.0
 14
24.88643993478922
 24
115.0188836557797
 34
0.0
100
AcDbRotatedDimension
  0
LINE
  5
25C
330
2
100
AcDbEntity
  8
0
100
AcDbLine
 10
85.8864399347891
 20
116.4201463142508
 30
0.0
 11
23.98643993477685
 21
116.4201463142508
 31
0.0
  0
DIMENSION
  5
25D
102
{ACAD_XDICTIONARY
360
25E
102
}
102
{ACAD_REACTORS
330
25F
102
}
330
2
100
AcDbEntity
  8
0
100
AcDbDimension
  2
*D33
 10
17.88643993477831
 20
125.6284796475847
 30
0.0
 11
8.886439934778309
 21
125.6284796475847
 31
0.0
 70
   160
  3
STANDARD
100
AcDbAlignedDimension
 13
15.8864399347783
 23
113.4201463142508
 33
0.0
 14
17.88643993477831
 24
116.4201463142508
 34
0.0
100
AcDbRotatedDimension
  0
LINE
  5
26E
102
{ACAD_REACTORS
330
24F
102
}
330
2
100
AcDbEntity
  8
0
100
AcDbLine
 10
23.98643993477685
 20
115.0188836557797
 30
0.0
 11
24.88643993478922
 21
115.0188836557797
 31
0.0
  0
LINE
  5
26F
330
2
100
AcDbEntity
  8
0
100
AcDbLine
 10
23.98643993477685
 20
107.3188836557808
 30
0.0
 11
24.88643993478922
 21
107.3188836557808
 31
0.0
  0
LINE
  5
270
330
2
100
AcDbEntity
  8
0
100
AcDbLine
 10
24.88643993478922
 20
107.3188836557808
 30
0.0
 11
24.88643993478922
 21
115.0188836557797
 31
0.0
  0
LINE
  5
271
330
2
100
AcDbEntity
  8
0
100
AcDbLine
 10
17.88643993477831
 20
113.4201463142508
 30
0.0
 11
15.8864399347783
 21
113.4201463142508
 31
0.0
  0
LINE
  5
272
330
2
100
AcDbEntity
  8
0
100
AcDbLine
 10
17.88643993477831
 20
116.4201463142508
 30
0.0
 11
23.98643993477685
 21
116.4201463142508
 31
0.0
  0
LINE
  5
273
330
2
100
AcDbEntity
  8
0
100
AcDbLine
 10
91.88643993477819
 20
114.9201463142508
 30
0.0
 11
85.8864399347891
 21
114.9201463142508
 31
0.0
  0
LINE
  5
274
330
2
100
AcDbEntity
  8
0
100
AcDbLine
 10
92.88643993477819
 20
113.9201463142508
 30
0.0
 11
91.88643993477819
 21
114.9201463142508
 31
0.0
  0
ARC
  5
275
330
2
100
AcDbEntity
  8
0
100
AcDbCircle
 10
-88.15308265823318
 20
96.19031229258183
 30
0.0
 40
2.0
100
AcDbArc
 50
153.634327496783
 51
218.0513255193776
  0
LINE
  5
276
102
{ACAD_REACTORS
330
2A8
102
}
330
2
100
AcDbEntity
  8
0
100
AcDbLine
 10
-98.4415668170825
 20
111.4201463142508
 30
0.0
 11
-98.4415668170825
 21
61.42014631425178
 31
0.0
  0
LINE
  5
277
330
2
100
AcDbEntity
  8
0
100
AcDbLine
 10
-97.4415668170825
 20
111.4201463142508
 30
0.0
 11
-97.4415668170825
 21
61.42014631425178
 31
0.0
  0
LINE
  5
278
102
{ACAD_REACTORS
330
A0
102
}
330
2
100
AcDbEntity
  8
CEN
 48
0.6
100
AcDbLine
 10
-68.4415668170825
 20
51.42014631425086
 30
0.0
 11
-68.4415668170825
 21
121.4201463142508
 31
0.0
  0
CIRCLE
  5
279
330
2
100
AcDbEntity
  8
0
100
AcDbCircle
 10
-68.4415668170825
 20
86.42014631425082
 30
0.0
 40
2.000000000000054
  0
CIRCLE
  5
27A
330
2
100
AcDbEntity
  8
0
100
AcDbCircle
 10
-68.4415668170825
 20
86.42014631425082
 30
0.0
 40
3.000000000000055
  0
ARC
  5
27B
330
2
100
AcDbEntity
  8
0
100
AcDbCircle
 10
-78.21173279540949
 20
66.70863047310087
 30
0.0
 40
2.0
100
AcDbArc
 50
243.634327496789
 51
308.0513255193868
  0
ARC
  5
27C
330
2
100
AcDbEntity
  8
0
100
AcDbCircle
 10
-75.74626428462057
 20
63.55879475955095
 30
0.0
 40
2.0
100
AcDbArc
 50
72.28019184719491
 51
128.0513255193867
  0
ARC
  5
27D
330
2
100
AcDbEntity
  8
0
100
AcDbCircle
 10
-91.30291837178289
 20
93.72484378180189
 30
0.0
 40
2.0
100
AcDbArc
 50
342.2801918472013
 51
38.05132551937779
  0
ARC
  5
27E
330
2
100
AcDbEntity
  8
0
100
AcDbCircle
 10
-91.30291837178289
 20
79.11544884670075
 30
0.0
 40
2.0
100
AcDbArc
 50
321.9486744806221
 51
17.71980815279839
  0
ARC
  5
27F
330
2
100
AcDbEntity
  8
0
100
AcDbCircle
 10
-88.15308265823318
 20
76.6499803359207
 30
0.0
 40
2.0
100
AcDbArc
 50
141.9486744806222
 51
206.3656725032168
  0
ARC
  5
280
330
2
100
AcDbEntity
  8
0
100
AcDbCircle
 10
-68.4415668170825
 20
86.42014631425082
 30
0.0
 40
22.0
100
AcDbArc
 50
162.2801918472015
 51
197.7198081527984
  0
ARC
  5
281
330
2
100
AcDbEntity
  8
0
100
AcDbCircle
 10
-93.4415668170825
 20
61.42014631425178
 30
0.0
 40
5.0
100
AcDbArc
 50
180.0
 51
270.0
  0
ARC
  5
282
330
2
100
AcDbEntity
  8
0
100
AcDbCircle
 10
-93.4415668170825
 20
61.42014631425178
 30
0.0
 40
4.0
100
AcDbArc
 50
180.0
 51
270.0
  0
CIRCLE
  5
283
330
2
100
AcDbEntity
  8
0
100
AcDbCircle
 10
-93.19030415861039
 20
61.67140897272185
 30
0.0
 40
2.25
  0
ARC
  5
284
330
2
100
AcDbEntity
  8
0
100
AcDbCircle
 10
-68.4415668170825
 20
86.42014631425082
 30
0.0
 40
24.0
100
AcDbArc
 50
206.3656725032168
 51
243.634327496789
  0
LINE
  5
285
330
2
100
AcDbEntity
  8
CEN
 48
0.6
100
AcDbLine
 10
-90.18510033856205
 20
64.67661279276473
 30
0.0
 11
-96.19550797865144
 21
58.66620515267874
 31
0.0
  0
ARC
  5
286
330
2
100
AcDbEntity
  8
CEN
 48
0.6
100
AcDbCircle
 10
-68.4415668170825
 20
86.42014631425082
 30
0.0
 40
35.0
100
AcDbArc
 50
199.5241366191914
 51
231.1865505975711
  0
LWPOLYLINE
  5
287
330
2
100
AcDbEntity
  8
3
100
AcDbPolyline
 90
        4
 70
     1
 43
0.0
 10
-75.38983023000241
 20
130.8113304738808
 10
-72.08983022999951
 20
130.8113304738808
 10
-72.08983022999951
 20
134.3113304738808
 10
-75.38983023000241
 20
134.3113304738808
  0
ARC
  5
288
330
2
100
AcDbEntity
  8
0
100
AcDbCircle
 10
-78.21173279540949
 20
106.1316621553999
 30
0.0
 40
2.0
100
AcDbArc
 50
51.94867448061305
 51
116.3656725032109
  0
ARC
  5
289
330
2
100
AcDbEntity
  8
0
100
AcDbCircle
 10
-75.74626428462057
 20
109.2814978689498
 30
0.0
 40
2.0
100
AcDbArc
 50
231.948674480613
 51
287.7198081528051
  0
ARC
  5
28A
330
2
100
AcDbEntity
  8
0
100
AcDbCircle
 10
-93.4415668170825
 20
111.4201463142508
 30
0.0
 40
5.0
100
AcDbArc
 50
90.0
 51
180.0
  0
ARC
  5
28B
330
2
100
AcDbEntity
  8
CEN
 48
0.6
100
AcDbCircle
 10
-68.4415668170825
 20
86.42014631425082
 30
0.0
 40
35.0
100
AcDbArc
 50
124.6885525890122
 51
145.106569353258
  0
LINE
  5
28C
330
2
100
AcDbEntity
  8
CEN
 48
0.6
100
AcDbLine
 10
-90.18510033856205
 20
108.1636798357378
 30
0.0
 11
-96.19550797865144
 21
114.1740874758236
 31
0.0
  0
ARC
  5
28D
330
2
100
AcDbEntity
  8
0
100
AcDbCircle
 10
-93.4415668170825
 20
111.4201463142508
 30
0.0
 40
4.0
100
AcDbArc
 50
90.0
 51
180.0
  0
CIRCLE
  5
28E
330
2
100
AcDbEntity
  8
0
100
AcDbCircle
 10
-93.19030415861039
 20
111.1688836557807
 30
0.0
 40
2.25
  0
ARC
  5
28F
330
2
100
AcDbEntity
  8
0
100
AcDbCircle
 10
-68.4415668170825
 20
86.42014631425082
 30
0.0
 40
24.0
100
AcDbArc
 50
116.3656725032109
 51
153.634327496783
  0
DIMENSION
  5
290
102
{ACAD_XDICTIONARY
360
291
102
}
102
{ACAD_REACTORS
330
292
102
}
330
2
100
AcDbEntity
  8
0
100
AcDbDimension
  2
*D32
 10
-98.18347772721086
 20
67.96970633539139
 30
0.0
 11
-24.07149156132878
 21
113.9451904459974
 31
0.0
 70
   163
  1
<>%%p0.5
  3
STANDARD
100
AcDbDiametricDimension
 15
-38.69965590694815
 25
104.8705862931139
 35
0.0
 40
0.0
  0
CIRCLE
  5
29E
330
2
100
AcDbEntity
  8
0
100
AcDbCircle
 10
-68.4415668170825
 20
86.42014631425082
 30
0.0
 40
13.0
  0
CIRCLE
  5
29F
330
2
100
AcDbEntity
  8
0
100
AcDbCircle
 10
-68.4415668170825
 20
86.42014631425082
 30
0.0
 40
27.00000000000005
  0
CIRCLE
  5
2A0
330
2
100
AcDbEntity
  8
0
100
AcDbCircle
 10
-68.4415668170825
 20
86.42014631425082
 30
0.0
 40
28.5
  0
ARC
  5
2A1
330
2
100
AcDbEntity
  8
0
100
AcDbCircle
 10
-68.4415668170825
 20
86.42014631425082
 30
0.0
 40
22.0
100
AcDbArc
 50
252.2801918471949
 51
287.7198081528051
  0
LINE
  5
2A2
330
2
100
AcDbEntity
  8
CEN
 48
0.6
100
AcDbLine
 10
-103.4415668170824
 20
86.42014631425082
 30
0.0
 11
-33.4415668170825
 21
86.42014631425082
 31
0.0
  0
LINE
  5
2A3
330
2
100
AcDbEntity
  8
0
100
AcDbLine
 10
-93.4415668170825
 20
56.42014631425087
 30
0.0
 11
-43.4415668170825
 21
56.42014631425087
 31
0.0
  0
LINE
  5
2A4
330
2
100
AcDbEntity
  8
0
100
AcDbLine
 10
-93.4415668170825
 20
57.42014631425087
 30
0.0
 11
-43.4415668170825
 21
57.42014631425087
 31
0.0
  0
LINE
  5
2A5
102
{ACAD_REACTORS
330
A0
102
}
330
2
100
AcDbEntity
  8
CEN
  6
CENTER
 62
     1
 48
0.6
100
AcDbLine
 10
-68.4415668170825
 20
86.42014631425082
 30
0.0
 11
-55.14815819892305
 21
54.32701893812287
 31
0.0
  0
DIMENSION
  5
2A6
102
{ACAD_XDICTIONARY
360
2A7
102
}
102
{ACAD_REACTORS
330
2A8
102
}
330
2
100
AcDbEntity
  8
0
100
AcDbDimension
  2
*D31
 10
-38.4415668170825
 20
130.0712441085568
 30
0.0
 11
-68.77230557674034
 21
130.0712441085568
 31
0.0
 70
   160
  1
60
  3
STANDARD
100
AcDbAlignedDimension
 13
-98.4415668170825
 23
111.4201463142508
 33
0.0
 14
-38.4415668170825
 24
111.4201463142508
 34
0.0
100
AcDbRotatedDimension
  0
ARC
  5
2B5
330
2
100
AcDbEntity
  8
0
100
AcDbCircle
 10
-68.4415668170825
 20
86.42014631425082
 30
0.0
 40
22.0
100
AcDbArc
 50
72.28019184719491
 51
107.719808152805
  0
LINE
  5
2B6
330
2
100
AcDbEntity
  8
0
100
AcDbLine
 10
-93.4415668170825
 20
116.4201463142508
 30
0.0
 11
-43.4415668170825
 21
116.4201463142508
 31
0.0
  0
LINE
  5
2B7
330
2
100
AcDbEntity
  8
0
100
AcDbLine
 10
-93.4415668170825
 20
115.4201463142508
 30
0.0
 11
-43.4415668170825
 21
115.4201463142508
 31
0.0
  0
DIMENSION
  5
2B8
330
2
100
AcDbEntity
  8
0
100
AcDbDimension
  2
*D30
 10
17.88643993477831
 20
135.5705185325477
 30
0.0
 11
11.63643993478922
 21
135.5705185325477
 31
0.0
 70
   160
  3
STANDARD
100
AcDbAlignedDimension
 13
5.385730497689792
 23
88.74014631425081
 33
0.0
 14
17.88643993477831
 24
116.4201463142508
 34
0.0
100
AcDbRotatedDimension
  0
DIMENSION
  5
2C5
102
{ACAD_XDICTIONARY
360
2C6
102
}
102
{ACAD_REACTORS
330
2C7
102
}
330
2
100
AcDbEntity
  8
0
100
AcDbDimension
  2
*D29
 10
92.88643993477819
 20
135.5705185325477
 30
0.0
 11
55.38643993478922
 21
135.5705185325477
 31
0.0
 70
   160
  3
STANDARD
100
AcDbAlignedDimension
 13
17.88643993477831
 23
135.5705185325477
 33
0.0
 14
92.88643993477819
 24
113.9201463142508
 34
0.0
100
AcDbRotatedDimension
  0
ENDSEC
  0
SECTION
  2
OBJECTS
  0
DICTIONARY
  5
8
330
0
100
AcDbDictionary
  3
ACAD_GROUP
350
97
  3
ACAD_LAYOUT
350
C
  3
ACAD_MLINESTYLE
350
98
  3
ACAD_PLOTSETTINGS
350
99
  3
ACAD_PLOTSTYLENAME
350
7
  3
ACDBHEADERROUNDTRIPXREC
350
726
  3
ACDBVARIABLEDICTIONARY
350
2D4
  0
DICTIONARY
  5
13
330
12
100
AcDbDictionary
280
     1
  3
ACAD_LAYERFILTERS
360
14
  3
ACAD_LAYERSTATES
360
87
  0
DICTIONARY
  5
3
330
2
100
AcDbDictionary
280
     1
  3
ACAD_LAYOUTSELFREF
360
747
  0
DICTIONARY
  5
E
330
D
100
AcDbDictionary
280
     1
  3
ACAD_LAYOUTSELFREF
360
748
  0
DICTIONARY
  5
9F
330
9E
100
AcDbDictionary
280
     1
  3
ACAD_DIMASSOC
360
A0
  0
DICTIONARY
  5
BA
330
B9
100
AcDbDictionary
280
     1
  3
ACAD_DIMASSOC
360
BB
  0
DICTIONARY
  5
CB
330
CA
100
AcDbDictionary
280
     1
  3
ACAD_DIMASSOC
360
CC
  0
DICTIONARY
  5
F2
330
F1
100
AcDbDictionary
280
     1
  3
ACAD_DIMASSOC
360
F3
  0
DICTIONARY
  5
106
330
105
100
AcDbDictionary
280
     1
  3
ACAD_DIMASSOC
360
107
  0
DICTIONARY
  5
16E
330
16D
100
AcDbDictionary
280
     1
  3
ACAD_DIMASSOC
360
16F
  0
DICTIONARY
  5
191
330
190
100
AcDbDictionary
280
     1
  3
ACAD_DIMASSOC
360
192
  0
DICTIONARY
  5
1A2
330
1A1
100
AcDbDictionary
280
     1
  3
ACAD_DIMASSOC
360
1A3
  0
DICTIONARY
  5
1C5
330
1C4
100
AcDbDictionary
280
     1
  3
ACAD_DIMASSOC
360
1C6
  0
DICTIONARY
  5
1D4
330
1D3
100
AcDbDictionary
280
     1
  3
ACAD_DIMASSOC
360
1D5
  0
DICTIONARY
  5
1E9
330
1E8
100
AcDbDictionary
280
     1
  3
ACAD_DIMASSOC
360
1EA
  0
DICTIONARY
  5
24E
330
24D
100
AcDbDictionary
280
     1
  3
ACAD_DIMASSOC
360
24F
  0
DICTIONARY
  5
25E
330
25D
100
AcDbDictionary
280
     1
  3
ACAD_DIMASSOC
360
25F
  0
DICTIONARY
  5
291
330
290
100
AcDbDictionary
280
     1
  3
ACAD_DIMASSOC
360
292
  0
DICTIONARY
  5
2A7
330
2A6
100
AcDbDictionary
280
     1
  3
ACAD_DIMASSOC
360
2A8
  0
DICTIONARY
  5
2C6
330
2C5
100
AcDbDictionary
280
     1
  3
ACAD_DIMASSOC
360
2C7
  0
DICTIONARY
  5
97
102
{ACAD_REACTORS
330
8
102
}
330
8
100
AcDbDictionary
  0
DICTIONARY
  5
C
102
{ACAD_REACTORS
330
8
102
}
330
8
100
AcDbDictionary
  0
DICTIONARY
  5
98
102
{ACAD_REACTORS
330
8
102
}
330
8
100
AcDbDictionary
  3
STANDARD
350
9A
  0
DICTIONARY
  5
99
102
{ACAD_REACTORS
330
8
102
}
330
8
100
AcDbDictionary
  0
ACDBDICTIONARYWDFLT
  5
7
102
{ACAD_REACTORS
330
8
102
}
330
8
100
AcDbDictionary
281
     1
  3
Normal
350
6
100
AcDbDictionaryWithDefault
340
6
  0
DICTIONARY
  5
726
102
{ACAD_REACTORS
330
8
102
}
330
8
100
AcDbDictionary
  3
CEPSNTYPE
350
730
  3
DIMSTYLEDATA
350
734
  3
FINGERPRINTGUID
350
731
  3
HYPERLINKBASE
350
729
  3
INSUNITS
350
72F
  3
LAYOUTDICT
350
72B
  3
LWETCUNION
350
72E
  3
PLOTSETDICT
350
72C
  3
PLOTSTYLNAMDICT
350
72D
  3
PSVPSCALE
350
733
  3
PUCSBASE
350
737
  3
PUCSORGBACK
350
73D
  3
PUCSORGBOTTOM
350
739
  3
PUCSORGFRONT
350
73C
  3
PUCSORGLEFT
350
73A
  3
PUCSORGRIGHT
350
73B
  3
PUCSORGTOP
350
738
  3
PUCSORTHOREF
350
735
  3
PUCSORTHOVIEW
350
736
  3
STYLESHEET
350
72A
  3
TSTACKALIGN
350
727
  3
TSTACKSIZE
350
728
  3
UCSBASE
350
740
  3
UCSORGBACK
350
746
  3
UCSORGBOTTOM
350
742
  3
UCSORGFRONT
350
745
  3
UCSORGLEFT
350
743
  3
UCSORGRIGHT
350
744
  3
UCSORGTOP
350
741
  3
UCSORTHOREF
350
73E
  3
UCSORTHOVIEW
350
73F
  3
VERSIONGUID
350
732
  0
DICTIONARY
  5
2D4
102
{ACAD_REACTORS
330
8
102
}
330
8
100
AcDbDictionary
  3
DIMASSOC
350
2D6
  3
HIDETEXT
350
2D5
  0
DICTIONARY
  5
14
102
{ACAD_REACTORS
330
13
102
}
330
13
100
AcDbDictionary
280
     1
  3
$LAYERS
360
15
  3
-_UND_0
360
16
  3
-PEGC
360
17
  3
101
360
18
  3
102
360
19
  3
1DUC
360
1A
  3
1EQ
360
1B
  3
1TUB
360
1C
  3
2
360
1D
  3
2000
360
1E
  3
50
360
1F
  3
58J
360
20
  3
65
360
21
  3
AA
360
22
  3
ACABADOS
360
23
  3
AGUA_Y_DREN
360
24
  3
AIRE
360
25
  3
ALLE_AUS
360
26
  3
ALLES_MIT_S
360
27
  3
AMARILLO
360
28
  3
APAGADOS
360
29
  3
ARR
360
2A
  3
BA
360
2B
  3
BACKS
360
2C
  3
BASE
360
2D
  3
BLOQ_INUTIL
360
2E
  3
CADKON
360
2F
  3
CARPINTERIA
360
30
  3
CERRADOS
360
31
  3
COL
360
32
  3
COLOR
360
33
  3
COLOR_250
360
34
  3
COLORES
360
35
  3
CONGELADOS
360
36
  3
CONJUNTO
360
37
  3
D1
360
38
  3
DA_
360
39
  3
DET-
360
3A
  3
DOR-H
360
3B
  3
EJES
360
3C
  3
ELECTRICO
360
3D
  3
F1
360
3E
  3
FROZEN
360
3F
  3
GRID
360
40
  3
GRIDTXT
360
41
  3
HATCH
360
42
  3
HCAD
360
43
  3
INSTALACIONES
360
44
  3
JIZNI
360
45
  3
KCK
360
46
  3
KKK
360
47
  3
LAY
360
48
  3
LAYER-0
360
4C
  3
LAYER-1
360
4D
  3
LAYER_1_UND_0
360
49
  3
LAYER_2_UND_0
360
4A
  3
LAYER_9_UND_0_SCHRAFFUR
360
4B
  3
LOCK
360
4E
  3
LOCKED
360
4F
  3
LOTES
360
50
  3
LUNAR
360
51
  3
LUNAR2
360
52
  3
M
360
53
  3
MIS_LAYERS
360
54
  3
MRKCK
360
55
  3
NECADKON
360
56
  3
NI_LH
360
57
  3
NI_RH
360
58
  3
NUM
360
59
  3
OFF
360
5A
  3
ON
360
5B
  3
PBASE
360
5C
  3
PEGC
360
5D
  3
PEGCT
360
5E
  3
PFRAME
360
5F
  3
PGRID
360
60
  3
PGRIDT
360
61
  3
PLAFONES
360
62
  3
PLANTAS
360
63
  3
PLOT
360
64
  3
PRENDIDAS
360
65
  3
PRENDIDOS
360
66
  3
PRINT
360
67
  3
PT
360
68
  3
PTH
360
69
  3
PVGRID
360
6A
  3
RED_DE_AGUA_POTABLE
360
6B
  3
RED_DE_ENERGIA_ELECTRICA
360
6C
  3
SEVERNI
360
6D
  3
SHIN
360
6E
  3
SHOW_ALL_LAYER
360
6F
  3
SIN
360
70
  3
STORAGE-CART
360
71
  3
T
360
72
  3
TEXTOS
360
73
  3
TEXTURAS
360
74
  3
TUBERIAS
360
75
  3
UNFRZ
360
76
  3
V\U+0160ECHNY_NEPOU\U+017D\U+00CDVAN\U+00C9
360
77
  3
VA
360
78
  3
VENTILACI\U+00D3N
360
79
  3
VYHODNI
360
7A
  3
YO
360
7B
  3
ZAPADNI
360
7C
  3
사용
360
7D
  3
신규
360
7E
  3
실박스
360
7F
  3
우리토목
360
80
  3
주차
360
81
  3
지상정밀
360
82
  3
쩜선
360
83
  3
플로터_작업층
360
84
  3
현재_작업층
360
85
  3
현재_잠금
360
86
  0
DICTIONARY
  5
87
102
{ACAD_REACTORS
330
13
102
}
330
13
100
AcDbDictionary
  0
XRECORD
  5
747
102
{ACAD_REACTORS
330
3
102
}
330
3
100
AcDbXrecord
340
2
  0
XRECORD
  5
748
102
{ACAD_REACTORS
330
E
102
}
330
E
100
AcDbXrecord
340
D
  0
DIMASSOC
  5
A0
102
{ACAD_REACTORS
330
9F
102
}
330
9F
100
AcDbDimAssoc
330
9E
 90
       15
 70
     0
 71
     0
  1
AcDbOsnapPointRef
 72
    13
331
2A5
 73
     2
 91
        0
 40
0.0
 10
-68.4415668170825
 20
86.42014631425082
 30
0.0
 75
     0
  1
AcDbOsnapPointRef
 72
     1
331
2A5
 73
     2
 91
        0
 40
1.0
 10
-55.14815819892305
 20
54.32701893812287
 30
0.0
 75
     0
  1
AcDbOsnapPointRef
 72
    13
331
278
 73
     2
 91
        0
 40
0.0
 10
-68.4415668170825
 20
51.42014631425086
 30
0.0
 75
     0
  1
AcDbOsnapPointRef
 72
     1
331
278
 73
     2
 91
        0
 40
1.0
 10
-68.4415668170825
 20
121.4201463142508
 30
0.0
 75
     0
  0
DIMASSOC
  5
BB
102
{ACAD_REACTORS
330
BA
102
}
330
BA
100
AcDbDimAssoc
330
B9
 90
       15
 70
     0
 71
     0
  1
AcDbOsnapPointRef
 72
    13
331
11F
 73
     2
 91
        0
 40
0.0
 10
-75.30102110298162
 20
-84.2139277772803
 30
0.0
 75
     0
  1
AcDbOsnapPointRef
 72
     1
331
11F
 73
     2
 91
        0
 40
1.0
 10
-62.00761248482217
 20
-116.3070551534102
 30
0.0
 75
     0
  1
AcDbOsnapPointRef
 72
    13
331
DF
 73
     2
 91
        0
 40
0.0
 10
-75.30102110298162
 20
-119.2139277772822
 30
0.0
 75
     0
  1
AcDbOsnapPointRef
 72
     1
331
DF
 73
     2
 91
        0
 40
1.0
 10
-75.30102110298162
 20
-49.21392777728121
 30
0.0
 75
     0
  0
DIMASSOC
  5
CC
102
{ACAD_REACTORS
330
CB
102
}
330
CB
100
AcDbDimAssoc
330
CA
 90
        2
 70
     0
 71
     0
  1
AcDbOsnapPointRef
 72
     3
331
17F
 73
     2
 91
        0
 40
0.0
 10
-75.30102110299253
 20
-84.2139277772803
 30
0.0
 75
     0
  0
DIMASSOC
  5
F3
102
{ACAD_REACTORS
330
F2
102
}
330
F2
100
AcDbDimAssoc
330
F1
 90
        3
 70
     0
 71
     0
  1
AcDbOsnapPointRef
 72
    13
331
101
 73
     2
 91
        0
 40
0.0
 10
26.30693842575942
 20
-57.21392777728119
 30
0.0
 75
     0
  1
AcDbOsnapPointRef
 72
     1
331
101
 73
     2
 91
        0
 40
1.0
 10
26.30693842575942
 20
-111.2139277772822
 30
0.0
 75
     0
  0
DIMASSOC
  5
107
102
{ACAD_REACTORS
330
106
102
}
330
106
100
AcDbDimAssoc
330
105
 90
        3
 70
     0
 71
     0
  1
AcDbOsnapPointRef
 72
     1
331
115
 73
     2
 91
        0
 40
1.0
 10
96.30693842575931
 20
-54.21392777728232
 30
0.0
 75
     0
  1
AcDbOsnapPointRef
 72
    13
331
147
 73
     2
 91
        0
 40
0.0
 10
96.30693842575931
 20
-114.2139277772822
 30
0.0
 75
     0
  0
DIMASSOC
  5
16F
102
{ACAD_REACTORS
330
16E
102
}
330
16E
100
AcDbDimAssoc
330
16D
 90
        3
 70
     0
 71
     0
  1
AcDbOsnapPointRef
 72
    13
331
DC
 73
     2
 91
        0
 40
0.0
 10
-105.3010211029816
 20
-59.21392777728029
 30
0.0
 75
     0
  1
AcDbOsnapPointRef
 72
    13
331
104
 73
     2
 91
        0
 40
0.0
 10
-45.30102110298162
 20
-59.21392777728029
 30
0.0
 75
     0
  0
DIMASSOC
  5
192
102
{ACAD_REACTORS
330
191
102
}
330
191
100
AcDbDimAssoc
330
190
 90
        3
 70
     0
 71
     0
  1
AcDbOsnapPointRef
 72
    13
331
101
 73
     2
 91
        0
 40
0.0
 10
26.30693842575942
 20
-57.21392777728119
 30
0.0
 75
     0
  1
AcDbOsnapPointRef
 72
    13
331
100
 73
     2
 91
        0
 40
0.0
 10
28.30693842575943
 20
-54.21392777728029
 30
0.0
 75
     0
  0
DIMASSOC
  5
1A3
102
{ACAD_REACTORS
330
1A2
102
}
330
1A2
100
AcDbDimAssoc
330
1A1
 90
        2
 70
     0
 71
     0
  1
AcDbOsnapPointRef
 72
     1
331
1B3
 73
     2
 91
        0
 40
1.0
 10
35.30693842575942
 20
-55.61519043575136
 30
0.0
 75
     0
  0
DIMASSOC
  5
1C6
102
{ACAD_REACTORS
330
1C5
102
}
330
1C5
100
AcDbDimAssoc
330
1C4
 90
        2
 70
     0
 71
     0
  1
AcDbOsnapPointRef
 72
    13
331
116
 73
     2
 91
        0
 40
0.0
 10
103.3069384257593
 20
-56.71392777728232
 30
0.0
 75
     0
  0
DIMASSOC
  5
1D5
102
{ACAD_REACTORS
330
1D4
102
}
330
1D4
100
AcDbDimAssoc
330
1D3
 90
        3
 70
     0
 71
     0
  1
AcDbOsnapPointRef
 72
    13
331
1E3
 73
     2
 91
        0
 40
0.0
 10
15.8864399347783
 20
113.4201463142508
 30
0.0
 75
     0
  1
AcDbOsnapPointRef
 72
     1
331
1E3
 73
     2
 91
        0
 40
1.0
 10
15.8864399347783
 20
59.42014631425087
 30
0.0
 75
     0
  0
DIMASSOC
  5
1EA
102
{ACAD_REACTORS
330
1E9
102
}
330
1E9
100
AcDbDimAssoc
330
1E8
 90
        3
 70
     0
 71
     0
  1
AcDbOsnapPointRef
 72
     1
331
1F8
 73
     2
 91
        0
 40
1.0
 10
85.8864399347891
 20
116.4201463142508
 30
0.0
 75
     0
  1
AcDbOsnapPointRef
 72
    13
331
215
 73
     2
 91
        0
 40
0.0
 10
85.8864399347891
 20
56.42014631425087
 30
0.0
 75
     0
  0
DIMASSOC
  5
24F
102
{ACAD_REACTORS
330
24E
102
}
330
24E
100
AcDbDimAssoc
330
24D
 90
        2
 70
     0
 71
     0
  1
AcDbOsnapPointRef
 72
     1
331
26E
 73
     2
 91
        0
 40
1.0
 10
24.88643993478922
 20
115.0188836557797
 30
0.0
 75
     0
  0
DIMASSOC
  5
25F
102
{ACAD_REACTORS
330
25E
102
}
330
25E
100
AcDbDimAssoc
330
25D
 90
        3
 70
     0
 71
     0
  1
AcDbOsnapPointRef
 72
    13
331
1E3
 73
     2
 91
        0
 40
0.0
 10
15.8864399347783
 20
113.4201463142508
 30
0.0
 75
     0
  1
AcDbOsnapPointRef
 72
    13
331
1E5
 73
     2
 91
        0
 40
0.0
 10
17.88643993477831
 20
116.4201463142508
 30
0.0
 75
     0
  0
DIMASSOC
  5
292
102
{ACAD_REACTORS
330
291
102
}
330
291
100
AcDbDimAssoc
330
290
 90
        2
 70
     0
 71
     0
  1
AcDbOsnapPointRef
 72
     3
331
24C
 73
     2
 91
        0
 40
0.0
 10
-68.4415668170825
 20
86.42014631425082
 30
0.0
 75
     0
  0
DIMASSOC
  5
2A8
102
{ACAD_REACTORS
330
2A7
102
}
330
2A7
100
AcDbDimAssoc
330
2A6
 90
        3
 70
     0
 71
     0
  1
AcDbOsnapPointRef
 72
    13
331
276
 73
     2
 91
        0
 40
0.0
 10
-98.4415668170825
 20
111.4201463142508
 30
0.0
 75
     0
  1
AcDbOsnapPointRef
 72
    13
331
1E6
 73
     2
 91
        0
 40
0.0
 10
-38.4415668170825
 20
111.4201463142508
 30
0.0
 75
     0
  0
DIMASSOC
  5
2C7
102
{ACAD_REACTORS
330
2C6
102
}
330
2C6
100
AcDbDimAssoc
330
2C5
 90
        2
 70
     0
 71
     0
  1
AcDbOsnapPointRef
 72
    13
331
1F7
 73
     2
 91
        0
 40
0.0
 10
92.88643993477819
 20
113.9201463142508
 30
0.0
 75
     0
  0
MLINESTYLE
  5
9A
102
{ACAD_REACTORS
330
98
102
}
330
98
100
AcDbMlineStyle
  2
STANDARD
 70
     0
  3

 62
   256
 51
90.0
 52
90.0
 71
     2
 49
0.5
 62
   256
  6
BYLAYER
 49
-0.5
 62
   256
  6
BYLAYER
  0
ACDBPLACEHOLDER
  5
6
102
{ACAD_REACTORS
330
7
102
}
330
7
100
AcDbPlaceHolder
280
     0
  0
XRECORD
  5
730
102
{ACAD_REACTORS
330
726
102
}
330
726
100
AcDbXrecord
 90
        0
  0
XRECORD
  5
734
102
{ACAD_REACTORS
330
726
102
}
330
726
100
AcDbXrecord
1000
DSTYLE
1002
{
1070
    79
 70
     2
1070
   179
 70
     1
1002
}
  0
XRECORD
  5
731
102
{ACAD_REACTORS
330
726
102
}
330
726
100
AcDbXrecord
  1
{FDEAD578-A652-11D2-9A35-0060089B3A3F}
  0
XRECORD
  5
729
102
{ACAD_REACTORS
330
726
102
}
330
726
100
AcDbXrecord
  1

  0
XRECORD
  5
72F
102
{ACAD_REACTORS
330
726
102
}
330
726
100
AcDbXrecord
 90
        4
  0
XRECORD
  5
72B
102
{ACAD_REACTORS
330
726
102
}
330
726
100
AcDbXrecord
340
C
  0
XRECORD
  5
72E
102
{ACAD_REACTORS
330
726
102
}
330
726
100
AcDbXrecord
 90
    10781
  0
XRECORD
  5
72C
102
{ACAD_REACTORS
330
726
102
}
330
726
100
AcDbXrecord
340
99
  0
XRECORD
  5
72D
102
{ACAD_REACTORS
330
726
102
}
330
726
100
AcDbXrecord
340
7
  0
XRECORD
  5
733
102
{ACAD_REACTORS
330
726
102
}
330
726
100
AcDbXrecord
 40
0.0
  0
XRECORD
  5
737
102
{ACAD_REACTORS
330
726
102
}
330
726
100
AcDbXrecord
340
0
  0
XRECORD
  5
73D
102
{ACAD_REACTORS
330
726
102
}
330
726
100
AcDbXrecord
 10
0.0
 20
0.0
 30
0.0
  0
XRECORD
  5
739
102
{ACAD_REACTORS
330
726
102
}
330
726
100
AcDbXrecord
 10
0.0
 20
0.0
 30
0.0
  0
XRECORD
  5
73C
102
{ACAD_REACTORS
330
726
102
}
330
726
100
AcDbXrecord
 10
0.0
 20
0.0
 30
0.0
  0
XRECORD
  5
73A
102
{ACAD_REACTORS
330
726
102
}
330
726
100
AcDbXrecord
 10
0.0
 20
0.0
 30
0.0
  0
XRECORD
  5
73B
102
{ACAD_REACTORS
330
726
102
}
330
726
100
AcDbXrecord
 10
0.0
 20
0.0
 30
0.0
  0
XRECORD
  5
738
102
{ACAD_REACTORS
330
726
102
}
330
726
100
AcDbXrecord
 10
0.0
 20
0.0
 30
0.0
  0
XRECORD
  5
735
102
{ACAD_REACTORS
330
726
102
}
330
726
100
AcDbXrecord
340
0
  0
XRECORD
  5
736
102
{ACAD_REACTORS
330
726
102
}
330
726
100
AcDbXrecord
 70
     0
  0
XRECORD
  5
72A
102
{ACAD_REACTORS
330
726
102
}
330
726
100
AcDbXrecord
  1

  0
XRECORD
  5
727
102
{ACAD_REACTORS
330
726
102
}
330
726
100
AcDbXrecord
 90
        1
  0
XRECORD
  5
728
102
{ACAD_REACTORS
330
726
102
}
330
726
100
AcDbXrecord
 90
       70
  0
XRECORD
  5
740
102
{ACAD_REACTORS
330
726
102
}
330
726
100
AcDbXrecord
340
0
  0
XRECORD
  5
746
102
{ACAD_REACTORS
330
726
102
}
330
726
100
AcDbXrecord
 10
0.0
 20
0.0
 30
0.0
  0
XRECORD
  5
742
102
{ACAD_REACTORS
330
726
102
}
330
726
100
AcDbXrecord
 10
0.0
 20
0.0
 30
0.0
  0
XRECORD
  5
745
102
{ACAD_REACTORS
330
726
102
}
330
726
100
AcDbXrecord
 10
0.0
 20
0.0
 30
0.0
  0
XRECORD
  5
743
102
{ACAD_REACTORS
330
726
102
}
330
726
100
AcDbXrecord
 10
0.0
 20
0.0
 30
0.0
  0
XRECORD
  5
744
102
{ACAD_REACTORS
330
726
102
}
330
726
100
AcDbXrecord
 10
0.0
 20
0.0
 30
0.0
  0
XRECORD
  5
741
102
{ACAD_REACTORS
330
726
102
}
330
726
100
AcDbXrecord
 10
0.0
 20
0.0
 30
0.0
  0
XRECORD
  5
73E
102
{ACAD_REACTORS
330
726
102
}
330
726
100
AcDbXrecord
340
0
  0
XRECORD
  5
73F
102
{ACAD_REACTORS
330
726
102
}
330
726
100
AcDbXrecord
 70
     0
  0
XRECORD
  5
732
102
{ACAD_REACTORS
330
726
102
}
330
726
100
AcDbXrecord
  1
{F45F19B5-1851-4D0E-8470-5D0D759CD013}
  0
DICTIONARYVAR
  5
2D6
102
{ACAD_REACTORS
330
2D4
102
}
330
2D4
100
DictionaryVariables
280
     0
  1
2
  0
DICTIONARYVAR
  5
2D5
102
{ACAD_REACTORS
330
2D4
102
}
330
2D4
100
DictionaryVariables
280
     0
  1
1
  0
XRECORD
  5
15
102
{ACAD_REACTORS
330
14
102
}
330
14
100
AcDbXrecord
  1
$layers
  1
*
  1
*
  1
*
 70
     0
  1
*
  1
*
  0
XRECORD
  5
16
102
{ACAD_REACTORS
330
14
102
}
330
14
100
AcDbXrecord
  1
- und 0
  1
-*,0
  1
*
  1
*
 70
     0
  1
*
  1
*
  0
XRECORD
  5
17
102
{ACAD_REACTORS
330
14
102
}
330
14
100
AcDbXrecord
  1
-pegc
  1
*-pegc
  1
*
  1
*
 70
     0
  1
*
  1
*
  0
XRECORD
  5
18
102
{ACAD_REACTORS
330
14
102
}
330
14
100
AcDbXrecord
  1
101
  1
*101
  1
*
  1
*
 70
   256
  1
*
  1
*
  0
XRECORD
  5
19
102
{ACAD_REACTORS
330
14
102
}
330
14
100
AcDbXrecord
  1
102
  1
102*
  1
*
  1
*
 70
     0
  1
*
  1
*
  0
XRECORD
  5
1A
102
{ACAD_REACTORS
330
14
102
}
330
14
100
AcDbXrecord
  1
1duc
  1
*1duc*
  1
*
  1
*
 70
     0
  1
*
  1
*
  0
XRECORD
  5
1B
102
{ACAD_REACTORS
330
14
102
}
330
14
100
AcDbXrecord
  1
1eq
  1
*1eq*
  1
*
  1
*
 70
     0
  1
*
  1
*
  0
XRECORD
  5
1C
102
{ACAD_REACTORS
330
14
102
}
330
14
100
AcDbXrecord
  1
1tub
  1
*1t*
  1
*
  1
*
 70
     0
  1
*
  1
*
  0
XRECORD
  5
1D
102
{ACAD_REACTORS
330
14
102
}
330
14
100
AcDbXrecord
  1
2
  1
*
  1
2
  1
*
 70
     0
  1
*
  1
*
  0
XRECORD
  5
1E
102
{ACAD_REACTORS
330
14
102
}
330
14
100
AcDbXrecord
  1
2000
  1
2000*
  1
*
  1
*
 70
     0
  1
*
  1
*
  0
XRECORD
  5
1F
102
{ACAD_REACTORS
330
14
102
}
330
14
100
AcDbXrecord
  1
50
  1
*-50
  1
*
  1
*
 70
     0
  1
*
  1
*
  0
XRECORD
  5
20
102
{ACAD_REACTORS
330
14
102
}
330
14
100
AcDbXrecord
  1
58J
  1
*58*
  1
*
  1
*
 70
     0
  1
*
  1
*
  0
XRECORD
  5
21
102
{ACAD_REACTORS
330
14
102
}
330
14
100
AcDbXrecord
  1
65
  1
*65
  1
*
  1
*
 70
     0
  1
*
  1
*
  0
XRECORD
  5
22
102
{ACAD_REACTORS
330
14
102
}
330
14
100
AcDbXrecord
  1
aa
  1
aa*
  1
*
  1
*
 70
     0
  1
*
  1
*
  0
XRECORD
  5
23
102
{ACAD_REACTORS
330
14
102
}
330
14
100
AcDbXrecord
  1
acabados
  1
a-*
  1
*
  1
*
 70
     5
  1
*
  1
*
  0
XRECORD
  5
24
102
{ACAD_REACTORS
330
14
102
}
330
14
100
AcDbXrecord
  1
AGUA Y DREN
  1
A-DS-*
  1
*
  1
*
 70
     0
  1
*
  1
*
  0
XRECORD
  5
25
102
{ACAD_REACTORS
330
14
102
}
330
14
100
AcDbXrecord
  1
Aire
  1
*
  1
*
  1
*
 70
     0
  1
*
  1
*
  0
XRECORD
  5
26
102
{ACAD_REACTORS
330
14
102
}
330
14
100
AcDbXrecord
  1
alle aus
  1
99999999999
  1
*
  1
*
 70
     0
  1
*
  1
*
  0
XRECORD
  5
27
102
{ACAD_REACTORS
330
14
102
}
330
14
100
AcDbXrecord
  1
Alles mit S
  1
s*
  1
*
  1
*
 70
     0
  1
*
  1
*
  0
XRECORD
  5
28
102
{ACAD_REACTORS
330
14
102
}
330
14
100
AcDbXrecord
  1
amarillo
  1
*
  1
yellow
  1
*
 70
     0
  1
*
  1
*
  0
XRECORD
  5
29
102
{ACAD_REACTORS
330
14
102
}
330
14
100
AcDbXrecord
  1
APAGADOS
  1
*
  1
*
  1
*
 70
     4
  1
*
  1
*
  0
XRECORD
  5
2A
102
{ACAD_REACTORS
330
14
102
}
330
14
100
AcDbXrecord
  1
ARR
  1
ARR*
  1
*
  1
*
 70
     0
  1
*
  1
*
  0
XRECORD
  5
2B
102
{ACAD_REACTORS
330
14
102
}
330
14
100
AcDbXrecord
  1
ba
  1
*
  1
*
  1
*
 70
     0
  1
*
  1
*
  0
XRECORD
  5
2C
102
{ACAD_REACTORS
330
14
102
}
330
14
100
AcDbXrecord
  1
BACKS
  1
*-H
  1
*
  1
*
 70
     0
  1
*
  1
*
  0
XRECORD
  5
2D
102
{ACAD_REACTORS
330
14
102
}
330
14
100
AcDbXrecord
  1
BASE
  1
*-PBASE
  1
*
  1
*
 70
     0
  1
*
  1
*
  0
XRECORD
  5
2E
102
{ACAD_REACTORS
330
14
102
}
330
14
100
AcDbXrecord
  1
BLOQ_INUTIL
  1
*
  1
*
  1
*
 70
     0
  1
*
  1
*
  0
XRECORD
  5
2F
102
{ACAD_REACTORS
330
14
102
}
330
14
100
AcDbXrecord
  1
CADKON
  1
?[KAHBSM]?????[23M],?[KAHBSM]?????[23M][1456A-DGHILN-SU-Z]
  1
*
  1
*
 70
     0
  1
*
  1
*
  0
XRECORD
  5
30
102
{ACAD_REACTORS
330
14
102
}
330
14
100
AcDbXrecord
  1
carpinteria
  1
carp*
  1
*
  1
*
 70
     0
  1
*
  1
*
  0
XRECORD
  5
31
102
{ACAD_REACTORS
330
14
102
}
330
14
100
AcDbXrecord
  1
cerrados
  1
*
  1
*
  1
*
 70
   256
  1
*
  1
*
  0
XRECORD
  5
32
102
{ACAD_REACTORS
330
14
102
}
330
14
100
AcDbXrecord
  1
COL
  1
*
  1
*
  1
*
 70
     1
  1
*
  1
*
  0
XRECORD
  5
33
102
{ACAD_REACTORS
330
14
102
}
330
14
100
AcDbXrecord
  1
COLOR
  1
*
  1
253
  1
*
 70
     0
  1
*
  1
*
  0
XRECORD
  5
34
102
{ACAD_REACTORS
330
14
102
}
330
14
100
AcDbXrecord
  1
color 250
  1
*
  1
250
  1
*
 70
     0
  1
*
  1
*
  0
XRECORD
  5
35
102
{ACAD_REACTORS
330
14
102
}
330
14
100
AcDbXrecord
  1
COLORES
  1
*
  1
6
  1
*
 70
     0
  1
*
  1
*
  0
XRECORD
  5
36
102
{ACAD_REACTORS
330
14
102
}
330
14
100
AcDbXrecord
  1
Congelados
  1
*
  1
*
  1
*
 70
     4
  1
*
  1
*
  0
XRECORD
  5
37
102
{ACAD_REACTORS
330
14
102
}
330
14
100
AcDbXrecord
  1
CONJUNTO
  1
CON-*
  1
*
  1
*
 70
     0
  1
*
  1
*
  0
XRECORD
  5
38
102
{ACAD_REACTORS
330
14
102
}
330
14
100
AcDbXrecord
  1
d1
  1
achurados
  1
*
  1
*
 70
     0
  1
*
  1
*
  0
XRECORD
  5
39
102
{ACAD_REACTORS
330
14
102
}
330
14
100
AcDbXrecord
  1
DA_
  1
DA*
  1
*
  1
*
 70
     0
  1
*
  1
*
  0
XRECORD
  5
3A
102
{ACAD_REACTORS
330
14
102
}
330
14
100
AcDbXrecord
  1
DET-
  1
*
  1
*
  1
*
 70
     0
  1
*
  1
*
  0
XRECORD
  5
3B
102
{ACAD_REACTORS
330
14
102
}
330
14
100
AcDbXrecord
  1
DOR-H
  1
*
  1
7
  1
*
 70
     0
  1
*
  1
*
  0
XRECORD
  5
3C
102
{ACAD_REACTORS
330
14
102
}
330
14
100
AcDbXrecord
  1
ejes
  1
eje*
  1
*
  1
*
 70
     0
  1
*
  1
*
  0
XRECORD
  5
3D
102
{ACAD_REACTORS
330
14
102
}
330
14
100
AcDbXrecord
  1
ELECTRICO
  1
ELEC-*
  1
*
  1
*
 70
     0
  1
*
  1
*
  0
XRECORD
  5
3E
102
{ACAD_REACTORS
330
14
102
}
330
14
100
AcDbXrecord
  1
F1
  1
Halaxref*
  1
*
  1
*
 70
     0
  1
*
  1
*
  0
XRECORD
  5
3F
102
{ACAD_REACTORS
330
14
102
}
330
14
100
AcDbXrecord
  1
frozen
  1
*
  1
*
  1
*
 70
     4
  1
*
  1
*
  0
XRECORD
  5
40
102
{ACAD_REACTORS
330
14
102
}
330
14
100
AcDbXrecord
  1
grid
  1
*-PGRID
  1
*
  1
*
 70
     1
  1
*
  1
*
  0
XRECORD
  5
41
102
{ACAD_REACTORS
330
14
102
}
330
14
100
AcDbXrecord
  1
GRIDTXT
  1
*-PGRIDT
  1
*
  1
*
 70
     0
  1
*
  1
*
  0
XRECORD
  5
42
102
{ACAD_REACTORS
330
14
102
}
330
14
100
AcDbXrecord
  1
HATCH
  1
HAT*
  1
*
  1
*
 70
     0
  1
*
  1
*
  0
XRECORD
  5
43
102
{ACAD_REACTORS
330
14
102
}
330
14
100
AcDbXrecord
  1
HCAD
  1
1HCAD-*
  1
*
  1
*
 70
    13
  1
*
  1
*
  0
XRECORD
  5
44
102
{ACAD_REACTORS
330
14
102
}
330
14
100
AcDbXrecord
  1
INSTALACIONES
  1
I-*
  1
*
  1
*
 70
     0
  1
*
  1
*
  0
XRECORD
  5
45
102
{ACAD_REACTORS
330
14
102
}
330
14
100
AcDbXrecord
  1
JIZNI
  1
*-J
  1
*
  1
*
 70
     0
  1
*
  1
*
  0
XRECORD
  5
46
102
{ACAD_REACTORS
330
14
102
}
330
14
100
AcDbXrecord
  1
kck
  1
*
  1
*
  1
*
 70
     0
  1
*
  1
*
  0
XRECORD
  5
47
102
{ACAD_REACTORS
330
14
102
}
330
14
100
AcDbXrecord
  1
kkk
  1
k
  1
*
  1
*
 70
     0
  1
*
  1
*
  0
XRECORD
  5
48
102
{ACAD_REACTORS
330
14
102
}
330
14
100
AcDbXrecord
  1
lay
  1
??-*
  1
*
  1
*
 70
     0
  1
*
  1
*
  0
XRECORD
  5
4C
102
{ACAD_REACTORS
330
14
102
}
330
14
100
AcDbXrecord
  1
Layer-0
  1
0*
  1
*
  1
*
 70
     0
  1
*
  1
*
  0
XRECORD
  5
4D
102
{ACAD_REACTORS
330
14
102
}
330
14
100
AcDbXrecord
  1
Layer-1
  1
1*
  1
*
  1
*
 70
     0
  1
*
  1
*
  0
XRECORD
  5
49
102
{ACAD_REACTORS
330
14
102
}
330
14
100
AcDbXrecord
  1
Layer 1 und 0
  1
1*,0
  1
*
  1
*
 70
     0
  1
*
  1
*
  0
XRECORD
  5
4A
102
{ACAD_REACTORS
330
14
102
}
330
14
100
AcDbXrecord
  1
Layer 2 und 0
  1
2*,0
  1
*
  1
*
 70
     0
  1
*
  1
*
  0
XRECORD
  5
4B
102
{ACAD_REACTORS
330
14
102
}
330
14
100
AcDbXrecord
  1
Layer 9 und 0 Schraffur
  1
9*,0
  1
*
  1
*
 70
     0
  1
*
  1
*
  0
XRECORD
  5
4E
102
{ACAD_REACTORS
330
14
102
}
330
14
100
AcDbXrecord
  1
LOCK
  1
*
  1
*
  1
*
 70
   256
  1
*
  1
*
  0
XRECORD
  5
4F
102
{ACAD_REACTORS
330
14
102
}
330
14
100
AcDbXrecord
  1
locked
  1
*
  1
*
  1
*
 70
   256
  1
*
  1
*
  0
XRECORD
  5
50
102
{ACAD_REACTORS
330
14
102
}
330
14
100
AcDbXrecord
  1
Lotes
  1
*
  1
*
  1
*
 70
     1
  1
*
  1
*
  0
XRECORD
  5
51
102
{ACAD_REACTORS
330
14
102
}
330
14
100
AcDbXrecord
  1
LUNAR
  1
*
  1
*
  1
*
 70
    48
  1
*
  1
*
  0
XRECORD
  5
52
102
{ACAD_REACTORS
330
14
102
}
330
14
100
AcDbXrecord
  1
LUNAR2
  1
*
  1
*
  1
*
 70
    12
  1
*
  1
*
  0
XRECORD
  5
53
102
{ACAD_REACTORS
330
14
102
}
330
14
100
AcDbXrecord
  1
M
  1
M*
  1
*
  1
*
 70
     0
  1
*
  1
*
  0
XRECORD
  5
54
102
{ACAD_REACTORS
330
14
102
}
330
14
100
AcDbXrecord
  1
mis_layers
  1
mis_*
  1
*
  1
*
 70
     0
  1
*
  1
*
  0
XRECORD
  5
55
102
{ACAD_REACTORS
330
14
102
}
330
14
100
AcDbXrecord
  1
MRKCK
  1
*
  1
*
  1
*
 70
     0
  1
*
  1
*
  0
XRECORD
  5
56
102
{ACAD_REACTORS
330
14
102
}
330
14
100
AcDbXrecord
  1
NECADKON
  1
~*?[KAHBSM]?????[23M]*
  1
*
  1
*
 70
     0
  1
*
  1
*
  0
XRECORD
  5
57
102
{ACAD_REACTORS
330
14
102
}
330
14
100
AcDbXrecord
  1
NI_LH
  1
NI_LH*
  1
*
  1
*
 70
     0
  1
*
  1
*
  0
XRECORD
  5
58
102
{ACAD_REACTORS
330
14
102
}
330
14
100
AcDbXrecord
  1
NI_RH
  1
NI_RH*
  1
*
  1
*
 70
     0
  1
*
  1
*
  0
XRECORD
  5
59
102
{ACAD_REACTORS
330
14
102
}
330
14
100
AcDbXrecord
  1
NUM
  1
NUM*
  1
*
  1
*
 70
     0
  1
*
  1
*
  0
XRECORD
  5
5A
102
{ACAD_REACTORS
330
14
102
}
330
14
100
AcDbXrecord
  1
off
  1
*
  1
*
  1
*
 70
     3
  1
*
  1
*
  0
XRECORD
  5
5B
102
{ACAD_REACTORS
330
14
102
}
330
14
100
AcDbXrecord
  1
on
  1
*
  1
*
  1
*
 70
     0
  1
*
  1
*
  0
XRECORD
  5
5C
102
{ACAD_REACTORS
330
14
102
}
330
14
100
AcDbXrecord
  1
PBASE
  1
*PBASE
  1
*
  1
*
 70
     0
  1
*
  1
*
  0
XRECORD
  5
5D
102
{ACAD_REACTORS
330
14
102
}
330
14
100
AcDbXrecord
  1
PEGC
  1
*PEGC
  1
*
  1
*
 70
     0
  1
*
  1
*
  0
XRECORD
  5
5E
102
{ACAD_REACTORS
330
14
102
}
330
14
100
AcDbXrecord
  1
PEGCT
  1
*PEGCT
  1
*
  1
*
 70
     0
  1
*
  1
*
  0
XRECORD
  5
5F
102
{ACAD_REACTORS
330
14
102
}
330
14
100
AcDbXrecord
  1
PFRAME
  1
PFRAME*
  1
*
  1
*
 70
     0
  1
*
  1
*
  0
XRECORD
  5
60
102
{ACAD_REACTORS
330
14
102
}
330
14
100
AcDbXrecord
  1
PGRID
  1
*PGRID
  1
*
  1
*
 70
     0
  1
*
  1
*
  0
XRECORD
  5
61
102
{ACAD_REACTORS
330
14
102
}
330
14
100
AcDbXrecord
  1
PGRIDT
  1
*PGRIDT
  1
*
  1
*
 70
     0
  1
*
  1
*
  0
XRECORD
  5
62
102
{ACAD_REACTORS
330
14
102
}
330
14
100
AcDbXrecord
  1
PLAFONES
  1
0-*
  1
*
  1
*
 70
     0
  1
*
  1
*
  0
XRECORD
  5
63
102
{ACAD_REACTORS
330
14
102
}
330
14
100
AcDbXrecord
  1
PLANTAS
  1
P-*
  1
*
  1
*
 70
     0
  1
*
  1
*
  0
XRECORD
  5
64
102
{ACAD_REACTORS
330
14
102
}
330
14
100
AcDbXrecord
  1
Plot
  1
*
  1
*
  1
*
 70
  1024
  1
*
  1
*
  0
XRECORD
  5
65
102
{ACAD_REACTORS
330
14
102
}
330
14
100
AcDbXrecord
  1
PRENDIDAS
  1
*
  1
*
  1
*
 70
    13
  1
*
  1
*
  0
XRECORD
  5
66
102
{ACAD_REACTORS
330
14
102
}
330
14
100
AcDbXrecord
  1
PRENDIDOS
  1
*
  1
*
  1
*
 70
    12
  1
*
  1
*
  0
XRECORD
  5
67
102
{ACAD_REACTORS
330
14
102
}
330
14
100
AcDbXrecord
  1
print
  1
*
  1
7
  1
*
 70
  1280
  1
*
  1
*
  0
XRECORD
  5
68
102
{ACAD_REACTORS
330
14
102
}
330
14
100
AcDbXrecord
  1
PT
  1
PT-*
  1
*
  1
*
 70
     0
  1
*
  1
*
  0
XRECORD
  5
69
102
{ACAD_REACTORS
330
14
102
}
330
14
100
AcDbXrecord
  1
PTH
  1
PTH*
  1
*
  1
*
 70
     0
  1
*
  1
*
  0
XRECORD
  5
6A
102
{ACAD_REACTORS
330
14
102
}
330
14
100
AcDbXrecord
  1
PVGRID
  1
*PVGRID
  1
*
  1
*
 70
     0
  1
*
  1
*
  0
XRECORD
  5
6B
102
{ACAD_REACTORS
330
14
102
}
330
14
100
AcDbXrecord
  1
Red de Agua Potable
  1
Red de Agua Potable
  1
*
  1
*
 70
     1
  1
*
  1
*
  0
XRECORD
  5
6C
102
{ACAD_REACTORS
330
14
102
}
330
14
100
AcDbXrecord
  1
Red de Energia Electrica
  1
Lotes
  1
*
  1
*
 70
     1
  1
*
  1
*
  0
XRECORD
  5
6D
102
{ACAD_REACTORS
330
14
102
}
330
14
100
AcDbXrecord
  1
SEVERNI
  1
*-S
  1
*
  1
*
 70
     0
  1
*
  1
*
  0
XRECORD
  5
6E
102
{ACAD_REACTORS
330
14
102
}
330
14
100
AcDbXrecord
  1
shin
  1
일*
  1
*
  1
*
 70
     0
  1
*
  1
*
  0
XRECORD
  5
6F
102
{ACAD_REACTORS
330
14
102
}
330
14
100
AcDbXrecord
  1
SHOW ALL LAYER
  1
*
  1
*
  1
*
 70
     0
  1
*
  1
*
  0
XRECORD
  5
70
102
{ACAD_REACTORS
330
14
102
}
330
14
100
AcDbXrecord
  1
sin
  1
sin
  1
*
  1
*
 70
     0
  1
*
  1
*
  0
XRECORD
  5
71
102
{ACAD_REACTORS
330
14
102
}
330
14
100
AcDbXrecord
  1
STORAGE-CART
  1
STORAGE-CART*
  1
*
  1
*
 70
     0
  1
*
  1
*
  0
XRECORD
  5
72
102
{ACAD_REACTORS
330
14
102
}
330
14
100
AcDbXrecord
  1
T
  1
T*
  1
*
  1
*
 70
     0
  1
*
  1
*
  0
XRECORD
  5
73
102
{ACAD_REACTORS
330
14
102
}
330
14
100
AcDbXrecord
  1
TEXTOS
  1
TXT*
  1
*
  1
*
 70
     0
  1
*
  1
*
  0
XRECORD
  5
74
102
{ACAD_REACTORS
330
14
102
}
330
14
100
AcDbXrecord
  1
TEXTURAS
  1
*TEXTURAS
  1
*
  1
*
 70
     0
  1
*
  1
*
  0
XRECORD
  5
75
102
{ACAD_REACTORS
330
14
102
}
330
14
100
AcDbXrecord
  1
TUBERIAS
  1
T*
  1
*
  1
*
 70
     0
  1
*
  1
*
  0
XRECORD
  5
76
102
{ACAD_REACTORS
330
14
102
}
330
14
100
AcDbXrecord
  1
UNFRZ
  1
*
  1
*
  1
*
 70
    12
  1
*
  1
*
  0
XRECORD
  5
77
102
{ACAD_REACTORS
330
14
102
}
330
14
100
AcDbXrecord
  1
v\U+0161echny nepou\U+017E\U+00EDvan\U+00E9
  1
*
  1
*
  1
*
 70
     0
  1
*
  1
*
  0
XRECORD
  5
78
102
{ACAD_REACTORS
330
14
102
}
330
14
100
AcDbXrecord
  1
VA
  1
VA*
  1
*
  1
*
 70
     0
  1
*
  1
*
  0
XRECORD
  5
79
102
{ACAD_REACTORS
330
14
102
}
330
14
100
AcDbXrecord
  1
Ventilaci\U+00F3n
  1
*
  1
*
  1
*
 70
     0
  1
*
  1
*
  0
XRECORD
  5
7A
102
{ACAD_REACTORS
330
14
102
}
330
14
100
AcDbXrecord
  1
VYHODNI
  1
*-V
  1
*
  1
*
 70
     0
  1
*
  1
*
  0
XRECORD
  5
7B
102
{ACAD_REACTORS
330
14
102
}
330
14
100
AcDbXrecord
  1
Yo
  1
Muros
  1
*
  1
*
 70
     0
  1
*
  1
*
  0
XRECORD
  5
7C
102
{ACAD_REACTORS
330
14
102
}
330
14
100
AcDbXrecord
  1
ZAPADNI
  1
*-Z
  1
*
  1
*
 70
     0
  1
*
  1
*
  0
XRECORD
  5
7D
102
{ACAD_REACTORS
330
14
102
}
330
14
100
AcDbXrecord
  1
사용
  1
*
  1
*
  1
*
 70
   256
  1
*
  1
*
  0
XRECORD
  5
7E
102
{ACAD_REACTORS
330
14
102
}
330
14
100
AcDbXrecord
  1
신규
  1
신규
  1
*
  1
*
 70
     0
  1
*
  1
*
  0
XRECORD
  5
7F
102
{ACAD_REACTORS
330
14
102
}
330
14
100
AcDbXrecord
  1
실박스
  1
BLO,SYM,SYM1,SYM2
  1
*
  1
*
 70
     0
  1
*
  1
*
  0
XRECORD
  5
80
102
{ACAD_REACTORS
330
14
102
}
330
14
100
AcDbXrecord
  1
우리토목
  1
w-*
  1
*
  1
*
 70
     0
  1
*
  1
*
  0
XRECORD
  5
81
102
{ACAD_REACTORS
330
14
102
}
330
14
100
AcDbXrecord
  1
주차
  1
car*
  1
*
  1
*
 70
     0
  1
*
  1
*
  0
XRECORD
  5
82
102
{ACAD_REACTORS
330
14
102
}
330
14
100
AcDbXrecord
  1
지상정밀
  1
*
  1
*
  1
*
 70
     0
  1
*
  1
*
  0
XRECORD
  5
83
102
{ACAD_REACTORS
330
14
102
}
330
14
100
AcDbXrecord
  1
쩜선
  1
*
  1
*
  1
*
 70
     0
  1
*
  1
*
  0
XRECORD
  5
84
102
{ACAD_REACTORS
330
14
102
}
330
14
100
AcDbXrecord
  1
플로터 작업층
  1
*
  1
*
  1
*
 70
  1025
  1
*
  1
*
  0
XRECORD
  5
85
102
{ACAD_REACTORS
330
14
102
}
330
14
100
AcDbXrecord
  1
현재 작업층
  1
*
  1
*
  1
*
 70
     1
  1
*
  1
*
  0
XRECORD
  5
86
102
{ACAD_REACTORS
330
14
102
}
330
14
100
AcDbXrecord
  1
현재 잠금
  1
*
  1
*
  1
*
 70
   257
  1
*
  1
*
  0
ENDSEC
  0
EOF
