  0
SECTION
  2
HEADER
  9
$ACADVER
  1
AC1014
  9
$ACADMAINTVER
 70
     9
  9
$DWGCODEPAGE
  3
ANSI_949
  9
$INSBASE
 10
20930.99937680404
 20
-4502.334104114183
 30
0.0
  9
$EXTMIN
 10
-5.364920444000745
 20
-5.857646864664275
 30
-0.0000000000119164
  9
$EXTMAX
 10
343.5118180018034
 20
377.6979134780995
 30
0.0000000000664171
  9
$LIMMIN
 10
0.0
 20
0.0
  9
$LIMMAX
 10
420.0
 20
297.0
  9
$ORTHOMODE
 70
     0
  9
$REGENMODE
 70
     1
  9
$FILLMODE
 70
     1
  9
$QTEXTMODE
 70
     0
  9
$MIRRTEXT
 70
     0
  9
$DRAGMODE
 70
     2
  9
$LTSCALE
 40
0.2
  9
$OSMODE
 70
   567
  9
$ATTMODE
 70
     1
  9
$TEXTSIZE
 40
5.777225951253058
  9
$TRACEWID
 40
1.0
  9
$TEXTSTYLE
  7
STANDARD
  9
$CLAYER
  8
0
  9
$CELTYPE
  6
BYLAYER
  9
$CECOLOR
 62
   256
  9
$CELTSCALE
 40
1.0
  9
$DELOBJ
 70
     1
  9
$DISPSILH
 70
     0
  9
$DIMSCALE
 40
1.0
  9
$DIMASZ
 40
3.0
  9
$DIMEXO
 40
1.0
  9
$DIMDLI
 40
10.0
  9
$DIMRND
 40
0.0
  9
$DIMDLE
 40
0.0
  9
$DIMEXE
 40
0.6
  9
$DIMTP
 40
0.0
  9
$DIMTM
 40
0.0
  9
$DIMTXT
 40
3.5
  9
$DIMCEN
 40
0.09
  9
$DIMTSZ
 40
0.0
  9
$DIMTOL
 70
     0
  9
$DIMLIM
 70
     0
  9
$DIMTIH
 70
     0
  9
$DIMTOH
 70
     0
  9
$DIMSE1
 70
     0
  9
$DIMSE2
 70
     0
  9
$DIMTAD
 70
     1
  9
$DIMZIN
 70
     8
  9
$DIMBLK
  1

  9
$DIMASO
 70
     1
  9
$DIMSHO
 70
     1
  9
$DIMPOST
  1

  9
$DIMAPOST
  1

  9
$DIMALT
 70
     0
  9
$DIMALTD
 70
     2
  9
$DIMALTF
 40
25.4
  9
$DIMLFAC
 40
1.0
  9
$DIMTOFL
 70
     1
  9
$DIMTVP
 40
0.0
  9
$DIMTIX
 70
     1
  9
$DIMSOXD
 70
     0
  9
$DIMSAH
 70
     0
  9
$DIMBLK1
  1

  9
$DIMBLK2
  1

  9
$DIMSTYLE
  2
1_1_2
  9
$DIMCLRD
 70
   123
  9
$DIMCLRE
 70
   123
  9
$DIMCLRT
 70
     3
  9
$DIMTFAC
 40
1.0
  9
$DIMGAP
 40
1.0
  9
$DIMJUST
 70
     0
  9
$DIMSD1
 70
     0
  9
$DIMSD2
 70
     0
  9
$DIMTOLJ
 70
     1
  9
$DIMTZIN
 70
     0
  9
$DIMALTZ
 70
     0
  9
$DIMALTTZ
 70
     0
  9
$DIMFIT
 70
     0
  9
$DIMUPT
 70
     1
  9
$DIMUNIT
 70
     2
  9
$DIMDEC
 70
     2
  9
$DIMTDEC
 70
     2
  9
$DIMALTU
 70
     2
  9
$DIMALTTD
 70
     2
  9
$DIMTXSTY
  7
STANDARD
  9
$DIMAUNIT
 70
     1
  9
$LUNITS
 70
     2
  9
$LUPREC
 70
     4
  9
$SKETCHINC
 40
1.0
  9
$FILLETRAD
 40
0.5
  9
$AUNITS
 70
     0
  9
$AUPREC
 70
     0
  9
$MENU
  1
.
  9
$ELEVATION
 40
0.0
  9
$PELEVATION
 40
0.0
  9
$THICKNESS
 40
0.0
  9
$LIMCHECK
 70
     0
  9
$BLIPMODE
 70
     1
  9
$CHAMFERA
 40
1.0
  9
$CHAMFERB
 40
1.0
  9
$CHAMFERC
 40
20.0
  9
$CHAMFERD
 40
0.0
  9
$SKPOLY
 70
     0
  9
$TDCREATE
 40
2452839.586179271
  9
$TDUPDATE
 40
2453376.710395683
  9
$TDINDWG
 40
11.1214061806
  9
$TDUSRTIMER
 40
11.1214059954
  9
$USRTIMER
 70
     1
  9
$ANGBASE
 50
0.0
  9
$ANGDIR
 70
     0
  9
$PDMODE
 70
     0
  9
$PDSIZE
 40
0.0
  9
$PLINEWID
 40
0.0
  9
$COORDS
 70
     2
  9
$SPLFRAME
 70
     0
  9
$SPLINETYPE
 70
     6
  9
$SPLINESEGS
 70
   800
  9
$ATTDIA
 70
     0
  9
$ATTREQ
 70
     1
  9
$HANDLING
 70
 22529
  9
$HANDSEED
  5
40C
  9
$SURFTAB1
 70
     6
  9
$SURFTAB2
 70
     6
  9
$SURFTYPE
 70
     6
  9
$SURFU
 70
     6
  9
$SURFV
 70
     6
  9
$UCSNAME
  2

  9
$UCSORG
 10
0.0
 20
0.0
 30
0.0
  9
$UCSXDIR
 10
1.0
 20
0.0
 30
0.0
  9
$UCSYDIR
 10
0.0
 20
1.0
 30
0.0
  9
$PUCSNAME
  2

  9
$PUCSORG
 10
0.0
 20
0.0
 30
0.0
  9
$PUCSXDIR
 10
1.0
 20
0.0
 30
0.0
  9
$PUCSYDIR
 10
0.0
 20
1.0
 30
0.0
  9
$USERI1
 70
     0
  9
$USERI2
 70
     0
  9
$USERI3
 70
     0
  9
$USERI4
 70
     0
  9
$USERI5
 70
     0
  9
$USERR1
 40
0.0
  9
$USERR2
 40
0.0
  9
$USERR3
 40
0.0
  9
$USERR4
 40
0.0
  9
$USERR5
 40
0.0
  9
$WORLDVIEW
 70
     1
  9
$SHADEDGE
 70
     3
  9
$SHADEDIF
 70
    70
  9
$TILEMODE
 70
     1
  9
$MAXACTVP
 70
    48
  9
$PINSBASE
 10
0.0
 20
0.0
 30
0.0
  9
$PLIMCHECK
 70
     0
  9
$PEXTMIN
 10
0.0
 20
0.0
 30
0.0
  9
$PEXTMAX
 10
0.0
 20
0.0
 30
0.0
  9
$PLIMMIN
 10
0.0
 20
0.0
  9
$PLIMMAX
 10
12.0
 20
9.0
  9
$UNITMODE
 70
     0
  9
$VISRETAIN
 70
     1
  9
$PLINEGEN
 70
     0
  9
$PSLTSCALE
 70
     1
  9
$TREEDEPTH
 70
  3020
  9
$PICKSTYLE
 70
     0
  9
$CMLSTYLE
  2
STANDARD
  9
$CMLJUST
 70
     0
  9
$CMLSCALE
 40
20.0
  9
$PROXYGRAPHICS
 70
     1
  9
$MEASUREMENT
 70
     1
  0
ENDSEC
  0
SECTION
  2
CLASSES
  0
CLASS
  1
ACDBDICTIONARYWDFLT
  2
AcDbDictionaryWithDefault
  3
AutoCAD 2000
 90
        0
280
     0
281
     0
  0
CLASS
  1
ACDBPLACEHOLDER
  2
AcDbPlaceHolder
  3
AutoCAD 2000
 90
        0
280
     0
281
     0
  0
CLASS
  1
LAYOUT
  2
AcDbLayout
  3
AutoCAD 2000
 90
        0
280
     0
281
     0
  0
CLASS
  1
DICTIONARYVAR
  2
AcDbDictionaryVar
  3
AutoCAD 2000
 90
        0
280
     0
281
     0
  0
CLASS
  1
DIMASSOC
  2
AcDbDimAssoc
  3
"AcDbDimAssoc|Product Desc:     AcDim ARX App For Dimension|Company:          Autodesk, Inc.|WEB Address:      www.autodesk.com"
 90
        0
280
     0
281
     0
  0
CLASS
  1
LONG_TRANSACTION
  2
AcDbLongTransaction
  3
AutoCAD 2000
 90
        0
280
     0
281
     0
  0
CLASS
  1
LWPOLYLINE
  2
AcDbPolyline
  3
AutoCAD 2000
 90
        0
280
     0
281
     1
  0
CLASS
  1
HATCH
  2
AcDbHatch
  3
AutoCAD 2000
 90
        0
280
     0
281
     1
  0
CLASS
  1
XRECORD
  2
AcDbXrecord
  3
AutoCAD 2000
 90
        0
280
     0
281
     0
  0
CLASS
  1
LONG_TRANSACTION
  2
AcDbLongTransaction
  3
AutoCAD 2000
 90
        0
280
     0
281
     0
  0
CLASS
  1
LWPOLYLINE
  2
AcDbPolyline
  3
AutoCAD 2000
 90
        0
280
     0
281
     1
  0
CLASS
  1
HATCH
  2
AcDbHatch
  3
AutoCAD 2000
 90
        0
280
     0
281
     1
  0
CLASS
  1
XRECORD
  2
AcDbXrecord
  3
AutoCAD 2000
 90
        0
280
     0
281
     0
  0
CLASS
  1
LONG_TRANSACTION
  2
AcDbLongTransaction
  3
AutoCAD 2000
 90
        0
280
     0
281
     0
  0
CLASS
  1
LWPOLYLINE
  2
AcDbPolyline
  3
AutoCAD 2000
 90
        0
280
     0
281
     1
  0
CLASS
  1
HATCH
  2
AcDbHatch
  3
AutoCAD 2000
 90
        0
280
     0
281
     1
  0
CLASS
  1
XRECORD
  2
AcDbXrecord
  3
AutoCAD 2000
 90
        0
280
     0
281
     0
  0
CLASS
  1
LONG_TRANSACTION
  2
AcDbLongTransaction
  3
AutoCAD 2000
 90
        0
280
     0
281
     0
  0
CLASS
  1
LWPOLYLINE
  2
AcDbPolyline
  3
AutoCAD 2000
 90
        0
280
     0
281
     1
  0
CLASS
  1
HATCH
  2
AcDbHatch
  3
AutoCAD 2000
 90
        0
280
     0
281
     1
  0
CLASS
  1
XRECORD
  2
AcDbXrecord
  3
AutoCAD 2000
 90
        0
280
     0
281
     0
  0
CLASS
  1
LONG_TRANSACTION
  2
AcDbLongTransaction
  3
AutoCAD 2000
 90
        0
280
     0
281
     0
  0
CLASS
  1
LWPOLYLINE
  2
AcDbPolyline
  3
AutoCAD 2000
 90
        0
280
     0
281
     1
  0
CLASS
  1
HATCH
  2
AcDbHatch
  3
AutoCAD 2000
 90
        0
280
     0
281
     1
  0
CLASS
  1
XRECORD
  2
AcDbXrecord
  3
AutoCAD 2000
 90
        0
280
     0
281
     0
  0
CLASS
  1
LONG_TRANSACTION
  2
AcDbLongTransaction
  3
AutoCAD 2000
 90
        0
280
     0
281
     0
  0
CLASS
  1
LWPOLYLINE
  2
AcDbPolyline
  3
AutoCAD 2000
 90
        0
280
     0
281
     1
  0
CLASS
  1
HATCH
  2
AcDbHatch
  3
AutoCAD 2000
 90
        0
280
     0
281
     1
  0
CLASS
  1
XRECORD
  2
AcDbXrecord
  3
AutoCAD 2000
 90
        0
280
     0
281
     0
  0
CLASS
  1
LONG_TRANSACTION
  2
AcDbLongTransaction
  3
AutoCAD 2000
 90
        0
280
     0
281
     0
  0
CLASS
  1
LWPOLYLINE
  2
AcDbPolyline
  3
AutoCAD 2000
 90
        0
280
     0
281
     1
  0
CLASS
  1
HATCH
  2
AcDbHatch
  3
AutoCAD 2000
 90
        0
280
     0
281
     1
  0
CLASS
  1
XRECORD
  2
AcDbXrecord
  3
AutoCAD 2000
 90
        0
280
     0
281
     0
  0
CLASS
  1
LONG_TRANSACTION
  2
AcDbLongTransaction
  3
AutoCAD 2000
 90
        0
280
     0
281
     0
  0
CLASS
  1
LWPOLYLINE
  2
AcDbPolyline
  3
AutoCAD 2000
 90
        0
280
     0
281
     1
  0
CLASS
  1
HATCH
  2
AcDbHatch
  3
AutoCAD 2000
 90
        0
280
     0
281
     1
  0
CLASS
  1
XRECORD
  2
AcDbXrecord
  3
AutoCAD 2000
 90
        0
280
     0
281
     0
  0
CLASS
  1
LONG_TRANSACTION
  2
AcDbLongTransaction
  3
AutoCAD 2000
 90
        0
280
     0
281
     0
  0
CLASS
  1
LWPOLYLINE
  2
AcDbPolyline
  3
AutoCAD 2000
 90
        0
280
     0
281
     1
  0
CLASS
  1
HATCH
  2
AcDbHatch
  3
AutoCAD 2000
 90
        0
280
     0
281
     1
  0
CLASS
  1
XRECORD
  2
AcDbXrecord
  3
AutoCAD 2000
 90
        0
280
     0
281
     0
  0
CLASS
  1
LONG_TRANSACTION
  2
AcDbLongTransaction
  3
AutoCAD 2000
 90
        0
280
     0
281
     0
  0
CLASS
  1
LWPOLYLINE
  2
AcDbPolyline
  3
AutoCAD 2000
 90
        0
280
     0
281
     1
  0
CLASS
  1
HATCH
  2
AcDbHatch
  3
AutoCAD 2000
 90
        0
280
     0
281
     1
  0
CLASS
  1
XRECORD
  2
AcDbXrecord
  3
AutoCAD 2000
 90
        0
280
     0
281
     0
  0
CLASS
  1
LONG_TRANSACTION
  2
AcDbLongTransaction
  3
AutoCAD 2000
 90
        0
280
     0
281
     0
  0
CLASS
  1
LWPOLYLINE
  2
AcDbPolyline
  3
AutoCAD 2000
 90
        0
280
     0
281
     1
  0
CLASS
  1
HATCH
  2
AcDbHatch
  3
AutoCAD 2000
 90
        0
280
     0
281
     1
  0
CLASS
  1
XRECORD
  2
AcDbXrecord
  3
AutoCAD 2000
 90
        0
280
     0
281
     0
  0
CLASS
  1
LONG_TRANSACTION
  2
AcDbLongTransaction
  3
AutoCAD 2000
 90
        0
280
     0
281
     0
  0
CLASS
  1
LWPOLYLINE
  2
AcDbPolyline
  3
AutoCAD 2000
 90
        0
280
     0
281
     1
  0
CLASS
  1
HATCH
  2
AcDbHatch
  3
AutoCAD 2000
 90
        0
280
     0
281
     1
  0
CLASS
  1
XRECORD
  2
AcDbXrecord
  3
AutoCAD 2000
 90
        0
280
     0
281
     0
  0
CLASS
  1
LONG_TRANSACTION
  2
AcDbLongTransaction
  3
AutoCAD 2000
 90
        0
280
     0
281
     0
  0
CLASS
  1
LWPOLYLINE
  2
AcDbPolyline
  3
AutoCAD 2000
 90
        0
280
     0
281
     1
  0
CLASS
  1
HATCH
  2
AcDbHatch
  3
AutoCAD 2000
 90
        0
280
     0
281
     1
  0
CLASS
  1
XRECORD
  2
AcDbXrecord
  3
AutoCAD 2000
 90
        0
280
     0
281
     0
  0
CLASS
  1
LONG_TRANSACTION
  2
AcDbLongTransaction
  3
AutoCAD 2000
 90
        0
280
     0
281
     0
  0
CLASS
  1
LWPOLYLINE
  2
AcDbPolyline
  3
AutoCAD 2000
 90
        0
280
     0
281
     1
  0
CLASS
  1
HATCH
  2
AcDbHatch
  3
AutoCAD 2000
 90
        0
280
     0
281
     1
  0
CLASS
  1
XRECORD
  2
AcDbXrecord
  3
AutoCAD 2000
 90
        0
280
     0
281
     0
  0
CLASS
  1
LONG_TRANSACTION
  2
AcDbLongTransaction
  3
AutoCAD 2000
 90
        0
280
     0
281
     0
  0
CLASS
  1
LWPOLYLINE
  2
AcDbPolyline
  3
AutoCAD 2000
 90
        0
280
     0
281
     1
  0
CLASS
  1
HATCH
  2
AcDbHatch
  3
AutoCAD 2000
 90
        0
280
     0
281
     1
  0
CLASS
  1
XRECORD
  2
AcDbXrecord
  3
AutoCAD 2000
 90
        0
280
     0
281
     0
  0
CLASS
  1
LONG_TRANSACTION
  2
AcDbLongTransaction
  3
AutoCAD 2000
 90
        0
280
     0
281
     0
  0
CLASS
  1
LWPOLYLINE
  2
AcDbPolyline
  3
AutoCAD 2000
 90
        0
280
     0
281
     1
  0
CLASS
  1
HATCH
  2
AcDbHatch
  3
AutoCAD 2000
 90
        0
280
     0
281
     1
  0
CLASS
  1
XRECORD
  2
AcDbXrecord
  3
AutoCAD 2000
 90
        0
280
     0
281
     0
  0
CLASS
  1
LONG_TRANSACTION
  2
AcDbLongTransaction
  3
AutoCAD 2000
 90
        0
280
     0
281
     0
  0
CLASS
  1
LWPOLYLINE
  2
AcDbPolyline
  3
AutoCAD 2000
 90
        0
280
     0
281
     1
  0
CLASS
  1
HATCH
  2
AcDbHatch
  3
AutoCAD 2000
 90
        0
280
     0
281
     1
  0
CLASS
  1
XRECORD
  2
AcDbXrecord
  3
AutoCAD 2000
 90
        0
280
     0
281
     0
  0
CLASS
  1
LONG_TRANSACTION
  2
AcDbLongTransaction
  3
AutoCAD 2000
 90
        0
280
     0
281
     0
  0
CLASS
  1
LWPOLYLINE
  2
AcDbPolyline
  3
AutoCAD 2000
 90
        0
280
     0
281
     1
  0
CLASS
  1
HATCH
  2
AcDbHatch
  3
AutoCAD 2000
 90
        0
280
     0
281
     1
  0
CLASS
  1
XRECORD
  2
AcDbXrecord
  3
AutoCAD 2000
 90
        0
280
     0
281
     0
  0
CLASS
  1
LONG_TRANSACTION
  2
AcDbLongTransaction
  3
AutoCAD 2000
 90
        0
280
     0
281
     0
  0
CLASS
  1
LWPOLYLINE
  2
AcDbPolyline
  3
AutoCAD 2000
 90
        0
280
     0
281
     1
  0
CLASS
  1
HATCH
  2
AcDbHatch
  3
AutoCAD 2000
 90
        0
280
     0
281
     1
  0
CLASS
  1
XRECORD
  2
AcDbXrecord
  3
AutoCAD 2000
 90
        0
280
     0
281
     0
  0
CLASS
  1
LONG_TRANSACTION
  2
AcDbLongTransaction
  3
AutoCAD 2000
 90
        0
280
     0
281
     0
  0
CLASS
  1
LWPOLYLINE
  2
AcDbPolyline
  3
AutoCAD 2000
 90
        0
280
     0
281
     1
  0
CLASS
  1
HATCH
  2
AcDbHatch
  3
AutoCAD 2000
 90
        0
280
     0
281
     1
  0
CLASS
  1
XRECORD
  2
AcDbXrecord
  3
AutoCAD 2000
 90
        0
280
     0
281
     0
  0
CLASS
  1
LONG_TRANSACTION
  2
AcDbLongTransaction
  3
AutoCAD 2000
 90
        0
280
     0
281
     0
  0
CLASS
  1
LWPOLYLINE
  2
AcDbPolyline
  3
AutoCAD 2000
 90
        0
280
     0
281
     1
  0
CLASS
  1
HATCH
  2
AcDbHatch
  3
AutoCAD 2000
 90
        0
280
     0
281
     1
  0
CLASS
  1
XRECORD
  2
AcDbXrecord
  3
AutoCAD 2000
 90
        0
280
     0
281
     0
  0
CLASS
  1
LONG_TRANSACTION
  2
AcDbLongTransaction
  3
AutoCAD 2000
 90
        0
280
     0
281
     0
  0
CLASS
  1
LWPOLYLINE
  2
AcDbPolyline
  3
AutoCAD 2000
 90
        0
280
     0
281
     1
  0
CLASS
  1
HATCH
  2
AcDbHatch
  3
AutoCAD 2000
 90
        0
280
     0
281
     1
  0
CLASS
  1
XRECORD
  2
AcDbXrecord
  3
AutoCAD 2000
 90
        0
280
     0
281
     0
  0
CLASS
  1
LONG_TRANSACTION
  2
AcDbLongTransaction
  3
AutoCAD 2000
 90
        0
280
     0
281
     0
  0
CLASS
  1
LWPOLYLINE
  2
AcDbPolyline
  3
AutoCAD 2000
 90
        0
280
     0
281
     1
  0
CLASS
  1
HATCH
  2
AcDbHatch
  3
AutoCAD 2000
 90
        0
280
     0
281
     1
  0
CLASS
  1
XRECORD
  2
AcDbXrecord
  3
AutoCAD 2000
 90
        0
280
     0
281
     0
  0
CLASS
  1
LONG_TRANSACTION
  2
AcDbLongTransaction
  3
AutoCAD 2000
 90
        0
280
     0
281
     0
  0
CLASS
  1
LWPOLYLINE
  2
AcDbPolyline
  3
AutoCAD 2000
 90
        0
280
     0
281
     1
  0
CLASS
  1
HATCH
  2
AcDbHatch
  3
AutoCAD 2000
 90
        0
280
     0
281
     1
  0
CLASS
  1
XRECORD
  2
AcDbXrecord
  3
AutoCAD 2000
 90
        0
280
     0
281
     0
  0
CLASS
  1
LONG_TRANSACTION
  2
AcDbLongTransaction
  3
AutoCAD 2000
 90
        0
280
     0
281
     0
  0
CLASS
  1
LWPOLYLINE
  2
AcDbPolyline
  3
AutoCAD 2000
 90
        0
280
     0
281
     1
  0
CLASS
  1
HATCH
  2
AcDbHatch
  3
AutoCAD 2000
 90
        0
280
     0
281
     1
  0
CLASS
  1
XRECORD
  2
AcDbXrecord
  3
AutoCAD 2000
 90
        0
280
     0
281
     0
  0
CLASS
  1
LONG_TRANSACTION
  2
AcDbLongTransaction
  3
AutoCAD 2000
 90
        0
280
     0
281
     0
  0
CLASS
  1
LWPOLYLINE
  2
AcDbPolyline
  3
AutoCAD 2000
 90
        0
280
     0
281
     1
  0
CLASS
  1
HATCH
  2
AcDbHatch
  3
AutoCAD 2000
 90
        0
280
     0
281
     1
  0
CLASS
  1
XRECORD
  2
AcDbXrecord
  3
AutoCAD 2000
 90
        0
280
     0
281
     0
  0
CLASS
  1
LONG_TRANSACTION
  2
AcDbLongTransaction
  3
AutoCAD 2000
 90
        0
280
     0
281
     0
  0
CLASS
  1
LWPOLYLINE
  2
AcDbPolyline
  3
AutoCAD 2000
 90
        0
280
     0
281
     1
  0
CLASS
  1
HATCH
  2
AcDbHatch
  3
AutoCAD 2000
 90
        0
280
     0
281
     1
  0
CLASS
  1
XRECORD
  2
AcDbXrecord
  3
AutoCAD 2000
 90
        0
280
     0
281
     0
  0
CLASS
  1
LONG_TRANSACTION
  2
AcDbLongTransaction
  3
AutoCAD 2000
 90
        0
280
     0
281
     0
  0
CLASS
  1
LWPOLYLINE
  2
AcDbPolyline
  3
AutoCAD 2000
 90
        0
280
     0
281
     1
  0
CLASS
  1
HATCH
  2
AcDbHatch
  3
AutoCAD 2000
 90
        0
280
     0
281
     1
  0
CLASS
  1
XRECORD
  2
AcDbXrecord
  3
AutoCAD 2000
 90
        0
280
     0
281
     0
  0
CLASS
  1
LONG_TRANSACTION
  2
AcDbLongTransaction
  3
AutoCAD 2000
 90
        0
280
     0
281
     0
  0
CLASS
  1
LWPOLYLINE
  2
AcDbPolyline
  3
AutoCAD 2000
 90
        0
280
     0
281
     1
  0
CLASS
  1
HATCH
  2
AcDbHatch
  3
AutoCAD 2000
 90
        0
280
     0
281
     1
  0
CLASS
  1
XRECORD
  2
AcDbXrecord
  3
AutoCAD 2000
 90
        0
280
     0
281
     0
  0
CLASS
  1
LONG_TRANSACTION
  2
AcDbLongTransaction
  3
AutoCAD 2000
 90
        0
280
     0
281
     0
  0
CLASS
  1
LWPOLYLINE
  2
AcDbPolyline
  3
AutoCAD 2000
 90
        0
280
     0
281
     1
  0
CLASS
  1
HATCH
  2
AcDbHatch
  3
AutoCAD 2000
 90
        0
280
     0
281
     1
  0
CLASS
  1
XRECORD
  2
AcDbXrecord
  3
AutoCAD 2000
 90
        0
280
     0
281
     0
  0
CLASS
  1
LONG_TRANSACTION
  2
AcDbLongTransaction
  3
AutoCAD 2000
 90
        0
280
     0
281
     0
  0
CLASS
  1
LWPOLYLINE
  2
AcDbPolyline
  3
AutoCAD 2000
 90
        0
280
     0
281
     1
  0
CLASS
  1
HATCH
  2
AcDbHatch
  3
AutoCAD 2000
 90
        0
280
     0
281
     1
  0
CLASS
  1
XRECORD
  2
AcDbXrecord
  3
AutoCAD 2000
 90
        0
280
     0
281
     0
  0
CLASS
  1
LONG_TRANSACTION
  2
AcDbLongTransaction
  3
AutoCAD 2000
 90
        0
280
     0
281
     0
  0
CLASS
  1
LWPOLYLINE
  2
AcDbPolyline
  3
AutoCAD 2000
 90
        0
280
     0
281
     1
  0
CLASS
  1
HATCH
  2
AcDbHatch
  3
AutoCAD 2000
 90
        0
280
     0
281
     1
  0
CLASS
  1
XRECORD
  2
AcDbXrecord
  3
AutoCAD 2000
 90
        0
280
     0
281
     0
  0
CLASS
  1
LONG_TRANSACTION
  2
AcDbLongTransaction
  3
AutoCAD 2000
 90
        0
280
     0
281
     0
  0
CLASS
  1
LWPOLYLINE
  2
AcDbPolyline
  3
AutoCAD 2000
 90
        0
280
     0
281
     1
  0
CLASS
  1
HATCH
  2
AcDbHatch
  3
AutoCAD 2000
 90
        0
280
     0
281
     1
  0
CLASS
  1
XRECORD
  2
AcDbXrecord
  3
AutoCAD 2000
 90
        0
280
     0
281
     0
  0
CLASS
  1
LONG_TRANSACTION
  2
AcDbLongTransaction
  3
AutoCAD 2000
 90
        0
280
     0
281
     0
  0
CLASS
  1
LWPOLYLINE
  2
AcDbPolyline
  3
AutoCAD 2000
 90
        0
280
     0
281
     1
  0
CLASS
  1
HATCH
  2
AcDbHatch
  3
AutoCAD 2000
 90
        0
280
     0
281
     1
  0
CLASS
  1
XRECORD
  2
AcDbXrecord
  3
AutoCAD 2000
 90
        0
280
     0
281
     0
  0
CLASS
  1
LONG_TRANSACTION
  2
AcDbLongTransaction
  3
AutoCAD 2000
 90
        0
280
     0
281
     0
  0
CLASS
  1
LWPOLYLINE
  2
AcDbPolyline
  3
AutoCAD 2000
 90
        0
280
     0
281
     1
  0
CLASS
  1
HATCH
  2
AcDbHatch
  3
AutoCAD 2000
 90
        0
280
     0
281
     1
  0
CLASS
  1
XRECORD
  2
AcDbXrecord
  3
AutoCAD 2000
 90
        0
280
     0
281
     0
  0
CLASS
  1
LONG_TRANSACTION
  2
AcDbLongTransaction
  3
AutoCAD 2000
 90
        0
280
     0
281
     0
  0
CLASS
  1
LWPOLYLINE
  2
AcDbPolyline
  3
AutoCAD 2000
 90
        0
280
     0
281
     1
  0
CLASS
  1
HATCH
  2
AcDbHatch
  3
AutoCAD 2000
 90
        0
280
     0
281
     1
  0
CLASS
  1
XRECORD
  2
AcDbXrecord
  3
AutoCAD 2000
 90
        0
280
     0
281
     0
  0
CLASS
  1
LONG_TRANSACTION
  2
AcDbLongTransaction
  3
AutoCAD 2000
 90
        0
280
     0
281
     0
  0
CLASS
  1
LWPOLYLINE
  2
AcDbPolyline
  3
AutoCAD 2000
 90
        0
280
     0
281
     1
  0
CLASS
  1
HATCH
  2
AcDbHatch
  3
AutoCAD 2000
 90
        0
280
     0
281
     1
  0
CLASS
  1
XRECORD
  2
AcDbXrecord
  3
AutoCAD 2000
 90
        0
280
     0
281
     0
  0
CLASS
  1
LONG_TRANSACTION
  2
AcDbLongTransaction
  3
AutoCAD 2000
 90
        0
280
     0
281
     0
  0
CLASS
  1
LWPOLYLINE
  2
AcDbPolyline
  3
AutoCAD 2000
 90
        0
280
     0
281
     1
  0
CLASS
  1
HATCH
  2
AcDbHatch
  3
AutoCAD 2000
 90
        0
280
     0
281
     1
  0
CLASS
  1
XRECORD
  2
AcDbXrecord
  3
AutoCAD 2000
 90
        0
280
     0
281
     0
  0
CLASS
  1
LONG_TRANSACTION
  2
AcDbLongTransaction
  3
AutoCAD 2000
 90
        0
280
     0
281
     0
  0
CLASS
  1
LWPOLYLINE
  2
AcDbPolyline
  3
AutoCAD 2000
 90
        0
280
     0
281
     1
  0
CLASS
  1
HATCH
  2
AcDbHatch
  3
AutoCAD 2000
 90
        0
280
     0
281
     1
  0
CLASS
  1
XRECORD
  2
AcDbXrecord
  3
AutoCAD 2000
 90
        0
280
     0
281
     0
  0
CLASS
  1
LONG_TRANSACTION
  2
AcDbLongTransaction
  3
AutoCAD 2000
 90
        0
280
     0
281
     0
  0
CLASS
  1
LWPOLYLINE
  2
AcDbPolyline
  3
AutoCAD 2000
 90
        0
280
     0
281
     1
  0
CLASS
  1
HATCH
  2
AcDbHatch
  3
AutoCAD 2000
 90
        0
280
     0
281
     1
  0
CLASS
  1
XRECORD
  2
AcDbXrecord
  3
AutoCAD 2000
 90
        0
280
     0
281
     0
  0
CLASS
  1
LONG_TRANSACTION
  2
AcDbLongTransaction
  3
AutoCAD 2000
 90
        0
280
     0
281
     0
  0
CLASS
  1
LWPOLYLINE
  2
AcDbPolyline
  3
AutoCAD 2000
 90
        0
280
     0
281
     1
  0
CLASS
  1
HATCH
  2
AcDbHatch
  3
AutoCAD 2000
 90
        0
280
     0
281
     1
  0
CLASS
  1
XRECORD
  2
AcDbXrecord
  3
AutoCAD 2000
 90
        0
280
     0
281
     0
  0
CLASS
  1
LONG_TRANSACTION
  2
AcDbLongTransaction
  3
AutoCAD 2000
 90
        0
280
     0
281
     0
  0
CLASS
  1
LWPOLYLINE
  2
AcDbPolyline
  3
AutoCAD 2000
 90
        0
280
     0
281
     1
  0
CLASS
  1
HATCH
  2
AcDbHatch
  3
AutoCAD 2000
 90
        0
280
     0
281
     1
  0
CLASS
  1
XRECORD
  2
AcDbXrecord
  3
AutoCAD 2000
 90
        0
280
     0
281
     0
  0
CLASS
  1
LONG_TRANSACTION
  2
AcDbLongTransaction
  3
AutoCAD 2000
 90
        0
280
     0
281
     0
  0
CLASS
  1
LWPOLYLINE
  2
AcDbPolyline
  3
AutoCAD 2000
 90
        0
280
     0
281
     1
  0
CLASS
  1
HATCH
  2
AcDbHatch
  3
AutoCAD 2000
 90
        0
280
     0
281
     1
  0
CLASS
  1
XRECORD
  2
AcDbXrecord
  3
AutoCAD 2000
 90
        0
280
     0
281
     0
  0
CLASS
  1
LONG_TRANSACTION
  2
AcDbLongTransaction
  3
AutoCAD 2000
 90
        0
280
     0
281
     0
  0
CLASS
  1
LWPOLYLINE
  2
AcDbPolyline
  3
AutoCAD 2000
 90
        0
280
     0
281
     1
  0
CLASS
  1
HATCH
  2
AcDbHatch
  3
AutoCAD 2000
 90
        0
280
     0
281
     1
  0
CLASS
  1
XRECORD
  2
AcDbXrecord
  3
AutoCAD 2000
 90
        0
280
     0
281
     0
  0
CLASS
  1
LONG_TRANSACTION
  2
AcDbLongTransaction
  3
AutoCAD 2000
 90
        0
280
     0
281
     0
  0
CLASS
  1
LWPOLYLINE
  2
AcDbPolyline
  3
AutoCAD 2000
 90
        0
280
     0
281
     1
  0
CLASS
  1
HATCH
  2
AcDbHatch
  3
AutoCAD 2000
 90
        0
280
     0
281
     1
  0
CLASS
  1
XRECORD
  2
AcDbXrecord
  3
AutoCAD 2000
 90
        0
280
     0
281
     0
  0
CLASS
  1
LONG_TRANSACTION
  2
AcDbLongTransaction
  3
AutoCAD 2000
 90
        0
280
     0
281
     0
  0
CLASS
  1
LWPOLYLINE
  2
AcDbPolyline
  3
AutoCAD 2000
 90
        0
280
     0
281
     1
  0
CLASS
  1
HATCH
  2
AcDbHatch
  3
AutoCAD 2000
 90
        0
280
     0
281
     1
  0
CLASS
  1
XRECORD
  2
AcDbXrecord
  3
AutoCAD 2000
 90
        0
280
     0
281
     0
  0
CLASS
  1
LONG_TRANSACTION
  2
AcDbLongTransaction
  3
AutoCAD 2000
 90
        0
280
     0
281
     0
  0
CLASS
  1
LWPOLYLINE
  2
AcDbPolyline
  3
AutoCAD 2000
 90
        0
280
     0
281
     1
  0
CLASS
  1
HATCH
  2
AcDbHatch
  3
AutoCAD 2000
 90
        0
280
     0
281
     1
  0
CLASS
  1
XRECORD
  2
AcDbXrecord
  3
AutoCAD 2000
 90
        0
280
     0
281
     0
  0
CLASS
  1
LONG_TRANSACTION
  2
AcDbLongTransaction
  3
AutoCAD 2000
 90
        0
280
     0
281
     0
  0
CLASS
  1
LWPOLYLINE
  2
AcDbPolyline
  3
AutoCAD 2000
 90
        0
280
     0
281
     1
  0
CLASS
  1
HATCH
  2
AcDbHatch
  3
AutoCAD 2000
 90
        0
280
     0
281
     1
  0
CLASS
  1
XRECORD
  2
AcDbXrecord
  3
AutoCAD 2000
 90
        0
280
     0
281
     0
  0
CLASS
  1
LONG_TRANSACTION
  2
AcDbLongTransaction
  3
AutoCAD 2000
 90
        0
280
     0
281
     0
  0
CLASS
  1
LWPOLYLINE
  2
AcDbPolyline
  3
AutoCAD 2000
 90
        0
280
     0
281
     1
  0
CLASS
  1
HATCH
  2
AcDbHatch
  3
AutoCAD 2000
 90
        0
280
     0
281
     1
  0
CLASS
  1
XRECORD
  2
AcDbXrecord
  3
AutoCAD 2000
 90
        0
280
     0
281
     0
  0
CLASS
  1
LONG_TRANSACTION
  2
AcDbLongTransaction
  3
AutoCAD 2000
 90
        0
280
     0
281
     0
  0
CLASS
  1
LWPOLYLINE
  2
AcDbPolyline
  3
AutoCAD 2000
 90
        0
280
     0
281
     1
  0
CLASS
  1
HATCH
  2
AcDbHatch
  3
AutoCAD 2000
 90
        0
280
     0
281
     1
  0
CLASS
  1
XRECORD
  2
AcDbXrecord
  3
AutoCAD 2000
 90
        0
280
     0
281
     0
  0
CLASS
  1
LONG_TRANSACTION
  2
AcDbLongTransaction
  3
AutoCAD 2000
 90
        0
280
     0
281
     0
  0
CLASS
  1
LWPOLYLINE
  2
AcDbPolyline
  3
AutoCAD 2000
 90
        0
280
     0
281
     1
  0
CLASS
  1
HATCH
  2
AcDbHatch
  3
AutoCAD 2000
 90
        0
280
     0
281
     1
  0
CLASS
  1
XRECORD
  2
AcDbXrecord
  3
AutoCAD 2000
 90
        0
280
     0
281
     0
  0
CLASS
  1
LONG_TRANSACTION
  2
AcDbLongTransaction
  3
AutoCAD 2000
 90
        0
280
     0
281
     0
  0
CLASS
  1
LWPOLYLINE
  2
AcDbPolyline
  3
AutoCAD 2000
 90
        0
280
     0
281
     1
  0
CLASS
  1
HATCH
  2
AcDbHatch
  3
AutoCAD 2000
 90
        0
280
     0
281
     1
  0
CLASS
  1
XRECORD
  2
AcDbXrecord
  3
AutoCAD 2000
 90
        0
280
     0
281
     0
  0
CLASS
  1
LONG_TRANSACTION
  2
AcDbLongTransaction
  3
AutoCAD 2000
 90
        0
280
     0
281
     0
  0
CLASS
  1
LWPOLYLINE
  2
AcDbPolyline
  3
AutoCAD 2000
 90
        0
280
     0
281
     1
  0
CLASS
  1
HATCH
  2
AcDbHatch
  3
AutoCAD 2000
 90
        0
280
     0
281
     1
  0
CLASS
  1
XRECORD
  2
AcDbXrecord
  3
AutoCAD 2000
 90
        0
280
     0
281
     0
  0
CLASS
  1
LONG_TRANSACTION
  2
AcDbLongTransaction
  3
AutoCAD 2000
 90
        0
280
     0
281
     0
  0
CLASS
  1
LWPOLYLINE
  2
AcDbPolyline
  3
AutoCAD 2000
 90
        0
280
     0
281
     1
  0
CLASS
  1
HATCH
  2
AcDbHatch
  3
AutoCAD 2000
 90
        0
280
     0
281
     1
  0
CLASS
  1
XRECORD
  2
AcDbXrecord
  3
AutoCAD 2000
 90
        0
280
     0
281
     0
  0
CLASS
  1
LONG_TRANSACTION
  2
AcDbLongTransaction
  3
AutoCAD 2000
 90
        0
280
     0
281
     0
  0
CLASS
  1
LWPOLYLINE
  2
AcDbPolyline
  3
AutoCAD 2000
 90
        0
280
     0
281
     1
  0
CLASS
  1
HATCH
  2
AcDbHatch
  3
AutoCAD 2000
 90
        0
280
     0
281
     1
  0
CLASS
  1
XRECORD
  2
AcDbXrecord
  3
AutoCAD 2000
 90
        0
280
     0
281
     0
  0
CLASS
  1
LONG_TRANSACTION
  2
AcDbLongTransaction
  3
AutoCAD 2000
 90
        0
280
     0
281
     0
  0
CLASS
  1
LWPOLYLINE
  2
AcDbPolyline
  3
AutoCAD 2000
 90
        0
280
     0
281
     1
  0
CLASS
  1
HATCH
  2
AcDbHatch
  3
AutoCAD 2000
 90
        0
280
     0
281
     1
  0
CLASS
  1
XRECORD
  2
AcDbXrecord
  3
AutoCAD 2000
 90
        0
280
     0
281
     0
  0
CLASS
  1
LONG_TRANSACTION
  2
AcDbLongTransaction
  3
AutoCAD 2000
 90
        0
280
     0
281
     0
  0
CLASS
  1
LWPOLYLINE
  2
AcDbPolyline
  3
AutoCAD 2000
 90
        0
280
     0
281
     1
  0
CLASS
  1
HATCH
  2
AcDbHatch
  3
AutoCAD 2000
 90
        0
280
     0
281
     1
  0
CLASS
  1
XRECORD
  2
AcDbXrecord
  3
AutoCAD 2000
 90
        0
280
     0
281
     0
  0
CLASS
  1
LONG_TRANSACTION
  2
AcDbLongTransaction
  3
AutoCAD 2000
 90
        0
280
     0
281
     0
  0
CLASS
  1
LWPOLYLINE
  2
AcDbPolyline
  3
AutoCAD 2000
 90
        0
280
     0
281
     1
  0
CLASS
  1
HATCH
  2
AcDbHatch
  3
AutoCAD 2000
 90
        0
280
     0
281
     1
  0
CLASS
  1
XRECORD
  2
AcDbXrecord
  3
AutoCAD 2000
 90
        0
280
     0
281
     0
  0
CLASS
  1
LONG_TRANSACTION
  2
AcDbLongTransaction
  3
AutoCAD 2000
 90
        0
280
     0
281
     0
  0
CLASS
  1
LWPOLYLINE
  2
AcDbPolyline
  3
AutoCAD 2000
 90
        0
280
     0
281
     1
  0
CLASS
  1
HATCH
  2
AcDbHatch
  3
AutoCAD 2000
 90
        0
280
     0
281
     1
  0
CLASS
  1
XRECORD
  2
AcDbXrecord
  3
AutoCAD 2000
 90
        0
280
     0
281
     0
  0
CLASS
  1
LONG_TRANSACTION
  2
AcDbLongTransaction
  3
AutoCAD 2000
 90
        0
280
     0
281
     0
  0
CLASS
  1
LWPOLYLINE
  2
AcDbPolyline
  3
AutoCAD 2000
 90
        0
280
     0
281
     1
  0
CLASS
  1
HATCH
  2
AcDbHatch
  3
AutoCAD 2000
 90
        0
280
     0
281
     1
  0
CLASS
  1
XRECORD
  2
AcDbXrecord
  3
AutoCAD 2000
 90
        0
280
     0
281
     0
  0
CLASS
  1
LONG_TRANSACTION
  2
AcDbLongTransaction
  3
AutoCAD 2000
 90
        0
280
     0
281
     0
  0
CLASS
  1
LWPOLYLINE
  2
AcDbPolyline
  3
AutoCAD 2000
 90
        0
280
     0
281
     1
  0
CLASS
  1
HATCH
  2
AcDbHatch
  3
AutoCAD 2000
 90
        0
280
     0
281
     1
  0
CLASS
  1
XRECORD
  2
AcDbXrecord
  3
AutoCAD 2000
 90
        0
280
     0
281
     0
  0
CLASS
  1
LONG_TRANSACTION
  2
AcDbLongTransaction
  3
AutoCAD 2000
 90
        0
280
     0
281
     0
  0
CLASS
  1
LWPOLYLINE
  2
AcDbPolyline
  3
AutoCAD 2000
 90
        0
280
     0
281
     1
  0
CLASS
  1
HATCH
  2
AcDbHatch
  3
AutoCAD 2000
 90
        0
280
     0
281
     1
  0
CLASS
  1
XRECORD
  2
AcDbXrecord
  3
AutoCAD 2000
 90
        0
280
     0
281
     0
  0
CLASS
  1
LONG_TRANSACTION
  2
AcDbLongTransaction
  3
AutoCAD 2000
 90
        0
280
     0
281
     0
  0
CLASS
  1
LWPOLYLINE
  2
AcDbPolyline
  3
AutoCAD 2000
 90
        0
280
     0
281
     1
  0
CLASS
  1
HATCH
  2
AcDbHatch
  3
AutoCAD 2000
 90
        0
280
     0
281
     1
  0
CLASS
  1
XRECORD
  2
AcDbXrecord
  3
AutoCAD 2000
 90
        0
280
     0
281
     0
  0
CLASS
  1
LONG_TRANSACTION
  2
AcDbLongTransaction
  3
AutoCAD 2000
 90
        0
280
     0
281
     0
  0
CLASS
  1
LWPOLYLINE
  2
AcDbPolyline
  3
AutoCAD 2000
 90
        0
280
     0
281
     1
  0
CLASS
  1
HATCH
  2
AcDbHatch
  3
AutoCAD 2000
 90
        0
280
     0
281
     1
  0
CLASS
  1
XRECORD
  2
AcDbXrecord
  3
AutoCAD 2000
 90
        0
280
     0
281
     0
  0
CLASS
  1
LONG_TRANSACTION
  2
AcDbLongTransaction
  3
AutoCAD 2000
 90
        0
280
     0
281
     0
  0
CLASS
  1
LWPOLYLINE
  2
AcDbPolyline
  3
AutoCAD 2000
 90
        0
280
     0
281
     1
  0
CLASS
  1
HATCH
  2
AcDbHatch
  3
AutoCAD 2000
 90
        0
280
     0
281
     1
  0
CLASS
  1
XRECORD
  2
AcDbXrecord
  3
AutoCAD 2000
 90
        0
280
     0
281
     0
  0
CLASS
  1
LONG_TRANSACTION
  2
AcDbLongTransaction
  3
AutoCAD 2000
 90
        0
280
     0
281
     0
  0
CLASS
  1
LWPOLYLINE
  2
AcDbPolyline
  3
AutoCAD 2000
 90
        0
280
     0
281
     1
  0
CLASS
  1
HATCH
  2
AcDbHatch
  3
AutoCAD 2000
 90
        0
280
     0
281
     1
  0
CLASS
  1
XRECORD
  2
AcDbXrecord
  3
AutoCAD 2000
 90
        0
280
     0
281
     0
  0
CLASS
  1
LONG_TRANSACTION
  2
AcDbLongTransaction
  3
AutoCAD 2000
 90
        0
280
     0
281
     0
  0
CLASS
  1
LWPOLYLINE
  2
AcDbPolyline
  3
AutoCAD 2000
 90
        0
280
     0
281
     1
  0
CLASS
  1
HATCH
  2
AcDbHatch
  3
AutoCAD 2000
 90
        0
280
     0
281
     1
  0
CLASS
  1
XRECORD
  2
AcDbXrecord
  3
AutoCAD 2000
 90
        0
280
     0
281
     0
  0
CLASS
  1
LONG_TRANSACTION
  2
AcDbLongTransaction
  3
AutoCAD 2000
 90
        0
280
     0
281
     0
  0
CLASS
  1
LWPOLYLINE
  2
AcDbPolyline
  3
AutoCAD 2000
 90
        0
280
     0
281
     1
  0
CLASS
  1
HATCH
  2
AcDbHatch
  3
AutoCAD 2000
 90
        0
280
     0
281
     1
  0
CLASS
  1
XRECORD
  2
AcDbXrecord
  3
AutoCAD 2000
 90
        0
280
     0
281
     0
  0
CLASS
  1
LONG_TRANSACTION
  2
AcDbLongTransaction
  3
AutoCAD 2000
 90
        0
280
     0
281
     0
  0
CLASS
  1
LWPOLYLINE
  2
AcDbPolyline
  3
AutoCAD 2000
 90
        0
280
     0
281
     1
  0
CLASS
  1
HATCH
  2
AcDbHatch
  3
AutoCAD 2000
 90
        0
280
     0
281
     1
  0
CLASS
  1
XRECORD
  2
AcDbXrecord
  3
AutoCAD 2000
 90
        0
280
     0
281
     0
  0
CLASS
  1
LONG_TRANSACTION
  2
AcDbLongTransaction
  3
AutoCAD 2000
 90
        0
280
     0
281
     0
  0
CLASS
  1
LWPOLYLINE
  2
AcDbPolyline
  3
AutoCAD 2000
 90
        0
280
     0
281
     1
  0
CLASS
  1
HATCH
  2
AcDbHatch
  3
AutoCAD 2000
 90
        0
280
     0
281
     1
  0
CLASS
  1
XRECORD
  2
AcDbXrecord
  3
AutoCAD 2000
 90
        0
280
     0
281
     0
  0
CLASS
  1
LONG_TRANSACTION
  2
AcDbLongTransaction
  3
AutoCAD 2000
 90
        0
280
     0
281
     0
  0
CLASS
  1
LWPOLYLINE
  2
AcDbPolyline
  3
AutoCAD 2000
 90
        0
280
     0
281
     1
  0
CLASS
  1
HATCH
  2
AcDbHatch
  3
AutoCAD 2000
 90
        0
280
     0
281
     1
  0
CLASS
  1
XRECORD
  2
AcDbXrecord
  3
AutoCAD 2000
 90
        0
280
     0
281
     0
  0
CLASS
  1
LONG_TRANSACTION
  2
AcDbLongTransaction
  3
AutoCAD 2000
 90
        0
280
     0
281
     0
  0
CLASS
  1
LWPOLYLINE
  2
AcDbPolyline
  3
AutoCAD 2000
 90
        0
280
     0
281
     1
  0
CLASS
  1
HATCH
  2
AcDbHatch
  3
AutoCAD 2000
 90
        0
280
     0
281
     1
  0
CLASS
  1
XRECORD
  2
AcDbXrecord
  3
AutoCAD 2000
 90
        0
280
     0
281
     0
  0
CLASS
  1
LONG_TRANSACTION
  2
AcDbLongTransaction
  3
AutoCAD 2000
 90
        0
280
     0
281
     0
  0
CLASS
  1
LWPOLYLINE
  2
AcDbPolyline
  3
AutoCAD 2000
 90
        0
280
     0
281
     1
  0
CLASS
  1
HATCH
  2
AcDbHatch
  3
AutoCAD 2000
 90
        0
280
     0
281
     1
  0
CLASS
  1
XRECORD
  2
AcDbXrecord
  3
AutoCAD 2000
 90
        0
280
     0
281
     0
  0
CLASS
  1
LONG_TRANSACTION
  2
AcDbLongTransaction
  3
AutoCAD 2000
 90
        0
280
     0
281
     0
  0
CLASS
  1
LWPOLYLINE
  2
AcDbPolyline
  3
AutoCAD 2000
 90
        0
280
     0
281
     1
  0
CLASS
  1
HATCH
  2
AcDbHatch
  3
AutoCAD 2000
 90
        0
280
     0
281
     1
  0
CLASS
  1
XRECORD
  2
AcDbXrecord
  3
AutoCAD 2000
 90
        0
280
     0
281
     0
  0
CLASS
  1
LONG_TRANSACTION
  2
AcDbLongTransaction
  3
AutoCAD 2000
 90
        0
280
     0
281
     0
  0
CLASS
  1
LWPOLYLINE
  2
AcDbPolyline
  3
AutoCAD 2000
 90
        0
280
     0
281
     1
  0
CLASS
  1
HATCH
  2
AcDbHatch
  3
AutoCAD 2000
 90
        0
280
     0
281
     1
  0
CLASS
  1
XRECORD
  2
AcDbXrecord
  3
AutoCAD 2000
 90
        0
280
     0
281
     0
  0
CLASS
  1
LONG_TRANSACTION
  2
AcDbLongTransaction
  3
AutoCAD 2000
 90
        0
280
     0
281
     0
  0
CLASS
  1
LWPOLYLINE
  2
AcDbPolyline
  3
AutoCAD 2000
 90
        0
280
     0
281
     1
  0
CLASS
  1
HATCH
  2
AcDbHatch
  3
AutoCAD 2000
 90
        0
280
     0
281
     1
  0
CLASS
  1
XRECORD
  2
AcDbXrecord
  3
AutoCAD 2000
 90
        0
280
     0
281
     0
  0
CLASS
  1
LONG_TRANSACTION
  2
AcDbLongTransaction
  3
AutoCAD 2000
 90
        0
280
     0
281
     0
  0
CLASS
  1
LWPOLYLINE
  2
AcDbPolyline
  3
AutoCAD 2000
 90
        0
280
     0
281
     1
  0
CLASS
  1
HATCH
  2
AcDbHatch
  3
AutoCAD 2000
 90
        0
280
     0
281
     1
  0
CLASS
  1
XRECORD
  2
AcDbXrecord
  3
AutoCAD 2000
 90
        0
280
     0
281
     0
  0
CLASS
  1
LONG_TRANSACTION
  2
AcDbLongTransaction
  3
AutoCAD 2000
 90
        0
280
     0
281
     0
  0
CLASS
  1
LWPOLYLINE
  2
AcDbPolyline
  3
AutoCAD 2000
 90
        0
280
     0
281
     1
  0
CLASS
  1
HATCH
  2
AcDbHatch
  3
AutoCAD 2000
 90
        0
280
     0
281
     1
  0
CLASS
  1
XRECORD
  2
AcDbXrecord
  3
AutoCAD 2000
 90
        0
280
     0
281
     0
  0
CLASS
  1
LONG_TRANSACTION
  2
AcDbLongTransaction
  3
AutoCAD 2000
 90
        0
280
     0
281
     0
  0
CLASS
  1
LWPOLYLINE
  2
AcDbPolyline
  3
AutoCAD 2000
 90
        0
280
     0
281
     1
  0
CLASS
  1
HATCH
  2
AcDbHatch
  3
AutoCAD 2000
 90
        0
280
     0
281
     1
  0
CLASS
  1
XRECORD
  2
AcDbXrecord
  3
AutoCAD 2000
 90
        0
280
     0
281
     0
  0
CLASS
  1
LONG_TRANSACTION
  2
AcDbLongTransaction
  3
AutoCAD 2000
 90
        0
280
     0
281
     0
  0
CLASS
  1
LWPOLYLINE
  2
AcDbPolyline
  3
AutoCAD 2000
 90
        0
280
     0
281
     1
  0
CLASS
  1
HATCH
  2
AcDbHatch
  3
AutoCAD 2000
 90
        0
280
     0
281
     1
  0
CLASS
  1
XRECORD
  2
AcDbXrecord
  3
AutoCAD 2000
 90
        0
280
     0
281
     0
  0
CLASS
  1
LONG_TRANSACTION
  2
AcDbLongTransaction
  3
AutoCAD 2000
 90
        0
280
     0
281
     0
  0
CLASS
  1
LWPOLYLINE
  2
AcDbPolyline
  3
AutoCAD 2000
 90
        0
280
     0
281
     1
  0
CLASS
  1
HATCH
  2
AcDbHatch
  3
AutoCAD 2000
 90
        0
280
     0
281
     1
  0
CLASS
  1
XRECORD
  2
AcDbXrecord
  3
AutoCAD 2000
 90
        0
280
     0
281
     0
  0
CLASS
  1
LONG_TRANSACTION
  2
AcDbLongTransaction
  3
AutoCAD 2000
 90
        0
280
     0
281
     0
  0
CLASS
  1
LWPOLYLINE
  2
AcDbPolyline
  3
AutoCAD 2000
 90
        0
280
     0
281
     1
  0
CLASS
  1
HATCH
  2
AcDbHatch
  3
AutoCAD 2000
 90
        0
280
     0
281
     1
  0
CLASS
  1
XRECORD
  2
AcDbXrecord
  3
AutoCAD 2000
 90
        0
280
     0
281
     0
  0
CLASS
  1
LONG_TRANSACTION
  2
AcDbLongTransaction
  3
AutoCAD 2000
 90
        0
280
     0
281
     0
  0
CLASS
  1
LWPOLYLINE
  2
AcDbPolyline
  3
AutoCAD 2000
 90
        0
280
     0
281
     1
  0
CLASS
  1
HATCH
  2
AcDbHatch
  3
AutoCAD 2000
 90
        0
280
     0
281
     1
  0
CLASS
  1
XRECORD
  2
AcDbXrecord
  3
AutoCAD 2000
 90
        0
280
     0
281
     0
  0
CLASS
  1
LONG_TRANSACTION
  2
AcDbLongTransaction
  3
AutoCAD 2000
 90
        0
280
     0
281
     0
  0
CLASS
  1
LWPOLYLINE
  2
AcDbPolyline
  3
AutoCAD 2000
 90
        0
280
     0
281
     1
  0
CLASS
  1
HATCH
  2
AcDbHatch
  3
AutoCAD 2000
 90
        0
280
     0
281
     1
  0
CLASS
  1
XRECORD
  2
AcDbXrecord
  3
AutoCAD 2000
 90
        0
280
     0
281
     0
  0
CLASS
  1
LONG_TRANSACTION
  2
AcDbLongTransaction
  3
AutoCAD 2000
 90
        0
280
     0
281
     0
  0
CLASS
  1
LWPOLYLINE
  2
AcDbPolyline
  3
AutoCAD 2000
 90
        0
280
     0
281
     1
  0
CLASS
  1
HATCH
  2
AcDbHatch
  3
AutoCAD 2000
 90
        0
280
     0
281
     1
  0
CLASS
  1
XRECORD
  2
AcDbXrecord
  3
AutoCAD 2000
 90
        0
280
     0
281
     0
  0
CLASS
  1
LONG_TRANSACTION
  2
AcDbLongTransaction
  3
AutoCAD 2000
 90
        0
280
     0
281
     0
  0
CLASS
  1
LWPOLYLINE
  2
AcDbPolyline
  3
AutoCAD 2000
 90
        0
280
     0
281
     1
  0
CLASS
  1
HATCH
  2
AcDbHatch
  3
AutoCAD 2000
 90
        0
280
     0
281
     1
  0
CLASS
  1
XRECORD
  2
AcDbXrecord
  3
AutoCAD 2000
 90
        0
280
     0
281
     0
  0
CLASS
  1
LONG_TRANSACTION
  2
AcDbLongTransaction
  3
AutoCAD 2000
 90
        0
280
     0
281
     0
  0
CLASS
  1
LWPOLYLINE
  2
AcDbPolyline
  3
AutoCAD 2000
 90
        0
280
     0
281
     1
  0
CLASS
  1
HATCH
  2
AcDbHatch
  3
AutoCAD 2000
 90
        0
280
     0
281
     1
  0
CLASS
  1
XRECORD
  2
AcDbXrecord
  3
AutoCAD 2000
 90
        0
280
     0
281
     0
  0
CLASS
  1
LONG_TRANSACTION
  2
AcDbLongTransaction
  3
AutoCAD 2000
 90
        0
280
     0
281
     0
  0
CLASS
  1
LWPOLYLINE
  2
AcDbPolyline
  3
AutoCAD 2000
 90
        0
280
     0
281
     1
  0
CLASS
  1
HATCH
  2
AcDbHatch
  3
AutoCAD 2000
 90
        0
280
     0
281
     1
  0
CLASS
  1
XRECORD
  2
AcDbXrecord
  3
AutoCAD 2000
 90
        0
280
     0
281
     0
  0
CLASS
  1
LONG_TRANSACTION
  2
AcDbLongTransaction
  3
AutoCAD 2000
 90
        0
280
     0
281
     0
  0
CLASS
  1
LWPOLYLINE
  2
AcDbPolyline
  3
AutoCAD 2000
 90
        0
280
     0
281
     1
  0
CLASS
  1
HATCH
  2
AcDbHatch
  3
AutoCAD 2000
 90
        0
280
     0
281
     1
  0
CLASS
  1
XRECORD
  2
AcDbXrecord
  3
AutoCAD 2000
 90
        0
280
     0
281
     0
  0
CLASS
  1
LONG_TRANSACTION
  2
AcDbLongTransaction
  3
AutoCAD 2000
 90
        0
280
     0
281
     0
  0
CLASS
  1
LWPOLYLINE
  2
AcDbPolyline
  3
AutoCAD 2000
 90
        0
280
     0
281
     1
  0
CLASS
  1
HATCH
  2
AcDbHatch
  3
AutoCAD 2000
 90
        0
280
     0
281
     1
  0
CLASS
  1
XRECORD
  2
AcDbXrecord
  3
AutoCAD 2000
 90
        0
280
     0
281
     0
  0
CLASS
  1
LONG_TRANSACTION
  2
AcDbLongTransaction
  3
AutoCAD 2000
 90
        0
280
     0
281
     0
  0
CLASS
  1
LWPOLYLINE
  2
AcDbPolyline
  3
AutoCAD 2000
 90
        0
280
     0
281
     1
  0
CLASS
  1
HATCH
  2
AcDbHatch
  3
AutoCAD 2000
 90
        0
280
     0
281
     1
  0
CLASS
  1
XRECORD
  2
AcDbXrecord
  3
AutoCAD 2000
 90
        0
280
     0
281
     0
  0
CLASS
  1
LONG_TRANSACTION
  2
AcDbLongTransaction
  3
AutoCAD 2000
 90
        0
280
     0
281
     0
  0
CLASS
  1
LWPOLYLINE
  2
AcDbPolyline
  3
AutoCAD 2000
 90
        0
280
     0
281
     1
  0
CLASS
  1
HATCH
  2
AcDbHatch
  3
AutoCAD 2000
 90
        0
280
     0
281
     1
  0
CLASS
  1
XRECORD
  2
AcDbXrecord
  3
AutoCAD 2000
 90
        0
280
     0
281
     0
  0
CLASS
  1
LONG_TRANSACTION
  2
AcDbLongTransaction
  3
AutoCAD 2000
 90
        0
280
     0
281
     0
  0
CLASS
  1
LWPOLYLINE
  2
AcDbPolyline
  3
AutoCAD 2000
 90
        0
280
     0
281
     1
  0
CLASS
  1
HATCH
  2
AcDbHatch
  3
AutoCAD 2000
 90
        0
280
     0
281
     1
  0
CLASS
  1
XRECORD
  2
AcDbXrecord
  3
AutoCAD 2000
 90
        0
280
     0
281
     0
  0
CLASS
  1
LONG_TRANSACTION
  2
AcDbLongTransaction
  3
AutoCAD 2000
 90
        0
280
     0
281
     0
  0
CLASS
  1
LWPOLYLINE
  2
AcDbPolyline
  3
AutoCAD 2000
 90
        0
280
     0
281
     1
  0
CLASS
  1
HATCH
  2
AcDbHatch
  3
AutoCAD 2000
 90
        0
280
     0
281
     1
  0
CLASS
  1
XRECORD
  2
AcDbXrecord
  3
AutoCAD 2000
 90
        0
280
     0
281
     0
  0
CLASS
  1
LONG_TRANSACTION
  2
AcDbLongTransaction
  3
AutoCAD 2000
 90
        0
280
     0
281
     0
  0
CLASS
  1
LWPOLYLINE
  2
AcDbPolyline
  3
AutoCAD 2000
 90
        0
280
     0
281
     1
  0
CLASS
  1
HATCH
  2
AcDbHatch
  3
AutoCAD 2000
 90
        0
280
     0
281
     1
  0
CLASS
  1
XRECORD
  2
AcDbXrecord
  3
AutoCAD 2000
 90
        0
280
     0
281
     0
  0
CLASS
  1
LONG_TRANSACTION
  2
AcDbLongTransaction
  3
AutoCAD 2000
 90
        0
280
     0
281
     0
  0
CLASS
  1
LWPOLYLINE
  2
AcDbPolyline
  3
AutoCAD 2000
 90
        0
280
     0
281
     1
  0
CLASS
  1
HATCH
  2
AcDbHatch
  3
AutoCAD 2000
 90
        0
280
     0
281
     1
  0
CLASS
  1
XRECORD
  2
AcDbXrecord
  3
AutoCAD 2000
 90
        0
280
     0
281
     0
  0
CLASS
  1
LONG_TRANSACTION
  2
AcDbLongTransaction
  3
AutoCAD 2000
 90
        0
280
     0
281
     0
  0
CLASS
  1
LWPOLYLINE
  2
AcDbPolyline
  3
AutoCAD 2000
 90
        0
280
     0
281
     1
  0
CLASS
  1
HATCH
  2
AcDbHatch
  3
AutoCAD 2000
 90
        0
280
     0
281
     1
  0
CLASS
  1
XRECORD
  2
AcDbXrecord
  3
AutoCAD 2000
 90
        0
280
     0
281
     0
  0
CLASS
  1
LONG_TRANSACTION
  2
AcDbLongTransaction
  3
AutoCAD 2000
 90
        0
280
     0
281
     0
  0
CLASS
  1
LWPOLYLINE
  2
AcDbPolyline
  3
AutoCAD 2000
 90
        0
280
     0
281
     1
  0
CLASS
  1
HATCH
  2
AcDbHatch
  3
AutoCAD 2000
 90
        0
280
     0
281
     1
  0
CLASS
  1
XRECORD
  2
AcDbXrecord
  3
AutoCAD 2000
 90
        0
280
     0
281
     0
  0
CLASS
  1
LONG_TRANSACTION
  2
AcDbLongTransaction
  3
AutoCAD 2000
 90
        0
280
     0
281
     0
  0
CLASS
  1
LWPOLYLINE
  2
AcDbPolyline
  3
AutoCAD 2000
 90
        0
280
     0
281
     1
  0
CLASS
  1
HATCH
  2
AcDbHatch
  3
AutoCAD 2000
 90
        0
280
     0
281
     1
  0
CLASS
  1
XRECORD
  2
AcDbXrecord
  3
AutoCAD 2000
 90
        0
280
     0
281
     0
  0
ENDSEC
  0
SECTION
  2
TABLES
  0
TABLE
  2
VPORT
  5
90
330
0
100
AcDbSymbolTable
 70
     2
  0
VPORT
  5
3D1
330
90
100
AcDbSymbolTableRecord
100
AcDbViewportTableRecord
  2
*ACTIVE
 70
     0
 10
0.0
 20
0.0
 11
1.0
 21
1.0
 12
207.3175397779996
 22
185.9201333067175
 13
0.0
 23
0.0
 14
10.0
 24
10.0
 15
10.0
 25
10.0
 16
0.0
 26
0.0
 36
1.0
 17
0.0
 27
0.0
 37
0.0
 40
386.4649577663498
 41
1.549367088607595
 42
50.0
 43
0.0
 44
0.0
 50
0.0
 51
0.0
 71
     0
 72
 10000
 73
     1
 74
     3
 75
     0
 76
     0
 77
     0
 78
     1
  0
ENDTAB
  0
TABLE
  2
LTYPE
  5
8B
330
0
100
AcDbSymbolTable
 70
     3
  0
LTYPE
  5
8C
330
8B
100
AcDbSymbolTableRecord
100
AcDbLinetypeTableRecord
  2
BYBLOCK
 70
     0
  3

 72
    65
 73
     0
 40
0.0
  0
LTYPE
  5
8D
330
8B
100
AcDbSymbolTableRecord
100
AcDbLinetypeTableRecord
  2
BYLAYER
 70
     0
  3

 72
    65
 73
     0
 40
0.0
  0
LTYPE
  5
9
330
8B
100
AcDbSymbolTableRecord
100
AcDbLinetypeTableRecord
  2
CONTINUOUS
 70
     0
  3
Solid line
 72
    65
 73
     0
 40
0.0
  0
LTYPE
  5
DB
330
8B
100
AcDbSymbolTableRecord
100
AcDbLinetypeTableRecord
  2
CENTER
 70
     0
  3
Center ____ _ ____ _ ____ _ ____ _ ____ _ ____
 72
    65
 73
     4
 40
50.8
 49
31.75
 74
     0
 49
-6.349999999999998
 74
     0
 49
6.349999999999998
 74
     0
 49
-6.349999999999998
 74
     0
  0
LTYPE
  5
100
330
8B
100
AcDbSymbolTableRecord
100
AcDbLinetypeTableRecord
  2
CENTERX2
 70
     0
  3
Center (2x) ________  __  ________  __  _____
 72
    65
 73
     4
 40
101.6
 49
63.5
 74
     0
 49
-12.7
 74
     0
 49
12.7
 74
     0
 49
-12.7
 74
     0
  0
ENDTAB
  0
TABLE
  2
LAYER
  5
12
102
{ACAD_XDICTIONARY
360
13
102
}
330
0
100
AcDbSymbolTable
 70
     7
  0
LAYER
  5
5
330
12
100
AcDbSymbolTableRecord
100
AcDbLayerTableRecord
  2
0
 70
     0
 62
     7
  6
CONTINUOUS
  0
LAYER
  5
1E6
330
12
100
AcDbSymbolTableRecord
100
AcDbLayerTableRecord
  2
3
 70
     0
 62
     3
  6
CONTINUOUS
  0
LAYER
  5
AB
330
12
100
AcDbSymbolTableRecord
100
AcDbLayerTableRecord
  2
DEFPOINTS
 70
     0
 62
     7
  6
CONTINUOUS
  0
LAYER
  5
9C
330
12
100
AcDbSymbolTableRecord
100
AcDbLayerTableRecord
  2
DIM
 70
     0
 62
     3
  6
CONTINUOUS
  0
LAYER
  5
FF
330
12
100
AcDbSymbolTableRecord
100
AcDbLayerTableRecord
  2
CL
 70
     0
 62
     1
  6
CENTERX2
  0
LAYER
  5
DA
330
12
100
AcDbSymbolTableRecord
100
AcDbLayerTableRecord
  2
CEN
 70
     0
 62
     1
  6
CENTER
  0
LAYER
  5
CF
330
12
100
AcDbSymbolTableRecord
100
AcDbLayerTableRecord
  2
2
 70
     0
 62
     2
  6
CONTINUOUS
  0
ENDTAB
  0
TABLE
  2
STYLE
  5
88
330
0
100
AcDbSymbolTable
 70
     1
  0
STYLE
  5
89
330
88
100
AcDbSymbolTableRecord
100
AcDbTextStyleTableRecord
  2
STANDARD
 70
     0
 40
0.0
 41
1.0
 50
0.0
 71
     0
 42
5.777225951253058
  3
romans.shx
  4
whgtxt.shx
  0
ENDTAB
  0
TABLE
  2
VIEW
  5
8E
330
0
100
AcDbSymbolTable
 70
     0
  0
ENDTAB
  0
TABLE
  2
UCS
  5
8F
330
0
100
AcDbSymbolTable
 70
     0
  0
ENDTAB
  0
TABLE
  2
APPID
  5
92
330
0
100
AcDbSymbolTable
 70
     2
  0
APPID
  5
93
330
92
100
AcDbSymbolTableRecord
100
AcDbRegAppTableRecord
  2
ACAD
 70
     0
  0
APPID
  5
40B
330
92
100
AcDbSymbolTableRecord
100
AcDbRegAppTableRecord
  2
CONTENTBLOCKICON
 70
     0
  0
ENDTAB
  0
TABLE
  2
DIMSTYLE
  5
94
330
0
100
AcDbSymbolTable
 70
     2
  0
DIMSTYLE
105
A2
102
{ACAD_REACTORS
330
102
330
12E
330
18B
330
286
330
DD
330
EC
330
293
330
2A0
330
2BC
330
2AD
330
2D0
330
206
330
1F6
330
1E7
330
13D
330
151
330
11C
330
9F
330
B7
330
19A
102
}
330
94
100
AcDbSymbolTableRecord
100
AcDbDimStyleTableRecord
  2
STANDARD
 70
     0
  3

  4

  5

  6

  7

 40
1.0
 41
2.5
 42
1.0
 43
10.0
 44
0.6
 45
0.0
 46
0.0
 47
0.0
 48
0.0
140
3.0
141
0.09
142
0.0
143
25.4
144
1.0
145
0.0
146
1.0
147
1.0
 71
     0
 72
     0
 73
     0
 74
     0
 75
     0
 76
     0
 77
     1
 78
     8
170
     0
171
     2
172
     1
173
     0
174
     1
175
     0
176
   123
177
   123
178
     3
270
     2
271
     2
272
     2
273
     2
274
     2
340
89
275
     1
280
     0
281
     0
282
     0
283
     1
284
     0
285
     0
286
     0
287
     0
288
     1
  0
DIMSTYLE
105
95
330
94
100
AcDbSymbolTableRecord
100
AcDbDimStyleTableRecord
  2
1_1_2
 70
     0
  3

  4

  5

  6

  7

 40
1.0
 41
3.0
 42
1.0
 43
10.0
 44
0.6
 45
0.0
 46
0.0
 47
0.0
 48
0.0
140
3.5
141
0.09
142
0.0
143
25.4
144
1.0
145
0.0
146
1.0
147
1.0
 71
     0
 72
     0
 73
     0
 74
     0
 75
     0
 76
     0
 77
     1
 78
     8
170
     0
171
     2
172
     1
173
     0
174
     1
175
     0
176
   123
177
   123
178
     3
270
     2
271
     2
272
     2
273
     2
274
     2
340
89
275
     1
280
     0
281
     0
282
     0
283
     1
284
     0
285
     0
286
     0
287
     0
288
     1
  0
ENDTAB
  0
TABLE
  2
BLOCK_RECORD
  5
1
330
0
100
AcDbSymbolTable
 70
    40
  0
BLOCK_RECORD
  5
2
102
{ACAD_XDICTIONARY
360
3
102
}
330
1
100
AcDbSymbolTableRecord
100
AcDbBlockTableRecord
  2
*MODEL_SPACE
  0
BLOCK_RECORD
  5
D
102
{ACAD_XDICTIONARY
360
E
102
}
330
1
100
AcDbSymbolTableRecord
100
AcDbBlockTableRecord
  2
*PAPER_SPACE
  0
BLOCK_RECORD
  5
105
330
1
100
AcDbSymbolTableRecord
100
AcDbBlockTableRecord
  2
*D0
  0
BLOCK_RECORD
  5
FB
330
1
100
AcDbSymbolTableRecord
100
AcDbBlockTableRecord
  2
4
1001
ACAD
1000
DesignCenter Data
1002
{
1070
     1
1070
     4
1002
}
1001
CONTENTBLOCKICON
1071
        0
1004
2800000020000000200000000100080000000000000400000000000000000000000000000000000000000000000080000080000000808000800000008000800080800000C0C0C000C0DCC000F0CAA6000020400000206000002080000020A0000020C0000020E00000400000004020000040400000406000004080000040A0
1004
000040C0000040E00000600000006020000060400000606000006080000060A0000060C0000060E00000800000008020000080400000806000008080000080A0000080C0000080E00000A0000000A0200000A0400000A0600000A0800000A0A00000A0C00000A0E00000C0000000C0200000C0400000C0600000C0800000C0
1004
A00000C0C00000C0E00000E0000000E0200000E0400000E0600000E0800000E0A00000E0C00000E0E00040000000400020004000400040006000400080004000A0004000C0004000E00040200000402020004020400040206000402080004020A0004020C0004020E000404000004040200040404000404060004040800040
1004
40A0004040C0004040E00040600000406020004060400040606000406080004060A0004060C0004060E00040800000408020004080400040806000408080004080A0004080C0004080E00040A0000040A0200040A0400040A0600040A0800040A0A00040A0C00040A0E00040C0000040C0200040C0400040C0600040C08000
1004
40C0A00040C0C00040C0E00040E0000040E0200040E0400040E0600040E0800040E0A00040E0C00040E0E00080000000800020008000400080006000800080008000A0008000C0008000E00080200000802020008020400080206000802080008020A0008020C0008020E00080400000804020008040400080406000804080
1004
008040A0008040C0008040E00080600000806020008060400080606000806080008060A0008060C0008060E00080800000808020008080400080806000808080008080A0008080C0008080E00080A0000080A0200080A0400080A0600080A0800080A0A00080A0C00080A0E00080C0000080C0200080C0400080C0600080C0
1004
800080C0A00080C0C00080C0E00080E0000080E0200080E0400080E0600080E0800080E0A00080E0C00080E0E000C0000000C0002000C0004000C0006000C0008000C000A000C000C000C000E000C0200000C0202000C0204000C0206000C0208000C020A000C020C000C020E000C0400000C0402000C0404000C0406000C0
1004
408000C040A000C040C000C040E000C0600000C0602000C0604000C0606000C0608000C060A000C060C000C060E000C0800000C0802000C0804000C0806000C0808000C080A000C080C000C080E000C0A00000C0A02000C0A04000C0A06000C0A08000C0A0A000C0A0C000C0A0E000C0C00000C0C02000C0C04000C0C06000
1004
C0C08000C0C0A000F0FBFF00A4A0A000808080000000FF0000FF000000FFFF00FF000000FF00FF00FFFF0000FFFFFF0000000000000000000000000000000000000000000000000000000000000000000000000000000000000000000000000000000000000000000000000000000000000000000000000000000000000000
1004
0000000000000000000000000000000000000000FFFFFFFFFFFFFFFFFFFFFFFFFFFFFFFFFFFFFFFFFF000000000000000000FFFFFF00F9000000000000000000000000000000F9FFF9FF0000000000000000FF00FFF90000000000000000000000000000000000FFFFFF0000000000000000F3F3F9F9000000000000000000
1004
00000000000000F9FFF9FF0000000000000000FFF9000000000000000000000000000000000000000000FF0000000000000000FF00F3F300000000000000000000000000000000000000FF0000000000000000FF000000F3000000000000000000000000000000000000FF0000000000000000FF00000000F3000000000000
1004
0000000000000000000000FF0000000000000000FF0000000000F3F3000000000000000000000000000000FF0000000000000000FF00000000000000F30000000000000000000000000000FF0000000000000000FF0000000000000000F3F3000000000000000000000000FF0000000000000000FF00000000000000000000
1004
F30000000000000000000000FF0000000000000000FF0000000000000000000000F300000000000000000000FF0000000000000000FF000000000000000000000000F3F30000000000000000FF0000000000000000FF0000000000000000000000000000F300000000000000FF0000000000000000FF000000000000000000
1004
000000000000F3F30000000000FF0000000000000000FF0000000000000000000000000000000000F300000000FF0000000000000000FF000000000000000000000000000000000000F3000000FF0000000000000000FF00000000000000000000000000000000000000F3F300FF0000000000000000FF0000000000000000
1004
00000000000000000000000000FFFF0000000000000000FF00FFF900000000000000000000000000000000F9F900F30000000000000000FF00FFFF00000000000000000000000000000000F9F9FFFFFAF300000000000000FFF900F90000000000000000000000000000F90000F9FFFAFAF300000000000000FFFFFFFFFFFF
1004
FFFFFFFFFFFFFFFFFFFFFFFFFFFFFF0000FAFAFAF30000000000000000000000000000000000000000000000000000000000FAFAFAF30000000000000000000000000000000000000000000000000000000000FAFA000000000000000000000000000000000000000000000000000000000000000000000000000000000000
1004
0000000000000000000000000000000000000000000000000000000000000000000000000000000000000000000000000000000000000000
  0
BLOCK_RECORD
  5
287
330
1
100
AcDbSymbolTableRecord
100
AcDbBlockTableRecord
  2
*D2
  0
BLOCK_RECORD
  5
ED
330
1
100
AcDbSymbolTableRecord
100
AcDbBlockTableRecord
  2
*D3
  0
BLOCK_RECORD
  5
294
330
1
100
AcDbSymbolTableRecord
100
AcDbBlockTableRecord
  2
*D4
  0
BLOCK_RECORD
  5
2A1
330
1
100
AcDbSymbolTableRecord
100
AcDbBlockTableRecord
  2
*D5
  0
BLOCK_RECORD
  5
2BD
330
1
100
AcDbSymbolTableRecord
100
AcDbBlockTableRecord
  2
*D6
  0
BLOCK_RECORD
  5
2D1
330
1
100
AcDbSymbolTableRecord
100
AcDbBlockTableRecord
  2
*D7
  0
BLOCK_RECORD
  5
207
330
1
100
AcDbSymbolTableRecord
100
AcDbBlockTableRecord
  2
*D8
  0
BLOCK_RECORD
  5
1E8
330
1
100
AcDbSymbolTableRecord
100
AcDbBlockTableRecord
  2
*D9
  0
BLOCK_RECORD
  5
131
330
1
100
AcDbSymbolTableRecord
100
AcDbBlockTableRecord
  2
*D10
  0
BLOCK_RECORD
  5
18E
330
1
100
AcDbSymbolTableRecord
100
AcDbBlockTableRecord
  2
*D11
  0
BLOCK_RECORD
  5
19D
330
1
100
AcDbSymbolTableRecord
100
AcDbBlockTableRecord
  2
*D12
  0
BLOCK_RECORD
  5
E0
330
1
100
AcDbSymbolTableRecord
100
AcDbBlockTableRecord
  2
*D13
  0
BLOCK_RECORD
  5
2B0
330
1
100
AcDbSymbolTableRecord
100
AcDbBlockTableRecord
  2
*D14
  0
BLOCK_RECORD
  5
1F9
330
1
100
AcDbSymbolTableRecord
100
AcDbBlockTableRecord
  2
*D15
  0
BLOCK_RECORD
  5
140
330
1
100
AcDbSymbolTableRecord
100
AcDbBlockTableRecord
  2
*D16
  0
BLOCK_RECORD
  5
154
330
1
100
AcDbSymbolTableRecord
100
AcDbBlockTableRecord
  2
*D17
  0
BLOCK_RECORD
  5
11F
330
1
100
AcDbSymbolTableRecord
100
AcDbBlockTableRecord
  2
*D18
  0
BLOCK_RECORD
  5
A3
330
1
100
AcDbSymbolTableRecord
100
AcDbBlockTableRecord
  2
*D19
  0
BLOCK_RECORD
  5
BA
330
1
100
AcDbSymbolTableRecord
100
AcDbBlockTableRecord
  2
*D20
  0
BLOCK_RECORD
  5
2E5
330
1
100
AcDbSymbolTableRecord
100
AcDbBlockTableRecord
  2
*D21
  0
BLOCK_RECORD
  5
2F1
330
1
100
AcDbSymbolTableRecord
100
AcDbBlockTableRecord
  2
*D22
  0
BLOCK_RECORD
  5
2FD
330
1
100
AcDbSymbolTableRecord
100
AcDbBlockTableRecord
  2
*D23
  0
BLOCK_RECORD
  5
30B
330
1
100
AcDbSymbolTableRecord
100
AcDbBlockTableRecord
  2
*D24
  0
BLOCK_RECORD
  5
317
330
1
100
AcDbSymbolTableRecord
100
AcDbBlockTableRecord
  2
*D25
  0
BLOCK_RECORD
  5
323
330
1
100
AcDbSymbolTableRecord
100
AcDbBlockTableRecord
  2
*D26
  0
BLOCK_RECORD
  5
32F
330
1
100
AcDbSymbolTableRecord
100
AcDbBlockTableRecord
  2
*D27
  0
BLOCK_RECORD
  5
33B
330
1
100
AcDbSymbolTableRecord
100
AcDbBlockTableRecord
  2
*D28
  0
BLOCK_RECORD
  5
349
330
1
100
AcDbSymbolTableRecord
100
AcDbBlockTableRecord
  2
*D29
  0
BLOCK_RECORD
  5
355
330
1
100
AcDbSymbolTableRecord
100
AcDbBlockTableRecord
  2
*D30
  0
BLOCK_RECORD
  5
361
330
1
100
AcDbSymbolTableRecord
100
AcDbBlockTableRecord
  2
*D31
  0
BLOCK_RECORD
  5
36D
330
1
100
AcDbSymbolTableRecord
100
AcDbBlockTableRecord
  2
*D32
  0
BLOCK_RECORD
  5
379
330
1
100
AcDbSymbolTableRecord
100
AcDbBlockTableRecord
  2
*D33
  0
BLOCK_RECORD
  5
385
330
1
100
AcDbSymbolTableRecord
100
AcDbBlockTableRecord
  2
*D34
  0
BLOCK_RECORD
  5
393
330
1
100
AcDbSymbolTableRecord
100
AcDbBlockTableRecord
  2
*D35
  0
BLOCK_RECORD
  5
39F
330
1
100
AcDbSymbolTableRecord
100
AcDbBlockTableRecord
  2
*D36
  0
BLOCK_RECORD
  5
3AD
330
1
100
AcDbSymbolTableRecord
100
AcDbBlockTableRecord
  2
*D37
  0
BLOCK_RECORD
  5
3B9
330
1
100
AcDbSymbolTableRecord
100
AcDbBlockTableRecord
  2
*D38
  0
BLOCK_RECORD
  5
3C5
330
1
100
AcDbSymbolTableRecord
100
AcDbBlockTableRecord
  2
*D39
  0
ENDTAB
  0
ENDSEC
  0
SECTION
  2
BLOCKS
  0
BLOCK
  5
4
330
2
100
AcDbEntity
  8
0
100
AcDbBlockBegin
  2
*MODEL_SPACE
 70
     0
 10
0.0
 20
0.0
 30
0.0
  3
*MODEL_SPACE
  1

  0
ENDBLK
  5
A
330
2
100
AcDbEntity
  8
0
100
AcDbBlockEnd
  0
BLOCK
  5
F
330
D
100
AcDbEntity
 67
     1
  8
0
100
AcDbBlockBegin
  2
*PAPER_SPACE
 70
     0
 10
0.0
 20
0.0
 30
0.0
  3
*PAPER_SPACE
  1

  0
ENDBLK
  5
10
330
D
100
AcDbEntity
 67
     1
  8
0
100
AcDbBlockEnd
  0
BLOCK
  5
10E
330
105
100
AcDbEntity
  8
0
100
AcDbBlockBegin
  2
*D0
 70
     1
 10
0.0
 20
0.0
 30
0.0
  3
*D0
  1

  0
LINE
  5
106
330
105
100
AcDbEntity
  8
0
 62
   123
100
AcDbLine
 10
-474.0668181331803
 20
-2516.925402556208
 30
0.0
 11
-497.6135875546876
 21
-2534.857403328699
 31
0.0
  0
LINE
  5
107
330
105
100
AcDbEntity
  8
0
 62
   123
100
AcDbLine
 10
-584.3305466904876
 20
-2600.896550796242
 30
0.0
 11
-586.3194677715838
 21
-2602.411210141828
 31
0.0
  0
MTEXT
  5
108
330
105
100
AcDbEntity
  8
0
 62
     3
100
AcDbMText
 10
-484.8441670850144
 20
-2521.990466427412
 30
0.0
 40
3.0
 41
0.0
 71
     5
 72
     1
  1
\A1;\U+2205104%%P0.5
 11
0.7955684324385314
 21
0.6058637382343476
 31
0.0
1001
ACAD
1000
MTEXTBEGIN
1070
    73
1070
     1
1070
    44
1040
1.0
1070
    74
1070
     0
1000
MTEXTEND
  0
LINE
  5
109
330
105
100
AcDbEntity
  8
0
 62
   123
100
AcDbLine
 10
-582.3416256093914
 20
-2599.381891450657
 30
0.0
 11
-499.6025086357839
 21
-2536.372062674285
 31
0.0
  0
SOLID
  5
10A
330
105
100
AcDbEntity
  8
0
 62
   123
100
AcDbTrace
 10
-584.5829899147519
 20
-2600.565063949392
 30
0.0
 11
-584.0781034662234
 21
-2601.228037643092
 31
0.0
 12
-582.3416256093914
 22
-2599.381891450657
 32
0.0
 13
-582.3416256093914
 23
-2599.381891450657
 33
0.0
  0
SOLID
  5
10B
330
105
100
AcDbEntity
  8
0
 62
   123
100
AcDbTrace
 10
-497.8660307789517
 20
-2534.52591648185
 30
0.0
 11
-497.3611443304232
 21
-2535.188890175549
 31
0.0
 12
-499.6025086357839
 22
-2536.372062674285
 32
0.0
 13
-499.6025086357839
 23
-2536.372062674285
 33
0.0
  0
POINT
  5
10C
330
105
100
AcDbEntity
  8
DEFPOINTS
 62
     0
100
AcDbPoint
 10
-499.6025086357839
 20
-2536.372062674285
 30
0.0
  0
POINT
  5
10D
330
105
100
AcDbEntity
  8
DEFPOINTS
 62
     0
100
AcDbPoint
 10
-582.3416256093914
 20
-2599.381891450657
 30
0.0
  0
ENDBLK
  5
10F
330
105
100
AcDbEntity
  8
0
100
AcDbBlockEnd
  0
BLOCK
  5
119
330
FB
100
AcDbEntity
  8
0
100
AcDbBlockBegin
  2
4
 70
     0
 10
0.0
 20
0.0
 30
0.0
  3
4
  1

  0
LWPOLYLINE
  5
FC
330
FB
100
AcDbEntity
  8
0
100
AcDbPolyline
 90
        8
 70
     1
 43
0.0
 10
-40.0
 20
-45.00000000000045
 10
40.0
 20
-45.0
 42
0.4142135623730951
 10
45.0
 20
-40.0
 10
45.0
 20
40.0
 42
0.4142135623730951
 10
40.0
 20
45.0
 10
-40.0
 20
45.0
 42
0.4142135623730951
 10
-45.0
 20
40.0
 10
-45.0
 20
-40.00000000000045
 42
0.4142135623730951
  0
CIRCLE
  5
FD
330
FB
100
AcDbEntity
  8
0
100
AcDbCircle
 10
36.76955262170071
 20
36.76955262170031
 30
0.0
 40
3.25
  0
LINE
  5
FE
330
FB
100
AcDbEntity
  8
CL
 48
0.6
100
AcDbLine
 10
33.05724202047111
 20
33.05724202047122
 30
0.0
 11
40.48186322293008
 21
40.48186322292986
 31
0.0
  0
ARC
  5
101
102
{ACAD_REACTORS
330
104
102
}
330
FB
100
AcDbEntity
  8
CL
 48
0.6
100
AcDbCircle
 10
0.0
 20
0.0
 30
0.0
 40
51.9999999999996
100
AcDbArc
 50
35.90024337538245
 51
54.09975662462136
  0
DIMENSION
  5
102
102
{ACAD_XDICTIONARY
360
103
102
}
102
{ACAD_REACTORS
330
104
102
}
330
FB
100
AcDbEntity
  8
0
100
AcDbDimension
  2
*D0
 10
-41.36955848680371
 20
-31.50491438818607
 30
0.0
 11
57.64255938315909
 21
43.89758955396246
 31
0.0
 12
540.9720671225876
 22
2567.87697706247
 32
0.0
 70
   131
  1
<>%%P0.5
  3
STANDARD
100
AcDbDiametricDimension
 15
41.36955848680371
 25
31.50491438818607
 35
0.0
 40
0.0
1001
ACAD
1000
DSTYLE
1002
{
1070
   287
1070
     4
1070
   287
1070
     4
1070
   287
1070
     4
1070
   287
1070
     4
1070
   279
1070
     1
1070
   289
1070
     3
1002
}
  0
ARC
  5
110
330
FB
100
AcDbEntity
  8
CL
 48
0.6
100
AcDbCircle
 10
-0.0000000000002274
 20
0.0
 30
0.0
 40
52.0
100
AcDbArc
 50
129.2128702778055
 51
140.7871297221883
  0
LINE
  5
111
330
FB
100
AcDbEntity
  8
CL
 48
0.6
100
AcDbLine
 10
-33.05724202047122
 20
33.05724202047122
 30
0.0
 11
-40.48186322292986
 21
40.48186322293031
 31
0.0
  0
CIRCLE
  5
112
330
FB
100
AcDbEntity
  8
0
100
AcDbCircle
 10
-36.76955262170054
 20
36.76955262170077
 30
0.0
 40
3.25
  0
LINE
  5
113
330
FB
100
AcDbEntity
  8
CL
 48
0.6
100
AcDbLine
 10
-33.05724202047122
 20
-33.05724202047122
 30
0.0
 11
-40.48186322293008
 21
-40.48186322292986
 31
0.0
  0
CIRCLE
  5
114
330
FB
100
AcDbEntity
  8
0
100
AcDbCircle
 10
-36.76955262170077
 20
-36.76955262170031
 30
0.0
 40
3.25
  0
ARC
  5
115
330
FB
100
AcDbEntity
  8
CL
 48
0.6
100
AcDbCircle
 10
0.0
 20
0.0
 30
0.0
 40
51.9999999999996
100
AcDbArc
 50
215.9002433753824
 51
234.0997566246214
  0
ARC
  5
116
330
FB
100
AcDbEntity
  8
CL
 48
0.6
100
AcDbCircle
 10
0.0
 20
0.0000000000004547
 30
0.0
 40
52.0
100
AcDbArc
 50
309.2128702778056
 51
320.7871297221883
  0
LINE
  5
117
330
FB
100
AcDbEntity
  8
CL
 48
0.6
100
AcDbLine
 10
33.05724202047076
 20
-33.05724202047122
 30
0.0
 11
40.48186322292941
 21
-40.48186322293031
 31
0.0
  0
CIRCLE
  5
118
330
FB
100
AcDbEntity
  8
0
100
AcDbCircle
 10
36.76955262170025
 20
-36.76955262170077
 30
0.0
 40
3.25
  0
ENDBLK
  5
11A
330
FB
100
AcDbEntity
  8
0
100
AcDbBlockEnd
  0
BLOCK
  5
291
330
287
100
AcDbEntity
  8
0
100
AcDbBlockBegin
  2
*D2
 70
     1
 10
0.0
 20
0.0
 30
0.0
  3
*D2
  1

  0
LINE
  5
288
330
287
100
AcDbEntity
  8
0
 62
   123
100
AcDbLine
 10
20949.36755044642
 20
-4162.395757717816
 30
0.0
 11
20949.36755044642
 21
-4141.565248949911
 31
0.0
  0
LINE
  5
289
330
287
100
AcDbEntity
  8
0
 62
   123
100
AcDbLine
 10
21039.36755044643
 20
-4162.395757717816
 30
0.0
 11
21039.36755044643
 21
-4141.565248949911
 31
0.0
  0
LINE
  5
28A
330
287
100
AcDbEntity
  8
0
 62
   123
100
AcDbLine
 10
20951.86755044643
 20
-4142.16524894991
 30
0.0
 11
21036.86755044642
 21
-4142.16524894991
 31
0.0
  0
SOLID
  5
28B
330
287
100
AcDbEntity
  8
0
 62
   123
100
AcDbTrace
 10
20951.86755044643
 20
-4141.748582283244
 30
0.0
 11
20951.86755044643
 21
-4142.581915616577
 31
0.0
 12
20949.36755044642
 22
-4142.16524894991
 32
0.0
 13
20949.36755044642
 23
-4142.16524894991
 33
0.0
  0
SOLID
  5
28C
330
287
100
AcDbEntity
  8
0
 62
   123
100
AcDbTrace
 10
21036.86755044642
 20
-4141.748582283244
 30
0.0
 11
21036.86755044642
 21
-4142.581915616577
 31
0.0
 12
21039.36755044643
 22
-4142.16524894991
 32
0.0
 13
21039.36755044643
 23
-4142.16524894991
 33
0.0
  0
MTEXT
  5
28D
330
287
100
AcDbEntity
  8
0
 62
     3
100
AcDbMText
 10
20994.36755044643
 20
-4139.665248949911
 30
0.0
 40
3.0
 41
0.0
 71
     5
 72
     1
  1
\A1;90
1001
ACAD
1000
MTEXTBEGIN
1070
    73
1070
     1
1070
    44
1040
1.0
1070
    74
1070
     0
1000
MTEXTEND
  0
POINT
  5
28E
330
287
100
AcDbEntity
  8
DEFPOINTS
 62
     0
100
AcDbPoint
 10
20949.36755044642
 20
-4163.395757717816
 30
0.0
  0
POINT
  5
28F
330
287
100
AcDbEntity
  8
DEFPOINTS
 62
     0
100
AcDbPoint
 10
21039.36755044643
 20
-4163.395757717816
 30
0.0
  0
POINT
  5
290
330
287
100
AcDbEntity
  8
DEFPOINTS
 62
     0
100
AcDbPoint
 10
21039.36755044643
 20
-4142.16524894991
 30
0.0
  0
ENDBLK
  5
292
330
287
100
AcDbEntity
  8
0
100
AcDbBlockEnd
  0
BLOCK
  5
F7
330
ED
100
AcDbEntity
  8
0
100
AcDbBlockBegin
  2
*D3
 70
     1
 10
0.0
 20
0.0
 30
0.0
  3
*D3
  1

  0
LINE
  5
EE
330
ED
100
AcDbEntity
  8
0
 62
   123
100
AcDbLine
 10
21221.12368768906
 20
-4158.352963959019
 30
0.0
 11
21245.80242157511
 21
-4158.352963959019
 31
0.0
  0
LINE
  5
EF
330
ED
100
AcDbEntity
  8
0
 62
   123
100
AcDbLine
 10
21221.12368768906
 20
-4248.352963959018
 30
0.0
 11
21245.80242157511
 21
-4248.352963959018
 31
0.0
  0
LINE
  5
F0
330
ED
100
AcDbEntity
  8
0
 62
   123
100
AcDbLine
 10
21245.20242157511
 20
-4160.852963959018
 30
0.0
 11
21245.20242157511
 21
-4245.852963959019
 31
0.0
  0
SOLID
  5
F1
330
ED
100
AcDbEntity
  8
0
 62
   123
100
AcDbTrace
 10
21244.78575490844
 20
-4160.852963959018
 30
0.0
 11
21245.61908824178
 21
-4160.852963959018
 31
0.0
 12
21245.20242157511
 22
-4158.352963959019
 32
0.0
 13
21245.20242157511
 23
-4158.352963959019
 33
0.0
  0
SOLID
  5
F2
330
ED
100
AcDbEntity
  8
0
 62
   123
100
AcDbTrace
 10
21244.78575490844
 20
-4245.852963959019
 30
0.0
 11
21245.61908824178
 21
-4245.852963959019
 31
0.0
 12
21245.20242157511
 22
-4248.352963959018
 32
0.0
 13
21245.20242157511
 23
-4248.352963959018
 33
0.0
  0
MTEXT
  5
F3
330
ED
100
AcDbEntity
  8
0
 62
     3
100
AcDbMText
 10
21242.70242157511
 20
-4204.302786545412
 30
0.0
 40
3.0
 41
0.0
 71
     5
 72
     1
  1
\A1;%%c90
 11
0.0000000000000001
 21
1.0
 31
0.0
1001
ACAD
1000
MTEXTBEGIN
1070
    73
1070
     1
1070
    44
1040
1.0
1070
    74
1070
     0
1000
MTEXTEND
  0
POINT
  5
F4
330
ED
100
AcDbEntity
  8
DEFPOINTS
 62
     0
100
AcDbPoint
 10
21220.12368768907
 20
-4158.352963959019
 30
0.0
  0
POINT
  5
F5
330
ED
100
AcDbEntity
  8
DEFPOINTS
 62
     0
100
AcDbPoint
 10
21220.12368768907
 20
-4248.352963959018
 30
0.0
  0
POINT
  5
F6
330
ED
100
AcDbEntity
  8
DEFPOINTS
 62
     0
100
AcDbPoint
 10
21245.20242157511
 20
-4248.352963959018
 30
0.0
  0
ENDBLK
  5
F8
330
ED
100
AcDbEntity
  8
0
100
AcDbBlockEnd
  0
BLOCK
  5
29E
330
294
100
AcDbEntity
  8
0
100
AcDbBlockBegin
  2
*D4
 70
     1
 10
0.0
 20
0.0
 30
0.0
  3
*D4
  1

  0
LINE
  5
295
330
294
100
AcDbEntity
  8
0
 62
   123
100
AcDbLine
 10
21107.12368768906
 20
-4142.252963959019
 30
0.0
 11
21107.12368768906
 21
-4125.437347318837
 31
0.0
  0
LINE
  5
296
330
294
100
AcDbEntity
  8
0
 62
   123
100
AcDbLine
 10
21227.12368768906
 20
-4164.852963959019
 30
0.0
 11
21227.12368768906
 21
-4125.437347318837
 31
0.0
  0
LINE
  5
297
330
294
100
AcDbEntity
  8
0
 62
   123
100
AcDbLine
 10
21109.62368768907
 20
-4126.037347318837
 30
0.0
 11
21224.62368768907
 21
-4126.037347318837
 31
0.0
  0
SOLID
  5
298
330
294
100
AcDbEntity
  8
0
 62
   123
100
AcDbTrace
 10
21109.62368768907
 20
-4125.62068065217
 30
0.0
 11
21109.62368768907
 21
-4126.454013985504
 31
0.0
 12
21107.12368768906
 22
-4126.037347318837
 32
0.0
 13
21107.12368768906
 23
-4126.037347318837
 33
0.0
  0
SOLID
  5
299
330
294
100
AcDbEntity
  8
0
 62
   123
100
AcDbTrace
 10
21224.62368768907
 20
-4125.62068065217
 30
0.0
 11
21224.62368768907
 21
-4126.454013985504
 31
0.0
 12
21227.12368768906
 22
-4126.037347318837
 32
0.0
 13
21227.12368768906
 23
-4126.037347318837
 33
0.0
  0
MTEXT
  5
29A
330
294
100
AcDbEntity
  8
0
 62
     3
100
AcDbMText
 10
21167.12368768907
 20
-4123.537347318837
 30
0.0
 40
3.0
 41
0.0
 71
     5
 72
     1
  1
\A1;120
1001
ACAD
1000
MTEXTBEGIN
1070
    73
1070
     1
1070
    44
1040
1.0
1070
    74
1070
     0
1000
MTEXTEND
  0
POINT
  5
29B
330
294
100
AcDbEntity
  8
DEFPOINTS
 62
     0
100
AcDbPoint
 10
21107.12368768906
 20
-4143.252963959019
 30
0.0
  0
POINT
  5
29C
330
294
100
AcDbEntity
  8
DEFPOINTS
 62
     0
100
AcDbPoint
 10
21227.12368768906
 20
-4165.852963959019
 30
0.0
  0
POINT
  5
29D
330
294
100
AcDbEntity
  8
DEFPOINTS
 62
     0
100
AcDbPoint
 10
21227.12368768906
 20
-4126.037347318837
 30
0.0
  0
ENDBLK
  5
29F
330
294
100
AcDbEntity
  8
0
100
AcDbBlockEnd
  0
BLOCK
  5
2AB
330
2A1
100
AcDbEntity
  8
0
100
AcDbBlockBegin
  2
*D5
 70
     1
 10
0.0
 20
0.0
 30
0.0
  3
*D5
  1

  0
LINE
  5
2A2
330
2A1
100
AcDbEntity
  8
0
 62
   123
100
AcDbLine
 10
21086.12368768906
 20
-4197.702963959019
 30
0.0
 11
21086.12368768906
 21
-4125.437347318837
 31
0.0
  0
LINE
  5
2A3
330
2A1
100
AcDbEntity
  8
0
 62
   123
100
AcDbLine
 10
21107.12368768906
 20
-4157.352963959019
 30
0.0
 11
21107.12368768906
 21
-4125.437347318837
 31
0.0
  0
LINE
  5
2A4
330
2A1
100
AcDbEntity
  8
0
 62
   123
100
AcDbLine
 10
21088.62368768907
 20
-4126.037347318837
 30
0.0
 11
21104.62368768907
 21
-4126.037347318837
 31
0.0
  0
SOLID
  5
2A5
330
2A1
100
AcDbEntity
  8
0
 62
   123
100
AcDbTrace
 10
21088.62368768907
 20
-4125.62068065217
 30
0.0
 11
21088.62368768907
 21
-4126.454013985504
 31
0.0
 12
21086.12368768906
 22
-4126.037347318837
 32
0.0
 13
21086.12368768906
 23
-4126.037347318837
 33
0.0
  0
SOLID
  5
2A6
330
2A1
100
AcDbEntity
  8
0
 62
   123
100
AcDbTrace
 10
21104.62368768907
 20
-4125.62068065217
 30
0.0
 11
21104.62368768907
 21
-4126.454013985504
 31
0.0
 12
21107.12368768906
 22
-4126.037347318837
 32
0.0
 13
21107.12368768906
 23
-4126.037347318837
 33
0.0
  0
MTEXT
  5
2A7
330
2A1
100
AcDbEntity
  8
0
 62
     3
100
AcDbMText
 10
21096.62368768907
 20
-4123.537347318837
 30
0.0
 40
3.0
 41
0.0
 71
     5
 72
     1
  1
\A1;21
1001
ACAD
1000
MTEXTBEGIN
1070
    73
1070
     1
1070
    44
1040
1.0
1070
    74
1070
     0
1000
MTEXTEND
  0
POINT
  5
2A8
330
2A1
100
AcDbEntity
  8
DEFPOINTS
 62
     0
100
AcDbPoint
 10
21086.12368768906
 20
-4198.702963959019
 30
0.0
  0
POINT
  5
2A9
330
2A1
100
AcDbEntity
  8
DEFPOINTS
 62
     0
100
AcDbPoint
 10
21107.12368768906
 20
-4158.352963959019
 30
0.0
  0
POINT
  5
2AA
330
2A1
100
AcDbEntity
  8
DEFPOINTS
 62
     0
100
AcDbPoint
 10
21107.12368768906
 20
-4126.037347318837
 30
0.0
  0
ENDBLK
  5
2AC
330
2A1
100
AcDbEntity
  8
0
100
AcDbBlockEnd
  0
BLOCK
  5
2C9
330
2BD
100
AcDbEntity
  8
0
100
AcDbBlockBegin
  2
*D6
 70
     1
 10
0.0
 20
0.0
 30
0.0
  3
*D6
  1

  0
LINE
  5
2BE
330
2BD
100
AcDbEntity
  8
0
 62
   123
100
AcDbLine
 10
21105.12368768906
 20
-4160.852963959018
 30
0.0
 11
21105.12368768906
 21
-4146.151979044621
 31
0.0
  0
LINE
  5
2BF
330
2BD
100
AcDbEntity
  8
0
 62
   123
100
AcDbLine
 10
21107.12368768906
 20
-4157.352963959019
 30
0.0
 11
21107.12368768906
 21
-4146.151979044621
 31
0.0
  0
LINE
  5
2C0
330
2BD
100
AcDbEntity
  8
0
 62
   123
100
AcDbLine
 10
21109.62368768907
 20
-4146.751979044623
 30
0.0
 11
21112.12368768907
 21
-4146.751979044623
 31
0.0
  0
LINE
  5
2C1
330
2BD
100
AcDbEntity
  8
0
 62
   123
100
AcDbLine
 10
21102.62368768907
 20
-4146.751979044623
 30
0.0
 11
21096.12368768906
 21
-4146.751979044623
 31
0.0
  0
LINE
  5
2C2
330
2BD
100
AcDbEntity
  8
0
 62
   123
100
AcDbLine
 10
21107.12368768906
 20
-4146.751979044623
 30
0.0
 11
21105.12368768906
 21
-4146.751979044623
 31
0.0
  0
SOLID
  5
2C3
330
2BD
100
AcDbEntity
  8
0
 62
   123
100
AcDbTrace
 10
21109.62368768907
 20
-4146.335312377956
 30
0.0
 11
21109.62368768907
 21
-4147.16864571129
 31
0.0
 12
21107.12368768906
 22
-4146.751979044623
 32
0.0
 13
21107.12368768906
 23
-4146.751979044623
 33
0.0
  0
SOLID
  5
2C4
330
2BD
100
AcDbEntity
  8
0
 62
   123
100
AcDbTrace
 10
21102.62368768907
 20
-4146.335312377956
 30
0.0
 11
21102.62368768907
 21
-4147.16864571129
 31
0.0
 12
21105.12368768906
 22
-4146.751979044623
 32
0.0
 13
21105.12368768906
 23
-4146.751979044623
 33
0.0
  0
MTEXT
  5
2C5
330
2BD
100
AcDbEntity
  8
0
 62
     3
100
AcDbMText
 10
21098.12368768907
 20
-4144.251979044623
 30
0.0
 40
3.0
 41
0.0
 71
     5
 72
     1
  1
\A1;2
1001
ACAD
1000
MTEXTBEGIN
1070
    73
1070
     1
1070
    44
1040
1.0
1070
    74
1070
     0
1000
MTEXTEND
  0
POINT
  5
2C6
330
2BD
100
AcDbEntity
  8
DEFPOINTS
 62
     0
100
AcDbPoint
 10
21105.12368768906
 20
-4161.852963959018
 30
0.0
  0
POINT
  5
2C7
330
2BD
100
AcDbEntity
  8
DEFPOINTS
 62
     0
100
AcDbPoint
 10
21107.12368768906
 20
-4158.352963959019
 30
0.0
  0
POINT
  5
2C8
330
2BD
100
AcDbEntity
  8
DEFPOINTS
 62
     0
100
AcDbPoint
 10
21107.12368768906
 20
-4146.751979044623
 30
0.0
  0
ENDBLK
  5
2CA
330
2BD
100
AcDbEntity
  8
0
100
AcDbBlockEnd
  0
BLOCK
  5
2DB
330
2D1
100
AcDbEntity
  8
0
100
AcDbBlockBegin
  2
*D7
 70
     1
 10
0.0
 20
0.0
 30
0.0
  3
*D7
  1

  0
LINE
  5
2D2
330
2D1
100
AcDbEntity
  8
0
 62
   123
100
AcDbLine
 10
20927.72141435415
 20
-4377.194540074889
 30
0.0
 11
20927.72141435415
 21
-4359.949313673236
 31
0.0
  0
LINE
  5
2D3
330
2D1
100
AcDbEntity
  8
0
 62
   123
100
AcDbLine
 10
21017.72141435414
 20
-4377.194540074889
 30
0.0
 11
21017.72141435414
 21
-4359.949313673236
 31
0.0
  0
LINE
  5
2D4
330
2D1
100
AcDbEntity
  8
0
 62
   123
100
AcDbLine
 10
20930.22141435414
 20
-4360.549313673238
 30
0.0
 11
21015.22141435415
 21
-4360.549313673238
 31
0.0
  0
SOLID
  5
2D5
330
2D1
100
AcDbEntity
  8
0
 62
   123
100
AcDbTrace
 10
20930.22141435414
 20
-4360.132647006571
 30
0.0
 11
20930.22141435414
 21
-4360.965980339902
 31
0.0
 12
20927.72141435415
 22
-4360.549313673238
 32
0.0
 13
20927.72141435415
 23
-4360.549313673238
 33
0.0
  0
SOLID
  5
2D6
330
2D1
100
AcDbEntity
  8
0
 62
   123
100
AcDbTrace
 10
21015.22141435415
 20
-4360.132647006571
 30
0.0
 11
21015.22141435415
 21
-4360.965980339902
 31
0.0
 12
21017.72141435414
 22
-4360.549313673238
 32
0.0
 13
21017.72141435414
 23
-4360.549313673238
 33
0.0
  0
MTEXT
  5
2D7
330
2D1
100
AcDbEntity
  8
0
 62
     3
100
AcDbMText
 10
20972.72141435415
 20
-4358.049313673237
 30
0.0
 40
3.0
 41
0.0
 71
     5
 72
     1
  1
\A1;90
1001
ACAD
1000
MTEXTBEGIN
1070
    73
1070
     1
1070
    44
1040
1.0
1070
    74
1070
     0
1000
MTEXTEND
  0
POINT
  5
2D8
330
2D1
100
AcDbEntity
  8
DEFPOINTS
 62
     0
100
AcDbPoint
 10
20927.72141435415
 20
-4378.19454007489
 30
0.0
  0
POINT
  5
2D9
330
2D1
100
AcDbEntity
  8
DEFPOINTS
 62
     0
100
AcDbPoint
 10
21017.72141435414
 20
-4378.19454007489
 30
0.0
  0
POINT
  5
2DA
330
2D1
100
AcDbEntity
  8
DEFPOINTS
 62
     0
100
AcDbPoint
 10
21017.72141435414
 20
-4360.549313673238
 30
0.0
  0
ENDBLK
  5
2DC
330
2D1
100
AcDbEntity
  8
0
100
AcDbBlockEnd
  0
BLOCK
  5
211
330
207
100
AcDbEntity
  8
0
100
AcDbBlockBegin
  2
*D8
 70
     1
 10
0.0
 20
0.0
 30
0.0
  3
*D8
  1

  0
LINE
  5
208
330
207
100
AcDbEntity
  8
0
 62
   123
100
AcDbLine
 10
21129.52325190813
 20
-4357.051746316093
 30
0.0
 11
21129.52325190813
 21
-4336.534387443141
 31
0.0
  0
LINE
  5
209
330
207
100
AcDbEntity
  8
0
 62
   123
100
AcDbLine
 10
21249.52325190813
 20
-4379.651746316091
 30
0.0
 11
21249.52325190813
 21
-4336.534387443141
 31
0.0
  0
LINE
  5
20A
330
207
100
AcDbEntity
  8
0
 62
   123
100
AcDbLine
 10
21132.02325190813
 20
-4337.134387443142
 30
0.0
 11
21247.02325190813
 21
-4337.134387443142
 31
0.0
  0
SOLID
  5
20B
330
207
100
AcDbEntity
  8
0
 62
   123
100
AcDbTrace
 10
21132.02325190813
 20
-4336.717720776475
 30
0.0
 11
21132.02325190813
 21
-4337.551054109807
 31
0.0
 12
21129.52325190813
 22
-4337.134387443142
 32
0.0
 13
21129.52325190813
 23
-4337.134387443142
 33
0.0
  0
SOLID
  5
20C
330
207
100
AcDbEntity
  8
0
 62
   123
100
AcDbTrace
 10
21247.02325190813
 20
-4336.717720776475
 30
0.0
 11
21247.02325190813
 21
-4337.551054109807
 31
0.0
 12
21249.52325190813
 22
-4337.134387443142
 32
0.0
 13
21249.52325190813
 23
-4337.134387443142
 33
0.0
  0
MTEXT
  5
20D
330
207
100
AcDbEntity
  8
0
 62
     3
100
AcDbMText
 10
21189.18659317086
 20
-4334.634387443141
 30
0.0
 40
3.0
 41
0.0
 71
     5
 72
     1
  1
\A1;120
1001
ACAD
1000
MTEXTBEGIN
1070
    73
1070
     1
1070
    44
1040
1.0
1070
    74
1070
     0
1000
MTEXTEND
  0
POINT
  5
20E
330
207
100
AcDbEntity
  8
DEFPOINTS
 62
     0
100
AcDbPoint
 10
21129.52325190813
 20
-4358.051746316093
 30
0.0
  0
POINT
  5
20F
330
207
100
AcDbEntity
  8
DEFPOINTS
 62
     0
100
AcDbPoint
 10
21249.52325190813
 20
-4380.651746316091
 30
0.0
  0
POINT
  5
210
330
207
100
AcDbEntity
  8
DEFPOINTS
 62
     0
100
AcDbPoint
 10
21249.52325190813
 20
-4337.134387443142
 30
0.0
  0
ENDBLK
  5
212
330
207
100
AcDbEntity
  8
0
100
AcDbBlockEnd
  0
BLOCK
  5
1F4
330
1E8
100
AcDbEntity
  8
0
100
AcDbBlockBegin
  2
*D9
 70
     1
 10
0.0
 20
0.0
 30
0.0
  3
*D9
  1

  0
LINE
  5
1E9
330
1E8
100
AcDbEntity
  8
0
 62
   123
100
AcDbLine
 10
21127.52325190813
 20
-4375.651746316091
 30
0.0
 11
21127.52325190813
 21
-4359.919092751843
 31
0.0
  0
LINE
  5
1EA
330
1E8
100
AcDbEntity
  8
0
 62
   123
100
AcDbLine
 10
21129.52325190813
 20
-4372.151746316093
 30
0.0
 11
21129.52325190813
 21
-4359.919092751843
 31
0.0
  0
LINE
  5
1EB
330
1E8
100
AcDbEntity
  8
0
 62
   123
100
AcDbLine
 10
21132.02325190813
 20
-4360.519092751843
 30
0.0
 11
21134.52325190813
 21
-4360.519092751843
 31
0.0
  0
LINE
  5
1EC
330
1E8
100
AcDbEntity
  8
0
 62
   123
100
AcDbLine
 10
21125.02325190813
 20
-4360.519092751843
 30
0.0
 11
21118.52325190813
 21
-4360.519092751843
 31
0.0
  0
LINE
  5
1ED
330
1E8
100
AcDbEntity
  8
0
 62
   123
100
AcDbLine
 10
21129.52325190813
 20
-4360.519092751843
 30
0.0
 11
21127.52325190813
 21
-4360.519092751843
 31
0.0
  0
SOLID
  5
1EE
330
1E8
100
AcDbEntity
  8
0
 62
   123
100
AcDbTrace
 10
21132.02325190813
 20
-4360.102426085176
 30
0.0
 11
21132.02325190813
 21
-4360.93575941851
 31
0.0
 12
21129.52325190813
 22
-4360.519092751843
 32
0.0
 13
21129.52325190813
 23
-4360.519092751843
 33
0.0
  0
SOLID
  5
1EF
330
1E8
100
AcDbEntity
  8
0
 62
   123
100
AcDbTrace
 10
21125.02325190813
 20
-4360.102426085176
 30
0.0
 11
21125.02325190813
 21
-4360.93575941851
 31
0.0
 12
21127.52325190813
 22
-4360.519092751843
 32
0.0
 13
21127.52325190813
 23
-4360.519092751843
 33
0.0
  0
MTEXT
  5
1F0
330
1E8
100
AcDbEntity
  8
0
 62
     3
100
AcDbMText
 10
21120.52325190813
 20
-4358.019092751844
 30
0.0
 40
3.0
 41
0.0
 71
     5
 72
     1
  1
\A1;2
1001
ACAD
1000
MTEXTBEGIN
1070
    73
1070
     1
1070
    44
1040
1.0
1070
    74
1070
     0
1000
MTEXTEND
  0
POINT
  5
1F1
330
1E8
100
AcDbEntity
  8
DEFPOINTS
 62
     0
100
AcDbPoint
 10
21127.52325190813
 20
-4376.651746316094
 30
0.0
  0
POINT
  5
1F2
330
1E8
100
AcDbEntity
  8
DEFPOINTS
 62
     0
100
AcDbPoint
 10
21129.52325190813
 20
-4373.151746316092
 30
0.0
  0
POINT
  5
1F3
330
1E8
100
AcDbEntity
  8
DEFPOINTS
 62
     0
100
AcDbPoint
 10
21129.52325190813
 20
-4360.519092751843
 30
0.0
  0
ENDBLK
  5
1F5
330
1E8
100
AcDbEntity
  8
0
100
AcDbBlockEnd
  0
BLOCK
  5
13B
330
131
100
AcDbEntity
  8
0
100
AcDbBlockBegin
  2
*D10
 70
     1
 10
0.0
 20
0.0
 30
0.0
  3
*D10
  1

  0
LINE
  5
132
330
131
100
AcDbEntity
  8
0
 62
   123
100
AcDbLine
 10
21092.52325190813
 20
-4412.151746316093
 30
0.0
 11
21092.52325190813
 21
-4386.954489828752
 31
0.0
  0
LINE
  5
133
330
131
100
AcDbEntity
  8
0
 62
   123
100
AcDbLine
 10
21122.52325190813
 20
-4411.151746316091
 30
0.0
 11
21122.52325190813
 21
-4386.954489828752
 31
0.0
  0
LINE
  5
134
330
131
100
AcDbEntity
  8
0
 62
   123
100
AcDbLine
 10
21095.02325190813
 20
-4387.55448982875
 30
0.0
 11
21120.02325190813
 21
-4387.55448982875
 31
0.0
  0
SOLID
  5
135
330
131
100
AcDbEntity
  8
0
 62
   123
100
AcDbTrace
 10
21095.02325190813
 20
-4387.137823162084
 30
0.0
 11
21095.02325190813
 21
-4387.971156495417
 31
0.0
 12
21092.52325190813
 22
-4387.55448982875
 32
0.0
 13
21092.52325190813
 23
-4387.55448982875
 33
0.0
  0
SOLID
  5
136
330
131
100
AcDbEntity
  8
0
 62
   123
100
AcDbTrace
 10
21120.02325190813
 20
-4387.137823162084
 30
0.0
 11
21120.02325190813
 21
-4387.971156495417
 31
0.0
 12
21122.52325190813
 22
-4387.55448982875
 32
0.0
 13
21122.52325190813
 23
-4387.55448982875
 33
0.0
  0
MTEXT
  5
137
330
131
100
AcDbEntity
  8
0
 62
     3
100
AcDbMText
 10
21108.78193627263
 20
-4385.054489828752
 30
0.0
 40
3.0
 41
0.0
 71
     5
 72
     1
  1
\A1;30
1001
ACAD
1000
MTEXTBEGIN
1070
    73
1070
     1
1070
    44
1040
1.0
1070
    74
1070
     0
1000
MTEXTEND
  0
POINT
  5
138
330
131
100
AcDbEntity
  8
DEFPOINTS
 62
     0
100
AcDbPoint
 10
21092.52325190813
 20
-4413.151746316091
 30
0.0
  0
POINT
  5
139
330
131
100
AcDbEntity
  8
DEFPOINTS
 62
     0
100
AcDbPoint
 10
21122.52325190813
 20
-4412.151746316093
 30
0.0
  0
POINT
  5
13A
330
131
100
AcDbEntity
  8
DEFPOINTS
 62
     0
100
AcDbPoint
 10
21122.52325190813
 20
-4387.55448982875
 30
0.0
  0
ENDBLK
  5
13C
330
131
100
AcDbEntity
  8
0
100
AcDbBlockEnd
  0
BLOCK
  5
198
330
18E
100
AcDbEntity
  8
0
100
AcDbBlockBegin
  2
*D11
 70
     1
 10
0.0
 20
0.0
 30
0.0
  3
*D11
  1

  0
LINE
  5
18F
330
18E
100
AcDbEntity
  8
0
 62
   123
100
AcDbLine
 10
21091.52325190813
 20
-4424.151746316091
 30
0.0
 11
21082.77008372274
 21
-4424.151746316091
 31
0.0
  0
LINE
  5
190
330
18E
100
AcDbEntity
  8
0
 62
   123
100
AcDbLine
 10
21091.52325190813
 20
-4413.151746316091
 30
0.0
 11
21082.77008372274
 21
-4413.151746316091
 31
0.0
  0
LINE
  5
191
330
18E
100
AcDbEntity
  8
0
 62
   123
100
AcDbLine
 10
21083.37008372273
 20
-4421.651746316093
 30
0.0
 11
21083.37008372273
 21
-4415.651746316092
 31
0.0
  0
SOLID
  5
192
330
18E
100
AcDbEntity
  8
0
 62
   123
100
AcDbTrace
 10
21082.95341705606
 20
-4421.651746316093
 30
0.0
 11
21083.78675038939
 21
-4421.651746316093
 31
0.0
 12
21083.37008372273
 22
-4424.151746316091
 32
0.0
 13
21083.37008372273
 23
-4424.151746316091
 33
0.0
  0
SOLID
  5
193
330
18E
100
AcDbEntity
  8
0
 62
   123
100
AcDbTrace
 10
21082.95341705606
 20
-4415.651746316092
 30
0.0
 11
21083.78675038939
 21
-4415.651746316092
 31
0.0
 12
21083.37008372273
 22
-4413.151746316091
 32
0.0
 13
21083.37008372273
 23
-4413.151746316091
 33
0.0
  0
MTEXT
  5
194
330
18E
100
AcDbEntity
  8
0
 62
     3
100
AcDbMText
 10
21080.87008372273
 20
-4419.314511373399
 30
0.0
 40
3.0
 41
0.0
 71
     5
 72
     1
  1
\A1;11
 11
0.0000000000000001
 21
1.0
 31
0.0
1001
ACAD
1000
MTEXTBEGIN
1070
    73
1070
     1
1070
    44
1040
1.0
1070
    74
1070
     0
1000
MTEXTEND
  0
POINT
  5
195
330
18E
100
AcDbEntity
  8
DEFPOINTS
 62
     0
100
AcDbPoint
 10
21092.52325190813
 20
-4424.151746316091
 30
0.0
  0
POINT
  5
196
330
18E
100
AcDbEntity
  8
DEFPOINTS
 62
     0
100
AcDbPoint
 10
21092.52325190813
 20
-4413.151746316091
 30
0.0
  0
POINT
  5
197
330
18E
100
AcDbEntity
  8
DEFPOINTS
 62
     0
100
AcDbPoint
 10
21083.37008372273
 20
-4413.151746316091
 30
0.0
  0
ENDBLK
  5
199
330
18E
100
AcDbEntity
  8
0
100
AcDbBlockEnd
  0
BLOCK
  5
1A7
330
19D
100
AcDbEntity
  8
0
100
AcDbBlockBegin
  2
*D12
 70
     1
 10
0.0
 20
0.0
 30
0.0
  3
*D12
  1

  0
LINE
  5
19E
330
19D
100
AcDbEntity
  8
0
 62
   123
100
AcDbLine
 10
21091.52325190813
 20
-4424.151746316091
 30
0.0
 11
21071.90160284202
 21
-4424.151746316091
 31
0.0
  0
LINE
  5
19F
330
19D
100
AcDbEntity
  8
0
 62
   123
100
AcDbLine
 10
21121.52325190813
 20
-4412.151746316093
 30
0.0
 11
21071.90160284202
 21
-4412.151746316093
 31
0.0
  0
LINE
  5
1A0
330
19D
100
AcDbEntity
  8
0
 62
   123
100
AcDbLine
 10
21072.50160284201
 20
-4421.651746316093
 30
0.0
 11
21072.50160284201
 21
-4414.651746316091
 31
0.0
  0
SOLID
  5
1A1
330
19D
100
AcDbEntity
  8
0
 62
   123
100
AcDbTrace
 10
21072.08493617535
 20
-4421.651746316093
 30
0.0
 11
21072.91826950869
 21
-4421.651746316093
 31
0.0
 12
21072.50160284201
 22
-4424.151746316091
 32
0.0
 13
21072.50160284201
 23
-4424.151746316091
 33
0.0
  0
SOLID
  5
1A2
330
19D
100
AcDbEntity
  8
0
 62
   123
100
AcDbTrace
 10
21072.08493617535
 20
-4414.651746316091
 30
0.0
 11
21072.91826950869
 21
-4414.651746316091
 31
0.0
 12
21072.50160284201
 22
-4412.151746316093
 32
0.0
 13
21072.50160284201
 23
-4412.151746316093
 33
0.0
  0
MTEXT
  5
1A3
330
19D
100
AcDbEntity
  8
0
 62
     3
100
AcDbMText
 10
21068.55145284202
 20
-4418.151746316089
 30
0.0
 40
3.0
 41
0.0
 71
     5
 72
     1
  1
\A1;\A1;{\f??|b0|i0|c0|p49;%%C}12{\f??|b0|i0|c0|p49;\H0.7x;\S+0^ -0.018;\H1.429x;(h}7{\f??|b0|i0|c0|p49;)}
 11
0.0000000000000001
 21
1.0
 31
0.0
1001
ACAD
1000
MTEXTBEGIN
1070
    73
1070
     1
1070
    44
1040
1.0
1070
    74
1070
     0
1000
MTEXTEND
  0
POINT
  5
1A4
330
19D
100
AcDbEntity
  8
DEFPOINTS
 62
     0
100
AcDbPoint
 10
21092.52325190813
 20
-4424.151746316091
 30
0.0
  0
POINT
  5
1A5
330
19D
100
AcDbEntity
  8
DEFPOINTS
 62
     0
100
AcDbPoint
 10
21122.52325190813
 20
-4412.151746316093
 30
0.0
  0
POINT
  5
1A6
330
19D
100
AcDbEntity
  8
DEFPOINTS
 62
     0
100
AcDbPoint
 10
21072.50160284201
 20
-4412.151746316093
 30
0.0
  0
ENDBLK
  5
1A8
330
19D
100
AcDbEntity
  8
0
100
AcDbBlockEnd
  0
BLOCK
  5
EA
330
E0
100
AcDbEntity
  8
0
100
AcDbBlockBegin
  2
*D13
 70
     1
 10
0.0
 20
0.0
 30
0.0
  3
*D13
  1

  0
LINE
  5
E1
330
E0
100
AcDbEntity
  8
0
 62
   123
100
AcDbLine
 10
21104.12368768907
 20
-4161.852963959018
 30
0.0
 11
21073.64174769388
 21
-4161.852963959018
 31
0.0
  0
LINE
  5
E2
330
E0
100
AcDbEntity
  8
0
 62
   123
100
AcDbLine
 10
21104.12368768907
 20
-4244.85296395902
 30
0.0
 11
21073.64174769388
 21
-4244.85296395902
 31
0.0
  0
LINE
  5
E3
330
E0
100
AcDbEntity
  8
0
 62
   123
100
AcDbLine
 10
21074.24174769388
 20
-4164.352963959021
 30
0.0
 11
21074.24174769388
 21
-4242.35296395902
 31
0.0
  0
SOLID
  5
E4
330
E0
100
AcDbEntity
  8
0
 62
   123
100
AcDbTrace
 10
21073.82508102721
 20
-4164.352963959021
 30
0.0
 11
21074.65841436054
 21
-4164.352963959021
 31
0.0
 12
21074.24174769388
 22
-4161.852963959018
 32
0.0
 13
21074.24174769388
 23
-4161.852963959018
 33
0.0
  0
SOLID
  5
E5
330
E0
100
AcDbEntity
  8
0
 62
   123
100
AcDbTrace
 10
21073.82508102721
 20
-4242.35296395902
 30
0.0
 11
21074.65841436054
 21
-4242.35296395902
 31
0.0
 12
21074.24174769388
 22
-4244.85296395902
 32
0.0
 13
21074.24174769388
 23
-4244.85296395902
 33
0.0
  0
MTEXT
  5
E6
330
E0
100
AcDbEntity
  8
0
 62
     3
100
AcDbMText
 10
21070.29174769388
 20
-4203.122806405191
 30
0.0
 40
3.0
 41
0.0
 71
     5
 72
     1
  1
\A1;\A1;{\f??|b0|i0|c0|p49;%%c}83{\f??|b0|i0|c0|p49;\H0.7x;\S+0^ -0.035;}(h7)
 11
0.0000000000000001
 21
1.0
 31
0.0
1001
ACAD
1000
MTEXTBEGIN
1070
    73
1070
     1
1070
    44
1040
1.0
1070
    74
1070
     0
1000
MTEXTEND
  0
POINT
  5
E7
330
E0
100
AcDbEntity
  8
DEFPOINTS
 62
     0
100
AcDbPoint
 10
21105.12368768906
 20
-4161.852963959018
 30
0.0
  0
POINT
  5
E8
330
E0
100
AcDbEntity
  8
DEFPOINTS
 62
     0
100
AcDbPoint
 10
21105.12368768906
 20
-4244.85296395902
 30
0.0
  0
POINT
  5
E9
330
E0
100
AcDbEntity
  8
DEFPOINTS
 62
     0
100
AcDbPoint
 10
21074.24174769388
 20
-4244.85296395902
 30
0.0
  0
ENDBLK
  5
EB
330
E0
100
AcDbEntity
  8
0
100
AcDbBlockEnd
  0
BLOCK
  5
2BA
330
2B0
100
AcDbEntity
  8
0
100
AcDbBlockBegin
  2
*D14
 70
     1
 10
0.0
 20
0.0
 30
0.0
  3
*D14
  1

  0
LINE
  5
2B1
330
2B0
100
AcDbEntity
  8
0
 62
   123
100
AcDbLine
 10
21107.12368768906
 20
-4158.144630625685
 30
0.0
 11
21107.12368768906
 21
-4136.511769023275
 31
0.0
  0
LINE
  5
2B2
330
2B0
100
AcDbEntity
  8
0
 62
   123
100
AcDbLine
 10
21114.62368768906
 20
-4158.75422661749
 30
0.0
 11
21114.62368768906
 21
-4136.511769023275
 31
0.0
  0
LINE
  5
2B3
330
2B0
100
AcDbEntity
  8
0
 62
   123
100
AcDbLine
 10
21109.62368768907
 20
-4137.111769023277
 30
0.0
 11
21112.12368768907
 21
-4137.111769023277
 31
0.0
  0
SOLID
  5
2B4
330
2B0
100
AcDbEntity
  8
0
 62
   123
100
AcDbTrace
 10
21109.62368768907
 20
-4136.69510235661
 30
0.0
 11
21109.62368768907
 21
-4137.528435689943
 31
0.0
 12
21107.12368768906
 22
-4137.111769023277
 32
0.0
 13
21107.12368768906
 23
-4137.111769023277
 33
0.0
  0
SOLID
  5
2B5
330
2B0
100
AcDbEntity
  8
0
 62
   123
100
AcDbTrace
 10
21112.12368768907
 20
-4136.69510235661
 30
0.0
 11
21112.12368768907
 21
-4137.528435689943
 31
0.0
 12
21114.62368768906
 22
-4137.111769023277
 32
0.0
 13
21114.62368768906
 23
-4137.111769023277
 33
0.0
  0
MTEXT
  5
2B6
330
2B0
100
AcDbEntity
  8
0
 62
     3
100
AcDbMText
 10
21110.87368768906
 20
-4134.611769023275
 30
0.0
 40
3.0
 41
0.0
 71
     5
 72
     1
  1
\A1;7.5
1001
ACAD
1000
MTEXTBEGIN
1070
    73
1070
     1
1070
    44
1040
1.0
1070
    74
1070
     0
1000
MTEXTEND
  0
POINT
  5
2B7
330
2B0
100
AcDbEntity
  8
DEFPOINTS
 62
     0
100
AcDbPoint
 10
21107.12368768906
 20
-4159.144630625685
 30
0.0
  0
POINT
  5
2B8
330
2B0
100
AcDbEntity
  8
DEFPOINTS
 62
     0
100
AcDbPoint
 10
21114.62368768906
 20
-4159.754226617489
 30
0.0
  0
POINT
  5
2B9
330
2B0
100
AcDbEntity
  8
DEFPOINTS
 62
     0
100
AcDbPoint
 10
21114.62368768906
 20
-4137.111769023277
 30
0.0
  0
ENDBLK
  5
2BB
330
2B0
100
AcDbEntity
  8
0
100
AcDbBlockEnd
  0
BLOCK
  5
203
330
1F9
100
AcDbEntity
  8
0
100
AcDbBlockBegin
  2
*D15
 70
     1
 10
0.0
 20
0.0
 30
0.0
  3
*D15
  1

  0
LINE
  5
1FA
330
1F9
100
AcDbEntity
  8
0
 62
   123
100
AcDbLine
 10
21129.52325190813
 20
-4371.943412982759
 30
0.0
 11
21129.52325190813
 21
-4351.275616514831
 31
0.0
  0
LINE
  5
1FB
330
1F9
100
AcDbEntity
  8
0
 62
   123
100
AcDbLine
 10
21137.02325190813
 20
-4373.553008974564
 30
0.0
 11
21137.02325190813
 21
-4351.275616514831
 31
0.0
  0
LINE
  5
1FC
330
1F9
100
AcDbEntity
  8
0
 62
   123
100
AcDbLine
 10
21132.02325190813
 20
-4351.87561651483
 30
0.0
 11
21134.52325190813
 21
-4351.87561651483
 31
0.0
  0
SOLID
  5
1FD
330
1F9
100
AcDbEntity
  8
0
 62
   123
100
AcDbTrace
 10
21132.02325190813
 20
-4351.458949848164
 30
0.0
 11
21132.02325190813
 21
-4352.292283181497
 31
0.0
 12
21129.52325190813
 22
-4351.87561651483
 32
0.0
 13
21129.52325190813
 23
-4351.87561651483
 33
0.0
  0
SOLID
  5
1FE
330
1F9
100
AcDbEntity
  8
0
 62
   123
100
AcDbTrace
 10
21134.52325190813
 20
-4351.458949848164
 30
0.0
 11
21134.52325190813
 21
-4352.292283181497
 31
0.0
 12
21137.02325190813
 22
-4351.87561651483
 32
0.0
 13
21137.02325190813
 23
-4351.87561651483
 33
0.0
  0
MTEXT
  5
1FF
330
1F9
100
AcDbEntity
  8
0
 62
     3
100
AcDbMText
 10
21133.27325190813
 20
-4349.375616514833
 30
0.0
 40
3.0
 41
0.0
 71
     5
 72
     1
  1
\A1;7.5
1001
ACAD
1000
MTEXTBEGIN
1070
    73
1070
     1
1070
    44
1040
1.0
1070
    74
1070
     0
1000
MTEXTEND
  0
POINT
  5
200
330
1F9
100
AcDbEntity
  8
DEFPOINTS
 62
     0
100
AcDbPoint
 10
21129.52325190813
 20
-4372.943412982759
 30
0.0
  0
POINT
  5
201
330
1F9
100
AcDbEntity
  8
DEFPOINTS
 62
     0
100
AcDbPoint
 10
21137.02325190813
 20
-4374.553008974564
 30
0.0
  0
POINT
  5
202
330
1F9
100
AcDbEntity
  8
DEFPOINTS
 62
     0
100
AcDbPoint
 10
21137.02325190813
 20
-4351.87561651483
 30
0.0
  0
ENDBLK
  5
204
330
1F9
100
AcDbEntity
  8
0
100
AcDbBlockEnd
  0
BLOCK
  5
14A
330
140
100
AcDbEntity
  8
0
100
AcDbBlockBegin
  2
*D16
 70
     1
 10
0.0
 20
0.0
 30
0.0
  3
*D16
  1

  0
LINE
  5
141
330
140
100
AcDbEntity
  8
0
 62
   123
100
AcDbLine
 10
21092.52325190813
 20
-4412.151746316093
 30
0.0
 11
21092.52325190813
 21
-4336.534387443141
 31
0.0
  0
LINE
  5
142
330
140
100
AcDbEntity
  8
0
 62
   123
100
AcDbLine
 10
21129.52325190813
 20
-4371.943412982759
 30
0.0
 11
21129.52325190813
 21
-4336.534387443141
 31
0.0
  0
LINE
  5
143
330
140
100
AcDbEntity
  8
0
 62
   123
100
AcDbLine
 10
21095.02325190813
 20
-4337.134387443142
 30
0.0
 11
21127.02325190813
 21
-4337.134387443142
 31
0.0
  0
SOLID
  5
144
330
140
100
AcDbEntity
  8
0
 62
   123
100
AcDbTrace
 10
21095.02325190813
 20
-4336.717720776475
 30
0.0
 11
21095.02325190813
 21
-4337.551054109807
 31
0.0
 12
21092.52325190813
 22
-4337.134387443142
 32
0.0
 13
21092.52325190813
 23
-4337.134387443142
 33
0.0
  0
SOLID
  5
145
330
140
100
AcDbEntity
  8
0
 62
   123
100
AcDbTrace
 10
21127.02325190813
 20
-4336.717720776475
 30
0.0
 11
21127.02325190813
 21
-4337.551054109807
 31
0.0
 12
21129.52325190813
 22
-4337.134387443142
 32
0.0
 13
21129.52325190813
 23
-4337.134387443142
 33
0.0
  0
MTEXT
  5
146
330
140
100
AcDbEntity
  8
0
 62
     3
100
AcDbMText
 10
21112.43659317086
 20
-4334.634387443141
 30
0.0
 40
3.0
 41
0.0
 71
     5
 72
     1
  1
\A1;37
1001
ACAD
1000
MTEXTBEGIN
1070
    73
1070
     1
1070
    44
1040
1.0
1070
    74
1070
     0
1000
MTEXTEND
  0
POINT
  5
147
330
140
100
AcDbEntity
  8
DEFPOINTS
 62
     0
100
AcDbPoint
 10
21092.52325190813
 20
-4413.151746316091
 30
0.0
  0
POINT
  5
148
330
140
100
AcDbEntity
  8
DEFPOINTS
 62
     0
100
AcDbPoint
 10
21129.52325190813
 20
-4372.943412982759
 30
0.0
  0
POINT
  5
149
330
140
100
AcDbEntity
  8
DEFPOINTS
 62
     0
100
AcDbPoint
 10
21129.52325190813
 20
-4337.134387443142
 30
0.0
  0
ENDBLK
  5
14B
330
140
100
AcDbEntity
  8
0
100
AcDbBlockEnd
  0
BLOCK
  5
15E
330
154
100
AcDbEntity
  8
0
100
AcDbBlockBegin
  2
*D17
 70
     1
 10
0.0
 20
0.0
 30
0.0
  3
*D17
  1

  0
LINE
  5
155
330
154
100
AcDbEntity
  8
0
 62
   123
100
AcDbLine
 10
21126.52325190813
 20
-4376.651746316094
 30
0.0
 11
21059.74075683411
 21
-4376.651746316094
 31
0.0
  0
LINE
  5
156
330
154
100
AcDbEntity
  8
0
 62
   123
100
AcDbLine
 10
21126.52325190813
 20
-4459.651746316093
 30
0.0
 11
21059.74075683411
 21
-4459.651746316093
 31
0.0
  0
LINE
  5
157
330
154
100
AcDbEntity
  8
0
 62
   123
100
AcDbLine
 10
21060.34075683411
 20
-4379.151746316091
 30
0.0
 11
21060.34075683411
 21
-4457.151746316093
 31
0.0
  0
SOLID
  5
158
330
154
100
AcDbEntity
  8
0
 62
   123
100
AcDbTrace
 10
21059.92409016745
 20
-4379.151746316091
 30
0.0
 11
21060.75742350078
 21
-4379.151746316091
 31
0.0
 12
21060.34075683411
 22
-4376.651746316094
 32
0.0
 13
21060.34075683411
 23
-4376.651746316094
 33
0.0
  0
SOLID
  5
159
330
154
100
AcDbEntity
  8
0
 62
   123
100
AcDbTrace
 10
21059.92409016745
 20
-4457.151746316093
 30
0.0
 11
21060.75742350078
 21
-4457.151746316093
 31
0.0
 12
21060.34075683411
 22
-4459.651746316093
 32
0.0
 13
21060.34075683411
 23
-4459.651746316093
 33
0.0
  0
MTEXT
  5
15A
330
154
100
AcDbEntity
  8
0
 62
     3
100
AcDbMText
 10
21056.39060683412
 20
-4418.083892637564
 30
0.0
 40
3.0
 41
0.0
 71
     5
 72
     1
  1
\A1;\A1;{\f??|b0|i0|c0|p49;%%C}83{\f??|b0|i0|c0|p49;\H0.7x;\S+0^ -0.035;\H1.429x;(h}7{\f??|b0|i0|c0|p49;)}
 11
0.0000000000000001
 21
1.0
 31
0.0
1001
ACAD
1000
MTEXTBEGIN
1070
    73
1070
     1
1070
    44
1040
1.0
1070
    74
1070
     0
1000
MTEXTEND
  0
POINT
  5
15B
330
154
100
AcDbEntity
  8
DEFPOINTS
 62
     0
100
AcDbPoint
 10
21127.52325190813
 20
-4376.651746316094
 30
0.0
  0
POINT
  5
15C
330
154
100
AcDbEntity
  8
DEFPOINTS
 62
     0
100
AcDbPoint
 10
21127.52325190813
 20
-4459.651746316093
 30
0.0
  0
POINT
  5
15D
330
154
100
AcDbEntity
  8
DEFPOINTS
 62
     0
100
AcDbPoint
 10
21060.34075683411
 20
-4459.651746316093
 30
0.0
  0
ENDBLK
  5
15F
330
154
100
AcDbEntity
  8
0
100
AcDbBlockEnd
  0
BLOCK
  5
129
330
11F
100
AcDbEntity
  8
0
100
AcDbBlockBegin
  2
*D18
 70
     1
 10
0.0
 20
0.0
 30
0.0
  3
*D18
  1

  0
LINE
  5
120
330
11F
100
AcDbEntity
  8
0
 62
   123
100
AcDbLine
 10
21243.52325190813
 20
-4373.151746316092
 30
0.0
 11
21269.8081174789
 21
-4373.151746316092
 31
0.0
  0
LINE
  5
121
330
11F
100
AcDbEntity
  8
0
 62
   123
100
AcDbLine
 10
21243.52325190813
 20
-4463.151746316092
 30
0.0
 11
21269.8081174789
 21
-4463.151746316092
 31
0.0
  0
LINE
  5
122
330
11F
100
AcDbEntity
  8
0
 62
   123
100
AcDbLine
 10
21269.2081174789
 20
-4375.651746316091
 30
0.0
 11
21269.2081174789
 21
-4460.651746316091
 31
0.0
  0
SOLID
  5
123
330
11F
100
AcDbEntity
  8
0
 62
   123
100
AcDbTrace
 10
21268.79145081224
 20
-4375.651746316091
 30
0.0
 11
21269.62478414557
 21
-4375.651746316091
 31
0.0
 12
21269.2081174789
 22
-4373.151746316092
 32
0.0
 13
21269.2081174789
 23
-4373.151746316092
 33
0.0
  0
SOLID
  5
124
330
11F
100
AcDbEntity
  8
0
 62
   123
100
AcDbTrace
 10
21268.79145081224
 20
-4460.651746316091
 30
0.0
 11
21269.62478414557
 21
-4460.651746316091
 31
0.0
 12
21269.2081174789
 22
-4463.151746316092
 32
0.0
 13
21269.2081174789
 23
-4463.151746316092
 33
0.0
  0
MTEXT
  5
125
330
11F
100
AcDbEntity
  8
0
 62
     3
100
AcDbMText
 10
21266.7081174789
 20
-4418.326538554553
 30
0.0
 40
3.0
 41
0.0
 71
     5
 72
     1
  1
\A1;%%C90
 11
0.0000000000000001
 21
1.0
 31
0.0
1001
ACAD
1000
MTEXTBEGIN
1070
    73
1070
     1
1070
    44
1040
1.0
1070
    74
1070
     0
1000
MTEXTEND
  0
POINT
  5
126
330
11F
100
AcDbEntity
  8
DEFPOINTS
 62
     0
100
AcDbPoint
 10
21242.52325190813
 20
-4373.151746316092
 30
0.0
  0
POINT
  5
127
330
11F
100
AcDbEntity
  8
DEFPOINTS
 62
     0
100
AcDbPoint
 10
21242.52325190813
 20
-4463.151746316092
 30
0.0
  0
POINT
  5
128
330
11F
100
AcDbEntity
  8
DEFPOINTS
 62
     0
100
AcDbPoint
 10
21269.2081174789
 20
-4463.151746316092
 30
0.0
  0
ENDBLK
  5
12A
330
11F
100
AcDbEntity
  8
0
100
AcDbBlockEnd
  0
BLOCK
  5
B0
330
A3
100
AcDbEntity
  8
0
100
AcDbBlockBegin
  2
*D19
 70
     1
 10
0.0
 20
0.0
 30
0.0
  3
*D19
  1

  0
LINE
  5
A4
330
A3
100
AcDbEntity
  8
0
 62
   123
100
AcDbLine
 10
20994.36755044643
 20
-4258.457600871536
 30
0.0
 11
20994.36755044643
 21
-4269.538175112429
 31
0.0
  0
LINE
  5
A5
330
A3
100
AcDbEntity
  8
0
 62
   123
100
AcDbLine
 10
21013.38538487868
 20
-4249.276875300573
 30
0.0
 11
21019.69045099875
 21
-4264.502231191248
 31
0.0
  0
ARC
  5
A6
330
A3
100
AcDbEntity
  8
0
 62
   123
100
AcDbCircle
 10
20994.36755044643
 20
-4203.352963959015
 30
0.0
 40
65.5852111534146
100
AcDbArc
 50
272.1841527943155
 51
290.3110842332174
  0
SOLID
  5
A7
330
A3
100
AcDbEntity
  8
0
 62
   123
100
AcDbTrace
 10
20996.8750376628
 20
-4269.307118157833
 30
0.0
 11
20996.85915501719
 21
-4268.473936193307
 31
0.0
 12
20994.36755044642
 22
-4268.93817511243
 32
0.0
 13
20994.36755044642
 23
-4268.93817511243
 33
0.0
  0
SOLID
  5
A8
330
A3
100
AcDbEntity
  8
0
 62
   123
100
AcDbTrace
 10
21016.98124441131
 20
-4264.472273210173
 30
0.0
 11
21017.28535119798
 21
-4265.24813628234
 31
0.0
 12
21019.46088702114
 22
-4263.947884386275
 32
0.0
 13
21019.46088702114
 23
-4263.947884386275
 33
0.0
  0
MTEXT
  5
A9
330
A3
100
AcDbEntity
  8
0
 62
     3
100
AcDbMText
 10
21006.61656441036
 20
-4264.94629528431
 30
0.0
 40
3.0
 41
0.0
 71
     5
 72
     1
  1
\A1;22°30'
 11
0.9807933884415064
 21
0.1950495557273287
 31
0.0
1001
ACAD
1000
MTEXTBEGIN
1070
    73
1070
     1
1070
    44
1040
1.0
1070
    74
1070
     0
1000
MTEXTEND
  0
POINT
  5
AA
330
A3
100
AcDbEntity
  8
DEFPOINTS
 62
     0
100
AcDbPoint
 10
21002.92633651227
 20
-4268.377321726831
 30
0.0
  0
POINT
  5
AC
330
A3
100
AcDbEntity
  8
DEFPOINTS
 62
     0
100
AcDbPoint
 10
20994.36755044642
 20
-4257.457600871534
 30
0.0
  0
POINT
  5
AD
330
A3
100
AcDbEntity
  8
DEFPOINTS
 62
     0
100
AcDbPoint
 10
20994.36755044643
 20
-4203.352963959019
 30
0.0
  0
POINT
  5
AE
330
A3
100
AcDbEntity
  8
DEFPOINTS
 62
     0
100
AcDbPoint
 10
21013.00277824933
 20
-4248.35296395895
 30
0.0
  0
POINT
  5
AF
330
A3
100
AcDbEntity
  8
DEFPOINTS
 62
     0
100
AcDbPoint
 10
20994.36755044643
 20
-4156.378325889913
 30
0.0
  0
ENDBLK
  5
B1
330
A3
100
AcDbEntity
  8
0
100
AcDbBlockEnd
  0
BLOCK
  5
C6
330
BA
100
AcDbEntity
  8
0
100
AcDbBlockBegin
  2
*D20
 70
     1
 10
0.0
 20
0.0
 30
0.0
  3
*D20
  1

  0
LINE
  5
BB
330
BA
100
AcDbEntity
  8
0
 62
   123
100
AcDbLine
 10
20972.72141435414
 20
-4472.781891079845
 30
0.0
 11
20972.72141435414
 21
-4484.336957469497
 31
0.0
  0
LINE
  5
BC
330
BA
100
AcDbEntity
  8
0
 62
   123
100
AcDbLine
 10
20991.73924878639
 20
-4464.075657657644
 30
0.0
 11
20998.04431490646
 21
-4479.301013548314
 31
0.0
  0
ARC
  5
BD
330
BA
100
AcDbEntity
  8
0
 62
   123
100
AcDbCircle
 10
20972.72141435415
 20
-4418.15174631609
 30
0.0
 40
65.58521115340528
100
AcDbArc
 50
272.1841527943161
 51
290.3110842332163
  0
SOLID
  5
BE
330
BA
100
AcDbEntity
  8
0
 62
   123
100
AcDbTrace
 10
20975.22890157053
 20
-4484.1059005149
 30
0.0
 11
20975.21301892491
 21
-4483.272718550375
 31
0.0
 12
20972.72141435414
 22
-4483.736957469496
 32
0.0
 13
20972.72141435414
 23
-4483.736957469496
 33
0.0
  0
SOLID
  5
BF
330
BA
100
AcDbEntity
  8
0
 62
   123
100
AcDbTrace
 10
20995.33510831903
 20
-4479.271055567242
 30
0.0
 11
20995.63921510569
 21
-4480.046918639406
 31
0.0
 12
20997.81475092886
 22
-4478.746666743342
 32
0.0
 13
20997.81475092886
 23
-4478.746666743342
 33
0.0
  0
MTEXT
  5
C0
330
BA
100
AcDbEntity
  8
0
 62
     3
100
AcDbMText
 10
20984.97042831807
 20
-4479.745077641378
 30
0.0
 40
3.0
 41
0.0
 71
     5
 72
     1
  1
\A1;22°30'
 11
0.9807933884415135
 21
0.1950495557272938
 31
0.0
1001
ACAD
1000
MTEXTBEGIN
1070
    73
1070
     1
1070
    44
1040
1.0
1070
    74
1070
     0
1000
MTEXTEND
  0
POINT
  5
C1
330
BA
100
AcDbEntity
  8
DEFPOINTS
 62
     0
100
AcDbPoint
 10
20981.28020042
 20
-4483.176104083899
 30
0.0
  0
POINT
  5
C2
330
BA
100
AcDbEntity
  8
DEFPOINTS
 62
     0
100
AcDbPoint
 10
20972.72141435415
 20
-4471.781891079844
 30
0.0
  0
POINT
  5
C3
330
BA
100
AcDbEntity
  8
DEFPOINTS
 62
     0
100
AcDbPoint
 10
20972.72141435415
 20
-4418.15174631609
 30
0.0
  0
POINT
  5
C4
330
BA
100
AcDbEntity
  8
DEFPOINTS
 62
     0
100
AcDbPoint
 10
20991.35664215704
 20
-4463.151746316023
 30
0.0
  0
POINT
  5
C5
330
BA
100
AcDbEntity
  8
DEFPOINTS
 62
     0
100
AcDbPoint
 10
20972.72141435415
 20
-4371.177108246985
 30
0.0
  0
ENDBLK
  5
C7
330
BA
100
AcDbEntity
  8
0
100
AcDbBlockEnd
  0
BLOCK
  5
2EF
330
2E5
100
AcDbEntity
  8
0
100
AcDbBlockBegin
  2
*D21
 70
     1
 10
0.0
 20
0.0
 30
0.0
  3
*D21
  1

  0
LINE
  5
2E6
330
2E5
100
AcDbEntity
  8
0
 62
   123
100
AcDbLine
 10
293.320232741833
 20
341.2700124884076
 30
0.0
 11
317.9989666278758
 21
341.2700124884076
 31
0.0
  0
LINE
  5
2E7
330
2E5
100
AcDbEntity
  8
0
 62
   123
100
AcDbLine
 10
293.320232741833
 20
251.2700124884077
 30
0.0
 11
317.9989666278758
 21
251.2700124884077
 31
0.0
  0
LINE
  5
2E8
330
2E5
100
AcDbEntity
  8
0
 62
   123
100
AcDbLine
 10
317.3989666278758
 20
338.7700124884077
 30
0.0
 11
317.3989666278758
 21
253.7700124884076
 31
0.0
  0
SOLID
  5
2E9
330
2E5
100
AcDbEntity
  8
0
 62
   123
100
AcDbTrace
 10
316.9822999612091
 20
338.7700124884077
 30
0.0
 11
317.8156332945425
 21
338.7700124884077
 31
0.0
 12
317.3989666278758
 22
341.2700124884076
 32
0.0
 13
317.3989666278758
 23
341.2700124884076
 33
0.0
  0
SOLID
  5
2EA
330
2E5
100
AcDbEntity
  8
0
 62
   123
100
AcDbTrace
 10
316.9822999612091
 20
253.7700124884076
 30
0.0
 11
317.8156332945425
 21
253.7700124884076
 31
0.0
 12
317.3989666278758
 22
251.2700124884077
 32
0.0
 13
317.3989666278758
 23
251.2700124884077
 33
0.0
  0
MTEXT
  5
2EB
330
2E5
100
AcDbEntity
  8
0
 62
     3
100
AcDbMText
 10
314.8989666278757
 20
295.3201899020141
 30
0.0
 40
3.0
 41
0.0
 71
     5
 72
     1
  1
\A1;%%c90
 11
0.0000000000000001
 21
1.0
 31
0.0
1001
ACAD
1000
MTEXTBEGIN
1070
    73
1070
     1
1070
    44
1040
1.0
1070
    74
1070
     0
1000
MTEXTEND
  0
POINT
  5
2EC
330
2E5
100
AcDbEntity
  8
DEFPOINTS
 62
     0
100
AcDbPoint
 10
292.320232741833
 20
341.2700124884076
 30
0.0
  0
POINT
  5
2ED
330
2E5
100
AcDbEntity
  8
DEFPOINTS
 62
     0
100
AcDbPoint
 10
292.320232741833
 20
251.2700124884077
 30
0.0
  0
POINT
  5
2EE
330
2E5
100
AcDbEntity
  8
DEFPOINTS
 62
     0
100
AcDbPoint
 10
317.3989666278758
 20
251.2700124884077
 30
0.0
  0
ENDBLK
  5
2F0
330
2E5
100
AcDbEntity
  8
0
100
AcDbBlockEnd
  0
BLOCK
  5
2FB
330
2F1
100
AcDbEntity
  8
0
100
AcDbBlockBegin
  2
*D22
 70
     1
 10
0.0
 20
0.0
 30
0.0
  3
*D22
  1

  0
LINE
  5
2F2
330
2F1
100
AcDbEntity
  8
0
 62
   123
100
AcDbLine
 10
176.3202327418257
 20
337.7700124884077
 30
0.0
 11
145.8382927466468
 21
337.7700124884077
 31
0.0
  0
LINE
  5
2F3
330
2F1
100
AcDbEntity
  8
0
 62
   123
100
AcDbLine
 10
176.3202327418257
 20
254.7700124884058
 30
0.0
 11
145.8382927466468
 21
254.7700124884058
 31
0.0
  0
LINE
  5
2F4
330
2F1
100
AcDbEntity
  8
0
 62
   123
100
AcDbLine
 10
146.4382927466468
 20
335.2700124884076
 30
0.0
 11
146.4382927466467
 21
257.2700124884058
 31
0.0
  0
SOLID
  5
2F5
330
2F1
100
AcDbEntity
  8
0
 62
   123
100
AcDbTrace
 10
146.0216260799801
 20
335.2700124884076
 30
0.0
 11
146.8549594133134
 21
335.2700124884076
 31
0.0
 12
146.4382927466468
 22
337.7700124884077
 32
0.0
 13
146.4382927466468
 23
337.7700124884077
 33
0.0
  0
SOLID
  5
2F6
330
2F1
100
AcDbEntity
  8
0
 62
   123
100
AcDbTrace
 10
146.0216260799801
 20
257.2700124884058
 30
0.0
 11
146.8549594133134
 21
257.2700124884058
 31
0.0
 12
146.4382927466467
 22
254.7700124884058
 32
0.0
 13
146.4382927466467
 23
254.7700124884058
 33
0.0
  0
MTEXT
  5
2F7
330
2F1
100
AcDbEntity
  8
0
 62
     3
100
AcDbMText
 10
142.4882927466467
 20
296.5001700422353
 30
0.0
 40
3.0
 41
0.0
 71
     5
 72
     1
  1
\A1;\A1;{\f??|b0|i0|c0|p49;%%c}83{\f??|b0|i0|c0|p49;\H0.7x;\S+0^ -0.035;}(h7)
 11
0.0000000000000001
 21
1.0
 31
0.0
1001
ACAD
1000
MTEXTBEGIN
1070
    73
1070
     1
1070
    44
1040
1.0
1070
    74
1070
     0
1000
MTEXTEND
  0
POINT
  5
2F8
330
2F1
100
AcDbEntity
  8
DEFPOINTS
 62
     0
100
AcDbPoint
 10
177.3202327418257
 20
337.7700124884077
 30
0.0
  0
POINT
  5
2F9
330
2F1
100
AcDbEntity
  8
DEFPOINTS
 62
     0
100
AcDbPoint
 10
177.3202327418257
 20
254.7700124884058
 30
0.0
  0
POINT
  5
2FA
330
2F1
100
AcDbEntity
  8
DEFPOINTS
 62
     0
100
AcDbPoint
 10
146.4382927466467
 20
254.7700124884058
 30
0.0
  0
ENDBLK
  5
2FC
330
2F1
100
AcDbEntity
  8
0
100
AcDbBlockEnd
  0
BLOCK
  5
309
330
2FD
100
AcDbEntity
  8
0
100
AcDbBlockBegin
  2
*D23
 70
     1
 10
0.0
 20
0.0
 30
0.0
  3
*D23
  1

  0
LINE
  5
3F5
330
2FD
100
AcDbEntity
  8
0
 62
   123
100
AcDbLine
 10
66.56409549919409
 20
241.1653755758925
 30
0.0
 11
66.56409549919409
 21
230.0848013349976
 31
0.0
  0
LINE
  5
3F6
330
2FD
100
AcDbEntity
  8
0
 62
   123
100
AcDbLine
 10
85.58192993144642
 20
250.3461011468547
 30
0.0
 11
91.88699605152178
 21
235.12074525618
 31
0.0
  0
ARC
  5
3F7
330
2FD
100
AcDbEntity
  8
0
 62
   123
100
AcDbCircle
 10
66.56409549919411
 20
296.2700124884077
 30
0.0
 40
65.58521115341001
100
AcDbArc
 50
272.1841527943181
 51
290.3110842332178
  0
SOLID
  5
3F8
330
2FD
100
AcDbEntity
  8
0
 62
   123
100
AcDbTrace
 10
69.0715827155842
 20
230.3158582895945
 30
0.0
 11
69.0557000699641
 21
231.1490402541212
 31
0.0
 12
66.56409549919408
 22
230.6848013349977
 32
0.0
 13
66.56409549919408
 23
230.6848013349977
 33
0.0
  0
SOLID
  5
3F9
330
2FD
100
AcDbEntity
  8
0
 62
   123
100
AcDbTrace
 10
89.17778946408157
 20
235.1507032372536
 30
0.0
 11
89.48189625074233
 21
234.3748401650873
 31
0.0
 12
91.65743207391082
 22
235.6750920611527
 32
0.0
 13
91.65743207391082
 23
235.6750920611527
 33
0.0
  0
MTEXT
  5
3FA
330
2FD
100
AcDbEntity
  8
0
 62
     3
100
AcDbMText
 10
78.81310946313551
 20
234.6766811631181
 30
0.0
 40
3.0
 41
0.0
 71
     5
 72
     1
  1
\A1;22°30'
 11
0.980793388441514
 21
0.1950495557272904
 31
0.0
  0
POINT
  5
3FB
330
2FD
100
AcDbEntity
  8
DEFPOINTS
 62
     0
100
AcDbPoint
 10
75.12288156504633
 20
231.2456547205961
 30
0.0
  0
POINT
  5
3FC
330
2FD
100
AcDbEntity
  8
DEFPOINTS
 62
     0
100
AcDbPoint
 10
66.56409549919408
 20
242.1653755758925
 30
0.0
  0
POINT
  5
3FD
330
2FD
100
AcDbEntity
  8
DEFPOINTS
 62
     0
100
AcDbPoint
 10
66.56409549919411
 20
296.2700124884077
 30
0.0
  0
POINT
  5
3FE
330
2FD
100
AcDbEntity
  8
DEFPOINTS
 62
     0
100
AcDbPoint
 10
85.19932330209488
 20
251.2700124884759
 30
0.0
  0
POINT
  5
3FF
330
2FD
100
AcDbEntity
  8
DEFPOINTS
 62
     0
100
AcDbPoint
 10
66.56409549919409
 20
343.2446505575136
 30
0.0
  0
ENDBLK
  5
30A
330
2FD
100
AcDbEntity
  8
0
100
AcDbBlockEnd
  0
BLOCK
  5
315
330
30B
100
AcDbEntity
  8
0
100
AcDbBlockBegin
  2
*D24
 70
     1
 10
0.0
 20
0.0
 30
0.0
  3
*D24
  1

  0
LINE
  5
30C
330
30B
100
AcDbEntity
  8
0
 62
   123
100
AcDbLine
 10
198.7197969608969
 20
122.9712301313329
 30
0.0
 11
131.9373018868813
 21
122.9712301313329
 31
0.0
  0
LINE
  5
30D
330
30B
100
AcDbEntity
  8
0
 62
   123
100
AcDbLine
 10
198.7197969608969
 20
39.97123013133295
 30
0.0
 11
131.9373018868813
 21
39.97123013133298
 31
0.0
  0
LINE
  5
30E
330
30B
100
AcDbEntity
  8
0
 62
   123
100
AcDbLine
 10
132.5373018868813
 20
120.4712301313329
 30
0.0
 11
132.5373018868813
 21
42.47123013133298
 31
0.0
  0
SOLID
  5
30F
330
30B
100
AcDbEntity
  8
0
 62
   123
100
AcDbTrace
 10
132.1206352202146
 20
120.4712301313329
 30
0.0
 11
132.953968553548
 21
120.4712301313329
 31
0.0
 12
132.5373018868813
 22
122.9712301313329
 32
0.0
 13
132.5373018868813
 23
122.9712301313329
 33
0.0
  0
SOLID
  5
310
330
30B
100
AcDbEntity
  8
0
 62
   123
100
AcDbTrace
 10
132.1206352202146
 20
42.47123013133298
 30
0.0
 11
132.9539685535479
 21
42.47123013133298
 31
0.0
 12
132.5373018868813
 22
39.97123013133298
 32
0.0
 13
132.5373018868813
 23
39.97123013133298
 33
0.0
  0
MTEXT
  5
311
330
30B
100
AcDbEntity
  8
0
 62
     3
100
AcDbMText
 10
128.5871518868813
 20
81.53908380986194
 30
0.0
 40
3.0
 41
0.0
 71
     5
 72
     1
  1
\A1;\A1;{\f??|b0|i0|c0|p49;%%C}83{\f??|b0|i0|c0|p49;\H0.7x;\S+0^ -0.035;\H1.429x;(h}7{\f??|b0|i0|c0|p49;)}
 11
0.0000000000000001
 21
1.0
 31
0.0
1001
ACAD
1000
MTEXTBEGIN
1070
    73
1070
     1
1070
    44
1040
1.0
1070
    74
1070
     0
1000
MTEXTEND
  0
POINT
  5
312
330
30B
100
AcDbEntity
  8
DEFPOINTS
 62
     0
100
AcDbPoint
 10
199.7197969608969
 20
122.9712301313329
 30
0.0
  0
POINT
  5
313
330
30B
100
AcDbEntity
  8
DEFPOINTS
 62
     0
100
AcDbPoint
 10
199.7197969608969
 20
39.97123013133295
 30
0.0
  0
POINT
  5
314
330
30B
100
AcDbEntity
  8
DEFPOINTS
 62
     0
100
AcDbPoint
 10
132.5373018868813
 20
39.97123013133298
 30
0.0
  0
ENDBLK
  5
316
330
30B
100
AcDbEntity
  8
0
100
AcDbBlockEnd
  0
BLOCK
  5
321
330
317
100
AcDbEntity
  8
0
100
AcDbBlockBegin
  2
*D25
 70
     1
 10
0.0
 20
0.0
 30
0.0
  3
*D25
  1

  0
LINE
  5
318
330
317
100
AcDbEntity
  8
0
 62
   123
100
AcDbLine
 10
164.7197969608969
 20
87.47123013133478
 30
0.0
 11
164.7197969608969
 21
163.0885890042842
 31
0.0
  0
LINE
  5
319
330
317
100
AcDbEntity
  8
0
 62
   123
100
AcDbLine
 10
201.7197969608969
 20
127.6795634646678
 30
0.0
 11
201.7197969608969
 21
163.0885890042842
 31
0.0
  0
LINE
  5
31A
330
317
100
AcDbEntity
  8
0
 62
   123
100
AcDbLine
 10
167.2197969608969
 20
162.4885890042842
 30
0.0
 11
199.2197969608969
 21
162.4885890042842
 31
0.0
  0
SOLID
  5
31B
330
317
100
AcDbEntity
  8
0
 62
   123
100
AcDbTrace
 10
167.2197969608969
 20
162.9052556709508
 30
0.0
 11
167.2197969608969
 21
162.0719223376175
 31
0.0
 12
164.7197969608969
 22
162.4885890042842
 32
0.0
 13
164.7197969608969
 23
162.4885890042842
 33
0.0
  0
SOLID
  5
31C
330
317
100
AcDbEntity
  8
0
 62
   123
100
AcDbTrace
 10
199.2197969608969
 20
162.9052556709508
 30
0.0
 11
199.2197969608969
 21
162.0719223376175
 31
0.0
 12
201.7197969608969
 22
162.4885890042842
 32
0.0
 13
201.7197969608969
 23
162.4885890042842
 33
0.0
  0
MTEXT
  5
31D
330
317
100
AcDbEntity
  8
0
 62
     3
100
AcDbMText
 10
184.6331382236239
 20
164.9885890042842
 30
0.0
 40
3.0
 41
0.0
 71
     5
 72
     1
  1
\A1;37
1001
ACAD
1000
MTEXTBEGIN
1070
    73
1070
     1
1070
    44
1040
1.0
1070
    74
1070
     0
1000
MTEXTEND
  0
POINT
  5
31E
330
317
100
AcDbEntity
  8
DEFPOINTS
 62
     0
100
AcDbPoint
 10
164.7197969608969
 20
86.47123013133478
 30
0.0
  0
POINT
  5
31F
330
317
100
AcDbEntity
  8
DEFPOINTS
 62
     0
100
AcDbPoint
 10
201.7197969608969
 20
126.6795634646678
 30
0.0
  0
POINT
  5
320
330
317
100
AcDbEntity
  8
DEFPOINTS
 62
     0
100
AcDbPoint
 10
201.7197969608969
 20
162.4885890042842
 30
0.0
  0
ENDBLK
  5
322
330
317
100
AcDbEntity
  8
0
100
AcDbBlockEnd
  0
BLOCK
  5
32D
330
323
100
AcDbEntity
  8
0
100
AcDbBlockBegin
  2
*D26
 70
     1
 10
0.0
 20
0.0
 30
0.0
  3
*D26
  1

  0
LINE
  5
324
330
323
100
AcDbEntity
  8
0
 62
   123
100
AcDbLine
 10
164.7197969608969
 20
87.47123013133478
 30
0.0
 11
164.7197969608969
 21
112.6684866186757
 31
0.0
  0
LINE
  5
325
330
323
100
AcDbEntity
  8
0
 62
   123
100
AcDbLine
 10
194.7197969608969
 20
88.47123013133296
 30
0.0
 11
194.7197969608969
 21
112.6684866186757
 31
0.0
  0
LINE
  5
326
330
323
100
AcDbEntity
  8
0
 62
   123
100
AcDbLine
 10
167.2197969608969
 20
112.0684866186757
 30
0.0
 11
192.2197969608969
 21
112.0684866186757
 31
0.0
  0
SOLID
  5
327
330
323
100
AcDbEntity
  8
0
 62
   123
100
AcDbTrace
 10
167.2197969608969
 20
112.4851532853423
 30
0.0
 11
167.2197969608969
 21
111.651819952009
 31
0.0
 12
164.7197969608969
 22
112.0684866186757
 32
0.0
 13
164.7197969608969
 23
112.0684866186757
 33
0.0
  0
SOLID
  5
328
330
323
100
AcDbEntity
  8
0
 62
   123
100
AcDbTrace
 10
192.2197969608969
 20
112.4851532853423
 30
0.0
 11
192.2197969608969
 21
111.651819952009
 31
0.0
 12
194.7197969608969
 22
112.0684866186757
 32
0.0
 13
194.7197969608969
 23
112.0684866186757
 33
0.0
  0
MTEXT
  5
329
330
323
100
AcDbEntity
  8
0
 62
     3
100
AcDbMText
 10
180.9784813253973
 20
114.5684866186757
 30
0.0
 40
3.0
 41
0.0
 71
     5
 72
     1
  1
\A1;30
1001
ACAD
1000
MTEXTBEGIN
1070
    73
1070
     1
1070
    44
1040
1.0
1070
    74
1070
     0
1000
MTEXTEND
  0
POINT
  5
32A
330
323
100
AcDbEntity
  8
DEFPOINTS
 62
     0
100
AcDbPoint
 10
164.7197969608969
 20
86.47123013133478
 30
0.0
  0
POINT
  5
32B
330
323
100
AcDbEntity
  8
DEFPOINTS
 62
     0
100
AcDbPoint
 10
194.7197969608969
 20
87.47123013133295
 30
0.0
  0
POINT
  5
32C
330
323
100
AcDbEntity
  8
DEFPOINTS
 62
     0
100
AcDbPoint
 10
194.7197969608969
 20
112.0684866186757
 30
0.0
  0
ENDBLK
  5
32E
330
323
100
AcDbEntity
  8
0
100
AcDbBlockEnd
  0
BLOCK
  5
339
330
32F
100
AcDbEntity
  8
0
100
AcDbBlockBegin
  2
*D27
 70
     1
 10
0.0
 20
0.0
 30
0.0
  3
*D27
  1

  0
LINE
  5
330
330
32F
100
AcDbEntity
  8
0
 62
   123
100
AcDbLine
 10
315.7197969608969
 20
126.4712301313347
 30
0.0
 11
342.0046625316732
 21
126.4712301313347
 31
0.0
  0
LINE
  5
331
330
32F
100
AcDbEntity
  8
0
 62
   123
100
AcDbLine
 10
315.7197969608969
 20
36.47123013133477
 30
0.0
 11
342.0046625316732
 21
36.47123013133477
 31
0.0
  0
LINE
  5
332
330
32F
100
AcDbEntity
  8
0
 62
   123
100
AcDbLine
 10
341.4046625316732
 20
123.9712301313347
 30
0.0
 11
341.4046625316732
 21
38.97123013133477
 31
0.0
  0
SOLID
  5
333
330
32F
100
AcDbEntity
  8
0
 62
   123
100
AcDbTrace
 10
340.9879958650065
 20
123.9712301313347
 30
0.0
 11
341.8213291983399
 21
123.9712301313347
 31
0.0
 12
341.4046625316732
 22
126.4712301313347
 32
0.0
 13
341.4046625316732
 23
126.4712301313347
 33
0.0
  0
SOLID
  5
334
330
32F
100
AcDbEntity
  8
0
 62
   123
100
AcDbTrace
 10
340.9879958650065
 20
38.97123013133477
 30
0.0
 11
341.8213291983399
 21
38.97123013133477
 31
0.0
 12
341.4046625316732
 22
36.47123013133477
 32
0.0
 13
341.4046625316732
 23
36.47123013133477
 33
0.0
  0
MTEXT
  5
335
330
32F
100
AcDbEntity
  8
0
 62
     3
100
AcDbMText
 10
338.9046625316732
 20
81.29643789287365
 30
0.0
 40
3.0
 41
0.0
 71
     5
 72
     1
  1
\A1;%%C90
 11
0.0000000000000001
 21
1.0
 31
0.0
1001
ACAD
1000
MTEXTBEGIN
1070
    73
1070
     1
1070
    44
1040
1.0
1070
    74
1070
     0
1000
MTEXTEND
  0
POINT
  5
336
330
32F
100
AcDbEntity
  8
DEFPOINTS
 62
     0
100
AcDbPoint
 10
314.7197969608969
 20
126.4712301313347
 30
0.0
  0
POINT
  5
337
330
32F
100
AcDbEntity
  8
DEFPOINTS
 62
     0
100
AcDbPoint
 10
314.7197969608969
 20
36.47123013133477
 30
0.0
  0
POINT
  5
338
330
32F
100
AcDbEntity
  8
DEFPOINTS
 62
     0
100
AcDbPoint
 10
341.4046625316732
 20
36.47123013133477
 30
0.0
  0
ENDBLK
  5
33A
330
32F
100
AcDbEntity
  8
0
100
AcDbBlockEnd
  0
BLOCK
  5
347
330
33B
100
AcDbEntity
  8
0
100
AcDbBlockBegin
  2
*D28
 70
     1
 10
0.0
 20
0.0
 30
0.0
  3
*D28
  1

  0
LINE
  5
400
330
33B
100
AcDbEntity
  8
0
 62
   123
100
AcDbLine
 10
44.91795940691372
 20
26.8410853675814
 30
0.0
 11
44.91795940691371
 21
15.28601897792919
 31
0.0
  0
LINE
  5
401
330
33B
100
AcDbEntity
  8
0
 62
   123
100
AcDbLine
 10
63.93579383916606
 20
35.54731878978273
 30
0.0
 11
70.24085995924031
 21
20.32196289911159
 31
0.0
  0
ARC
  5
402
330
33B
100
AcDbEntity
  8
0
 62
   123
100
AcDbCircle
 10
44.91795940691372
 20
81.47123013133295
 30
0.0
 40
65.58521115340377
100
AcDbArc
 50
272.1841527943183
 51
290.3110842332188
  0
SOLID
  5
403
330
33B
100
AcDbEntity
  8
0
 62
   123
100
AcDbTrace
 10
47.42544662330381
 20
15.51707593252604
 30
0.0
 11
47.40956397768375
 21
16.35025789705273
 31
0.0
 12
44.91795940691371
 22
15.88601897792919
 32
0.0
 13
44.91795940691371
 23
15.88601897792919
 33
0.0
  0
SOLID
  5
404
330
33B
100
AcDbEntity
  8
0
 62
   123
100
AcDbTrace
 10
67.53165337180011
 20
20.35192088018516
 30
0.0
 11
67.83576015846087
 21
19.57605780801888
 31
0.0
 12
70.01129598162936
 22
20.87630970408429
 32
0.0
 13
70.01129598162936
 23
20.87630970408429
 33
0.0
  0
MTEXT
  5
405
330
33B
100
AcDbEntity
  8
0
 62
     3
100
AcDbMText
 10
57.16697337085457
 20
19.87789880604967
 30
0.0
 40
3.0
 41
0.0
 71
     5
 72
     1
  1
\A1;22°30'
 11
0.9807933884415119
 21
0.1950495557273008
 31
0.0
  0
POINT
  5
406
330
33B
100
AcDbEntity
  8
DEFPOINTS
 62
     0
100
AcDbPoint
 10
53.47674547276562
 20
16.44687236352768
 30
0.0
  0
POINT
  5
407
330
33B
100
AcDbEntity
  8
DEFPOINTS
 62
     0
100
AcDbPoint
 10
44.91795940691373
 20
27.84108536758139
 30
0.0
  0
POINT
  5
408
330
33B
100
AcDbEntity
  8
DEFPOINTS
 62
     0
100
AcDbPoint
 10
44.91795940691374
 20
81.47123013133295
 30
0.0
  0
POINT
  5
409
330
33B
100
AcDbEntity
  8
DEFPOINTS
 62
     0
100
AcDbPoint
 10
63.5531872098145
 20
36.4712301314039
 30
0.0
  0
POINT
  5
40A
330
33B
100
AcDbEntity
  8
DEFPOINTS
 62
     0
100
AcDbPoint
 10
44.91795940691372
 20
128.4458682004387
 30
0.0
  0
ENDBLK
  5
348
330
33B
100
AcDbEntity
  8
0
100
AcDbBlockEnd
  0
BLOCK
  5
353
330
349
100
AcDbEntity
  8
0
100
AcDbBlockBegin
  2
*D29
 70
     1
 10
0.0
 20
0.0
 30
0.0
  3
*D29
  1

  0
LINE
  5
34A
330
349
100
AcDbEntity
  8
0
 62
   123
100
AcDbLine
 10
163.7197969608969
 20
75.47123013133478
 30
0.0
 11
144.0981478947819
 21
75.47123013133479
 31
0.0
  0
LINE
  5
34B
330
349
100
AcDbEntity
  8
0
 62
   123
100
AcDbLine
 10
193.7197969608969
 20
87.47123013133295
 30
0.0
 11
144.0981478947819
 21
87.47123013133297
 31
0.0
  0
LINE
  5
34C
330
349
100
AcDbEntity
  8
0
 62
   123
100
AcDbLine
 10
144.6981478947819
 20
77.97123013133479
 30
0.0
 11
144.6981478947819
 21
84.97123013133297
 31
0.0
  0
SOLID
  5
34D
330
349
100
AcDbEntity
  8
0
 62
   123
100
AcDbTrace
 10
144.2814812281152
 20
77.97123013133479
 30
0.0
 11
145.1148145614485
 21
77.97123013133479
 31
0.0
 12
144.6981478947819
 22
75.47123013133479
 32
0.0
 13
144.6981478947819
 23
75.47123013133479
 33
0.0
  0
SOLID
  5
34E
330
349
100
AcDbEntity
  8
0
 62
   123
100
AcDbTrace
 10
144.2814812281152
 20
84.97123013133297
 30
0.0
 11
145.1148145614485
 21
84.97123013133297
 31
0.0
 12
144.6981478947819
 22
87.47123013133297
 32
0.0
 13
144.6981478947819
 23
87.47123013133297
 33
0.0
  0
MTEXT
  5
34F
330
349
100
AcDbEntity
  8
0
 62
     3
100
AcDbMText
 10
140.7479978947818
 20
81.4712301313339
 30
0.0
 40
3.0
 41
0.0
 71
     5
 72
     1
  1
\A1;\A1;{\f??|b0|i0|c0|p49;%%C}12{\f??|b0|i0|c0|p49;\H0.7x;\S+0^ -0.018;\H1.429x;(h}7{\f??|b0|i0|c0|p49;)}
 11
0.0000000000000001
 21
1.0
 31
0.0
1001
ACAD
1000
MTEXTBEGIN
1070
    73
1070
     1
1070
    44
1040
1.0
1070
    74
1070
     0
1000
MTEXTEND
  0
POINT
  5
350
330
349
100
AcDbEntity
  8
DEFPOINTS
 62
     0
100
AcDbPoint
 10
164.7197969608969
 20
75.47123013133478
 30
0.0
  0
POINT
  5
351
330
349
100
AcDbEntity
  8
DEFPOINTS
 62
     0
100
AcDbPoint
 10
194.7197969608969
 20
87.47123013133295
 30
0.0
  0
POINT
  5
352
330
349
100
AcDbEntity
  8
DEFPOINTS
 62
     0
100
AcDbPoint
 10
144.6981478947819
 20
87.47123013133297
 30
0.0
  0
ENDBLK
  5
354
330
349
100
AcDbEntity
  8
0
100
AcDbBlockEnd
  0
BLOCK
  5
35F
330
355
100
AcDbEntity
  8
0
100
AcDbBlockBegin
  2
*D30
 70
     1
 10
0.0
 20
0.0
 30
0.0
  3
*D30
  1

  0
LINE
  5
356
330
355
100
AcDbEntity
  8
0
 62
   123
100
AcDbLine
 10
163.7197969608969
 20
75.47123013133478
 30
0.0
 11
154.9666287754975
 21
75.47123013133479
 31
0.0
  0
LINE
  5
357
330
355
100
AcDbEntity
  8
0
 62
   123
100
AcDbLine
 10
163.7197969608969
 20
86.47123013133478
 30
0.0
 11
154.9666287754975
 21
86.47123013133478
 31
0.0
  0
LINE
  5
358
330
355
100
AcDbEntity
  8
0
 62
   123
100
AcDbLine
 10
155.5666287754975
 20
77.97123013133479
 30
0.0
 11
155.5666287754975
 21
83.97123013133478
 31
0.0
  0
SOLID
  5
359
330
355
100
AcDbEntity
  8
0
 62
   123
100
AcDbTrace
 10
155.1499621088308
 20
77.97123013133479
 30
0.0
 11
155.9832954421642
 21
77.97123013133479
 31
0.0
 12
155.5666287754975
 22
75.47123013133479
 32
0.0
 13
155.5666287754975
 23
75.47123013133479
 33
0.0
  0
SOLID
  5
35A
330
355
100
AcDbEntity
  8
0
 62
   123
100
AcDbTrace
 10
155.1499621088308
 20
83.97123013133478
 30
0.0
 11
155.9832954421642
 21
83.97123013133478
 31
0.0
 12
155.5666287754975
 22
86.47123013133478
 32
0.0
 13
155.5666287754975
 23
86.47123013133478
 33
0.0
  0
MTEXT
  5
35B
330
355
100
AcDbEntity
  8
0
 62
     3
100
AcDbMText
 10
153.0666287754975
 20
80.30846507402747
 30
0.0
 40
3.0
 41
0.0
 71
     5
 72
     1
  1
\A1;11
 11
0.0000000000000001
 21
1.0
 31
0.0
1001
ACAD
1000
MTEXTBEGIN
1070
    73
1070
     1
1070
    44
1040
1.0
1070
    74
1070
     0
1000
MTEXTEND
  0
POINT
  5
35C
330
355
100
AcDbEntity
  8
DEFPOINTS
 62
     0
100
AcDbPoint
 10
164.7197969608969
 20
75.47123013133478
 30
0.0
  0
POINT
  5
35D
330
355
100
AcDbEntity
  8
DEFPOINTS
 62
     0
100
AcDbPoint
 10
164.7197969608969
 20
86.47123013133478
 30
0.0
  0
POINT
  5
35E
330
355
100
AcDbEntity
  8
DEFPOINTS
 62
     0
100
AcDbPoint
 10
155.5666287754975
 20
86.47123013133478
 30
0.0
  0
ENDBLK
  5
360
330
355
100
AcDbEntity
  8
0
100
AcDbBlockEnd
  0
BLOCK
  5
36B
330
361
100
AcDbEntity
  8
0
100
AcDbBlockBegin
  2
*D31
 70
     1
 10
0.0
 20
0.0
 30
0.0
  3
*D31
  1

  0
LINE
  5
362
330
361
100
AcDbEntity
  8
0
 62
   123
100
AcDbLine
 10
-0.0820405930862762
 20
122.4284363725364
 30
0.0
 11
-0.0820405930862751
 21
139.6736627741889
 31
0.0
  0
LINE
  5
363
330
361
100
AcDbEntity
  8
0
 62
   123
100
AcDbLine
 10
89.91795940690645
 20
122.4284363725364
 30
0.0
 11
89.91795940690645
 21
139.6736627741889
 31
0.0
  0
LINE
  5
364
330
361
100
AcDbEntity
  8
0
 62
   123
100
AcDbLine
 10
2.417959406913724
 20
139.0736627741889
 30
0.0
 11
87.41795940690645
 21
139.0736627741889
 31
0.0
  0
SOLID
  5
365
330
361
100
AcDbEntity
  8
0
 62
   123
100
AcDbTrace
 10
2.417959406913724
 20
139.4903294408556
 30
0.0
 11
2.417959406913724
 21
138.6569961075223
 31
0.0
 12
-0.0820405930862751
 22
139.0736627741889
 32
0.0
 13
-0.0820405930862751
 23
139.0736627741889
 33
0.0
  0
SOLID
  5
366
330
361
100
AcDbEntity
  8
0
 62
   123
100
AcDbTrace
 10
87.41795940690645
 20
139.4903294408556
 30
0.0
 11
87.41795940690645
 21
138.6569961075223
 31
0.0
 12
89.91795940690645
 22
139.0736627741889
 32
0.0
 13
89.91795940690645
 23
139.0736627741889
 33
0.0
  0
MTEXT
  5
367
330
361
100
AcDbEntity
  8
0
 62
     3
100
AcDbMText
 10
44.91795940691372
 20
141.5736627741889
 30
0.0
 40
3.0
 41
0.0
 71
     5
 72
     1
  1
\A1;90
1001
ACAD
1000
MTEXTBEGIN
1070
    73
1070
     1
1070
    44
1040
1.0
1070
    74
1070
     0
1000
MTEXTEND
  0
POINT
  5
368
330
361
100
AcDbEntity
  8
DEFPOINTS
 62
     0
100
AcDbPoint
 10
-0.0820405930862762
 20
121.4284363725364
 30
0.0
  0
POINT
  5
369
330
361
100
AcDbEntity
  8
DEFPOINTS
 62
     0
100
AcDbPoint
 10
89.91795940690645
 20
121.4284363725364
 30
0.0
  0
POINT
  5
36A
330
361
100
AcDbEntity
  8
DEFPOINTS
 62
     0
100
AcDbPoint
 10
89.91795940690645
 20
139.0736627741889
 30
0.0
  0
ENDBLK
  5
36C
330
361
100
AcDbEntity
  8
0
100
AcDbBlockEnd
  0
BLOCK
  5
377
330
36D
100
AcDbEntity
  8
0
100
AcDbBlockBegin
  2
*D32
 70
     1
 10
0.0
 20
0.0
 30
0.0
  3
*D32
  1

  0
LINE
  5
36E
330
36D
100
AcDbEntity
  8
0
 62
   123
100
AcDbLine
 10
201.7197969608969
 20
142.5712301313333
 30
0.0
 11
201.7197969608969
 21
163.0885890042842
 31
0.0
  0
LINE
  5
36F
330
36D
100
AcDbEntity
  8
0
 62
   123
100
AcDbLine
 10
321.7197969608969
 20
119.9712301313347
 30
0.0
 11
321.7197969608969
 21
163.0885890042842
 31
0.0
  0
LINE
  5
370
330
36D
100
AcDbEntity
  8
0
 62
   123
100
AcDbLine
 10
204.2197969608969
 20
162.4885890042842
 30
0.0
 11
319.2197969608969
 21
162.4885890042842
 31
0.0
  0
SOLID
  5
371
330
36D
100
AcDbEntity
  8
0
 62
   123
100
AcDbTrace
 10
204.2197969608969
 20
162.9052556709508
 30
0.0
 11
204.2197969608969
 21
162.0719223376175
 31
0.0
 12
201.7197969608969
 22
162.4885890042842
 32
0.0
 13
201.7197969608969
 23
162.4885890042842
 33
0.0
  0
SOLID
  5
372
330
36D
100
AcDbEntity
  8
0
 62
   123
100
AcDbTrace
 10
319.2197969608969
 20
162.9052556709508
 30
0.0
 11
319.2197969608969
 21
162.0719223376175
 31
0.0
 12
321.7197969608969
 22
162.4885890042842
 32
0.0
 13
321.7197969608969
 23
162.4885890042842
 33
0.0
  0
MTEXT
  5
373
330
36D
100
AcDbEntity
  8
0
 62
     3
100
AcDbMText
 10
261.3831382236239
 20
164.9885890042842
 30
0.0
 40
3.0
 41
0.0
 71
     5
 72
     1
  1
\A1;120
1001
ACAD
1000
MTEXTBEGIN
1070
    73
1070
     1
1070
    44
1040
1.0
1070
    74
1070
     0
1000
MTEXTEND
  0
POINT
  5
374
330
36D
100
AcDbEntity
  8
DEFPOINTS
 62
     0
100
AcDbPoint
 10
201.7197969608969
 20
141.5712301313333
 30
0.0
  0
POINT
  5
375
330
36D
100
AcDbEntity
  8
DEFPOINTS
 62
     0
100
AcDbPoint
 10
321.7197969608969
 20
118.9712301313347
 30
0.0
  0
POINT
  5
376
330
36D
100
AcDbEntity
  8
DEFPOINTS
 62
     0
100
AcDbPoint
 10
321.7197969608969
 20
162.4885890042842
 30
0.0
  0
ENDBLK
  5
378
330
36D
100
AcDbEntity
  8
0
100
AcDbBlockEnd
  0
BLOCK
  5
383
330
379
100
AcDbEntity
  8
0
100
AcDbBlockBegin
  2
*D33
 70
     1
 10
0.0
 20
0.0
 30
0.0
  3
*D33
  1

  0
LINE
  5
37A
330
379
100
AcDbEntity
  8
0
 62
   123
100
AcDbLine
 10
201.7197969608969
 20
127.6795634646678
 30
0.0
 11
201.7197969608969
 21
148.3473599325958
 31
0.0
  0
LINE
  5
37B
330
379
100
AcDbEntity
  8
0
 62
   123
100
AcDbLine
 10
209.2197969608969
 20
126.0699674728621
 30
0.0
 11
209.2197969608969
 21
148.3473599325958
 31
0.0
  0
LINE
  5
37C
330
379
100
AcDbEntity
  8
0
 62
   123
100
AcDbLine
 10
204.2197969608969
 20
147.7473599325958
 30
0.0
 11
206.7197969608969
 21
147.7473599325958
 31
0.0
  0
SOLID
  5
37D
330
379
100
AcDbEntity
  8
0
 62
   123
100
AcDbTrace
 10
204.2197969608969
 20
148.1640265992624
 30
0.0
 11
204.2197969608969
 21
147.3306932659291
 31
0.0
 12
201.7197969608969
 22
147.7473599325958
 32
0.0
 13
201.7197969608969
 23
147.7473599325958
 33
0.0
  0
SOLID
  5
37E
330
379
100
AcDbEntity
  8
0
 62
   123
100
AcDbTrace
 10
206.7197969608969
 20
148.1640265992624
 30
0.0
 11
206.7197969608969
 21
147.3306932659291
 31
0.0
 12
209.2197969608969
 22
147.7473599325958
 32
0.0
 13
209.2197969608969
 23
147.7473599325958
 33
0.0
  0
MTEXT
  5
37F
330
379
100
AcDbEntity
  8
0
 62
     3
100
AcDbMText
 10
205.4697969608969
 20
150.2473599325958
 30
0.0
 40
3.0
 41
0.0
 71
     5
 72
     1
  1
\A1;7.5
1001
ACAD
1000
MTEXTBEGIN
1070
    73
1070
     1
1070
    44
1040
1.0
1070
    74
1070
     0
1000
MTEXTEND
  0
POINT
  5
380
330
379
100
AcDbEntity
  8
DEFPOINTS
 62
     0
100
AcDbPoint
 10
201.7197969608969
 20
126.6795634646678
 30
0.0
  0
POINT
  5
381
330
379
100
AcDbEntity
  8
DEFPOINTS
 62
     0
100
AcDbPoint
 10
209.2197969608969
 20
125.0699674728621
 30
0.0
  0
POINT
  5
382
330
379
100
AcDbEntity
  8
DEFPOINTS
 62
     0
100
AcDbPoint
 10
209.2197969608969
 20
147.7473599325958
 30
0.0
  0
ENDBLK
  5
384
330
379
100
AcDbEntity
  8
0
100
AcDbBlockEnd
  0
BLOCK
  5
391
330
385
100
AcDbEntity
  8
0
100
AcDbBlockBegin
  2
*D34
 70
     1
 10
0.0
 20
0.0
 30
0.0
  3
*D34
  1

  0
LINE
  5
386
330
385
100
AcDbEntity
  8
0
 62
   123
100
AcDbLine
 10
199.7197969608969
 20
123.9712301313329
 30
0.0
 11
199.7197969608969
 21
139.7038836955831
 31
0.0
  0
LINE
  5
387
330
385
100
AcDbEntity
  8
0
 62
   123
100
AcDbLine
 10
201.7197969608969
 20
127.4712301313347
 30
0.0
 11
201.7197969608969
 21
139.7038836955831
 31
0.0
  0
LINE
  5
388
330
385
100
AcDbEntity
  8
0
 62
   123
100
AcDbLine
 10
204.2197969608969
 20
139.1038836955831
 30
0.0
 11
206.7197969608969
 21
139.1038836955831
 31
0.0
  0
LINE
  5
389
330
385
100
AcDbEntity
  8
0
 62
   123
100
AcDbLine
 10
197.2197969608969
 20
139.1038836955831
 30
0.0
 11
190.7197969608969
 21
139.1038836955831
 31
0.0
  0
LINE
  5
38A
330
385
100
AcDbEntity
  8
0
 62
   123
100
AcDbLine
 10
201.7197969608969
 20
139.1038836955831
 30
0.0
 11
199.7197969608969
 21
139.1038836955831
 31
0.0
  0
SOLID
  5
38B
330
385
100
AcDbEntity
  8
0
 62
   123
100
AcDbTrace
 10
204.2197969608969
 20
139.5205503622497
 30
0.0
 11
204.2197969608969
 21
138.6872170289164
 31
0.0
 12
201.7197969608969
 22
139.1038836955831
 32
0.0
 13
201.7197969608969
 23
139.1038836955831
 33
0.0
  0
SOLID
  5
38C
330
385
100
AcDbEntity
  8
0
 62
   123
100
AcDbTrace
 10
197.2197969608969
 20
139.5205503622497
 30
0.0
 11
197.2197969608969
 21
138.6872170289164
 31
0.0
 12
199.7197969608969
 22
139.1038836955831
 32
0.0
 13
199.7197969608969
 23
139.1038836955831
 33
0.0
  0
MTEXT
  5
38D
330
385
100
AcDbEntity
  8
0
 62
     3
100
AcDbMText
 10
192.7197969608969
 20
141.6038836955831
 30
0.0
 40
3.0
 41
0.0
 71
     5
 72
     1
  1
\A1;2
1001
ACAD
1000
MTEXTBEGIN
1070
    73
1070
     1
1070
    44
1040
1.0
1070
    74
1070
     0
1000
MTEXTEND
  0
POINT
  5
38E
330
385
100
AcDbEntity
  8
DEFPOINTS
 62
     0
100
AcDbPoint
 10
199.7197969608969
 20
122.9712301313329
 30
0.0
  0
POINT
  5
38F
330
385
100
AcDbEntity
  8
DEFPOINTS
 62
     0
100
AcDbPoint
 10
201.7197969608969
 20
126.4712301313347
 30
0.0
  0
POINT
  5
390
330
385
100
AcDbEntity
  8
DEFPOINTS
 62
     0
100
AcDbPoint
 10
201.7197969608969
 20
139.1038836955831
 30
0.0
  0
ENDBLK
  5
392
330
385
100
AcDbEntity
  8
0
100
AcDbBlockEnd
  0
BLOCK
  5
39D
330
393
100
AcDbEntity
  8
0
100
AcDbBlockBegin
  2
*D35
 70
     1
 10
0.0
 20
0.0
 30
0.0
  3
*D35
  1

  0
LINE
  5
394
330
393
100
AcDbEntity
  8
0
 62
   123
100
AcDbLine
 10
21.56409549918316
 20
337.2272187296102
 30
0.0
 11
21.56409549918316
 21
358.0577274975163
 31
0.0
  0
LINE
  5
395
330
393
100
AcDbEntity
  8
0
 62
   123
100
AcDbLine
 10
111.564095499194
 20
337.2272187296102
 30
0.0
 11
111.564095499194
 21
358.0577274975163
 31
0.0
  0
LINE
  5
396
330
393
100
AcDbEntity
  8
0
 62
   123
100
AcDbLine
 10
24.06409549918317
 20
357.4577274975163
 30
0.0
 11
109.064095499194
 21
357.4577274975163
 31
0.0
  0
SOLID
  5
397
330
393
100
AcDbEntity
  8
0
 62
   123
100
AcDbTrace
 10
24.06409549918317
 20
357.874394164183
 30
0.0
 11
24.06409549918317
 21
357.0410608308496
 31
0.0
 12
21.56409549918316
 22
357.4577274975163
 32
0.0
 13
21.56409549918316
 23
357.4577274975163
 33
0.0
  0
SOLID
  5
398
330
393
100
AcDbEntity
  8
0
 62
   123
100
AcDbTrace
 10
109.064095499194
 20
357.874394164183
 30
0.0
 11
109.064095499194
 21
357.0410608308496
 31
0.0
 12
111.564095499194
 22
357.4577274975163
 32
0.0
 13
111.564095499194
 23
357.4577274975163
 33
0.0
  0
MTEXT
  5
399
330
393
100
AcDbEntity
  8
0
 62
     3
100
AcDbMText
 10
66.56409549919408
 20
359.9577274975163
 30
0.0
 40
3.0
 41
0.0
 71
     5
 72
     1
  1
\A1;90
1001
ACAD
1000
MTEXTBEGIN
1070
    73
1070
     1
1070
    44
1040
1.0
1070
    74
1070
     0
1000
MTEXTEND
  0
POINT
  5
39A
330
393
100
AcDbEntity
  8
DEFPOINTS
 62
     0
100
AcDbPoint
 10
21.56409549918316
 20
336.2272187296102
 30
0.0
  0
POINT
  5
39B
330
393
100
AcDbEntity
  8
DEFPOINTS
 62
     0
100
AcDbPoint
 10
111.564095499194
 20
336.2272187296102
 30
0.0
  0
POINT
  5
39C
330
393
100
AcDbEntity
  8
DEFPOINTS
 62
     0
100
AcDbPoint
 10
111.564095499194
 20
357.4577274975163
 30
0.0
  0
ENDBLK
  5
39E
330
393
100
AcDbEntity
  8
0
100
AcDbBlockEnd
  0
BLOCK
  5
3AB
330
39F
100
AcDbEntity
  8
0
100
AcDbBlockBegin
  2
*D36
 70
     1
 10
0.0
 20
0.0
 30
0.0
  3
*D36
  1

  0
LINE
  5
3A0
330
39F
100
AcDbEntity
  8
0
 62
   123
100
AcDbLine
 10
177.3202327418257
 20
338.7700124884077
 30
0.0
 11
177.3202327418257
 21
353.4709974028034
 31
0.0
  0
LINE
  5
3A1
330
39F
100
AcDbEntity
  8
0
 62
   123
100
AcDbLine
 10
179.3202327418257
 20
342.2700124884077
 30
0.0
 11
179.3202327418257
 21
353.4709974028034
 31
0.0
  0
LINE
  5
3A2
330
39F
100
AcDbEntity
  8
0
 62
   123
100
AcDbLine
 10
181.8202327418257
 20
352.8709974028033
 30
0.0
 11
184.3202327418257
 21
352.8709974028033
 31
0.0
  0
LINE
  5
3A3
330
39F
100
AcDbEntity
  8
0
 62
   123
100
AcDbLine
 10
174.8202327418257
 20
352.8709974028033
 30
0.0
 11
168.3202327418257
 21
352.8709974028033
 31
0.0
  0
LINE
  5
3A4
330
39F
100
AcDbEntity
  8
0
 62
   123
100
AcDbLine
 10
179.3202327418257
 20
352.8709974028033
 30
0.0
 11
177.3202327418257
 21
352.8709974028033
 31
0.0
  0
SOLID
  5
3A5
330
39F
100
AcDbEntity
  8
0
 62
   123
100
AcDbTrace
 10
181.8202327418257
 20
353.28766406947
 30
0.0
 11
181.8202327418257
 21
352.4543307361367
 31
0.0
 12
179.3202327418257
 22
352.8709974028033
 32
0.0
 13
179.3202327418257
 23
352.8709974028033
 33
0.0
  0
SOLID
  5
3A6
330
39F
100
AcDbEntity
  8
0
 62
   123
100
AcDbTrace
 10
174.8202327418257
 20
353.28766406947
 30
0.0
 11
174.8202327418257
 21
352.4543307361367
 31
0.0
 12
177.3202327418257
 22
352.8709974028033
 32
0.0
 13
177.3202327418257
 23
352.8709974028033
 33
0.0
  0
MTEXT
  5
3A7
330
39F
100
AcDbEntity
  8
0
 62
     3
100
AcDbMText
 10
170.3202327418257
 20
355.3709974028033
 30
0.0
 40
3.0
 41
0.0
 71
     5
 72
     1
  1
\A1;2
1001
ACAD
1000
MTEXTBEGIN
1070
    73
1070
     1
1070
    44
1040
1.0
1070
    74
1070
     0
1000
MTEXTEND
  0
POINT
  5
3A8
330
39F
100
AcDbEntity
  8
DEFPOINTS
 62
     0
100
AcDbPoint
 10
177.3202327418257
 20
337.7700124884077
 30
0.0
  0
POINT
  5
3A9
330
39F
100
AcDbEntity
  8
DEFPOINTS
 62
     0
100
AcDbPoint
 10
179.3202327418257
 20
341.2700124884076
 30
0.0
  0
POINT
  5
3AA
330
39F
100
AcDbEntity
  8
DEFPOINTS
 62
     0
100
AcDbPoint
 10
179.3202327418257
 20
352.8709974028033
 30
0.0
  0
ENDBLK
  5
3AC
330
39F
100
AcDbEntity
  8
0
100
AcDbBlockEnd
  0
BLOCK
  5
3B7
330
3AD
100
AcDbEntity
  8
0
100
AcDbBlockBegin
  2
*D37
 70
     1
 10
0.0
 20
0.0
 30
0.0
  3
*D37
  1

  0
LINE
  5
3AE
330
3AD
100
AcDbEntity
  8
0
 62
   123
100
AcDbLine
 10
179.3202327418257
 20
341.4783458217416
 30
0.0
 11
179.3202327418257
 21
363.1112074241497
 31
0.0
  0
LINE
  5
3AF
330
3AD
100
AcDbEntity
  8
0
 62
   123
100
AcDbLine
 10
186.8202327418257
 20
340.8687498299377
 30
0.0
 11
186.8202327418257
 21
363.1112074241497
 31
0.0
  0
LINE
  5
3B0
330
3AD
100
AcDbEntity
  8
0
 62
   123
100
AcDbLine
 10
181.8202327418257
 20
362.5112074241497
 30
0.0
 11
184.3202327418257
 21
362.5112074241497
 31
0.0
  0
SOLID
  5
3B1
330
3AD
100
AcDbEntity
  8
0
 62
   123
100
AcDbTrace
 10
181.8202327418257
 20
362.9278740908163
 30
0.0
 11
181.8202327418257
 21
362.094540757483
 31
0.0
 12
179.3202327418257
 22
362.5112074241497
 32
0.0
 13
179.3202327418257
 23
362.5112074241497
 33
0.0
  0
SOLID
  5
3B2
330
3AD
100
AcDbEntity
  8
0
 62
   123
100
AcDbTrace
 10
184.3202327418257
 20
362.9278740908163
 30
0.0
 11
184.3202327418257
 21
362.094540757483
 31
0.0
 12
186.8202327418257
 22
362.5112074241497
 32
0.0
 13
186.8202327418257
 23
362.5112074241497
 33
0.0
  0
MTEXT
  5
3B3
330
3AD
100
AcDbEntity
  8
0
 62
     3
100
AcDbMText
 10
183.0702327418257
 20
365.0112074241496
 30
0.0
 40
3.0
 41
0.0
 71
     5
 72
     1
  1
\A1;7.5
1001
ACAD
1000
MTEXTBEGIN
1070
    73
1070
     1
1070
    44
1040
1.0
1070
    74
1070
     0
1000
MTEXTEND
  0
POINT
  5
3B4
330
3AD
100
AcDbEntity
  8
DEFPOINTS
 62
     0
100
AcDbPoint
 10
179.3202327418257
 20
340.4783458217416
 30
0.0
  0
POINT
  5
3B5
330
3AD
100
AcDbEntity
  8
DEFPOINTS
 62
     0
100
AcDbPoint
 10
186.8202327418257
 20
339.8687498299377
 30
0.0
  0
POINT
  5
3B6
330
3AD
100
AcDbEntity
  8
DEFPOINTS
 62
     0
100
AcDbPoint
 10
186.8202327418257
 20
362.5112074241497
 30
0.0
  0
ENDBLK
  5
3B8
330
3AD
100
AcDbEntity
  8
0
100
AcDbBlockEnd
  0
BLOCK
  5
3C3
330
3B9
100
AcDbEntity
  8
0
100
AcDbBlockBegin
  2
*D38
 70
     1
 10
0.0
 20
0.0
 30
0.0
  3
*D38
  1

  0
LINE
  5
3BA
330
3B9
100
AcDbEntity
  8
0
 62
   123
100
AcDbLine
 10
158.3202327418257
 20
301.9200124884073
 30
0.0
 11
158.3202327418257
 21
374.185629128589
 31
0.0
  0
LINE
  5
3BB
330
3B9
100
AcDbEntity
  8
0
 62
   123
100
AcDbLine
 10
179.3202327418257
 20
342.2700124884077
 30
0.0
 11
179.3202327418257
 21
374.185629128589
 31
0.0
  0
LINE
  5
3BC
330
3B9
100
AcDbEntity
  8
0
 62
   123
100
AcDbLine
 10
160.8202327418257
 20
373.585629128589
 30
0.0
 11
176.8202327418257
 21
373.585629128589
 31
0.0
  0
SOLID
  5
3BD
330
3B9
100
AcDbEntity
  8
0
 62
   123
100
AcDbTrace
 10
160.8202327418257
 20
374.0022957952557
 30
0.0
 11
160.8202327418257
 21
373.1689624619223
 31
0.0
 12
158.3202327418257
 22
373.585629128589
 32
0.0
 13
158.3202327418257
 23
373.585629128589
 33
0.0
  0
SOLID
  5
3BE
330
3B9
100
AcDbEntity
  8
0
 62
   123
100
AcDbTrace
 10
176.8202327418257
 20
374.0022957952557
 30
0.0
 11
176.8202327418257
 21
373.1689624619223
 31
0.0
 12
179.3202327418257
 22
373.585629128589
 32
0.0
 13
179.3202327418257
 23
373.585629128589
 33
0.0
  0
MTEXT
  5
3BF
330
3B9
100
AcDbEntity
  8
0
 62
     3
100
AcDbMText
 10
168.820232741833
 20
376.085629128589
 30
0.0
 40
3.0
 41
0.0
 71
     5
 72
     1
  1
\A1;21
1001
ACAD
1000
MTEXTBEGIN
1070
    73
1070
     1
1070
    44
1040
1.0
1070
    74
1070
     0
1000
MTEXTEND
  0
POINT
  5
3C0
330
3B9
100
AcDbEntity
  8
DEFPOINTS
 62
     0
100
AcDbPoint
 10
158.3202327418257
 20
300.9200124884073
 30
0.0
  0
POINT
  5
3C1
330
3B9
100
AcDbEntity
  8
DEFPOINTS
 62
     0
100
AcDbPoint
 10
179.3202327418257
 20
341.2700124884076
 30
0.0
  0
POINT
  5
3C2
330
3B9
100
AcDbEntity
  8
DEFPOINTS
 62
     0
100
AcDbPoint
 10
179.3202327418257
 20
373.585629128589
 30
0.0
  0
ENDBLK
  5
3C4
330
3B9
100
AcDbEntity
  8
0
100
AcDbBlockEnd
  0
BLOCK
  5
3CF
330
3C5
100
AcDbEntity
  8
0
100
AcDbBlockBegin
  2
*D39
 70
     1
 10
0.0
 20
0.0
 30
0.0
  3
*D39
  1

  0
LINE
  5
3C6
330
3C5
100
AcDbEntity
  8
0
 62
   123
100
AcDbLine
 10
179.3202327418257
 20
357.3700124884071
 30
0.0
 11
179.3202327418257
 21
374.185629128589
 31
0.0
  0
LINE
  5
3C7
330
3C5
100
AcDbEntity
  8
0
 62
   123
100
AcDbLine
 10
299.3202327418257
 20
334.7700124884076
 30
0.0
 11
299.3202327418257
 21
374.185629128589
 31
0.0
  0
LINE
  5
3C8
330
3C5
100
AcDbEntity
  8
0
 62
   123
100
AcDbLine
 10
181.8202327418257
 20
373.585629128589
 30
0.0
 11
296.8202327418257
 21
373.585629128589
 31
0.0
  0
SOLID
  5
3C9
330
3C5
100
AcDbEntity
  8
0
 62
   123
100
AcDbTrace
 10
181.8202327418257
 20
374.0022957952557
 30
0.0
 11
181.8202327418257
 21
373.1689624619223
 31
0.0
 12
179.3202327418257
 22
373.585629128589
 32
0.0
 13
179.3202327418257
 23
373.585629128589
 33
0.0
  0
SOLID
  5
3CA
330
3C5
100
AcDbEntity
  8
0
 62
   123
100
AcDbTrace
 10
296.8202327418257
 20
374.0022957952557
 30
0.0
 11
296.8202327418257
 21
373.1689624619223
 31
0.0
 12
299.3202327418257
 22
373.585629128589
 32
0.0
 13
299.3202327418257
 23
373.585629128589
 33
0.0
  0
MTEXT
  5
3CB
330
3C5
100
AcDbEntity
  8
0
 62
     3
100
AcDbMText
 10
239.320232741833
 20
376.085629128589
 30
0.0
 40
3.0
 41
0.0
 71
     5
 72
     1
  1
\A1;120
1001
ACAD
1000
MTEXTBEGIN
1070
    73
1070
     1
1070
    44
1040
1.0
1070
    74
1070
     0
1000
MTEXTEND
  0
POINT
  5
3CC
330
3C5
100
AcDbEntity
  8
DEFPOINTS
 62
     0
100
AcDbPoint
 10
179.3202327418257
 20
356.3700124884071
 30
0.0
  0
POINT
  5
3CD
330
3C5
100
AcDbEntity
  8
DEFPOINTS
 62
     0
100
AcDbPoint
 10
299.3202327418257
 20
333.7700124884077
 30
0.0
  0
POINT
  5
3CE
330
3C5
100
AcDbEntity
  8
DEFPOINTS
 62
     0
100
AcDbPoint
 10
299.3202327418257
 20
373.585629128589
 30
0.0
  0
ENDBLK
  5
3D0
330
3C5
100
AcDbEntity
  8
0
100
AcDbBlockEnd
  0
ENDSEC
  0
SECTION
  2
ENTITIES
  0
MTEXT
  5
9B
330
2
100
AcDbEntity
  8
DIM
100
AcDbMText
 10
235.7510484218473
 20
219.4183030208378
 30
0.0
 40
3.5
 41
0.0
 71
     5
 72
     1
  1
MOTOR LEAD WIRE 300mm
1001
ACAD
1000
MTEXTBEGIN
1070
    73
1070
     1
1070
    44
1040
1.0
1070
    74
1070
     0
1000
MTEXTEND
  0
MTEXT
  5
9D
102
{ACAD_REACTORS
330
B3
102
}
330
2
100
AcDbEntity
  8
0
 62
     3
100
AcDbMText
 10
92.56830575268395
 20
368.7182177937884
 30
0.0
 40
3.0
 41
0.0
 71
     9
 72
     1
  1
4-%%C6.5 hole
1001
ACAD
1000
MTEXTBEGIN
1070
    73
1070
     1
1070
    44
1040
1.0
1070
    74
1070
     0
1000
MTEXTEND
  0
MTEXT
  5
9E
330
2
100
AcDbEntity
  8
DIM
100
AcDbMText
 10
231.5826066796835
 20
212.7639302909428
 30
0.0
 40
3.5
 41
0.0
 71
     5
 72
     1
  1
UL Style 3271 , AWG20
1001
ACAD
1000
MTEXTBEGIN
1070
    73
1070
     1
1070
    44
1040
1.0
1070
    74
1070
     0
1000
MTEXTEND
  0
DIMENSION
  5
9F
102
{ACAD_XDICTIONARY
360
A0
102
}
102
{ACAD_REACTORS
330
A1
102
}
330
2
100
AcDbEntity
  8
0
100
AcDbDimension
  2
*D23
 10
66.56409549919408
 20
343.2446505575135
 30
0.0
 11
78.81310946313551
 21
234.6766811631181
 31
0.0
 70
    34
  3
STANDARD
100
AcDb2LineAngularDimension
 13
66.56409549919408
 23
296.2700124884077
 33
0.0
 14
85.19932330209485
 24
251.2700124884759
 34
0.0
 15
66.56409549919408
 25
242.1653755758925
 35
0.0
 16
75.12288156504633
 26
231.2456547205961
 36
0.0
1001
ACAD
1000
DSTYLE
1002
{
1070
   271
1070
     1
1070
   271
1070
     1
1002
}
  0
LEADER
  5
B2
330
2
100
AcDbEntity
  8
0
100
AcDbLeader
  3
STANDARD
 76
     2
 10
193.9574970749308
 20
236.0291291627536
 30
0.0
 10
198.5939309910754
 20
216.5468585692469
 30
0.0
1001
ACAD
1000
DSTYLE
1002
{
1070
     5
1000

1070
   342
1005
0
1002
}
  0
LEADER
  5
B3
330
2
100
AcDbEntity
  8
0
100
AcDbLeader
  3
STANDARD
 73
     0
 75
     1
 40
3.0
 41
26.65178571428571
 76
     3
 10
103.3582886956137
 20
336.1891869412129
 30
0.0
 10
96.06830575268396
 20
367.7182177937884
 30
0.0
 10
93.56830575268395
 20
367.7182177937884
 30
0.0
340
9D
1001
ACAD
1000
DSTYLE
1002
{
1070
     5
1000

1070
   342
1005
0
1002
}
  0
MTEXT
  5
B4
330
2
100
AcDbEntity
  8
DIM
100
AcDbMText
 10
257.9880602969133
 20
3.212532347579326
 30
0.0
 40
3.5
 41
0.0
 71
     5
 72
     1
  1
MOTOR LEAD WIRE 300mm
1001
ACAD
1000
MTEXTBEGIN
1070
    73
1070
     1
1070
    44
1040
1.0
1070
    74
1070
     0
1000
MTEXTEND
  0
MTEXT
  5
B5
102
{ACAD_REACTORS
330
C9
102
}
330
2
100
AcDbEntity
  8
0
 62
     3
100
AcDbMText
 10
70.92216966040723
 20
153.9194354367146
 30
0.0
 40
3.0
 41
0.0
 71
     9
 72
     1
  1
4-%%C6.5 hole
1001
ACAD
1000
MTEXTBEGIN
1070
    73
1070
     1
1070
    44
1040
1.0
1070
    74
1070
     0
1000
MTEXTEND
  0
MTEXT
  5
B6
330
2
100
AcDbEntity
  8
DIM
100
AcDbMText
 10
252.7141845604637
 20
-3.380312190961376
 30
0.0
 40
3.5
 41
0.0
 71
     5
 72
     1
  1
UL Style 3271, AWG20
1001
ACAD
1000
MTEXTBEGIN
1070
    73
1070
     1
1070
    44
1040
1.0
1070
    74
1070
     0
1000
MTEXTEND
  0
DIMENSION
  5
B7
102
{ACAD_XDICTIONARY
360
B8
102
}
102
{ACAD_REACTORS
330
B9
102
}
330
2
100
AcDbEntity
  8
0
100
AcDbDimension
  2
*D28
 10
44.91795940691372
 20
128.4458682004387
 30
0.0
 11
57.16697337085458
 21
19.87789880604967
 31
0.0
 70
    34
  3
STANDARD
100
AcDb2LineAngularDimension
 13
44.91795940691372
 23
81.47123013133295
 33
0.0
 14
63.5531872098145
 24
36.4712301314039
 34
0.0
 15
44.91795940691372
 25
27.84108536758139
 35
0.0
 16
53.47674547276562
 26
16.44687236352768
 36
0.0
1001
ACAD
1000
DSTYLE
1002
{
1070
   271
1070
     1
1070
   271
1070
     1
1002
}
  0
LEADER
  5
C8
330
2
100
AcDbEntity
  8
0
100
AcDbLeader
  3
STANDARD
 76
     2
 10
216.211217960903
 20
19.85175213133334
 30
0.0
 10
220.847651877033
 20
0.3694815378275962
 30
0.0
1001
ACAD
1000
DSTYLE
1002
{
1070
     5
1000

1070
   342
1005
0
1002
}
  0
LEADER
  5
C9
330
2
100
AcDbEntity
  8
0
100
AcDbLeader
  3
STANDARD
 73
     0
 75
     1
 40
3.0
 41
26.65178571428571
 76
     3
 10
81.71215260333339
 20
121.3904045841381
 30
0.0
 10
74.42216966040724
 20
152.9194354367145
 30
0.0
 10
71.92216966040724
 20
152.9194354367145
 30
0.0
340
B5
1001
ACAD
1000
DSTYLE
1002
{
1070
     5
1000

1070
   342
1005
0
1002
}
  0
CIRCLE
  5
CA
330
2
100
AcDbEntity
  8
0
 48
0.6
100
AcDbCircle
 10
66.56409549919408
 20
296.2700124884077
 30
0.0
 40
20.0
  0
ARC
  5
CB
330
2
100
AcDbEntity
  8
0
 48
0.6
100
AcDbCircle
 10
66.48863118501686
 20
296.2700124884077
 30
0.0
 40
33.74764799999999
100
AcDbArc
 50
162.2801918472015
 51
197.7198081527984
  0
ARC
  5
CC
330
2
100
AcDbEntity
  8
0
 48
0.6
100
AcDbCircle
 10
66.48863118501686
 20
296.2700124884077
 30
0.0
 40
33.74764799999999
100
AcDbArc
 50
342.2801918472014
 51
17.71980815279839
  0
CIRCLE
  5
CD
330
2
100
AcDbEntity
  8
0
 48
0.6
100
AcDbCircle
 10
66.56409549919408
 20
296.2700124884077
 30
0.0
 40
5.65
  0
LINE
  5
CE
330
2
100
AcDbEntity
  8
2
 48
0.6
100
AcDbLine
 10
159.320232741833
 20
301.9200124884082
 30
0.0
 11
159.320232741833
 21
290.6200124884071
 31
0.0
  0
LINE
  5
D0
330
2
100
AcDbEntity
  8
0
 48
0.6
100
AcDbLine
 10
158.3202327418257
 20
291.6200124884071
 30
0.0
 11
159.320232741833
 21
290.6200124884071
 31
0.0
  0
ARC
  5
D1
330
2
100
AcDbEntity
  8
0
 48
0.6
100
AcDbCircle
 10
172.3634196526545
 20
264.703781599358
 30
0.0
 40
26.81626566478071
100
AcDbArc
 50
79.34799026071575
 51
90.09227342916824
  0
LINE
  5
D2
330
2
100
AcDbEntity
  8
0
100
AcDbLine
 10
299.3202327418257
 20
309.6739370901659
 30
0.0
 11
299.3202327418257
 21
282.8660878866476
 31
0.0
  0
LINE
  5
D3
330
2
100
AcDbEntity
  8
0
100
AcDbLine
 10
299.3202327418257
 20
323.6739370901677
 30
0.0
 11
299.3202327418257
 21
268.8660878866467
 31
0.0
  0
CIRCLE
  5
D4
330
2
100
AcDbEntity
  8
0
 48
0.6
100
AcDbCircle
 10
66.56409549919408
 20
296.2700124884077
 30
0.0
 40
42.00000000000005
  0
CIRCLE
  5
D5
330
2
100
AcDbEntity
  8
0
 48
0.6
100
AcDbCircle
 10
66.56409549919408
 20
296.2700124884077
 30
0.0
 40
43.5
  0
LINE
  5
D6
102
{ACAD_REACTORS
330
DF
102
}
330
2
100
AcDbEntity
  8
0
100
AcDbLine
 10
177.3202327418257
 20
337.7700124884077
 30
0.0
 11
177.3202327418257
 21
254.7700124884058
 31
0.0
  0
LINE
  5
D7
330
2
100
AcDbEntity
  8
0
100
AcDbLine
 10
179.3202327418257
 20
341.2700124884076
 30
0.0
 11
179.3202327418257
 21
251.2700124884077
 31
0.0
  0
LINE
  5
D8
330
2
100
AcDbEntity
  8
0
100
AcDbLine
 10
185.9202327418351
 20
341.2700124884076
 30
0.0
 11
185.9202327418351
 21
251.2700124884077
 31
0.0
  0
LINE
  5
D9
330
2
100
AcDbEntity
  8
CEN
 48
0.6
100
AcDbLine
 10
66.56409549919408
 20
242.1653755758925
 30
0.0
 11
66.56409549919408
 21
350.374649400921
 31
0.0
  0
LINE
  5
DC
330
2
100
AcDbEntity
  8
0
100
AcDbLine
 10
274.3202327418257
 20
341.2700124884076
 30
0.0
 11
274.3202327418257
 21
251.2700124884077
 31
0.0
  0
DIMENSION
  5
DD
102
{ACAD_XDICTIONARY
360
DE
102
}
102
{ACAD_REACTORS
330
DF
102
}
330
2
100
AcDbEntity
  8
0
100
AcDbDimension
  2
*D22
 10
146.4382927466467
 20
254.7700124884058
 30
0.0
 11
146.4382927466467
 21
296.5001700422353
 31
0.0
 70
   160
  1
\A1;{\f??|b0|i0|c0|p49;%%c}<>{\f??|b0|i0|c0|p49;\H0.7x;\S+0^ -0.035;}(h7)
  3
STANDARD
100
AcDbAlignedDimension
 13
177.3202327418257
 23
337.7700124884077
 33
0.0
 14
177.3202327418257
 24
254.7700124884058
 34
0.0
 50
90.0
100
AcDbRotatedDimension
  0
DIMENSION
  5
EC
330
2
100
AcDbEntity
  8
0
100
AcDbDimension
  2
*D21
 10
317.3989666278758
 20
251.2700124884077
 30
0.0
 11
317.3989666278757
 21
295.3201899020141
 31
0.0
 70
   160
  1
%%c<>
  3
STANDARD
100
AcDbAlignedDimension
 13
292.320232741833
 23
341.2700124884076
 33
0.0
 14
292.320232741833
 24
251.2700124884077
 34
0.0
 50
90.0
100
AcDbRotatedDimension
  0
LINE
  5
F9
102
{ACAD_REACTORS
330
A1
102
}
330
2
100
AcDbEntity
  8
0
  6
CENTER
 62
     1
100
AcDbLine
 10
66.56409549919408
 20
296.2700124884077
 30
0.0
 11
85.19932330209485
 21
251.2700124884759
 31
0.0
  0
INSERT
  5
FA
330
2
100
AcDbEntity
  8
0
100
AcDbBlockReference
  2
4
 10
66.56409549919408
 20
296.2700124884077
 30
0.0
  0
LINE
  5
11B
330
2
100
AcDbEntity
  8
CL
 48
0.6
100
AcDbLine
 10
330.6197296260943
 20
81.47123013133295
 30
0.0
 11
156.8698004115613
 21
81.47123013133295
 31
0.0
  0
DIMENSION
  5
11C
102
{ACAD_XDICTIONARY
360
11D
102
}
102
{ACAD_REACTORS
330
11E
102
}
330
2
100
AcDbEntity
  8
0
100
AcDbDimension
  2
*D27
 10
341.4046625316732
 20
36.47123013133477
 30
0.0
 11
341.4046625316732
 21
81.29643789287365
 31
0.0
 70
   160
  1
%%C<>
  3
STANDARD
100
AcDbAlignedDimension
 13
314.7197969608969
 23
126.4712301313347
 33
0.0
 14
314.7197969608969
 24
36.47123013133477
 34
0.0
 50
90.0
100
AcDbRotatedDimension
  0
LINE
  5
12B
330
2
100
AcDbEntity
  8
0
100
AcDbLine
 10
321.7197969608969
 20
119.4712301313329
 30
0.0
 11
321.7197969608969
 21
108.8751547330939
 31
0.0
  0
ARC
  5
12C
330
2
100
AcDbEntity
  8
0
 48
0.6
100
AcDbCircle
 10
44.84249509272195
 20
81.47123013133295
 30
0.0
 40
36.81561599999999
100
AcDbArc
 50
116.3656725032109
 51
153.634327496783
  0
ARC
  5
12D
330
2
100
AcDbEntity
  8
0
 48
0.6
100
AcDbCircle
 10
44.84249509272195
 20
81.47123013133295
 30
0.0
 40
36.81561599999999
100
AcDbArc
 50
26.36567250321681
 51
63.63432749678904
  0
DIMENSION
  5
12E
102
{ACAD_XDICTIONARY
360
12F
102
}
102
{ACAD_REACTORS
330
130
102
}
330
2
100
AcDbEntity
  8
0
100
AcDbDimension
  2
*D26
 10
194.7197969608969
 20
112.0684866186757
 30
0.0
 11
180.9784813253973
 21
112.0684866186757
 31
0.0
 70
   160
  3
STANDARD
100
AcDbAlignedDimension
 13
164.7197969608969
 23
86.47123013133478
 33
0.0
 14
194.7197969608969
 24
87.47123013133295
 34
0.0
100
AcDbRotatedDimension
  0
DIMENSION
  5
13D
102
{ACAD_XDICTIONARY
360
13E
102
}
102
{ACAD_REACTORS
330
13F
102
}
330
2
100
AcDbEntity
  8
0
100
AcDbDimension
  2
*D25
 10
201.7197969608969
 20
162.4885890042842
 30
0.0
 11
184.6331382236239
 21
162.4885890042842
 31
0.0
 70
   160
  3
STANDARD
100
AcDbAlignedDimension
 13
164.7197969608969
 23
86.47123013133478
 33
0.0
 14
201.7197969608969
 24
126.6795634646678
 34
0.0
100
AcDbRotatedDimension
  0
LINE
  5
14C
330
2
100
AcDbEntity
  8
CL
 48
0.6
100
AcDbLine
 10
44.91795940691372
 20
27.84108536758139
 30
0.0
 11
44.91795940691372
 21
135.1013748950863
 31
0.0
  0
LINE
  5
14D
330
2
100
AcDbEntity
  8
0
100
AcDbLine
 10
201.7197969608969
 20
126.9712301313347
 30
0.0
 11
201.7197969608969
 21
35.97123013133478
 31
0.0
  0
LINE
  5
14E
330
2
100
AcDbEntity
  8
0
100
AcDbLine
 10
208.3197969609027
 20
126.9712301313347
 30
0.0
 11
208.3197969609027
 21
35.97123013133478
 31
0.0
  0
LINE
  5
14F
330
2
100
AcDbEntity
  8
0
100
AcDbLine
 10
296.7197969608969
 20
126.4712301313347
 30
0.0
 11
296.7197969608969
 21
36.47123013133477
 31
0.0
  0
LINE
  5
150
102
{ACAD_REACTORS
330
153
102
}
330
2
100
AcDbEntity
  8
0
100
AcDbLine
 10
199.7197969608969
 20
122.9712301313329
 30
0.0
 11
199.7197969608969
 21
39.97123013133295
 31
0.0
  0
DIMENSION
  5
151
102
{ACAD_XDICTIONARY
360
152
102
}
102
{ACAD_REACTORS
330
153
102
}
330
2
100
AcDbEntity
  8
0
100
AcDbDimension
  2
*D24
 10
132.5373018868813
 20
39.97123013133298
 30
0.0
 11
132.5373018868813
 21
81.53908380986194
 31
0.0
 70
   160
  1
\A1;{\f??|b0|i0|c0|p49;%%C}<>{\f??|b0|i0|c0|p49;\H0.7x;\S+0^ -0.035;\H1.429x;(h}7{\f??|b0|i0|c0|p49;)}
  3
STANDARD
100
AcDbAlignedDimension
 13
199.7197969608969
 23
122.9712301313329
 33
0.0
 14
199.7197969608969
 24
39.97123013133295
 34
0.0
 50
90.0
100
AcDbRotatedDimension
  0
LINE
  5
160
330
2
100
AcDbEntity
  8
0
100
AcDbLine
 10
321.7197969608969
 20
108.8751547330939
 30
0.0
 11
321.7197969608969
 21
54.06730552957379
 31
0.0
  0
LINE
  5
161
330
2
100
AcDbEntity
  8
0
100
AcDbLine
 10
321.7197969608969
 20
94.87515473309395
 30
0.0
 11
321.7197969608969
 21
68.06730552957379
 31
0.0
  0
LINE
  5
162
330
2
100
AcDbEntity
  8
0
100
AcDbLine
 10
296.7197969608969
 20
61.06730552957469
 30
0.0
 11
314.7197969608969
 21
61.06730552957469
 31
0.0
  0
LINE
  5
163
330
2
100
AcDbEntity
  8
0
100
AcDbLine
 10
321.7197969608969
 20
54.06730552957379
 30
0.0
 11
321.7197969608969
 21
43.47123013133478
 31
0.0
  0
ARC
  5
164
330
2
100
AcDbEntity
  8
0
100
AcDbCircle
 10
314.7197969608969
 20
54.06730552957379
 30
0.0
 40
7.0
100
AcDbArc
 50
359.9999999999997
 51
89.99999999999984
  0
ARC
  5
165
330
2
100
AcDbEntity
  8
0
100
AcDbCircle
 10
314.7197969608969
 20
68.06730552957379
 30
0.0
 40
7.0
100
AcDbArc
 50
269.9999999999998
 51
359.9999999999998
  0
ARC
  5
166
330
2
100
AcDbEntity
  8
0
100
AcDbCircle
 10
314.7197969608969
 20
94.87515473309395
 30
0.0
 40
7.0
100
AcDbArc
 50
359.9999999999998
 51
90.0
  0
LINE
  5
167
330
2
100
AcDbEntity
  8
0
100
AcDbLine
 10
303.8696651653554
 20
82.32625314304186
 30
0.0
 11
302.1632579380238
 21
80.61984591571308
 31
0.0
  0
LINE
  5
168
330
2
100
AcDbEntity
  8
0
100
AcDbLine
 10
302.1596191419339
 20
82.32625314304186
 30
0.0
 11
303.8660263692618
 21
80.61984591571308
 31
0.0
  0
CIRCLE
  5
169
330
2
100
AcDbEntity
  8
0
100
AcDbCircle
 10
303.0146421536446
 20
81.47123013133295
 30
0.0
 40
2.147836038934201
  0
LINE
  5
16A
330
2
100
AcDbEntity
  8
0
100
AcDbLine
 10
296.7197969608969
 20
101.8751547330939
 30
0.0
 11
314.7197969608969
 21
101.8751547330939
 31
0.0
  0
ARC
  5
16B
330
2
100
AcDbEntity
  8
0
100
AcDbCircle
 10
314.7197969608969
 20
108.8751547330939
 30
0.0
 40
7.0
100
AcDbArc
 50
270.0
 51
359.9999999999998
  0
LINE
  5
16C
330
2
100
AcDbEntity
  8
0
 48
0.6
100
AcDbLine
 10
41.60133461655641
 20
86.47123013133478
 30
0.0
 11
48.23458419726375
 21
86.47123013133478
 31
0.0
  0
ARC
  5
16D
330
2
100
AcDbEntity
  8
0
 48
0.6
100
AcDbCircle
 10
44.84249509272195
 20
81.47123013133295
 30
0.0
 40
33.74764799999999
100
AcDbArc
 50
72.28019184719491
 51
107.719808152805
  0
ARC
  5
16E
330
2
100
AcDbEntity
  8
0
 48
0.6
100
AcDbCircle
 10
44.84249509272195
 20
81.47123013133295
 30
0.0
 40
33.74764799999999
100
AcDbArc
 50
252.2801918471949
 51
287.7198081528051
  0
CIRCLE
  5
16F
330
2
100
AcDbEntity
  8
0
 48
0.6
100
AcDbCircle
 10
44.91795940691372
 20
81.47123013133295
 30
0.0
 40
20.0
  0
ARC
  5
170
330
2
100
AcDbEntity
  8
0
 48
0.6
100
AcDbCircle
 10
44.84249509272195
 20
81.47123013133295
 30
0.0
 40
36.81561599999999
100
AcDbArc
 50
206.3656725032168
 51
243.634327496789
  0
ARC
  5
171
330
2
100
AcDbEntity
  8
0
 48
0.6
100
AcDbCircle
 10
33.6372060526628
 20
46.40228262804976
 30
0.0
 40
3.067967999999998
100
AcDbArc
 50
72.28019184719491
 51
128.0513255193868
  0
ARC
  5
172
330
2
100
AcDbEntity
  8
0
 48
0.6
100
AcDbCircle
 10
29.85521680462625
 20
51.23408021526484
 30
0.0
 40
3.067967999999998
100
AcDbArc
 50
243.634327496789
 51
308.0513255193868
  0
ARC
  5
173
330
2
100
AcDbEntity
  8
0
 48
0.6
100
AcDbCircle
 10
44.84249509272195
 20
81.47123013133295
 30
0.0
 40
33.74764799999999
100
AcDbArc
 50
162.2801918472015
 51
197.7198081527984
  0
ARC
  5
174
330
2
100
AcDbEntity
  8
0
 48
0.6
100
AcDbCircle
 10
14.60534517665655
 20
66.48395184323181
 30
0.0
 40
3.067967999999998
100
AcDbArc
 50
141.9486744806222
 51
206.3656725032168
  0
ARC
  5
175
330
2
100
AcDbEntity
  8
0
 48
0.6
100
AcDbCircle
 10
9.773547589447844
 20
70.26594109126927
 30
0.0
 40
3.067967999999998
100
AcDbArc
 50
321.9486744806221
 51
17.71980815279839
  0
ARC
  5
176
330
2
100
AcDbEntity
  8
0
 48
0.6
100
AcDbCircle
 10
14.60534517665655
 20
96.45850841943776
 30
0.0
 40
3.067967999999998
100
AcDbArc
 50
153.634327496783
 51
218.0513255193776
  0
ARC
  5
177
330
2
100
AcDbEntity
  8
0
 48
0.6
100
AcDbCircle
 10
9.773547589447844
 20
92.67651917139756
 30
0.0
 40
3.067967999999998
100
AcDbArc
 50
342.2801918472014
 51
38.05132551937779
  0
ARC
  5
178
330
2
100
AcDbEntity
  8
0
 48
0.6
100
AcDbCircle
 10
33.6372060526628
 20
116.5401776346179
 30
0.0
 40
3.067967999999998
100
AcDbArc
 50
231.948674480613
 51
287.7198081528051
  0
ARC
  5
179
330
2
100
AcDbEntity
  8
0
 48
0.6
100
AcDbCircle
 10
29.85521680462625
 20
111.7083800474029
 30
0.0
 40
3.067967999999998
100
AcDbArc
 50
51.94867448061305
 51
116.3656725032109
  0
ARC
  5
17A
330
2
100
AcDbEntity
  8
0
 48
0.6
100
AcDbCircle
 10
44.84249509272195
 20
81.47123013133295
 30
0.0
 40
36.81561599999999
100
AcDbArc
 50
296.3656725032108
 51
333.6343274967831
  0
ARC
  5
17B
330
2
100
AcDbEntity
  8
0
 48
0.6
100
AcDbCircle
 10
56.04778413279564
 20
46.40228262804976
 30
0.0
 40
3.067967999999998
100
AcDbArc
 50
51.94867448061305
 51
107.719808152805
  0
ARC
  5
17C
330
2
100
AcDbEntity
  8
0
 48
0.6
100
AcDbCircle
 10
59.8297733808322
 20
51.23408021526484
 30
0.0
 40
3.067967999999998
100
AcDbArc
 50
231.948674480613
 51
296.3656725032108
  0
ARC
  5
17D
330
2
100
AcDbEntity
  8
0
 48
0.6
100
AcDbCircle
 10
56.04778413279564
 20
116.5401776346179
 30
0.0
 40
3.067967999999998
100
AcDbArc
 50
252.2801918471949
 51
308.0513255193868
  0
ARC
  5
17E
330
2
100
AcDbEntity
  8
0
 48
0.6
100
AcDbCircle
 10
59.8297733808322
 20
111.7083800474029
 30
0.0
 40
3.067967999999998
100
AcDbArc
 50
63.63432749678904
 51
128.0513255193868
  0
ARC
  5
17F
330
2
100
AcDbEntity
  8
0
 48
0.6
100
AcDbCircle
 10
44.84249509272195
 20
81.47123013133295
 30
0.0
 40
33.74764799999999
100
AcDbArc
 50
342.2801918472014
 51
17.71980815279839
  0
ARC
  5
180
330
2
100
AcDbEntity
  8
0
 48
0.6
100
AcDbCircle
 10
75.07964500879461
 20
66.48395184323181
 30
0.0
 40
3.067967999999998
100
AcDbArc
 50
333.6343274967831
 51
38.05132551937779
  0
ARC
  5
181
330
2
100
AcDbEntity
  8
0
 48
0.6
100
AcDbCircle
 10
79.91144259601424
 20
70.26594109126927
 30
0.0
 40
3.067967999999998
100
AcDbArc
 50
162.2801918472015
 51
218.0513255193776
  0
ARC
  5
182
330
2
100
AcDbEntity
  8
0
 48
0.6
100
AcDbCircle
 10
75.07964500879461
 20
96.45850841943776
 30
0.0
 40
3.067967999999998
100
AcDbArc
 50
321.9486744806221
 51
26.36567250321681
  0
ARC
  5
183
330
2
100
AcDbEntity
  8
0
 48
0.6
100
AcDbCircle
 10
79.91144259601424
 20
92.67651917139756
 30
0.0
 40
3.067967999999998
100
AcDbArc
 50
141.9486744806222
 51
197.7198081527984
  0
CIRCLE
  5
184
330
2
100
AcDbEntity
  8
0
 48
0.6
100
AcDbCircle
 10
44.91795940691372
 20
81.47123013133295
 30
0.0
 40
6.0
  0
LINE
  5
185
330
2
100
AcDbEntity
  8
0
100
AcDbLine
 10
164.7197969608969
 20
86.47123013133478
 30
0.0
 11
164.7197969608969
 21
75.47123013133478
 31
0.0
  0
LINE
  5
186
102
{ACAD_REACTORS
330
18D
330
19C
102
}
330
2
100
AcDbEntity
  8
CL
  6
BYBLOCK
 62
     0
100
AcDbLine
 10
199.7197969608969
 20
75.47123013133478
 30
0.0
 11
164.7197969608969
 21
75.47123013133478
 31
0.0
  0
LINE
  5
187
102
{ACAD_REACTORS
330
130
330
19C
102
}
330
2
100
AcDbEntity
  8
CL
  6
BYBLOCK
 62
     0
100
AcDbLine
 10
199.7197969608969
 20
87.47123013133295
 30
0.0
 11
194.7197969608969
 21
87.47123013133295
 31
0.0
  0
LINE
  5
188
102
{ACAD_REACTORS
330
130
330
18D
330
13F
102
}
330
2
100
AcDbEntity
  8
CL
  6
BYBLOCK
 62
     0
100
AcDbLine
 10
194.7197969608969
 20
86.47123013133478
 30
0.0
 11
164.7197969608969
 21
86.47123013133478
 31
0.0
  0
LINE
  5
189
330
2
100
AcDbEntity
  8
0
100
AcDbLine
 10
194.7197969608969
 20
87.47123013133295
 30
0.0
 11
194.7197969608969
 21
86.47123013133478
 31
0.0
  0
LINE
  5
18A
330
2
100
AcDbEntity
  8
0
100
AcDbLine
 10
208.3197969609027
 20
45.57249278980452
 30
0.0
 11
209.2197969608969
 21
45.57249278980452
 31
0.0
  0
DIMENSION
  5
18B
102
{ACAD_XDICTIONARY
360
18C
102
}
102
{ACAD_REACTORS
330
18D
102
}
330
2
100
AcDbEntity
  8
0
100
AcDbDimension
  2
*D30
 10
155.5666287754975
 20
86.47123013133478
 30
0.0
 11
155.5666287754975
 21
80.30846507402747
 31
0.0
 70
   160
  1
<>
  3
STANDARD
100
AcDbAlignedDimension
 13
164.7197969608969
 23
75.47123013133478
 33
0.0
 14
164.7197969608969
 24
86.47123013133478
 34
0.0
 50
90.0
100
AcDbRotatedDimension
  0
DIMENSION
  5
19A
102
{ACAD_XDICTIONARY
360
19B
102
}
102
{ACAD_REACTORS
330
19C
102
}
330
2
100
AcDbEntity
  8
0
100
AcDbDimension
  2
*D29
 10
144.6981478947819
 20
87.47123013133297
 30
0.0
 11
144.6981478947818
 21
81.4712301313339
 31
0.0
 70
   160
  1
\A1;{\f??|b0|i0|c0|p49;%%C}12{\f??|b0|i0|c0|p49;\H0.7x;\S+0^ -0.018;\H1.429x;(h}7{\f??|b0|i0|c0|p49;)}
  3
STANDARD
100
AcDbAlignedDimension
 13
164.7197969608969
 23
75.47123013133478
 33
0.0
 14
194.7197969608969
 24
87.47123013133295
 34
0.0
 50
90.0
100
AcDbRotatedDimension
  0
LINE
  5
1A9
330
2
100
AcDbEntity
  8
0
 62
   123
100
AcDbLine
 10
220.847651877033
 20
0.3694815378275962
 30
0.0
 11
293.3289267893633
 21
0.3694815378275962
 31
0.0
  0
ARC
  5
1AA
330
2
100
AcDbEntity
  8
0
100
AcDbCircle
 10
250.0225189608972
 20
35.38258413133462
 30
0.0
 40
35.255792
100
AcDbArc
 50
213.8564239999994
 51
219.5987459999966
  0
ARC
  5
1AB
330
2
100
AcDbEntity
  8
0
100
AcDbCircle
 10
222.5945079608973
 20
12.20781413133499
 30
0.0
 40
0.7499080000000001
100
AcDbArc
 50
69.51298200000024
 51
189.6845099999992
  0
ARC
  5
1AC
330
2
100
AcDbEntity
  8
0
100
AcDbCircle
 10
221.1160659608976
 20
11.95551113133296
 30
0.0
 40
0.7499080000000001
100
AcDbArc
 50
249.5129820000002
 51
9.684509999999278
  0
ARC
  5
1AD
330
2
100
AcDbEntity
  8
0
100
AcDbCircle
 10
221.4938449609035
 20
15.77772913133412
 30
0.0
 40
0.7499080000000001
100
AcDbArc
 50
62.66289500000094
 51
182.8344229999968
  0
ARC
  5
1AE
330
2
100
AcDbEntity
  8
0
100
AcDbCircle
 10
250.0225189608972
 20
35.38258413133462
 30
0.0
 40
33.95579199999999
100
AcDbArc
 50
179.8504230000004
 51
213.8981229999992
  0
ARC
  5
1AF
330
2
100
AcDbEntity
  8
0
100
AcDbCircle
 10
219.9958629608954
 20
15.70356313133379
 30
0.0
 40
0.7499080000000001
100
AcDbArc
 50
242.6628950000009
 51
2.834422999996808
  0
ARC
  5
1B0
330
2
100
AcDbEntity
  8
0
100
AcDbCircle
 10
218.2197969608969
 20
35.97123013133478
 30
0.0
 40
0.5
100
AcDbArc
 50
270.0
 51
0.0
  0
LINE
  5
1B1
330
2
100
AcDbEntity
  8
0
100
AcDbLine
 10
218.7197969608969
 20
36.47123013133477
 30
0.0
 11
218.7197969608969
 21
35.97123013133478
 31
0.0
  0
ARC
  5
1B2
330
2
100
AcDbEntity
  8
0
100
AcDbCircle
 10
216.211217960903
 20
19.85175213133334
 30
0.0
 40
0.7499080000000001
100
AcDbArc
 50
235.1612770000011
 51
355.3328050000017
  0
ARC
  5
1B3
330
2
100
AcDbEntity
  8
0
100
AcDbCircle
 10
217.7060609609034
 20
19.72971513133416
 30
0.0
 40
0.7499080000000001
100
AcDbArc
 50
55.16127700000105
 51
175.3328050000016
  0
ARC
  5
1B4
330
2
100
AcDbEntity
  8
0
100
AcDbCircle
 10
217.4348509608971
 20
14.86723013133451
 30
0.0
 40
0.7499080000000001
100
AcDbArc
 50
242.6628950000009
 51
2.834422999996808
  0
ARC
  5
1B5
330
2
100
AcDbEntity
  8
0
100
AcDbCircle
 10
250.0225189608972
 20
35.38258413133462
 30
0.0
 40
35.255792
100
AcDbArc
 50
179.8559380000023
 51
205.2470409999969
  0
ARC
  5
1B6
330
2
100
AcDbEntity
  8
0
100
AcDbCircle
 10
250.0225189608972
 20
35.38258413133462
 30
0.0
 40
37.855792
100
AcDbArc
 50
179.8658329999985
 51
205.2470409999969
  0
ARC
  5
1B7
330
2
100
AcDbEntity
  8
0
100
AcDbCircle
 10
250.0225189608972
 20
35.38258413133462
 30
0.0
 40
37.855792
100
AcDbArc
 50
212.7486590000019
 51
219.5987459999966
  0
ARC
  5
1B8
330
2
100
AcDbEntity
  8
0
100
AcDbCircle
 10
218.9328319608975
 20
14.94139613133302
 30
0.0
 40
0.7499080000000001
100
AcDbArc
 50
62.66289500000094
 51
182.8344229999968
  0
ARC
  5
1B9
330
2
100
AcDbEntity
  8
0
100
AcDbCircle
 10
250.0225189608972
 20
35.38258413133462
 30
0.0
 40
36.555792
100
AcDbArc
 50
205.2470409999969
 51
213.8176429999978
  0
LINE
  5
1BA
330
2
100
AcDbEntity
  8
0
100
AcDbLine
 10
300.1868369098047
 20
36.47123013133477
 30
0.0
 11
300.1868369098047
 21
35.58229474568725
 31
0.0
  0
LINE
  5
1BB
330
2
100
AcDbEntity
  8
0
100
AcDbLine
 10
304.6201563823306
 20
35.58229474568725
 30
0.0
 11
304.6201563823306
 21
36.47123013133477
 31
0.0
  0
ARC
  5
1BC
330
2
100
AcDbEntity
  8
0
100
AcDbCircle
 10
301.1868369098047
 20
35.58229474568725
 30
0.0
 40
1.0
100
AcDbArc
 50
180.0
 51
270.0
  0
ARC
  5
1BD
330
2
100
AcDbEntity
  8
0
100
AcDbCircle
 10
303.6201563823233
 20
35.58229474568725
 30
0.0
 40
1.0
100
AcDbArc
 50
269.9999999999998
 51
0.0
  0
LINE
  5
1BE
330
2
100
AcDbEntity
  8
0
100
AcDbLine
 10
301.1868369098047
 20
34.58229474568724
 30
0.0
 11
303.6201563823233
 21
34.58229474568724
 31
0.0
  0
ARC
  5
1BF
330
2
100
AcDbEntity
  8
0
100
AcDbCircle
 10
97.23577475772254
 20
50.78178277987354
 30
0.0
 40
37.855792
100
AcDbArc
 50
235.2486590000054
 51
242.0987460000029
  0
ARC
  5
1C0
330
2
100
AcDbEntity
  8
0
 48
0.6
100
AcDbCircle
 10
97.23577475772254
 20
50.78178277987354
 30
0.0
 40
36.555792
100
AcDbArc
 50
227.7470409999976
 51
236.3176429999981
  0
ARC
  5
1C1
330
2
100
AcDbEntity
  8
0
 48
0.6
100
AcDbCircle
 10
97.23577475772254
 20
50.78178277987354
 30
0.0
 40
33.95579199999999
100
AcDbArc
 50
204.9259499999998
 51
236.3981230000006
  0
ARC
  5
1C2
330
2
100
AcDbEntity
  8
0
100
AcDbCircle
 10
97.23577475772254
 20
50.78178277987354
 30
0.0
 40
39.15579199999999
100
AcDbArc
 50
201.4369589999971
 51
235.2486590000054
  0
ARC
  5
1C3
330
2
100
AcDbEntity
  8
0
 48
0.6
100
AcDbCircle
 10
97.23577475772254
 20
50.78178277987354
 30
0.0
 40
37.855792
100
AcDbArc
 50
202.2115912309427
 51
227.7470409999976
  0
ARC
  5
1C4
330
2
100
AcDbEntity
  8
0
 48
0.6
100
AcDbCircle
 10
97.23577475772254
 20
50.78178277987354
 30
0.0
 40
35.255792
100
AcDbArc
 50
203.947941
 51
227.7470409999976
  0
ARC
  5
1C5
330
2
100
AcDbEntity
  8
0
 48
0.6
100
AcDbCircle
 10
76.33515375772185
 20
19.9990797798755
 30
0.0
 40
0.7499080000000001
100
AcDbArc
 50
85.16289500000455
 51
205.3344229999993
  0
ARC
  5
1C6
330
2
100
AcDbEntity
  8
0
100
AcDbCircle
 10
74.97958075773204
 20
19.35730677987339
 30
0.0
 40
0.7499080000000001
100
AcDbArc
 50
265.1628950000044
 51
25.33442299999946
  0
ARC
  5
1C7
330
2
100
AcDbEntity
  8
0
 48
0.6
100
AcDbCircle
 10
73.36935375772373
 20
23.95344477987237
 30
0.0
 40
0.7499080000000001
100
AcDbArc
 50
77.66127699999917
 51
197.832805000001
  0
ARC
  5
1C8
330
2
100
AcDbEntity
  8
0
 48
0.6
100
AcDbCircle
 10
71.94159775772277
 20
23.49414077987239
 30
0.0
 40
0.7499080000000001
100
AcDbArc
 50
257.6612769999992
 51
17.83280500000109
  0
LINE
  5
1C9
330
2
100
AcDbEntity
  8
0
 48
0.6
100
AcDbLine
 10
66.44285522676364
 20
36.47123013133477
 30
0.0
 11
60.70180500023344
 21
36.47123013133477
 31
0.0
  0
ARC
  5
1CA
330
2
100
AcDbEntity
  8
0
 48
0.6
100
AcDbCircle
 10
77.02559775772169
 20
21.11003477987378
 30
0.0
 40
0.7499080000000001
100
AcDbArc
 50
265.1628950000044
 51
25.33442299999946
  0
ARC
  5
1CB
330
2
100
AcDbEntity
  8
0
 48
0.6
100
AcDbCircle
 10
97.23577475772254
 20
50.78178277987354
 30
0.0
 40
35.255792
100
AcDbArc
 50
236.3564240000014
 51
242.0987460000029
  0
ARC
  5
1CC
330
2
100
AcDbEntity
  8
0
100
AcDbCircle
 10
79.49484675772328
 20
18.07596877987544
 30
0.0
 40
0.7499080000000001
100
AcDbArc
 50
272.0129819999954
 51
32.18451000000101
  0
ARC
  5
1CD
330
2
100
AcDbEntity
  8
0
100
AcDbCircle
 10
80.76419775772228
 20
18.87484177987426
 30
0.0
 40
0.7499080000000001
100
AcDbArc
 50
92.01298199999559
 51
212.184510000001
  0
ARC
  5
1CE
330
2
100
AcDbEntity
  8
0
 48
0.6
100
AcDbCircle
 10
78.38116975772209
 20
21.75180677987373
 30
0.0
 40
0.7499080000000001
100
AcDbArc
 50
85.16289500000455
 51
205.3344229999993
  0
LINE
  5
1CF
330
2
100
AcDbEntity
  8
0
100
AcDbLine
 10
201.7197969608969
 20
35.97123013133478
 30
0.0
 11
208.3197969609027
 21
35.97123013133478
 31
0.0
  0
ARC
  5
1D0
330
2
100
AcDbEntity
  8
0
100
AcDbCircle
 10
209.2197969608969
 20
35.97123013133478
 30
0.0
 40
0.5
100
AcDbArc
 50
180.0
 51
270.0
  0
LINE
  5
1D1
330
2
100
AcDbEntity
  8
0
100
AcDbLine
 10
208.3197969609027
 20
37.87249278980289
 30
0.0
 11
209.2197969608969
 21
37.87249278980289
 31
0.0
  0
LINE
  5
1D2
330
2
100
AcDbEntity
  8
0
100
AcDbLine
 10
208.7197969608969
 20
36.47123013133477
 30
0.0
 11
208.7197969608969
 21
35.97123013133478
 31
0.0
  0
LINE
  5
1D3
330
2
100
AcDbEntity
  8
0
100
AcDbLine
 10
201.7197969608969
 20
39.97123013133295
 30
0.0
 11
199.7197969608969
 21
39.97123013133295
 31
0.0
  0
LINE
  5
1D4
102
{ACAD_REACTORS
330
11E
102
}
330
2
100
AcDbEntity
  8
0
100
AcDbLine
 10
314.7197969608969
 20
36.47123013133477
 30
0.0
 11
208.3197969609027
 21
36.47123013133477
 31
0.0
  0
LINE
  5
1D5
330
2
100
AcDbEntity
  8
0
100
AcDbLine
 10
218.2197969608969
 20
35.47123013133296
 30
0.0
 11
209.2197969608969
 21
35.47123013133296
 31
0.0
  0
ARC
  5
1D6
330
2
100
AcDbEntity
  8
0
100
AcDbCircle
 10
250.0225189608972
 20
35.38258413133462
 30
0.0
 40
39.15579199999999
100
AcDbArc
 50
179.8702869999971
 51
212.7486590000019
  0
LINE
  5
1D7
330
2
100
AcDbEntity
  8
0
100
AcDbLine
 10
209.2197969608969
 20
45.57249278980452
 30
0.0
 11
209.2197969608969
 21
37.87249278980289
 31
0.0
  0
ARC
  5
1D8
330
2
100
AcDbEntity
  8
0
100
AcDbCircle
 10
314.7197969608969
 20
43.47123013133478
 30
0.0
 40
7.0
100
AcDbArc
 50
269.9999999999998
 51
359.9999999999997
  0
LINE
  5
1D9
102
{ACAD_REACTORS
330
B9
102
}
330
2
100
AcDbEntity
  8
0
  6
CENTER
 62
     1
100
AcDbLine
 10
44.91795940691372
 20
81.47123013133295
 30
0.0
 11
63.5531872098145
 21
36.4712301314039
 31
0.0
  0
LINE
  5
1DA
330
2
100
AcDbEntity
  8
0
100
AcDbLine
 10
301.1868369098047
 20
128.3601655169804
 30
0.0
 11
303.6201563823233
 21
128.3601655169804
 31
0.0
  0
ARC
  5
1DB
330
2
100
AcDbEntity
  8
0
100
AcDbCircle
 10
303.6201563823233
 20
127.3601655169804
 30
0.0
 40
1.0
100
AcDbArc
 50
359.9999999999998
 51
90.00000000000005
  0
ARC
  5
1DC
330
2
100
AcDbEntity
  8
0
100
AcDbCircle
 10
301.1868369098047
 20
127.3601655169804
 30
0.0
 40
1.0
100
AcDbArc
 50
89.99999999999991
 51
179.9999999999998
  0
LINE
  5
1DD
330
2
100
AcDbEntity
  8
0
100
AcDbLine
 10
304.6201563823306
 20
127.3601655169804
 30
0.0
 11
304.6201563823306
 21
126.4712301313347
 31
0.0
  0
LINE
  5
1DE
330
2
100
AcDbEntity
  8
0
100
AcDbLine
 10
300.1868369098047
 20
126.4712301313347
 30
0.0
 11
300.1868369098047
 21
127.3601655169804
 31
0.0
  0
ARC
  5
1DF
330
2
100
AcDbEntity
  8
0
100
AcDbCircle
 10
314.7197969608969
 20
119.4712301313329
 30
0.0
 40
7.0
100
AcDbArc
 50
359.9999999999998
 51
90.0000000000001
  0
LINE
  5
1E0
330
2
100
AcDbEntity
  8
0
100
AcDbLine
 10
201.7197969608969
 20
126.9712301313347
 30
0.0
 11
208.3197969609027
 21
126.9712301313347
 31
0.0
  0
LINE
  5
1E1
330
2
100
AcDbEntity
  8
0
100
AcDbLine
 10
201.7197969608969
 20
122.9712301313329
 30
0.0
 11
199.7197969608969
 21
122.9712301313329
 31
0.0
  0
LINE
  5
1E2
330
2
100
AcDbEntity
  8
0
100
AcDbLine
 10
209.2197969608969
 20
117.3699674728632
 30
0.0
 11
209.2197969608969
 21
125.0699674728621
 31
0.0
  0
LINE
  5
1E3
330
2
100
AcDbEntity
  8
0
100
AcDbLine
 10
208.3197969609027
 20
117.3699674728632
 30
0.0
 11
209.2197969608969
 21
117.3699674728632
 31
0.0
  0
LINE
  5
1E4
102
{ACAD_REACTORS
330
1F8
102
}
330
2
100
AcDbEntity
  8
0
100
AcDbLine
 10
208.3197969609027
 20
125.0699674728621
 30
0.0
 11
209.2197969608969
 21
125.0699674728621
 31
0.0
  0
LWPOLYLINE
  5
1E5
330
2
100
AcDbEntity
  8
3
100
AcDbPolyline
 90
        4
 70
     1
 43
0.0
 10
38.03651603989419
 20
139.7324794108226
 10
41.33651603989711
 20
139.7324794108226
 10
41.33651603989711
 20
143.2324794108226
 10
38.03651603989419
 20
143.2324794108226
  0
DIMENSION
  5
1E7
330
2
100
AcDbEntity
  8
0
100
AcDbDimension
  2
*D34
 10
201.7197969608969
 20
139.1038836955831
 30
0.0
 11
192.7197969608969
 21
139.1038836955831
 31
0.0
 70
   160
  3
STANDARD
100
AcDbAlignedDimension
 13
199.7197969608969
 23
122.9712301313329
 33
0.0
 14
201.7197969608969
 24
126.4712301313347
 34
0.0
100
AcDbRotatedDimension
  0
DIMENSION
  5
1F6
102
{ACAD_XDICTIONARY
360
1F7
102
}
102
{ACAD_REACTORS
330
1F8
102
}
330
2
100
AcDbEntity
  8
0
100
AcDbDimension
  2
*D33
 10
209.2197969608969
 20
147.7473599325958
 30
0.0
 11
205.4697969608969
 21
147.7473599325958
 31
0.0
 70
   160
  3
STANDARD
100
AcDbAlignedDimension
 13
201.7197969608969
 23
126.6795634646678
 33
0.0
 14
209.2197969608969
 24
125.0699674728621
 34
0.0
100
AcDbRotatedDimension
  0
LINE
  5
205
102
{ACAD_REACTORS
330
11E
102
}
330
2
100
AcDbEntity
  8
0
100
AcDbLine
 10
314.7197969608969
 20
126.4712301313347
 30
0.0
 11
208.3197969609027
 21
126.4712301313347
 31
0.0
  0
DIMENSION
  5
206
330
2
100
AcDbEntity
  8
0
100
AcDbDimension
  2
*D32
 10
321.7197969608969
 20
162.4885890042842
 30
0.0
 11
261.3831382236239
 21
162.4885890042842
 31
0.0
 70
   160
  3
STANDARD
100
AcDbAlignedDimension
 13
201.7197969608969
 23
141.5712301313333
 33
0.0
 14
321.7197969608969
 24
118.9712301313347
 34
0.0
100
AcDbRotatedDimension
  0
ARC
  5
213
330
2
100
AcDbEntity
  8
0
 48
0.6
100
AcDbCircle
 10
51.50135289690297
 20
266.0328625723377
 30
0.0
 40
3.067967999999998
100
AcDbArc
 50
243.634327496789
 51
308.0513255193868
  0
ARC
  5
214
330
2
100
AcDbEntity
  8
0
 48
0.6
100
AcDbCircle
 10
66.48863118501686
 20
296.2700124884077
 30
0.0
 40
36.81561599999999
100
AcDbArc
 50
206.3656725032168
 51
243.634327496789
  0
ARC
  5
215
330
2
100
AcDbEntity
  8
0
 48
0.6
100
AcDbCircle
 10
36.25148126893327
 20
281.2827342003047
 30
0.0
 40
3.067967999999998
100
AcDbArc
 50
141.9486744806222
 51
206.3656725032168
  0
ARC
  5
216
330
2
100
AcDbEntity
  8
0
 48
0.6
100
AcDbCircle
 10
31.41968368172456
 20
285.064723448344
 30
0.0
 40
3.067967999999998
100
AcDbArc
 50
321.9486744806221
 51
17.71980815279839
  0
ARC
  5
217
330
2
100
AcDbEntity
  8
0
 48
0.6
100
AcDbCircle
 10
66.48863118501686
 20
296.2700124884077
 30
0.0
 40
36.81561599999999
100
AcDbArc
 50
296.3656725032108
 51
333.6343274967831
  0
ARC
  5
218
330
2
100
AcDbEntity
  8
0
 48
0.6
100
AcDbCircle
 10
81.47590947311256
 20
266.0328625723377
 30
0.0
 40
3.067967999999998
100
AcDbArc
 50
231.948674480613
 51
296.3656725032108
  0
ARC
  5
219
330
2
100
AcDbEntity
  8
0
 48
0.6
100
AcDbCircle
 10
66.48863118501686
 20
296.2700124884077
 30
0.0
 40
33.74764799999999
100
AcDbArc
 50
252.2801918471949
 51
287.7198081528051
  0
ARC
  5
21A
330
2
100
AcDbEntity
  8
0
 48
0.6
100
AcDbCircle
 10
55.28334214494316
 20
261.2010649851244
 30
0.0
 40
3.067967999999998
100
AcDbArc
 50
72.28019184719491
 51
128.0513255193868
  0
ARC
  5
21B
330
2
100
AcDbEntity
  8
0
 48
0.6
100
AcDbCircle
 10
77.69392022507236
 20
261.2010649851244
 30
0.0
 40
3.067967999999998
100
AcDbArc
 50
51.94867448061305
 51
107.719808152805
  0
ARC
  5
21C
330
2
100
AcDbEntity
  8
0
 48
0.6
100
AcDbCircle
 10
96.72578110107497
 20
281.2827342003047
 30
0.0
 40
3.067967999999998
100
AcDbArc
 50
333.6343274967831
 51
38.05132551937779
  0
ARC
  5
21D
330
2
100
AcDbEntity
  8
0
 48
0.6
100
AcDbCircle
 10
101.5575786882946
 20
285.064723448344
 30
0.0
 40
3.067967999999998
100
AcDbArc
 50
162.2801918472015
 51
218.0513255193776
  0
LINE
  5
21E
330
2
100
AcDbEntity
  8
CEN
 48
0.6
100
AcDbLine
 10
156.565955594473
 20
291.1305124884074
 30
0.0
 11
180.320232741833
 21
291.1305124884074
 31
0.0
  0
LINE
  5
21F
330
2
100
AcDbEntity
  8
0
 48
0.6
100
AcDbLine
 10
166.3202327418257
 20
290.6200124884071
 30
0.0
 11
177.3202327418257
 21
290.6200124884071
 31
0.0
  0
LINE
  5
220
330
2
100
AcDbEntity
  8
0
 48
0.6
100
AcDbLine
 10
159.320232741833
 20
290.6200124884071
 30
0.0
 11
177.3202327418257
 21
290.6200124884071
 31
0.0
  0
LINE
  5
221
330
2
100
AcDbEntity
  8
0
100
AcDbLine
 10
274.3202327418257
 20
275.8660878866467
 30
0.0
 11
292.320232741833
 21
275.8660878866467
 31
0.0
  0
ARC
  5
222
330
2
100
AcDbEntity
  8
0
100
AcDbCircle
 10
292.320232741833
 20
282.8660878866476
 30
0.0
 40
7.0
100
AcDbArc
 50
269.9999999999998
 51
359.9999999999998
  0
ARC
  5
223
330
2
100
AcDbEntity
  8
0
100
AcDbCircle
 10
292.320232741833
 20
268.8660878866467
 30
0.0
 40
7.0
100
AcDbArc
 50
359.9999999999997
 51
89.99999999999984
  0
LINE
  5
224
330
2
100
AcDbEntity
  8
0
100
AcDbLine
 10
186.8202327418257
 20
260.3712751468783
 30
0.0
 11
186.8202327418257
 21
252.6712751468785
 31
0.0
  0
ARC
  5
225
330
2
100
AcDbEntity
  8
0
 48
0.6
100
AcDbCircle
 10
118.8819108500065
 20
265.5805651369482
 30
0.0
 40
39.15579199999999
100
AcDbArc
 50
201.4369589999971
 51
235.2486590000054
  0
ARC
  5
226
330
2
100
AcDbEntity
  8
0
 48
0.6
100
AcDbCircle
 10
118.8819108500065
 20
265.5805651369482
 30
0.0
 40
35.255792
100
AcDbArc
 50
203.947941
 51
227.7470409999976
  0
ARC
  5
227
330
2
100
AcDbEntity
  8
0
 48
0.6
100
AcDbCircle
 10
118.8819108500065
 20
265.5805651369482
 30
0.0
 40
33.95579199999999
100
AcDbArc
 50
204.9259499999998
 51
236.3981230000006
  0
ARC
  5
228
330
2
100
AcDbEntity
  8
0
 48
0.6
100
AcDbCircle
 10
118.8819108500065
 20
265.5805651369482
 30
0.0
 40
37.855792
100
AcDbArc
 50
202.2115912309427
 51
227.7470409999976
  0
ARC
  5
229
330
2
100
AcDbEntity
  8
0
 48
0.6
100
AcDbCircle
 10
118.8819108500065
 20
265.5805651369482
 30
0.0
 40
36.555792
100
AcDbArc
 50
227.7470409999976
 51
236.3176429999981
  0
ARC
  5
22A
330
2
100
AcDbEntity
  8
0
 48
0.6
100
AcDbCircle
 10
93.58773385000677
 20
238.2929231369471
 30
0.0
 40
0.7499080000000001
100
AcDbArc
 50
257.6612769999992
 51
17.83280500000109
  0
ARC
  5
22B
330
2
100
AcDbEntity
  8
0
 48
0.6
100
AcDbCircle
 10
95.015489850015
 20
238.7522271369471
 30
0.0
 40
0.7499080000000001
100
AcDbArc
 50
77.66127699999917
 51
197.832805000001
  0
ARC
  5
22C
330
2
100
AcDbEntity
  8
0
 48
0.6
100
AcDbCircle
 10
102.4103338500062
 20
233.6736241369471
 30
0.0
 40
0.7499080000000001
100
AcDbArc
 50
92.01298199999559
 51
212.184510000001
  0
ARC
  5
22D
330
2
100
AcDbEntity
  8
0
 48
0.6
100
AcDbCircle
 10
101.1409828500036
 20
232.8747511369474
 30
0.0
 40
0.7499080000000001
100
AcDbArc
 50
272.0129819999954
 51
32.18451000000101
  0
ARC
  5
22E
330
2
100
AcDbEntity
  8
0
 48
0.6
100
AcDbCircle
 10
118.8819108500065
 20
265.5805651369482
 30
0.0
 40
35.255792
100
AcDbArc
 50
236.3564240000014
 51
242.0987460000029
  0
ARC
  5
22F
330
2
100
AcDbEntity
  8
0
 48
0.6
100
AcDbCircle
 10
98.67173385000569
 20
235.9088171369485
 30
0.0
 40
0.7499080000000001
100
AcDbArc
 50
265.1628950000044
 51
25.33442299999946
  0
ARC
  5
230
330
2
100
AcDbEntity
  8
0
 48
0.6
100
AcDbCircle
 10
100.027305850006
 20
236.5505891369475
 30
0.0
 40
0.7499080000000001
100
AcDbArc
 50
85.16289500000455
 51
205.3344229999993
  0
ARC
  5
231
330
2
100
AcDbEntity
  8
0
 48
0.6
100
AcDbCircle
 10
118.8819108500065
 20
265.5805651369482
 30
0.0
 40
37.855792
100
AcDbArc
 50
235.2486590000054
 51
242.0987460000029
  0
ARC
  5
232
330
2
100
AcDbEntity
  8
0
 48
0.6
100
AcDbCircle
 10
96.62571685000512
 20
234.1560891369481
 30
0.0
 40
0.7499080000000001
100
AcDbArc
 50
265.1628950000044
 51
25.33442299999946
  0
ARC
  5
233
330
2
100
AcDbEntity
  8
0
 48
0.6
100
AcDbCircle
 10
97.98128985000586
 20
234.7978621369475
 30
0.0
 40
0.7499080000000001
100
AcDbArc
 50
85.16289500000455
 51
205.3344229999993
  0
LINE
  5
234
330
2
100
AcDbEntity
  8
0
 48
0.6
100
AcDbLine
 10
88.08899131903308
 20
251.2700124884077
 30
0.0
 11
82.34794109250652
 21
251.2700124884077
 31
0.0
  0
LINE
  5
235
330
2
100
AcDbEntity
  8
0
100
AcDbLine
 10
292.320232741833
 20
251.2700124884077
 30
0.0
 11
185.9202327418351
 21
251.2700124884077
 31
0.0
  0
LINE
  5
236
330
2
100
AcDbEntity
  8
0
 62
   123
100
AcDbLine
 10
198.5939309910754
 20
216.5468585692469
 30
0.0
 11
270.815511472083
 21
216.5468585692469
 31
0.0
  0
ARC
  5
237
330
2
100
AcDbEntity
  8
0
100
AcDbCircle
 10
227.6229547418224
 20
250.1813664884057
 30
0.0
 40
36.555792
100
AcDbArc
 50
205.2470409999969
 51
213.8176429999978
  0
ARC
  5
238
330
2
100
AcDbEntity
  8
0
100
AcDbCircle
 10
196.5332677418227
 20
229.7401784884086
 30
0.0
 40
0.7499080000000001
100
AcDbArc
 50
62.66289500000094
 51
182.8344229999968
  0
ARC
  5
239
330
2
100
AcDbEntity
  8
0
100
AcDbCircle
 10
227.6229547418224
 20
250.1813664884057
 30
0.0
 40
37.855792
100
AcDbArc
 50
212.7486590000019
 51
219.5987459999966
  0
ARC
  5
23A
330
2
100
AcDbEntity
  8
0
100
AcDbCircle
 10
227.6229547418224
 20
250.1813664884057
 30
0.0
 40
33.95579199999999
100
AcDbArc
 50
179.8504230000004
 51
213.8981229999992
  0
ARC
  5
23B
330
2
100
AcDbEntity
  8
0
100
AcDbCircle
 10
227.6229547418224
 20
250.1813664884057
 30
0.0
 40
39.15579199999999
100
AcDbArc
 50
179.8702869999971
 51
212.7486590000019
  0
ARC
  5
23C
330
2
100
AcDbEntity
  8
0
100
AcDbCircle
 10
227.6229547418224
 20
250.1813664884057
 30
0.0
 40
37.855792
100
AcDbArc
 50
179.8658329999985
 51
205.2470409999969
  0
ARC
  5
23D
330
2
100
AcDbEntity
  8
0
100
AcDbCircle
 10
227.6229547418224
 20
250.1813664884057
 30
0.0
 40
35.255792
100
AcDbArc
 50
179.8559380000023
 51
205.2470409999969
  0
ARC
  5
23E
330
2
100
AcDbEntity
  8
0
100
AcDbCircle
 10
195.0352867418332
 20
229.6660124884074
 30
0.0
 40
0.7499080000000001
100
AcDbArc
 50
242.6628950000009
 51
2.834422999996808
  0
ARC
  5
23F
330
2
100
AcDbEntity
  8
0
100
AcDbCircle
 10
195.3064967418249
 20
234.528497488407
 30
0.0
 40
0.7499080000000001
100
AcDbArc
 50
55.16127700000105
 51
175.3328050000016
  0
ARC
  5
240
330
2
100
AcDbEntity
  8
0
100
AcDbCircle
 10
193.8116537418245
 20
234.6505344884071
 30
0.0
 40
0.7499080000000001
100
AcDbArc
 50
235.1612770000011
 51
355.3328050000017
  0
LINE
  5
241
330
2
100
AcDbEntity
  8
0
100
AcDbLine
 10
179.3202327418257
 20
251.2700124884077
 30
0.0
 11
185.9202327418351
 21
251.2700124884077
 31
0.0
  0
LINE
  5
242
330
2
100
AcDbEntity
  8
0
100
AcDbLine
 10
179.3202327418257
 20
254.7700124884058
 30
0.0
 11
177.3202327418257
 21
254.7700124884058
 31
0.0
  0
LINE
  5
243
330
2
100
AcDbEntity
  8
0
100
AcDbLine
 10
196.3202327418257
 20
251.2700124884077
 30
0.0
 11
196.3202327418257
 21
250.7700124884077
 31
0.0
  0
LINE
  5
244
330
2
100
AcDbEntity
  8
0
100
AcDbLine
 10
186.320232741833
 20
251.2700124884077
 30
0.0
 11
186.320232741833
 21
250.7700124884077
 31
0.0
  0
LINE
  5
245
330
2
100
AcDbEntity
  8
0
100
AcDbLine
 10
185.9202327418351
 20
252.6712751468785
 30
0.0
 11
186.8202327418257
 21
252.6712751468785
 31
0.0
  0
LINE
  5
246
330
2
100
AcDbEntity
  8
0
100
AcDbLine
 10
195.820232741833
 20
250.2700124884059
 30
0.0
 11
186.8202327418257
 21
250.2700124884059
 31
0.0
  0
ARC
  5
247
330
2
100
AcDbEntity
  8
0
100
AcDbCircle
 10
186.8202327418257
 20
250.7700124884077
 30
0.0
 40
0.5
100
AcDbArc
 50
180.0
 51
270.0
  0
ARC
  5
248
330
2
100
AcDbEntity
  8
0
100
AcDbCircle
 10
195.820232741833
 20
250.7700124884077
 30
0.0
 40
0.5
100
AcDbArc
 50
270.0
 51
0.0
  0
ARC
  5
249
330
2
100
AcDbEntity
  8
0
100
AcDbCircle
 10
197.5962987418352
 20
230.5023454884058
 30
0.0
 40
0.7499080000000001
100
AcDbArc
 50
242.6628950000009
 51
2.834422999996808
  0
ARC
  5
24A
330
2
100
AcDbEntity
  8
0
100
AcDbCircle
 10
199.094280741825
 20
230.5765114884061
 30
0.0
 40
0.7499080000000001
100
AcDbArc
 50
62.66289500000094
 51
182.8344229999968
  0
ARC
  5
24B
330
2
100
AcDbEntity
  8
0
100
AcDbCircle
 10
198.7165017418337
 20
226.7542934884076
 30
0.0
 40
0.7499080000000001
100
AcDbArc
 50
249.5129820000002
 51
9.684509999999278
  0
ARC
  5
24C
330
2
100
AcDbEntity
  8
0
100
AcDbCircle
 10
200.1949437418334
 20
227.006596488407
 30
0.0
 40
0.7499080000000001
100
AcDbArc
 50
69.51298200000024
 51
189.6845099999992
  0
ARC
  5
24D
330
2
100
AcDbEntity
  8
0
100
AcDbCircle
 10
227.6229547418224
 20
250.1813664884057
 30
0.0
 40
35.255792
100
AcDbArc
 50
213.8564239999994
 51
219.5987459999966
  0
ARC
  5
24E
330
2
100
AcDbEntity
  8
0
100
AcDbCircle
 10
292.320232741833
 20
258.2700124884076
 30
0.0
 40
7.0
100
AcDbArc
 50
269.9999999999998
 51
359.9999999999997
  0
LINE
  5
24F
330
2
100
AcDbEntity
  8
0
100
AcDbLine
 10
278.0978493686052
 20
251.2700124884077
 30
0.0
 11
282.5311688411238
 21
251.2700124884077
 31
0.0
  0
LINE
  5
250
330
2
100
AcDbEntity
  8
0
100
AcDbLine
 10
278.0978493686052
 20
251.2700124884077
 30
0.0
 11
278.0978493686052
 21
250.3810771027601
 31
0.0
  0
LINE
  5
251
330
2
100
AcDbEntity
  8
0
100
AcDbLine
 10
282.5311688411238
 20
250.3810771027601
 30
0.0
 11
282.5311688411238
 21
251.2700124884077
 31
0.0
  0
ARC
  5
252
330
2
100
AcDbEntity
  8
0
100
AcDbCircle
 10
279.0978493686052
 20
250.3810771027601
 30
0.0
 40
1.0
100
AcDbArc
 50
180.0
 51
270.0
  0
ARC
  5
253
330
2
100
AcDbEntity
  8
0
100
AcDbCircle
 10
281.5311688411238
 20
250.3810771027601
 30
0.0
 40
1.0
100
AcDbArc
 50
269.9999999999998
 51
0.0
  0
LINE
  5
254
330
2
100
AcDbEntity
  8
0
100
AcDbLine
 10
279.0978493686052
 20
249.3810771027601
 30
0.0
 11
281.5311688411238
 21
249.3810771027601
 31
0.0
  0
LINE
  5
255
330
2
100
AcDbEntity
  8
0
100
AcDbLine
 10
185.9202327418351
 20
260.3712751468783
 30
0.0
 11
186.8202327418257
 21
260.3712751468783
 31
0.0
  0
LINE
  5
256
330
2
100
AcDbEntity
  8
0
100
AcDbLine
 10
299.3202327418257
 20
268.8660878866467
 30
0.0
 11
299.3202327418257
 21
258.2700124884076
 31
0.0
  0
ARC
  5
257
330
2
100
AcDbEntity
  8
0
 48
0.6
100
AcDbCircle
 10
51.50135289690297
 20
326.5071624044767
 30
0.0
 40
3.067967999999998
100
AcDbArc
 50
51.94867448061305
 51
116.3656725032109
  0
LINE
  5
258
330
2
100
AcDbEntity
  8
CEN
 48
0.6
100
AcDbLine
 10
17.31081928479397
 20
296.2700124884077
 30
0.0
 11
115.8173717135832
 21
296.2700124884077
 31
0.0
  0
ARC
  5
259
330
2
100
AcDbEntity
  8
0
 48
0.6
100
AcDbCircle
 10
66.48863118501686
 20
296.2700124884077
 30
0.0
 40
36.81561599999999
100
AcDbArc
 50
116.3656725032109
 51
153.634327496783
  0
ARC
  5
25A
330
2
100
AcDbEntity
  8
0
 48
0.6
100
AcDbCircle
 10
36.25148126893327
 20
311.2572907765106
 30
0.0
 40
3.067967999999998
100
AcDbArc
 50
153.634327496783
 51
218.0513255193776
  0
ARC
  5
25B
330
2
100
AcDbEntity
  8
0
 48
0.6
100
AcDbCircle
 10
31.41968368172456
 20
307.4753015284695
 30
0.0
 40
3.067967999999998
100
AcDbArc
 50
342.2801918472014
 51
38.05132551937779
  0
ARC
  5
25C
330
2
100
AcDbEntity
  8
0
 48
0.6
100
AcDbCircle
 10
66.48863118501686
 20
296.2700124884077
 30
0.0
 40
33.74764799999999
100
AcDbArc
 50
72.28019184719491
 51
107.719808152805
  0
ARC
  5
25D
330
2
100
AcDbEntity
  8
0
 48
0.6
100
AcDbCircle
 10
55.28334214494316
 20
331.3389599916918
 30
0.0
 40
3.067967999999998
100
AcDbArc
 50
231.948674480613
 51
287.7198081528051
  0
ARC
  5
25E
330
2
100
AcDbEntity
  8
0
 48
0.6
100
AcDbCircle
 10
77.69392022507236
 20
331.3389599916918
 30
0.0
 40
3.067967999999998
100
AcDbArc
 50
252.2801918471949
 51
308.0513255193868
  0
ARC
  5
25F
330
2
100
AcDbEntity
  8
0
 48
0.6
100
AcDbCircle
 10
66.48863118501686
 20
296.2700124884077
 30
0.0
 40
36.81561599999999
100
AcDbArc
 50
26.36567250321681
 51
63.63432749678904
  0
ARC
  5
260
330
2
100
AcDbEntity
  8
0
 48
0.6
100
AcDbCircle
 10
96.72578110107497
 20
311.2572907765106
 30
0.0
 40
3.067967999999998
100
AcDbArc
 50
321.9486744806221
 51
26.36567250321681
  0
ARC
  5
261
330
2
100
AcDbEntity
  8
0
 48
0.6
100
AcDbCircle
 10
101.5575786882946
 20
307.4753015284695
 30
0.0
 40
3.067967999999998
100
AcDbArc
 50
141.9486744806222
 51
197.7198081527984
  0
LWPOLYLINE
  5
262
330
2
100
AcDbEntity
  8
3
100
AcDbPolyline
 90
        4
 70
     1
 43
0.0
 10
60.2686002550654
 20
358.1483966584755
 10
63.56860025505375
 20
358.1483966584755
 10
63.56860025505375
 20
361.6483966584755
 10
60.2686002550654
 20
361.6483966584755
  0
CIRCLE
  5
263
330
2
100
AcDbEntity
  8
0
 48
0.6
100
AcDbCircle
 10
66.56409549919408
 20
296.2700124884077
 30
0.0
 40
4.244956963364869
  0
LINE
  5
264
330
2
100
AcDbEntity
  8
2
 48
0.6
100
AcDbLine
 10
172.320232741833
 20
299.8686425920923
 30
0.0
 11
159.320232741833
 21
293.3012832800595
 31
0.0
  0
LINE
  5
265
330
2
100
AcDbEntity
  8
2
 48
0.6
100
AcDbLine
 10
172.320232741833
 20
297.7249123727588
 30
0.0
 11
160.4176849047326
 21
291.5200124884058
 31
0.0
  0
LINE
  5
266
330
2
100
AcDbEntity
  8
0
 48
0.6
100
AcDbLine
 10
159.320232741833
 20
291.5200124884058
 30
0.0
 11
172.320232741833
 21
291.5200124884058
 31
0.0
  0
LINE
  5
267
330
2
100
AcDbEntity
  8
CEN
 48
0.6
100
AcDbLine
 10
156.7594008201958
 20
301.4095124884088
 30
0.0
 11
180.320232741833
 21
301.4095124884088
 31
0.0
  0
LINE
  5
268
330
2
100
AcDbEntity
  8
0
 48
0.6
100
AcDbLine
 10
166.3202327418257
 20
301.9200124884082
 30
0.0
 11
177.3202327418257
 21
301.9200124884082
 31
0.0
  0
LINE
  5
269
330
2
100
AcDbEntity
  8
0
 48
0.6
100
AcDbLine
 10
159.320232741833
 20
301.0200124884058
 30
0.0
 11
172.320232741833
 21
301.0200124884058
 31
0.0
  0
LINE
  5
26A
330
2
100
AcDbEntity
  8
0
 48
0.6
100
AcDbLine
 10
159.320232741833
 20
301.9200124884082
 30
0.0
 11
177.3202327418257
 21
301.9200124884082
 31
0.0
  0
LINE
  5
26B
330
2
100
AcDbEntity
  8
2
 48
0.6
100
AcDbLine
 10
172.320232741833
 20
298.8901018654187
 30
0.0
 11
159.320232741833
 21
292.0100111575766
 31
0.0
  0
LINE
  5
26C
330
2
100
AcDbEntity
  8
CEN
 48
0.6
100
AcDbLine
 10
307.5317407331458
 20
296.2700124884077
 30
0.0
 11
155.1757603014229
 21
296.2700124884077
 31
0.0
  0
LINE
  5
26D
330
2
100
AcDbEntity
  8
0
 48
0.6
100
AcDbLine
 10
158.3202327418257
 20
300.9200124884082
 30
0.0
 11
158.3202327418257
 21
291.6200124884071
 31
0.0
  0
LINE
  5
26E
330
2
100
AcDbEntity
  8
0
 48
0.6
100
AcDbLine
 10
158.3202327418257
 20
300.9200124884082
 30
0.0
 11
159.320232741833
 21
301.9200124884082
 31
0.0
  0
LINE
  5
26F
330
2
100
AcDbEntity
  8
0
100
AcDbLine
 10
292.320232741833
 20
341.2700124884076
 30
0.0
 11
185.9202327418351
 21
341.2700124884076
 31
0.0
  0
ARC
  5
270
330
2
100
AcDbEntity
  8
0
 48
0.6
100
AcDbCircle
 10
172.3634196526654
 20
327.8362433774272
 30
0.0
 40
26.81626566475105
100
AcDbArc
 50
269.9077265708258
 51
280.6520097392901
  0
LINE
  5
271
330
2
100
AcDbEntity
  8
0
 48
0.6
100
AcDbLine
 10
179.3202327418257
 20
299.0900124884065
 30
0.0
 11
179.3202327418257
 21
293.450012488407
 31
0.0
  0
LINE
  5
272
330
2
100
AcDbEntity
  8
0
 48
0.6
100
AcDbLine
 10
179.3202327418257
 20
299.0900124884065
 30
0.0
 11
179.3202327418257
 21
293.450012488407
 31
0.0
  0
LINE
  5
273
330
2
100
AcDbEntity
  8
2
 48
0.6
100
AcDbLine
 10
172.320232741833
 20
301.0200124884058
 30
0.0
 11
172.320232741833
 21
291.5200124884058
 31
0.0
  0
LINE
  5
274
330
2
100
AcDbEntity
  8
0
100
AcDbLine
 10
179.3202327418257
 20
341.2700124884076
 30
0.0
 11
185.9202327418351
 21
341.2700124884076
 31
0.0
  0
LINE
  5
275
330
2
100
AcDbEntity
  8
0
100
AcDbLine
 10
179.3202327418257
 20
337.7700124884077
 30
0.0
 11
177.3202327418257
 21
337.7700124884077
 31
0.0
  0
LINE
  5
276
102
{ACAD_REACTORS
330
2AF
102
}
330
2
100
AcDbEntity
  8
0
100
AcDbLine
 10
185.9202327418351
 20
339.8687498299377
 30
0.0
 11
186.8202327418257
 21
339.8687498299377
 31
0.0
  0
LINE
  5
277
330
2
100
AcDbEntity
  8
0
100
AcDbLine
 10
185.9202327418351
 20
332.168749829937
 30
0.0
 11
186.8202327418257
 21
332.168749829937
 31
0.0
  0
LINE
  5
278
330
2
100
AcDbEntity
  8
0
100
AcDbLine
 10
186.8202327418257
 20
332.168749829937
 30
0.0
 11
186.8202327418257
 21
339.8687498299377
 31
0.0
  0
LINE
  5
279
330
2
100
AcDbEntity
  8
0
100
AcDbLine
 10
299.3202327418257
 20
334.2700124884077
 30
0.0
 11
299.3202327418257
 21
323.6739370901677
 31
0.0
  0
LINE
  5
27A
330
2
100
AcDbEntity
  8
0
100
AcDbLine
 10
274.3202327418257
 20
316.6739370901659
 30
0.0
 11
292.320232741833
 21
316.6739370901659
 31
0.0
  0
ARC
  5
27B
330
2
100
AcDbEntity
  8
0
100
AcDbCircle
 10
292.320232741833
 20
334.2700124884077
 30
0.0
 40
7.0
100
AcDbArc
 50
359.9999999999998
 51
90.0000000000001
  0
ARC
  5
27C
330
2
100
AcDbEntity
  8
0
100
AcDbCircle
 10
292.320232741833
 20
323.6739370901677
 30
0.0
 40
7.0
100
AcDbArc
 50
270.0
 51
359.9999999999998
  0
ARC
  5
27D
330
2
100
AcDbEntity
  8
0
100
AcDbCircle
 10
292.320232741833
 20
309.6739370901659
 30
0.0
 40
7.0
100
AcDbArc
 50
359.9999999999998
 51
90.0
  0
CIRCLE
  5
27E
330
2
100
AcDbEntity
  8
0
100
AcDbCircle
 10
280.6150779345734
 20
296.2700124884077
 30
0.0
 40
2.147836038934201
  0
LINE
  5
27F
330
2
100
AcDbEntity
  8
0
100
AcDbLine
 10
279.7600549228736
 20
297.1250355001129
 30
0.0
 11
281.4664621501942
 21
295.4186282727869
 31
0.0
  0
LINE
  5
280
330
2
100
AcDbEntity
  8
0
100
AcDbLine
 10
281.4701009462805
 20
297.1250355001129
 30
0.0
 11
279.7636937189563
 21
295.4186282727869
 31
0.0
  0
ARC
  5
281
330
2
100
AcDbEntity
  8
0
100
AcDbCircle
 10
279.0978493686052
 20
342.1589478740534
 30
0.0
 40
1.0
100
AcDbArc
 50
89.99999999999991
 51
179.9999999999998
  0
ARC
  5
282
330
2
100
AcDbEntity
  8
0
100
AcDbCircle
 10
281.5311688411238
 20
342.1589478740534
 30
0.0
 40
1.0
100
AcDbArc
 50
359.9999999999998
 51
90.00000000000005
  0
LINE
  5
283
330
2
100
AcDbEntity
  8
0
100
AcDbLine
 10
278.0978493686052
 20
341.2700124884076
 30
0.0
 11
278.0978493686052
 21
342.1589478740534
 31
0.0
  0
LINE
  5
284
330
2
100
AcDbEntity
  8
0
100
AcDbLine
 10
282.5311688411238
 20
342.1589478740534
 30
0.0
 11
282.5311688411238
 21
341.2700124884076
 31
0.0
  0
LINE
  5
285
330
2
100
AcDbEntity
  8
0
100
AcDbLine
 10
279.0978493686052
 20
343.1589478740534
 30
0.0
 11
281.5311688411238
 21
343.1589478740534
 31
0.0
  0
DIMENSION
  5
286
330
2
100
AcDbEntity
  8
0
100
AcDbDimension
  2
*D35
 10
111.564095499194
 20
357.4577274975163
 30
0.0
 11
66.56409549919408
 21
357.4577274975163
 31
0.0
 70
   160
  3
STANDARD
100
AcDbAlignedDimension
 13
21.56409549918316
 23
336.2272187296102
 33
0.0
 14
111.564095499194
 24
336.2272187296102
 34
0.0
100
AcDbRotatedDimension
  0
DIMENSION
  5
293
330
2
100
AcDbEntity
  8
0
100
AcDbDimension
  2
*D39
 10
299.3202327418257
 20
373.585629128589
 30
0.0
 11
239.320232741833
 21
373.585629128589
 31
0.0
 70
   160
  3
STANDARD
100
AcDbAlignedDimension
 13
179.3202327418257
 23
356.3700124884071
 33
0.0
 14
299.3202327418257
 24
333.7700124884077
 34
0.0
100
AcDbRotatedDimension
  0
DIMENSION
  5
2A0
330
2
100
AcDbEntity
  8
0
100
AcDbDimension
  2
*D38
 10
179.3202327418257
 20
373.585629128589
 30
0.0
 11
168.820232741833
 21
373.585629128589
 31
0.0
 70
   160
  3
STANDARD
100
AcDbAlignedDimension
 13
158.3202327418257
 23
300.9200124884073
 33
0.0
 14
179.3202327418257
 24
341.2700124884076
 34
0.0
100
AcDbRotatedDimension
  0
DIMENSION
  5
2AD
102
{ACAD_XDICTIONARY
360
2AE
102
}
102
{ACAD_REACTORS
330
2AF
102
}
330
2
100
AcDbEntity
  8
0
100
AcDbDimension
  2
*D37
 10
186.8202327418257
 20
362.5112074241497
 30
0.0
 11
183.0702327418257
 21
362.5112074241497
 31
0.0
 70
   160
  3
STANDARD
100
AcDbAlignedDimension
 13
179.3202327418257
 23
340.4783458217416
 33
0.0
 14
186.8202327418257
 24
339.8687498299377
 34
0.0
100
AcDbRotatedDimension
  0
DIMENSION
  5
2BC
330
2
100
AcDbEntity
  8
0
100
AcDbDimension
  2
*D36
 10
179.3202327418257
 20
352.8709974028033
 30
0.0
 11
170.3202327418257
 21
352.8709974028033
 31
0.0
 70
   160
  3
STANDARD
100
AcDbAlignedDimension
 13
177.3202327418257
 23
337.7700124884077
 33
0.0
 14
179.3202327418257
 24
341.2700124884076
 34
0.0
100
AcDbRotatedDimension
  0
ARC
  5
2CB
330
2
100
AcDbEntity
  8
0
 48
0.6
100
AcDbCircle
 10
81.62683810147427
 20
326.5071624044767
 30
0.0
 40
3.067967999999998
100
AcDbArc
 50
63.63432749678904
 51
128.0513255193868
  0
CIRCLE
  5
2CC
330
2
100
AcDbEntity
  8
0
 48
0.6
100
AcDbCircle
 10
44.91795940691372
 20
81.47123013133295
 30
0.0
 40
43.5
  0
CIRCLE
  5
2CD
330
2
100
AcDbEntity
  8
0
 48
0.6
100
AcDbCircle
 10
44.91795940691372
 20
81.47123013133295
 30
0.0
 40
42.00000000000005
  0
INSERT
  5
2CE
330
2
100
AcDbEntity
  8
0
100
AcDbBlockReference
  2
4
 10
44.91795940691372
 20
81.47123013133295
 30
0.0
  0
LINE
  5
2CF
330
2
100
AcDbEntity
  8
CL
 48
0.6
100
AcDbLine
 10
-4.335316807493654
 20
81.47123013133295
 30
0.0
 11
94.1712356213029
 21
81.47123013133295
 31
0.0
  0
DIMENSION
  5
2D0
330
2
100
AcDbEntity
  8
0
100
AcDbDimension
  2
*D31
 10
89.91795940690645
 20
139.0736627741889
 30
0.0
 11
44.91795940691372
 21
139.0736627741889
 31
0.0
 70
   160
  3
STANDARD
100
AcDbAlignedDimension
 13
-0.0820405930862762
 23
121.4284363725364
 33
0.0
 14
89.91795940690645
 24
121.4284363725364
 34
0.0
100
AcDbRotatedDimension
  0
ENDSEC
  0
SECTION
  2
OBJECTS
  0
DICTIONARY
  5
8
330
0
100
AcDbDictionary
  3
ACAD_GROUP
350
97
  3
ACAD_LAYOUT
350
C
  3
ACAD_MLINESTYLE
350
98
  3
ACAD_PLOTSETTINGS
350
99
  3
ACAD_PLOTSTYLENAME
350
7
  3
ACDBHEADERROUNDTRIPXREC
350
3D2
  3
ACDBVARIABLEDICTIONARY
350
2DD
  0
DICTIONARY
  5
13
330
12
100
AcDbDictionary
280
     1
  3
ACAD_LAYERFILTERS
360
14
  3
ACAD_LAYERSTATES
360
87
  0
DICTIONARY
  5
3
330
2
100
AcDbDictionary
280
     1
  3
ACAD_LAYOUTSELFREF
360
3F3
  0
DICTIONARY
  5
E
330
D
100
AcDbDictionary
280
     1
  3
ACAD_LAYOUTSELFREF
360
3F4
  0
DICTIONARY
  5
103
330
102
100
AcDbDictionary
280
     1
  3
ACAD_DIMASSOC
360
104
  0
DICTIONARY
  5
A0
330
9F
100
AcDbDictionary
280
     1
  3
ACAD_DIMASSOC
360
A1
  0
DICTIONARY
  5
B8
330
B7
100
AcDbDictionary
280
     1
  3
ACAD_DIMASSOC
360
B9
  0
DICTIONARY
  5
DE
330
DD
100
AcDbDictionary
280
     1
  3
ACAD_DIMASSOC
360
DF
  0
DICTIONARY
  5
11D
330
11C
100
AcDbDictionary
280
     1
  3
ACAD_DIMASSOC
360
11E
  0
DICTIONARY
  5
12F
330
12E
100
AcDbDictionary
280
     1
  3
ACAD_DIMASSOC
360
130
  0
DICTIONARY
  5
13E
330
13D
100
AcDbDictionary
280
     1
  3
ACAD_DIMASSOC
360
13F
  0
DICTIONARY
  5
152
330
151
100
AcDbDictionary
280
     1
  3
ACAD_DIMASSOC
360
153
  0
DICTIONARY
  5
18C
330
18B
100
AcDbDictionary
280
     1
  3
ACAD_DIMASSOC
360
18D
  0
DICTIONARY
  5
19B
330
19A
100
AcDbDictionary
280
     1
  3
ACAD_DIMASSOC
360
19C
  0
DICTIONARY
  5
1F7
330
1F6
100
AcDbDictionary
280
     1
  3
ACAD_DIMASSOC
360
1F8
  0
DICTIONARY
  5
2AE
330
2AD
100
AcDbDictionary
280
     1
  3
ACAD_DIMASSOC
360
2AF
  0
DICTIONARY
  5
97
102
{ACAD_REACTORS
330
8
102
}
330
8
100
AcDbDictionary
  0
DICTIONARY
  5
C
102
{ACAD_REACTORS
330
8
102
}
330
8
100
AcDbDictionary
  0
DICTIONARY
  5
98
102
{ACAD_REACTORS
330
8
102
}
330
8
100
AcDbDictionary
  3
STANDARD
350
9A
  0
DICTIONARY
  5
99
102
{ACAD_REACTORS
330
8
102
}
330
8
100
AcDbDictionary
  0
ACDBDICTIONARYWDFLT
  5
7
102
{ACAD_REACTORS
330
8
102
}
330
8
100
AcDbDictionary
281
     1
  3
Normal
350
6
100
AcDbDictionaryWithDefault
340
6
  0
DICTIONARY
  5
3D2
102
{ACAD_REACTORS
330
8
102
}
330
8
100
AcDbDictionary
  3
CEPSNTYPE
350
3DC
  3
DIMSTYLEDATA
350
3E0
  3
FINGERPRINTGUID
350
3DD
  3
HYPERLINKBASE
350
3D5
  3
INSUNITS
350
3DB
  3
LAYOUTDICT
350
3D7
  3
LWETCUNION
350
3DA
  3
PLOTSETDICT
350
3D8
  3
PLOTSTYLNAMDICT
350
3D9
  3
PSVPSCALE
350
3DF
  3
PUCSBASE
350
3E3
  3
PUCSORGBACK
350
3E9
  3
PUCSORGBOTTOM
350
3E5
  3
PUCSORGFRONT
350
3E8
  3
PUCSORGLEFT
350
3E6
  3
PUCSORGRIGHT
350
3E7
  3
PUCSORGTOP
350
3E4
  3
PUCSORTHOREF
350
3E1
  3
PUCSORTHOVIEW
350
3E2
  3
STYLESHEET
350
3D6
  3
TSTACKALIGN
350
3D3
  3
TSTACKSIZE
350
3D4
  3
UCSBASE
350
3EC
  3
UCSORGBACK
350
3F2
  3
UCSORGBOTTOM
350
3EE
  3
UCSORGFRONT
350
3F1
  3
UCSORGLEFT
350
3EF
  3
UCSORGRIGHT
350
3F0
  3
UCSORGTOP
350
3ED
  3
UCSORTHOREF
350
3EA
  3
UCSORTHOVIEW
350
3EB
  3
VERSIONGUID
350
3DE
  0
DICTIONARY
  5
2DD
102
{ACAD_REACTORS
330
8
102
}
330
8
100
AcDbDictionary
  3
DIMASSOC
350
2DF
  3
HIDETEXT
350
2DE
  0
DICTIONARY
  5
14
102
{ACAD_REACTORS
330
13
102
}
330
13
100
AcDbDictionary
280
     1
  3
$LAYERS
360
15
  3
-_UND_0
360
16
  3
-PEGC
360
17
  3
101
360
18
  3
102
360
19
  3
1DUC
360
1A
  3
1EQ
360
1B
  3
1TUB
360
1C
  3
2
360
1D
  3
2000
360
1E
  3
50
360
1F
  3
58J
360
20
  3
65
360
21
  3
AA
360
22
  3
ACABADOS
360
23
  3
AGUA_Y_DREN
360
24
  3
AIRE
360
25
  3
ALLE_AUS
360
26
  3
ALLES_MIT_S
360
27
  3
AMARILLO
360
28
  3
APAGADOS
360
29
  3
ARR
360
2A
  3
BA
360
2B
  3
BACKS
360
2C
  3
BASE
360
2D
  3
BLOQ_INUTIL
360
2E
  3
CADKON
360
2F
  3
CARPINTERIA
360
30
  3
CERRADOS
360
31
  3
COL
360
32
  3
COLOR
360
33
  3
COLOR_250
360
34
  3
COLORES
360
35
  3
CONGELADOS
360
36
  3
CONJUNTO
360
37
  3
D1
360
38
  3
DA_
360
39
  3
DET-
360
3A
  3
DOR-H
360
3B
  3
EJES
360
3C
  3
ELECTRICO
360
3D
  3
F1
360
3E
  3
FROZEN
360
3F
  3
GRID
360
40
  3
GRIDTXT
360
41
  3
HATCH
360
42
  3
HCAD
360
43
  3
INSTALACIONES
360
44
  3
JIZNI
360
45
  3
KCK
360
46
  3
KKK
360
47
  3
LAY
360
48
  3
LAYER-0
360
4C
  3
LAYER-1
360
4D
  3
LAYER_1_UND_0
360
49
  3
LAYER_2_UND_0
360
4A
  3
LAYER_9_UND_0_SCHRAFFUR
360
4B
  3
LOCK
360
4E
  3
LOCKED
360
4F
  3
LOTES
360
50
  3
LUNAR
360
51
  3
LUNAR2
360
52
  3
M
360
53
  3
MIS_LAYERS
360
54
  3
MRKCK
360
55
  3
NECADKON
360
56
  3
NI_LH
360
57
  3
NI_RH
360
58
  3
NUM
360
59
  3
OFF
360
5A
  3
ON
360
5B
  3
PBASE
360
5C
  3
PEGC
360
5D
  3
PEGCT
360
5E
  3
PFRAME
360
5F
  3
PGRID
360
60
  3
PGRIDT
360
61
  3
PLAFONES
360
62
  3
PLANTAS
360
63
  3
PLOT
360
64
  3
PRENDIDAS
360
65
  3
PRENDIDOS
360
66
  3
PRINT
360
67
  3
PT
360
68
  3
PTH
360
69
  3
PVGRID
360
6A
  3
RED_DE_AGUA_POTABLE
360
6B
  3
RED_DE_ENERGIA_ELECTRICA
360
6C
  3
SEVERNI
360
6D
  3
SHIN
360
6E
  3
SHOW_ALL_LAYER
360
6F
  3
SIN
360
70
  3
STORAGE-CART
360
71
  3
T
360
72
  3
TEXTOS
360
73
  3
TEXTURAS
360
74
  3
TUBERIAS
360
75
  3
UNFRZ
360
76
  3
V\U+0160ECHNY_NEPOU\U+017D\U+00CDVAN\U+00C9
360
77
  3
VA
360
78
  3
VENTILACI\U+00D3N
360
79
  3
VYHODNI
360
7A
  3
YO
360
7B
  3
ZAPADNI
360
7C
  3
사용
360
7D
  3
신규
360
7E
  3
실박스
360
7F
  3
우리토목
360
80
  3
주차
360
81
  3
지상정밀
360
82
  3
쩜선
360
83
  3
플로터_작업층
360
84
  3
현재_작업층
360
85
  3
현재_잠금
360
86
  0
DICTIONARY
  5
87
102
{ACAD_REACTORS
330
13
102
}
330
13
100
AcDbDictionary
  0
XRECORD
  5
3F3
102
{ACAD_REACTORS
330
3
102
}
330
3
100
AcDbXrecord
340
2
  0
XRECORD
  5
3F4
102
{ACAD_REACTORS
330
E
102
}
330
E
100
AcDbXrecord
340
D
  0
DIMASSOC
  5
104
102
{ACAD_REACTORS
330
103
102
}
330
103
100
AcDbDimAssoc
330
102
 90
        2
 70
     0
 71
     0
  1
AcDbOsnapPointRef
 72
     3
331
101
 73
     2
 91
        0
 40
0.0
 10
0.0
 20
0.0
 30
0.0
 75
     0
  0
DIMASSOC
  5
A1
102
{ACAD_REACTORS
330
A0
102
}
330
A0
100
AcDbDimAssoc
330
9F
 90
        3
 70
     0
 71
     0
  1
AcDbOsnapPointRef
 72
    13
331
F9
 73
     2
 91
        0
 40
0.0
 10
66.56409549919408
 20
296.2700124884077
 30
0.0
 75
     0
  1
AcDbOsnapPointRef
 72
     1
331
F9
 73
     2
 91
        0
 40
1.0
 10
85.19932330209485
 20
251.2700124884759
 30
0.0
 75
     0
  0
DIMASSOC
  5
B9
102
{ACAD_REACTORS
330
B8
102
}
330
B8
100
AcDbDimAssoc
330
B7
 90
        3
 70
     0
 71
     0
  1
AcDbOsnapPointRef
 72
    13
331
1D9
 73
     2
 91
        0
 40
0.0
 10
44.91795940691372
 20
81.47123013133295
 30
0.0
 75
     0
  1
AcDbOsnapPointRef
 72
     1
331
1D9
 73
     2
 91
        0
 40
1.0
 10
63.5531872098145
 20
36.4712301314039
 30
0.0
 75
     0
  0
DIMASSOC
  5
DF
102
{ACAD_REACTORS
330
DE
102
}
330
DE
100
AcDbDimAssoc
330
DD
 90
        3
 70
     0
 71
     0
  1
AcDbOsnapPointRef
 72
    13
331
D6
 73
     2
 91
        0
 40
0.0
 10
177.3202327418257
 20
337.7700124884077
 30
0.0
 75
     0
  1
AcDbOsnapPointRef
 72
     1
331
D6
 73
     2
 91
        0
 40
1.0
 10
177.3202327418257
 20
254.7700124884058
 30
0.0
 75
     0
  0
DIMASSOC
  5
11E
102
{ACAD_REACTORS
330
11D
102
}
330
11D
100
AcDbDimAssoc
330
11C
 90
        3
 70
     0
 71
     0
  1
AcDbOsnapPointRef
 72
    13
331
205
 73
     2
 91
        0
 40
0.0
 10
314.7197969608969
 20
126.4712301313347
 30
0.0
 75
     0
  1
AcDbOsnapPointRef
 72
    13
331
1D4
 73
     2
 91
        0
 40
0.0
 10
314.7197969608969
 20
36.47123013133477
 30
0.0
 75
     0
  0
DIMASSOC
  5
130
102
{ACAD_REACTORS
330
12F
102
}
330
12F
100
AcDbDimAssoc
330
12E
 90
        3
 70
     0
 71
     0
  1
AcDbOsnapPointRef
 72
     1
331
188
 73
     2
 91
        0
 40
1.0
 10
164.7197969608969
 20
86.47123013133478
 30
0.0
 75
     0
  1
AcDbOsnapPointRef
 72
     1
331
187
 73
     2
 91
        0
 40
1.0
 10
194.7197969608969
 20
87.47123013133295
 30
0.0
 75
     0
  0
DIMASSOC
  5
13F
102
{ACAD_REACTORS
330
13E
102
}
330
13E
100
AcDbDimAssoc
330
13D
 90
        1
 70
     0
 71
     0
  1
AcDbOsnapPointRef
 72
     1
331
188
 73
     2
 91
        0
 40
1.0
 10
164.7197969608969
 20
86.47123013133478
 30
0.0
 75
     0
  0
DIMASSOC
  5
153
102
{ACAD_REACTORS
330
152
102
}
330
152
100
AcDbDimAssoc
330
151
 90
        3
 70
     0
 71
     0
  1
AcDbOsnapPointRef
 72
    13
331
150
 73
     2
 91
        0
 40
0.0
 10
199.7197969608969
 20
122.9712301313329
 30
0.0
 75
     0
  1
AcDbOsnapPointRef
 72
     1
331
150
 73
     2
 91
        0
 40
1.0
 10
199.7197969608969
 20
39.97123013133295
 30
0.0
 75
     0
  0
DIMASSOC
  5
18D
102
{ACAD_REACTORS
330
18C
102
}
330
18C
100
AcDbDimAssoc
330
18B
 90
        3
 70
     0
 71
     0
  1
AcDbOsnapPointRef
 72
     1
331
186
 73
     2
 91
        0
 40
1.0
 10
164.7197969608969
 20
75.47123013133478
 30
0.0
 75
     0
  1
AcDbOsnapPointRef
 72
     1
331
188
 73
     2
 91
        0
 40
1.0
 10
164.7197969608969
 20
86.47123013133478
 30
0.0
 75
     0
  0
DIMASSOC
  5
19C
102
{ACAD_REACTORS
330
19B
102
}
330
19B
100
AcDbDimAssoc
330
19A
 90
        3
 70
     0
 71
     0
  1
AcDbOsnapPointRef
 72
     1
331
186
 73
     2
 91
        0
 40
1.0
 10
164.7197969608969
 20
75.47123013133478
 30
0.0
 75
     0
  1
AcDbOsnapPointRef
 72
     1
331
187
 73
     2
 91
        0
 40
1.0
 10
194.7197969608969
 20
87.47123013133295
 30
0.0
 75
     0
  0
DIMASSOC
  5
1F8
102
{ACAD_REACTORS
330
1F7
102
}
330
1F7
100
AcDbDimAssoc
330
1F6
 90
        2
 70
     0
 71
     0
  1
AcDbOsnapPointRef
 72
     1
331
1E4
 73
     2
 91
        0
 40
1.0
 10
209.2197969608969
 20
125.0699674728621
 30
0.0
 75
     0
  0
DIMASSOC
  5
2AF
102
{ACAD_REACTORS
330
2AE
102
}
330
2AE
100
AcDbDimAssoc
330
2AD
 90
        2
 70
     0
 71
     0
  1
AcDbOsnapPointRef
 72
     1
331
276
 73
     2
 91
        0
 40
1.0
 10
186.8202327418257
 20
339.8687498299377
 30
0.0
 75
     0
  0
MLINESTYLE
  5
9A
102
{ACAD_REACTORS
330
98
102
}
330
98
100
AcDbMlineStyle
  2
STANDARD
 70
     0
  3

 62
   256
 51
90.0
 52
90.0
 71
     2
 49
0.5
 62
   256
  6
BYLAYER
 49
-0.5
 62
   256
  6
BYLAYER
  0
ACDBPLACEHOLDER
  5
6
102
{ACAD_REACTORS
330
7
102
}
330
7
100
AcDbPlaceHolder
280
     0
  0
XRECORD
  5
3DC
102
{ACAD_REACTORS
330
3D2
102
}
330
3D2
100
AcDbXrecord
 90
        0
  0
XRECORD
  5
3E0
102
{ACAD_REACTORS
330
3D2
102
}
330
3D2
100
AcDbXrecord
1000
DSTYLE
1002
{
1070
    79
 70
     2
1070
   179
 70
     1
1070
   289
 70
     0
1002
}
  0
XRECORD
  5
3DD
102
{ACAD_REACTORS
330
3D2
102
}
330
3D2
100
AcDbXrecord
  1
{FDEAD578-A652-11D2-9A35-0060089B3A3F}
  0
XRECORD
  5
3D5
102
{ACAD_REACTORS
330
3D2
102
}
330
3D2
100
AcDbXrecord
  1

  0
XRECORD
  5
3DB
102
{ACAD_REACTORS
330
3D2
102
}
330
3D2
100
AcDbXrecord
 90
        4
  0
XRECORD
  5
3D7
102
{ACAD_REACTORS
330
3D2
102
}
330
3D2
100
AcDbXrecord
340
C
  0
XRECORD
  5
3DA
102
{ACAD_REACTORS
330
3D2
102
}
330
3D2
100
AcDbXrecord
 90
    10781
  0
XRECORD
  5
3D8
102
{ACAD_REACTORS
330
3D2
102
}
330
3D2
100
AcDbXrecord
340
99
  0
XRECORD
  5
3D9
102
{ACAD_REACTORS
330
3D2
102
}
330
3D2
100
AcDbXrecord
340
7
  0
XRECORD
  5
3DF
102
{ACAD_REACTORS
330
3D2
102
}
330
3D2
100
AcDbXrecord
 40
0.0
  0
XRECORD
  5
3E3
102
{ACAD_REACTORS
330
3D2
102
}
330
3D2
100
AcDbXrecord
340
0
  0
XRECORD
  5
3E9
102
{ACAD_REACTORS
330
3D2
102
}
330
3D2
100
AcDbXrecord
 10
0.0
 20
0.0
 30
0.0
  0
XRECORD
  5
3E5
102
{ACAD_REACTORS
330
3D2
102
}
330
3D2
100
AcDbXrecord
 10
0.0
 20
0.0
 30
0.0
  0
XRECORD
  5
3E8
102
{ACAD_REACTORS
330
3D2
102
}
330
3D2
100
AcDbXrecord
 10
0.0
 20
0.0
 30
0.0
  0
XRECORD
  5
3E6
102
{ACAD_REACTORS
330
3D2
102
}
330
3D2
100
AcDbXrecord
 10
0.0
 20
0.0
 30
0.0
  0
XRECORD
  5
3E7
102
{ACAD_REACTORS
330
3D2
102
}
330
3D2
100
AcDbXrecord
 10
0.0
 20
0.0
 30
0.0
  0
XRECORD
  5
3E4
102
{ACAD_REACTORS
330
3D2
102
}
330
3D2
100
AcDbXrecord
 10
0.0
 20
0.0
 30
0.0
  0
XRECORD
  5
3E1
102
{ACAD_REACTORS
330
3D2
102
}
330
3D2
100
AcDbXrecord
340
0
  0
XRECORD
  5
3E2
102
{ACAD_REACTORS
330
3D2
102
}
330
3D2
100
AcDbXrecord
 70
     0
  0
XRECORD
  5
3D6
102
{ACAD_REACTORS
330
3D2
102
}
330
3D2
100
AcDbXrecord
  1

  0
XRECORD
  5
3D3
102
{ACAD_REACTORS
330
3D2
102
}
330
3D2
100
AcDbXrecord
 90
        1
  0
XRECORD
  5
3D4
102
{ACAD_REACTORS
330
3D2
102
}
330
3D2
100
AcDbXrecord
 90
       70
  0
XRECORD
  5
3EC
102
{ACAD_REACTORS
330
3D2
102
}
330
3D2
100
AcDbXrecord
340
0
  0
XRECORD
  5
3F2
102
{ACAD_REACTORS
330
3D2
102
}
330
3D2
100
AcDbXrecord
 10
0.0
 20
0.0
 30
0.0
  0
XRECORD
  5
3EE
102
{ACAD_REACTORS
330
3D2
102
}
330
3D2
100
AcDbXrecord
 10
0.0
 20
0.0
 30
0.0
  0
XRECORD
  5
3F1
102
{ACAD_REACTORS
330
3D2
102
}
330
3D2
100
AcDbXrecord
 10
0.0
 20
0.0
 30
0.0
  0
XRECORD
  5
3EF
102
{ACAD_REACTORS
330
3D2
102
}
330
3D2
100
AcDbXrecord
 10
0.0
 20
0.0
 30
0.0
  0
XRECORD
  5
3F0
102
{ACAD_REACTORS
330
3D2
102
}
330
3D2
100
AcDbXrecord
 10
0.0
 20
0.0
 30
0.0
  0
XRECORD
  5
3ED
102
{ACAD_REACTORS
330
3D2
102
}
330
3D2
100
AcDbXrecord
 10
0.0
 20
0.0
 30
0.0
  0
XRECORD
  5
3EA
102
{ACAD_REACTORS
330
3D2
102
}
330
3D2
100
AcDbXrecord
340
0
  0
XRECORD
  5
3EB
102
{ACAD_REACTORS
330
3D2
102
}
330
3D2
100
AcDbXrecord
 70
     0
  0
XRECORD
  5
3DE
102
{ACAD_REACTORS
330
3D2
102
}
330
3D2
100
AcDbXrecord
  1
{892EA7B9-EC34-4BF8-BCF2-BCE736413275}
  0
DICTIONARYVAR
  5
2DF
102
{ACAD_REACTORS
330
2DD
102
}
330
2DD
100
DictionaryVariables
280
     0
  1
2
  0
DICTIONARYVAR
  5
2DE
102
{ACAD_REACTORS
330
2DD
102
}
330
2DD
100
DictionaryVariables
280
     0
  1
1
  0
XRECORD
  5
15
102
{ACAD_REACTORS
330
14
102
}
330
14
100
AcDbXrecord
  1
$layers
  1
*
  1
*
  1
*
 70
     0
  1
*
  1
*
  0
XRECORD
  5
16
102
{ACAD_REACTORS
330
14
102
}
330
14
100
AcDbXrecord
  1
- und 0
  1
-*,0
  1
*
  1
*
 70
     0
  1
*
  1
*
  0
XRECORD
  5
17
102
{ACAD_REACTORS
330
14
102
}
330
14
100
AcDbXrecord
  1
-pegc
  1
*-pegc
  1
*
  1
*
 70
     0
  1
*
  1
*
  0
XRECORD
  5
18
102
{ACAD_REACTORS
330
14
102
}
330
14
100
AcDbXrecord
  1
101
  1
*101
  1
*
  1
*
 70
   256
  1
*
  1
*
  0
XRECORD
  5
19
102
{ACAD_REACTORS
330
14
102
}
330
14
100
AcDbXrecord
  1
102
  1
102*
  1
*
  1
*
 70
     0
  1
*
  1
*
  0
XRECORD
  5
1A
102
{ACAD_REACTORS
330
14
102
}
330
14
100
AcDbXrecord
  1
1duc
  1
*1duc*
  1
*
  1
*
 70
     0
  1
*
  1
*
  0
XRECORD
  5
1B
102
{ACAD_REACTORS
330
14
102
}
330
14
100
AcDbXrecord
  1
1eq
  1
*1eq*
  1
*
  1
*
 70
     0
  1
*
  1
*
  0
XRECORD
  5
1C
102
{ACAD_REACTORS
330
14
102
}
330
14
100
AcDbXrecord
  1
1tub
  1
*1t*
  1
*
  1
*
 70
     0
  1
*
  1
*
  0
XRECORD
  5
1D
102
{ACAD_REACTORS
330
14
102
}
330
14
100
AcDbXrecord
  1
2
  1
*
  1
2
  1
*
 70
     0
  1
*
  1
*
  0
XRECORD
  5
1E
102
{ACAD_REACTORS
330
14
102
}
330
14
100
AcDbXrecord
  1
2000
  1
2000*
  1
*
  1
*
 70
     0
  1
*
  1
*
  0
XRECORD
  5
1F
102
{ACAD_REACTORS
330
14
102
}
330
14
100
AcDbXrecord
  1
50
  1
*-50
  1
*
  1
*
 70
     0
  1
*
  1
*
  0
XRECORD
  5
20
102
{ACAD_REACTORS
330
14
102
}
330
14
100
AcDbXrecord
  1
58J
  1
*58*
  1
*
  1
*
 70
     0
  1
*
  1
*
  0
XRECORD
  5
21
102
{ACAD_REACTORS
330
14
102
}
330
14
100
AcDbXrecord
  1
65
  1
*65
  1
*
  1
*
 70
     0
  1
*
  1
*
  0
XRECORD
  5
22
102
{ACAD_REACTORS
330
14
102
}
330
14
100
AcDbXrecord
  1
aa
  1
aa*
  1
*
  1
*
 70
     0
  1
*
  1
*
  0
XRECORD
  5
23
102
{ACAD_REACTORS
330
14
102
}
330
14
100
AcDbXrecord
  1
acabados
  1
a-*
  1
*
  1
*
 70
     5
  1
*
  1
*
  0
XRECORD
  5
24
102
{ACAD_REACTORS
330
14
102
}
330
14
100
AcDbXrecord
  1
AGUA Y DREN
  1
A-DS-*
  1
*
  1
*
 70
     0
  1
*
  1
*
  0
XRECORD
  5
25
102
{ACAD_REACTORS
330
14
102
}
330
14
100
AcDbXrecord
  1
Aire
  1
*
  1
*
  1
*
 70
     0
  1
*
  1
*
  0
XRECORD
  5
26
102
{ACAD_REACTORS
330
14
102
}
330
14
100
AcDbXrecord
  1
alle aus
  1
99999999999
  1
*
  1
*
 70
     0
  1
*
  1
*
  0
XRECORD
  5
27
102
{ACAD_REACTORS
330
14
102
}
330
14
100
AcDbXrecord
  1
Alles mit S
  1
s*
  1
*
  1
*
 70
     0
  1
*
  1
*
  0
XRECORD
  5
28
102
{ACAD_REACTORS
330
14
102
}
330
14
100
AcDbXrecord
  1
amarillo
  1
*
  1
yellow
  1
*
 70
     0
  1
*
  1
*
  0
XRECORD
  5
29
102
{ACAD_REACTORS
330
14
102
}
330
14
100
AcDbXrecord
  1
APAGADOS
  1
*
  1
*
  1
*
 70
     4
  1
*
  1
*
  0
XRECORD
  5
2A
102
{ACAD_REACTORS
330
14
102
}
330
14
100
AcDbXrecord
  1
ARR
  1
ARR*
  1
*
  1
*
 70
     0
  1
*
  1
*
  0
XRECORD
  5
2B
102
{ACAD_REACTORS
330
14
102
}
330
14
100
AcDbXrecord
  1
ba
  1
*
  1
*
  1
*
 70
     0
  1
*
  1
*
  0
XRECORD
  5
2C
102
{ACAD_REACTORS
330
14
102
}
330
14
100
AcDbXrecord
  1
BACKS
  1
*-H
  1
*
  1
*
 70
     0
  1
*
  1
*
  0
XRECORD
  5
2D
102
{ACAD_REACTORS
330
14
102
}
330
14
100
AcDbXrecord
  1
BASE
  1
*-PBASE
  1
*
  1
*
 70
     0
  1
*
  1
*
  0
XRECORD
  5
2E
102
{ACAD_REACTORS
330
14
102
}
330
14
100
AcDbXrecord
  1
BLOQ_INUTIL
  1
*
  1
*
  1
*
 70
     0
  1
*
  1
*
  0
XRECORD
  5
2F
102
{ACAD_REACTORS
330
14
102
}
330
14
100
AcDbXrecord
  1
CADKON
  1
?[KAHBSM]?????[23M],?[KAHBSM]?????[23M][1456A-DGHILN-SU-Z]
  1
*
  1
*
 70
     0
  1
*
  1
*
  0
XRECORD
  5
30
102
{ACAD_REACTORS
330
14
102
}
330
14
100
AcDbXrecord
  1
carpinteria
  1
carp*
  1
*
  1
*
 70
     0
  1
*
  1
*
  0
XRECORD
  5
31
102
{ACAD_REACTORS
330
14
102
}
330
14
100
AcDbXrecord
  1
cerrados
  1
*
  1
*
  1
*
 70
   256
  1
*
  1
*
  0
XRECORD
  5
32
102
{ACAD_REACTORS
330
14
102
}
330
14
100
AcDbXrecord
  1
COL
  1
*
  1
*
  1
*
 70
     1
  1
*
  1
*
  0
XRECORD
  5
33
102
{ACAD_REACTORS
330
14
102
}
330
14
100
AcDbXrecord
  1
COLOR
  1
*
  1
253
  1
*
 70
     0
  1
*
  1
*
  0
XRECORD
  5
34
102
{ACAD_REACTORS
330
14
102
}
330
14
100
AcDbXrecord
  1
color 250
  1
*
  1
250
  1
*
 70
     0
  1
*
  1
*
  0
XRECORD
  5
35
102
{ACAD_REACTORS
330
14
102
}
330
14
100
AcDbXrecord
  1
COLORES
  1
*
  1
6
  1
*
 70
     0
  1
*
  1
*
  0
XRECORD
  5
36
102
{ACAD_REACTORS
330
14
102
}
330
14
100
AcDbXrecord
  1
Congelados
  1
*
  1
*
  1
*
 70
     4
  1
*
  1
*
  0
XRECORD
  5
37
102
{ACAD_REACTORS
330
14
102
}
330
14
100
AcDbXrecord
  1
CONJUNTO
  1
CON-*
  1
*
  1
*
 70
     0
  1
*
  1
*
  0
XRECORD
  5
38
102
{ACAD_REACTORS
330
14
102
}
330
14
100
AcDbXrecord
  1
d1
  1
achurados
  1
*
  1
*
 70
     0
  1
*
  1
*
  0
XRECORD
  5
39
102
{ACAD_REACTORS
330
14
102
}
330
14
100
AcDbXrecord
  1
DA_
  1
DA*
  1
*
  1
*
 70
     0
  1
*
  1
*
  0
XRECORD
  5
3A
102
{ACAD_REACTORS
330
14
102
}
330
14
100
AcDbXrecord
  1
DET-
  1
*
  1
*
  1
*
 70
     0
  1
*
  1
*
  0
XRECORD
  5
3B
102
{ACAD_REACTORS
330
14
102
}
330
14
100
AcDbXrecord
  1
DOR-H
  1
*
  1
7
  1
*
 70
     0
  1
*
  1
*
  0
XRECORD
  5
3C
102
{ACAD_REACTORS
330
14
102
}
330
14
100
AcDbXrecord
  1
ejes
  1
eje*
  1
*
  1
*
 70
     0
  1
*
  1
*
  0
XRECORD
  5
3D
102
{ACAD_REACTORS
330
14
102
}
330
14
100
AcDbXrecord
  1
ELECTRICO
  1
ELEC-*
  1
*
  1
*
 70
     0
  1
*
  1
*
  0
XRECORD
  5
3E
102
{ACAD_REACTORS
330
14
102
}
330
14
100
AcDbXrecord
  1
F1
  1
Halaxref*
  1
*
  1
*
 70
     0
  1
*
  1
*
  0
XRECORD
  5
3F
102
{ACAD_REACTORS
330
14
102
}
330
14
100
AcDbXrecord
  1
frozen
  1
*
  1
*
  1
*
 70
     4
  1
*
  1
*
  0
XRECORD
  5
40
102
{ACAD_REACTORS
330
14
102
}
330
14
100
AcDbXrecord
  1
grid
  1
*-PGRID
  1
*
  1
*
 70
     1
  1
*
  1
*
  0
XRECORD
  5
41
102
{ACAD_REACTORS
330
14
102
}
330
14
100
AcDbXrecord
  1
GRIDTXT
  1
*-PGRIDT
  1
*
  1
*
 70
     0
  1
*
  1
*
  0
XRECORD
  5
42
102
{ACAD_REACTORS
330
14
102
}
330
14
100
AcDbXrecord
  1
HATCH
  1
HAT*
  1
*
  1
*
 70
     0
  1
*
  1
*
  0
XRECORD
  5
43
102
{ACAD_REACTORS
330
14
102
}
330
14
100
AcDbXrecord
  1
HCAD
  1
1HCAD-*
  1
*
  1
*
 70
    13
  1
*
  1
*
  0
XRECORD
  5
44
102
{ACAD_REACTORS
330
14
102
}
330
14
100
AcDbXrecord
  1
INSTALACIONES
  1
I-*
  1
*
  1
*
 70
     0
  1
*
  1
*
  0
XRECORD
  5
45
102
{ACAD_REACTORS
330
14
102
}
330
14
100
AcDbXrecord
  1
JIZNI
  1
*-J
  1
*
  1
*
 70
     0
  1
*
  1
*
  0
XRECORD
  5
46
102
{ACAD_REACTORS
330
14
102
}
330
14
100
AcDbXrecord
  1
kck
  1
*
  1
*
  1
*
 70
     0
  1
*
  1
*
  0
XRECORD
  5
47
102
{ACAD_REACTORS
330
14
102
}
330
14
100
AcDbXrecord
  1
kkk
  1
k
  1
*
  1
*
 70
     0
  1
*
  1
*
  0
XRECORD
  5
48
102
{ACAD_REACTORS
330
14
102
}
330
14
100
AcDbXrecord
  1
lay
  1
??-*
  1
*
  1
*
 70
     0
  1
*
  1
*
  0
XRECORD
  5
4C
102
{ACAD_REACTORS
330
14
102
}
330
14
100
AcDbXrecord
  1
Layer-0
  1
0*
  1
*
  1
*
 70
     0
  1
*
  1
*
  0
XRECORD
  5
4D
102
{ACAD_REACTORS
330
14
102
}
330
14
100
AcDbXrecord
  1
Layer-1
  1
1*
  1
*
  1
*
 70
     0
  1
*
  1
*
  0
XRECORD
  5
49
102
{ACAD_REACTORS
330
14
102
}
330
14
100
AcDbXrecord
  1
Layer 1 und 0
  1
1*,0
  1
*
  1
*
 70
     0
  1
*
  1
*
  0
XRECORD
  5
4A
102
{ACAD_REACTORS
330
14
102
}
330
14
100
AcDbXrecord
  1
Layer 2 und 0
  1
2*,0
  1
*
  1
*
 70
     0
  1
*
  1
*
  0
XRECORD
  5
4B
102
{ACAD_REACTORS
330
14
102
}
330
14
100
AcDbXrecord
  1
Layer 9 und 0 Schraffur
  1
9*,0
  1
*
  1
*
 70
     0
  1
*
  1
*
  0
XRECORD
  5
4E
102
{ACAD_REACTORS
330
14
102
}
330
14
100
AcDbXrecord
  1
LOCK
  1
*
  1
*
  1
*
 70
   256
  1
*
  1
*
  0
XRECORD
  5
4F
102
{ACAD_REACTORS
330
14
102
}
330
14
100
AcDbXrecord
  1
locked
  1
*
  1
*
  1
*
 70
   256
  1
*
  1
*
  0
XRECORD
  5
50
102
{ACAD_REACTORS
330
14
102
}
330
14
100
AcDbXrecord
  1
Lotes
  1
*
  1
*
  1
*
 70
     1
  1
*
  1
*
  0
XRECORD
  5
51
102
{ACAD_REACTORS
330
14
102
}
330
14
100
AcDbXrecord
  1
LUNAR
  1
*
  1
*
  1
*
 70
    48
  1
*
  1
*
  0
XRECORD
  5
52
102
{ACAD_REACTORS
330
14
102
}
330
14
100
AcDbXrecord
  1
LUNAR2
  1
*
  1
*
  1
*
 70
    12
  1
*
  1
*
  0
XRECORD
  5
53
102
{ACAD_REACTORS
330
14
102
}
330
14
100
AcDbXrecord
  1
M
  1
M*
  1
*
  1
*
 70
     0
  1
*
  1
*
  0
XRECORD
  5
54
102
{ACAD_REACTORS
330
14
102
}
330
14
100
AcDbXrecord
  1
mis_layers
  1
mis_*
  1
*
  1
*
 70
     0
  1
*
  1
*
  0
XRECORD
  5
55
102
{ACAD_REACTORS
330
14
102
}
330
14
100
AcDbXrecord
  1
MRKCK
  1
*
  1
*
  1
*
 70
     0
  1
*
  1
*
  0
XRECORD
  5
56
102
{ACAD_REACTORS
330
14
102
}
330
14
100
AcDbXrecord
  1
NECADKON
  1
~*?[KAHBSM]?????[23M]*
  1
*
  1
*
 70
     0
  1
*
  1
*
  0
XRECORD
  5
57
102
{ACAD_REACTORS
330
14
102
}
330
14
100
AcDbXrecord
  1
NI_LH
  1
NI_LH*
  1
*
  1
*
 70
     0
  1
*
  1
*
  0
XRECORD
  5
58
102
{ACAD_REACTORS
330
14
102
}
330
14
100
AcDbXrecord
  1
NI_RH
  1
NI_RH*
  1
*
  1
*
 70
     0
  1
*
  1
*
  0
XRECORD
  5
59
102
{ACAD_REACTORS
330
14
102
}
330
14
100
AcDbXrecord
  1
NUM
  1
NUM*
  1
*
  1
*
 70
     0
  1
*
  1
*
  0
XRECORD
  5
5A
102
{ACAD_REACTORS
330
14
102
}
330
14
100
AcDbXrecord
  1
off
  1
*
  1
*
  1
*
 70
     3
  1
*
  1
*
  0
XRECORD
  5
5B
102
{ACAD_REACTORS
330
14
102
}
330
14
100
AcDbXrecord
  1
on
  1
*
  1
*
  1
*
 70
     0
  1
*
  1
*
  0
XRECORD
  5
5C
102
{ACAD_REACTORS
330
14
102
}
330
14
100
AcDbXrecord
  1
PBASE
  1
*PBASE
  1
*
  1
*
 70
     0
  1
*
  1
*
  0
XRECORD
  5
5D
102
{ACAD_REACTORS
330
14
102
}
330
14
100
AcDbXrecord
  1
PEGC
  1
*PEGC
  1
*
  1
*
 70
     0
  1
*
  1
*
  0
XRECORD
  5
5E
102
{ACAD_REACTORS
330
14
102
}
330
14
100
AcDbXrecord
  1
PEGCT
  1
*PEGCT
  1
*
  1
*
 70
     0
  1
*
  1
*
  0
XRECORD
  5
5F
102
{ACAD_REACTORS
330
14
102
}
330
14
100
AcDbXrecord
  1
PFRAME
  1
PFRAME*
  1
*
  1
*
 70
     0
  1
*
  1
*
  0
XRECORD
  5
60
102
{ACAD_REACTORS
330
14
102
}
330
14
100
AcDbXrecord
  1
PGRID
  1
*PGRID
  1
*
  1
*
 70
     0
  1
*
  1
*
  0
XRECORD
  5
61
102
{ACAD_REACTORS
330
14
102
}
330
14
100
AcDbXrecord
  1
PGRIDT
  1
*PGRIDT
  1
*
  1
*
 70
     0
  1
*
  1
*
  0
XRECORD
  5
62
102
{ACAD_REACTORS
330
14
102
}
330
14
100
AcDbXrecord
  1
PLAFONES
  1
0-*
  1
*
  1
*
 70
     0
  1
*
  1
*
  0
XRECORD
  5
63
102
{ACAD_REACTORS
330
14
102
}
330
14
100
AcDbXrecord
  1
PLANTAS
  1
P-*
  1
*
  1
*
 70
     0
  1
*
  1
*
  0
XRECORD
  5
64
102
{ACAD_REACTORS
330
14
102
}
330
14
100
AcDbXrecord
  1
Plot
  1
*
  1
*
  1
*
 70
  1024
  1
*
  1
*
  0
XRECORD
  5
65
102
{ACAD_REACTORS
330
14
102
}
330
14
100
AcDbXrecord
  1
PRENDIDAS
  1
*
  1
*
  1
*
 70
    13
  1
*
  1
*
  0
XRECORD
  5
66
102
{ACAD_REACTORS
330
14
102
}
330
14
100
AcDbXrecord
  1
PRENDIDOS
  1
*
  1
*
  1
*
 70
    12
  1
*
  1
*
  0
XRECORD
  5
67
102
{ACAD_REACTORS
330
14
102
}
330
14
100
AcDbXrecord
  1
print
  1
*
  1
7
  1
*
 70
  1280
  1
*
  1
*
  0
XRECORD
  5
68
102
{ACAD_REACTORS
330
14
102
}
330
14
100
AcDbXrecord
  1
PT
  1
PT-*
  1
*
  1
*
 70
     0
  1
*
  1
*
  0
XRECORD
  5
69
102
{ACAD_REACTORS
330
14
102
}
330
14
100
AcDbXrecord
  1
PTH
  1
PTH*
  1
*
  1
*
 70
     0
  1
*
  1
*
  0
XRECORD
  5
6A
102
{ACAD_REACTORS
330
14
102
}
330
14
100
AcDbXrecord
  1
PVGRID
  1
*PVGRID
  1
*
  1
*
 70
     0
  1
*
  1
*
  0
XRECORD
  5
6B
102
{ACAD_REACTORS
330
14
102
}
330
14
100
AcDbXrecord
  1
Red de Agua Potable
  1
Red de Agua Potable
  1
*
  1
*
 70
     1
  1
*
  1
*
  0
XRECORD
  5
6C
102
{ACAD_REACTORS
330
14
102
}
330
14
100
AcDbXrecord
  1
Red de Energia Electrica
  1
Lotes
  1
*
  1
*
 70
     1
  1
*
  1
*
  0
XRECORD
  5
6D
102
{ACAD_REACTORS
330
14
102
}
330
14
100
AcDbXrecord
  1
SEVERNI
  1
*-S
  1
*
  1
*
 70
     0
  1
*
  1
*
  0
XRECORD
  5
6E
102
{ACAD_REACTORS
330
14
102
}
330
14
100
AcDbXrecord
  1
shin
  1
일*
  1
*
  1
*
 70
     0
  1
*
  1
*
  0
XRECORD
  5
6F
102
{ACAD_REACTORS
330
14
102
}
330
14
100
AcDbXrecord
  1
SHOW ALL LAYER
  1
*
  1
*
  1
*
 70
     0
  1
*
  1
*
  0
XRECORD
  5
70
102
{ACAD_REACTORS
330
14
102
}
330
14
100
AcDbXrecord
  1
sin
  1
sin
  1
*
  1
*
 70
     0
  1
*
  1
*
  0
XRECORD
  5
71
102
{ACAD_REACTORS
330
14
102
}
330
14
100
AcDbXrecord
  1
STORAGE-CART
  1
STORAGE-CART*
  1
*
  1
*
 70
     0
  1
*
  1
*
  0
XRECORD
  5
72
102
{ACAD_REACTORS
330
14
102
}
330
14
100
AcDbXrecord
  1
T
  1
T*
  1
*
  1
*
 70
     0
  1
*
  1
*
  0
XRECORD
  5
73
102
{ACAD_REACTORS
330
14
102
}
330
14
100
AcDbXrecord
  1
TEXTOS
  1
TXT*
  1
*
  1
*
 70
     0
  1
*
  1
*
  0
XRECORD
  5
74
102
{ACAD_REACTORS
330
14
102
}
330
14
100
AcDbXrecord
  1
TEXTURAS
  1
*TEXTURAS
  1
*
  1
*
 70
     0
  1
*
  1
*
  0
XRECORD
  5
75
102
{ACAD_REACTORS
330
14
102
}
330
14
100
AcDbXrecord
  1
TUBERIAS
  1
T*
  1
*
  1
*
 70
     0
  1
*
  1
*
  0
XRECORD
  5
76
102
{ACAD_REACTORS
330
14
102
}
330
14
100
AcDbXrecord
  1
UNFRZ
  1
*
  1
*
  1
*
 70
    12
  1
*
  1
*
  0
XRECORD
  5
77
102
{ACAD_REACTORS
330
14
102
}
330
14
100
AcDbXrecord
  1
v\U+0161echny nepou\U+017E\U+00EDvan\U+00E9
  1
*
  1
*
  1
*
 70
     0
  1
*
  1
*
  0
XRECORD
  5
78
102
{ACAD_REACTORS
330
14
102
}
330
14
100
AcDbXrecord
  1
VA
  1
VA*
  1
*
  1
*
 70
     0
  1
*
  1
*
  0
XRECORD
  5
79
102
{ACAD_REACTORS
330
14
102
}
330
14
100
AcDbXrecord
  1
Ventilaci\U+00F3n
  1
*
  1
*
  1
*
 70
     0
  1
*
  1
*
  0
XRECORD
  5
7A
102
{ACAD_REACTORS
330
14
102
}
330
14
100
AcDbXrecord
  1
VYHODNI
  1
*-V
  1
*
  1
*
 70
     0
  1
*
  1
*
  0
XRECORD
  5
7B
102
{ACAD_REACTORS
330
14
102
}
330
14
100
AcDbXrecord
  1
Yo
  1
Muros
  1
*
  1
*
 70
     0
  1
*
  1
*
  0
XRECORD
  5
7C
102
{ACAD_REACTORS
330
14
102
}
330
14
100
AcDbXrecord
  1
ZAPADNI
  1
*-Z
  1
*
  1
*
 70
     0
  1
*
  1
*
  0
XRECORD
  5
7D
102
{ACAD_REACTORS
330
14
102
}
330
14
100
AcDbXrecord
  1
사용
  1
*
  1
*
  1
*
 70
   256
  1
*
  1
*
  0
XRECORD
  5
7E
102
{ACAD_REACTORS
330
14
102
}
330
14
100
AcDbXrecord
  1
신규
  1
신규
  1
*
  1
*
 70
     0
  1
*
  1
*
  0
XRECORD
  5
7F
102
{ACAD_REACTORS
330
14
102
}
330
14
100
AcDbXrecord
  1
실박스
  1
BLO,SYM,SYM1,SYM2
  1
*
  1
*
 70
     0
  1
*
  1
*
  0
XRECORD
  5
80
102
{ACAD_REACTORS
330
14
102
}
330
14
100
AcDbXrecord
  1
우리토목
  1
w-*
  1
*
  1
*
 70
     0
  1
*
  1
*
  0
XRECORD
  5
81
102
{ACAD_REACTORS
330
14
102
}
330
14
100
AcDbXrecord
  1
주차
  1
car*
  1
*
  1
*
 70
     0
  1
*
  1
*
  0
XRECORD
  5
82
102
{ACAD_REACTORS
330
14
102
}
330
14
100
AcDbXrecord
  1
지상정밀
  1
*
  1
*
  1
*
 70
     0
  1
*
  1
*
  0
XRECORD
  5
83
102
{ACAD_REACTORS
330
14
102
}
330
14
100
AcDbXrecord
  1
쩜선
  1
*
  1
*
  1
*
 70
     0
  1
*
  1
*
  0
XRECORD
  5
84
102
{ACAD_REACTORS
330
14
102
}
330
14
100
AcDbXrecord
  1
플로터 작업층
  1
*
  1
*
  1
*
 70
  1025
  1
*
  1
*
  0
XRECORD
  5
85
102
{ACAD_REACTORS
330
14
102
}
330
14
100
AcDbXrecord
  1
현재 작업층
  1
*
  1
*
  1
*
 70
     1
  1
*
  1
*
  0
XRECORD
  5
86
102
{ACAD_REACTORS
330
14
102
}
330
14
100
AcDbXrecord
  1
현재 잠금
  1
*
  1
*
  1
*
 70
   257
  1
*
  1
*
  0
ENDSEC
  0
EOF
