  0
SECTION
  2
HEADER
  9
$ACADVER
  1
AC1012
  9
$DWGCODEPAGE
  3
ksc5601
  9
$INSBASE
 10
21025.19927803396
 20
-2867.825768247618
 30
0.0
  9
$EXTMIN
 10
-7.89301303110551
 20
-16.16828048916068
 30
-0.0000000000119164
  9
$EXTMAX
 10
272.7252255626662
 20
313.0846094312546
 30
0.0000000000664171
  9
$LIMMIN
 10
0.0
 20
0.0
  9
$LIMMAX
 10
420.0
 20
297.0
  9
$ORTHOMODE
 70
     0
  9
$REGENMODE
 70
     1
  9
$FILLMODE
 70
     1
  9
$QTEXTMODE
 70
     0
  9
$MIRRTEXT
 70
     0
  9
$DRAGMODE
 70
     2
  9
$LTSCALE
 40
0.2
  9
$OSMODE
 70
   567
  9
$ATTMODE
 70
     1
  9
$TEXTSIZE
 40
5.777225951253058
  9
$TRACEWID
 40
1.0
  9
$TEXTSTYLE
  7
STANDARD
  9
$CLAYER
  8
0
  9
$CELTYPE
  6
BYLAYER
  9
$CECOLOR
 62
   256
  9
$CELTSCALE
 40
1.0
  9
$DELOBJ
 70
     1
  9
$DISPSILH
 70
     0
  9
$DIMSCALE
 40
1.0
  9
$DIMASZ
 40
3.0
  9
$DIMEXO
 40
1.0
  9
$DIMDLI
 40
10.0
  9
$DIMRND
 40
0.0
  9
$DIMDLE
 40
0.0
  9
$DIMEXE
 40
0.6
  9
$DIMTP
 40
0.0
  9
$DIMTM
 40
0.0
  9
$DIMTXT
 40
3.5
  9
$DIMCEN
 40
0.09
  9
$DIMTSZ
 40
0.0
  9
$DIMTOL
 70
     0
  9
$DIMLIM
 70
     0
  9
$DIMTIH
 70
     0
  9
$DIMTOH
 70
     0
  9
$DIMSE1
 70
     0
  9
$DIMSE2
 70
     0
  9
$DIMTAD
 70
     1
  9
$DIMZIN
 70
     8
  9
$DIMBLK
  1

  9
$DIMASO
 70
     1
  9
$DIMSHO
 70
     1
  9
$DIMPOST
  1

  9
$DIMAPOST
  1

  9
$DIMALT
 70
     0
  9
$DIMALTD
 70
     2
  9
$DIMALTF
 40
25.4
  9
$DIMLFAC
 40
1.0
  9
$DIMTOFL
 70
     1
  9
$DIMTVP
 40
0.0
  9
$DIMTIX
 70
     1
  9
$DIMSOXD
 70
     0
  9
$DIMSAH
 70
     0
  9
$DIMBLK1
  1

  9
$DIMBLK2
  1

  9
$DIMSTYLE
  2
1_1_2
  9
$DIMCLRD
 70
   123
  9
$DIMCLRE
 70
   123
  9
$DIMCLRT
 70
     3
  9
$DIMTFAC
 40
1.0
  9
$DIMGAP
 40
1.0
  9
$DIMJUST
 70
     0
  9
$DIMSD1
 70
     0
  9
$DIMSD2
 70
     0
  9
$DIMTOLJ
 70
     1
  9
$DIMTZIN
 70
     0
  9
$DIMALTZ
 70
     0
  9
$DIMALTTZ
 70
     0
  9
$DIMFIT
 70
     0
  9
$DIMUPT
 70
     1
  9
$DIMUNIT
 70
     2
  9
$DIMDEC
 70
     2
  9
$DIMTDEC
 70
     2
  9
$DIMALTU
 70
     2
  9
$DIMALTTD
 70
     2
  9
$DIMTXSTY
  7
STANDARD
  9
$DIMAUNIT
 70
     1
  9
$LUNITS
 70
     2
  9
$LUPREC
 70
     4
  9
$SKETCHINC
 40
1.0
  9
$FILLETRAD
 40
0.5
  9
$AUNITS
 70
     0
  9
$AUPREC
 70
     0
  9
$MENU
  1
.
  9
$ELEVATION
 40
0.0
  9
$PELEVATION
 40
0.0
  9
$THICKNESS
 40
0.0
  9
$LIMCHECK
 70
     0
  9
$BLIPMODE
 70
     1
  9
$CHAMFERA
 40
1.0
  9
$CHAMFERB
 40
1.0
  9
$CHAMFERC
 40
20.0
  9
$CHAMFERD
 40
0.0
  9
$SKPOLY
 70
     0
  9
$TDCREATE
 40
2452839.586179271
  9
$TDUPDATE
 40
2453376.709658194
  9
$TDINDWG
 40
11.1199324653
  9
$TDUSRTIMER
 40
11.1199322917
  9
$USRTIMER
 70
     1
  9
$ANGBASE
 50
0.0
  9
$ANGDIR
 70
     0
  9
$PDMODE
 70
     0
  9
$PDSIZE
 40
0.0
  9
$PLINEWID
 40
0.0
  9
$COORDS
 70
     2
  9
$SPLFRAME
 70
     0
  9
$SPLINETYPE
 70
     6
  9
$SPLINESEGS
 70
   800
  9
$ATTDIA
 70
     0
  9
$ATTREQ
 70
     1
  9
$HANDLING
 70
 22529
  9
$HANDSEED
  5
3F9
  9
$SURFTAB1
 70
     6
  9
$SURFTAB2
 70
     6
  9
$SURFTYPE
 70
     6
  9
$SURFU
 70
     6
  9
$SURFV
 70
     6
  9
$UCSNAME
  2

  9
$UCSORG
 10
0.0
 20
0.0
 30
0.0
  9
$UCSXDIR
 10
1.0
 20
0.0
 30
0.0
  9
$UCSYDIR
 10
0.0
 20
1.0
 30
0.0
  9
$PUCSNAME
  2

  9
$PUCSORG
 10
0.0
 20
0.0
 30
0.0
  9
$PUCSXDIR
 10
1.0
 20
0.0
 30
0.0
  9
$PUCSYDIR
 10
0.0
 20
1.0
 30
0.0
  9
$USERI1
 70
     0
  9
$USERI2
 70
     0
  9
$USERI3
 70
     0
  9
$USERI4
 70
     0
  9
$USERI5
 70
     0
  9
$USERR1
 40
0.0
  9
$USERR2
 40
0.0
  9
$USERR3
 40
0.0
  9
$USERR4
 40
0.0
  9
$USERR5
 40
0.0
  9
$WORLDVIEW
 70
     1
  9
$SHADEDGE
 70
     3
  9
$SHADEDIF
 70
    70
  9
$TILEMODE
 70
     1
  9
$MAXACTVP
 70
    48
  9
$PINSBASE
 10
0.0
 20
0.0
 30
0.0
  9
$PLIMCHECK
 70
     0
  9
$PEXTMIN
 10
0.0
 20
0.0
 30
0.0
  9
$PEXTMAX
 10
0.0
 20
0.0
 30
0.0
  9
$PLIMMIN
 10
0.0
 20
0.0
  9
$PLIMMAX
 10
12.0
 20
9.0
  9
$UNITMODE
 70
     0
  9
$VISRETAIN
 70
     1
  9
$PLINEGEN
 70
     0
  9
$PSLTSCALE
 70
     1
  9
$TREEDEPTH
 70
  3020
  9
$PICKSTYLE
 70
     0
  9
$CMLSTYLE
  2
STANDARD
  9
$CMLJUST
 70
     0
  9
$CMLSCALE
 40
20.0
  9
$SAVEIMAGES
 70
     1
  0
ENDSEC
  0
SECTION
  2
CLASSES
  0
CLASS
  1
ACDBDICTIONARYWDFLT
  2
AcDbDictionaryWithDefault
  3
AutoCAD 2000
 90
    32768
280
     0
281
     0
  0
CLASS
  1
ACDBPLACEHOLDER
  2
AcDbPlaceHolder
  3
AutoCAD 2000
 90
    32768
280
     0
281
     0
  0
CLASS
  1
LAYOUT
  2
AcDbLayout
  3
AutoCAD 2000
 90
    32768
280
     0
281
     0
  0
CLASS
  1
DICTIONARYVAR
  2
AcDbDictionaryVar
  3
AutoCAD 2000
 90
    32768
280
     0
281
     0
  0
CLASS
  1
DIMASSOC
  2
AcDbDimAssoc
  3
"AcDbDimAssoc|Product Desc:     AcDim ARX App For Dimension|Company:          Autodesk, Inc.|WEB Address:      www.autodesk.com"
 90
    32768
280
     0
281
     0
  0
CLASS
  1
LONG_TRANSACTION
  2
AcDbLongTransaction
  3
AutoCAD 2000
 90
    32768
280
     0
281
     0
  0
CLASS
  1
LWPOLYLINE
  2
AcDbPolyline
  3
AutoCAD 2000
 90
    32768
280
     0
281
     1
  0
CLASS
  1
HATCH
  2
AcDbHatch
  3
AutoCAD 2000
 90
    32768
280
     0
281
     1
  0
CLASS
  1
XRECORD
  2
AcDbXrecord
  3
AutoCAD 2000
 90
    32768
280
     0
281
     0
  0
CLASS
  1
LONG_TRANSACTION
  2
AcDbLongTransaction
  3
AutoCAD 2000
 90
    32768
280
     0
281
     0
  0
CLASS
  1
LWPOLYLINE
  2
AcDbPolyline
  3
AutoCAD 2000
 90
    32768
280
     0
281
     1
  0
CLASS
  1
HATCH
  2
AcDbHatch
  3
AutoCAD 2000
 90
    32768
280
     0
281
     1
  0
CLASS
  1
XRECORD
  2
AcDbXrecord
  3
AutoCAD 2000
 90
    32768
280
     0
281
     0
  0
CLASS
  1
LONG_TRANSACTION
  2
AcDbLongTransaction
  3
AutoCAD 2000
 90
    32768
280
     0
281
     0
  0
CLASS
  1
LWPOLYLINE
  2
AcDbPolyline
  3
AutoCAD 2000
 90
    32768
280
     0
281
     1
  0
CLASS
  1
HATCH
  2
AcDbHatch
  3
AutoCAD 2000
 90
    32768
280
     0
281
     1
  0
CLASS
  1
XRECORD
  2
AcDbXrecord
  3
AutoCAD 2000
 90
    32768
280
     0
281
     0
  0
CLASS
  1
LONG_TRANSACTION
  2
AcDbLongTransaction
  3
AutoCAD 2000
 90
    32768
280
     0
281
     0
  0
CLASS
  1
LWPOLYLINE
  2
AcDbPolyline
  3
AutoCAD 2000
 90
    32768
280
     0
281
     1
  0
CLASS
  1
HATCH
  2
AcDbHatch
  3
AutoCAD 2000
 90
    32768
280
     0
281
     1
  0
CLASS
  1
XRECORD
  2
AcDbXrecord
  3
AutoCAD 2000
 90
    32768
280
     0
281
     0
  0
CLASS
  1
LONG_TRANSACTION
  2
AcDbLongTransaction
  3
AutoCAD 2000
 90
    32768
280
     0
281
     0
  0
CLASS
  1
LWPOLYLINE
  2
AcDbPolyline
  3
AutoCAD 2000
 90
    32768
280
     0
281
     1
  0
CLASS
  1
HATCH
  2
AcDbHatch
  3
AutoCAD 2000
 90
    32768
280
     0
281
     1
  0
CLASS
  1
XRECORD
  2
AcDbXrecord
  3
AutoCAD 2000
 90
    32768
280
     0
281
     0
  0
CLASS
  1
LONG_TRANSACTION
  2
AcDbLongTransaction
  3
AutoCAD 2000
 90
    32768
280
     0
281
     0
  0
CLASS
  1
LWPOLYLINE
  2
AcDbPolyline
  3
AutoCAD 2000
 90
    32768
280
     0
281
     1
  0
CLASS
  1
HATCH
  2
AcDbHatch
  3
AutoCAD 2000
 90
    32768
280
     0
281
     1
  0
CLASS
  1
XRECORD
  2
AcDbXrecord
  3
AutoCAD 2000
 90
    32768
280
     0
281
     0
  0
CLASS
  1
LONG_TRANSACTION
  2
AcDbLongTransaction
  3
AutoCAD 2000
 90
    32768
280
     0
281
     0
  0
CLASS
  1
LWPOLYLINE
  2
AcDbPolyline
  3
AutoCAD 2000
 90
    32768
280
     0
281
     1
  0
CLASS
  1
HATCH
  2
AcDbHatch
  3
AutoCAD 2000
 90
    32768
280
     0
281
     1
  0
CLASS
  1
XRECORD
  2
AcDbXrecord
  3
AutoCAD 2000
 90
    32768
280
     0
281
     0
  0
CLASS
  1
LONG_TRANSACTION
  2
AcDbLongTransaction
  3
AutoCAD 2000
 90
    32768
280
     0
281
     0
  0
CLASS
  1
LWPOLYLINE
  2
AcDbPolyline
  3
AutoCAD 2000
 90
    32768
280
     0
281
     1
  0
CLASS
  1
HATCH
  2
AcDbHatch
  3
AutoCAD 2000
 90
    32768
280
     0
281
     1
  0
CLASS
  1
XRECORD
  2
AcDbXrecord
  3
AutoCAD 2000
 90
    32768
280
     0
281
     0
  0
CLASS
  1
LONG_TRANSACTION
  2
AcDbLongTransaction
  3
AutoCAD 2000
 90
    32768
280
     0
281
     0
  0
CLASS
  1
LWPOLYLINE
  2
AcDbPolyline
  3
AutoCAD 2000
 90
    32768
280
     0
281
     1
  0
CLASS
  1
HATCH
  2
AcDbHatch
  3
AutoCAD 2000
 90
    32768
280
     0
281
     1
  0
CLASS
  1
XRECORD
  2
AcDbXrecord
  3
AutoCAD 2000
 90
    32768
280
     0
281
     0
  0
CLASS
  1
LONG_TRANSACTION
  2
AcDbLongTransaction
  3
AutoCAD 2000
 90
    32768
280
     0
281
     0
  0
CLASS
  1
LWPOLYLINE
  2
AcDbPolyline
  3
AutoCAD 2000
 90
    32768
280
     0
281
     1
  0
CLASS
  1
HATCH
  2
AcDbHatch
  3
AutoCAD 2000
 90
    32768
280
     0
281
     1
  0
CLASS
  1
XRECORD
  2
AcDbXrecord
  3
AutoCAD 2000
 90
    32768
280
     0
281
     0
  0
CLASS
  1
LONG_TRANSACTION
  2
AcDbLongTransaction
  3
AutoCAD 2000
 90
    32768
280
     0
281
     0
  0
CLASS
  1
LWPOLYLINE
  2
AcDbPolyline
  3
AutoCAD 2000
 90
    32768
280
     0
281
     1
  0
CLASS
  1
HATCH
  2
AcDbHatch
  3
AutoCAD 2000
 90
    32768
280
     0
281
     1
  0
CLASS
  1
XRECORD
  2
AcDbXrecord
  3
AutoCAD 2000
 90
    32768
280
     0
281
     0
  0
CLASS
  1
LONG_TRANSACTION
  2
AcDbLongTransaction
  3
AutoCAD 2000
 90
    32768
280
     0
281
     0
  0
CLASS
  1
LWPOLYLINE
  2
AcDbPolyline
  3
AutoCAD 2000
 90
    32768
280
     0
281
     1
  0
CLASS
  1
HATCH
  2
AcDbHatch
  3
AutoCAD 2000
 90
    32768
280
     0
281
     1
  0
CLASS
  1
XRECORD
  2
AcDbXrecord
  3
AutoCAD 2000
 90
    32768
280
     0
281
     0
  0
CLASS
  1
LONG_TRANSACTION
  2
AcDbLongTransaction
  3
AutoCAD 2000
 90
    32768
280
     0
281
     0
  0
CLASS
  1
LWPOLYLINE
  2
AcDbPolyline
  3
AutoCAD 2000
 90
    32768
280
     0
281
     1
  0
CLASS
  1
HATCH
  2
AcDbHatch
  3
AutoCAD 2000
 90
    32768
280
     0
281
     1
  0
CLASS
  1
XRECORD
  2
AcDbXrecord
  3
AutoCAD 2000
 90
    32768
280
     0
281
     0
  0
CLASS
  1
LONG_TRANSACTION
  2
AcDbLongTransaction
  3
AutoCAD 2000
 90
    32768
280
     0
281
     0
  0
CLASS
  1
LWPOLYLINE
  2
AcDbPolyline
  3
AutoCAD 2000
 90
    32768
280
     0
281
     1
  0
CLASS
  1
HATCH
  2
AcDbHatch
  3
AutoCAD 2000
 90
    32768
280
     0
281
     1
  0
CLASS
  1
XRECORD
  2
AcDbXrecord
  3
AutoCAD 2000
 90
    32768
280
     0
281
     0
  0
CLASS
  1
LONG_TRANSACTION
  2
AcDbLongTransaction
  3
AutoCAD 2000
 90
    32768
280
     0
281
     0
  0
CLASS
  1
LWPOLYLINE
  2
AcDbPolyline
  3
AutoCAD 2000
 90
    32768
280
     0
281
     1
  0
CLASS
  1
HATCH
  2
AcDbHatch
  3
AutoCAD 2000
 90
    32768
280
     0
281
     1
  0
CLASS
  1
XRECORD
  2
AcDbXrecord
  3
AutoCAD 2000
 90
    32768
280
     0
281
     0
  0
CLASS
  1
LONG_TRANSACTION
  2
AcDbLongTransaction
  3
AutoCAD 2000
 90
    32768
280
     0
281
     0
  0
CLASS
  1
LWPOLYLINE
  2
AcDbPolyline
  3
AutoCAD 2000
 90
    32768
280
     0
281
     1
  0
CLASS
  1
HATCH
  2
AcDbHatch
  3
AutoCAD 2000
 90
    32768
280
     0
281
     1
  0
CLASS
  1
XRECORD
  2
AcDbXrecord
  3
AutoCAD 2000
 90
    32768
280
     0
281
     0
  0
CLASS
  1
LONG_TRANSACTION
  2
AcDbLongTransaction
  3
AutoCAD 2000
 90
    32768
280
     0
281
     0
  0
CLASS
  1
LWPOLYLINE
  2
AcDbPolyline
  3
AutoCAD 2000
 90
    32768
280
     0
281
     1
  0
CLASS
  1
HATCH
  2
AcDbHatch
  3
AutoCAD 2000
 90
    32768
280
     0
281
     1
  0
CLASS
  1
XRECORD
  2
AcDbXrecord
  3
AutoCAD 2000
 90
    32768
280
     0
281
     0
  0
CLASS
  1
LONG_TRANSACTION
  2
AcDbLongTransaction
  3
AutoCAD 2000
 90
    32768
280
     0
281
     0
  0
CLASS
  1
LWPOLYLINE
  2
AcDbPolyline
  3
AutoCAD 2000
 90
    32768
280
     0
281
     1
  0
CLASS
  1
HATCH
  2
AcDbHatch
  3
AutoCAD 2000
 90
    32768
280
     0
281
     1
  0
CLASS
  1
XRECORD
  2
AcDbXrecord
  3
AutoCAD 2000
 90
    32768
280
     0
281
     0
  0
CLASS
  1
LONG_TRANSACTION
  2
AcDbLongTransaction
  3
AutoCAD 2000
 90
    32768
280
     0
281
     0
  0
CLASS
  1
LWPOLYLINE
  2
AcDbPolyline
  3
AutoCAD 2000
 90
    32768
280
     0
281
     1
  0
CLASS
  1
HATCH
  2
AcDbHatch
  3
AutoCAD 2000
 90
    32768
280
     0
281
     1
  0
CLASS
  1
XRECORD
  2
AcDbXrecord
  3
AutoCAD 2000
 90
    32768
280
     0
281
     0
  0
CLASS
  1
LONG_TRANSACTION
  2
AcDbLongTransaction
  3
AutoCAD 2000
 90
    32768
280
     0
281
     0
  0
CLASS
  1
LWPOLYLINE
  2
AcDbPolyline
  3
AutoCAD 2000
 90
    32768
280
     0
281
     1
  0
CLASS
  1
HATCH
  2
AcDbHatch
  3
AutoCAD 2000
 90
    32768
280
     0
281
     1
  0
CLASS
  1
XRECORD
  2
AcDbXrecord
  3
AutoCAD 2000
 90
    32768
280
     0
281
     0
  0
CLASS
  1
LONG_TRANSACTION
  2
AcDbLongTransaction
  3
AutoCAD 2000
 90
    32768
280
     0
281
     0
  0
CLASS
  1
LWPOLYLINE
  2
AcDbPolyline
  3
AutoCAD 2000
 90
    32768
280
     0
281
     1
  0
CLASS
  1
HATCH
  2
AcDbHatch
  3
AutoCAD 2000
 90
    32768
280
     0
281
     1
  0
CLASS
  1
XRECORD
  2
AcDbXrecord
  3
AutoCAD 2000
 90
    32768
280
     0
281
     0
  0
CLASS
  1
LONG_TRANSACTION
  2
AcDbLongTransaction
  3
AutoCAD 2000
 90
    32768
280
     0
281
     0
  0
CLASS
  1
LWPOLYLINE
  2
AcDbPolyline
  3
AutoCAD 2000
 90
    32768
280
     0
281
     1
  0
CLASS
  1
HATCH
  2
AcDbHatch
  3
AutoCAD 2000
 90
    32768
280
     0
281
     1
  0
CLASS
  1
XRECORD
  2
AcDbXrecord
  3
AutoCAD 2000
 90
    32768
280
     0
281
     0
  0
CLASS
  1
LONG_TRANSACTION
  2
AcDbLongTransaction
  3
AutoCAD 2000
 90
    32768
280
     0
281
     0
  0
CLASS
  1
LWPOLYLINE
  2
AcDbPolyline
  3
AutoCAD 2000
 90
    32768
280
     0
281
     1
  0
CLASS
  1
HATCH
  2
AcDbHatch
  3
AutoCAD 2000
 90
    32768
280
     0
281
     1
  0
CLASS
  1
XRECORD
  2
AcDbXrecord
  3
AutoCAD 2000
 90
    32768
280
     0
281
     0
  0
CLASS
  1
LONG_TRANSACTION
  2
AcDbLongTransaction
  3
AutoCAD 2000
 90
    32768
280
     0
281
     0
  0
CLASS
  1
LWPOLYLINE
  2
AcDbPolyline
  3
AutoCAD 2000
 90
    32768
280
     0
281
     1
  0
CLASS
  1
HATCH
  2
AcDbHatch
  3
AutoCAD 2000
 90
    32768
280
     0
281
     1
  0
CLASS
  1
XRECORD
  2
AcDbXrecord
  3
AutoCAD 2000
 90
    32768
280
     0
281
     0
  0
CLASS
  1
LONG_TRANSACTION
  2
AcDbLongTransaction
  3
AutoCAD 2000
 90
    32768
280
     0
281
     0
  0
CLASS
  1
LWPOLYLINE
  2
AcDbPolyline
  3
AutoCAD 2000
 90
    32768
280
     0
281
     1
  0
CLASS
  1
HATCH
  2
AcDbHatch
  3
AutoCAD 2000
 90
    32768
280
     0
281
     1
  0
CLASS
  1
XRECORD
  2
AcDbXrecord
  3
AutoCAD 2000
 90
    32768
280
     0
281
     0
  0
CLASS
  1
LONG_TRANSACTION
  2
AcDbLongTransaction
  3
AutoCAD 2000
 90
    32768
280
     0
281
     0
  0
CLASS
  1
LWPOLYLINE
  2
AcDbPolyline
  3
AutoCAD 2000
 90
    32768
280
     0
281
     1
  0
CLASS
  1
HATCH
  2
AcDbHatch
  3
AutoCAD 2000
 90
    32768
280
     0
281
     1
  0
CLASS
  1
XRECORD
  2
AcDbXrecord
  3
AutoCAD 2000
 90
    32768
280
     0
281
     0
  0
CLASS
  1
LONG_TRANSACTION
  2
AcDbLongTransaction
  3
AutoCAD 2000
 90
    32768
280
     0
281
     0
  0
CLASS
  1
LWPOLYLINE
  2
AcDbPolyline
  3
AutoCAD 2000
 90
    32768
280
     0
281
     1
  0
CLASS
  1
HATCH
  2
AcDbHatch
  3
AutoCAD 2000
 90
    32768
280
     0
281
     1
  0
CLASS
  1
XRECORD
  2
AcDbXrecord
  3
AutoCAD 2000
 90
    32768
280
     0
281
     0
  0
CLASS
  1
LONG_TRANSACTION
  2
AcDbLongTransaction
  3
AutoCAD 2000
 90
    32768
280
     0
281
     0
  0
CLASS
  1
LWPOLYLINE
  2
AcDbPolyline
  3
AutoCAD 2000
 90
    32768
280
     0
281
     1
  0
CLASS
  1
HATCH
  2
AcDbHatch
  3
AutoCAD 2000
 90
    32768
280
     0
281
     1
  0
CLASS
  1
XRECORD
  2
AcDbXrecord
  3
AutoCAD 2000
 90
    32768
280
     0
281
     0
  0
CLASS
  1
LONG_TRANSACTION
  2
AcDbLongTransaction
  3
AutoCAD 2000
 90
    32768
280
     0
281
     0
  0
CLASS
  1
LWPOLYLINE
  2
AcDbPolyline
  3
AutoCAD 2000
 90
    32768
280
     0
281
     1
  0
CLASS
  1
HATCH
  2
AcDbHatch
  3
AutoCAD 2000
 90
    32768
280
     0
281
     1
  0
CLASS
  1
XRECORD
  2
AcDbXrecord
  3
AutoCAD 2000
 90
    32768
280
     0
281
     0
  0
CLASS
  1
LONG_TRANSACTION
  2
AcDbLongTransaction
  3
AutoCAD 2000
 90
    32768
280
     0
281
     0
  0
CLASS
  1
LWPOLYLINE
  2
AcDbPolyline
  3
AutoCAD 2000
 90
    32768
280
     0
281
     1
  0
CLASS
  1
HATCH
  2
AcDbHatch
  3
AutoCAD 2000
 90
    32768
280
     0
281
     1
  0
CLASS
  1
XRECORD
  2
AcDbXrecord
  3
AutoCAD 2000
 90
    32768
280
     0
281
     0
  0
CLASS
  1
LONG_TRANSACTION
  2
AcDbLongTransaction
  3
AutoCAD 2000
 90
    32768
280
     0
281
     0
  0
CLASS
  1
LWPOLYLINE
  2
AcDbPolyline
  3
AutoCAD 2000
 90
    32768
280
     0
281
     1
  0
CLASS
  1
HATCH
  2
AcDbHatch
  3
AutoCAD 2000
 90
    32768
280
     0
281
     1
  0
CLASS
  1
XRECORD
  2
AcDbXrecord
  3
AutoCAD 2000
 90
    32768
280
     0
281
     0
  0
CLASS
  1
LONG_TRANSACTION
  2
AcDbLongTransaction
  3
AutoCAD 2000
 90
    32768
280
     0
281
     0
  0
CLASS
  1
LWPOLYLINE
  2
AcDbPolyline
  3
AutoCAD 2000
 90
    32768
280
     0
281
     1
  0
CLASS
  1
HATCH
  2
AcDbHatch
  3
AutoCAD 2000
 90
    32768
280
     0
281
     1
  0
CLASS
  1
XRECORD
  2
AcDbXrecord
  3
AutoCAD 2000
 90
    32768
280
     0
281
     0
  0
CLASS
  1
LONG_TRANSACTION
  2
AcDbLongTransaction
  3
AutoCAD 2000
 90
    32768
280
     0
281
     0
  0
CLASS
  1
LWPOLYLINE
  2
AcDbPolyline
  3
AutoCAD 2000
 90
    32768
280
     0
281
     1
  0
CLASS
  1
HATCH
  2
AcDbHatch
  3
AutoCAD 2000
 90
    32768
280
     0
281
     1
  0
CLASS
  1
XRECORD
  2
AcDbXrecord
  3
AutoCAD 2000
 90
    32768
280
     0
281
     0
  0
CLASS
  1
LONG_TRANSACTION
  2
AcDbLongTransaction
  3
AutoCAD 2000
 90
    32768
280
     0
281
     0
  0
CLASS
  1
LWPOLYLINE
  2
AcDbPolyline
  3
AutoCAD 2000
 90
    32768
280
     0
281
     1
  0
CLASS
  1
HATCH
  2
AcDbHatch
  3
AutoCAD 2000
 90
    32768
280
     0
281
     1
  0
CLASS
  1
XRECORD
  2
AcDbXrecord
  3
AutoCAD 2000
 90
    32768
280
     0
281
     0
  0
CLASS
  1
LONG_TRANSACTION
  2
AcDbLongTransaction
  3
AutoCAD 2000
 90
    32768
280
     0
281
     0
  0
CLASS
  1
LWPOLYLINE
  2
AcDbPolyline
  3
AutoCAD 2000
 90
    32768
280
     0
281
     1
  0
CLASS
  1
HATCH
  2
AcDbHatch
  3
AutoCAD 2000
 90
    32768
280
     0
281
     1
  0
CLASS
  1
XRECORD
  2
AcDbXrecord
  3
AutoCAD 2000
 90
    32768
280
     0
281
     0
  0
CLASS
  1
LONG_TRANSACTION
  2
AcDbLongTransaction
  3
AutoCAD 2000
 90
    32768
280
     0
281
     0
  0
CLASS
  1
LWPOLYLINE
  2
AcDbPolyline
  3
AutoCAD 2000
 90
    32768
280
     0
281
     1
  0
CLASS
  1
HATCH
  2
AcDbHatch
  3
AutoCAD 2000
 90
    32768
280
     0
281
     1
  0
CLASS
  1
XRECORD
  2
AcDbXrecord
  3
AutoCAD 2000
 90
    32768
280
     0
281
     0
  0
CLASS
  1
LONG_TRANSACTION
  2
AcDbLongTransaction
  3
AutoCAD 2000
 90
    32768
280
     0
281
     0
  0
CLASS
  1
LWPOLYLINE
  2
AcDbPolyline
  3
AutoCAD 2000
 90
    32768
280
     0
281
     1
  0
CLASS
  1
HATCH
  2
AcDbHatch
  3
AutoCAD 2000
 90
    32768
280
     0
281
     1
  0
CLASS
  1
XRECORD
  2
AcDbXrecord
  3
AutoCAD 2000
 90
    32768
280
     0
281
     0
  0
CLASS
  1
LONG_TRANSACTION
  2
AcDbLongTransaction
  3
AutoCAD 2000
 90
    32768
280
     0
281
     0
  0
CLASS
  1
LWPOLYLINE
  2
AcDbPolyline
  3
AutoCAD 2000
 90
    32768
280
     0
281
     1
  0
CLASS
  1
HATCH
  2
AcDbHatch
  3
AutoCAD 2000
 90
    32768
280
     0
281
     1
  0
CLASS
  1
XRECORD
  2
AcDbXrecord
  3
AutoCAD 2000
 90
    32768
280
     0
281
     0
  0
CLASS
  1
LONG_TRANSACTION
  2
AcDbLongTransaction
  3
AutoCAD 2000
 90
    32768
280
     0
281
     0
  0
CLASS
  1
LWPOLYLINE
  2
AcDbPolyline
  3
AutoCAD 2000
 90
    32768
280
     0
281
     1
  0
CLASS
  1
HATCH
  2
AcDbHatch
  3
AutoCAD 2000
 90
    32768
280
     0
281
     1
  0
CLASS
  1
XRECORD
  2
AcDbXrecord
  3
AutoCAD 2000
 90
    32768
280
     0
281
     0
  0
CLASS
  1
LONG_TRANSACTION
  2
AcDbLongTransaction
  3
AutoCAD 2000
 90
    32768
280
     0
281
     0
  0
CLASS
  1
LWPOLYLINE
  2
AcDbPolyline
  3
AutoCAD 2000
 90
    32768
280
     0
281
     1
  0
CLASS
  1
HATCH
  2
AcDbHatch
  3
AutoCAD 2000
 90
    32768
280
     0
281
     1
  0
CLASS
  1
XRECORD
  2
AcDbXrecord
  3
AutoCAD 2000
 90
    32768
280
     0
281
     0
  0
CLASS
  1
LONG_TRANSACTION
  2
AcDbLongTransaction
  3
AutoCAD 2000
 90
    32768
280
     0
281
     0
  0
CLASS
  1
LWPOLYLINE
  2
AcDbPolyline
  3
AutoCAD 2000
 90
    32768
280
     0
281
     1
  0
CLASS
  1
HATCH
  2
AcDbHatch
  3
AutoCAD 2000
 90
    32768
280
     0
281
     1
  0
CLASS
  1
XRECORD
  2
AcDbXrecord
  3
AutoCAD 2000
 90
    32768
280
     0
281
     0
  0
CLASS
  1
LONG_TRANSACTION
  2
AcDbLongTransaction
  3
AutoCAD 2000
 90
    32768
280
     0
281
     0
  0
CLASS
  1
LWPOLYLINE
  2
AcDbPolyline
  3
AutoCAD 2000
 90
    32768
280
     0
281
     1
  0
CLASS
  1
HATCH
  2
AcDbHatch
  3
AutoCAD 2000
 90
    32768
280
     0
281
     1
  0
CLASS
  1
XRECORD
  2
AcDbXrecord
  3
AutoCAD 2000
 90
    32768
280
     0
281
     0
  0
CLASS
  1
LONG_TRANSACTION
  2
AcDbLongTransaction
  3
AutoCAD 2000
 90
    32768
280
     0
281
     0
  0
CLASS
  1
LWPOLYLINE
  2
AcDbPolyline
  3
AutoCAD 2000
 90
    32768
280
     0
281
     1
  0
CLASS
  1
HATCH
  2
AcDbHatch
  3
AutoCAD 2000
 90
    32768
280
     0
281
     1
  0
CLASS
  1
XRECORD
  2
AcDbXrecord
  3
AutoCAD 2000
 90
    32768
280
     0
281
     0
  0
CLASS
  1
LONG_TRANSACTION
  2
AcDbLongTransaction
  3
AutoCAD 2000
 90
    32768
280
     0
281
     0
  0
CLASS
  1
LWPOLYLINE
  2
AcDbPolyline
  3
AutoCAD 2000
 90
    32768
280
     0
281
     1
  0
CLASS
  1
HATCH
  2
AcDbHatch
  3
AutoCAD 2000
 90
    32768
280
     0
281
     1
  0
CLASS
  1
XRECORD
  2
AcDbXrecord
  3
AutoCAD 2000
 90
    32768
280
     0
281
     0
  0
CLASS
  1
LONG_TRANSACTION
  2
AcDbLongTransaction
  3
AutoCAD 2000
 90
    32768
280
     0
281
     0
  0
CLASS
  1
LWPOLYLINE
  2
AcDbPolyline
  3
AutoCAD 2000
 90
    32768
280
     0
281
     1
  0
CLASS
  1
HATCH
  2
AcDbHatch
  3
AutoCAD 2000
 90
    32768
280
     0
281
     1
  0
CLASS
  1
XRECORD
  2
AcDbXrecord
  3
AutoCAD 2000
 90
    32768
280
     0
281
     0
  0
CLASS
  1
LONG_TRANSACTION
  2
AcDbLongTransaction
  3
AutoCAD 2000
 90
    32768
280
     0
281
     0
  0
CLASS
  1
LWPOLYLINE
  2
AcDbPolyline
  3
AutoCAD 2000
 90
    32768
280
     0
281
     1
  0
CLASS
  1
HATCH
  2
AcDbHatch
  3
AutoCAD 2000
 90
    32768
280
     0
281
     1
  0
CLASS
  1
XRECORD
  2
AcDbXrecord
  3
AutoCAD 2000
 90
    32768
280
     0
281
     0
  0
CLASS
  1
LONG_TRANSACTION
  2
AcDbLongTransaction
  3
AutoCAD 2000
 90
    32768
280
     0
281
     0
  0
CLASS
  1
LWPOLYLINE
  2
AcDbPolyline
  3
AutoCAD 2000
 90
    32768
280
     0
281
     1
  0
CLASS
  1
HATCH
  2
AcDbHatch
  3
AutoCAD 2000
 90
    32768
280
     0
281
     1
  0
CLASS
  1
XRECORD
  2
AcDbXrecord
  3
AutoCAD 2000
 90
    32768
280
     0
281
     0
  0
CLASS
  1
LONG_TRANSACTION
  2
AcDbLongTransaction
  3
AutoCAD 2000
 90
    32768
280
     0
281
     0
  0
CLASS
  1
LWPOLYLINE
  2
AcDbPolyline
  3
AutoCAD 2000
 90
    32768
280
     0
281
     1
  0
CLASS
  1
HATCH
  2
AcDbHatch
  3
AutoCAD 2000
 90
    32768
280
     0
281
     1
  0
CLASS
  1
XRECORD
  2
AcDbXrecord
  3
AutoCAD 2000
 90
    32768
280
     0
281
     0
  0
CLASS
  1
LONG_TRANSACTION
  2
AcDbLongTransaction
  3
AutoCAD 2000
 90
    32768
280
     0
281
     0
  0
CLASS
  1
LWPOLYLINE
  2
AcDbPolyline
  3
AutoCAD 2000
 90
    32768
280
     0
281
     1
  0
CLASS
  1
HATCH
  2
AcDbHatch
  3
AutoCAD 2000
 90
    32768
280
     0
281
     1
  0
CLASS
  1
XRECORD
  2
AcDbXrecord
  3
AutoCAD 2000
 90
    32768
280
     0
281
     0
  0
CLASS
  1
LONG_TRANSACTION
  2
AcDbLongTransaction
  3
AutoCAD 2000
 90
    32768
280
     0
281
     0
  0
CLASS
  1
LWPOLYLINE
  2
AcDbPolyline
  3
AutoCAD 2000
 90
    32768
280
     0
281
     1
  0
CLASS
  1
HATCH
  2
AcDbHatch
  3
AutoCAD 2000
 90
    32768
280
     0
281
     1
  0
CLASS
  1
XRECORD
  2
AcDbXrecord
  3
AutoCAD 2000
 90
    32768
280
     0
281
     0
  0
CLASS
  1
LONG_TRANSACTION
  2
AcDbLongTransaction
  3
AutoCAD 2000
 90
    32768
280
     0
281
     0
  0
CLASS
  1
LWPOLYLINE
  2
AcDbPolyline
  3
AutoCAD 2000
 90
    32768
280
     0
281
     1
  0
CLASS
  1
HATCH
  2
AcDbHatch
  3
AutoCAD 2000
 90
    32768
280
     0
281
     1
  0
CLASS
  1
XRECORD
  2
AcDbXrecord
  3
AutoCAD 2000
 90
    32768
280
     0
281
     0
  0
CLASS
  1
LONG_TRANSACTION
  2
AcDbLongTransaction
  3
AutoCAD 2000
 90
    32768
280
     0
281
     0
  0
CLASS
  1
LWPOLYLINE
  2
AcDbPolyline
  3
AutoCAD 2000
 90
    32768
280
     0
281
     1
  0
CLASS
  1
HATCH
  2
AcDbHatch
  3
AutoCAD 2000
 90
    32768
280
     0
281
     1
  0
CLASS
  1
XRECORD
  2
AcDbXrecord
  3
AutoCAD 2000
 90
    32768
280
     0
281
     0
  0
CLASS
  1
LONG_TRANSACTION
  2
AcDbLongTransaction
  3
AutoCAD 2000
 90
    32768
280
     0
281
     0
  0
CLASS
  1
LWPOLYLINE
  2
AcDbPolyline
  3
AutoCAD 2000
 90
    32768
280
     0
281
     1
  0
CLASS
  1
HATCH
  2
AcDbHatch
  3
AutoCAD 2000
 90
    32768
280
     0
281
     1
  0
CLASS
  1
XRECORD
  2
AcDbXrecord
  3
AutoCAD 2000
 90
    32768
280
     0
281
     0
  0
CLASS
  1
LONG_TRANSACTION
  2
AcDbLongTransaction
  3
AutoCAD 2000
 90
    32768
280
     0
281
     0
  0
CLASS
  1
LWPOLYLINE
  2
AcDbPolyline
  3
AutoCAD 2000
 90
    32768
280
     0
281
     1
  0
CLASS
  1
HATCH
  2
AcDbHatch
  3
AutoCAD 2000
 90
    32768
280
     0
281
     1
  0
CLASS
  1
XRECORD
  2
AcDbXrecord
  3
AutoCAD 2000
 90
    32768
280
     0
281
     0
  0
CLASS
  1
LONG_TRANSACTION
  2
AcDbLongTransaction
  3
AutoCAD 2000
 90
    32768
280
     0
281
     0
  0
CLASS
  1
LWPOLYLINE
  2
AcDbPolyline
  3
AutoCAD 2000
 90
    32768
280
     0
281
     1
  0
CLASS
  1
HATCH
  2
AcDbHatch
  3
AutoCAD 2000
 90
    32768
280
     0
281
     1
  0
CLASS
  1
XRECORD
  2
AcDbXrecord
  3
AutoCAD 2000
 90
    32768
280
     0
281
     0
  0
CLASS
  1
LONG_TRANSACTION
  2
AcDbLongTransaction
  3
AutoCAD 2000
 90
    32768
280
     0
281
     0
  0
CLASS
  1
LWPOLYLINE
  2
AcDbPolyline
  3
AutoCAD 2000
 90
    32768
280
     0
281
     1
  0
CLASS
  1
HATCH
  2
AcDbHatch
  3
AutoCAD 2000
 90
    32768
280
     0
281
     1
  0
CLASS
  1
XRECORD
  2
AcDbXrecord
  3
AutoCAD 2000
 90
    32768
280
     0
281
     0
  0
CLASS
  1
LONG_TRANSACTION
  2
AcDbLongTransaction
  3
AutoCAD 2000
 90
    32768
280
     0
281
     0
  0
CLASS
  1
LWPOLYLINE
  2
AcDbPolyline
  3
AutoCAD 2000
 90
    32768
280
     0
281
     1
  0
CLASS
  1
HATCH
  2
AcDbHatch
  3
AutoCAD 2000
 90
    32768
280
     0
281
     1
  0
CLASS
  1
XRECORD
  2
AcDbXrecord
  3
AutoCAD 2000
 90
    32768
280
     0
281
     0
  0
CLASS
  1
LONG_TRANSACTION
  2
AcDbLongTransaction
  3
AutoCAD 2000
 90
    32768
280
     0
281
     0
  0
CLASS
  1
LWPOLYLINE
  2
AcDbPolyline
  3
AutoCAD 2000
 90
    32768
280
     0
281
     1
  0
CLASS
  1
HATCH
  2
AcDbHatch
  3
AutoCAD 2000
 90
    32768
280
     0
281
     1
  0
CLASS
  1
XRECORD
  2
AcDbXrecord
  3
AutoCAD 2000
 90
    32768
280
     0
281
     0
  0
CLASS
  1
LONG_TRANSACTION
  2
AcDbLongTransaction
  3
AutoCAD 2000
 90
    32768
280
     0
281
     0
  0
CLASS
  1
LWPOLYLINE
  2
AcDbPolyline
  3
AutoCAD 2000
 90
    32768
280
     0
281
     1
  0
CLASS
  1
HATCH
  2
AcDbHatch
  3
AutoCAD 2000
 90
    32768
280
     0
281
     1
  0
CLASS
  1
XRECORD
  2
AcDbXrecord
  3
AutoCAD 2000
 90
    32768
280
     0
281
     0
  0
CLASS
  1
LONG_TRANSACTION
  2
AcDbLongTransaction
  3
AutoCAD 2000
 90
    32768
280
     0
281
     0
  0
CLASS
  1
LWPOLYLINE
  2
AcDbPolyline
  3
AutoCAD 2000
 90
    32768
280
     0
281
     1
  0
CLASS
  1
HATCH
  2
AcDbHatch
  3
AutoCAD 2000
 90
    32768
280
     0
281
     1
  0
CLASS
  1
XRECORD
  2
AcDbXrecord
  3
AutoCAD 2000
 90
    32768
280
     0
281
     0
  0
CLASS
  1
LONG_TRANSACTION
  2
AcDbLongTransaction
  3
AutoCAD 2000
 90
    32768
280
     0
281
     0
  0
CLASS
  1
LWPOLYLINE
  2
AcDbPolyline
  3
AutoCAD 2000
 90
    32768
280
     0
281
     1
  0
CLASS
  1
HATCH
  2
AcDbHatch
  3
AutoCAD 2000
 90
    32768
280
     0
281
     1
  0
CLASS
  1
XRECORD
  2
AcDbXrecord
  3
AutoCAD 2000
 90
    32768
280
     0
281
     0
  0
CLASS
  1
LONG_TRANSACTION
  2
AcDbLongTransaction
  3
AutoCAD 2000
 90
    32768
280
     0
281
     0
  0
CLASS
  1
LWPOLYLINE
  2
AcDbPolyline
  3
AutoCAD 2000
 90
    32768
280
     0
281
     1
  0
CLASS
  1
HATCH
  2
AcDbHatch
  3
AutoCAD 2000
 90
    32768
280
     0
281
     1
  0
CLASS
  1
XRECORD
  2
AcDbXrecord
  3
AutoCAD 2000
 90
    32768
280
     0
281
     0
  0
CLASS
  1
LONG_TRANSACTION
  2
AcDbLongTransaction
  3
AutoCAD 2000
 90
    32768
280
     0
281
     0
  0
CLASS
  1
LWPOLYLINE
  2
AcDbPolyline
  3
AutoCAD 2000
 90
    32768
280
     0
281
     1
  0
CLASS
  1
HATCH
  2
AcDbHatch
  3
AutoCAD 2000
 90
    32768
280
     0
281
     1
  0
CLASS
  1
XRECORD
  2
AcDbXrecord
  3
AutoCAD 2000
 90
    32768
280
     0
281
     0
  0
CLASS
  1
LONG_TRANSACTION
  2
AcDbLongTransaction
  3
AutoCAD 2000
 90
    32768
280
     0
281
     0
  0
CLASS
  1
LWPOLYLINE
  2
AcDbPolyline
  3
AutoCAD 2000
 90
    32768
280
     0
281
     1
  0
CLASS
  1
HATCH
  2
AcDbHatch
  3
AutoCAD 2000
 90
    32768
280
     0
281
     1
  0
CLASS
  1
XRECORD
  2
AcDbXrecord
  3
AutoCAD 2000
 90
    32768
280
     0
281
     0
  0
CLASS
  1
LONG_TRANSACTION
  2
AcDbLongTransaction
  3
AutoCAD 2000
 90
    32768
280
     0
281
     0
  0
CLASS
  1
LWPOLYLINE
  2
AcDbPolyline
  3
AutoCAD 2000
 90
    32768
280
     0
281
     1
  0
CLASS
  1
HATCH
  2
AcDbHatch
  3
AutoCAD 2000
 90
    32768
280
     0
281
     1
  0
CLASS
  1
XRECORD
  2
AcDbXrecord
  3
AutoCAD 2000
 90
    32768
280
     0
281
     0
  0
CLASS
  1
LONG_TRANSACTION
  2
AcDbLongTransaction
  3
AutoCAD 2000
 90
    32768
280
     0
281
     0
  0
CLASS
  1
LWPOLYLINE
  2
AcDbPolyline
  3
AutoCAD 2000
 90
    32768
280
     0
281
     1
  0
CLASS
  1
HATCH
  2
AcDbHatch
  3
AutoCAD 2000
 90
    32768
280
     0
281
     1
  0
CLASS
  1
XRECORD
  2
AcDbXrecord
  3
AutoCAD 2000
 90
    32768
280
     0
281
     0
  0
CLASS
  1
LONG_TRANSACTION
  2
AcDbLongTransaction
  3
AutoCAD 2000
 90
    32768
280
     0
281
     0
  0
CLASS
  1
LWPOLYLINE
  2
AcDbPolyline
  3
AutoCAD 2000
 90
    32768
280
     0
281
     1
  0
CLASS
  1
HATCH
  2
AcDbHatch
  3
AutoCAD 2000
 90
    32768
280
     0
281
     1
  0
CLASS
  1
XRECORD
  2
AcDbXrecord
  3
AutoCAD 2000
 90
    32768
280
     0
281
     0
  0
CLASS
  1
LONG_TRANSACTION
  2
AcDbLongTransaction
  3
AutoCAD 2000
 90
    32768
280
     0
281
     0
  0
CLASS
  1
LWPOLYLINE
  2
AcDbPolyline
  3
AutoCAD 2000
 90
    32768
280
     0
281
     1
  0
CLASS
  1
HATCH
  2
AcDbHatch
  3
AutoCAD 2000
 90
    32768
280
     0
281
     1
  0
CLASS
  1
XRECORD
  2
AcDbXrecord
  3
AutoCAD 2000
 90
    32768
280
     0
281
     0
  0
CLASS
  1
LONG_TRANSACTION
  2
AcDbLongTransaction
  3
AutoCAD 2000
 90
    32768
280
     0
281
     0
  0
CLASS
  1
LWPOLYLINE
  2
AcDbPolyline
  3
AutoCAD 2000
 90
    32768
280
     0
281
     1
  0
CLASS
  1
HATCH
  2
AcDbHatch
  3
AutoCAD 2000
 90
    32768
280
     0
281
     1
  0
CLASS
  1
XRECORD
  2
AcDbXrecord
  3
AutoCAD 2000
 90
    32768
280
     0
281
     0
  0
CLASS
  1
LONG_TRANSACTION
  2
AcDbLongTransaction
  3
AutoCAD 2000
 90
    32768
280
     0
281
     0
  0
CLASS
  1
LWPOLYLINE
  2
AcDbPolyline
  3
AutoCAD 2000
 90
    32768
280
     0
281
     1
  0
CLASS
  1
HATCH
  2
AcDbHatch
  3
AutoCAD 2000
 90
    32768
280
     0
281
     1
  0
CLASS
  1
XRECORD
  2
AcDbXrecord
  3
AutoCAD 2000
 90
    32768
280
     0
281
     0
  0
CLASS
  1
LONG_TRANSACTION
  2
AcDbLongTransaction
  3
AutoCAD 2000
 90
    32768
280
     0
281
     0
  0
CLASS
  1
LWPOLYLINE
  2
AcDbPolyline
  3
AutoCAD 2000
 90
    32768
280
     0
281
     1
  0
CLASS
  1
HATCH
  2
AcDbHatch
  3
AutoCAD 2000
 90
    32768
280
     0
281
     1
  0
CLASS
  1
XRECORD
  2
AcDbXrecord
  3
AutoCAD 2000
 90
    32768
280
     0
281
     0
  0
CLASS
  1
LONG_TRANSACTION
  2
AcDbLongTransaction
  3
AutoCAD 2000
 90
    32768
280
     0
281
     0
  0
CLASS
  1
LWPOLYLINE
  2
AcDbPolyline
  3
AutoCAD 2000
 90
    32768
280
     0
281
     1
  0
CLASS
  1
HATCH
  2
AcDbHatch
  3
AutoCAD 2000
 90
    32768
280
     0
281
     1
  0
CLASS
  1
XRECORD
  2
AcDbXrecord
  3
AutoCAD 2000
 90
    32768
280
     0
281
     0
  0
CLASS
  1
LONG_TRANSACTION
  2
AcDbLongTransaction
  3
AutoCAD 2000
 90
    32768
280
     0
281
     0
  0
CLASS
  1
LWPOLYLINE
  2
AcDbPolyline
  3
AutoCAD 2000
 90
    32768
280
     0
281
     1
  0
CLASS
  1
HATCH
  2
AcDbHatch
  3
AutoCAD 2000
 90
    32768
280
     0
281
     1
  0
CLASS
  1
XRECORD
  2
AcDbXrecord
  3
AutoCAD 2000
 90
    32768
280
     0
281
     0
  0
CLASS
  1
LONG_TRANSACTION
  2
AcDbLongTransaction
  3
AutoCAD 2000
 90
    32768
280
     0
281
     0
  0
CLASS
  1
LWPOLYLINE
  2
AcDbPolyline
  3
AutoCAD 2000
 90
    32768
280
     0
281
     1
  0
CLASS
  1
HATCH
  2
AcDbHatch
  3
AutoCAD 2000
 90
    32768
280
     0
281
     1
  0
CLASS
  1
XRECORD
  2
AcDbXrecord
  3
AutoCAD 2000
 90
    32768
280
     0
281
     0
  0
CLASS
  1
LONG_TRANSACTION
  2
AcDbLongTransaction
  3
AutoCAD 2000
 90
    32768
280
     0
281
     0
  0
CLASS
  1
LWPOLYLINE
  2
AcDbPolyline
  3
AutoCAD 2000
 90
    32768
280
     0
281
     1
  0
CLASS
  1
HATCH
  2
AcDbHatch
  3
AutoCAD 2000
 90
    32768
280
     0
281
     1
  0
CLASS
  1
XRECORD
  2
AcDbXrecord
  3
AutoCAD 2000
 90
    32768
280
     0
281
     0
  0
CLASS
  1
LONG_TRANSACTION
  2
AcDbLongTransaction
  3
AutoCAD 2000
 90
    32768
280
     0
281
     0
  0
CLASS
  1
LWPOLYLINE
  2
AcDbPolyline
  3
AutoCAD 2000
 90
    32768
280
     0
281
     1
  0
CLASS
  1
HATCH
  2
AcDbHatch
  3
AutoCAD 2000
 90
    32768
280
     0
281
     1
  0
CLASS
  1
XRECORD
  2
AcDbXrecord
  3
AutoCAD 2000
 90
    32768
280
     0
281
     0
  0
CLASS
  1
LONG_TRANSACTION
  2
AcDbLongTransaction
  3
AutoCAD 2000
 90
    32768
280
     0
281
     0
  0
CLASS
  1
LWPOLYLINE
  2
AcDbPolyline
  3
AutoCAD 2000
 90
    32768
280
     0
281
     1
  0
CLASS
  1
HATCH
  2
AcDbHatch
  3
AutoCAD 2000
 90
    32768
280
     0
281
     1
  0
CLASS
  1
XRECORD
  2
AcDbXrecord
  3
AutoCAD 2000
 90
    32768
280
     0
281
     0
  0
CLASS
  1
LONG_TRANSACTION
  2
AcDbLongTransaction
  3
AutoCAD 2000
 90
    32768
280
     0
281
     0
  0
CLASS
  1
LWPOLYLINE
  2
AcDbPolyline
  3
AutoCAD 2000
 90
    32768
280
     0
281
     1
  0
CLASS
  1
HATCH
  2
AcDbHatch
  3
AutoCAD 2000
 90
    32768
280
     0
281
     1
  0
CLASS
  1
XRECORD
  2
AcDbXrecord
  3
AutoCAD 2000
 90
    32768
280
     0
281
     0
  0
CLASS
  1
LONG_TRANSACTION
  2
AcDbLongTransaction
  3
AutoCAD 2000
 90
    32768
280
     0
281
     0
  0
CLASS
  1
LWPOLYLINE
  2
AcDbPolyline
  3
AutoCAD 2000
 90
    32768
280
     0
281
     1
  0
CLASS
  1
HATCH
  2
AcDbHatch
  3
AutoCAD 2000
 90
    32768
280
     0
281
     1
  0
CLASS
  1
XRECORD
  2
AcDbXrecord
  3
AutoCAD 2000
 90
    32768
280
     0
281
     0
  0
CLASS
  1
LONG_TRANSACTION
  2
AcDbLongTransaction
  3
AutoCAD 2000
 90
    32768
280
     0
281
     0
  0
CLASS
  1
LWPOLYLINE
  2
AcDbPolyline
  3
AutoCAD 2000
 90
    32768
280
     0
281
     1
  0
CLASS
  1
HATCH
  2
AcDbHatch
  3
AutoCAD 2000
 90
    32768
280
     0
281
     1
  0
CLASS
  1
XRECORD
  2
AcDbXrecord
  3
AutoCAD 2000
 90
    32768
280
     0
281
     0
  0
CLASS
  1
LONG_TRANSACTION
  2
AcDbLongTransaction
  3
AutoCAD 2000
 90
    32768
280
     0
281
     0
  0
CLASS
  1
LWPOLYLINE
  2
AcDbPolyline
  3
AutoCAD 2000
 90
    32768
280
     0
281
     1
  0
CLASS
  1
HATCH
  2
AcDbHatch
  3
AutoCAD 2000
 90
    32768
280
     0
281
     1
  0
CLASS
  1
XRECORD
  2
AcDbXrecord
  3
AutoCAD 2000
 90
    32768
280
     0
281
     0
  0
CLASS
  1
LONG_TRANSACTION
  2
AcDbLongTransaction
  3
AutoCAD 2000
 90
    32768
280
     0
281
     0
  0
CLASS
  1
LWPOLYLINE
  2
AcDbPolyline
  3
AutoCAD 2000
 90
    32768
280
     0
281
     1
  0
CLASS
  1
HATCH
  2
AcDbHatch
  3
AutoCAD 2000
 90
    32768
280
     0
281
     1
  0
CLASS
  1
XRECORD
  2
AcDbXrecord
  3
AutoCAD 2000
 90
    32768
280
     0
281
     0
  0
CLASS
  1
LONG_TRANSACTION
  2
AcDbLongTransaction
  3
AutoCAD 2000
 90
    32768
280
     0
281
     0
  0
CLASS
  1
LWPOLYLINE
  2
AcDbPolyline
  3
AutoCAD 2000
 90
    32768
280
     0
281
     1
  0
CLASS
  1
HATCH
  2
AcDbHatch
  3
AutoCAD 2000
 90
    32768
280
     0
281
     1
  0
CLASS
  1
XRECORD
  2
AcDbXrecord
  3
AutoCAD 2000
 90
    32768
280
     0
281
     0
  0
CLASS
  1
LONG_TRANSACTION
  2
AcDbLongTransaction
  3
AutoCAD 2000
 90
    32768
280
     0
281
     0
  0
CLASS
  1
LWPOLYLINE
  2
AcDbPolyline
  3
AutoCAD 2000
 90
    32768
280
     0
281
     1
  0
CLASS
  1
HATCH
  2
AcDbHatch
  3
AutoCAD 2000
 90
    32768
280
     0
281
     1
  0
CLASS
  1
XRECORD
  2
AcDbXrecord
  3
AutoCAD 2000
 90
    32768
280
     0
281
     0
  0
CLASS
  1
LONG_TRANSACTION
  2
AcDbLongTransaction
  3
AutoCAD 2000
 90
    32768
280
     0
281
     0
  0
CLASS
  1
LWPOLYLINE
  2
AcDbPolyline
  3
AutoCAD 2000
 90
    32768
280
     0
281
     1
  0
CLASS
  1
HATCH
  2
AcDbHatch
  3
AutoCAD 2000
 90
    32768
280
     0
281
     1
  0
CLASS
  1
XRECORD
  2
AcDbXrecord
  3
AutoCAD 2000
 90
    32768
280
     0
281
     0
  0
CLASS
  1
LONG_TRANSACTION
  2
AcDbLongTransaction
  3
AutoCAD 2000
 90
    32768
280
     0
281
     0
  0
CLASS
  1
LWPOLYLINE
  2
AcDbPolyline
  3
AutoCAD 2000
 90
    32768
280
     0
281
     1
  0
CLASS
  1
HATCH
  2
AcDbHatch
  3
AutoCAD 2000
 90
    32768
280
     0
281
     1
  0
CLASS
  1
XRECORD
  2
AcDbXrecord
  3
AutoCAD 2000
 90
    32768
280
     0
281
     0
  0
CLASS
  1
LONG_TRANSACTION
  2
AcDbLongTransaction
  3
AutoCAD 2000
 90
    32768
280
     0
281
     0
  0
CLASS
  1
LWPOLYLINE
  2
AcDbPolyline
  3
AutoCAD 2000
 90
    32768
280
     0
281
     1
  0
CLASS
  1
HATCH
  2
AcDbHatch
  3
AutoCAD 2000
 90
    32768
280
     0
281
     1
  0
CLASS
  1
XRECORD
  2
AcDbXrecord
  3
AutoCAD 2000
 90
    32768
280
     0
281
     0
  0
CLASS
  1
LONG_TRANSACTION
  2
AcDbLongTransaction
  3
AutoCAD 2000
 90
    32768
280
     0
281
     0
  0
CLASS
  1
LWPOLYLINE
  2
AcDbPolyline
  3
AutoCAD 2000
 90
    32768
280
     0
281
     1
  0
CLASS
  1
HATCH
  2
AcDbHatch
  3
AutoCAD 2000
 90
    32768
280
     0
281
     1
  0
CLASS
  1
XRECORD
  2
AcDbXrecord
  3
AutoCAD 2000
 90
    32768
280
     0
281
     0
  0
CLASS
  1
LONG_TRANSACTION
  2
AcDbLongTransaction
  3
AutoCAD 2000
 90
    32768
280
     0
281
     0
  0
CLASS
  1
LWPOLYLINE
  2
AcDbPolyline
  3
AutoCAD 2000
 90
    32768
280
     0
281
     1
  0
CLASS
  1
HATCH
  2
AcDbHatch
  3
AutoCAD 2000
 90
    32768
280
     0
281
     1
  0
CLASS
  1
XRECORD
  2
AcDbXrecord
  3
AutoCAD 2000
 90
    32768
280
     0
281
     0
  0
CLASS
  1
LONG_TRANSACTION
  2
AcDbLongTransaction
  3
AutoCAD 2000
 90
    32768
280
     0
281
     0
  0
CLASS
  1
LWPOLYLINE
  2
AcDbPolyline
  3
AutoCAD 2000
 90
    32768
280
     0
281
     1
  0
CLASS
  1
HATCH
  2
AcDbHatch
  3
AutoCAD 2000
 90
    32768
280
     0
281
     1
  0
CLASS
  1
XRECORD
  2
AcDbXrecord
  3
AutoCAD 2000
 90
    32768
280
     0
281
     0
  0
CLASS
  1
LONG_TRANSACTION
  2
AcDbLongTransaction
  3
AutoCAD 2000
 90
    32768
280
     0
281
     0
  0
CLASS
  1
LWPOLYLINE
  2
AcDbPolyline
  3
AutoCAD 2000
 90
    32768
280
     0
281
     1
  0
CLASS
  1
HATCH
  2
AcDbHatch
  3
AutoCAD 2000
 90
    32768
280
     0
281
     1
  0
CLASS
  1
XRECORD
  2
AcDbXrecord
  3
AutoCAD 2000
 90
    32768
280
     0
281
     0
  0
CLASS
  1
LONG_TRANSACTION
  2
AcDbLongTransaction
  3
AutoCAD 2000
 90
    32768
280
     0
281
     0
  0
CLASS
  1
LWPOLYLINE
  2
AcDbPolyline
  3
AutoCAD 2000
 90
    32768
280
     0
281
     1
  0
CLASS
  1
HATCH
  2
AcDbHatch
  3
AutoCAD 2000
 90
    32768
280
     0
281
     1
  0
CLASS
  1
XRECORD
  2
AcDbXrecord
  3
AutoCAD 2000
 90
    32768
280
     0
281
     0
  0
CLASS
  1
LONG_TRANSACTION
  2
AcDbLongTransaction
  3
AutoCAD 2000
 90
    32768
280
     0
281
     0
  0
CLASS
  1
LWPOLYLINE
  2
AcDbPolyline
  3
AutoCAD 2000
 90
    32768
280
     0
281
     1
  0
CLASS
  1
HATCH
  2
AcDbHatch
  3
AutoCAD 2000
 90
    32768
280
     0
281
     1
  0
CLASS
  1
XRECORD
  2
AcDbXrecord
  3
AutoCAD 2000
 90
    32768
280
     0
281
     0
  0
CLASS
  1
LONG_TRANSACTION
  2
AcDbLongTransaction
  3
AutoCAD 2000
 90
    32768
280
     0
281
     0
  0
CLASS
  1
LWPOLYLINE
  2
AcDbPolyline
  3
AutoCAD 2000
 90
    32768
280
     0
281
     1
  0
CLASS
  1
HATCH
  2
AcDbHatch
  3
AutoCAD 2000
 90
    32768
280
     0
281
     1
  0
CLASS
  1
XRECORD
  2
AcDbXrecord
  3
AutoCAD 2000
 90
    32768
280
     0
281
     0
  0
CLASS
  1
LONG_TRANSACTION
  2
AcDbLongTransaction
  3
AutoCAD 2000
 90
    32768
280
     0
281
     0
  0
CLASS
  1
LWPOLYLINE
  2
AcDbPolyline
  3
AutoCAD 2000
 90
    32768
280
     0
281
     1
  0
CLASS
  1
HATCH
  2
AcDbHatch
  3
AutoCAD 2000
 90
    32768
280
     0
281
     1
  0
CLASS
  1
XRECORD
  2
AcDbXrecord
  3
AutoCAD 2000
 90
    32768
280
     0
281
     0
  0
CLASS
  1
LONG_TRANSACTION
  2
AcDbLongTransaction
  3
AutoCAD 2000
 90
    32768
280
     0
281
     0
  0
CLASS
  1
LWPOLYLINE
  2
AcDbPolyline
  3
AutoCAD 2000
 90
    32768
280
     0
281
     1
  0
CLASS
  1
HATCH
  2
AcDbHatch
  3
AutoCAD 2000
 90
    32768
280
     0
281
     1
  0
CLASS
  1
XRECORD
  2
AcDbXrecord
  3
AutoCAD 2000
 90
    32768
280
     0
281
     0
  0
CLASS
  1
LONG_TRANSACTION
  2
AcDbLongTransaction
  3
AutoCAD 2000
 90
    32768
280
     0
281
     0
  0
CLASS
  1
LWPOLYLINE
  2
AcDbPolyline
  3
AutoCAD 2000
 90
    32768
280
     0
281
     1
  0
CLASS
  1
HATCH
  2
AcDbHatch
  3
AutoCAD 2000
 90
    32768
280
     0
281
     1
  0
CLASS
  1
XRECORD
  2
AcDbXrecord
  3
AutoCAD 2000
 90
    32768
280
     0
281
     0
  0
CLASS
  1
LONG_TRANSACTION
  2
AcDbLongTransaction
  3
AutoCAD 2000
 90
    32768
280
     0
281
     0
  0
CLASS
  1
LWPOLYLINE
  2
AcDbPolyline
  3
AutoCAD 2000
 90
    32768
280
     0
281
     1
  0
CLASS
  1
HATCH
  2
AcDbHatch
  3
AutoCAD 2000
 90
    32768
280
     0
281
     1
  0
CLASS
  1
XRECORD
  2
AcDbXrecord
  3
AutoCAD 2000
 90
    32768
280
     0
281
     0
  0
CLASS
  1
LONG_TRANSACTION
  2
AcDbLongTransaction
  3
AutoCAD 2000
 90
    32768
280
     0
281
     0
  0
CLASS
  1
LWPOLYLINE
  2
AcDbPolyline
  3
AutoCAD 2000
 90
    32768
280
     0
281
     1
  0
CLASS
  1
HATCH
  2
AcDbHatch
  3
AutoCAD 2000
 90
    32768
280
     0
281
     1
  0
CLASS
  1
XRECORD
  2
AcDbXrecord
  3
AutoCAD 2000
 90
    32768
280
     0
281
     0
  0
ENDSEC
  0
SECTION
  2
TABLES
  0
TABLE
  2
VPORT
  5
90
330
0
100
AcDbSymbolTable
 70
     2
  0
VPORT
  5
3D5
330
90
100
AcDbSymbolTableRecord
100
AcDbViewportTableRecord
  2
*ACTIVE
 70
     0
 10
0.0
 20
0.0
 11
1.0
 21
1.0
 12
206.0534934844472
 22
148.4581644710469
 13
0.0
 23
0.0
 14
10.0
 24
10.0
 15
10.0
 25
10.0
 16
0.0
 26
0.0
 36
1.0
 17
0.0
 27
0.0
 37
0.0
 40
331.7503833964235
 41
1.549367088607595
 42
50.0
 43
0.0
 44
0.0
 50
0.0
 51
0.0
 71
     0
 72
 10000
 73
     1
 74
     3
 75
     0
 76
     0
 77
     0
 78
     1
  0
ENDTAB
  0
TABLE
  2
LTYPE
  5
8B
330
0
100
AcDbSymbolTable
 70
     3
  0
LTYPE
  5
8C
330
8B
100
AcDbSymbolTableRecord
100
AcDbLinetypeTableRecord
  2
BYBLOCK
 70
     0
  3

 72
    65
 73
     0
 40
0.0
  0
LTYPE
  5
8D
330
8B
100
AcDbSymbolTableRecord
100
AcDbLinetypeTableRecord
  2
BYLAYER
 70
     0
  3

 72
    65
 73
     0
 40
0.0
  0
LTYPE
  5
9
330
8B
100
AcDbSymbolTableRecord
100
AcDbLinetypeTableRecord
  2
CONTINUOUS
 70
     0
  3
Solid line
 72
    65
 73
     0
 40
0.0
  0
LTYPE
  5
DC
330
8B
100
AcDbSymbolTableRecord
100
AcDbLinetypeTableRecord
  2
CENTER
 70
     0
  3
Center ____ _ ____ _ ____ _ ____ _ ____ _ ____
 72
    65
 73
     4
 40
50.8
 49
31.75
 74
     0
 49
-6.349999999999998
 74
     0
 49
6.349999999999998
 74
     0
 49
-6.349999999999998
 74
     0
  0
LTYPE
  5
1B3
330
8B
100
AcDbSymbolTableRecord
100
AcDbLinetypeTableRecord
  2
CENTERX2
 70
     0
  3
Center (2x) ________  __  ________  __  _____
 72
    65
 73
     4
 40
101.6
 49
63.5
 74
     0
 49
-12.7
 74
     0
 49
12.7
 74
     0
 49
-12.7
 74
     0
  0
ENDTAB
  0
TABLE
  2
LAYER
  5
12
102
{ACAD_XDICTIONARY
360
13
102
}
330
0
100
AcDbSymbolTable
 70
     7
  0
LAYER
  5
5
330
12
100
AcDbSymbolTableRecord
100
AcDbLayerTableRecord
  2
0
 70
     0
 62
     7
  6
CONTINUOUS
  0
LAYER
  5
18D
330
12
100
AcDbSymbolTableRecord
100
AcDbLayerTableRecord
  2
3
 70
     0
 62
     3
  6
CONTINUOUS
  0
LAYER
  5
AE
330
12
100
AcDbSymbolTableRecord
100
AcDbLayerTableRecord
  2
DEFPOINTS
 70
     0
 62
     7
  6
CONTINUOUS
  0
LAYER
  5
9C
330
12
100
AcDbSymbolTableRecord
100
AcDbLayerTableRecord
  2
DIM
 70
     0
 62
     3
  6
CONTINUOUS
  0
LAYER
  5
1B2
330
12
100
AcDbSymbolTableRecord
100
AcDbLayerTableRecord
  2
CL
 70
     0
 62
     1
  6
CENTERX2
  0
LAYER
  5
DB
330
12
100
AcDbSymbolTableRecord
100
AcDbLayerTableRecord
  2
CEN
 70
     0
 62
     1
  6
CENTER
  0
LAYER
  5
25D
330
12
100
AcDbSymbolTableRecord
100
AcDbLayerTableRecord
  2
2
 70
     0
 62
     2
  6
CONTINUOUS
  0
ENDTAB
  0
TABLE
  2
STYLE
  5
88
330
0
100
AcDbSymbolTable
 70
     1
  0
STYLE
  5
89
330
88
100
AcDbSymbolTableRecord
100
AcDbTextStyleTableRecord
  2
STANDARD
 70
     0
 40
0.0
 41
1.0
 50
0.0
 71
     0
 42
5.777225951253058
  3
romans.shx
  4
whgtxt.shx
  0
ENDTAB
  0
TABLE
  2
VIEW
  5
8E
330
0
100
AcDbSymbolTable
 70
     0
  0
ENDTAB
  0
TABLE
  2
UCS
  5
8F
330
0
100
AcDbSymbolTable
 70
     0
  0
ENDTAB
  0
TABLE
  2
APPID
  5
92
330
0
100
AcDbSymbolTable
 70
     2
  0
APPID
  5
93
330
92
100
AcDbSymbolTableRecord
100
AcDbRegAppTableRecord
  2
ACAD
 70
     0
  0
APPID
  5
3EE
330
92
100
AcDbSymbolTableRecord
100
AcDbRegAppTableRecord
  2
CONTENTBLOCKICON
 70
     0
  0
ENDTAB
  0
TABLE
  2
DIMSTYLE
  5
94
330
0
100
AcDbSymbolTable
 70
     2
  0
DIMSTYLE
105
A5
102
{ACAD_REACTORS
330
11C
330
274
330
2B6
330
283
330
E1
330
23C
330
290
330
1D8
330
2A2
330
CB
330
1F6
330
1E7
330
190
330
1B7
330
F5
330
1C6
330
171
330
104
330
A2
330
B5
102
}
330
94
100
AcDbSymbolTableRecord
100
AcDbDimStyleTableRecord
  2
STANDARD
 70
     0
  3

  4

  5

  6

  7

 40
1.0
 41
2.5
 42
1.0
 43
10.0
 44
0.6
 45
0.0
 46
0.0
 47
0.0
 48
0.0
140
3.0
141
0.09
142
0.0
143
25.4
144
1.0
145
0.0
146
1.0
147
1.0
 71
     0
 72
     0
 73
     0
 74
     0
 75
     0
 76
     0
 77
     1
 78
     8
170
     0
171
     2
172
     1
173
     0
174
     1
175
     0
176
   123
177
   123
178
     3
270
     2
271
     2
272
     2
273
     2
274
     2
340
89
275
     1
280
     0
281
     0
282
     0
283
     1
284
     0
285
     0
286
     0
287
     0
288
     1
  0
DIMSTYLE
105
95
330
94
100
AcDbSymbolTableRecord
100
AcDbDimStyleTableRecord
  2
1_1_2
 70
     0
  3

  4

  5

  6

  7

 40
1.0
 41
3.0
 42
1.0
 43
10.0
 44
0.6
 45
0.0
 46
0.0
 47
0.0
 48
0.0
140
3.5
141
0.09
142
0.0
143
25.4
144
1.0
145
0.0
146
1.0
147
1.0
 71
     0
 72
     0
 73
     0
 74
     0
 75
     0
 76
     0
 77
     1
 78
     8
170
     0
171
     2
172
     1
173
     0
174
     1
175
     0
176
   123
177
   123
178
     3
270
     2
271
     2
272
     2
273
     2
274
     2
340
89
275
     1
280
     0
281
     0
282
     0
283
     1
284
     0
285
     0
286
     0
287
     0
288
     1
  0
ENDTAB
  0
TABLE
  2
BLOCK_RECORD
  5
1
330
0
100
AcDbSymbolTable
 70
    40
  0
BLOCK_RECORD
  5
2
102
{ACAD_XDICTIONARY
360
3
102
}
330
1
100
AcDbSymbolTableRecord
100
AcDbBlockTableRecord
  2
*MODEL_SPACE
  0
BLOCK_RECORD
  5
D
102
{ACAD_XDICTIONARY
360
E
102
}
330
1
100
AcDbSymbolTableRecord
100
AcDbBlockTableRecord
  2
*PAPER_SPACE
  0
BLOCK_RECORD
  5
118
330
1
100
AcDbSymbolTableRecord
100
AcDbBlockTableRecord
  2
5
1001
ACAD
1000
DesignCenter Data
1002
{
1070
     1
1070
     4
1002
}
1001
CONTENTBLOCKICON
1071
        0
1004
2800000020000000200000000100080000000000000400000000000000000000000000000000000000000000000080000080000000808000800000008000800080800000C0C0C000C0DCC000F0CAA6000020400000206000002080000020A0000020C0000020E00000400000004020000040400000406000004080000040A0
1004
000040C0000040E00000600000006020000060400000606000006080000060A0000060C0000060E00000800000008020000080400000806000008080000080A0000080C0000080E00000A0000000A0200000A0400000A0600000A0800000A0A00000A0C00000A0E00000C0000000C0200000C0400000C0600000C0800000C0
1004
A00000C0C00000C0E00000E0000000E0200000E0400000E0600000E0800000E0A00000E0C00000E0E00040000000400020004000400040006000400080004000A0004000C0004000E00040200000402020004020400040206000402080004020A0004020C0004020E000404000004040200040404000404060004040800040
1004
40A0004040C0004040E00040600000406020004060400040606000406080004060A0004060C0004060E00040800000408020004080400040806000408080004080A0004080C0004080E00040A0000040A0200040A0400040A0600040A0800040A0A00040A0C00040A0E00040C0000040C0200040C0400040C0600040C08000
1004
40C0A00040C0C00040C0E00040E0000040E0200040E0400040E0600040E0800040E0A00040E0C00040E0E00080000000800020008000400080006000800080008000A0008000C0008000E00080200000802020008020400080206000802080008020A0008020C0008020E00080400000804020008040400080406000804080
1004
008040A0008040C0008040E00080600000806020008060400080606000806080008060A0008060C0008060E00080800000808020008080400080806000808080008080A0008080C0008080E00080A0000080A0200080A0400080A0600080A0800080A0A00080A0C00080A0E00080C0000080C0200080C0400080C0600080C0
1004
800080C0A00080C0C00080C0E00080E0000080E0200080E0400080E0600080E0800080E0A00080E0C00080E0E000C0000000C0002000C0004000C0006000C0008000C000A000C000C000C000E000C0200000C0202000C0204000C0206000C0208000C020A000C020C000C020E000C0400000C0402000C0404000C0406000C0
1004
408000C040A000C040C000C040E000C0600000C0602000C0604000C0606000C0608000C060A000C060C000C060E000C0800000C0802000C0804000C0806000C0808000C080A000C080C000C080E000C0A00000C0A02000C0A04000C0A06000C0A08000C0A0A000C0A0C000C0A0E000C0C00000C0C02000C0C04000C0C06000
1004
C0C08000C0C0A000F0FBFF00A4A0A000808080000000FF0000FF000000FFFF00FF000000FF00FF00FFFF0000FFFFFF0000000000000000000000000000000000000000000000000000000000000000000000000000000000000000000000000000000000000000000000000000000000000000000000000000000000000000
1004
00000000000000000000000000000000000000000000F9000000000000000000000000000000F900000000000000000000000000FFF90000000000000000000000000000000000FFF9000000000000000000F3F3F9FF0000000000000000000000000000000000FFFF00000000000000000000F9FF00F90000000000000000
1004
00000000000000F900F9000000000000000000000000F30000000000000000000000000000000000000000000000000000000000000000F3F30000000000000000000000000000000000000000000000000000000000000000F30000000000000000000000000000000000000000000000000000000000000000F300000000
1004
00000000000000000000000000000000000000000000000000000000F30000000000000000000000000000000000000000000000000000000000000000F3F30000000000000000000000000000000000000000000000000000000000000000F300000000000000000000000000000000000000000000000000000000000000
1004
00F30000000000000000000000000000000000000000000000000000000000000000F30000000000000000000000000000000000000000000000000000000000000000F3F30000000000000000000000000000000000000000000000000000000000000000F300000000000000000000000000000000000000000000000000
1004
00000000000000F30000000000000000000000000000000000000000000000000000000000000000F30000000000000000000000000000000000000000000000000000000000000000F3F30000000000000000000000000000000000000000000000000000000000000000F3F900000000000000000000F9FF00F900000000
1004
0000000000000000000000F9F9FFF300000000000000000000FFFF00000000000000000000000000000000F9F9FF00F3000000000000000000FF00F90000000000000000000000000000F900FFF900FAFA000000000000000000000000000000000000000000000000000000000000FAFAFAF3000000000000000000000000
1004
0000000000000000000000000000000000FAFAFAFA0000000000000000000000000000000000000000000000000000000000FAFAFAF3000000000000000000000000000000000000000000000000000000000000FA000000000000000000000000000000000000000000000000000000000000000000000000000000000000
1004
0000000000000000000000000000000000000000000000000000000000000000000000000000000000000000000000000000000000000000
  0
BLOCK_RECORD
  5
11F
330
1
100
AcDbSymbolTableRecord
100
AcDbBlockTableRecord
  2
*D1
  0
BLOCK_RECORD
  5
284
330
1
100
AcDbSymbolTableRecord
100
AcDbBlockTableRecord
  2
*D2
  0
BLOCK_RECORD
  5
E2
330
1
100
AcDbSymbolTableRecord
100
AcDbBlockTableRecord
  2
*D3
  0
BLOCK_RECORD
  5
291
330
1
100
AcDbSymbolTableRecord
100
AcDbBlockTableRecord
  2
*D4
  0
BLOCK_RECORD
  5
CC
330
1
100
AcDbSymbolTableRecord
100
AcDbBlockTableRecord
  2
*D5
  0
BLOCK_RECORD
  5
1F7
330
1
100
AcDbSymbolTableRecord
100
AcDbBlockTableRecord
  2
*D6
  0
BLOCK_RECORD
  5
1E8
330
1
100
AcDbSymbolTableRecord
100
AcDbBlockTableRecord
  2
*D7
  0
BLOCK_RECORD
  5
277
330
1
100
AcDbSymbolTableRecord
100
AcDbBlockTableRecord
  2
*D8
  0
BLOCK_RECORD
  5
2B9
330
1
100
AcDbSymbolTableRecord
100
AcDbBlockTableRecord
  2
*D9
  0
BLOCK_RECORD
  5
23F
330
1
100
AcDbSymbolTableRecord
100
AcDbBlockTableRecord
  2
*D10
  0
BLOCK_RECORD
  5
1DB
330
1
100
AcDbSymbolTableRecord
100
AcDbBlockTableRecord
  2
*D11
  0
BLOCK_RECORD
  5
2A5
330
1
100
AcDbSymbolTableRecord
100
AcDbBlockTableRecord
  2
*D12
  0
BLOCK_RECORD
  5
193
330
1
100
AcDbSymbolTableRecord
100
AcDbBlockTableRecord
  2
*D13
  0
BLOCK_RECORD
  5
1BA
330
1
100
AcDbSymbolTableRecord
100
AcDbBlockTableRecord
  2
*D14
  0
BLOCK_RECORD
  5
F8
330
1
100
AcDbSymbolTableRecord
100
AcDbBlockTableRecord
  2
*D15
  0
BLOCK_RECORD
  5
1C9
330
1
100
AcDbSymbolTableRecord
100
AcDbBlockTableRecord
  2
*D16
  0
BLOCK_RECORD
  5
174
330
1
100
AcDbSymbolTableRecord
100
AcDbBlockTableRecord
  2
*D17
  0
BLOCK_RECORD
  5
107
330
1
100
AcDbSymbolTableRecord
100
AcDbBlockTableRecord
  2
*D18
  0
BLOCK_RECORD
  5
A6
330
1
100
AcDbSymbolTableRecord
100
AcDbBlockTableRecord
  2
*D19
  0
BLOCK_RECORD
  5
B8
330
1
100
AcDbSymbolTableRecord
100
AcDbBlockTableRecord
  2
*D20
  0
BLOCK_RECORD
  5
2D3
330
1
100
AcDbSymbolTableRecord
100
AcDbBlockTableRecord
  2
*D21
  0
BLOCK_RECORD
  5
2DF
330
1
100
AcDbSymbolTableRecord
100
AcDbBlockTableRecord
  2
*D22
  0
BLOCK_RECORD
  5
2EB
330
1
100
AcDbSymbolTableRecord
100
AcDbBlockTableRecord
  2
*D23
  0
BLOCK_RECORD
  5
2F7
330
1
100
AcDbSymbolTableRecord
100
AcDbBlockTableRecord
  2
*D24
  0
BLOCK_RECORD
  5
305
330
1
100
AcDbSymbolTableRecord
100
AcDbBlockTableRecord
  2
*D25
  0
BLOCK_RECORD
  5
311
330
1
100
AcDbSymbolTableRecord
100
AcDbBlockTableRecord
  2
*D26
  0
BLOCK_RECORD
  5
31D
330
1
100
AcDbSymbolTableRecord
100
AcDbBlockTableRecord
  2
*D27
  0
BLOCK_RECORD
  5
32B
330
1
100
AcDbSymbolTableRecord
100
AcDbBlockTableRecord
  2
*D28
  0
BLOCK_RECORD
  5
337
330
1
100
AcDbSymbolTableRecord
100
AcDbBlockTableRecord
  2
*D29
  0
BLOCK_RECORD
  5
345
330
1
100
AcDbSymbolTableRecord
100
AcDbBlockTableRecord
  2
*D30
  0
BLOCK_RECORD
  5
351
330
1
100
AcDbSymbolTableRecord
100
AcDbBlockTableRecord
  2
*D31
  0
BLOCK_RECORD
  5
35D
330
1
100
AcDbSymbolTableRecord
100
AcDbBlockTableRecord
  2
*D32
  0
BLOCK_RECORD
  5
369
330
1
100
AcDbSymbolTableRecord
100
AcDbBlockTableRecord
  2
*D33
  0
BLOCK_RECORD
  5
375
330
1
100
AcDbSymbolTableRecord
100
AcDbBlockTableRecord
  2
*D34
  0
BLOCK_RECORD
  5
381
330
1
100
AcDbSymbolTableRecord
100
AcDbBlockTableRecord
  2
*D35
  0
BLOCK_RECORD
  5
38F
330
1
100
AcDbSymbolTableRecord
100
AcDbBlockTableRecord
  2
*D36
  0
BLOCK_RECORD
  5
39B
330
1
100
AcDbSymbolTableRecord
100
AcDbBlockTableRecord
  2
*D37
  0
BLOCK_RECORD
  5
3A7
330
1
100
AcDbSymbolTableRecord
100
AcDbBlockTableRecord
  2
*D38
  0
BLOCK_RECORD
  5
3B3
330
1
100
AcDbSymbolTableRecord
100
AcDbBlockTableRecord
  2
*D39
  0
ENDTAB
  0
ENDSEC
  0
SECTION
  2
BLOCKS
  0
BLOCK
  5
4
330
2
100
AcDbEntity
  8
0
100
AcDbBlockBegin
  2
*MODEL_SPACE
 70
     0
 10
0.0
 20
0.0
 30
0.0
  3
*MODEL_SPACE
  1

  0
ENDBLK
  5
A
330
2
100
AcDbEntity
  8
0
100
AcDbBlockEnd
  0
BLOCK
  5
F
330
D
100
AcDbEntity
 67
     1
  8
0
100
AcDbBlockBegin
  2
*PAPER_SPACE
 70
     0
 10
0.0
 20
0.0
 30
0.0
  3
*PAPER_SPACE
  1

  0
ENDBLK
  5
10
330
D
100
AcDbEntity
 67
     1
  8
0
100
AcDbBlockEnd
  0
BLOCK
  5
133
330
118
100
AcDbEntity
  8
0
100
AcDbBlockBegin
  2
5
 70
     0
 10
0.0
 20
0.0
 30
0.0
  3
5
  1

  0
CIRCLE
  5
119
330
118
100
AcDbEntity
  8
0
100
AcDbCircle
 10
33.23401871576971
 20
33.2340187157647
 30
0.0
 40
2.75
  0
LINE
  5
11A
330
118
100
AcDbEntity
  8
CEN
 48
0.6
100
AcDbLine
 10
29.87526150513349
 20
29.87526150512849
 30
0.0
 11
36.59277592640592
 21
36.59277592640092
 31
0.0
  0
ARC
  5
11B
102
{ACAD_REACTORS
330
11E
102
}
330
118
100
AcDbEntity
  8
CEN
 48
0.6
100
AcDbCircle
 10
-0.0000000000009095
 20
0.0
 30
0.0
 40
47.0
100
AcDbArc
 50
35.54155537381702
 51
54.45844462620417
  0
DIMENSION
  5
11C
102
{ACAD_XDICTIONARY
360
11D
102
}
102
{ACAD_REACTORS
330
11E
102
}
330
118
100
AcDbEntity
  8
0
100
AcDbDimension
  2
*D1
 10
-37.12703852731556
 20
-28.81983709515498
 30
0.0
 11
52.82902883363476
 21
41.00849583681338
 31
0.0
 12
-5558.635528985877
 22
2192.234809732951
 32
0.0
 70
   131
  1
<>%%P0.5
  3
STANDARD
100
AcDbDiametricDimension
 15
37.12703852731374
 25
28.81983709515407
 35
0.0
 40
0.0
  0
ARC
  5
12A
330
118
100
AcDbEntity
  8
CEN
 48
0.6
100
AcDbCircle
 10
-0.0000000000009095
 20
0.0000000000004547
 30
0.0
 40
47.0
100
AcDbArc
 50
126.7642625682232
 51
143.2357374317767
  0
LINE
  5
12B
330
118
100
AcDbEntity
  8
CEN
 48
0.6
100
AcDbLine
 10
-29.87526150512985
 20
29.87526150513439
 30
0.0
 11
-36.59277592640228
 21
36.59277592640683
 31
0.0
  0
CIRCLE
  5
12C
330
118
100
AcDbEntity
  8
0
100
AcDbCircle
 10
-33.23401871576605
 20
33.23401871577107
 30
0.0
 40
2.75
  0
LINE
  5
12D
330
118
100
AcDbEntity
  8
CEN
 48
0.6
100
AcDbLine
 10
-29.87526150513439
 20
-29.87526150512895
 30
0.0
 11
-36.59277592640683
 21
-36.59277592640136
 31
0.0
  0
CIRCLE
  5
12E
330
118
100
AcDbEntity
  8
0
100
AcDbCircle
 10
-33.23401871577061
 20
-33.23401871576516
 30
0.0
 40
2.75
  0
ARC
  5
12F
330
118
100
AcDbEntity
  8
CEN
 48
0.6
100
AcDbCircle
 10
0.0
 20
-0.0000000000004547
 30
0.0
 40
47.0
100
AcDbArc
 50
215.5415553738169
 51
234.4584446262041
  0
ARC
  5
130
330
118
100
AcDbEntity
  8
CEN
 48
0.6
100
AcDbCircle
 10
-0.000000000001819
 20
-0.0000000000004547
 30
0.0
 40
47.0
100
AcDbArc
 50
306.7642625682233
 51
323.2357374317766
  0
LINE
  5
131
330
118
100
AcDbEntity
  8
CEN
 48
0.6
100
AcDbLine
 10
29.87526150512712
 20
-29.87526150513439
 30
0.0
 11
36.59277592639954
 21
-36.59277592640683
 31
0.0
  0
CIRCLE
  5
132
330
118
100
AcDbEntity
  8
0
100
AcDbCircle
 10
33.23401871576243
 20
-33.23401871577107
 30
0.0
 40
2.75
  0
ENDBLK
  5
134
330
118
100
AcDbEntity
  8
0
100
AcDbBlockEnd
  0
BLOCK
  5
128
330
11F
100
AcDbEntity
  8
0
100
AcDbBlockBegin
  2
*D1
 70
     1
 10
0.0
 20
0.0
 30
0.0
  3
*D1
  1

  0
LINE
  5
120
330
11F
100
AcDbEntity
  8
0
 62
   123
100
AcDbLine
 10
5519.533647983703
 20
-2222.58761688636
 30
0.0
 11
5517.558805508848
 21
-2224.120586944613
 31
0.0
  0
LINE
  5
121
330
11F
100
AcDbEntity
  8
0
 62
   123
100
AcDbLine
 10
5597.737409988048
 20
-2161.882002579545
 30
0.0
 11
5619.53319993107
 21
-2144.963036229563
 31
0.0
  0
LINE
  5
122
330
11F
100
AcDbEntity
  8
0
 62
   123
100
AcDbLine
 10
5521.508490458562
 20
-2221.054646828107
 30
0.0
 11
5595.762567513191
 21
-2163.414972637797
 31
0.0
  0
SOLID
  5
123
330
11F
100
AcDbEntity
  8
0
 62
   123
100
AcDbTrace
 10
5519.278152973996
 20
-2222.258476473883
 30
0.0
 11
5519.789142993413
 21
-2222.916757298836
 31
0.0
 12
5521.508490458562
 22
-2221.054646828107
 32
0.0
 13
5521.508490458562
 23
-2221.054646828107
 33
0.0
  0
SOLID
  5
124
330
11F
100
AcDbEntity
  8
0
 62
   123
100
AcDbTrace
 10
5597.481914978339
 20
-2161.552862167069
 30
0.0
 11
5597.992904997757
 21
-2162.21114299202
 31
0.0
 12
5595.762567513191
 22
-2163.414972637797
 32
0.0
 13
5595.762567513191
 23
-2163.414972637797
 33
0.0
  0
MTEXT
  5
125
330
11F
100
AcDbEntity
  8
0
 62
     3
100
AcDbMText
 10
5609.931587761259
 20
-2149.251471421281
 30
0.0
 40
3.0
 41
0.0
 71
     5
 72
     1
  1
\A1;\U+220594%%P0.5
 11
0.7899369899428739
 21
0.6131880233011666
 31
0.0
1001
ACAD
1000
MTEXTBEGIN
1070
    73
1070
     1
1070
    44
1040
1.0
1070
    74
1070
     0
1000
MTEXTEND
  0
POINT
  5
126
330
11F
100
AcDbEntity
  8
DEFPOINTS
 62
     0
100
AcDbPoint
 10
5595.762567513191
 20
-2163.414972637797
 30
0.0
  0
POINT
  5
127
330
11F
100
AcDbEntity
  8
DEFPOINTS
 62
     0
100
AcDbPoint
 10
5521.508490458562
 20
-2221.054646828107
 30
0.0
  0
ENDBLK
  5
129
330
11F
100
AcDbEntity
  8
0
100
AcDbBlockEnd
  0
BLOCK
  5
28E
330
284
100
AcDbEntity
  8
0
100
AcDbBlockBegin
  2
*D2
 70
     1
 10
0.0
 20
0.0
 30
0.0
  3
*D2
  1

  0
LINE
  5
285
330
284
100
AcDbEntity
  8
0
 62
   123
100
AcDbLine
 10
21163.34698531173
 20
-2613.276718102209
 30
0.0
 11
21163.34698531173
 21
-2553.537837258922
 31
0.0
  0
LINE
  5
286
330
284
100
AcDbEntity
  8
0
 62
   123
100
AcDbLine
 10
21176.84698531173
 20
-2576.381718102207
 30
0.0
 11
21176.84698531173
 21
-2553.537837258922
 31
0.0
  0
LINE
  5
287
330
284
100
AcDbEntity
  8
0
 62
   123
100
AcDbLine
 10
21165.84698531173
 20
-2554.137837258922
 30
0.0
 11
21174.34698531173
 21
-2554.137837258922
 31
0.0
  0
SOLID
  5
288
330
284
100
AcDbEntity
  8
0
 62
   123
100
AcDbTrace
 10
21165.84698531173
 20
-2553.721170592256
 30
0.0
 11
21165.84698531173
 21
-2554.554503925589
 31
0.0
 12
21163.34698531173
 22
-2554.137837258922
 32
0.0
 13
21163.34698531173
 23
-2554.137837258922
 33
0.0
  0
SOLID
  5
289
330
284
100
AcDbEntity
  8
0
 62
   123
100
AcDbTrace
 10
21174.34698531173
 20
-2553.721170592256
 30
0.0
 11
21174.34698531173
 21
-2554.554503925589
 31
0.0
 12
21176.84698531173
 22
-2554.137837258922
 32
0.0
 13
21176.84698531173
 23
-2554.137837258922
 33
0.0
  0
MTEXT
  5
28A
330
284
100
AcDbEntity
  8
0
 62
     3
100
AcDbMText
 10
21170.59698531173
 20
-2551.637837258923
 30
0.0
 40
3.0
 41
0.0
 71
     5
 72
     1
  1
\A1;13.5
1001
ACAD
1000
MTEXTBEGIN
1070
    73
1070
     1
1070
    44
1040
1.0
1070
    74
1070
     0
1000
MTEXTEND
  0
POINT
  5
28B
330
284
100
AcDbEntity
  8
DEFPOINTS
 62
     0
100
AcDbPoint
 10
21163.34698531173
 20
-2614.276718102209
 30
0.0
  0
POINT
  5
28C
330
284
100
AcDbEntity
  8
DEFPOINTS
 62
     0
100
AcDbPoint
 10
21176.84698531173
 20
-2577.381718102207
 30
0.0
  0
POINT
  5
28D
330
284
100
AcDbEntity
  8
DEFPOINTS
 62
     0
100
AcDbPoint
 10
21176.84698531173
 20
-2554.137837258922
 30
0.0
  0
ENDBLK
  5
28F
330
284
100
AcDbEntity
  8
0
100
AcDbBlockEnd
  0
BLOCK
  5
EC
330
E2
100
AcDbEntity
  8
0
100
AcDbBlockBegin
  2
*D3
 70
     1
 10
0.0
 20
0.0
 30
0.0
  3
*D3
  1

  0
LINE
  5
E3
330
E2
100
AcDbEntity
  8
0
 62
   123
100
AcDbLine
 10
21176.84698531173
 20
-2553.137837258922
 30
0.0
 11
21176.84698531173
 21
-2553.537837258922
 31
0.0
  0
LINE
  5
E4
330
E2
100
AcDbEntity
  8
0
 62
   123
100
AcDbLine
 10
21261.84698531173
 20
-2584.381718102208
 30
0.0
 11
21261.84698531173
 21
-2553.537837258922
 31
0.0
  0
LINE
  5
E5
330
E2
100
AcDbEntity
  8
0
 62
   123
100
AcDbLine
 10
21179.34698531173
 20
-2554.137837258922
 30
0.0
 11
21259.34698531173
 21
-2554.137837258922
 31
0.0
  0
SOLID
  5
E6
330
E2
100
AcDbEntity
  8
0
 62
   123
100
AcDbTrace
 10
21179.34698531173
 20
-2553.721170592256
 30
0.0
 11
21179.34698531173
 21
-2554.554503925589
 31
0.0
 12
21176.84698531173
 22
-2554.137837258922
 32
0.0
 13
21176.84698531173
 23
-2554.137837258922
 33
0.0
  0
SOLID
  5
E7
330
E2
100
AcDbEntity
  8
0
 62
   123
100
AcDbTrace
 10
21259.34698531173
 20
-2553.721170592256
 30
0.0
 11
21259.34698531173
 21
-2554.554503925589
 31
0.0
 12
21261.84698531173
 22
-2554.137837258922
 32
0.0
 13
21261.84698531173
 23
-2554.137837258922
 33
0.0
  0
MTEXT
  5
E8
330
E2
100
AcDbEntity
  8
0
 62
     3
100
AcDbMText
 10
21219.34698531173
 20
-2551.637837258923
 30
0.0
 40
3.0
 41
0.0
 71
     5
 72
     1
  1
\A1;85
1001
ACAD
1000
MTEXTBEGIN
1070
    73
1070
     1
1070
    44
1040
1.0
1070
    74
1070
     0
1000
MTEXTEND
  0
POINT
  5
E9
330
E2
100
AcDbEntity
  8
DEFPOINTS
 62
     0
100
AcDbPoint
 10
21176.84698531173
 20
-2554.137837258922
 30
0.0
  0
POINT
  5
EA
330
E2
100
AcDbEntity
  8
DEFPOINTS
 62
     0
100
AcDbPoint
 10
21261.84698531173
 20
-2585.381718102208
 30
0.0
  0
POINT
  5
EB
330
E2
100
AcDbEntity
  8
DEFPOINTS
 62
     0
100
AcDbPoint
 10
21261.84698531173
 20
-2554.137837258922
 30
0.0
  0
ENDBLK
  5
ED
330
E2
100
AcDbEntity
  8
0
100
AcDbBlockEnd
  0
BLOCK
  5
29D
330
291
100
AcDbEntity
  8
0
100
AcDbBlockBegin
  2
*D4
 70
     1
 10
0.0
 20
0.0
 30
0.0
  3
*D4
  1

  0
LINE
  5
292
330
291
100
AcDbEntity
  8
0
 62
   123
100
AcDbLine
 10
21174.84698531173
 20
-2579.881718102209
 30
0.0
 11
21174.84698531173
 21
-2566.012708883127
 31
0.0
  0
LINE
  5
293
330
291
100
AcDbEntity
  8
0
 62
   123
100
AcDbLine
 10
21176.84698531173
 20
-2576.381718102207
 30
0.0
 11
21176.84698531173
 21
-2566.012708883127
 31
0.0
  0
LINE
  5
294
330
291
100
AcDbEntity
  8
0
 62
   123
100
AcDbLine
 10
21179.34698531173
 20
-2566.612708883126
 30
0.0
 11
21181.84698531173
 21
-2566.612708883126
 31
0.0
  0
LINE
  5
295
330
291
100
AcDbEntity
  8
0
 62
   123
100
AcDbLine
 10
21172.34698531173
 20
-2566.612708883126
 30
0.0
 11
21165.84698531173
 21
-2566.612708883126
 31
0.0
  0
LINE
  5
296
330
291
100
AcDbEntity
  8
0
 62
   123
100
AcDbLine
 10
21176.84698531173
 20
-2566.612708883126
 30
0.0
 11
21174.84698531173
 21
-2566.612708883126
 31
0.0
  0
SOLID
  5
297
330
291
100
AcDbEntity
  8
0
 62
   123
100
AcDbTrace
 10
21179.34698531173
 20
-2566.19604221646
 30
0.0
 11
21179.34698531173
 21
-2567.029375549793
 31
0.0
 12
21176.84698531173
 22
-2566.612708883126
 32
0.0
 13
21176.84698531173
 23
-2566.612708883126
 33
0.0
  0
SOLID
  5
298
330
291
100
AcDbEntity
  8
0
 62
   123
100
AcDbTrace
 10
21172.34698531173
 20
-2566.19604221646
 30
0.0
 11
21172.34698531173
 21
-2567.029375549793
 31
0.0
 12
21174.84698531173
 22
-2566.612708883126
 32
0.0
 13
21174.84698531173
 23
-2566.612708883126
 33
0.0
  0
MTEXT
  5
299
330
291
100
AcDbEntity
  8
0
 62
     3
100
AcDbMText
 10
21167.84698531173
 20
-2564.112708883127
 30
0.0
 40
3.0
 41
0.0
 71
     5
 72
     1
  1
\A1;2
1001
ACAD
1000
MTEXTBEGIN
1070
    73
1070
     1
1070
    44
1040
1.0
1070
    74
1070
     0
1000
MTEXTEND
  0
POINT
  5
29A
330
291
100
AcDbEntity
  8
DEFPOINTS
 62
     0
100
AcDbPoint
 10
21174.84698531173
 20
-2580.881718102208
 30
0.0
  0
POINT
  5
29B
330
291
100
AcDbEntity
  8
DEFPOINTS
 62
     0
100
AcDbPoint
 10
21176.84698531173
 20
-2577.381718102207
 30
0.0
  0
POINT
  5
29C
330
291
100
AcDbEntity
  8
DEFPOINTS
 62
     0
100
AcDbPoint
 10
21176.84698531173
 20
-2566.612708883126
 30
0.0
  0
ENDBLK
  5
29E
330
291
100
AcDbEntity
  8
0
100
AcDbBlockEnd
  0
BLOCK
  5
D6
330
CC
100
AcDbEntity
  8
0
100
AcDbBlockBegin
  2
*D5
 70
     1
 10
0.0
 20
0.0
 30
0.0
  3
*D5
  1

  0
LINE
  5
CD
330
CC
100
AcDbEntity
  8
0
 62
   123
100
AcDbLine
 10
21199.23531606936
 20
-2743.938026099665
 30
0.0
 11
21199.23531606936
 21
-2730.481526730692
 31
0.0
  0
LINE
  5
CE
330
CC
100
AcDbEntity
  8
0
 62
   123
100
AcDbLine
 10
21284.23531606936
 20
-2757.447944416613
 30
0.0
 11
21284.23531606936
 21
-2730.481526730692
 31
0.0
  0
LINE
  5
CF
330
CC
100
AcDbEntity
  8
0
 62
   123
100
AcDbLine
 10
21201.73531606937
 20
-2731.081526730692
 30
0.0
 11
21281.73531606937
 21
-2731.081526730692
 31
0.0
  0
SOLID
  5
D0
330
CC
100
AcDbEntity
  8
0
 62
   123
100
AcDbTrace
 10
21201.73531606937
 20
-2730.664860064025
 30
0.0
 11
21201.73531606937
 21
-2731.498193397358
 31
0.0
 12
21199.23531606936
 22
-2731.081526730692
 32
0.0
 13
21199.23531606936
 23
-2731.081526730692
 33
0.0
  0
SOLID
  5
D1
330
CC
100
AcDbEntity
  8
0
 62
   123
100
AcDbTrace
 10
21281.73531606937
 20
-2730.664860064025
 30
0.0
 11
21281.73531606937
 21
-2731.498193397358
 31
0.0
 12
21284.23531606936
 22
-2731.081526730692
 32
0.0
 13
21284.23531606936
 23
-2731.081526730692
 33
0.0
  0
MTEXT
  5
D2
330
CC
100
AcDbEntity
  8
0
 62
     3
100
AcDbMText
 10
21241.73531606937
 20
-2728.581526730692
 30
0.0
 40
3.0
 41
0.0
 71
     5
 72
     1
  1
\A1;85
1001
ACAD
1000
MTEXTBEGIN
1070
    73
1070
     1
1070
    44
1040
1.0
1070
    74
1070
     0
1000
MTEXTEND
  0
POINT
  5
D3
330
CC
100
AcDbEntity
  8
DEFPOINTS
 62
     0
100
AcDbPoint
 10
21199.23531606936
 20
-2744.938026099665
 30
0.0
  0
POINT
  5
D4
330
CC
100
AcDbEntity
  8
DEFPOINTS
 62
     0
100
AcDbPoint
 10
21284.23531606936
 20
-2758.447944416613
 30
0.0
  0
POINT
  5
D5
330
CC
100
AcDbEntity
  8
DEFPOINTS
 62
     0
100
AcDbPoint
 10
21284.23531606936
 20
-2731.081526730692
 30
0.0
  0
ENDBLK
  5
D7
330
CC
100
AcDbEntity
  8
0
100
AcDbBlockEnd
  0
BLOCK
  5
201
330
1F7
100
AcDbEntity
  8
0
100
AcDbBlockBegin
  2
*D6
 70
     1
 10
0.0
 20
0.0
 30
0.0
  3
*D6
  1

  0
LINE
  5
1F8
330
1F7
100
AcDbEntity
  8
0
 62
   123
100
AcDbLine
 10
21167.23531606937
 20
-2790.447944416613
 30
0.0
 11
21167.23531606937
 21
-2730.481526730692
 31
0.0
  0
LINE
  5
1F9
330
1F7
100
AcDbEntity
  8
0
 62
   123
100
AcDbLine
 10
21199.23531606936
 20
-2754.447944416613
 30
0.0
 11
21199.23531606936
 21
-2730.481526730692
 31
0.0
  0
LINE
  5
1FA
330
1F7
100
AcDbEntity
  8
0
 62
   123
100
AcDbLine
 10
21169.73531606936
 20
-2731.081526730692
 30
0.0
 11
21196.73531606936
 21
-2731.081526730692
 31
0.0
  0
SOLID
  5
1FB
330
1F7
100
AcDbEntity
  8
0
 62
   123
100
AcDbTrace
 10
21169.73531606936
 20
-2730.664860064025
 30
0.0
 11
21169.73531606936
 21
-2731.498193397358
 31
0.0
 12
21167.23531606937
 22
-2731.081526730692
 32
0.0
 13
21167.23531606937
 23
-2731.081526730692
 33
0.0
  0
SOLID
  5
1FC
330
1F7
100
AcDbEntity
  8
0
 62
   123
100
AcDbTrace
 10
21196.73531606936
 20
-2730.664860064025
 30
0.0
 11
21196.73531606936
 21
-2731.498193397358
 31
0.0
 12
21199.23531606936
 22
-2731.081526730692
 32
0.0
 13
21199.23531606936
 23
-2731.081526730692
 33
0.0
  0
MTEXT
  5
1FD
330
1F7
100
AcDbEntity
  8
0
 62
     3
100
AcDbMText
 10
21183.23531606936
 20
-2728.581526730692
 30
0.0
 40
3.0
 41
0.0
 71
     5
 72
     1
  1
\A1;32
1001
ACAD
1000
MTEXTBEGIN
1070
    73
1070
     1
1070
    44
1040
1.0
1070
    74
1070
     0
1000
MTEXTEND
  0
POINT
  5
1FE
330
1F7
100
AcDbEntity
  8
DEFPOINTS
 62
     0
100
AcDbPoint
 10
21167.23531606937
 20
-2791.447944416614
 30
0.0
  0
POINT
  5
1FF
330
1F7
100
AcDbEntity
  8
DEFPOINTS
 62
     0
100
AcDbPoint
 10
21199.23531606936
 20
-2755.447944416614
 30
0.0
  0
POINT
  5
200
330
1F7
100
AcDbEntity
  8
DEFPOINTS
 62
     0
100
AcDbPoint
 10
21199.23531606936
 20
-2731.081526730692
 30
0.0
  0
ENDBLK
  5
202
330
1F7
100
AcDbEntity
  8
0
100
AcDbBlockEnd
  0
BLOCK
  5
1F4
330
1E8
100
AcDbEntity
  8
0
100
AcDbBlockBegin
  2
*D7
 70
     1
 10
0.0
 20
0.0
 30
0.0
  3
*D7
  1

  0
LINE
  5
1E9
330
1E8
100
AcDbEntity
  8
0
 62
   123
100
AcDbLine
 10
21197.23531606936
 20
-2757.947944416613
 30
0.0
 11
21197.23531606936
 21
-2742.63961108328
 31
0.0
  0
LINE
  5
1EA
330
1E8
100
AcDbEntity
  8
0
 62
   123
100
AcDbLine
 10
21199.23531606936
 20
-2754.447944416613
 30
0.0
 11
21199.23531606936
 21
-2742.63961108328
 31
0.0
  0
LINE
  5
1EB
330
1E8
100
AcDbEntity
  8
0
 62
   123
100
AcDbLine
 10
21201.73531606937
 20
-2743.23961108328
 30
0.0
 11
21204.23531606936
 21
-2743.23961108328
 31
0.0
  0
LINE
  5
1EC
330
1E8
100
AcDbEntity
  8
0
 62
   123
100
AcDbLine
 10
21194.73531606936
 20
-2743.23961108328
 30
0.0
 11
21188.23531606937
 21
-2743.23961108328
 31
0.0
  0
LINE
  5
1ED
330
1E8
100
AcDbEntity
  8
0
 62
   123
100
AcDbLine
 10
21199.23531606936
 20
-2743.23961108328
 30
0.0
 11
21197.23531606936
 21
-2743.23961108328
 31
0.0
  0
SOLID
  5
1EE
330
1E8
100
AcDbEntity
  8
0
 62
   123
100
AcDbTrace
 10
21201.73531606937
 20
-2742.822944416614
 30
0.0
 11
21201.73531606937
 21
-2743.656277749947
 31
0.0
 12
21199.23531606936
 22
-2743.23961108328
 32
0.0
 13
21199.23531606936
 23
-2743.23961108328
 33
0.0
  0
SOLID
  5
1EF
330
1E8
100
AcDbEntity
  8
0
 62
   123
100
AcDbTrace
 10
21194.73531606936
 20
-2742.822944416614
 30
0.0
 11
21194.73531606936
 21
-2743.656277749947
 31
0.0
 12
21197.23531606936
 22
-2743.23961108328
 32
0.0
 13
21197.23531606936
 23
-2743.23961108328
 33
0.0
  0
MTEXT
  5
1F0
330
1E8
100
AcDbEntity
  8
0
 62
     3
100
AcDbMText
 10
21190.23531606937
 20
-2740.73961108328
 30
0.0
 40
3.0
 41
0.0
 71
     5
 72
     1
  1
\A1;2
1001
ACAD
1000
MTEXTBEGIN
1070
    73
1070
     1
1070
    44
1040
1.0
1070
    74
1070
     0
1000
MTEXTEND
  0
POINT
  5
1F1
330
1E8
100
AcDbEntity
  8
DEFPOINTS
 62
     0
100
AcDbPoint
 10
21197.23531606936
 20
-2758.947944416613
 30
0.0
  0
POINT
  5
1F2
330
1E8
100
AcDbEntity
  8
DEFPOINTS
 62
     0
100
AcDbPoint
 10
21199.23531606936
 20
-2755.447944416614
 30
0.0
  0
POINT
  5
1F3
330
1E8
100
AcDbEntity
  8
DEFPOINTS
 62
     0
100
AcDbPoint
 10
21199.23531606936
 20
-2743.23961108328
 30
0.0
  0
ENDBLK
  5
1F5
330
1E8
100
AcDbEntity
  8
0
100
AcDbBlockEnd
  0
BLOCK
  5
281
330
277
100
AcDbEntity
  8
0
100
AcDbBlockBegin
  2
*D8
 70
     1
 10
0.0
 20
0.0
 30
0.0
  3
*D8
  1

  0
LINE
  5
278
330
277
100
AcDbEntity
  8
0
 62
   123
100
AcDbLine
 10
21042.65695275818
 20
-2581.381718102209
 30
0.0
 11
21042.65695275818
 21
-2563.992275955595
 31
0.0
  0
LINE
  5
279
330
277
100
AcDbEntity
  8
0
 62
   123
100
AcDbLine
 10
21122.65695275818
 20
-2581.381718102209
 30
0.0
 11
21122.65695275818
 21
-2563.992275955595
 31
0.0
  0
LINE
  5
27A
330
277
100
AcDbEntity
  8
0
 62
   123
100
AcDbLine
 10
21045.15695275818
 20
-2564.592275955595
 30
0.0
 11
21120.15695275818
 21
-2564.592275955595
 31
0.0
  0
SOLID
  5
27B
330
277
100
AcDbEntity
  8
0
 62
   123
100
AcDbTrace
 10
21045.15695275818
 20
-2564.175609288927
 30
0.0
 11
21045.15695275818
 21
-2565.008942622261
 31
0.0
 12
21042.65695275818
 22
-2564.592275955595
 32
0.0
 13
21042.65695275818
 23
-2564.592275955595
 33
0.0
  0
SOLID
  5
27C
330
277
100
AcDbEntity
  8
0
 62
   123
100
AcDbTrace
 10
21120.15695275818
 20
-2564.175609288927
 30
0.0
 11
21120.15695275818
 21
-2565.008942622261
 31
0.0
 12
21122.65695275818
 22
-2564.592275955595
 32
0.0
 13
21122.65695275818
 23
-2564.592275955595
 33
0.0
  0
MTEXT
  5
27D
330
277
100
AcDbEntity
  8
0
 62
     3
100
AcDbMText
 10
21083.41558051301
 20
-2562.092275955595
 30
0.0
 40
3.0
 41
0.0
 71
     5
 72
     1
  1
\A1;80
1001
ACAD
1000
MTEXTBEGIN
1070
    73
1070
     1
1070
    44
1040
1.0
1070
    74
1070
     0
1000
MTEXTEND
  0
POINT
  5
27E
330
277
100
AcDbEntity
  8
DEFPOINTS
 62
     0
100
AcDbPoint
 10
21042.65695275818
 20
-2582.381718102208
 30
0.0
  0
POINT
  5
27F
330
277
100
AcDbEntity
  8
DEFPOINTS
 62
     0
100
AcDbPoint
 10
21122.65695275818
 20
-2582.381718102208
 30
0.0
  0
POINT
  5
280
330
277
100
AcDbEntity
  8
DEFPOINTS
 62
     0
100
AcDbPoint
 10
21122.65695275818
 20
-2564.592275955595
 30
0.0
  0
ENDBLK
  5
282
330
277
100
AcDbEntity
  8
0
100
AcDbBlockEnd
  0
BLOCK
  5
2C3
330
2B9
100
AcDbEntity
  8
0
100
AcDbBlockBegin
  2
*D9
 70
     1
 10
0.0
 20
0.0
 30
0.0
  3
*D9
  1

  0
LINE
  5
2BA
330
2B9
100
AcDbEntity
  8
0
 62
   123
100
AcDbLine
 10
21255.84698531173
 20
-2577.881718102208
 30
0.0
 11
21282.99383944771
 21
-2577.881718102208
 31
0.0
  0
LINE
  5
2BB
330
2B9
100
AcDbEntity
  8
0
 62
   123
100
AcDbLine
 10
21255.84698531173
 20
-2656.881718102209
 30
0.0
 11
21282.99383944771
 21
-2656.881718102209
 31
0.0
  0
LINE
  5
2BC
330
2B9
100
AcDbEntity
  8
0
 62
   123
100
AcDbLine
 10
21282.3938394477
 20
-2580.381718102207
 30
0.0
 11
21282.3938394477
 21
-2654.381718102209
 31
0.0
  0
SOLID
  5
2BD
330
2B9
100
AcDbEntity
  8
0
 62
   123
100
AcDbTrace
 10
21281.97717278105
 20
-2580.381718102207
 30
0.0
 11
21282.81050611438
 21
-2580.381718102207
 31
0.0
 12
21282.3938394477
 22
-2577.881718102208
 32
0.0
 13
21282.3938394477
 23
-2577.881718102208
 33
0.0
  0
SOLID
  5
2BE
330
2B9
100
AcDbEntity
  8
0
 62
   123
100
AcDbTrace
 10
21281.97717278105
 20
-2654.381718102209
 30
0.0
 11
21282.81050611438
 21
-2654.381718102209
 31
0.0
 12
21282.3938394477
 22
-2656.881718102209
 32
0.0
 13
21282.3938394477
 23
-2656.881718102209
 33
0.0
  0
MTEXT
  5
2BF
330
2B9
100
AcDbEntity
  8
0
 62
     3
100
AcDbMText
 10
21279.8938394477
 20
-2617.381718102208
 30
0.0
 40
3.0
 41
0.0
 71
     5
 72
     1
  1
\A1;%%C79
 11
0.0000000000000001
 21
1.0
 31
0.0
1001
ACAD
1000
MTEXTBEGIN
1070
    73
1070
     1
1070
    44
1040
1.0
1070
    74
1070
     0
1000
MTEXTEND
  0
POINT
  5
2C0
330
2B9
100
AcDbEntity
  8
DEFPOINTS
 62
     0
100
AcDbPoint
 10
21254.84698531173
 20
-2577.881718102208
 30
0.0
  0
POINT
  5
2C1
330
2B9
100
AcDbEntity
  8
DEFPOINTS
 62
     0
100
AcDbPoint
 10
21254.84698531173
 20
-2656.881718102209
 30
0.0
  0
POINT
  5
2C2
330
2B9
100
AcDbEntity
  8
DEFPOINTS
 62
     0
100
AcDbPoint
 10
21282.3938394477
 20
-2656.881718102209
 30
0.0
  0
ENDBLK
  5
2C4
330
2B9
100
AcDbEntity
  8
0
100
AcDbBlockEnd
  0
BLOCK
  5
249
330
23F
100
AcDbEntity
  8
0
100
AcDbBlockBegin
  2
*D10
 70
     1
 10
0.0
 20
0.0
 30
0.0
  3
*D10
  1

  0
LINE
  5
240
330
23F
100
AcDbEntity
  8
0
 62
   123
100
AcDbLine
 10
21176.84698531173
 20
-2572.173384768875
 30
0.0
 11
21176.84698531173
 21
-2566.012708883127
 31
0.0
  0
LINE
  5
241
330
23F
100
AcDbEntity
  8
0
 62
   123
100
AcDbLine
 10
21183.84698531173
 20
-2577.78298076068
 30
0.0
 11
21183.84698531173
 21
-2566.012708883127
 31
0.0
  0
LINE
  5
242
330
23F
100
AcDbEntity
  8
0
 62
   123
100
AcDbLine
 10
21179.34698531173
 20
-2566.612708883127
 30
0.0
 11
21181.34698531173
 21
-2566.612708883127
 31
0.0
  0
SOLID
  5
243
330
23F
100
AcDbEntity
  8
0
 62
   123
100
AcDbTrace
 10
21179.34698531173
 20
-2566.196042216461
 30
0.0
 11
21179.34698531173
 21
-2567.029375549793
 31
0.0
 12
21176.84698531173
 22
-2566.612708883127
 32
0.0
 13
21176.84698531173
 23
-2566.612708883127
 33
0.0
  0
SOLID
  5
244
330
23F
100
AcDbEntity
  8
0
 62
   123
100
AcDbTrace
 10
21181.34698531173
 20
-2566.196042216461
 30
0.0
 11
21181.34698531173
 21
-2567.029375549793
 31
0.0
 12
21183.84698531173
 22
-2566.612708883127
 32
0.0
 13
21183.84698531173
 23
-2566.612708883127
 33
0.0
  0
MTEXT
  5
245
330
23F
100
AcDbEntity
  8
0
 62
     3
100
AcDbMText
 10
21180.34698531173
 20
-2564.112708883127
 30
0.0
 40
3.0
 41
0.0
 71
     5
 72
     1
  1
\A1;7
1001
ACAD
1000
MTEXTBEGIN
1070
    73
1070
     1
1070
    44
1040
1.0
1070
    74
1070
     0
1000
MTEXTEND
  0
POINT
  5
246
330
23F
100
AcDbEntity
  8
DEFPOINTS
 62
     0
100
AcDbPoint
 10
21176.84698531173
 20
-2573.173384768876
 30
0.0
  0
POINT
  5
247
330
23F
100
AcDbEntity
  8
DEFPOINTS
 62
     0
100
AcDbPoint
 10
21183.84698531173
 20
-2578.78298076068
 30
0.0
  0
POINT
  5
248
330
23F
100
AcDbEntity
  8
DEFPOINTS
 62
     0
100
AcDbPoint
 10
21183.84698531173
 20
-2566.612708883127
 30
0.0
  0
ENDBLK
  5
24A
330
23F
100
AcDbEntity
  8
0
100
AcDbBlockEnd
  0
BLOCK
  5
1E5
330
1DB
100
AcDbEntity
  8
0
100
AcDbBlockBegin
  2
*D11
 70
     1
 10
0.0
 20
0.0
 30
0.0
  3
*D11
  1

  0
LINE
  5
1DC
330
1DB
100
AcDbEntity
  8
0
 62
   123
100
AcDbLine
 10
21028.32528678629
 20
-2759.447944416614
 30
0.0
 11
21028.32528678629
 21
-2737.652376086
 31
0.0
  0
LINE
  5
1DD
330
1DB
100
AcDbEntity
  8
0
 62
   123
100
AcDbLine
 10
21108.32528678629
 20
-2759.447944416614
 30
0.0
 11
21108.32528678629
 21
-2737.652376086
 31
0.0
  0
LINE
  5
1DE
330
1DB
100
AcDbEntity
  8
0
 62
   123
100
AcDbLine
 10
21030.82528678628
 20
-2738.252376086
 30
0.0
 11
21105.82528678629
 21
-2738.252376086
 31
0.0
  0
SOLID
  5
1DF
330
1DB
100
AcDbEntity
  8
0
 62
   123
100
AcDbTrace
 10
21030.82528678628
 20
-2737.835709419333
 30
0.0
 11
21030.82528678628
 21
-2738.669042752666
 31
0.0
 12
21028.32528678629
 22
-2738.252376086
 32
0.0
 13
21028.32528678629
 23
-2738.252376086
 33
0.0
  0
SOLID
  5
1E0
330
1DB
100
AcDbEntity
  8
0
 62
   123
100
AcDbTrace
 10
21105.82528678629
 20
-2737.835709419333
 30
0.0
 11
21105.82528678629
 21
-2738.669042752666
 31
0.0
 12
21108.32528678629
 22
-2738.252376086
 32
0.0
 13
21108.32528678629
 23
-2738.252376086
 33
0.0
  0
MTEXT
  5
1E1
330
1DB
100
AcDbEntity
  8
0
 62
     3
100
AcDbMText
 10
21069.08391454112
 20
-2735.752376086
 30
0.0
 40
3.0
 41
0.0
 71
     5
 72
     1
  1
\A1;80
1001
ACAD
1000
MTEXTBEGIN
1070
    73
1070
     1
1070
    44
1040
1.0
1070
    74
1070
     0
1000
MTEXTEND
  0
POINT
  5
1E2
330
1DB
100
AcDbEntity
  8
DEFPOINTS
 62
     0
100
AcDbPoint
 10
21028.32528678629
 20
-2760.447944416613
 30
0.0
  0
POINT
  5
1E3
330
1DB
100
AcDbEntity
  8
DEFPOINTS
 62
     0
100
AcDbPoint
 10
21108.32528678629
 20
-2760.447944416613
 30
0.0
  0
POINT
  5
1E4
330
1DB
100
AcDbEntity
  8
DEFPOINTS
 62
     0
100
AcDbPoint
 10
21108.32528678629
 20
-2738.252376086
 30
0.0
  0
ENDBLK
  5
1E6
330
1DB
100
AcDbEntity
  8
0
100
AcDbBlockEnd
  0
BLOCK
  5
2AF
330
2A5
100
AcDbEntity
  8
0
100
AcDbBlockBegin
  2
*D12
 70
     1
 10
0.0
 20
0.0
 30
0.0
  3
*D12
  1

  0
LINE
  5
2A6
330
2A5
100
AcDbEntity
  8
0
 62
   123
100
AcDbLine
 10
21278.23531606936
 20
-2755.947944416613
 30
0.0
 11
21302.15587404451
 21
-2755.947944416613
 31
0.0
  0
LINE
  5
2A7
330
2A5
100
AcDbEntity
  8
0
 62
   123
100
AcDbLine
 10
21278.23531606936
 20
-2834.947944416613
 30
0.0
 11
21302.15587404451
 21
-2834.947944416613
 31
0.0
  0
LINE
  5
2A8
330
2A5
100
AcDbEntity
  8
0
 62
   123
100
AcDbLine
 10
21301.55587404451
 20
-2758.447944416613
 30
0.0
 11
21301.55587404451
 21
-2832.447944416614
 31
0.0
  0
SOLID
  5
2A9
330
2A5
100
AcDbEntity
  8
0
 62
   123
100
AcDbTrace
 10
21301.13920737784
 20
-2758.447944416613
 30
0.0
 11
21301.97254071118
 21
-2758.447944416613
 31
0.0
 12
21301.55587404451
 22
-2755.947944416613
 32
0.0
 13
21301.55587404451
 23
-2755.947944416613
 33
0.0
  0
SOLID
  5
2AA
330
2A5
100
AcDbEntity
  8
0
 62
   123
100
AcDbTrace
 10
21301.13920737784
 20
-2832.447944416614
 30
0.0
 11
21301.97254071118
 21
-2832.447944416614
 31
0.0
 12
21301.55587404451
 22
-2834.947944416613
 32
0.0
 13
21301.55587404451
 23
-2834.947944416613
 33
0.0
  0
MTEXT
  5
2AB
330
2A5
100
AcDbEntity
  8
0
 62
     3
100
AcDbMText
 10
21299.0558740445
 20
-2795.447944416613
 30
0.0
 40
3.0
 41
0.0
 71
     5
 72
     1
  1
\A1;%%C79
 11
0.0000000000000001
 21
1.0
 31
0.0
1001
ACAD
1000
MTEXTBEGIN
1070
    73
1070
     1
1070
    44
1040
1.0
1070
    74
1070
     0
1000
MTEXTEND
  0
POINT
  5
2AC
330
2A5
100
AcDbEntity
  8
DEFPOINTS
 62
     0
100
AcDbPoint
 10
21277.23531606936
 20
-2755.947944416613
 30
0.0
  0
POINT
  5
2AD
330
2A5
100
AcDbEntity
  8
DEFPOINTS
 62
     0
100
AcDbPoint
 10
21277.23531606936
 20
-2834.947944416613
 30
0.0
  0
POINT
  5
2AE
330
2A5
100
AcDbEntity
  8
DEFPOINTS
 62
     0
100
AcDbPoint
 10
21301.55587404451
 20
-2834.947944416613
 30
0.0
  0
ENDBLK
  5
2B0
330
2A5
100
AcDbEntity
  8
0
100
AcDbBlockEnd
  0
BLOCK
  5
19D
330
193
100
AcDbEntity
  8
0
100
AcDbBlockBegin
  2
*D13
 70
     1
 10
0.0
 20
0.0
 30
0.0
  3
*D13
  1

  0
LINE
  5
194
330
193
100
AcDbEntity
  8
0
 62
   123
100
AcDbLine
 10
21199.23531606936
 20
-2750.23961108328
 30
0.0
 11
21199.23531606936
 21
-2742.63961108328
 31
0.0
  0
LINE
  5
195
330
193
100
AcDbEntity
  8
0
 62
   123
100
AcDbLine
 10
21206.23531606936
 20
-2755.849207075085
 30
0.0
 11
21206.23531606936
 21
-2742.63961108328
 31
0.0
  0
LINE
  5
196
330
193
100
AcDbEntity
  8
0
 62
   123
100
AcDbLine
 10
21201.73531606937
 20
-2743.23961108328
 30
0.0
 11
21203.73531606936
 21
-2743.23961108328
 31
0.0
  0
SOLID
  5
197
330
193
100
AcDbEntity
  8
0
 62
   123
100
AcDbTrace
 10
21201.73531606937
 20
-2742.822944416614
 30
0.0
 11
21201.73531606937
 21
-2743.656277749947
 31
0.0
 12
21199.23531606936
 22
-2743.23961108328
 32
0.0
 13
21199.23531606936
 23
-2743.23961108328
 33
0.0
  0
SOLID
  5
198
330
193
100
AcDbEntity
  8
0
 62
   123
100
AcDbTrace
 10
21203.73531606936
 20
-2742.822944416614
 30
0.0
 11
21203.73531606936
 21
-2743.656277749947
 31
0.0
 12
21206.23531606936
 22
-2743.23961108328
 32
0.0
 13
21206.23531606936
 23
-2743.23961108328
 33
0.0
  0
MTEXT
  5
199
330
193
100
AcDbEntity
  8
0
 62
     3
100
AcDbMText
 10
21202.73531606936
 20
-2740.73961108328
 30
0.0
 40
3.0
 41
0.0
 71
     5
 72
     1
  1
\A1;7
1001
ACAD
1000
MTEXTBEGIN
1070
    73
1070
     1
1070
    44
1040
1.0
1070
    74
1070
     0
1000
MTEXTEND
  0
POINT
  5
19A
330
193
100
AcDbEntity
  8
DEFPOINTS
 62
     0
100
AcDbPoint
 10
21199.23531606936
 20
-2751.23961108328
 30
0.0
  0
POINT
  5
19B
330
193
100
AcDbEntity
  8
DEFPOINTS
 62
     0
100
AcDbPoint
 10
21206.23531606936
 20
-2756.849207075084
 30
0.0
  0
POINT
  5
19C
330
193
100
AcDbEntity
  8
DEFPOINTS
 62
     0
100
AcDbPoint
 10
21206.23531606936
 20
-2743.23961108328
 30
0.0
  0
ENDBLK
  5
19E
330
193
100
AcDbEntity
  8
0
100
AcDbBlockEnd
  0
BLOCK
  5
1C4
330
1BA
100
AcDbEntity
  8
0
100
AcDbBlockBegin
  2
*D14
 70
     1
 10
0.0
 20
0.0
 30
0.0
  3
*D14
  1

  0
LINE
  5
1BB
330
1BA
100
AcDbEntity
  8
0
 62
   123
100
AcDbLine
 10
21167.23531606937
 20
-2791.447944416614
 30
0.0
 11
21167.23531606937
 21
-2776.819558342728
 31
0.0
  0
LINE
  5
1BC
330
1BA
100
AcDbEntity
  8
0
 62
   123
100
AcDbLine
 10
21192.23531606936
 20
-2790.447944416613
 30
0.0
 11
21192.23531606936
 21
-2776.819558342728
 31
0.0
  0
LINE
  5
1BD
330
1BA
100
AcDbEntity
  8
0
 62
   123
100
AcDbLine
 10
21169.73531606936
 20
-2777.419558342729
 30
0.0
 11
21189.73531606936
 21
-2777.419558342729
 31
0.0
  0
SOLID
  5
1BE
330
1BA
100
AcDbEntity
  8
0
 62
   123
100
AcDbTrace
 10
21169.73531606936
 20
-2777.002891676062
 30
0.0
 11
21169.73531606936
 21
-2777.836225009395
 31
0.0
 12
21167.23531606937
 22
-2777.419558342729
 32
0.0
 13
21167.23531606937
 23
-2777.419558342729
 33
0.0
  0
SOLID
  5
1BF
330
1BA
100
AcDbEntity
  8
0
 62
   123
100
AcDbTrace
 10
21189.73531606936
 20
-2777.002891676062
 30
0.0
 11
21189.73531606936
 21
-2777.836225009395
 31
0.0
 12
21192.23531606936
 22
-2777.419558342729
 32
0.0
 13
21192.23531606936
 23
-2777.419558342729
 33
0.0
  0
MTEXT
  5
1C0
330
1BA
100
AcDbEntity
  8
0
 62
     3
100
AcDbMText
 10
21179.73531606936
 20
-2774.919558342729
 30
0.0
 40
3.0
 41
0.0
 71
     5
 72
     1
  1
\A1;25
1001
ACAD
1000
MTEXTBEGIN
1070
    73
1070
     1
1070
    44
1040
1.0
1070
    74
1070
     0
1000
MTEXTEND
  0
POINT
  5
1C1
330
1BA
100
AcDbEntity
  8
DEFPOINTS
 62
     0
100
AcDbPoint
 10
21167.23531606937
 20
-2792.447944416613
 30
0.0
  0
POINT
  5
1C2
330
1BA
100
AcDbEntity
  8
DEFPOINTS
 62
     0
100
AcDbPoint
 10
21192.23531606936
 20
-2791.447944416614
 30
0.0
  0
POINT
  5
1C3
330
1BA
100
AcDbEntity
  8
DEFPOINTS
 62
     0
100
AcDbPoint
 10
21192.23531606936
 20
-2777.419558342729
 30
0.0
  0
ENDBLK
  5
1C5
330
1BA
100
AcDbEntity
  8
0
100
AcDbBlockEnd
  0
BLOCK
  5
102
330
F8
100
AcDbEntity
  8
0
100
AcDbBlockBegin
  2
*D15
 70
     1
 10
0.0
 20
0.0
 30
0.0
  3
*D15
  1

  0
LINE
  5
F9
330
F8
100
AcDbEntity
  8
0
 62
   123
100
AcDbLine
 10
21196.23531606936
 20
-2758.947944416613
 30
0.0
 11
21132.03723284676
 21
-2758.947944416613
 31
0.0
  0
LINE
  5
FA
330
F8
100
AcDbEntity
  8
0
 62
   123
100
AcDbLine
 10
21196.23531606936
 20
-2831.947944416613
 30
0.0
 11
21132.03723284676
 21
-2831.947944416613
 31
0.0
  0
LINE
  5
FB
330
F8
100
AcDbEntity
  8
0
 62
   123
100
AcDbLine
 10
21132.63723284676
 20
-2761.447944416613
 30
0.0
 11
21132.63723284676
 21
-2829.447944416613
 31
0.0
  0
SOLID
  5
FC
330
F8
100
AcDbEntity
  8
0
 62
   123
100
AcDbTrace
 10
21132.2205661801
 20
-2761.447944416613
 30
0.0
 11
21133.05389951343
 21
-2761.447944416613
 31
0.0
 12
21132.63723284676
 22
-2758.947944416613
 32
0.0
 13
21132.63723284676
 23
-2758.947944416613
 33
0.0
  0
SOLID
  5
FD
330
F8
100
AcDbEntity
  8
0
 62
   123
100
AcDbTrace
 10
21132.2205661801
 20
-2829.447944416613
 30
0.0
 11
21133.05389951343
 21
-2829.447944416613
 31
0.0
 12
21132.63723284676
 22
-2831.947944416613
 32
0.0
 13
21132.63723284676
 23
-2831.947944416613
 33
0.0
  0
MTEXT
  5
FE
330
F8
100
AcDbEntity
  8
0
 62
     3
100
AcDbMText
 10
21128.68708284676
 20
-2795.447944416613
 30
0.0
 40
3.0
 41
0.0
 71
     5
 72
     1
  1
\A1;\A1;{\F;%%C73\H0.7x;\S+0^ -0.030;\H1.429x;(h7)}
 11
0.0000000000000001
 21
1.0
 31
0.0
1001
ACAD
1000
MTEXTBEGIN
1070
    73
1070
     1
1070
    44
1040
1.0
1070
    74
1070
     0
1000
MTEXTEND
  0
POINT
  5
FF
330
F8
100
AcDbEntity
  8
DEFPOINTS
 62
     0
100
AcDbPoint
 10
21197.23531606936
 20
-2758.947944416613
 30
0.0
  0
POINT
  5
100
330
F8
100
AcDbEntity
  8
DEFPOINTS
 62
     0
100
AcDbPoint
 10
21197.23531606936
 20
-2831.947944416613
 30
0.0
  0
POINT
  5
101
330
F8
100
AcDbEntity
  8
DEFPOINTS
 62
     0
100
AcDbPoint
 10
21132.63723284676
 20
-2831.947944416613
 30
0.0
  0
ENDBLK
  5
103
330
F8
100
AcDbEntity
  8
0
100
AcDbBlockEnd
  0
BLOCK
  5
1D3
330
1C9
100
AcDbEntity
  8
0
100
AcDbBlockBegin
  2
*D16
 70
     1
 10
0.0
 20
0.0
 30
0.0
  3
*D16
  1

  0
LINE
  5
1CA
330
1C9
100
AcDbEntity
  8
0
 62
   123
100
AcDbLine
 10
21166.23531606936
 20
-2799.447944416613
 30
0.0
 11
21153.64538803039
 21
-2799.447944416613
 31
0.0
  0
LINE
  5
1CB
330
1C9
100
AcDbEntity
  8
0
 62
   123
100
AcDbLine
 10
21166.23531606936
 20
-2792.447944416613
 30
0.0
 11
21153.64538803039
 21
-2792.447944416613
 31
0.0
  0
LINE
  5
1CC
330
1C9
100
AcDbEntity
  8
0
 62
   123
100
AcDbLine
 10
21154.24538803039
 20
-2796.947944416613
 30
0.0
 11
21154.24538803039
 21
-2794.947944416613
 31
0.0
  0
SOLID
  5
1CD
330
1C9
100
AcDbEntity
  8
0
 62
   123
100
AcDbTrace
 10
21153.82872136373
 20
-2796.947944416613
 30
0.0
 11
21154.66205469706
 21
-2796.947944416613
 31
0.0
 12
21154.24538803039
 22
-2799.447944416613
 32
0.0
 13
21154.24538803039
 23
-2799.447944416613
 33
0.0
  0
SOLID
  5
1CE
330
1C9
100
AcDbEntity
  8
0
 62
   123
100
AcDbTrace
 10
21153.82872136373
 20
-2794.947944416613
 30
0.0
 11
21154.66205469706
 21
-2794.947944416613
 31
0.0
 12
21154.24538803039
 22
-2792.447944416613
 32
0.0
 13
21154.24538803039
 23
-2792.447944416613
 33
0.0
  0
MTEXT
  5
1CF
330
1C9
100
AcDbEntity
  8
0
 62
     3
100
AcDbMText
 10
21151.7453880304
 20
-2795.947944416613
 30
0.0
 40
3.0
 41
0.0
 71
     5
 72
     1
  1
\A1;7
 11
0.0000000000000001
 21
1.0
 31
0.0
1001
ACAD
1000
MTEXTBEGIN
1070
    73
1070
     1
1070
    44
1040
1.0
1070
    74
1070
     0
1000
MTEXTEND
  0
POINT
  5
1D0
330
1C9
100
AcDbEntity
  8
DEFPOINTS
 62
     0
100
AcDbPoint
 10
21167.23531606937
 20
-2799.447944416613
 30
0.0
  0
POINT
  5
1D1
330
1C9
100
AcDbEntity
  8
DEFPOINTS
 62
     0
100
AcDbPoint
 10
21167.23531606937
 20
-2792.447944416613
 30
0.0
  0
POINT
  5
1D2
330
1C9
100
AcDbEntity
  8
DEFPOINTS
 62
     0
100
AcDbPoint
 10
21154.24538803039
 20
-2792.447944416613
 30
0.0
  0
ENDBLK
  5
1D4
330
1C9
100
AcDbEntity
  8
0
100
AcDbBlockEnd
  0
BLOCK
  5
17E
330
174
100
AcDbEntity
  8
0
100
AcDbBlockBegin
  2
*D17
 70
     1
 10
0.0
 20
0.0
 30
0.0
  3
*D17
  1

  0
LINE
  5
175
330
174
100
AcDbEntity
  8
0
 62
   123
100
AcDbLine
 10
21173.84698531173
 20
-2653.881718102208
 30
0.0
 11
21151.66200111247
 21
-2653.881718102208
 31
0.0
  0
LINE
  5
176
330
174
100
AcDbEntity
  8
0
 62
   123
100
AcDbLine
 10
21173.84698531173
 20
-2580.881718102208
 30
0.0
 11
21151.66200111247
 21
-2580.881718102208
 31
0.0
  0
LINE
  5
177
330
174
100
AcDbEntity
  8
0
 62
   123
100
AcDbLine
 10
21152.26200111246
 20
-2651.381718102209
 30
0.0
 11
21152.26200111246
 21
-2583.381718102208
 31
0.0
  0
SOLID
  5
178
330
174
100
AcDbEntity
  8
0
 62
   123
100
AcDbTrace
 10
21151.8453344458
 20
-2651.381718102209
 30
0.0
 11
21152.67866777913
 21
-2651.381718102209
 31
0.0
 12
21152.26200111246
 22
-2653.881718102208
 32
0.0
 13
21152.26200111246
 23
-2653.881718102208
 33
0.0
  0
SOLID
  5
179
330
174
100
AcDbEntity
  8
0
 62
   123
100
AcDbTrace
 10
21151.8453344458
 20
-2583.381718102208
 30
0.0
 11
21152.67866777913
 21
-2583.381718102208
 31
0.0
 12
21152.26200111246
 22
-2580.881718102208
 32
0.0
 13
21152.26200111246
 23
-2580.881718102208
 33
0.0
  0
MTEXT
  5
17A
330
174
100
AcDbEntity
  8
0
 62
     3
100
AcDbMText
 10
21148.31185111246
 20
-2616.119516461667
 30
0.0
 40
3.0
 41
0.0
 71
     5
 72
     1
  1
\A1;\A1;{\F;%%C}73{\F;\H0.7x;\S+0^ -0.030;\H1.429x;(h7)}
 11
0.0000000000000001
 21
1.0
 31
0.0
1001
ACAD
1000
MTEXTBEGIN
1070
    73
1070
     1
1070
    44
1040
1.0
1070
    74
1070
     0
1000
MTEXTEND
  0
POINT
  5
17B
330
174
100
AcDbEntity
  8
DEFPOINTS
 62
     0
100
AcDbPoint
 10
21174.84698531173
 20
-2653.881718102208
 30
0.0
  0
POINT
  5
17C
330
174
100
AcDbEntity
  8
DEFPOINTS
 62
     0
100
AcDbPoint
 10
21174.84698531173
 20
-2580.881718102208
 30
0.0
  0
POINT
  5
17D
330
174
100
AcDbEntity
  8
DEFPOINTS
 62
     0
100
AcDbPoint
 10
21152.26200111246
 20
-2580.881718102208
 30
0.0
  0
ENDBLK
  5
17F
330
174
100
AcDbEntity
  8
0
100
AcDbBlockEnd
  0
BLOCK
  5
111
330
107
100
AcDbEntity
  8
0
100
AcDbBlockBegin
  2
*D18
 70
     1
 10
0.0
 20
0.0
 30
0.0
  3
*D18
  1

  0
LINE
  5
108
330
107
100
AcDbEntity
  8
0
 62
   123
100
AcDbLine
 10
21191.23531606936
 20
-2791.447944416614
 30
0.0
 11
21144.60848417393
 21
-2791.447944416614
 31
0.0
  0
LINE
  5
109
330
107
100
AcDbEntity
  8
0
 62
   123
100
AcDbLine
 10
21166.23531606936
 20
-2799.447944416613
 30
0.0
 11
21144.60848417393
 21
-2799.447944416613
 31
0.0
  0
LINE
  5
10A
330
107
100
AcDbEntity
  8
0
 62
   123
100
AcDbLine
 10
21145.20848417392
 20
-2793.947944416613
 30
0.0
 11
21145.20848417392
 21
-2796.947944416613
 31
0.0
  0
SOLID
  5
10B
330
107
100
AcDbEntity
  8
0
 62
   123
100
AcDbTrace
 10
21144.79181750725
 20
-2793.947944416613
 30
0.0
 11
21145.62515084059
 21
-2793.947944416613
 31
0.0
 12
21145.20848417392
 22
-2791.447944416614
 32
0.0
 13
21145.20848417392
 23
-2791.447944416614
 33
0.0
  0
SOLID
  5
10C
330
107
100
AcDbEntity
  8
0
 62
   123
100
AcDbTrace
 10
21144.79181750725
 20
-2796.947944416613
 30
0.0
 11
21145.62515084059
 21
-2796.947944416613
 31
0.0
 12
21145.20848417392
 22
-2799.447944416613
 32
0.0
 13
21145.20848417392
 23
-2799.447944416613
 33
0.0
  0
MTEXT
  5
10D
330
107
100
AcDbEntity
  8
0
 62
     3
100
AcDbMText
 10
21141.25848417391
 20
-2795.447944416611
 30
0.0
 40
3.0
 41
0.0
 71
     5
 72
     1
  1
\A1;\A1;%%c8{\H0.7x;\S+0^ -0.015;}(h7)
 11
0.0000000000000001
 21
1.0
 31
0.0
1001
ACAD
1000
MTEXTBEGIN
1070
    73
1070
     1
1070
    44
1040
1.0
1070
    74
1070
     0
1000
MTEXTEND
  0
POINT
  5
10E
330
107
100
AcDbEntity
  8
DEFPOINTS
 62
     0
100
AcDbPoint
 10
21192.23531606936
 20
-2791.447944416614
 30
0.0
  0
POINT
  5
10F
330
107
100
AcDbEntity
  8
DEFPOINTS
 62
     0
100
AcDbPoint
 10
21167.23531606937
 20
-2799.447944416613
 30
0.0
  0
POINT
  5
110
330
107
100
AcDbEntity
  8
DEFPOINTS
 62
     0
100
AcDbPoint
 10
21145.20848417392
 20
-2799.447944416613
 30
0.0
  0
ENDBLK
  5
112
330
107
100
AcDbEntity
  8
0
100
AcDbBlockEnd
  0
BLOCK
  5
B3
330
A6
100
AcDbEntity
  8
0
100
AcDbBlockBegin
  2
*D19
 70
     1
 10
0.0
 20
0.0
 30
0.0
  3
*D19
  1

  0
LINE
  5
A7
330
A6
100
AcDbEntity
  8
0
 62
   123
100
AcDbLine
 10
21082.65695275815
 20
-2665.553841310634
 30
0.0
 11
21082.65695275815
 21
-2684.750758398266
 31
0.0
  0
LINE
  5
A8
330
A6
100
AcDbEntity
  8
0
 62
   123
100
AcDbLine
 10
21099.60817868544
 20
-2658.305597634747
 30
0.0
 11
21108.43796833379
 21
-2679.622595556668
 31
0.0
  0
ARC
  5
A9
330
A6
100
AcDbEntity
  8
0
 62
   123
100
AcDbCircle
 10
21082.65695275815
 20
-2617.381718102242
 30
0.0
 40
66.76904029602541
100
AcDbArc
 50
272.1454227391422
 51
290.3545772608536
  0
SOLID
  5
AA
330
A6
100
AcDbEntity
  8
0
 62
   123
100
AcDbTrace
 10
21085.16431513467
 20
-2684.520548911864
 30
0.0
 11
21085.14871409171
 21
-2683.687361626853
 31
0.0
 12
21082.65695275815
 22
-2684.150758398266
 32
0.0
 13
21082.65695275815
 23
-2684.150758398266
 33
0.0
  0
SOLID
  5
AB
330
A6
100
AcDbEntity
  8
0
 62
   123
100
AcDbTrace
 10
21105.72893671136
 20
-2679.593700824375
 30
0.0
 11
21106.03337019711
 21
-2680.369435764418
 31
0.0
 12
21108.20835827436
 22
-2679.068267837161
 32
0.0
 13
21108.20835827436
 23
-2679.068267837161
 33
0.0
  0
MTEXT
  5
AC
330
A6
100
AcDbEntity
  8
0
 62
     3
100
AcDbMText
 10
21095.13948043316
 20
-2680.135622444395
 30
0.0
 40
3.0
 41
0.0
 71
     5
 72
     1
  1
\A1;22°30'
 11
0.9807852804032407
 21
0.1950903220160771
 31
0.0
1001
ACAD
1000
MTEXTBEGIN
1070
    73
1070
     1
1070
    44
1040
1.0
1070
    74
1070
     0
1000
MTEXTEND
  0
POINT
  5
AD
330
A6
100
AcDbEntity
  8
DEFPOINTS
 62
     0
100
AcDbPoint
 10
21091.37206134619
 20
-2683.579540002597
 30
0.0
  0
POINT
  5
AF
330
A6
100
AcDbEntity
  8
DEFPOINTS
 62
     0
100
AcDbPoint
 10
21082.65695275815
 20
-2664.553841310633
 30
0.0
  0
POINT
  5
B0
330
A6
100
AcDbEntity
  8
DEFPOINTS
 62
     0
100
AcDbPoint
 10
21099.22549525308
 20
-2657.381718102236
 30
0.0
  0
POINT
  5
B1
330
A6
100
AcDbEntity
  8
DEFPOINTS
 62
     0
100
AcDbPoint
 10
21082.65695275815
 20
-2617.381718102237
 30
0.0
  0
POINT
  5
B2
330
A6
100
AcDbEntity
  8
DEFPOINTS
 62
     0
100
AcDbPoint
 10
21082.65695275815
 20
-2570.20959489384
 30
0.0
  0
ENDBLK
  5
B4
330
A6
100
AcDbEntity
  8
0
100
AcDbBlockEnd
  0
BLOCK
  5
C4
330
B8
100
AcDbEntity
  8
0
100
AcDbBlockBegin
  2
*D20
 70
     1
 10
0.0
 20
0.0
 30
0.0
  3
*D20
  1

  0
LINE
  5
B9
330
B8
100
AcDbEntity
  8
0
 62
   123
100
AcDbLine
 10
21068.32528678628
 20
-2843.620067625034
 30
0.0
 11
21068.32528678626
 21
-2868.917944116523
 31
0.0
  0
LINE
  5
BA
330
B8
100
AcDbEntity
  8
0
 62
   123
100
AcDbLine
 10
21085.27651271355
 20
-2836.371823949149
 30
0.0
 11
21096.44103844728
 21
-2863.325373392975
 31
0.0
  0
ARC
  5
BB
330
B8
100
AcDbEntity
  8
0
 62
   123
100
AcDbCircle
 10
21068.32528678626
 20
-2795.447944416636
 30
0.0
 40
72.86999969988568
100
AcDbArc
 50
271.9657811870695
 51
290.5342188129266
  0
SOLID
  5
BC
330
B8
100
AcDbEntity
  8
0
 62
   123
100
AcDbTrace
 10
21070.83206637314
 20
-2868.691664886576
 30
0.0
 11
21070.81777151009
 21
-2867.858454168129
 31
0.0
 12
21068.32528678628
 22
-2868.317944116522
 32
0.0
 13
21068.32528678628
 23
-2868.317944116522
 33
0.0
  0
SOLID
  5
BD
330
B8
100
AcDbEntity
  8
0
 62
   123
100
AcDbTrace
 10
21093.73283357585
 20
-2863.300364923978
 30
0.0
 11
21094.03848278206
 21
-2864.075621660279
 31
0.0
 12
21096.21142838785
 22
-2862.771045673467
 32
0.0
 13
21096.21142838785
 23
-2862.771045673467
 33
0.0
  0
MTEXT
  5
BE
330
B8
100
AcDbEntity
  8
0
 62
     3
100
AcDbMText
 10
21082.69190040824
 20
-2864.043917148657
 30
0.0
 40
3.0
 41
0.0
 71
     5
 72
     1
  1
\A1;22°30'
 11
0.9787639600895325
 21
0.2049905130240323
 31
0.0
1001
ACAD
1000
MTEXTBEGIN
1070
    73
1070
     1
1070
    44
1040
1.0
1070
    74
1070
     0
1000
MTEXTEND
  0
POINT
  5
BF
330
B8
100
AcDbEntity
  8
DEFPOINTS
 62
     0
100
AcDbPoint
 10
21077.83673037416
 20
-2867.6945311674
 30
0.0
  0
POINT
  5
C0
330
B8
100
AcDbEntity
  8
DEFPOINTS
 62
     0
100
AcDbPoint
 10
21068.32528678626
 20
-2842.620067625034
 30
0.0
  0
POINT
  5
C1
330
B8
100
AcDbEntity
  8
DEFPOINTS
 62
     0
100
AcDbPoint
 10
21084.89382928119
 20
-2835.447944416637
 30
0.0
  0
POINT
  5
C2
330
B8
100
AcDbEntity
  8
DEFPOINTS
 62
     0
100
AcDbPoint
 10
21068.32528678626
 20
-2795.447944416636
 30
0.0
  0
POINT
  5
C3
330
B8
100
AcDbEntity
  8
DEFPOINTS
 62
     0
100
AcDbPoint
 10
21068.32528678626
 20
-2748.27582120824
 30
0.0
  0
ENDBLK
  5
C5
330
B8
100
AcDbEntity
  8
0
100
AcDbBlockEnd
  0
BLOCK
  5
2DD
330
2D3
100
AcDbEntity
  8
0
100
AcDbBlockBegin
  2
*D21
 70
     1
 10
0.0
 20
0.0
 30
0.0
  3
*D21
  1

  0
LINE
  5
2D4
330
2D3
100
AcDbEntity
  8
0
 62
   123
100
AcDbLine
 10
248.2726334089893
 20
104.7359657074634
 30
0.0
 11
272.1931913841304
 21
104.7359657074634
 31
0.0
  0
LINE
  5
2D5
330
2D3
100
AcDbEntity
  8
0
 62
   123
100
AcDbLine
 10
248.2726334089893
 20
25.73596570746303
 30
0.0
 11
272.1931913841304
 21
25.73596570746303
 31
0.0
  0
LINE
  5
2D6
330
2D3
100
AcDbEntity
  8
0
 62
   123
100
AcDbLine
 10
271.5931913841304
 20
102.2359657074634
 30
0.0
 11
271.5931913841304
 21
28.23596570746303
 31
0.0
  0
SOLID
  5
2D7
330
2D3
100
AcDbEntity
  8
0
 62
   123
100
AcDbTrace
 10
271.1765247174637
 20
102.2359657074634
 30
0.0
 11
272.0098580507971
 21
102.2359657074634
 31
0.0
 12
271.5931913841304
 22
104.7359657074634
 32
0.0
 13
271.5931913841304
 23
104.7359657074634
 33
0.0
  0
SOLID
  5
2D8
330
2D3
100
AcDbEntity
  8
0
 62
   123
100
AcDbTrace
 10
271.1765247174637
 20
28.23596570746303
 30
0.0
 11
272.0098580507971
 21
28.23596570746303
 31
0.0
 12
271.5931913841304
 22
25.73596570746303
 32
0.0
 13
271.5931913841304
 23
25.73596570746303
 33
0.0
  0
MTEXT
  5
2D9
330
2D3
100
AcDbEntity
  8
0
 62
     3
100
AcDbMText
 10
269.0931913841304
 20
65.23596570746349
 30
0.0
 40
3.0
 41
0.0
 71
     5
 72
     1
  1
\A1;%%C79
 11
0.0000000000000001
 21
1.0
 31
0.0
1001
ACAD
1000
MTEXTBEGIN
1070
    73
1070
     1
1070
    44
1040
1.0
1070
    74
1070
     0
1000
MTEXTEND
  0
POINT
  5
2DA
330
2D3
100
AcDbEntity
  8
DEFPOINTS
 62
     0
100
AcDbPoint
 10
247.2726334089893
 20
104.7359657074634
 30
0.0
  0
POINT
  5
2DB
330
2D3
100
AcDbEntity
  8
DEFPOINTS
 62
     0
100
AcDbPoint
 10
247.2726334089893
 20
25.73596570746303
 30
0.0
  0
POINT
  5
2DC
330
2D3
100
AcDbEntity
  8
DEFPOINTS
 62
     0
100
AcDbPoint
 10
271.5931913841304
 20
25.73596570746303
 30
0.0
  0
ENDBLK
  5
2DE
330
2D3
100
AcDbEntity
  8
0
100
AcDbBlockEnd
  0
BLOCK
  5
2E9
330
2DF
100
AcDbEntity
  8
0
100
AcDbBlockBegin
  2
*D22
 70
     1
 10
0.0
 20
0.0
 30
0.0
  3
*D22
  1

  0
LINE
  5
2E0
330
2DF
100
AcDbEntity
  8
0
 62
   123
100
AcDbLine
 10
161.2726334089893
 20
69.23596570746304
 30
0.0
 11
114.6458015135416
 21
69.23596570746305
 31
0.0
  0
LINE
  5
2E1
330
2DF
100
AcDbEntity
  8
0
 62
   123
100
AcDbLine
 10
136.2726334089893
 20
61.23596570746304
 30
0.0
 11
114.6458015135416
 21
61.23596570746304
 31
0.0
  0
LINE
  5
2E2
330
2DF
100
AcDbEntity
  8
0
 62
   123
100
AcDbLine
 10
115.2458015135416
 20
66.73596570746305
 30
0.0
 11
115.2458015135416
 21
63.73596570746304
 31
0.0
  0
SOLID
  5
2E3
330
2DF
100
AcDbEntity
  8
0
 62
   123
100
AcDbTrace
 10
114.829134846875
 20
66.73596570746305
 30
0.0
 11
115.6624681802083
 21
66.73596570746305
 31
0.0
 12
115.2458015135416
 22
69.23596570746305
 32
0.0
 13
115.2458015135416
 23
69.23596570746305
 33
0.0
  0
SOLID
  5
2E4
330
2DF
100
AcDbEntity
  8
0
 62
   123
100
AcDbTrace
 10
114.829134846875
 20
63.73596570746304
 30
0.0
 11
115.6624681802083
 21
63.73596570746304
 31
0.0
 12
115.2458015135416
 22
61.23596570746304
 32
0.0
 13
115.2458015135416
 23
61.23596570746304
 33
0.0
  0
MTEXT
  5
2E5
330
2DF
100
AcDbEntity
  8
0
 62
     3
100
AcDbMText
 10
111.2958015135416
 20
65.23596570746306
 30
0.0
 40
3.0
 41
0.0
 71
     5
 72
     1
  1
\A1;\A1;%%c8{\H0.7x;\S+0^ -0.015;}(h7)
 11
0.0000000000000001
 21
1.0
 31
0.0
1001
ACAD
1000
MTEXTBEGIN
1070
    73
1070
     1
1070
    44
1040
1.0
1070
    74
1070
     0
1000
MTEXTEND
  0
POINT
  5
2E6
330
2DF
100
AcDbEntity
  8
DEFPOINTS
 62
     0
100
AcDbPoint
 10
162.2726334089893
 20
69.23596570746304
 30
0.0
  0
POINT
  5
2E7
330
2DF
100
AcDbEntity
  8
DEFPOINTS
 62
     0
100
AcDbPoint
 10
137.2726334089893
 20
61.23596570746304
 30
0.0
  0
POINT
  5
2E8
330
2DF
100
AcDbEntity
  8
DEFPOINTS
 62
     0
100
AcDbPoint
 10
115.2458015135416
 20
61.23596570746304
 30
0.0
  0
ENDBLK
  5
2EA
330
2DF
100
AcDbEntity
  8
0
100
AcDbBlockEnd
  0
BLOCK
  5
2F5
330
2EB
100
AcDbEntity
  8
0
100
AcDbBlockBegin
  2
*D23
 70
     1
 10
0.0
 20
0.0
 30
0.0
  3
*D23
  1

  0
LINE
  5
2EC
330
2EB
100
AcDbEntity
  8
0
 62
   123
100
AcDbLine
 10
166.2726334089893
 20
101.735965707463
 30
0.0
 11
102.0745501863806
 21
101.735965707463
 31
0.0
  0
LINE
  5
2ED
330
2EB
100
AcDbEntity
  8
0
 62
   123
100
AcDbLine
 10
166.2726334089893
 20
28.73596570746304
 30
0.0
 11
102.0745501863806
 21
28.73596570746305
 31
0.0
  0
LINE
  5
2EE
330
2EB
100
AcDbEntity
  8
0
 62
   123
100
AcDbLine
 10
102.6745501863806
 20
99.23596570746305
 30
0.0
 11
102.6745501863806
 21
31.23596570746305
 31
0.0
  0
SOLID
  5
2EF
330
2EB
100
AcDbEntity
  8
0
 62
   123
100
AcDbTrace
 10
102.257883519714
 20
99.23596570746305
 30
0.0
 11
103.0912168530473
 21
99.23596570746305
 31
0.0
 12
102.6745501863806
 22
101.735965707463
 32
0.0
 13
102.6745501863806
 23
101.735965707463
 33
0.0
  0
SOLID
  5
2F0
330
2EB
100
AcDbEntity
  8
0
 62
   123
100
AcDbTrace
 10
102.2578835197139
 20
31.23596570746305
 30
0.0
 11
103.0912168530473
 21
31.23596570746305
 31
0.0
 12
102.6745501863806
 22
28.73596570746305
 32
0.0
 13
102.6745501863806
 23
28.73596570746305
 33
0.0
  0
MTEXT
  5
2F1
330
2EB
100
AcDbEntity
  8
0
 62
     3
100
AcDbMText
 10
98.72440018638066
 20
65.23596570746303
 30
0.0
 40
3.0
 41
0.0
 71
     5
 72
     1
  1
\A1;\A1;{\F;%%C73\H0.7x;\S+0^ -0.030;\H1.429x;(h7)}
 11
0.0000000000000001
 21
1.0
 31
0.0
1001
ACAD
1000
MTEXTBEGIN
1070
    73
1070
     1
1070
    44
1040
1.0
1070
    74
1070
     0
1000
MTEXTEND
  0
POINT
  5
2F2
330
2EB
100
AcDbEntity
  8
DEFPOINTS
 62
     0
100
AcDbPoint
 10
167.2726334089893
 20
101.735965707463
 30
0.0
  0
POINT
  5
2F3
330
2EB
100
AcDbEntity
  8
DEFPOINTS
 62
     0
100
AcDbPoint
 10
167.2726334089893
 20
28.73596570746304
 30
0.0
  0
POINT
  5
2F4
330
2EB
100
AcDbEntity
  8
DEFPOINTS
 62
     0
100
AcDbPoint
 10
102.6745501863806
 20
28.73596570746305
 30
0.0
  0
ENDBLK
  5
2F6
330
2EB
100
AcDbEntity
  8
0
100
AcDbBlockEnd
  0
BLOCK
  5
303
330
2F7
100
AcDbEntity
  8
0
100
AcDbBlockBegin
  2
*D24
 70
     1
 10
0.0
 20
0.0
 30
0.0
  3
*D24
  1

  0
LINE
  5
3E3
330
2F7
100
AcDbEntity
  8
0
 62
   123
100
AcDbLine
 10
38.36260412589036
 20
17.06384249904385
 30
0.0
 11
38.36260412589035
 21
-8.234033992445819
 31
0.0
  0
LINE
  5
3E4
330
2F7
100
AcDbEntity
  8
0
 62
   123
100
AcDbLine
 10
55.31383005317787
 20
24.31208617492945
 30
0.0
 11
66.47835578690309
 21
-2.641463268895643
 31
0.0
  0
ARC
  5
3E5
330
2F7
100
AcDbEntity
  8
0
 62
   123
100
AcDbCircle
 10
38.36260412589036
 20
65.23596570744074
 30
0.0
 40
72.86999969988656
100
AcDbArc
 50
271.9657811870683
 51
290.53421881293
  0
SOLID
  5
3E6
330
2F7
100
AcDbEntity
  8
0
 62
   123
100
AcDbTrace
 10
40.86938371275919
 20
-8.007754762498501
 30
0.0
 11
40.85508884970228
 21
-7.174544044051702
 31
0.0
 12
38.36260412589035
 22
-7.634033992445821
 32
0.0
 13
38.36260412589035
 23
-7.634033992445821
 33
0.0
  0
SOLID
  5
3E7
330
2F7
100
AcDbEntity
  8
0
 62
   123
100
AcDbTrace
 10
63.77015091546842
 20
-2.616454799898706
 30
0.0
 11
64.07580012168867
 21
-3.391711536200542
 31
0.0
 12
66.24874572748405
 22
-2.087135549388865
 32
0.0
 13
66.24874572748405
 23
-2.087135549388865
 33
0.0
  0
MTEXT
  5
3E8
330
2F7
100
AcDbEntity
  8
0
 62
     3
100
AcDbMText
 10
52.72921774786418
 20
-3.360007024579608
 30
0.0
 40
3.0
 41
0.0
 71
     5
 72
     1
  1
\A1;22°30'
 11
0.9787639600895328
 21
0.2049905130240315
 31
0.0
  0
POINT
  5
3E9
330
2F7
100
AcDbEntity
  8
DEFPOINTS
 62
     0
100
AcDbPoint
 10
47.87404771379212
 20
-7.010621043322995
 30
0.0
  0
POINT
  5
3EA
330
2F7
100
AcDbEntity
  8
DEFPOINTS
 62
     0
100
AcDbPoint
 10
38.36260412589036
 20
18.06384249904385
 30
0.0
  0
POINT
  5
3EB
330
2F7
100
AcDbEntity
  8
DEFPOINTS
 62
     0
100
AcDbPoint
 10
54.93114662081279
 20
25.23596570744075
 30
0.0
  0
POINT
  5
3EC
330
2F7
100
AcDbEntity
  8
DEFPOINTS
 62
     0
100
AcDbPoint
 10
38.36260412589035
 20
65.23596570744075
 30
0.0
  0
POINT
  5
3ED
330
2F7
100
AcDbEntity
  8
DEFPOINTS
 62
     0
100
AcDbPoint
 10
38.36260412589036
 20
112.4080889158376
 30
0.0
  0
ENDBLK
  5
304
330
2F7
100
AcDbEntity
  8
0
100
AcDbBlockEnd
  0
BLOCK
  5
30F
330
305
100
AcDbEntity
  8
0
100
AcDbBlockBegin
  2
*D25
 70
     1
 10
0.0
 20
0.0
 30
0.0
  3
*D25
  1

  0
LINE
  5
306
330
305
100
AcDbEntity
  8
0
 62
   123
100
AcDbLine
 10
225.8843026513531
 20
282.8021920218688
 30
0.0
 11
253.0311567873301
 21
282.8021920218688
 31
0.0
  0
LINE
  5
307
330
305
100
AcDbEntity
  8
0
 62
   123
100
AcDbLine
 10
225.8843026513531
 20
203.802192021868
 30
0.0
 11
253.0311567873301
 21
203.802192021868
 31
0.0
  0
LINE
  5
308
330
305
100
AcDbEntity
  8
0
 62
   123
100
AcDbLine
 10
252.4311567873301
 20
280.3021920218689
 30
0.0
 11
252.4311567873301
 21
206.3021920218679
 31
0.0
  0
SOLID
  5
309
330
305
100
AcDbEntity
  8
0
 62
   123
100
AcDbTrace
 10
252.0144901206634
 20
280.3021920218689
 30
0.0
 11
252.8478234539968
 21
280.3021920218689
 31
0.0
 12
252.4311567873301
 22
282.8021920218688
 32
0.0
 13
252.4311567873301
 23
282.8021920218688
 33
0.0
  0
SOLID
  5
30A
330
305
100
AcDbEntity
  8
0
 62
   123
100
AcDbTrace
 10
252.0144901206634
 20
206.3021920218679
 30
0.0
 11
252.8478234539968
 21
206.3021920218679
 31
0.0
 12
252.4311567873301
 22
203.802192021868
 32
0.0
 13
252.4311567873301
 23
203.802192021868
 33
0.0
  0
MTEXT
  5
30B
330
305
100
AcDbEntity
  8
0
 62
     3
100
AcDbMText
 10
249.9311567873301
 20
243.302192021868
 30
0.0
 40
3.0
 41
0.0
 71
     5
 72
     1
  1
\A1;%%C79
 11
0.0000000000000001
 21
1.0
 31
0.0
1001
ACAD
1000
MTEXTBEGIN
1070
    73
1070
     1
1070
    44
1040
1.0
1070
    74
1070
     0
1000
MTEXTEND
  0
POINT
  5
30C
330
305
100
AcDbEntity
  8
DEFPOINTS
 62
     0
100
AcDbPoint
 10
224.8843026513532
 20
282.8021920218688
 30
0.0
  0
POINT
  5
30D
330
305
100
AcDbEntity
  8
DEFPOINTS
 62
     0
100
AcDbPoint
 10
224.8843026513532
 20
203.802192021868
 30
0.0
  0
POINT
  5
30E
330
305
100
AcDbEntity
  8
DEFPOINTS
 62
     0
100
AcDbPoint
 10
252.4311567873301
 20
203.802192021868
 30
0.0
  0
ENDBLK
  5
310
330
305
100
AcDbEntity
  8
0
100
AcDbBlockEnd
  0
BLOCK
  5
31B
330
311
100
AcDbEntity
  8
0
100
AcDbBlockBegin
  2
*D26
 70
     1
 10
0.0
 20
0.0
 30
0.0
  3
*D26
  1

  0
LINE
  5
312
330
311
100
AcDbEntity
  8
0
 62
   123
100
AcDbLine
 10
143.8843026513532
 20
206.8021920218679
 30
0.0
 11
121.6993184520819
 21
206.8021920218679
 31
0.0
  0
LINE
  5
313
330
311
100
AcDbEntity
  8
0
 62
   123
100
AcDbLine
 10
143.8843026513532
 20
279.8021920218679
 30
0.0
 11
121.6993184520819
 21
279.802192021868
 31
0.0
  0
LINE
  5
314
330
311
100
AcDbEntity
  8
0
 62
   123
100
AcDbLine
 10
122.2993184520819
 20
209.302192021868
 30
0.0
 11
122.2993184520819
 21
277.302192021868
 31
0.0
  0
SOLID
  5
315
330
311
100
AcDbEntity
  8
0
 62
   123
100
AcDbTrace
 10
121.8826517854152
 20
209.302192021868
 30
0.0
 11
122.7159851187486
 21
209.302192021868
 31
0.0
 12
122.2993184520819
 22
206.8021920218679
 32
0.0
 13
122.2993184520819
 23
206.8021920218679
 33
0.0
  0
SOLID
  5
316
330
311
100
AcDbEntity
  8
0
 62
   123
100
AcDbTrace
 10
121.8826517854153
 20
277.302192021868
 30
0.0
 11
122.7159851187486
 21
277.302192021868
 31
0.0
 12
122.2993184520819
 22
279.802192021868
 32
0.0
 13
122.2993184520819
 23
279.802192021868
 33
0.0
  0
MTEXT
  5
317
330
311
100
AcDbEntity
  8
0
 62
     3
100
AcDbMText
 10
118.3491684520819
 20
244.5643936624096
 30
0.0
 40
3.0
 41
0.0
 71
     5
 72
     1
  1
\A1;\A1;{\F;%%C}73{\F;\H0.7x;\S+0^ -0.030;\H1.429x;(h7)}
 11
0.0000000000000001
 21
1.0
 31
0.0
1001
ACAD
1000
MTEXTBEGIN
1070
    73
1070
     1
1070
    44
1040
1.0
1070
    74
1070
     0
1000
MTEXTEND
  0
POINT
  5
318
330
311
100
AcDbEntity
  8
DEFPOINTS
 62
     0
100
AcDbPoint
 10
144.8843026513532
 20
206.8021920218679
 30
0.0
  0
POINT
  5
319
330
311
100
AcDbEntity
  8
DEFPOINTS
 62
     0
100
AcDbPoint
 10
144.8843026513532
 20
279.8021920218679
 30
0.0
  0
POINT
  5
31A
330
311
100
AcDbEntity
  8
DEFPOINTS
 62
     0
100
AcDbPoint
 10
122.2993184520819
 20
279.802192021868
 30
0.0
  0
ENDBLK
  5
31C
330
311
100
AcDbEntity
  8
0
100
AcDbBlockEnd
  0
BLOCK
  5
329
330
31D
100
AcDbEntity
  8
0
100
AcDbBlockBegin
  2
*D27
 70
     1
 10
0.0
 20
0.0
 30
0.0
  3
*D27
  1

  0
LINE
  5
3D8
330
31D
100
AcDbEntity
  8
0
 62
   123
100
AcDbLine
 10
52.69427009778156
 20
195.1300688134438
 30
0.0
 11
52.69427009778161
 21
175.9331517258077
 31
0.0
  0
LINE
  5
3D9
330
31D
100
AcDbEntity
  8
0
 62
   123
100
AcDbLine
 10
69.64549602506906
 20
202.3783124893294
 30
0.0
 11
78.47528567340782
 21
181.0613145674071
 31
0.0
  0
ARC
  5
3DA
330
31D
100
AcDbEntity
  8
0
 62
   123
100
AcDbCircle
 10
52.69427009778155
 20
243.3021920218398
 30
0.0
 40
66.76904029603204
100
AcDbArc
 50
272.1454227391434
 51
290.3545772608554
  0
SOLID
  5
3DB
330
31D
100
AcDbEntity
  8
0
 62
   123
100
AcDbTrace
 10
55.20163247429686
 20
176.16336121221
 30
0.0
 11
55.18603143132773
 21
176.9965484972203
 31
0.0
 12
52.69427009778159
 22
176.5331517258077
 32
0.0
 13
52.69427009778159
 23
176.5331517258077
 33
0.0
  0
SOLID
  5
3DC
330
31D
100
AcDbEntity
  8
0
 62
   123
100
AcDbTrace
 10
75.76625405099142
 20
181.0902092996978
 30
0.0
 11
76.07068753673705
 21
180.3144743596562
 31
0.0
 12
78.24567561398878
 22
181.6156422869139
 32
0.0
 13
78.24567561398878
 23
181.6156422869139
 33
0.0
  0
MTEXT
  5
3DD
330
31D
100
AcDbEntity
  8
0
 62
     3
100
AcDbMText
 10
65.17679777279669
 20
180.5482876796788
 30
0.0
 40
3.0
 41
0.0
 71
     5
 72
     1
  1
\A1;22°30'
 11
0.9807852804032325
 21
0.195090322016118
 31
0.0
  0
POINT
  5
3DE
330
31D
100
AcDbEntity
  8
DEFPOINTS
 62
     0
100
AcDbPoint
 10
61.40937868580937
 20
177.1043701214779
 30
0.0
  0
POINT
  5
3DF
330
31D
100
AcDbEntity
  8
DEFPOINTS
 62
     0
100
AcDbPoint
 10
52.69427009778155
 20
196.1300688134438
 30
0.0
  0
POINT
  5
3E0
330
31D
100
AcDbEntity
  8
DEFPOINTS
 62
     0
100
AcDbPoint
 10
69.262812592704
 20
203.3021920218407
 30
0.0
  0
POINT
  5
3E1
330
31D
100
AcDbEntity
  8
DEFPOINTS
 62
     0
100
AcDbPoint
 10
52.69427009778155
 20
243.3021920218398
 30
0.0
  0
POINT
  5
3E2
330
31D
100
AcDbEntity
  8
DEFPOINTS
 62
     0
100
AcDbPoint
 10
52.69427009778155
 20
290.4743152302376
 30
0.0
  0
ENDBLK
  5
32A
330
31D
100
AcDbEntity
  8
0
100
AcDbBlockEnd
  0
BLOCK
  5
335
330
32B
100
AcDbEntity
  8
0
100
AcDbBlockBegin
  2
*D28
 70
     1
 10
0.0
 20
0.0
 30
0.0
  3
*D28
  1

  0
LINE
  5
32C
330
32B
100
AcDbEntity
  8
0
 62
   123
100
AcDbLine
 10
137.2726334089893
 20
70.23596570746303
 30
0.0
 11
137.2726334089893
 21
130.2023833933845
 31
0.0
  0
LINE
  5
32D
330
32B
100
AcDbEntity
  8
0
 62
   123
100
AcDbLine
 10
169.2726334089893
 20
106.235965707463
 30
0.0
 11
169.2726334089893
 21
130.2023833933845
 31
0.0
  0
LINE
  5
32E
330
32B
100
AcDbEntity
  8
0
 62
   123
100
AcDbLine
 10
139.7726334089893
 20
129.6023833933845
 30
0.0
 11
166.7726334089893
 21
129.6023833933845
 31
0.0
  0
SOLID
  5
32F
330
32B
100
AcDbEntity
  8
0
 62
   123
100
AcDbTrace
 10
139.7726334089893
 20
130.0190500600512
 30
0.0
 11
139.7726334089893
 21
129.1857167267179
 31
0.0
 12
137.2726334089893
 22
129.6023833933845
 32
0.0
 13
137.2726334089893
 23
129.6023833933845
 33
0.0
  0
SOLID
  5
330
330
32B
100
AcDbEntity
  8
0
 62
   123
100
AcDbTrace
 10
166.7726334089893
 20
130.0190500600512
 30
0.0
 11
166.7726334089893
 21
129.1857167267179
 31
0.0
 12
169.2726334089893
 22
129.6023833933845
 32
0.0
 13
169.2726334089893
 23
129.6023833933845
 33
0.0
  0
MTEXT
  5
331
330
32B
100
AcDbEntity
  8
0
 62
     3
100
AcDbMText
 10
153.2726334089893
 20
132.1023833933845
 30
0.0
 40
3.0
 41
0.0
 71
     5
 72
     1
  1
\A1;32
1001
ACAD
1000
MTEXTBEGIN
1070
    73
1070
     1
1070
    44
1040
1.0
1070
    74
1070
     0
1000
MTEXTEND
  0
POINT
  5
332
330
32B
100
AcDbEntity
  8
DEFPOINTS
 62
     0
100
AcDbPoint
 10
137.2726334089893
 20
69.23596570746304
 30
0.0
  0
POINT
  5
333
330
32B
100
AcDbEntity
  8
DEFPOINTS
 62
     0
100
AcDbPoint
 10
169.2726334089893
 20
105.235965707463
 30
0.0
  0
POINT
  5
334
330
32B
100
AcDbEntity
  8
DEFPOINTS
 62
     0
100
AcDbPoint
 10
169.2726334089893
 20
129.6023833933845
 30
0.0
  0
ENDBLK
  5
336
330
32B
100
AcDbEntity
  8
0
100
AcDbBlockEnd
  0
BLOCK
  5
343
330
337
100
AcDbEntity
  8
0
100
AcDbBlockBegin
  2
*D29
 70
     1
 10
0.0
 20
0.0
 30
0.0
  3
*D29
  1

  0
LINE
  5
338
330
337
100
AcDbEntity
  8
0
 62
   123
100
AcDbLine
 10
167.2726334089893
 20
102.735965707463
 30
0.0
 11
167.2726334089893
 21
118.0442990407965
 31
0.0
  0
LINE
  5
339
330
337
100
AcDbEntity
  8
0
 62
   123
100
AcDbLine
 10
169.2726334089893
 20
106.235965707463
 30
0.0
 11
169.2726334089893
 21
118.0442990407965
 31
0.0
  0
LINE
  5
33A
330
337
100
AcDbEntity
  8
0
 62
   123
100
AcDbLine
 10
171.7726334089893
 20
117.4442990407965
 30
0.0
 11
174.2726334089893
 21
117.4442990407965
 31
0.0
  0
LINE
  5
33B
330
337
100
AcDbEntity
  8
0
 62
   123
100
AcDbLine
 10
164.7726334089893
 20
117.4442990407965
 30
0.0
 11
158.2726334089893
 21
117.4442990407965
 31
0.0
  0
LINE
  5
33C
330
337
100
AcDbEntity
  8
0
 62
   123
100
AcDbLine
 10
169.2726334089893
 20
117.4442990407965
 30
0.0
 11
167.2726334089893
 21
117.4442990407965
 31
0.0
  0
SOLID
  5
33D
330
337
100
AcDbEntity
  8
0
 62
   123
100
AcDbTrace
 10
171.7726334089893
 20
117.8609657074632
 30
0.0
 11
171.7726334089893
 21
117.0276323741298
 31
0.0
 12
169.2726334089893
 22
117.4442990407965
 32
0.0
 13
169.2726334089893
 23
117.4442990407965
 33
0.0
  0
SOLID
  5
33E
330
337
100
AcDbEntity
  8
0
 62
   123
100
AcDbTrace
 10
164.7726334089893
 20
117.8609657074632
 30
0.0
 11
164.7726334089893
 21
117.0276323741298
 31
0.0
 12
167.2726334089893
 22
117.4442990407965
 32
0.0
 13
167.2726334089893
 23
117.4442990407965
 33
0.0
  0
MTEXT
  5
33F
330
337
100
AcDbEntity
  8
0
 62
     3
100
AcDbMText
 10
160.2726334089893
 20
119.9442990407965
 30
0.0
 40
3.0
 41
0.0
 71
     5
 72
     1
  1
\A1;2
1001
ACAD
1000
MTEXTBEGIN
1070
    73
1070
     1
1070
    44
1040
1.0
1070
    74
1070
     0
1000
MTEXTEND
  0
POINT
  5
340
330
337
100
AcDbEntity
  8
DEFPOINTS
 62
     0
100
AcDbPoint
 10
167.2726334089893
 20
101.735965707463
 30
0.0
  0
POINT
  5
341
330
337
100
AcDbEntity
  8
DEFPOINTS
 62
     0
100
AcDbPoint
 10
169.2726334089893
 20
105.235965707463
 30
0.0
  0
POINT
  5
342
330
337
100
AcDbEntity
  8
DEFPOINTS
 62
     0
100
AcDbPoint
 10
169.2726334089893
 20
117.4442990407965
 30
0.0
  0
ENDBLK
  5
344
330
337
100
AcDbEntity
  8
0
100
AcDbBlockEnd
  0
BLOCK
  5
34F
330
345
100
AcDbEntity
  8
0
100
AcDbBlockBegin
  2
*D30
 70
     1
 10
0.0
 20
0.0
 30
0.0
  3
*D30
  1

  0
LINE
  5
346
330
345
100
AcDbEntity
  8
0
 62
   123
100
AcDbLine
 10
-1.637395874087815
 20
101.2359657074634
 30
0.0
 11
-1.637395874087813
 21
123.0315340380767
 31
0.0
  0
LINE
  5
347
330
345
100
AcDbEntity
  8
0
 62
   123
100
AcDbLine
 10
78.36260412591219
 20
101.2359657074634
 30
0.0
 11
78.36260412591219
 21
123.0315340380767
 31
0.0
  0
LINE
  5
348
330
345
100
AcDbEntity
  8
0
 62
   123
100
AcDbLine
 10
0.8626041259121862
 20
122.4315340380767
 30
0.0
 11
75.86260412591219
 21
122.4315340380767
 31
0.0
  0
SOLID
  5
349
330
345
100
AcDbEntity
  8
0
 62
   123
100
AcDbTrace
 10
0.8626041259121862
 20
122.8482007047434
 30
0.0
 11
0.8626041259121862
 21
122.01486737141
 31
0.0
 12
-1.637395874087813
 22
122.4315340380767
 32
0.0
 13
-1.637395874087813
 23
122.4315340380767
 33
0.0
  0
SOLID
  5
34A
330
345
100
AcDbEntity
  8
0
 62
   123
100
AcDbTrace
 10
75.86260412591219
 20
122.8482007047434
 30
0.0
 11
75.86260412591219
 21
122.01486737141
 31
0.0
 12
78.36260412591219
 22
122.4315340380767
 32
0.0
 13
78.36260412591219
 23
122.4315340380767
 33
0.0
  0
MTEXT
  5
34B
330
345
100
AcDbEntity
  8
0
 62
     3
100
AcDbMText
 10
39.12123188075202
 20
124.9315340380767
 30
0.0
 40
3.0
 41
0.0
 71
     5
 72
     1
  1
\A1;80
1001
ACAD
1000
MTEXTBEGIN
1070
    73
1070
     1
1070
    44
1040
1.0
1070
    74
1070
     0
1000
MTEXTEND
  0
POINT
  5
34C
330
345
100
AcDbEntity
  8
DEFPOINTS
 62
     0
100
AcDbPoint
 10
-1.637395874087815
 20
100.2359657074634
 30
0.0
  0
POINT
  5
34D
330
345
100
AcDbEntity
  8
DEFPOINTS
 62
     0
100
AcDbPoint
 10
78.36260412591219
 20
100.2359657074634
 30
0.0
  0
POINT
  5
34E
330
345
100
AcDbEntity
  8
DEFPOINTS
 62
     0
100
AcDbPoint
 10
78.36260412591219
 20
122.4315340380767
 30
0.0
  0
ENDBLK
  5
350
330
345
100
AcDbEntity
  8
0
100
AcDbBlockEnd
  0
BLOCK
  5
35B
330
351
100
AcDbEntity
  8
0
100
AcDbBlockBegin
  2
*D31
 70
     1
 10
0.0
 20
0.0
 30
0.0
  3
*D31
  1

  0
LINE
  5
352
330
351
100
AcDbEntity
  8
0
 62
   123
100
AcDbLine
 10
136.2726334089893
 20
61.23596570746304
 30
0.0
 11
123.682705370013
 21
61.23596570746304
 31
0.0
  0
LINE
  5
353
330
351
100
AcDbEntity
  8
0
 62
   123
100
AcDbLine
 10
136.2726334089893
 20
68.23596570746303
 30
0.0
 11
123.682705370013
 21
68.23596570746303
 31
0.0
  0
LINE
  5
354
330
351
100
AcDbEntity
  8
0
 62
   123
100
AcDbLine
 10
124.282705370013
 20
63.73596570746304
 30
0.0
 11
124.282705370013
 21
65.73596570746303
 31
0.0
  0
SOLID
  5
355
330
351
100
AcDbEntity
  8
0
 62
   123
100
AcDbTrace
 10
123.8660387033463
 20
63.73596570746304
 30
0.0
 11
124.6993720366796
 21
63.73596570746304
 31
0.0
 12
124.282705370013
 22
61.23596570746304
 32
0.0
 13
124.282705370013
 23
61.23596570746304
 33
0.0
  0
SOLID
  5
356
330
351
100
AcDbEntity
  8
0
 62
   123
100
AcDbTrace
 10
123.8660387033463
 20
65.73596570746303
 30
0.0
 11
124.6993720366796
 21
65.73596570746303
 31
0.0
 12
124.282705370013
 22
68.23596570746303
 32
0.0
 13
124.282705370013
 23
68.23596570746303
 33
0.0
  0
MTEXT
  5
357
330
351
100
AcDbEntity
  8
0
 62
     3
100
AcDbMText
 10
121.7827053700129
 20
64.73596570746304
 30
0.0
 40
3.0
 41
0.0
 71
     5
 72
     1
  1
\A1;7
 11
0.0000000000000001
 21
1.0
 31
0.0
1001
ACAD
1000
MTEXTBEGIN
1070
    73
1070
     1
1070
    44
1040
1.0
1070
    74
1070
     0
1000
MTEXTEND
  0
POINT
  5
358
330
351
100
AcDbEntity
  8
DEFPOINTS
 62
     0
100
AcDbPoint
 10
137.2726334089893
 20
61.23596570746304
 30
0.0
  0
POINT
  5
359
330
351
100
AcDbEntity
  8
DEFPOINTS
 62
     0
100
AcDbPoint
 10
137.2726334089893
 20
68.23596570746303
 30
0.0
  0
POINT
  5
35A
330
351
100
AcDbEntity
  8
DEFPOINTS
 62
     0
100
AcDbPoint
 10
124.282705370013
 20
68.23596570746303
 30
0.0
  0
ENDBLK
  5
35C
330
351
100
AcDbEntity
  8
0
100
AcDbBlockEnd
  0
BLOCK
  5
367
330
35D
100
AcDbEntity
  8
0
100
AcDbBlockBegin
  2
*D32
 70
     1
 10
0.0
 20
0.0
 30
0.0
  3
*D32
  1

  0
LINE
  5
35E
330
35D
100
AcDbEntity
  8
0
 62
   123
100
AcDbLine
 10
137.2726334089893
 20
69.23596570746304
 30
0.0
 11
137.2726334089893
 21
83.8643517813476
 31
0.0
  0
LINE
  5
35F
330
35D
100
AcDbEntity
  8
0
 62
   123
100
AcDbLine
 10
162.2726334089893
 20
70.23596570746303
 30
0.0
 11
162.2726334089893
 21
83.8643517813476
 31
0.0
  0
LINE
  5
360
330
35D
100
AcDbEntity
  8
0
 62
   123
100
AcDbLine
 10
139.7726334089893
 20
83.26435178134762
 30
0.0
 11
159.7726334089893
 21
83.26435178134762
 31
0.0
  0
SOLID
  5
361
330
35D
100
AcDbEntity
  8
0
 62
   123
100
AcDbTrace
 10
139.7726334089893
 20
83.68101844801428
 30
0.0
 11
139.7726334089893
 21
82.84768511468094
 31
0.0
 12
137.2726334089893
 22
83.26435178134762
 32
0.0
 13
137.2726334089893
 23
83.26435178134762
 33
0.0
  0
SOLID
  5
362
330
35D
100
AcDbEntity
  8
0
 62
   123
100
AcDbTrace
 10
159.7726334089893
 20
83.68101844801428
 30
0.0
 11
159.7726334089893
 21
82.84768511468094
 31
0.0
 12
162.2726334089893
 22
83.26435178134762
 32
0.0
 13
162.2726334089893
 23
83.26435178134762
 33
0.0
  0
MTEXT
  5
363
330
35D
100
AcDbEntity
  8
0
 62
     3
100
AcDbMText
 10
149.7726334089893
 20
85.76435178134762
 30
0.0
 40
3.0
 41
0.0
 71
     5
 72
     1
  1
\A1;25
1001
ACAD
1000
MTEXTBEGIN
1070
    73
1070
     1
1070
    44
1040
1.0
1070
    74
1070
     0
1000
MTEXTEND
  0
POINT
  5
364
330
35D
100
AcDbEntity
  8
DEFPOINTS
 62
     0
100
AcDbPoint
 10
137.2726334089893
 20
68.23596570746303
 30
0.0
  0
POINT
  5
365
330
35D
100
AcDbEntity
  8
DEFPOINTS
 62
     0
100
AcDbPoint
 10
162.2726334089893
 20
69.23596570746304
 30
0.0
  0
POINT
  5
366
330
35D
100
AcDbEntity
  8
DEFPOINTS
 62
     0
100
AcDbPoint
 10
162.2726334089893
 20
83.26435178134762
 30
0.0
  0
ENDBLK
  5
368
330
35D
100
AcDbEntity
  8
0
100
AcDbBlockEnd
  0
BLOCK
  5
373
330
369
100
AcDbEntity
  8
0
100
AcDbBlockBegin
  2
*D33
 70
     1
 10
0.0
 20
0.0
 30
0.0
  3
*D33
  1

  0
LINE
  5
36A
330
369
100
AcDbEntity
  8
0
 62
   123
100
AcDbLine
 10
169.2726334089893
 20
110.4442990407965
 30
0.0
 11
169.2726334089893
 21
118.0442990407965
 31
0.0
  0
LINE
  5
36B
330
369
100
AcDbEntity
  8
0
 62
   123
100
AcDbLine
 10
176.2726334089893
 20
104.8347030489922
 30
0.0
 11
176.2726334089893
 21
118.0442990407965
 31
0.0
  0
LINE
  5
36C
330
369
100
AcDbEntity
  8
0
 62
   123
100
AcDbLine
 10
171.7726334089893
 20
117.4442990407965
 30
0.0
 11
173.7726334089893
 21
117.4442990407965
 31
0.0
  0
SOLID
  5
36D
330
369
100
AcDbEntity
  8
0
 62
   123
100
AcDbTrace
 10
171.7726334089893
 20
117.8609657074632
 30
0.0
 11
171.7726334089893
 21
117.0276323741298
 31
0.0
 12
169.2726334089893
 22
117.4442990407965
 32
0.0
 13
169.2726334089893
 23
117.4442990407965
 33
0.0
  0
SOLID
  5
36E
330
369
100
AcDbEntity
  8
0
 62
   123
100
AcDbTrace
 10
173.7726334089893
 20
117.8609657074632
 30
0.0
 11
173.7726334089893
 21
117.0276323741298
 31
0.0
 12
176.2726334089893
 22
117.4442990407965
 32
0.0
 13
176.2726334089893
 23
117.4442990407965
 33
0.0
  0
MTEXT
  5
36F
330
369
100
AcDbEntity
  8
0
 62
     3
100
AcDbMText
 10
172.7726334089893
 20
119.9442990407965
 30
0.0
 40
3.0
 41
0.0
 71
     5
 72
     1
  1
\A1;7
1001
ACAD
1000
MTEXTBEGIN
1070
    73
1070
     1
1070
    44
1040
1.0
1070
    74
1070
     0
1000
MTEXTEND
  0
POINT
  5
370
330
369
100
AcDbEntity
  8
DEFPOINTS
 62
     0
100
AcDbPoint
 10
169.2726334089893
 20
109.4442990407965
 30
0.0
  0
POINT
  5
371
330
369
100
AcDbEntity
  8
DEFPOINTS
 62
     0
100
AcDbPoint
 10
176.2726334089893
 20
103.8347030489922
 30
0.0
  0
POINT
  5
372
330
369
100
AcDbEntity
  8
DEFPOINTS
 62
     0
100
AcDbPoint
 10
176.2726334089893
 20
117.4442990407965
 30
0.0
  0
ENDBLK
  5
374
330
369
100
AcDbEntity
  8
0
100
AcDbBlockEnd
  0
BLOCK
  5
37F
330
375
100
AcDbEntity
  8
0
100
AcDbBlockBegin
  2
*D34
 70
     1
 10
0.0
 20
0.0
 30
0.0
  3
*D34
  1

  0
LINE
  5
376
330
375
100
AcDbEntity
  8
0
 62
   123
100
AcDbLine
 10
169.2726334089893
 20
116.7458840244116
 30
0.0
 11
169.2726334089893
 21
130.2023833933845
 31
0.0
  0
LINE
  5
377
330
375
100
AcDbEntity
  8
0
 62
   123
100
AcDbLine
 10
254.2726334089893
 20
103.235965707463
 30
0.0
 11
254.2726334089893
 21
130.2023833933845
 31
0.0
  0
LINE
  5
378
330
375
100
AcDbEntity
  8
0
 62
   123
100
AcDbLine
 10
171.7726334089893
 20
129.6023833933845
 30
0.0
 11
251.7726334089893
 21
129.6023833933845
 31
0.0
  0
SOLID
  5
379
330
375
100
AcDbEntity
  8
0
 62
   123
100
AcDbTrace
 10
171.7726334089893
 20
130.0190500600512
 30
0.0
 11
171.7726334089893
 21
129.1857167267179
 31
0.0
 12
169.2726334089893
 22
129.6023833933845
 32
0.0
 13
169.2726334089893
 23
129.6023833933845
 33
0.0
  0
SOLID
  5
37A
330
375
100
AcDbEntity
  8
0
 62
   123
100
AcDbTrace
 10
251.7726334089893
 20
130.0190500600512
 30
0.0
 11
251.7726334089893
 21
129.1857167267179
 31
0.0
 12
254.2726334089893
 22
129.6023833933845
 32
0.0
 13
254.2726334089893
 23
129.6023833933845
 33
0.0
  0
MTEXT
  5
37B
330
375
100
AcDbEntity
  8
0
 62
     3
100
AcDbMText
 10
211.7726334089893
 20
132.1023833933845
 30
0.0
 40
3.0
 41
0.0
 71
     5
 72
     1
  1
\A1;85
1001
ACAD
1000
MTEXTBEGIN
1070
    73
1070
     1
1070
    44
1040
1.0
1070
    74
1070
     0
1000
MTEXTEND
  0
POINT
  5
37C
330
375
100
AcDbEntity
  8
DEFPOINTS
 62
     0
100
AcDbPoint
 10
169.2726334089893
 20
115.7458840244116
 30
0.0
  0
POINT
  5
37D
330
375
100
AcDbEntity
  8
DEFPOINTS
 62
     0
100
AcDbPoint
 10
254.2726334089893
 20
102.235965707463
 30
0.0
  0
POINT
  5
37E
330
375
100
AcDbEntity
  8
DEFPOINTS
 62
     0
100
AcDbPoint
 10
254.2726334089893
 20
129.6023833933845
 30
0.0
  0
ENDBLK
  5
380
330
375
100
AcDbEntity
  8
0
100
AcDbBlockEnd
  0
BLOCK
  5
38D
330
381
100
AcDbEntity
  8
0
100
AcDbBlockBegin
  2
*D35
 70
     1
 10
0.0
 20
0.0
 30
0.0
  3
*D35
  1

  0
LINE
  5
382
330
381
100
AcDbEntity
  8
0
 62
   123
100
AcDbLine
 10
144.8843026513532
 20
280.802192021868
 30
0.0
 11
144.8843026513532
 21
294.6712012409508
 31
0.0
  0
LINE
  5
383
330
381
100
AcDbEntity
  8
0
 62
   123
100
AcDbLine
 10
146.8843026513532
 20
284.3021920218689
 30
0.0
 11
146.8843026513532
 21
294.6712012409508
 31
0.0
  0
LINE
  5
384
330
381
100
AcDbEntity
  8
0
 62
   123
100
AcDbLine
 10
149.3843026513532
 20
294.0712012409507
 30
0.0
 11
151.8843026513532
 21
294.0712012409507
 31
0.0
  0
LINE
  5
385
330
381
100
AcDbEntity
  8
0
 62
   123
100
AcDbLine
 10
142.3843026513532
 20
294.0712012409507
 30
0.0
 11
135.8843026513532
 21
294.0712012409507
 31
0.0
  0
LINE
  5
386
330
381
100
AcDbEntity
  8
0
 62
   123
100
AcDbLine
 10
146.8843026513532
 20
294.0712012409507
 30
0.0
 11
144.8843026513532
 21
294.0712012409507
 31
0.0
  0
SOLID
  5
387
330
381
100
AcDbEntity
  8
0
 62
   123
100
AcDbTrace
 10
149.3843026513532
 20
294.4878679076174
 30
0.0
 11
149.3843026513532
 21
293.6545345742841
 31
0.0
 12
146.8843026513532
 22
294.0712012409507
 32
0.0
 13
146.8843026513532
 23
294.0712012409507
 33
0.0
  0
SOLID
  5
388
330
381
100
AcDbEntity
  8
0
 62
   123
100
AcDbTrace
 10
142.3843026513532
 20
294.4878679076174
 30
0.0
 11
142.3843026513532
 21
293.6545345742841
 31
0.0
 12
144.8843026513532
 22
294.0712012409507
 32
0.0
 13
144.8843026513532
 23
294.0712012409507
 33
0.0
  0
MTEXT
  5
389
330
381
100
AcDbEntity
  8
0
 62
     3
100
AcDbMText
 10
137.8843026513532
 20
296.5712012409507
 30
0.0
 40
3.0
 41
0.0
 71
     5
 72
     1
  1
\A1;2
1001
ACAD
1000
MTEXTBEGIN
1070
    73
1070
     1
1070
    44
1040
1.0
1070
    74
1070
     0
1000
MTEXTEND
  0
POINT
  5
38A
330
381
100
AcDbEntity
  8
DEFPOINTS
 62
     0
100
AcDbPoint
 10
144.8843026513532
 20
279.8021920218679
 30
0.0
  0
POINT
  5
38B
330
381
100
AcDbEntity
  8
DEFPOINTS
 62
     0
100
AcDbPoint
 10
146.8843026513532
 20
283.3021920218689
 30
0.0
  0
POINT
  5
38C
330
381
100
AcDbEntity
  8
DEFPOINTS
 62
     0
100
AcDbPoint
 10
146.8843026513532
 20
294.0712012409507
 30
0.0
  0
ENDBLK
  5
38E
330
381
100
AcDbEntity
  8
0
100
AcDbBlockEnd
  0
BLOCK
  5
399
330
38F
100
AcDbEntity
  8
0
100
AcDbBlockBegin
  2
*D36
 70
     1
 10
0.0
 20
0.0
 30
0.0
  3
*D36
  1

  0
LINE
  5
390
330
38F
100
AcDbEntity
  8
0
 62
   123
100
AcDbLine
 10
133.3843026513532
 20
247.4071920218675
 30
0.0
 11
133.3843026513532
 21
307.1460728651546
 31
0.0
  0
LINE
  5
391
330
38F
100
AcDbEntity
  8
0
 62
   123
100
AcDbLine
 10
146.8843026513532
 20
284.3021920218689
 30
0.0
 11
146.8843026513532
 21
307.1460728651546
 31
0.0
  0
LINE
  5
392
330
38F
100
AcDbEntity
  8
0
 62
   123
100
AcDbLine
 10
135.8843026513532
 20
306.5460728651546
 30
0.0
 11
144.3843026513532
 21
306.5460728651546
 31
0.0
  0
SOLID
  5
393
330
38F
100
AcDbEntity
  8
0
 62
   123
100
AcDbTrace
 10
135.8843026513532
 20
306.9627395318213
 30
0.0
 11
135.8843026513532
 21
306.1294061984879
 31
0.0
 12
133.3843026513532
 22
306.5460728651546
 32
0.0
 13
133.3843026513532
 23
306.5460728651546
 33
0.0
  0
SOLID
  5
394
330
38F
100
AcDbEntity
  8
0
 62
   123
100
AcDbTrace
 10
144.3843026513532
 20
306.9627395318213
 30
0.0
 11
144.3843026513532
 21
306.1294061984879
 31
0.0
 12
146.8843026513532
 22
306.5460728651546
 32
0.0
 13
146.8843026513532
 23
306.5460728651546
 33
0.0
  0
MTEXT
  5
395
330
38F
100
AcDbEntity
  8
0
 62
     3
100
AcDbMText
 10
140.6343026513532
 20
309.0460728651546
 30
0.0
 40
3.0
 41
0.0
 71
     5
 72
     1
  1
\A1;13.5
1001
ACAD
1000
MTEXTBEGIN
1070
    73
1070
     1
1070
    44
1040
1.0
1070
    74
1070
     0
1000
MTEXTEND
  0
POINT
  5
396
330
38F
100
AcDbEntity
  8
DEFPOINTS
 62
     0
100
AcDbPoint
 10
133.3843026513532
 20
246.4071920218675
 30
0.0
  0
POINT
  5
397
330
38F
100
AcDbEntity
  8
DEFPOINTS
 62
     0
100
AcDbPoint
 10
146.8843026513532
 20
283.3021920218689
 30
0.0
  0
POINT
  5
398
330
38F
100
AcDbEntity
  8
DEFPOINTS
 62
     0
100
AcDbPoint
 10
146.8843026513532
 20
306.5460728651546
 30
0.0
  0
ENDBLK
  5
39A
330
38F
100
AcDbEntity
  8
0
100
AcDbBlockEnd
  0
BLOCK
  5
3A5
330
39B
100
AcDbEntity
  8
0
100
AcDbBlockBegin
  2
*D37
 70
     1
 10
0.0
 20
0.0
 30
0.0
  3
*D37
  1

  0
LINE
  5
39C
330
39B
100
AcDbEntity
  8
0
 62
   123
100
AcDbLine
 10
12.69427009780338
 20
279.3021920218689
 30
0.0
 11
12.69427009780338
 21
296.6916341684815
 31
0.0
  0
LINE
  5
39D
330
39B
100
AcDbEntity
  8
0
 62
   123
100
AcDbLine
 10
92.69427009780338
 20
279.3021920218689
 30
0.0
 11
92.69427009780338
 21
296.6916341684815
 31
0.0
  0
LINE
  5
39E
330
39B
100
AcDbEntity
  8
0
 62
   123
100
AcDbLine
 10
15.19427009780338
 20
296.0916341684815
 30
0.0
 11
90.19427009780338
 21
296.0916341684815
 31
0.0
  0
SOLID
  5
39F
330
39B
100
AcDbEntity
  8
0
 62
   123
100
AcDbTrace
 10
15.19427009780338
 20
296.5083008351482
 30
0.0
 11
15.19427009780338
 21
295.6749675018148
 31
0.0
 12
12.69427009780338
 22
296.0916341684815
 32
0.0
 13
12.69427009780338
 23
296.0916341684815
 33
0.0
  0
SOLID
  5
3A0
330
39B
100
AcDbEntity
  8
0
 62
   123
100
AcDbTrace
 10
90.19427009780338
 20
296.5083008351482
 30
0.0
 11
90.19427009780338
 21
295.6749675018148
 31
0.0
 12
92.69427009780338
 22
296.0916341684815
 32
0.0
 13
92.69427009780338
 23
296.0916341684815
 33
0.0
  0
MTEXT
  5
3A1
330
39B
100
AcDbEntity
  8
0
 62
     3
100
AcDbMText
 10
53.45289785263958
 20
298.5916341684815
 30
0.0
 40
3.0
 41
0.0
 71
     5
 72
     1
  1
\A1;80
1001
ACAD
1000
MTEXTBEGIN
1070
    73
1070
     1
1070
    44
1040
1.0
1070
    74
1070
     0
1000
MTEXTEND
  0
POINT
  5
3A2
330
39B
100
AcDbEntity
  8
DEFPOINTS
 62
     0
100
AcDbPoint
 10
12.69427009780338
 20
278.3021920218688
 30
0.0
  0
POINT
  5
3A3
330
39B
100
AcDbEntity
  8
DEFPOINTS
 62
     0
100
AcDbPoint
 10
92.69427009780338
 20
278.3021920218688
 30
0.0
  0
POINT
  5
3A4
330
39B
100
AcDbEntity
  8
DEFPOINTS
 62
     0
100
AcDbPoint
 10
92.69427009780338
 20
296.0916341684815
 30
0.0
  0
ENDBLK
  5
3A6
330
39B
100
AcDbEntity
  8
0
100
AcDbBlockEnd
  0
BLOCK
  5
3B1
330
3A7
100
AcDbEntity
  8
0
100
AcDbBlockBegin
  2
*D38
 70
     1
 10
0.0
 20
0.0
 30
0.0
  3
*D38
  1

  0
LINE
  5
3A8
330
3A7
100
AcDbEntity
  8
0
 62
   123
100
AcDbLine
 10
146.8843026513532
 20
288.5105253552005
 30
0.0
 11
146.8843026513532
 21
294.6712012409495
 31
0.0
  0
LINE
  5
3A9
330
3A7
100
AcDbEntity
  8
0
 62
   123
100
AcDbLine
 10
153.8843026513532
 20
282.9009293633967
 30
0.0
 11
153.8843026513532
 21
294.6712012409495
 31
0.0
  0
LINE
  5
3AA
330
3A7
100
AcDbEntity
  8
0
 62
   123
100
AcDbLine
 10
149.3843026513532
 20
294.0712012409494
 30
0.0
 11
151.3843026513532
 21
294.0712012409494
 31
0.0
  0
SOLID
  5
3AB
330
3A7
100
AcDbEntity
  8
0
 62
   123
100
AcDbTrace
 10
149.3843026513532
 20
294.4878679076161
 30
0.0
 11
149.3843026513532
 21
293.6545345742827
 31
0.0
 12
146.8843026513532
 22
294.0712012409494
 32
0.0
 13
146.8843026513532
 23
294.0712012409494
 33
0.0
  0
SOLID
  5
3AC
330
3A7
100
AcDbEntity
  8
0
 62
   123
100
AcDbTrace
 10
151.3843026513532
 20
294.4878679076161
 30
0.0
 11
151.3843026513532
 21
293.6545345742827
 31
0.0
 12
153.8843026513532
 22
294.0712012409494
 32
0.0
 13
153.8843026513532
 23
294.0712012409494
 33
0.0
  0
MTEXT
  5
3AD
330
3A7
100
AcDbEntity
  8
0
 62
     3
100
AcDbMText
 10
150.3843026513532
 20
296.5712012409494
 30
0.0
 40
3.0
 41
0.0
 71
     5
 72
     1
  1
\A1;7
1001
ACAD
1000
MTEXTBEGIN
1070
    73
1070
     1
1070
    44
1040
1.0
1070
    74
1070
     0
1000
MTEXTEND
  0
POINT
  5
3AE
330
3A7
100
AcDbEntity
  8
DEFPOINTS
 62
     0
100
AcDbPoint
 10
146.8843026513532
 20
287.5105253552005
 30
0.0
  0
POINT
  5
3AF
330
3A7
100
AcDbEntity
  8
DEFPOINTS
 62
     0
100
AcDbPoint
 10
153.8843026513532
 20
281.9009293633967
 30
0.0
  0
POINT
  5
3B0
330
3A7
100
AcDbEntity
  8
DEFPOINTS
 62
     0
100
AcDbPoint
 10
153.8843026513532
 20
294.0712012409494
 30
0.0
  0
ENDBLK
  5
3B2
330
3A7
100
AcDbEntity
  8
0
100
AcDbBlockEnd
  0
BLOCK
  5
3BD
330
3B3
100
AcDbEntity
  8
0
100
AcDbBlockBegin
  2
*D39
 70
     1
 10
0.0
 20
0.0
 30
0.0
  3
*D39
  1

  0
LINE
  5
3B4
330
3B3
100
AcDbEntity
  8
0
 62
   123
100
AcDbLine
 10
146.8843026513532
 20
307.5460728651546
 30
0.0
 11
146.8843026513532
 21
307.1460728651546
 31
0.0
  0
LINE
  5
3B5
330
3B3
100
AcDbEntity
  8
0
 62
   123
100
AcDbLine
 10
231.8843026513532
 20
276.302192021868
 30
0.0
 11
231.8843026513532
 21
307.1460728651546
 31
0.0
  0
LINE
  5
3B6
330
3B3
100
AcDbEntity
  8
0
 62
   123
100
AcDbLine
 10
149.3843026513532
 20
306.5460728651546
 30
0.0
 11
229.3843026513532
 21
306.5460728651546
 31
0.0
  0
SOLID
  5
3B7
330
3B3
100
AcDbEntity
  8
0
 62
   123
100
AcDbTrace
 10
149.3843026513532
 20
306.9627395318213
 30
0.0
 11
149.3843026513532
 21
306.1294061984879
 31
0.0
 12
146.8843026513532
 22
306.5460728651546
 32
0.0
 13
146.8843026513532
 23
306.5460728651546
 33
0.0
  0
SOLID
  5
3B8
330
3B3
100
AcDbEntity
  8
0
 62
   123
100
AcDbTrace
 10
229.3843026513532
 20
306.9627395318213
 30
0.0
 11
229.3843026513532
 21
306.1294061984879
 31
0.0
 12
231.8843026513532
 22
306.5460728651546
 32
0.0
 13
231.8843026513532
 23
306.5460728651546
 33
0.0
  0
MTEXT
  5
3B9
330
3B3
100
AcDbEntity
  8
0
 62
     3
100
AcDbMText
 10
189.3843026513532
 20
309.0460728651546
 30
0.0
 40
3.0
 41
0.0
 71
     5
 72
     1
  1
\A1;85
1001
ACAD
1000
MTEXTBEGIN
1070
    73
1070
     1
1070
    44
1040
1.0
1070
    74
1070
     0
1000
MTEXTEND
  0
POINT
  5
3BA
330
3B3
100
AcDbEntity
  8
DEFPOINTS
 62
     0
100
AcDbPoint
 10
146.8843026513532
 20
306.5460728651546
 30
0.0
  0
POINT
  5
3BB
330
3B3
100
AcDbEntity
  8
DEFPOINTS
 62
     0
100
AcDbPoint
 10
231.8843026513532
 20
275.3021920218679
 30
0.0
  0
POINT
  5
3BC
330
3B3
100
AcDbEntity
  8
DEFPOINTS
 62
     0
100
AcDbPoint
 10
231.8843026513532
 20
306.5460728651546
 30
0.0
  0
ENDBLK
  5
3BE
330
3B3
100
AcDbEntity
  8
0
100
AcDbBlockEnd
  0
ENDSEC
  0
SECTION
  2
ENTITIES
  0
MTEXT
  5
9B
330
2
100
AcDbEntity
  8
DIM
100
AcDbMText
 10
204.0800998393424
 20
172.5516307910274
 30
0.0
 40
3.5
 41
0.0
 71
     5
 72
     1
  1
MOTOR LEAD WIRE 300mm
1001
ACAD
1000
MTEXTBEGIN
1070
    73
1070
     1
1070
    44
1040
1.0
1070
    74
1070
     0
1000
MTEXTEND
  0
MTEXT
  5
9D
330
2
100
AcDbEntity
  8
DIM
100
AcDbMText
 10
199.2525553967316
 20
164.1822502578329
 30
0.0
 40
3.5
 41
0.0
 71
     5
 72
     1
  1
UL Style 3271 , AWG20
1001
ACAD
1000
MTEXTBEGIN
1070
    73
1070
     1
1070
    44
1040
1.0
1070
    74
1070
     0
1000
MTEXTEND
  0
MTEXT
  5
9E
330
2
100
AcDbEntity
  8
DIM
100
AcDbMText
 10
220.9518070296326
 20
-13.43629978970148
 30
0.0
 40
3.5
 41
0.0
 71
     5
 72
     1
  1
UL Style 3271 , AWG20
1001
ACAD
1000
MTEXTBEGIN
1070
    73
1070
     1
1070
    44
1040
1.0
1070
    74
1070
     0
1000
MTEXTEND
  0
MTEXT
  5
9F
330
2
100
AcDbEntity
  8
DIM
100
AcDbMText
 10
225.211288261813
 20
-5.613212705908154
 30
0.0
 40
3.5
 41
0.0
 71
     5
 72
     1
  1
MOTOR LEAD WIRE 300mm
1001
ACAD
1000
MTEXTBEGIN
1070
    73
1070
     1
1070
    44
1040
1.0
1070
    74
1070
     0
1000
MTEXTEND
  0
MTEXT
  5
A0
330
2
100
AcDbEntity
  8
0
 62
     3
100
AcDbMText
 10
58.89695275423219
 20
132.4599607080535
 30
0.0
 40
3.0
 41
0.0
 71
     9
 72
     1
  1
4-%%c5.5 hole
1001
ACAD
1000
MTEXTBEGIN
1070
    73
1070
     1
1070
    44
1040
1.0
1070
    74
1070
     0
1000
MTEXTEND
  0
MTEXT
  5
A1
330
2
100
AcDbEntity
  8
0
 62
     3
100
AcDbMText
 10
72.38267642185383
 20
309.9095474206697
 30
0.0
 40
3.0
 41
0.0
 71
     9
 72
     1
  1
4-%%c5.5 hole
1001
ACAD
1000
MTEXTBEGIN
1070
    73
1070
     1
1070
    44
1040
1.0
1070
    74
1070
     0
1000
MTEXTEND
  0
DIMENSION
  5
A2
102
{ACAD_XDICTIONARY
360
A3
102
}
102
{ACAD_REACTORS
330
A4
102
}
330
2
100
AcDbEntity
  8
0
100
AcDbDimension
  2
*D27
 10
52.69427009778155
 20
290.4743152302376
 30
0.0
 11
65.17679777279671
 21
180.5482876796788
 31
0.0
 70
    34
  3
STANDARD
100
AcDb2LineAngularDimension
 13
69.262812592704
 23
203.3021920218406
 33
0.0
 14
52.69427009778155
 24
243.3021920218398
 34
0.0
 15
52.69427009778155
 25
196.1300688134438
 35
0.0
 16
61.40937868580937
 26
177.1043701214779
 36
0.0
1001
ACAD
1000
DSTYLE
1002
{
1070
   271
1070
     1
1070
   271
1070
     1
1002
}
  0
DIMENSION
  5
B5
102
{ACAD_XDICTIONARY
360
B6
102
}
102
{ACAD_REACTORS
330
B7
102
}
330
2
100
AcDbEntity
  8
0
100
AcDbDimension
  2
*D24
 10
38.36260412589036
 20
112.4080889158376
 30
0.0
 11
53.30026274843112
 21
-6.086563770543305
 31
0.0
 70
   162
  3
STANDARD
100
AcDb2LineAngularDimension
 13
54.93114662081279
 23
25.23596570744075
 33
0.0
 14
38.36260412589036
 24
65.23596570744075
 34
0.0
 15
38.36260412589036
 25
18.06384249904385
 35
0.0
 16
47.87404771379212
 26
-7.010621043322995
 36
0.0
1001
ACAD
1000
DSTYLE
1002
{
1070
   271
1070
     1
1070
   271
1070
     1
1002
}
  0
LEADER
  5
C6
330
2
100
AcDbEntity
  8
0
100
AcDbLeader
  3
STANDARD
 73
     0
 75
     1
 40
3.0
 41
26.65178571428571
 76
     3
 10
86.16235926698937
 20
279.2862107376345
 30
0.0
 10
75.88267642185383
 20
308.4934705744344
 30
0.0
 10
73.38267642185383
 20
308.4934705744344
 30
0.0
340
A1
213
0.0
223
-0.416076846235228
233
0.0
1001
ACAD
1000
DSTYLE
1002
{
1070
     5
1000

1070
   342
1005
0
1002
}
1000
LEANOF
1010
0.0
1020
-0.416076846235228
1030
0.0
  0
LEADER
  5
C7
330
2
100
AcDbEntity
  8
0
100
AcDbLeader
  3
STANDARD
 76
     2
 10
161.5215669844547
 20
188.5613086962125
 30
0.0
 10
166.158000900592
 20
169.0790381027068
 30
0.0
1001
ACAD
1000
DSTYLE
1002
{
1070
     5
1000

1070
   342
1005
0
1002
}
1000
LEANOF
1010
0.0
1020
0.0
1030
0.0
  0
LEADER
  5
C8
330
2
100
AcDbEntity
  8
0
100
AcDbLeader
  3
STANDARD
 76
     2
 10
183.9098977420908
 20
10.49508238180715
 30
0.0
 10
188.5463316582318
 20
-8.987188211698594
 30
0.0
1001
ACAD
1000
DSTYLE
1002
{
1070
     5
1000

1070
   342
1005
0
1002
}
1000
LEANOF
1010
0.0
1020
0.0
1030
0.0
  0
LEADER
  5
C9
330
2
100
AcDbEntity
  8
0
100
AcDbLeader
  3
STANDARD
 73
     0
 75
     1
 40
3.0
 41
26.65178571428571
 76
     3
 10
72.39826991296286
 20
101.9331350890247
 30
0.0
 10
62.39695275423219
 20
131.4599607080535
 30
0.0
 10
59.89695275423219
 20
131.4599607080535
 30
0.0
340
A0
1001
ACAD
1000
DSTYLE
1002
{
1070
     5
1000

1070
   342
1005
0
1002
}
1000
LEANOF
1010
0.0
1020
0.0
1030
0.0
  0
LINE
  5
CA
330
2
100
AcDbEntity
  8
0
100
AcDbLine
 10
247.2726334089893
 20
104.7359657074634
 30
0.0
 11
175.3726334089878
 21
104.7359657074616
 31
0.0
  0
DIMENSION
  5
CB
330
2
100
AcDbEntity
  8
0
100
AcDbDimension
  2
*D34
 10
254.2726334089893
 20
129.6023833933845
 30
0.0
 11
211.7726334089893
 21
129.6023833933845
 31
0.0
 70
   160
  3
STANDARD
100
AcDbAlignedDimension
 13
169.2726334089893
 23
115.7458840244116
 33
0.0
 14
254.2726334089893
 24
102.235965707463
 34
0.0
100
AcDbRotatedDimension
  0
LINE
  5
D8
330
2
100
AcDbEntity
  8
0
 62
   123
100
AcDbLine
 10
188.5463316582318
 20
-8.987188211698594
 30
0.0
 11
260.6328408618319
 21
-8.987188211698594
 31
0.0
  0
LINE
  5
D9
102
{ACAD_REACTORS
330
2A4
102
}
330
2
100
AcDbEntity
  8
0
100
AcDbLine
 10
247.2726334089893
 20
25.73596570746303
 30
0.0
 11
175.3726334089878
 21
25.73596570746303
 31
0.0
  0
LINE
  5
DA
330
2
100
AcDbEntity
  8
CEN
 48
0.6
100
AcDbLine
 10
262.9981867888127
 20
65.23596570746303
 30
0.0
 11
128.5763316920638
 21
65.23596570746303
 31
0.0
  0
LINE
  5
DD
330
2
100
AcDbEntity
  8
0
100
AcDbLine
 10
224.8843026513532
 20
282.8021920218688
 30
0.0
 11
152.9843026513517
 21
282.8021920218679
 31
0.0
  0
LINE
  5
DE
102
{ACAD_REACTORS
330
2B8
102
}
330
2
100
AcDbEntity
  8
0
100
AcDbLine
 10
224.8843026513532
 20
203.802192021868
 30
0.0
 11
152.9843026513517
 21
203.802192021868
 31
0.0
  0
LINE
  5
DF
330
2
100
AcDbEntity
  8
0
 62
   123
100
AcDbLine
 10
166.158000900592
 20
169.0790381027068
 30
0.0
 11
239.2046648058385
 21
169.0790381027068
 31
0.0
  0
LINE
  5
E0
330
2
100
AcDbEntity
  8
CEN
 48
0.6
100
AcDbLine
 10
239.1686043112204
 20
243.302192021868
 30
0.0
 11
129.2405088507148
 21
243.302192021868
 31
0.0
  0
DIMENSION
  5
E1
330
2
100
AcDbEntity
  8
0
100
AcDbDimension
  2
*D39
 10
231.8843026513532
 20
306.5460728651546
 30
0.0
 11
189.3843026513532
 21
306.5460728651546
 31
0.0
 70
   160
  3
STANDARD
100
AcDbAlignedDimension
 13
146.8843026513532
 23
306.5460728651546
 33
0.0
 14
231.8843026513532
 24
275.3021920218679
 34
0.0
100
AcDbRotatedDimension
  0
LINE
  5
EE
330
2
100
AcDbEntity
  8
0
 48
0.6
100
AcDbLine
 10
-1.637395874087815
 20
100.2359657074634
 30
0.0
 11
-1.637395874087815
 21
30.23596570746349
 31
0.0
  0
ARC
  5
EF
330
2
100
AcDbEntity
  8
0
 48
0.6
100
AcDbCircle
 10
38.32983426243299
 20
65.23596570746303
 30
0.0
 40
29.09279999999998
100
AcDbArc
 50
162.2801918472015
 51
197.7198081527984
  0
LINE
  5
F0
330
2
100
AcDbEntity
  8
0
 48
0.6
100
AcDbLine
 10
78.36260412591219
 20
100.2359657074634
 30
0.0
 11
78.36260412591219
 21
30.23596570746349
 31
0.0
  0
ARC
  5
F1
330
2
100
AcDbEntity
  8
0
 48
0.6
100
AcDbCircle
 10
38.32983426243299
 20
65.23596570746303
 30
0.0
 40
29.09279999999998
100
AcDbArc
 50
342.2801918472014
 51
17.71980815279839
  0
CIRCLE
  5
F2
330
2
100
AcDbEntity
  8
0
 48
0.6
100
AcDbCircle
 10
38.36260412591218
 20
65.23596570746303
 30
0.0
 40
13.0
  0
LINE
  5
F3
102
{ACAD_REACTORS
330
B7
102
}
330
2
100
AcDbEntity
  8
CEN
 48
0.6
100
AcDbLine
 10
54.93114662081279
 20
25.23596570744075
 30
0.0
 11
38.36260412589036
 21
65.23596570744075
 31
0.0
  0
LINE
  5
F4
102
{ACAD_REACTORS
330
F7
102
}
330
2
100
AcDbEntity
  8
0
100
AcDbLine
 10
167.2726334089893
 20
101.735965707463
 30
0.0
 11
167.2726334089893
 21
28.73596570746304
 31
0.0
  0
DIMENSION
  5
F5
102
{ACAD_XDICTIONARY
360
F6
102
}
102
{ACAD_REACTORS
330
F7
102
}
330
2
100
AcDbEntity
  8
0
100
AcDbDimension
  2
*D23
 10
102.6745501863806
 20
28.73596570746305
 30
0.0
 11
102.6745501863806
 21
65.23596570746303
 31
0.0
 70
   160
  1
\A1;{\f??|b0|i0|c0|p49;%%C73\H0.7x;\S+0^ -0.030;\H1.429x;(h7)}
  3
STANDARD
100
AcDbAlignedDimension
 13
167.2726334089893
 23
101.735965707463
 33
0.0
 14
167.2726334089893
 24
28.73596570746304
 34
0.0
 50
90.0
100
AcDbRotatedDimension
  0
DIMENSION
  5
104
102
{ACAD_XDICTIONARY
360
105
102
}
102
{ACAD_REACTORS
330
106
102
}
330
2
100
AcDbEntity
  8
0
100
AcDbDimension
  2
*D22
 10
115.2458015135416
 20
61.23596570746304
 30
0.0
 11
115.2458015135416
 21
65.23596570746306
 31
0.0
 70
   160
  1
\A1;%%c<>{\H0.7x;\S+0^ -0.015;}(h7)
  3
STANDARD
100
AcDbAlignedDimension
 13
162.2726334089893
 23
69.23596570746304
 33
0.0
 14
137.2726334089893
 24
61.23596570746304
 34
0.0
 50
90.0
100
AcDbRotatedDimension
  0
CIRCLE
  5
113
330
2
100
AcDbEntity
  8
0
 48
0.6
100
AcDbCircle
 10
38.36260412591218
 20
65.23596570746303
 30
0.0
 40
38.5
  0
CIRCLE
  5
114
330
2
100
AcDbEntity
  8
0
 48
0.6
100
AcDbCircle
 10
38.36260412591218
 20
65.23596570746303
 30
0.0
 40
37.00000000000005
  0
LINE
  5
115
330
2
100
AcDbEntity
  8
CEN
 48
0.6
100
AcDbLine
 10
38.36260412591218
 20
18.06384249906614
 30
0.0
 11
38.36260412591218
 21
112.4080889158599
 31
0.0
  0
LINE
  5
116
330
2
100
AcDbEntity
  8
CEN
 48
0.6
100
AcDbLine
 10
38.36260412591218
 20
18.06384249906614
 30
0.0
 11
38.36260412591218
 21
112.4080889158608
 31
0.0
  0
INSERT
  5
117
330
2
100
AcDbEntity
  8
0
100
AcDbBlockReference
  2
5
 10
38.36260412591218
 20
65.23596570746349
 30
0.0
  0
LINE
  5
135
330
2
100
AcDbEntity
  8
0
100
AcDbLine
 10
169.2726334089893
 20
105.235965707463
 30
0.0
 11
169.2726334089893
 21
25.23596570746303
 31
0.0
  0
LINE
  5
136
330
2
100
AcDbEntity
  8
0
100
AcDbLine
 10
175.3726334089878
 20
105.235965707463
 30
0.0
 11
175.3726334089878
 21
25.23596570746303
 31
0.0
  0
ARC
  5
137
330
2
100
AcDbEntity
  8
0
 48
0.6
100
AcDbCircle
 10
38.32983426243299
 20
65.23596570746303
 30
0.0
 40
31.73759999999999
100
AcDbArc
 50
206.3656725032168
 51
243.634327496789
  0
LINE
  5
138
330
2
100
AcDbEntity
  8
0
 48
0.6
100
AcDbLine
 10
3.362604125912184
 20
25.23596570746303
 30
0.0
 11
73.3626041259049
 21
25.23596570746303
 31
0.0
  0
ARC
  5
139
330
2
100
AcDbEntity
  8
0
 48
0.6
100
AcDbCircle
 10
3.362604125912184
 20
30.23596570746349
 30
0.0
 40
5.0
100
AcDbArc
 50
180.0
 51
270.0
  0
ARC
  5
13A
330
2
100
AcDbEntity
  8
0
 48
0.6
100
AcDbCircle
 10
12.26332571409147
 20
52.31589821771876
 30
0.0
 40
2.644799999999999
100
AcDbArc
 50
141.9486744806222
 51
206.3656725032168
  0
ARC
  5
13B
330
2
100
AcDbEntity
  8
0
 48
0.6
100
AcDbCircle
 10
8.097982966490235
 20
55.57623377637264
 30
0.0
 40
2.644799999999999
100
AcDbArc
 50
321.9486744806221
 51
17.71980815279839
  0
ARC
  5
13C
330
2
100
AcDbEntity
  8
0
100
AcDbCircle
 10
88.60771162043965
 20
39.5465183560027
 30
0.0
 40
39.15579199999999
100
AcDbArc
 50
201.4369589999971
 51
235.2486590000054
  0
ARC
  5
13D
330
2
100
AcDbEntity
  8
0
100
AcDbCircle
 10
88.60771162043965
 20
39.5465183560027
 30
0.0
 40
37.855792
100
AcDbArc
 50
235.2486590000054
 51
242.0987460000029
  0
ARC
  5
13E
330
2
100
AcDbEntity
  8
0
100
AcDbCircle
 10
66.35151762043824
 20
8.122042356003476
 30
0.0
 40
0.7499080000000001
100
AcDbArc
 50
265.1628950000044
 51
25.33442299999946
  0
ARC
  5
13F
330
2
100
AcDbEntity
  8
0
100
AcDbCircle
 10
72.13613462043941
 20
7.639577356002973
 30
0.0
 40
0.7499080000000001
100
AcDbArc
 50
92.01298199999559
 51
212.184510000001
  0
ARC
  5
140
330
2
100
AcDbEntity
  8
0
100
AcDbCircle
 10
70.8667836204404
 20
6.840704356002788
 30
0.0
 40
0.7499080000000001
100
AcDbArc
 50
272.0129819999954
 51
32.18451000000101
  0
LINE
  5
141
330
2
100
AcDbEntity
  8
0
 48
0.6
100
AcDbLine
 10
57.81479208947349
 20
25.23596570746303
 30
0.0
 11
52.07374186295055
 21
25.23596570746303
 31
0.0
  0
ARC
  5
142
330
2
100
AcDbEntity
  8
0
100
AcDbCircle
 10
88.60771162043965
 20
39.5465183560027
 30
0.0
 40
35.255792
100
AcDbArc
 50
203.947941
 51
227.7470409999976
  0
ARC
  5
143
330
2
100
AcDbEntity
  8
0
100
AcDbCircle
 10
88.60771162043965
 20
39.5465183560027
 30
0.0
 40
33.95579199999999
100
AcDbArc
 50
204.9259499999998
 51
236.3981230000006
  0
ARC
  5
144
330
2
100
AcDbEntity
  8
0
100
AcDbCircle
 10
88.60771162043965
 20
39.5465183560027
 30
0.0
 40
37.855792
100
AcDbArc
 50
202.2115912309427
 51
227.7470409999976
  0
ARC
  5
145
330
2
100
AcDbEntity
  8
0
100
AcDbCircle
 10
67.70709062043898
 20
8.763815356002851
 30
0.0
 40
0.7499080000000001
100
AcDbArc
 50
85.16289500000455
 51
205.3344229999993
  0
ARC
  5
146
330
2
100
AcDbEntity
  8
0
100
AcDbCircle
 10
88.60771162043965
 20
39.5465183560027
 30
0.0
 40
36.555792
100
AcDbArc
 50
227.7470409999976
 51
236.3176429999981
  0
ARC
  5
147
330
2
100
AcDbEntity
  8
0
100
AcDbCircle
 10
64.74129062044085
 20
12.7181803560029
 30
0.0
 40
0.7499080000000001
100
AcDbArc
 50
77.66127699999917
 51
197.832805000001
  0
ARC
  5
148
330
2
100
AcDbEntity
  8
0
100
AcDbCircle
 10
63.31353462043989
 20
12.25887635600293
 30
0.0
 40
0.7499080000000001
100
AcDbArc
 50
257.6612769999992
 51
17.83280500000109
  0
ARC
  5
149
330
2
100
AcDbEntity
  8
0
100
AcDbCircle
 10
88.60771162043965
 20
39.5465183560027
 30
0.0
 40
35.255792
100
AcDbArc
 50
236.3564240000014
 51
242.0987460000029
  0
ARC
  5
14A
330
2
100
AcDbEntity
  8
0
100
AcDbCircle
 10
68.39753462043882
 20
9.874770356002954
 30
0.0
 40
0.7499080000000001
100
AcDbArc
 50
265.1628950000044
 51
25.33442299999946
  0
ARC
  5
14B
330
2
100
AcDbEntity
  8
0
100
AcDbCircle
 10
69.75310662043921
 20
10.5165423560029
 30
0.0
 40
0.7499080000000001
100
AcDbArc
 50
85.16289500000455
 51
205.3344229999993
  0
ARC
  5
14C
330
2
100
AcDbEntity
  8
0
 48
0.6
100
AcDbCircle
 10
73.3626041259049
 20
30.23596570746349
 30
0.0
 40
5.0
100
AcDbArc
 50
270.0
 51
0.0
  0
ARC
  5
14D
330
2
100
AcDbEntity
  8
0
 48
0.6
100
AcDbCircle
 10
38.32983426243299
 20
65.23596570746303
 30
0.0
 40
31.73759999999999
100
AcDbArc
 50
296.3656725032108
 51
333.6343274967831
  0
ARC
  5
14E
330
2
100
AcDbEntity
  8
0
 48
0.6
100
AcDbCircle
 10
38.32983426243299
 20
65.23596570746303
 30
0.0
 40
29.09279999999998
100
AcDbArc
 50
252.2801918471949
 51
287.7198081528051
  0
ARC
  5
14F
330
2
100
AcDbEntity
  8
0
 48
0.6
100
AcDbCircle
 10
25.40976677268918
 20
39.16945715912788
 30
0.0
 40
2.644799999999999
100
AcDbArc
 50
243.634327496789
 51
308.0513255193868
  0
ARC
  5
150
330
2
100
AcDbEntity
  8
0
 48
0.6
100
AcDbCircle
 10
28.67010233133987
 20
35.00411441152846
 30
0.0
 40
2.644799999999999
100
AcDbArc
 50
72.28019184719491
 51
128.0513255193868
  0
ARC
  5
151
330
2
100
AcDbEntity
  8
0
 48
0.6
100
AcDbCircle
 10
51.24990175218044
 20
39.16945715912788
 30
0.0
 40
2.644799999999999
100
AcDbArc
 50
231.948674480613
 51
296.3656725032108
  0
ARC
  5
152
330
2
100
AcDbEntity
  8
0
 48
0.6
100
AcDbCircle
 10
47.98956619352248
 20
35.00411441152846
 30
0.0
 40
2.644799999999999
100
AcDbArc
 50
51.94867448061305
 51
107.719808152805
  0
ARC
  5
153
330
2
100
AcDbEntity
  8
0
 48
0.6
100
AcDbCircle
 10
64.3963428107636
 20
52.31589821771876
 30
0.0
 40
2.644799999999999
100
AcDbArc
 50
333.6343274967831
 51
38.05132551937779
  0
ARC
  5
154
330
2
100
AcDbEntity
  8
0
 48
0.6
100
AcDbCircle
 10
68.56168555837212
 20
55.57623377637264
 30
0.0
 40
2.644799999999999
100
AcDbArc
 50
162.2801918472015
 51
218.0513255193776
  0
LINE
  5
155
330
2
100
AcDbEntity
  8
0
100
AcDbLine
 10
176.2726334089893
 20
34.33722836593279
 30
0.0
 11
176.2726334089893
 21
26.63722836593388
 31
0.0
  0
ARC
  5
156
330
2
100
AcDbEntity
  8
0
100
AcDbCircle
 10
217.5753554089897
 20
24.64731970746333
 30
0.0
 40
36.555792
100
AcDbArc
 50
205.2470409999969
 51
213.8176429999978
  0
ARC
  5
157
330
2
100
AcDbEntity
  8
0
100
AcDbCircle
 10
217.5753554089897
 20
24.64731970746333
 30
0.0
 40
39.15579199999999
100
AcDbArc
 50
179.8702869999971
 51
212.7486590000019
  0
ARC
  5
158
330
2
100
AcDbEntity
  8
0
100
AcDbCircle
 10
217.5753554089897
 20
24.64731970746333
 30
0.0
 40
33.95579199999999
100
AcDbArc
 50
179.8504230000004
 51
213.8981229999992
  0
ARC
  5
159
330
2
100
AcDbEntity
  8
0
100
AcDbCircle
 10
186.48566840899
 20
4.206131707463555
 30
0.0
 40
0.7499080000000001
100
AcDbArc
 50
62.66289500000094
 51
182.8344229999968
  0
ARC
  5
15A
330
2
100
AcDbEntity
  8
0
100
AcDbCircle
 10
184.9876874089895
 20
4.131965707463677
 30
0.0
 40
0.7499080000000001
100
AcDbArc
 50
242.6628950000009
 51
2.834422999996808
  0
ARC
  5
15B
330
2
100
AcDbEntity
  8
0
100
AcDbCircle
 10
187.5486994089878
 20
4.968298707463418
 30
0.0
 40
0.7499080000000001
100
AcDbArc
 50
242.6628950000009
 51
2.834422999996808
  0
ARC
  5
15C
330
2
100
AcDbEntity
  8
0
100
AcDbCircle
 10
189.0466814089886
 20
5.042464707462841
 30
0.0
 40
0.7499080000000001
100
AcDbArc
 50
62.66289500000094
 51
182.8344229999968
  0
ARC
  5
15D
330
2
100
AcDbEntity
  8
0
100
AcDbCircle
 10
188.6689024089901
 20
1.220246707463502
 30
0.0
 40
0.7499080000000001
100
AcDbArc
 50
249.5129820000002
 51
9.684509999999278
  0
ARC
  5
15E
330
2
100
AcDbEntity
  8
0
100
AcDbCircle
 10
190.1473444089897
 20
1.472549707462803
 30
0.0
 40
0.7499080000000001
100
AcDbArc
 50
69.51298200000024
 51
189.6845099999992
  0
ARC
  5
15F
330
2
100
AcDbEntity
  8
0
100
AcDbCircle
 10
217.5753554089897
 20
24.64731970746333
 30
0.0
 40
35.255792
100
AcDbArc
 50
213.8564239999994
 51
219.5987459999966
  0
ARC
  5
160
330
2
100
AcDbEntity
  8
0
100
AcDbCircle
 10
217.5753554089897
 20
24.64731970746333
 30
0.0
 40
37.855792
100
AcDbArc
 50
212.7486590000019
 51
219.5987459999966
  0
ARC
  5
161
330
2
100
AcDbEntity
  8
0
100
AcDbCircle
 10
217.5753554089897
 20
24.64731970746333
 30
0.0
 40
37.855792
100
AcDbArc
 50
179.8658329999985
 51
205.2470409999969
  0
ARC
  5
162
330
2
100
AcDbEntity
  8
0
100
AcDbCircle
 10
217.5753554089897
 20
24.64731970746333
 30
0.0
 40
35.255792
100
AcDbArc
 50
179.8559380000023
 51
205.2470409999969
  0
ARC
  5
163
330
2
100
AcDbEntity
  8
0
100
AcDbCircle
 10
185.2588974089885
 20
8.994450707462874
 30
0.0
 40
0.7499080000000001
100
AcDbArc
 50
55.16127700000105
 51
175.3328050000016
  0
ARC
  5
164
330
2
100
AcDbEntity
  8
0
100
AcDbCircle
 10
183.7640544089881
 20
9.116487707462965
 30
0.0
 40
0.7499080000000001
100
AcDbArc
 50
235.1612770000011
 51
355.3328050000017
  0
LINE
  5
165
330
2
100
AcDbEntity
  8
0
100
AcDbLine
 10
185.7726334089893
 20
24.73596570746304
 30
0.0
 11
176.7726334089893
 21
24.73596570746304
 31
0.0
  0
LINE
  5
166
330
2
100
AcDbEntity
  8
0
100
AcDbLine
 10
169.2726334089893
 20
28.73596570746304
 30
0.0
 11
167.2726334089893
 21
28.73596570746304
 31
0.0
  0
ARC
  5
167
330
2
100
AcDbEntity
  8
0
100
AcDbCircle
 10
176.7726334089893
 20
25.23596570746303
 30
0.0
 40
0.5
100
AcDbArc
 50
180.0
 51
270.0
  0
LINE
  5
168
330
2
100
AcDbEntity
  8
0
100
AcDbLine
 10
176.2726334089893
 20
25.73596570746303
 30
0.0
 11
176.2726334089893
 21
25.23596570746303
 31
0.0
  0
LINE
  5
169
330
2
100
AcDbEntity
  8
0
100
AcDbLine
 10
175.3726334089878
 20
26.63722836593388
 30
0.0
 11
176.2726334089893
 21
26.63722836593388
 31
0.0
  0
LINE
  5
16A
330
2
100
AcDbEntity
  8
0
100
AcDbLine
 10
169.2726334089893
 20
25.23596570746303
 30
0.0
 11
175.3726334089878
 21
25.23596570746303
 31
0.0
  0
ARC
  5
16B
330
2
100
AcDbEntity
  8
0
100
AcDbCircle
 10
185.7726334089893
 20
25.23596570746303
 30
0.0
 40
0.5
100
AcDbArc
 50
270.0
 51
0.0
  0
LINE
  5
16C
330
2
100
AcDbEntity
  8
0
100
AcDbLine
 10
186.2726334089893
 20
25.73596570746303
 30
0.0
 11
186.2726334089893
 21
25.23596570746303
 31
0.0
  0
LINE
  5
16D
330
2
100
AcDbEntity
  8
0
100
AcDbLine
 10
175.3726334089878
 20
34.33722836593279
 30
0.0
 11
176.2726334089893
 21
34.33722836593279
 31
0.0
  0
LINE
  5
16E
330
2
100
AcDbEntity
  8
0
 48
0.6
100
AcDbLine
 10
92.69427009780338
 20
278.3021920218688
 30
0.0
 11
92.69427009780338
 21
208.3021920218689
 31
0.0
  0
ARC
  5
16F
330
2
100
AcDbEntity
  8
0
 48
0.6
100
AcDbCircle
 10
52.66150023432055
 20
243.302192021868
 30
0.0
 40
29.09279999999998
100
AcDbArc
 50
342.2801918472014
 51
17.71980815279839
  0
LINE
  5
170
102
{ACAD_REACTORS
330
173
102
}
330
2
100
AcDbEntity
  8
0
100
AcDbLine
 10
144.8843026513532
 20
279.8021920218679
 30
0.0
 11
144.8843026513532
 21
206.8021920218679
 31
0.0
  0
DIMENSION
  5
171
102
{ACAD_XDICTIONARY
360
172
102
}
102
{ACAD_REACTORS
330
173
102
}
330
2
100
AcDbEntity
  8
0
100
AcDbDimension
  2
*D26
 10
122.2993184520819
 20
279.802192021868
 30
0.0
 11
122.2993184520819
 21
244.5643936624096
 31
0.0
 70
   160
  1
\A1;{\f??|b0|i0|c0|p49;%%C}<>{\f??|b0|i0|c0|p49;\H0.7x;\S+0^ -0.030;\H1.429x;(h7)}
  3
STANDARD
100
AcDbAlignedDimension
 13
144.8843026513532
 23
206.8021920218679
 33
0.0
 14
144.8843026513532
 24
279.8021920218679
 34
0.0
 50
90.0
100
AcDbRotatedDimension
  0
LINE
  5
180
330
2
100
AcDbEntity
  8
0
 48
0.6
100
AcDbLine
 10
12.69427009780338
 20
278.3021920218688
 30
0.0
 11
12.69427009780338
 21
208.3021920218689
 31
0.0
  0
ARC
  5
181
330
2
100
AcDbEntity
  8
0
 48
0.6
100
AcDbCircle
 10
52.66150023432055
 20
243.302192021868
 30
0.0
 40
29.09279999999998
100
AcDbArc
 50
162.2801918472015
 51
197.7198081527984
  0
CIRCLE
  5
182
330
2
100
AcDbEntity
  8
0
 48
0.6
100
AcDbCircle
 10
52.69427009780338
 20
243.302192021868
 30
0.0
 40
13.0
  0
LINE
  5
183
102
{ACAD_REACTORS
330
A4
102
}
330
2
100
AcDbEntity
  8
CEN
 48
0.6
100
AcDbLine
 10
69.262812592704
 20
203.3021920218398
 30
0.0
 11
52.69427009778155
 21
243.3021920218398
 31
0.0
  0
INSERT
  5
184
330
2
100
AcDbEntity
  8
0
100
AcDbBlockReference
  2
5
 10
52.69427009780338
 20
243.3021920217888
 30
0.0
  0
CIRCLE
  5
185
330
2
100
AcDbEntity
  8
0
 48
0.6
100
AcDbCircle
 10
52.69427009780338
 20
243.302192021868
 30
0.0
 40
37.00000000000005
  0
CIRCLE
  5
186
330
2
100
AcDbEntity
  8
0
 48
0.6
100
AcDbCircle
 10
52.69427009780338
 20
243.302192021868
 30
0.0
 40
38.5
  0
LINE
  5
187
330
2
100
AcDbEntity
  8
CEN
 48
0.6
100
AcDbLine
 10
52.69427009780338
 20
196.130068813472
 30
0.0
 11
52.69427009780338
 21
290.4743152302648
 31
0.0
  0
LINE
  5
188
330
2
100
AcDbEntity
  8
CEN
 48
0.6
100
AcDbLine
 10
52.69427009780338
 20
196.130068813472
 30
0.0
 11
52.69427009780338
 21
290.4743152302657
 31
0.0
  0
LINE
  5
189
330
2
100
AcDbEntity
  8
0
100
AcDbLine
 10
146.8843026513532
 20
283.3021920218689
 30
0.0
 11
146.8843026513532
 21
203.302192021868
 31
0.0
  0
LINE
  5
18A
330
2
100
AcDbEntity
  8
0
100
AcDbLine
 10
152.9843026513517
 20
283.3021920218689
 30
0.0
 11
152.9843026513517
 21
203.302192021868
 31
0.0
  0
LINE
  5
18B
330
2
100
AcDbEntity
  8
0
 48
0.6
100
AcDbLine
 10
3.362604125912184
 20
105.235965707463
 30
0.0
 11
73.3626041259049
 21
105.235965707463
 31
0.0
  0
POLYLINE
  5
18C
330
2
100
AcDbEntity
  8
3
100
AcDb2dPolyline
 66
     1
 10
0.0
 20
0.0
 30
0.0
 70
     1
  0
VERTEX
  5
3EF
330
18C
100
AcDbEntity
  8
3
100
AcDbVertex
100
AcDb2dVertex
 10
31.41434071299227
 20
123.7089835988244
 30
0.0
  0
VERTEX
  5
3F0
330
18C
100
AcDbEntity
  8
3
100
AcDbVertex
100
AcDb2dVertex
 10
34.71434071299154
 20
123.7089835988244
 30
0.0
  0
VERTEX
  5
3F1
330
18C
100
AcDbEntity
  8
3
100
AcDbVertex
100
AcDb2dVertex
 10
34.71434071299154
 20
127.2089835988244
 30
0.0
  0
VERTEX
  5
3F2
330
18C
100
AcDbEntity
  8
3
100
AcDbVertex
100
AcDb2dVertex
 10
31.41434071299227
 20
127.2089835988244
 30
0.0
  0
SEQEND
  5
3F3
330
18C
100
AcDbEntity
  8
3
  0
LINE
  5
18E
102
{ACAD_REACTORS
330
192
102
}
330
2
100
AcDbEntity
  8
0
100
AcDbLine
 10
175.3726334089878
 20
103.8347030489922
 30
0.0
 11
176.2726334089893
 21
103.8347030489922
 31
0.0
  0
LINE
  5
18F
330
2
100
AcDbEntity
  8
0
100
AcDbLine
 10
169.2726334089893
 20
105.235965707463
 30
0.0
 11
175.3726334089878
 21
105.235965707463
 31
0.0
  0
DIMENSION
  5
190
102
{ACAD_XDICTIONARY
360
191
102
}
102
{ACAD_REACTORS
330
192
102
}
330
2
100
AcDbEntity
  8
0
100
AcDbDimension
  2
*D33
 10
176.2726334089893
 20
117.4442990407965
 30
0.0
 11
172.7726334089893
 21
117.4442990407965
 31
0.0
 70
   160
  3
STANDARD
100
AcDbAlignedDimension
 13
169.2726334089893
 23
109.4442990407965
 33
0.0
 14
176.2726334089893
 24
103.8347030489922
 34
0.0
100
AcDbRotatedDimension
  0
ARC
  5
19F
330
2
100
AcDbEntity
  8
0
 48
0.6
100
AcDbCircle
 10
38.32983426243299
 20
65.23596570746303
 30
0.0
 40
31.73759999999999
100
AcDbArc
 50
116.3656725032109
 51
153.634327496783
  0
ARC
  5
1A0
330
2
100
AcDbEntity
  8
0
 48
0.6
100
AcDbCircle
 10
12.26332571409147
 20
78.1560331972064
 30
0.0
 40
2.644799999999999
100
AcDbArc
 50
153.634327496783
 51
218.0513255193776
  0
ARC
  5
1A1
330
2
100
AcDbEntity
  8
0
 48
0.6
100
AcDbCircle
 10
8.097982966490235
 20
74.89569763855161
 30
0.0
 40
2.644799999999999
100
AcDbArc
 50
342.2801918472014
 51
38.05132551937779
  0
ARC
  5
1A2
330
2
100
AcDbEntity
  8
0
 48
0.6
100
AcDbCircle
 10
38.32983426243299
 20
65.23596570746303
 30
0.0
 40
31.73759999999999
100
AcDbArc
 50
26.36567250321681
 51
63.63432749678904
  0
ARC
  5
1A3
330
2
100
AcDbEntity
  8
0
 48
0.6
100
AcDbCircle
 10
64.3963428107636
 20
78.1560331972064
 30
0.0
 40
2.644799999999999
100
AcDbArc
 50
321.9486744806221
 51
26.36567250321681
  0
ARC
  5
1A4
330
2
100
AcDbEntity
  8
0
 48
0.6
100
AcDbCircle
 10
68.56168555837212
 20
74.89569763855161
 30
0.0
 40
2.644799999999999
100
AcDbArc
 50
141.9486744806222
 51
197.7198081527984
  0
ARC
  5
1A5
330
2
100
AcDbEntity
  8
0
 48
0.6
100
AcDbCircle
 10
51.24990175218044
 20
91.30247425579865
 30
0.0
 40
2.644799999999999
100
AcDbArc
 50
63.63432749678904
 51
128.0513255193868
  0
ARC
  5
1A6
330
2
100
AcDbEntity
  8
0
 48
0.6
100
AcDbCircle
 10
25.40976677268918
 20
91.30247425579865
 30
0.0
 40
2.644799999999999
100
AcDbArc
 50
51.94867448061305
 51
116.3656725032109
  0
ARC
  5
1A7
330
2
100
AcDbEntity
  8
0
 48
0.6
100
AcDbCircle
 10
38.32983426243299
 20
65.23596570746303
 30
0.0
 40
29.09279999999998
100
AcDbArc
 50
72.28019184719491
 51
107.719808152805
  0
ARC
  5
1A8
330
2
100
AcDbEntity
  8
0
 48
0.6
100
AcDbCircle
 10
28.67010233133987
 20
95.46781700339806
 30
0.0
 40
2.644799999999999
100
AcDbArc
 50
231.948674480613
 51
287.7198081528051
  0
ARC
  5
1A9
330
2
100
AcDbEntity
  8
0
 48
0.6
100
AcDbCircle
 10
47.98956619352248
 20
95.46781700339806
 30
0.0
 40
2.644799999999999
100
AcDbArc
 50
252.2801918471949
 51
308.0513255193868
  0
CIRCLE
  5
1AA
330
2
100
AcDbEntity
  8
0
 48
0.6
100
AcDbCircle
 10
38.36260412591218
 20
65.23596570746349
 30
0.0
 40
4.0
  0
LINE
  5
1AB
330
2
100
AcDbEntity
  8
0
100
AcDbLine
 10
35.71685281485406
 20
68.23596570746349
 30
0.0
 11
41.00835543697394
 21
68.23596570746349
 31
0.0
  0
LINE
  5
1AC
330
2
100
AcDbEntity
  8
CEN
 48
0.6
100
AcDbLine
 10
-5.714385599687375
 20
65.23596570746349
 30
0.0
 11
82.43959385151175
 21
65.23596570746349
 31
0.0
  0
LINE
  5
1AD
330
2
100
AcDbEntity
  8
CEN
 48
0.6
100
AcDbLine
 10
-5.714385599687375
 20
65.23596570746349
 30
0.0
 11
82.43959385150446
 21
65.23596570746349
 31
0.0
  0
LINE
  5
1AE
330
2
100
AcDbEntity
  8
0
100
AcDbLine
 10
169.2726334089893
 20
101.735965707463
 30
0.0
 11
167.2726334089893
 21
101.735965707463
 31
0.0
  0
LINE
  5
1AF
330
2
100
AcDbEntity
  8
0
100
AcDbLine
 10
175.3726334089878
 20
96.13470304899193
 30
0.0
 11
176.2726334089893
 21
96.13470304899193
 31
0.0
  0
LINE
  5
1B0
102
{ACAD_REACTORS
330
1B9
330
1C8
102
}
330
2
100
AcDbEntity
  8
0
100
AcDbLine
 10
137.2726334089893
 20
68.23596570746303
 30
0.0
 11
137.2726334089893
 21
61.23596570746304
 31
0.0
  0
LINE
  5
1B1
102
{ACAD_REACTORS
330
1C8
330
106
102
}
330
2
100
AcDbEntity
  8
CL
  6
BYBLOCK
 62
     0
100
AcDbLine
 10
167.2726334089893
 20
61.23596570746304
 30
0.0
 11
137.2726334089893
 21
61.23596570746304
 31
0.0
  0
LINE
  5
1B4
102
{ACAD_REACTORS
330
1B9
102
}
330
2
100
AcDbEntity
  8
CL
  6
BYBLOCK
 62
     0
100
AcDbLine
 10
167.2726334089893
 20
69.23596570746304
 30
0.0
 11
162.2726334089893
 21
69.23596570746304
 31
0.0
  0
LINE
  5
1B5
330
2
100
AcDbEntity
  8
CL
  6
BYBLOCK
 62
     0
100
AcDbLine
 10
162.2726334089893
 20
68.23596570746303
 30
0.0
 11
137.2726334089893
 21
68.23596570746303
 31
0.0
  0
LINE
  5
1B6
102
{ACAD_REACTORS
330
106
102
}
330
2
100
AcDbEntity
  8
0
100
AcDbLine
 10
162.2726334089893
 20
69.23596570746304
 30
0.0
 11
162.2726334089893
 21
68.23596570746303
 31
0.0
  0
DIMENSION
  5
1B7
102
{ACAD_XDICTIONARY
360
1B8
102
}
102
{ACAD_REACTORS
330
1B9
102
}
330
2
100
AcDbEntity
  8
0
100
AcDbDimension
  2
*D32
 10
162.2726334089893
 20
83.26435178134762
 30
0.0
 11
149.7726334089893
 21
83.26435178134762
 31
0.0
 70
   160
  3
STANDARD
100
AcDbAlignedDimension
 13
137.2726334089893
 23
68.23596570746303
 33
0.0
 14
162.2726334089893
 24
69.23596570746304
 34
0.0
100
AcDbRotatedDimension
  0
DIMENSION
  5
1C6
102
{ACAD_XDICTIONARY
360
1C7
102
}
102
{ACAD_REACTORS
330
1C8
102
}
330
2
100
AcDbEntity
  8
0
100
AcDbDimension
  2
*D31
 10
124.282705370013
 20
68.23596570746303
 30
0.0
 11
124.282705370013
 21
64.73596570746304
 31
0.0
 70
   160
  3
STANDARD
100
AcDbAlignedDimension
 13
137.2726334089893
 23
61.23596570746304
 33
0.0
 14
137.2726334089893
 24
68.23596570746303
 34
0.0
 50
90.0
100
AcDbRotatedDimension
  0
ARC
  5
1D5
102
{ACAD_REACTORS
330
1DA
102
}
330
2
100
AcDbEntity
  8
0
 48
0.6
100
AcDbCircle
 10
3.362604125912184
 20
100.2359657074634
 30
0.0
 40
5.0
100
AcDbArc
 50
90.0
 51
180.0
  0
ARC
  5
1D6
102
{ACAD_REACTORS
330
1DA
102
}
330
2
100
AcDbEntity
  8
0
 48
0.6
100
AcDbCircle
 10
73.3626041259049
 20
100.2359657074634
 30
0.0
 40
5.0
100
AcDbArc
 50
0.0
 51
90.0
  0
LINE
  5
1D7
330
2
100
AcDbEntity
  8
0
100
AcDbLine
 10
176.2726334089893
 20
96.13470304899193
 30
0.0
 11
176.2726334089893
 21
103.8347030489922
 31
0.0
  0
DIMENSION
  5
1D8
102
{ACAD_XDICTIONARY
360
1D9
102
}
102
{ACAD_REACTORS
330
1DA
102
}
330
2
100
AcDbEntity
  8
0
100
AcDbDimension
  2
*D30
 10
78.36260412591219
 20
122.4315340380767
 30
0.0
 11
39.12123188075202
 21
122.4315340380767
 31
0.0
 70
   160
  3
STANDARD
100
AcDbAlignedDimension
 13
-1.637395874087815
 23
100.2359657074634
 33
0.0
 14
78.36260412591219
 24
100.2359657074634
 34
0.0
100
AcDbRotatedDimension
  0
DIMENSION
  5
1E7
330
2
100
AcDbEntity
  8
0
100
AcDbDimension
  2
*D29
 10
169.2726334089893
 20
117.4442990407965
 30
0.0
 11
160.2726334089893
 21
117.4442990407965
 31
0.0
 70
   160
  3
STANDARD
100
AcDbAlignedDimension
 13
167.2726334089893
 23
101.735965707463
 33
0.0
 14
169.2726334089893
 24
105.235965707463
 34
0.0
100
AcDbRotatedDimension
  0
DIMENSION
  5
1F6
330
2
100
AcDbEntity
  8
0
100
AcDbDimension
  2
*D28
 10
169.2726334089893
 20
129.6023833933845
 30
0.0
 11
153.2726334089893
 21
129.6023833933845
 31
0.0
 70
   160
  3
STANDARD
100
AcDbAlignedDimension
 13
137.2726334089893
 23
69.23596570746304
 33
0.0
 14
169.2726334089893
 24
105.235965707463
 34
0.0
100
AcDbRotatedDimension
  0
ARC
  5
203
330
2
100
AcDbEntity
  8
0
 48
0.6
100
AcDbCircle
 10
52.66150023432055
 20
243.302192021868
 30
0.0
 40
31.73759999999999
100
AcDbArc
 50
296.3656725032108
 51
333.6343274967831
  0
ARC
  5
204
330
2
100
AcDbEntity
  8
0
100
AcDbCircle
 10
102.9393775923308
 20
217.6127446704076
 30
0.0
 40
35.255792
100
AcDbArc
 50
203.947941
 51
227.7470409999976
  0
ARC
  5
205
330
2
100
AcDbEntity
  8
0
100
AcDbCircle
 10
102.9393775923308
 20
217.6127446704076
 30
0.0
 40
37.855792
100
AcDbArc
 50
202.2115912309427
 51
227.7470409999976
  0
ARC
  5
206
330
2
100
AcDbEntity
  8
0
100
AcDbCircle
 10
102.9393775923308
 20
217.6127446704076
 30
0.0
 40
33.95579199999999
100
AcDbArc
 50
204.9259499999998
 51
236.3981230000006
  0
ARC
  5
207
330
2
100
AcDbEntity
  8
0
100
AcDbCircle
 10
102.9393775923308
 20
217.6127446704076
 30
0.0
 40
39.15579199999999
100
AcDbArc
 50
201.4369589999971
 51
235.2486590000054
  0
ARC
  5
208
330
2
100
AcDbEntity
  8
0
100
AcDbCircle
 10
102.9393775923308
 20
217.6127446704076
 30
0.0
 40
35.255792
100
AcDbArc
 50
236.3564240000014
 51
242.0987460000029
  0
ARC
  5
209
330
2
100
AcDbEntity
  8
0
100
AcDbCircle
 10
84.08477259233041
 20
188.5827686704073
 30
0.0
 40
0.7499080000000001
100
AcDbArc
 50
85.16289500000455
 51
205.3344229999993
  0
ARC
  5
20A
330
2
100
AcDbEntity
  8
0
100
AcDbCircle
 10
102.9393775923308
 20
217.6127446704076
 30
0.0
 40
37.855792
100
AcDbArc
 50
235.2486590000054
 51
242.0987460000029
  0
ARC
  5
20B
330
2
100
AcDbEntity
  8
0
100
AcDbCircle
 10
82.72920059233365
 20
187.9409966704074
 30
0.0
 40
0.7499080000000001
100
AcDbArc
 50
265.1628950000044
 51
25.33442299999946
  0
ARC
  5
20C
330
2
100
AcDbEntity
  8
0
100
AcDbCircle
 10
82.03875659233018
 20
186.8300416704073
 30
0.0
 40
0.7499080000000001
100
AcDbArc
 50
85.16289500000455
 51
205.3344229999993
  0
ARC
  5
20D
330
2
100
AcDbEntity
  8
0
100
AcDbCircle
 10
79.07295659233205
 20
190.7844066704074
 30
0.0
 40
0.7499080000000001
100
AcDbArc
 50
77.66127699999917
 51
197.832805000001
  0
ARC
  5
20E
330
2
100
AcDbEntity
  8
0
100
AcDbCircle
 10
77.6452005923311
 20
190.3251026704074
 30
0.0
 40
0.7499080000000001
100
AcDbArc
 50
257.6612769999992
 51
17.83280500000109
  0
ARC
  5
20F
330
2
100
AcDbEntity
  8
0
100
AcDbCircle
 10
80.68318359233307
 20
186.1882686704075
 30
0.0
 40
0.7499080000000001
100
AcDbArc
 50
265.1628950000044
 51
25.33442299999946
  0
ARC
  5
210
330
2
100
AcDbEntity
  8
0
100
AcDbCircle
 10
102.9393775923308
 20
217.6127446704076
 30
0.0
 40
36.555792
100
AcDbArc
 50
227.7470409999976
 51
236.3176429999981
  0
ARC
  5
211
330
2
100
AcDbEntity
  8
0
100
AcDbCircle
 10
86.4678005923306
 20
185.7058036704074
 30
0.0
 40
0.7499080000000001
100
AcDbArc
 50
92.01298199999559
 51
212.184510000001
  0
ARC
  5
212
330
2
100
AcDbEntity
  8
0
100
AcDbCircle
 10
85.19844959233159
 20
184.9069306704072
 30
0.0
 40
0.7499080000000001
100
AcDbArc
 50
272.0129819999954
 51
32.18451000000101
  0
LINE
  5
213
330
2
100
AcDbEntity
  8
0
 48
0.6
100
AcDbLine
 10
72.14645806136104
 20
203.3021920218688
 30
0.0
 11
66.40540783484175
 21
203.3021920218688
 31
0.0
  0
ARC
  5
214
330
2
100
AcDbEntity
  8
0
 48
0.6
100
AcDbCircle
 10
65.58156772407165
 20
217.2356834735324
 30
0.0
 40
2.644799999999999
100
AcDbArc
 50
231.948674480613
 51
296.3656725032108
  0
ARC
  5
215
330
2
100
AcDbEntity
  8
0
 48
0.6
100
AcDbCircle
 10
62.32123216541367
 20
213.0703407259334
 30
0.0
 40
2.644799999999999
100
AcDbArc
 50
51.94867448061305
 51
107.719808152805
  0
ARC
  5
216
330
2
100
AcDbEntity
  8
0
 48
0.6
100
AcDbCircle
 10
87.69427009780338
 20
208.3021920218689
 30
0.0
 40
5.0
100
AcDbArc
 50
270.0
 51
0.0
  0
ARC
  5
217
330
2
100
AcDbEntity
  8
0
 48
0.6
100
AcDbCircle
 10
82.89335153026332
 20
233.6424600907776
 30
0.0
 40
2.644799999999999
100
AcDbArc
 50
162.2801918472015
 51
218.0513255193776
  0
ARC
  5
218
330
2
100
AcDbEntity
  8
0
 48
0.6
100
AcDbCircle
 10
78.72800878266208
 20
230.3821245321237
 30
0.0
 40
2.644799999999999
100
AcDbArc
 50
333.6343274967831
 51
38.05132551937779
  0
ARC
  5
219
330
2
100
AcDbEntity
  8
0
100
AcDbCircle
 10
195.1870246513535
 20
202.7135460218687
 30
0.0
 40
33.95579199999999
100
AcDbArc
 50
179.8504230000004
 51
213.8981229999992
  0
ARC
  5
21A
330
2
100
AcDbEntity
  8
0
100
AcDbCircle
 10
195.1870246513535
 20
202.7135460218687
 30
0.0
 40
35.255792
100
AcDbArc
 50
179.8559380000023
 51
205.2470409999969
  0
ARC
  5
21B
330
2
100
AcDbEntity
  8
0
100
AcDbCircle
 10
195.1870246513535
 20
202.7135460218687
 30
0.0
 40
39.15579199999999
100
AcDbArc
 50
179.8702869999971
 51
212.7486590000019
  0
ARC
  5
21C
330
2
100
AcDbEntity
  8
0
100
AcDbCircle
 10
195.1870246513535
 20
202.7135460218687
 30
0.0
 40
37.855792
100
AcDbArc
 50
179.8658329999985
 51
205.2470409999969
  0
ARC
  5
21D
330
2
100
AcDbEntity
  8
0
100
AcDbCircle
 10
195.1870246513535
 20
202.7135460218687
 30
0.0
 40
37.855792
100
AcDbArc
 50
212.7486590000019
 51
219.5987459999966
  0
ARC
  5
21E
330
2
100
AcDbEntity
  8
0
100
AcDbCircle
 10
195.1870246513535
 20
202.7135460218687
 30
0.0
 40
35.255792
100
AcDbArc
 50
213.8564239999994
 51
219.5987459999966
  0
ARC
  5
21F
330
2
100
AcDbEntity
  8
0
100
AcDbCircle
 10
167.7590136513535
 20
179.5387760218677
 30
0.0
 40
0.7499080000000001
100
AcDbArc
 50
69.51298200000024
 51
189.6845099999992
  0
ARC
  5
220
330
2
100
AcDbEntity
  8
0
100
AcDbCircle
 10
166.2805716513539
 20
179.2864730218679
 30
0.0
 40
0.7499080000000001
100
AcDbArc
 50
249.5129820000002
 51
9.684509999999278
  0
ARC
  5
221
330
2
100
AcDbEntity
  8
0
100
AcDbCircle
 10
195.1870246513535
 20
202.7135460218687
 30
0.0
 40
36.555792
100
AcDbArc
 50
205.2470409999969
 51
213.8176429999978
  0
ARC
  5
222
330
2
100
AcDbEntity
  8
0
100
AcDbCircle
 10
166.6583506513525
 20
183.1086910218678
 30
0.0
 40
0.7499080000000001
100
AcDbArc
 50
62.66289500000094
 51
182.8344229999968
  0
ARC
  5
223
330
2
100
AcDbEntity
  8
0
100
AcDbCircle
 10
165.1603686513517
 20
183.0345250218688
 30
0.0
 40
0.7499080000000001
100
AcDbArc
 50
242.6628950000009
 51
2.834422999996808
  0
ARC
  5
224
330
2
100
AcDbEntity
  8
0
100
AcDbCircle
 10
162.5993566513534
 20
182.1981920218677
 30
0.0
 40
0.7499080000000001
100
AcDbArc
 50
242.6628950000009
 51
2.834422999996808
  0
ARC
  5
225
330
2
100
AcDbEntity
  8
0
100
AcDbCircle
 10
164.0973376513538
 20
182.2723580218685
 30
0.0
 40
0.7499080000000001
100
AcDbArc
 50
62.66289500000094
 51
182.8344229999968
  0
ARC
  5
226
330
2
100
AcDbEntity
  8
0
100
AcDbCircle
 10
161.375723651352
 20
187.1827140218679
 30
0.0
 40
0.7499080000000001
100
AcDbArc
 50
235.1612770000011
 51
355.3328050000017
  0
ARC
  5
227
330
2
100
AcDbEntity
  8
0
100
AcDbCircle
 10
162.8705666513524
 20
187.0606770218678
 30
0.0
 40
0.7499080000000001
100
AcDbArc
 50
55.16127700000105
 51
175.3328050000016
  0
LINE
  5
228
330
2
100
AcDbEntity
  8
0
100
AcDbLine
 10
153.8843026513532
 20
212.4034546803377
 30
0.0
 11
153.8843026513532
 21
204.7034546803397
 31
0.0
  0
LINE
  5
229
330
2
100
AcDbEntity
  8
0
100
AcDbLine
 10
163.3843026513532
 20
202.8021920218679
 30
0.0
 11
154.3843026513532
 21
202.8021920218679
 31
0.0
  0
LINE
  5
22A
330
2
100
AcDbEntity
  8
0
100
AcDbLine
 10
146.8843026513532
 20
203.302192021868
 30
0.0
 11
152.9843026513517
 21
203.302192021868
 31
0.0
  0
LINE
  5
22B
330
2
100
AcDbEntity
  8
0
100
AcDbLine
 10
152.9843026513517
 20
204.7034546803397
 30
0.0
 11
153.8843026513532
 21
204.7034546803397
 31
0.0
  0
LINE
  5
22C
330
2
100
AcDbEntity
  8
0
100
AcDbLine
 10
153.8843026513532
 20
203.802192021868
 30
0.0
 11
153.8843026513532
 21
203.302192021868
 31
0.0
  0
ARC
  5
22D
330
2
100
AcDbEntity
  8
0
100
AcDbCircle
 10
154.3843026513532
 20
203.302192021868
 30
0.0
 40
0.5
100
AcDbArc
 50
180.0
 51
270.0
  0
LINE
  5
22E
330
2
100
AcDbEntity
  8
0
100
AcDbLine
 10
163.8843026513532
 20
203.802192021868
 30
0.0
 11
163.8843026513532
 21
203.302192021868
 31
0.0
  0
ARC
  5
22F
330
2
100
AcDbEntity
  8
0
100
AcDbCircle
 10
163.3843026513532
 20
203.302192021868
 30
0.0
 40
0.5
100
AcDbArc
 50
270.0
 51
0.0
  0
LINE
  5
230
330
2
100
AcDbEntity
  8
0
100
AcDbLine
 10
152.9843026513517
 20
212.4034546803377
 30
0.0
 11
153.8843026513532
 21
212.4034546803377
 31
0.0
  0
LINE
  5
231
330
2
100
AcDbEntity
  8
0
100
AcDbLine
 10
146.8843026513532
 20
206.8021920218679
 30
0.0
 11
144.8843026513532
 21
206.8021920218679
 31
0.0
  0
ARC
  5
232
330
2
100
AcDbEntity
  8
0
 48
0.6
100
AcDbCircle
 10
52.66150023432055
 20
243.302192021868
 30
0.0
 40
31.73759999999999
100
AcDbArc
 50
206.3656725032168
 51
243.634327496789
  0
ARC
  5
233
330
2
100
AcDbEntity
  8
0
 48
0.6
100
AcDbCircle
 10
17.69427009780338
 20
208.3021920218689
 30
0.0
 40
5.0
100
AcDbArc
 50
180.0
 51
270.0
  0
ARC
  5
234
330
2
100
AcDbEntity
  8
0
 48
0.6
100
AcDbCircle
 10
22.42964893839234
 20
233.6424600907776
 30
0.0
 40
2.644799999999999
100
AcDbArc
 50
321.9486744806221
 51
17.71980815279839
  0
ARC
  5
235
330
2
100
AcDbEntity
  8
0
 48
0.6
100
AcDbCircle
 10
26.59499168598995
 20
230.3821245321237
 30
0.0
 40
2.644799999999999
100
AcDbArc
 50
141.9486744806222
 51
206.3656725032168
  0
ARC
  5
236
330
2
100
AcDbEntity
  8
0
 48
0.6
100
AcDbCircle
 10
39.74143274458038
 20
217.2356834735324
 30
0.0
 40
2.644799999999999
100
AcDbArc
 50
243.634327496789
 51
308.0513255193868
  0
ARC
  5
237
330
2
100
AcDbEntity
  8
0
 48
0.6
100
AcDbCircle
 10
43.00176830323107
 20
213.0703407259334
 30
0.0
 40
2.644799999999999
100
AcDbArc
 50
72.28019184719491
 51
128.0513255193868
  0
LINE
  5
238
330
2
100
AcDbEntity
  8
0
 48
0.6
100
AcDbLine
 10
17.69427009780338
 20
203.3021920218688
 30
0.0
 11
87.69427009780338
 21
203.3021920218688
 31
0.0
  0
ARC
  5
239
330
2
100
AcDbEntity
  8
0
 48
0.6
100
AcDbCircle
 10
52.66150023432055
 20
243.302192021868
 30
0.0
 40
29.09279999999998
100
AcDbArc
 50
252.2801918471949
 51
287.7198081528051
  0
LINE
  5
23A
330
2
100
AcDbEntity
  8
0
100
AcDbLine
 10
146.8843026513532
 20
283.3021920218689
 30
0.0
 11
152.9843026513517
 21
283.3021920218689
 31
0.0
  0
LINE
  5
23B
102
{ACAD_REACTORS
330
23E
102
}
330
2
100
AcDbEntity
  8
0
100
AcDbLine
 10
152.9843026513517
 20
281.9009293633976
 30
0.0
 11
153.8843026513532
 21
281.9009293633976
 31
0.0
  0
DIMENSION
  5
23C
102
{ACAD_XDICTIONARY
360
23D
102
}
102
{ACAD_REACTORS
330
23E
102
}
330
2
100
AcDbEntity
  8
0
100
AcDbDimension
  2
*D38
 10
153.8843026513532
 20
294.0712012409494
 30
0.0
 11
150.3843026513532
 21
294.0712012409494
 31
0.0
 70
   160
  3
STANDARD
100
AcDbAlignedDimension
 13
146.8843026513532
 23
287.5105253552005
 33
0.0
 14
153.8843026513532
 24
281.9009293633967
 34
0.0
100
AcDbRotatedDimension
  0
POLYLINE
  5
24B
330
2
100
AcDbEntity
  8
3
100
AcDb2dPolyline
 66
     1
 10
0.0
 20
0.0
 30
0.0
 70
     1
  0
VERTEX
  5
3F4
330
24B
100
AcDbEntity
  8
3
100
AcDbVertex
100
AcDb2dVertex
 10
46.13188682128384
 20
296.8463922316768
 30
0.0
  0
VERTEX
  5
3F5
330
24B
100
AcDbEntity
  8
3
100
AcDbVertex
100
AcDb2dVertex
 10
49.43188682128312
 20
296.8463922316768
 30
0.0
  0
VERTEX
  5
3F6
330
24B
100
AcDbEntity
  8
3
100
AcDbVertex
100
AcDb2dVertex
 10
49.43188682128312
 20
300.3463922316754
 30
0.0
  0
VERTEX
  5
3F7
330
24B
100
AcDbEntity
  8
3
100
AcDbVertex
100
AcDb2dVertex
 10
46.13188682128384
 20
300.3463922316754
 30
0.0
  0
SEQEND
  5
3F8
330
24B
100
AcDbEntity
  8
3
  0
LINE
  5
24C
330
2
100
AcDbEntity
  8
0
 48
0.6
100
AcDbLine
 10
17.69427009780338
 20
283.3021920218689
 30
0.0
 11
87.69427009780338
 21
283.3021920218689
 31
0.0
  0
ARC
  5
24D
330
2
100
AcDbEntity
  8
0
 48
0.6
100
AcDbCircle
 10
52.66150023432055
 20
243.302192021868
 30
0.0
 40
31.73759999999999
100
AcDbArc
 50
26.36567250321681
 51
63.63432749678904
  0
ARC
  5
24E
330
2
100
AcDbEntity
  8
0
 48
0.6
100
AcDbCircle
 10
65.58156772407165
 20
269.3687005702035
 30
0.0
 40
2.644799999999999
100
AcDbArc
 50
63.63432749678904
 51
128.0513255193868
  0
ARC
  5
24F
330
2
100
AcDbEntity
  8
0
 48
0.6
100
AcDbCircle
 10
62.32123216541367
 20
273.5340433178025
 30
0.0
 40
2.644799999999999
100
AcDbArc
 50
252.2801918471949
 51
308.0513255193868
  0
ARC
  5
250
330
2
100
AcDbEntity
  8
0
 48
0.6
100
AcDbCircle
 10
82.89335153026332
 20
252.9619239529565
 30
0.0
 40
2.644799999999999
100
AcDbArc
 50
141.9486744806222
 51
197.7198081527984
  0
ARC
  5
251
330
2
100
AcDbEntity
  8
0
 48
0.6
100
AcDbCircle
 10
78.72800878266208
 20
256.2222595116117
 30
0.0
 40
2.644799999999999
100
AcDbArc
 50
321.9486744806221
 51
26.36567250321681
  0
ARC
  5
252
330
2
100
AcDbEntity
  8
0
100
AcDbCircle
 10
139.927489562182
 20
272.8234229108875
 30
0.0
 40
26.81626566475105
100
AcDbArc
 50
269.9077265708258
 51
280.6520097392901
  0
ARC
  5
253
330
2
100
AcDbEntity
  8
0
100
AcDbCircle
 10
139.927489562182
 20
213.7809611328179
 30
0.0
 40
26.81626566478071
100
AcDbArc
 50
79.34799026071575
 51
90.09227342916824
  0
LINE
  5
254
330
2
100
AcDbEntity
  8
0
100
AcDbLine
 10
133.8843026513532
 20
246.9071920218675
 30
0.0
 11
144.8843026513532
 21
246.9071920218675
 31
0.0
  0
LINE
  5
255
330
2
100
AcDbEntity
  8
CEN
 48
0.6
100
AcDbLine
 10
131.0138265080386
 20
246.3966920218686
 30
0.0
 11
147.8843026513532
 21
246.3966920218686
 31
0.0
  0
LINE
  5
256
330
2
100
AcDbEntity
  8
0
100
AcDbLine
 10
133.8843026513532
 20
239.6971920218679
 30
0.0
 11
144.8843026513532
 21
239.6971920218679
 31
0.0
  0
LINE
  5
257
330
2
100
AcDbEntity
  8
CEN
 48
0.6
100
AcDbLine
 10
131.0138265080386
 20
240.2076920218678
 30
0.0
 11
147.8843026513532
 21
240.2076920218678
 31
0.0
  0
LINE
  5
258
330
2
100
AcDbEntity
  8
0
100
AcDbLine
 10
133.8843026513532
 20
246.9071920218675
 30
0.0
 11
133.3843026513532
 21
246.4071920218675
 31
0.0
  0
LINE
  5
259
330
2
100
AcDbEntity
  8
0
100
AcDbLine
 10
133.3843026513532
 20
246.0071920218679
 30
0.0
 11
139.8843026513532
 21
246.0071920218679
 31
0.0
  0
LINE
  5
25A
330
2
100
AcDbEntity
  8
0
100
AcDbLine
 10
133.3843026513532
 20
240.197192021868
 30
0.0
 11
133.8843026513532
 21
239.6971920218679
 31
0.0
  0
LINE
  5
25B
330
2
100
AcDbEntity
  8
0
100
AcDbLine
 10
133.3843026513532
 20
240.5971920218676
 30
0.0
 11
139.8843026513532
 21
240.5971920218676
 31
0.0
  0
LINE
  5
25C
330
2
100
AcDbEntity
  8
2
100
AcDbLine
 10
139.8843026513532
 20
244.0674914834885
 30
0.0
 11
133.8843026513532
 21
240.9396402187317
 31
0.0
  0
LINE
  5
25E
330
2
100
AcDbEntity
  8
2
100
AcDbLine
 10
139.8843026513532
 20
246.0071920218679
 30
0.0
 11
139.8843026513532
 21
240.5971920218676
 31
0.0
  0
LINE
  5
25F
330
2
100
AcDbEntity
  8
0
100
AcDbLine
 10
133.3843026513532
 20
246.4071920218675
 30
0.0
 11
133.3843026513532
 21
240.197192021868
 31
0.0
  0
LINE
  5
260
330
2
100
AcDbEntity
  8
2
100
AcDbLine
 10
133.8843026513532
 20
246.9071920218675
 30
0.0
 11
133.8843026513532
 21
239.6971920218679
 31
0.0
  0
LINE
  5
261
330
2
100
AcDbEntity
  8
2
100
AcDbLine
 10
139.4381996615738
 20
246.0071920218679
 30
0.0
 11
133.8843026513532
 21
243.201466079704
 31
0.0
  0
LINE
  5
262
330
2
100
AcDbEntity
  8
2
100
AcDbLine
 10
139.8843026513532
 20
245.2221920218676
 30
0.0
 11
133.8843026513532
 21
242.0467655413244
 31
0.0
  0
LINE
  5
263
330
2
100
AcDbEntity
  8
0
100
AcDbLine
 10
146.8843026513532
 20
246.1221920218686
 30
0.0
 11
146.8843026513532
 21
240.4821920218678
 31
0.0
  0
LINE
  5
264
330
2
100
AcDbEntity
  8
0
100
AcDbLine
 10
146.8843026513532
 20
246.1221920218686
 30
0.0
 11
146.8843026513532
 21
240.4821920218678
 31
0.0
  0
LINE
  5
265
330
2
100
AcDbEntity
  8
0
100
AcDbLine
 10
152.9843026513517
 20
274.2009293633969
 30
0.0
 11
153.8843026513532
 21
274.2009293633969
 31
0.0
  0
LINE
  5
266
330
2
100
AcDbEntity
  8
0
100
AcDbLine
 10
146.8843026513532
 20
279.8021920218679
 30
0.0
 11
144.8843026513532
 21
279.8021920218679
 31
0.0
  0
ARC
  5
267
330
2
100
AcDbEntity
  8
0
 48
0.6
100
AcDbCircle
 10
52.66150023432055
 20
243.302192021868
 30
0.0
 40
31.73759999999999
100
AcDbArc
 50
116.3656725032109
 51
153.634327496783
  0
ARC
  5
268
330
2
100
AcDbEntity
  8
0
 48
0.6
100
AcDbCircle
 10
26.59499168598995
 20
256.2222595116117
 30
0.0
 40
2.644799999999999
100
AcDbArc
 50
153.634327496783
 51
218.0513255193776
  0
ARC
  5
269
330
2
100
AcDbEntity
  8
0
 48
0.6
100
AcDbCircle
 10
22.42964893839234
 20
252.9619239529565
 30
0.0
 40
2.644799999999999
100
AcDbArc
 50
342.2801918472014
 51
38.05132551937779
  0
ARC
  5
26A
330
2
100
AcDbEntity
  8
0
 48
0.6
100
AcDbCircle
 10
39.74143274458038
 20
269.3687005702035
 30
0.0
 40
2.644799999999999
100
AcDbArc
 50
51.94867448061305
 51
116.3656725032109
  0
ARC
  5
26B
330
2
100
AcDbEntity
  8
0
 48
0.6
100
AcDbCircle
 10
43.00176830323107
 20
273.5340433178025
 30
0.0
 40
2.644799999999999
100
AcDbArc
 50
231.948674480613
 51
287.7198081528051
  0
CIRCLE
  5
26C
330
2
100
AcDbEntity
  8
0
 48
0.6
100
AcDbCircle
 10
52.69427009780338
 20
243.3021920218688
 30
0.0
 40
2.460898870766981
  0
ARC
  5
26D
330
2
100
AcDbEntity
  8
0
 48
0.6
100
AcDbCircle
 10
52.66150023432055
 20
243.302192021868
 30
0.0
 40
29.09279999999998
100
AcDbArc
 50
72.28019184719491
 51
107.719808152805
  0
CIRCLE
  5
26E
330
2
100
AcDbEntity
  8
0
 48
0.6
100
AcDbCircle
 10
52.69427009780338
 20
243.3021920218688
 30
0.0
 40
3.604999999999998
  0
LINE
  5
26F
330
2
100
AcDbEntity
  8
CEN
 48
0.6
100
AcDbLine
 10
8.617280372211098
 20
243.3021920218688
 30
0.0
 11
96.77125982340294
 21
243.3021920218688
 31
0.0
  0
LINE
  5
270
330
2
100
AcDbEntity
  8
CEN
 48
0.6
100
AcDbLine
 10
8.617280372211098
 20
243.3021920218688
 30
0.0
 11
96.77125982340294
 21
243.3021920218688
 31
0.0
  0
ARC
  5
271
102
{ACAD_REACTORS
330
276
102
}
330
2
100
AcDbEntity
  8
0
 48
0.6
100
AcDbCircle
 10
17.69427009780338
 20
278.3021920218688
 30
0.0
 40
5.0
100
AcDbArc
 50
90.0
 51
180.0
  0
ARC
  5
272
102
{ACAD_REACTORS
330
276
102
}
330
2
100
AcDbEntity
  8
0
 48
0.6
100
AcDbCircle
 10
87.69427009780338
 20
278.3021920218688
 30
0.0
 40
5.0
100
AcDbArc
 50
0.0
 51
90.0
  0
LINE
  5
273
330
2
100
AcDbEntity
  8
0
100
AcDbLine
 10
153.8843026513532
 20
274.2009293633969
 30
0.0
 11
153.8843026513532
 21
281.9009293633976
 31
0.0
  0
DIMENSION
  5
274
102
{ACAD_XDICTIONARY
360
275
102
}
102
{ACAD_REACTORS
330
276
102
}
330
2
100
AcDbEntity
  8
0
100
AcDbDimension
  2
*D37
 10
92.69427009780338
 20
296.0916341684815
 30
0.0
 11
53.45289785263958
 21
296.0916341684815
 31
0.0
 70
   160
  3
STANDARD
100
AcDbAlignedDimension
 13
12.69427009780338
 23
278.3021920218688
 33
0.0
 14
92.69427009780338
 24
278.3021920218688
 34
0.0
100
AcDbRotatedDimension
  0
DIMENSION
  5
283
330
2
100
AcDbEntity
  8
0
100
AcDbDimension
  2
*D36
 10
146.8843026513532
 20
306.5460728651546
 30
0.0
 11
140.6343026513532
 21
306.5460728651546
 31
0.0
 70
   160
  3
STANDARD
100
AcDbAlignedDimension
 13
133.3843026513532
 23
246.4071920218675
 33
0.0
 14
146.8843026513532
 24
283.3021920218689
 34
0.0
100
AcDbRotatedDimension
  0
DIMENSION
  5
290
330
2
100
AcDbEntity
  8
0
100
AcDbDimension
  2
*D35
 10
146.8843026513532
 20
294.0712012409507
 30
0.0
 11
137.8843026513532
 21
294.0712012409507
 31
0.0
 70
   160
  3
STANDARD
100
AcDbAlignedDimension
 13
144.8843026513532
 23
279.8021920218679
 33
0.0
 14
146.8843026513532
 24
283.3021920218689
 34
0.0
100
AcDbRotatedDimension
  0
LINE
  5
29F
102
{ACAD_REACTORS
330
2A4
102
}
330
2
100
AcDbEntity
  8
0
100
AcDbLine
 10
247.2726334089893
 20
25.73596570746303
 30
0.0
 11
247.2726334089893
 21
104.7359657074634
 31
0.0
  0
LINE
  5
2A0
330
2
100
AcDbEntity
  8
0
100
AcDbLine
 10
253.2726334089893
 20
103.235965707463
 30
0.0
 11
253.2726334089893
 21
27.23596570746304
 31
0.0
  0
LINE
  5
2A1
330
2
100
AcDbEntity
  8
0
100
AcDbLine
 10
254.2726334089893
 20
102.235965707463
 30
0.0
 11
254.2726334089893
 21
28.23596570746303
 31
0.0
  0
DIMENSION
  5
2A2
102
{ACAD_XDICTIONARY
360
2A3
102
}
102
{ACAD_REACTORS
330
2A4
102
}
330
2
100
AcDbEntity
  8
0
100
AcDbDimension
  2
*D21
 10
271.5931913841304
 20
25.73596570746303
 30
0.0
 11
271.5931913841304
 21
65.23596570746349
 31
0.0
 70
   160
  1
%%C<>
  3
STANDARD
100
AcDbAlignedDimension
 13
247.2726334089893
 23
104.7359657074634
 33
0.0
 14
247.2726334089893
 24
25.73596570746303
 34
0.0
 50
90.0
100
AcDbRotatedDimension
  0
LINE
  5
2B1
330
2
100
AcDbEntity
  8
0
100
AcDbLine
 10
253.2726334089893
 20
27.23596570746304
 30
0.0
 11
247.2726334089893
 21
27.23596570746304
 31
0.0
  0
LINE
  5
2B2
330
2
100
AcDbEntity
  8
0
100
AcDbLine
 10
254.2726334089893
 20
28.23596570746303
 30
0.0
 11
253.2726334089893
 21
27.23596570746304
 31
0.0
  0
LINE
  5
2B3
102
{ACAD_REACTORS
330
2B8
102
}
330
2
100
AcDbEntity
  8
0
100
AcDbLine
 10
224.8843026513532
 20
203.802192021868
 30
0.0
 11
224.8843026513532
 21
282.8021920218688
 31
0.0
  0
LINE
  5
2B4
330
2
100
AcDbEntity
  8
0
100
AcDbLine
 10
230.8843026513532
 20
281.3021920218679
 30
0.0
 11
230.8843026513532
 21
205.302192021868
 31
0.0
  0
LINE
  5
2B5
330
2
100
AcDbEntity
  8
0
100
AcDbLine
 10
231.8843026513532
 20
280.302192021868
 30
0.0
 11
231.8843026513532
 21
206.3021920218679
 31
0.0
  0
DIMENSION
  5
2B6
102
{ACAD_XDICTIONARY
360
2B7
102
}
102
{ACAD_REACTORS
330
2B8
102
}
330
2
100
AcDbEntity
  8
0
100
AcDbDimension
  2
*D25
 10
252.4311567873301
 20
203.802192021868
 30
0.0
 11
252.4311567873301
 21
243.302192021868
 31
0.0
 70
   160
  1
%%C<>
  3
STANDARD
100
AcDbAlignedDimension
 13
224.8843026513532
 23
282.8021920218688
 33
0.0
 14
224.8843026513532
 24
203.802192021868
 34
0.0
 50
90.0
100
AcDbRotatedDimension
  0
LINE
  5
2C5
330
2
100
AcDbEntity
  8
0
100
AcDbLine
 10
253.2726334089893
 20
103.235965707463
 30
0.0
 11
247.2726334089893
 21
103.235965707463
 31
0.0
  0
LINE
  5
2C6
330
2
100
AcDbEntity
  8
0
100
AcDbLine
 10
254.2726334089893
 20
102.235965707463
 30
0.0
 11
253.2726334089893
 21
103.235965707463
 31
0.0
  0
LINE
  5
2C7
330
2
100
AcDbEntity
  8
0
100
AcDbLine
 10
231.8843026513532
 20
206.3021920218679
 30
0.0
 11
230.8843026513532
 21
205.302192021868
 31
0.0
  0
LINE
  5
2C8
330
2
100
AcDbEntity
  8
0
100
AcDbLine
 10
230.8843026513532
 20
205.302192021868
 30
0.0
 11
224.8843026513532
 21
205.302192021868
 31
0.0
  0
LINE
  5
2C9
330
2
100
AcDbEntity
  8
0
100
AcDbLine
 10
231.8843026513532
 20
280.302192021868
 30
0.0
 11
230.8843026513532
 21
281.3021920218679
 31
0.0
  0
LINE
  5
2CA
330
2
100
AcDbEntity
  8
0
100
AcDbLine
 10
230.8843026513532
 20
281.3021920218679
 30
0.0
 11
224.8843026513532
 21
281.3021920218679
 31
0.0
  0
ENDSEC
  0
SECTION
  2
OBJECTS
  0
DICTIONARY
  5
8
330
0
100
AcDbDictionary
  3
ACAD_GROUP
350
97
  3
ACAD_LAYOUT
350
C
  3
ACAD_MLINESTYLE
350
98
  3
ACAD_PLOTSETTINGS
350
99
1001
ACAD
1000
TREAT_AS_HARD
1070
     0
  0
DICTIONARY
  5
13
330
12
100
AcDbDictionary
  3
ACAD_LAYERFILTERS
350
14
  3
ACAD_LAYERSTATES
350
87
1001
ACAD
1000
TREAT_AS_HARD
1070
     1
  0
DICTIONARY
  5
3
330
2
100
AcDbDictionary
  3
ACAD_LAYOUTSELFREF
350
3D6
1001
ACAD
1000
TREAT_AS_HARD
1070
     1
  0
DICTIONARY
  5
E
330
D
100
AcDbDictionary
  3
ACAD_LAYOUTSELFREF
350
3D7
1001
ACAD
1000
TREAT_AS_HARD
1070
     1
  0
DICTIONARY
  5
11D
330
11C
100
AcDbDictionary
  3
ACAD_DIMASSOC
350
11E
1001
ACAD
1000
TREAT_AS_HARD
1070
     1
  0
DICTIONARY
  5
A3
330
A2
100
AcDbDictionary
  3
ACAD_DIMASSOC
350
A4
1001
ACAD
1000
TREAT_AS_HARD
1070
     1
  0
DICTIONARY
  5
B6
330
B5
100
AcDbDictionary
  3
ACAD_DIMASSOC
350
B7
1001
ACAD
1000
TREAT_AS_HARD
1070
     1
  0
DICTIONARY
  5
F6
330
F5
100
AcDbDictionary
  3
ACAD_DIMASSOC
350
F7
1001
ACAD
1000
TREAT_AS_HARD
1070
     1
  0
DICTIONARY
  5
105
330
104
100
AcDbDictionary
  3
ACAD_DIMASSOC
350
106
1001
ACAD
1000
TREAT_AS_HARD
1070
     1
  0
DICTIONARY
  5
172
330
171
100
AcDbDictionary
  3
ACAD_DIMASSOC
350
173
1001
ACAD
1000
TREAT_AS_HARD
1070
     1
  0
DICTIONARY
  5
191
330
190
100
AcDbDictionary
  3
ACAD_DIMASSOC
350
192
1001
ACAD
1000
TREAT_AS_HARD
1070
     1
  0
DICTIONARY
  5
1B8
330
1B7
100
AcDbDictionary
  3
ACAD_DIMASSOC
350
1B9
1001
ACAD
1000
TREAT_AS_HARD
1070
     1
  0
DICTIONARY
  5
1C7
330
1C6
100
AcDbDictionary
  3
ACAD_DIMASSOC
350
1C8
1001
ACAD
1000
TREAT_AS_HARD
1070
     1
  0
DICTIONARY
  5
1D9
330
1D8
100
AcDbDictionary
  3
ACAD_DIMASSOC
350
1DA
1001
ACAD
1000
TREAT_AS_HARD
1070
     1
  0
DICTIONARY
  5
23D
330
23C
100
AcDbDictionary
  3
ACAD_DIMASSOC
350
23E
1001
ACAD
1000
TREAT_AS_HARD
1070
     1
  0
DICTIONARY
  5
275
330
274
100
AcDbDictionary
  3
ACAD_DIMASSOC
350
276
1001
ACAD
1000
TREAT_AS_HARD
1070
     1
  0
DICTIONARY
  5
2A3
330
2A2
100
AcDbDictionary
  3
ACAD_DIMASSOC
350
2A4
1001
ACAD
1000
TREAT_AS_HARD
1070
     1
  0
DICTIONARY
  5
2B7
330
2B6
100
AcDbDictionary
  3
ACAD_DIMASSOC
350
2B8
1001
ACAD
1000
TREAT_AS_HARD
1070
     1
  0
DICTIONARY
  5
97
102
{ACAD_REACTORS
330
8
102
}
330
8
100
AcDbDictionary
1001
ACAD
1000
TREAT_AS_HARD
1070
     0
  0
DICTIONARY
  5
C
102
{ACAD_REACTORS
330
8
102
}
330
8
100
AcDbDictionary
1001
ACAD
1000
TREAT_AS_HARD
1070
     0
  0
DICTIONARY
  5
98
102
{ACAD_REACTORS
330
8
102
}
330
8
100
AcDbDictionary
  3
STANDARD
350
9A
1001
ACAD
1000
TREAT_AS_HARD
1070
     0
  0
DICTIONARY
  5
99
102
{ACAD_REACTORS
330
8
102
}
330
8
100
AcDbDictionary
1001
ACAD
1000
TREAT_AS_HARD
1070
     0
  0
DICTIONARY
  5
14
102
{ACAD_REACTORS
330
13
102
}
330
13
100
AcDbDictionary
  3
$LAYERS
350
15
  3
-_UND_0
350
16
  3
-PEGC
350
17
  3
101
350
18
  3
102
350
19
  3
1DUC
350
1A
  3
1EQ
350
1B
  3
1TUB
350
1C
  3
2
350
1D
  3
2000
350
1E
  3
50
350
1F
  3
58J
350
20
  3
65
350
21
  3
AA
350
22
  3
ACABADOS
350
23
  3
AGUA_Y_DREN
350
24
  3
AIRE
350
25
  3
ALLE_AUS
350
26
  3
ALLES_MIT_S
350
27
  3
AMARILLO
350
28
  3
APAGADOS
350
29
  3
ARR
350
2A
  3
BA
350
2B
  3
BACKS
350
2C
  3
BASE
350
2D
  3
BLOQ_INUTIL
350
2E
  3
CADKON
350
2F
  3
CARPINTERIA
350
30
  3
CERRADOS
350
31
  3
COL
350
32
  3
COLOR
350
33
  3
COLOR_250
350
34
  3
COLORES
350
35
  3
CONGELADOS
350
36
  3
CONJUNTO
350
37
  3
D1
350
38
  3
DA_
350
39
  3
DET-
350
3A
  3
DOR-H
350
3B
  3
EJES
350
3C
  3
ELECTRICO
350
3D
  3
F1
350
3E
  3
FROZEN
350
3F
  3
GRID
350
40
  3
GRIDTXT
350
41
  3
HATCH
350
42
  3
HCAD
350
43
  3
INSTALACIONES
350
44
  3
JIZNI
350
45
  3
KCK
350
46
  3
KKK
350
47
  3
LAY
350
48
  3
LAYER-0
350
4C
  3
LAYER-1
350
4D
  3
LAYER_1_UND_0
350
49
  3
LAYER_2_UND_0
350
4A
  3
LAYER_9_UND_0_SCHRAFFUR
350
4B
  3
LOCK
350
4E
  3
LOCKED
350
4F
  3
LOTES
350
50
  3
LUNAR
350
51
  3
LUNAR2
350
52
  3
M
350
53
  3
MIS_LAYERS
350
54
  3
MRKCK
350
55
  3
NECADKON
350
56
  3
NI_LH
350
57
  3
NI_RH
350
58
  3
NUM
350
59
  3
OFF
350
5A
  3
ON
350
5B
  3
PBASE
350
5C
  3
PEGC
350
5D
  3
PEGCT
350
5E
  3
PFRAME
350
5F
  3
PGRID
350
60
  3
PGRIDT
350
61
  3
PLAFONES
350
62
  3
PLANTAS
350
63
  3
PLOT
350
64
  3
PRENDIDAS
350
65
  3
PRENDIDOS
350
66
  3
PRINT
350
67
  3
PT
350
68
  3
PTH
350
69
  3
PVGRID
350
6A
  3
RED_DE_AGUA_POTABLE
350
6B
  3
RED_DE_ENERGIA_ELECTRICA
350
6C
  3
SEVERNI
350
6D
  3
SHIN
350
6E
  3
SHOW_ALL_LAYER
350
6F
  3
SIN
350
70
  3
STORAGE-CART
350
71
  3
T
350
72
  3
TEXTOS
350
73
  3
TEXTURAS
350
74
  3
TUBERIAS
350
75
  3
UNFRZ
350
76
  3
V\U+0160ECHNY_NEPOU\U+017D\U+00CDVAN\U+00C9
350
77
  3
VA
350
78
  3
VENTILACI\U+00D3N
350
79
  3
VYHODNI
350
7A
  3
YO
350
7B
  3
ZAPADNI
350
7C
  3
사용
350
7D
  3
신규
350
7E
  3
실박스
350
7F
  3
우리토목
350
80
  3
주차
350
81
  3
지상정밀
350
82
  3
쩜선
350
83
  3
플로터_작업층
350
84
  3
현재_작업층
350
85
  3
현재_잠금
350
86
1001
ACAD
1000
TREAT_AS_HARD
1070
     1
  0
DICTIONARY
  5
87
102
{ACAD_REACTORS
330
13
102
}
330
13
100
AcDbDictionary
1001
ACAD
1000
TREAT_AS_HARD
1070
     0
  0
XRECORD
  5
3D6
102
{ACAD_REACTORS
330
3
102
}
330
3
100
AcDbXrecord
340
2
  0
XRECORD
  5
3D7
102
{ACAD_REACTORS
330
E
102
}
330
E
100
AcDbXrecord
340
D
  0
DIMASSOC
  5
11E
102
{ACAD_REACTORS
330
11D
102
}
330
11D
100
AcDbDimAssoc
330
11C
 90
        2
 70
     0
 71
     0
  1
AcDbOsnapPointRef
 72
     3
331
11B
 73
     2
 91
        0
 40
0.0
 10
-0.0000000000009095
 20
0.0
 30
0.0
 75
     0
  0
DIMASSOC
  5
A4
102
{ACAD_REACTORS
330
A3
102
}
330
A3
100
AcDbDimAssoc
330
A2
 90
        3
 70
     0
 71
     0
  1
AcDbOsnapPointRef
 72
    13
331
183
 73
     2
 91
        0
 40
0.0
 10
69.262812592704
 20
203.3021920218398
 30
0.0
 75
     0
  1
AcDbOsnapPointRef
 72
     1
331
183
 73
     2
 91
        0
 40
1.0
 10
52.69427009778155
 20
243.3021920218398
 30
0.0
 75
     0
  0
DIMASSOC
  5
B7
102
{ACAD_REACTORS
330
B6
102
}
330
B6
100
AcDbDimAssoc
330
B5
 90
        3
 70
     0
 71
     0
  1
AcDbOsnapPointRef
 72
    13
331
F3
 73
     2
 91
        0
 40
0.0
 10
54.93114662081279
 20
25.23596570744075
 30
0.0
 75
     0
  1
AcDbOsnapPointRef
 72
     1
331
F3
 73
     2
 91
        0
 40
1.0
 10
38.36260412589036
 20
65.23596570744075
 30
0.0
 75
     0
  0
DIMASSOC
  5
F7
102
{ACAD_REACTORS
330
F6
102
}
330
F6
100
AcDbDimAssoc
330
F5
 90
        3
 70
     0
 71
     0
  1
AcDbOsnapPointRef
 72
    13
331
F4
 73
     2
 91
        0
 40
0.0
 10
167.2726334089893
 20
101.735965707463
 30
0.0
 75
     0
  1
AcDbOsnapPointRef
 72
     1
331
F4
 73
     2
 91
        0
 40
1.0
 10
167.2726334089893
 20
28.73596570746304
 30
0.0
 75
     0
  0
DIMASSOC
  5
106
102
{ACAD_REACTORS
330
105
102
}
330
105
100
AcDbDimAssoc
330
104
 90
        3
 70
     0
 71
     0
  1
AcDbOsnapPointRef
 72
    13
331
1B6
 73
     2
 91
        0
 40
0.0
 10
162.2726334089893
 20
69.23596570746304
 30
0.0
 75
     0
  1
AcDbOsnapPointRef
 72
     1
331
1B1
 73
     2
 91
        0
 40
1.0
 10
137.2726334089893
 20
61.23596570746304
 30
0.0
 75
     0
  0
DIMASSOC
  5
173
102
{ACAD_REACTORS
330
172
102
}
330
172
100
AcDbDimAssoc
330
171
 90
        3
 70
     0
 71
     0
  1
AcDbOsnapPointRef
 72
     1
331
170
 73
     2
 91
        0
 40
1.0
 10
144.8843026513532
 20
206.8021920218679
 30
0.0
 75
     0
  1
AcDbOsnapPointRef
 72
    13
331
170
 73
     2
 91
        0
 40
0.0
 10
144.8843026513532
 20
279.8021920218679
 30
0.0
 75
     0
  0
DIMASSOC
  5
192
102
{ACAD_REACTORS
330
191
102
}
330
191
100
AcDbDimAssoc
330
190
 90
        2
 70
     0
 71
     0
  1
AcDbOsnapPointRef
 72
     1
331
18E
 73
     2
 91
        0
 40
1.0
 10
176.2726334089893
 20
103.8347030489922
 30
0.0
 75
     0
  0
DIMASSOC
  5
1B9
102
{ACAD_REACTORS
330
1B8
102
}
330
1B8
100
AcDbDimAssoc
330
1B7
 90
        3
 70
     0
 71
     0
  1
AcDbOsnapPointRef
 72
    13
331
1B0
 73
     2
 91
        0
 40
0.0
 10
137.2726334089893
 20
68.23596570746303
 30
0.0
 75
     0
  1
AcDbOsnapPointRef
 72
     1
331
1B4
 73
     2
 91
        0
 40
1.0
 10
162.2726334089893
 20
69.23596570746304
 30
0.0
 75
     0
  0
DIMASSOC
  5
1C8
102
{ACAD_REACTORS
330
1C7
102
}
330
1C7
100
AcDbDimAssoc
330
1C6
 90
        3
 70
     0
 71
     0
  1
AcDbOsnapPointRef
 72
     1
331
1B1
 73
     2
 91
        0
 40
1.0
 10
137.2726334089893
 20
61.23596570746304
 30
0.0
 75
     0
  1
AcDbOsnapPointRef
 72
    13
331
1B0
 73
     2
 91
        0
 40
0.0
 10
137.2726334089893
 20
68.23596570746303
 30
0.0
 75
     0
  0
DIMASSOC
  5
1DA
102
{ACAD_REACTORS
330
1D9
102
}
330
1D9
100
AcDbDimAssoc
330
1D8
 90
        3
 70
     0
 71
     0
  1
AcDbOsnapPointRef
 72
     1
331
1D5
 73
     2
 91
        0
 40
3.141592653589792
 10
-1.637395874087815
 20
100.2359657074634
 30
0.0
 75
     0
  1
AcDbOsnapPointRef
 72
    13
331
1D6
 73
     2
 91
        0
 40
0.0
 10
78.3626041259049
 20
100.2359657074634
 30
0.0
 75
     0
  0
DIMASSOC
  5
23E
102
{ACAD_REACTORS
330
23D
102
}
330
23D
100
AcDbDimAssoc
330
23C
 90
        2
 70
     0
 71
     0
  1
AcDbOsnapPointRef
 72
     1
331
23B
 73
     2
 91
        0
 40
1.0
 10
153.8843026513532
 20
281.9009293633976
 30
0.0
 75
     0
  0
DIMASSOC
  5
276
102
{ACAD_REACTORS
330
275
102
}
330
275
100
AcDbDimAssoc
330
274
 90
        3
 70
     0
 71
     0
  1
AcDbOsnapPointRef
 72
     1
331
271
 73
     2
 91
        0
 40
3.141592653589792
 10
12.69427009780338
 20
278.3021920218688
 30
0.0
 75
     0
  1
AcDbOsnapPointRef
 72
    13
331
272
 73
     2
 91
        0
 40
0.0
 10
92.69427009780338
 20
278.3021920218688
 30
0.0
 75
     0
  0
DIMASSOC
  5
2A4
102
{ACAD_REACTORS
330
2A3
102
}
330
2A3
100
AcDbDimAssoc
330
2A2
 90
        3
 70
     0
 71
     0
  1
AcDbOsnapPointRef
 72
     1
331
29F
 73
     2
 91
        0
 40
1.0
 10
247.2726334089893
 20
104.7359657074634
 30
0.0
 75
     0
  1
AcDbOsnapPointRef
 72
    13
331
D9
 73
     2
 91
        0
 40
0.0
 10
247.2726334089893
 20
25.73596570746303
 30
0.0
 75
     0
  0
DIMASSOC
  5
2B8
102
{ACAD_REACTORS
330
2B7
102
}
330
2B7
100
AcDbDimAssoc
330
2B6
 90
        3
 70
     0
 71
     0
  1
AcDbOsnapPointRef
 72
     1
331
2B3
 73
     2
 91
        0
 40
1.0
 10
224.8843026513532
 20
282.8021920218688
 30
0.0
 75
     0
  1
AcDbOsnapPointRef
 72
    13
331
DE
 73
     2
 91
        0
 40
0.0
 10
224.8843026513532
 20
203.802192021868
 30
0.0
 75
     0
  0
MLINESTYLE
  5
9A
102
{ACAD_REACTORS
330
98
102
}
330
98
100
AcDbMlineStyle
  2
STANDARD
 70
     0
  3

 62
   256
 51
90.0
 52
90.0
 71
     2
 49
0.5
 62
   256
  6
BYLAYER
 49
-0.5
 62
   256
  6
BYLAYER
  0
XRECORD
  5
15
102
{ACAD_REACTORS
330
14
102
}
330
14
100
AcDbXrecord
  1
$layers
  1
*
  1
*
  1
*
 70
     0
  1
*
  1
*
  0
XRECORD
  5
16
102
{ACAD_REACTORS
330
14
102
}
330
14
100
AcDbXrecord
  1
- und 0
  1
-*,0
  1
*
  1
*
 70
     0
  1
*
  1
*
  0
XRECORD
  5
17
102
{ACAD_REACTORS
330
14
102
}
330
14
100
AcDbXrecord
  1
-pegc
  1
*-pegc
  1
*
  1
*
 70
     0
  1
*
  1
*
  0
XRECORD
  5
18
102
{ACAD_REACTORS
330
14
102
}
330
14
100
AcDbXrecord
  1
101
  1
*101
  1
*
  1
*
 70
   256
  1
*
  1
*
  0
XRECORD
  5
19
102
{ACAD_REACTORS
330
14
102
}
330
14
100
AcDbXrecord
  1
102
  1
102*
  1
*
  1
*
 70
     0
  1
*
  1
*
  0
XRECORD
  5
1A
102
{ACAD_REACTORS
330
14
102
}
330
14
100
AcDbXrecord
  1
1duc
  1
*1duc*
  1
*
  1
*
 70
     0
  1
*
  1
*
  0
XRECORD
  5
1B
102
{ACAD_REACTORS
330
14
102
}
330
14
100
AcDbXrecord
  1
1eq
  1
*1eq*
  1
*
  1
*
 70
     0
  1
*
  1
*
  0
XRECORD
  5
1C
102
{ACAD_REACTORS
330
14
102
}
330
14
100
AcDbXrecord
  1
1tub
  1
*1t*
  1
*
  1
*
 70
     0
  1
*
  1
*
  0
XRECORD
  5
1D
102
{ACAD_REACTORS
330
14
102
}
330
14
100
AcDbXrecord
  1
2
  1
*
  1
2
  1
*
 70
     0
  1
*
  1
*
  0
XRECORD
  5
1E
102
{ACAD_REACTORS
330
14
102
}
330
14
100
AcDbXrecord
  1
2000
  1
2000*
  1
*
  1
*
 70
     0
  1
*
  1
*
  0
XRECORD
  5
1F
102
{ACAD_REACTORS
330
14
102
}
330
14
100
AcDbXrecord
  1
50
  1
*-50
  1
*
  1
*
 70
     0
  1
*
  1
*
  0
XRECORD
  5
20
102
{ACAD_REACTORS
330
14
102
}
330
14
100
AcDbXrecord
  1
58J
  1
*58*
  1
*
  1
*
 70
     0
  1
*
  1
*
  0
XRECORD
  5
21
102
{ACAD_REACTORS
330
14
102
}
330
14
100
AcDbXrecord
  1
65
  1
*65
  1
*
  1
*
 70
     0
  1
*
  1
*
  0
XRECORD
  5
22
102
{ACAD_REACTORS
330
14
102
}
330
14
100
AcDbXrecord
  1
aa
  1
aa*
  1
*
  1
*
 70
     0
  1
*
  1
*
  0
XRECORD
  5
23
102
{ACAD_REACTORS
330
14
102
}
330
14
100
AcDbXrecord
  1
acabados
  1
a-*
  1
*
  1
*
 70
     5
  1
*
  1
*
  0
XRECORD
  5
24
102
{ACAD_REACTORS
330
14
102
}
330
14
100
AcDbXrecord
  1
AGUA Y DREN
  1
A-DS-*
  1
*
  1
*
 70
     0
  1
*
  1
*
  0
XRECORD
  5
25
102
{ACAD_REACTORS
330
14
102
}
330
14
100
AcDbXrecord
  1
Aire
  1
*
  1
*
  1
*
 70
     0
  1
*
  1
*
  0
XRECORD
  5
26
102
{ACAD_REACTORS
330
14
102
}
330
14
100
AcDbXrecord
  1
alle aus
  1
99999999999
  1
*
  1
*
 70
     0
  1
*
  1
*
  0
XRECORD
  5
27
102
{ACAD_REACTORS
330
14
102
}
330
14
100
AcDbXrecord
  1
Alles mit S
  1
s*
  1
*
  1
*
 70
     0
  1
*
  1
*
  0
XRECORD
  5
28
102
{ACAD_REACTORS
330
14
102
}
330
14
100
AcDbXrecord
  1
amarillo
  1
*
  1
yellow
  1
*
 70
     0
  1
*
  1
*
  0
XRECORD
  5
29
102
{ACAD_REACTORS
330
14
102
}
330
14
100
AcDbXrecord
  1
APAGADOS
  1
*
  1
*
  1
*
 70
     4
  1
*
  1
*
  0
XRECORD
  5
2A
102
{ACAD_REACTORS
330
14
102
}
330
14
100
AcDbXrecord
  1
ARR
  1
ARR*
  1
*
  1
*
 70
     0
  1
*
  1
*
  0
XRECORD
  5
2B
102
{ACAD_REACTORS
330
14
102
}
330
14
100
AcDbXrecord
  1
ba
  1
*
  1
*
  1
*
 70
     0
  1
*
  1
*
  0
XRECORD
  5
2C
102
{ACAD_REACTORS
330
14
102
}
330
14
100
AcDbXrecord
  1
BACKS
  1
*-H
  1
*
  1
*
 70
     0
  1
*
  1
*
  0
XRECORD
  5
2D
102
{ACAD_REACTORS
330
14
102
}
330
14
100
AcDbXrecord
  1
BASE
  1
*-PBASE
  1
*
  1
*
 70
     0
  1
*
  1
*
  0
XRECORD
  5
2E
102
{ACAD_REACTORS
330
14
102
}
330
14
100
AcDbXrecord
  1
BLOQ_INUTIL
  1
*
  1
*
  1
*
 70
     0
  1
*
  1
*
  0
XRECORD
  5
2F
102
{ACAD_REACTORS
330
14
102
}
330
14
100
AcDbXrecord
  1
CADKON
  1
?[KAHBSM]?????[23M],?[KAHBSM]?????[23M][1456A-DGHILN-SU-Z]
  1
*
  1
*
 70
     0
  1
*
  1
*
  0
XRECORD
  5
30
102
{ACAD_REACTORS
330
14
102
}
330
14
100
AcDbXrecord
  1
carpinteria
  1
carp*
  1
*
  1
*
 70
     0
  1
*
  1
*
  0
XRECORD
  5
31
102
{ACAD_REACTORS
330
14
102
}
330
14
100
AcDbXrecord
  1
cerrados
  1
*
  1
*
  1
*
 70
   256
  1
*
  1
*
  0
XRECORD
  5
32
102
{ACAD_REACTORS
330
14
102
}
330
14
100
AcDbXrecord
  1
COL
  1
*
  1
*
  1
*
 70
     1
  1
*
  1
*
  0
XRECORD
  5
33
102
{ACAD_REACTORS
330
14
102
}
330
14
100
AcDbXrecord
  1
COLOR
  1
*
  1
253
  1
*
 70
     0
  1
*
  1
*
  0
XRECORD
  5
34
102
{ACAD_REACTORS
330
14
102
}
330
14
100
AcDbXrecord
  1
color 250
  1
*
  1
250
  1
*
 70
     0
  1
*
  1
*
  0
XRECORD
  5
35
102
{ACAD_REACTORS
330
14
102
}
330
14
100
AcDbXrecord
  1
COLORES
  1
*
  1
6
  1
*
 70
     0
  1
*
  1
*
  0
XRECORD
  5
36
102
{ACAD_REACTORS
330
14
102
}
330
14
100
AcDbXrecord
  1
Congelados
  1
*
  1
*
  1
*
 70
     4
  1
*
  1
*
  0
XRECORD
  5
37
102
{ACAD_REACTORS
330
14
102
}
330
14
100
AcDbXrecord
  1
CONJUNTO
  1
CON-*
  1
*
  1
*
 70
     0
  1
*
  1
*
  0
XRECORD
  5
38
102
{ACAD_REACTORS
330
14
102
}
330
14
100
AcDbXrecord
  1
d1
  1
achurados
  1
*
  1
*
 70
     0
  1
*
  1
*
  0
XRECORD
  5
39
102
{ACAD_REACTORS
330
14
102
}
330
14
100
AcDbXrecord
  1
DA_
  1
DA*
  1
*
  1
*
 70
     0
  1
*
  1
*
  0
XRECORD
  5
3A
102
{ACAD_REACTORS
330
14
102
}
330
14
100
AcDbXrecord
  1
DET-
  1
*
  1
*
  1
*
 70
     0
  1
*
  1
*
  0
XRECORD
  5
3B
102
{ACAD_REACTORS
330
14
102
}
330
14
100
AcDbXrecord
  1
DOR-H
  1
*
  1
7
  1
*
 70
     0
  1
*
  1
*
  0
XRECORD
  5
3C
102
{ACAD_REACTORS
330
14
102
}
330
14
100
AcDbXrecord
  1
ejes
  1
eje*
  1
*
  1
*
 70
     0
  1
*
  1
*
  0
XRECORD
  5
3D
102
{ACAD_REACTORS
330
14
102
}
330
14
100
AcDbXrecord
  1
ELECTRICO
  1
ELEC-*
  1
*
  1
*
 70
     0
  1
*
  1
*
  0
XRECORD
  5
3E
102
{ACAD_REACTORS
330
14
102
}
330
14
100
AcDbXrecord
  1
F1
  1
Halaxref*
  1
*
  1
*
 70
     0
  1
*
  1
*
  0
XRECORD
  5
3F
102
{ACAD_REACTORS
330
14
102
}
330
14
100
AcDbXrecord
  1
frozen
  1
*
  1
*
  1
*
 70
     4
  1
*
  1
*
  0
XRECORD
  5
40
102
{ACAD_REACTORS
330
14
102
}
330
14
100
AcDbXrecord
  1
grid
  1
*-PGRID
  1
*
  1
*
 70
     1
  1
*
  1
*
  0
XRECORD
  5
41
102
{ACAD_REACTORS
330
14
102
}
330
14
100
AcDbXrecord
  1
GRIDTXT
  1
*-PGRIDT
  1
*
  1
*
 70
     0
  1
*
  1
*
  0
XRECORD
  5
42
102
{ACAD_REACTORS
330
14
102
}
330
14
100
AcDbXrecord
  1
HATCH
  1
HAT*
  1
*
  1
*
 70
     0
  1
*
  1
*
  0
XRECORD
  5
43
102
{ACAD_REACTORS
330
14
102
}
330
14
100
AcDbXrecord
  1
HCAD
  1
1HCAD-*
  1
*
  1
*
 70
    13
  1
*
  1
*
  0
XRECORD
  5
44
102
{ACAD_REACTORS
330
14
102
}
330
14
100
AcDbXrecord
  1
INSTALACIONES
  1
I-*
  1
*
  1
*
 70
     0
  1
*
  1
*
  0
XRECORD
  5
45
102
{ACAD_REACTORS
330
14
102
}
330
14
100
AcDbXrecord
  1
JIZNI
  1
*-J
  1
*
  1
*
 70
     0
  1
*
  1
*
  0
XRECORD
  5
46
102
{ACAD_REACTORS
330
14
102
}
330
14
100
AcDbXrecord
  1
kck
  1
*
  1
*
  1
*
 70
     0
  1
*
  1
*
  0
XRECORD
  5
47
102
{ACAD_REACTORS
330
14
102
}
330
14
100
AcDbXrecord
  1
kkk
  1
k
  1
*
  1
*
 70
     0
  1
*
  1
*
  0
XRECORD
  5
48
102
{ACAD_REACTORS
330
14
102
}
330
14
100
AcDbXrecord
  1
lay
  1
??-*
  1
*
  1
*
 70
     0
  1
*
  1
*
  0
XRECORD
  5
4C
102
{ACAD_REACTORS
330
14
102
}
330
14
100
AcDbXrecord
  1
Layer-0
  1
0*
  1
*
  1
*
 70
     0
  1
*
  1
*
  0
XRECORD
  5
4D
102
{ACAD_REACTORS
330
14
102
}
330
14
100
AcDbXrecord
  1
Layer-1
  1
1*
  1
*
  1
*
 70
     0
  1
*
  1
*
  0
XRECORD
  5
49
102
{ACAD_REACTORS
330
14
102
}
330
14
100
AcDbXrecord
  1
Layer 1 und 0
  1
1*,0
  1
*
  1
*
 70
     0
  1
*
  1
*
  0
XRECORD
  5
4A
102
{ACAD_REACTORS
330
14
102
}
330
14
100
AcDbXrecord
  1
Layer 2 und 0
  1
2*,0
  1
*
  1
*
 70
     0
  1
*
  1
*
  0
XRECORD
  5
4B
102
{ACAD_REACTORS
330
14
102
}
330
14
100
AcDbXrecord
  1
Layer 9 und 0 Schraffur
  1
9*,0
  1
*
  1
*
 70
     0
  1
*
  1
*
  0
XRECORD
  5
4E
102
{ACAD_REACTORS
330
14
102
}
330
14
100
AcDbXrecord
  1
LOCK
  1
*
  1
*
  1
*
 70
   256
  1
*
  1
*
  0
XRECORD
  5
4F
102
{ACAD_REACTORS
330
14
102
}
330
14
100
AcDbXrecord
  1
locked
  1
*
  1
*
  1
*
 70
   256
  1
*
  1
*
  0
XRECORD
  5
50
102
{ACAD_REACTORS
330
14
102
}
330
14
100
AcDbXrecord
  1
Lotes
  1
*
  1
*
  1
*
 70
     1
  1
*
  1
*
  0
XRECORD
  5
51
102
{ACAD_REACTORS
330
14
102
}
330
14
100
AcDbXrecord
  1
LUNAR
  1
*
  1
*
  1
*
 70
    48
  1
*
  1
*
  0
XRECORD
  5
52
102
{ACAD_REACTORS
330
14
102
}
330
14
100
AcDbXrecord
  1
LUNAR2
  1
*
  1
*
  1
*
 70
    12
  1
*
  1
*
  0
XRECORD
  5
53
102
{ACAD_REACTORS
330
14
102
}
330
14
100
AcDbXrecord
  1
M
  1
M*
  1
*
  1
*
 70
     0
  1
*
  1
*
  0
XRECORD
  5
54
102
{ACAD_REACTORS
330
14
102
}
330
14
100
AcDbXrecord
  1
mis_layers
  1
mis_*
  1
*
  1
*
 70
     0
  1
*
  1
*
  0
XRECORD
  5
55
102
{ACAD_REACTORS
330
14
102
}
330
14
100
AcDbXrecord
  1
MRKCK
  1
*
  1
*
  1
*
 70
     0
  1
*
  1
*
  0
XRECORD
  5
56
102
{ACAD_REACTORS
330
14
102
}
330
14
100
AcDbXrecord
  1
NECADKON
  1
~*?[KAHBSM]?????[23M]*
  1
*
  1
*
 70
     0
  1
*
  1
*
  0
XRECORD
  5
57
102
{ACAD_REACTORS
330
14
102
}
330
14
100
AcDbXrecord
  1
NI_LH
  1
NI_LH*
  1
*
  1
*
 70
     0
  1
*
  1
*
  0
XRECORD
  5
58
102
{ACAD_REACTORS
330
14
102
}
330
14
100
AcDbXrecord
  1
NI_RH
  1
NI_RH*
  1
*
  1
*
 70
     0
  1
*
  1
*
  0
XRECORD
  5
59
102
{ACAD_REACTORS
330
14
102
}
330
14
100
AcDbXrecord
  1
NUM
  1
NUM*
  1
*
  1
*
 70
     0
  1
*
  1
*
  0
XRECORD
  5
5A
102
{ACAD_REACTORS
330
14
102
}
330
14
100
AcDbXrecord
  1
off
  1
*
  1
*
  1
*
 70
     3
  1
*
  1
*
  0
XRECORD
  5
5B
102
{ACAD_REACTORS
330
14
102
}
330
14
100
AcDbXrecord
  1
on
  1
*
  1
*
  1
*
 70
     0
  1
*
  1
*
  0
XRECORD
  5
5C
102
{ACAD_REACTORS
330
14
102
}
330
14
100
AcDbXrecord
  1
PBASE
  1
*PBASE
  1
*
  1
*
 70
     0
  1
*
  1
*
  0
XRECORD
  5
5D
102
{ACAD_REACTORS
330
14
102
}
330
14
100
AcDbXrecord
  1
PEGC
  1
*PEGC
  1
*
  1
*
 70
     0
  1
*
  1
*
  0
XRECORD
  5
5E
102
{ACAD_REACTORS
330
14
102
}
330
14
100
AcDbXrecord
  1
PEGCT
  1
*PEGCT
  1
*
  1
*
 70
     0
  1
*
  1
*
  0
XRECORD
  5
5F
102
{ACAD_REACTORS
330
14
102
}
330
14
100
AcDbXrecord
  1
PFRAME
  1
PFRAME*
  1
*
  1
*
 70
     0
  1
*
  1
*
  0
XRECORD
  5
60
102
{ACAD_REACTORS
330
14
102
}
330
14
100
AcDbXrecord
  1
PGRID
  1
*PGRID
  1
*
  1
*
 70
     0
  1
*
  1
*
  0
XRECORD
  5
61
102
{ACAD_REACTORS
330
14
102
}
330
14
100
AcDbXrecord
  1
PGRIDT
  1
*PGRIDT
  1
*
  1
*
 70
     0
  1
*
  1
*
  0
XRECORD
  5
62
102
{ACAD_REACTORS
330
14
102
}
330
14
100
AcDbXrecord
  1
PLAFONES
  1
0-*
  1
*
  1
*
 70
     0
  1
*
  1
*
  0
XRECORD
  5
63
102
{ACAD_REACTORS
330
14
102
}
330
14
100
AcDbXrecord
  1
PLANTAS
  1
P-*
  1
*
  1
*
 70
     0
  1
*
  1
*
  0
XRECORD
  5
64
102
{ACAD_REACTORS
330
14
102
}
330
14
100
AcDbXrecord
  1
Plot
  1
*
  1
*
  1
*
 70
  1024
  1
*
  1
*
  0
XRECORD
  5
65
102
{ACAD_REACTORS
330
14
102
}
330
14
100
AcDbXrecord
  1
PRENDIDAS
  1
*
  1
*
  1
*
 70
    13
  1
*
  1
*
  0
XRECORD
  5
66
102
{ACAD_REACTORS
330
14
102
}
330
14
100
AcDbXrecord
  1
PRENDIDOS
  1
*
  1
*
  1
*
 70
    12
  1
*
  1
*
  0
XRECORD
  5
67
102
{ACAD_REACTORS
330
14
102
}
330
14
100
AcDbXrecord
  1
print
  1
*
  1
7
  1
*
 70
  1280
  1
*
  1
*
  0
XRECORD
  5
68
102
{ACAD_REACTORS
330
14
102
}
330
14
100
AcDbXrecord
  1
PT
  1
PT-*
  1
*
  1
*
 70
     0
  1
*
  1
*
  0
XRECORD
  5
69
102
{ACAD_REACTORS
330
14
102
}
330
14
100
AcDbXrecord
  1
PTH
  1
PTH*
  1
*
  1
*
 70
     0
  1
*
  1
*
  0
XRECORD
  5
6A
102
{ACAD_REACTORS
330
14
102
}
330
14
100
AcDbXrecord
  1
PVGRID
  1
*PVGRID
  1
*
  1
*
 70
     0
  1
*
  1
*
  0
XRECORD
  5
6B
102
{ACAD_REACTORS
330
14
102
}
330
14
100
AcDbXrecord
  1
Red de Agua Potable
  1
Red de Agua Potable
  1
*
  1
*
 70
     1
  1
*
  1
*
  0
XRECORD
  5
6C
102
{ACAD_REACTORS
330
14
102
}
330
14
100
AcDbXrecord
  1
Red de Energia Electrica
  1
Lotes
  1
*
  1
*
 70
     1
  1
*
  1
*
  0
XRECORD
  5
6D
102
{ACAD_REACTORS
330
14
102
}
330
14
100
AcDbXrecord
  1
SEVERNI
  1
*-S
  1
*
  1
*
 70
     0
  1
*
  1
*
  0
XRECORD
  5
6E
102
{ACAD_REACTORS
330
14
102
}
330
14
100
AcDbXrecord
  1
shin
  1
일*
  1
*
  1
*
 70
     0
  1
*
  1
*
  0
XRECORD
  5
6F
102
{ACAD_REACTORS
330
14
102
}
330
14
100
AcDbXrecord
  1
SHOW ALL LAYER
  1
*
  1
*
  1
*
 70
     0
  1
*
  1
*
  0
XRECORD
  5
70
102
{ACAD_REACTORS
330
14
102
}
330
14
100
AcDbXrecord
  1
sin
  1
sin
  1
*
  1
*
 70
     0
  1
*
  1
*
  0
XRECORD
  5
71
102
{ACAD_REACTORS
330
14
102
}
330
14
100
AcDbXrecord
  1
STORAGE-CART
  1
STORAGE-CART*
  1
*
  1
*
 70
     0
  1
*
  1
*
  0
XRECORD
  5
72
102
{ACAD_REACTORS
330
14
102
}
330
14
100
AcDbXrecord
  1
T
  1
T*
  1
*
  1
*
 70
     0
  1
*
  1
*
  0
XRECORD
  5
73
102
{ACAD_REACTORS
330
14
102
}
330
14
100
AcDbXrecord
  1
TEXTOS
  1
TXT*
  1
*
  1
*
 70
     0
  1
*
  1
*
  0
XRECORD
  5
74
102
{ACAD_REACTORS
330
14
102
}
330
14
100
AcDbXrecord
  1
TEXTURAS
  1
*TEXTURAS
  1
*
  1
*
 70
     0
  1
*
  1
*
  0
XRECORD
  5
75
102
{ACAD_REACTORS
330
14
102
}
330
14
100
AcDbXrecord
  1
TUBERIAS
  1
T*
  1
*
  1
*
 70
     0
  1
*
  1
*
  0
XRECORD
  5
76
102
{ACAD_REACTORS
330
14
102
}
330
14
100
AcDbXrecord
  1
UNFRZ
  1
*
  1
*
  1
*
 70
    12
  1
*
  1
*
  0
XRECORD
  5
77
102
{ACAD_REACTORS
330
14
102
}
330
14
100
AcDbXrecord
  1
v\U+0161echny nepou\U+017E\U+00EDvan\U+00E9
  1
*
  1
*
  1
*
 70
     0
  1
*
  1
*
  0
XRECORD
  5
78
102
{ACAD_REACTORS
330
14
102
}
330
14
100
AcDbXrecord
  1
VA
  1
VA*
  1
*
  1
*
 70
     0
  1
*
  1
*
  0
XRECORD
  5
79
102
{ACAD_REACTORS
330
14
102
}
330
14
100
AcDbXrecord
  1
Ventilaci\U+00F3n
  1
*
  1
*
  1
*
 70
     0
  1
*
  1
*
  0
XRECORD
  5
7A
102
{ACAD_REACTORS
330
14
102
}
330
14
100
AcDbXrecord
  1
VYHODNI
  1
*-V
  1
*
  1
*
 70
     0
  1
*
  1
*
  0
XRECORD
  5
7B
102
{ACAD_REACTORS
330
14
102
}
330
14
100
AcDbXrecord
  1
Yo
  1
Muros
  1
*
  1
*
 70
     0
  1
*
  1
*
  0
XRECORD
  5
7C
102
{ACAD_REACTORS
330
14
102
}
330
14
100
AcDbXrecord
  1
ZAPADNI
  1
*-Z
  1
*
  1
*
 70
     0
  1
*
  1
*
  0
XRECORD
  5
7D
102
{ACAD_REACTORS
330
14
102
}
330
14
100
AcDbXrecord
  1
사용
  1
*
  1
*
  1
*
 70
   256
  1
*
  1
*
  0
XRECORD
  5
7E
102
{ACAD_REACTORS
330
14
102
}
330
14
100
AcDbXrecord
  1
신규
  1
신규
  1
*
  1
*
 70
     0
  1
*
  1
*
  0
XRECORD
  5
7F
102
{ACAD_REACTORS
330
14
102
}
330
14
100
AcDbXrecord
  1
실박스
  1
BLO,SYM,SYM1,SYM2
  1
*
  1
*
 70
     0
  1
*
  1
*
  0
XRECORD
  5
80
102
{ACAD_REACTORS
330
14
102
}
330
14
100
AcDbXrecord
  1
우리토목
  1
w-*
  1
*
  1
*
 70
     0
  1
*
  1
*
  0
XRECORD
  5
81
102
{ACAD_REACTORS
330
14
102
}
330
14
100
AcDbXrecord
  1
주차
  1
car*
  1
*
  1
*
 70
     0
  1
*
  1
*
  0
XRECORD
  5
82
102
{ACAD_REACTORS
330
14
102
}
330
14
100
AcDbXrecord
  1
지상정밀
  1
*
  1
*
  1
*
 70
     0
  1
*
  1
*
  0
XRECORD
  5
83
102
{ACAD_REACTORS
330
14
102
}
330
14
100
AcDbXrecord
  1
쩜선
  1
*
  1
*
  1
*
 70
     0
  1
*
  1
*
  0
XRECORD
  5
84
102
{ACAD_REACTORS
330
14
102
}
330
14
100
AcDbXrecord
  1
플로터 작업층
  1
*
  1
*
  1
*
 70
  1025
  1
*
  1
*
  0
XRECORD
  5
85
102
{ACAD_REACTORS
330
14
102
}
330
14
100
AcDbXrecord
  1
현재 작업층
  1
*
  1
*
  1
*
 70
     1
  1
*
  1
*
  0
XRECORD
  5
86
102
{ACAD_REACTORS
330
14
102
}
330
14
100
AcDbXrecord
  1
현재 잠금
  1
*
  1
*
  1
*
 70
   257
  1
*
  1
*
  0
ENDSEC
  0
EOF
