  0
SECTION
  2
HEADER
  9
$ACADVER
  1
AC1012
  9
$DWGCODEPAGE
  3
ksc5601
  9
$INSBASE
 10
21045.94786661782
 20
-2265.935471896737
 30
0.0
  9
$EXTMIN
 10
4.747449904447421
 20
-16.85565606412637
 30
-0.0000000000119164
  9
$EXTMAX
 10
262.6128552142181
 20
282.1527085577617
 30
0.0000000000664171
  9
$LIMMIN
 10
0.0
 20
0.0
  9
$LIMMAX
 10
420.0
 20
297.0
  9
$ORTHOMODE
 70
     0
  9
$REGENMODE
 70
     1
  9
$FILLMODE
 70
     1
  9
$QTEXTMODE
 70
     0
  9
$MIRRTEXT
 70
     0
  9
$DRAGMODE
 70
     2
  9
$LTSCALE
 40
0.2
  9
$OSMODE
 70
   567
  9
$ATTMODE
 70
     1
  9
$TEXTSIZE
 40
5.777225951253058
  9
$TRACEWID
 40
1.0
  9
$TEXTSTYLE
  7
STANDARD
  9
$CLAYER
  8
0
  9
$CELTYPE
  6
BYLAYER
  9
$CECOLOR
 62
   256
  9
$CELTSCALE
 40
1.0
  9
$DELOBJ
 70
     1
  9
$DISPSILH
 70
     0
  9
$DIMSCALE
 40
1.0
  9
$DIMASZ
 40
3.0
  9
$DIMEXO
 40
1.0
  9
$DIMDLI
 40
10.0
  9
$DIMRND
 40
0.0
  9
$DIMDLE
 40
0.0
  9
$DIMEXE
 40
0.6
  9
$DIMTP
 40
0.0
  9
$DIMTM
 40
0.0
  9
$DIMTXT
 40
3.5
  9
$DIMCEN
 40
0.09
  9
$DIMTSZ
 40
0.0
  9
$DIMTOL
 70
     0
  9
$DIMLIM
 70
     0
  9
$DIMTIH
 70
     0
  9
$DIMTOH
 70
     0
  9
$DIMSE1
 70
     0
  9
$DIMSE2
 70
     0
  9
$DIMTAD
 70
     1
  9
$DIMZIN
 70
     8
  9
$DIMBLK
  1

  9
$DIMASO
 70
     1
  9
$DIMSHO
 70
     1
  9
$DIMPOST
  1

  9
$DIMAPOST
  1

  9
$DIMALT
 70
     0
  9
$DIMALTD
 70
     2
  9
$DIMALTF
 40
25.4
  9
$DIMLFAC
 40
1.0
  9
$DIMTOFL
 70
     1
  9
$DIMTVP
 40
0.0
  9
$DIMTIX
 70
     1
  9
$DIMSOXD
 70
     0
  9
$DIMSAH
 70
     0
  9
$DIMBLK1
  1

  9
$DIMBLK2
  1

  9
$DIMSTYLE
  2
1_1_2
  9
$DIMCLRD
 70
   123
  9
$DIMCLRE
 70
   123
  9
$DIMCLRT
 70
     3
  9
$DIMTFAC
 40
1.0
  9
$DIMGAP
 40
1.0
  9
$DIMJUST
 70
     0
  9
$DIMSD1
 70
     0
  9
$DIMSD2
 70
     0
  9
$DIMTOLJ
 70
     1
  9
$DIMTZIN
 70
     0
  9
$DIMALTZ
 70
     0
  9
$DIMALTTZ
 70
     0
  9
$DIMFIT
 70
     0
  9
$DIMUPT
 70
     1
  9
$DIMUNIT
 70
     2
  9
$DIMDEC
 70
     2
  9
$DIMTDEC
 70
     2
  9
$DIMALTU
 70
     2
  9
$DIMALTTD
 70
     2
  9
$DIMTXSTY
  7
STANDARD
  9
$DIMAUNIT
 70
     1
  9
$LUNITS
 70
     2
  9
$LUPREC
 70
     4
  9
$SKETCHINC
 40
1.0
  9
$FILLETRAD
 40
0.5
  9
$AUNITS
 70
     0
  9
$AUPREC
 70
     0
  9
$MENU
  1
.
  9
$ELEVATION
 40
0.0
  9
$PELEVATION
 40
0.0
  9
$THICKNESS
 40
0.0
  9
$LIMCHECK
 70
     0
  9
$BLIPMODE
 70
     1
  9
$CHAMFERA
 40
1.0
  9
$CHAMFERB
 40
1.0
  9
$CHAMFERC
 40
20.0
  9
$CHAMFERD
 40
0.0
  9
$SKPOLY
 70
     0
  9
$TDCREATE
 40
2452839.586179271
  9
$TDUPDATE
 40
2453376.709412963
  9
$TDINDWG
 40
11.1193024190
  9
$TDUSRTIMER
 40
11.1193022454
  9
$USRTIMER
 70
     1
  9
$ANGBASE
 50
0.0
  9
$ANGDIR
 70
     0
  9
$PDMODE
 70
     0
  9
$PDSIZE
 40
0.0
  9
$PLINEWID
 40
0.0
  9
$COORDS
 70
     2
  9
$SPLFRAME
 70
     0
  9
$SPLINETYPE
 70
     6
  9
$SPLINESEGS
 70
   800
  9
$ATTDIA
 70
     0
  9
$ATTREQ
 70
     1
  9
$HANDLING
 70
 22529
  9
$HANDSEED
  5
3AA
  9
$SURFTAB1
 70
     6
  9
$SURFTAB2
 70
     6
  9
$SURFTYPE
 70
     6
  9
$SURFU
 70
     6
  9
$SURFV
 70
     6
  9
$UCSNAME
  2

  9
$UCSORG
 10
0.0
 20
0.0
 30
0.0
  9
$UCSXDIR
 10
1.0
 20
0.0
 30
0.0
  9
$UCSYDIR
 10
0.0
 20
1.0
 30
0.0
  9
$PUCSNAME
  2

  9
$PUCSORG
 10
0.0
 20
0.0
 30
0.0
  9
$PUCSXDIR
 10
1.0
 20
0.0
 30
0.0
  9
$PUCSYDIR
 10
0.0
 20
1.0
 30
0.0
  9
$USERI1
 70
     0
  9
$USERI2
 70
     0
  9
$USERI3
 70
     0
  9
$USERI4
 70
     0
  9
$USERI5
 70
     0
  9
$USERR1
 40
0.0
  9
$USERR2
 40
0.0
  9
$USERR3
 40
0.0
  9
$USERR4
 40
0.0
  9
$USERR5
 40
0.0
  9
$WORLDVIEW
 70
     1
  9
$SHADEDGE
 70
     3
  9
$SHADEDIF
 70
    70
  9
$TILEMODE
 70
     1
  9
$MAXACTVP
 70
    48
  9
$PINSBASE
 10
0.0
 20
0.0
 30
0.0
  9
$PLIMCHECK
 70
     0
  9
$PEXTMIN
 10
0.0
 20
0.0
 30
0.0
  9
$PEXTMAX
 10
0.0
 20
0.0
 30
0.0
  9
$PLIMMIN
 10
0.0
 20
0.0
  9
$PLIMMAX
 10
12.0
 20
9.0
  9
$UNITMODE
 70
     0
  9
$VISRETAIN
 70
     1
  9
$PLINEGEN
 70
     0
  9
$PSLTSCALE
 70
     1
  9
$TREEDEPTH
 70
  3020
  9
$PICKSTYLE
 70
     0
  9
$CMLSTYLE
  2
STANDARD
  9
$CMLJUST
 70
     0
  9
$CMLSCALE
 40
20.0
  9
$SAVEIMAGES
 70
     1
  0
ENDSEC
  0
SECTION
  2
CLASSES
  0
CLASS
  1
ACDBDICTIONARYWDFLT
  2
AcDbDictionaryWithDefault
  3
AutoCAD 2000
 90
    32768
280
     0
281
     0
  0
CLASS
  1
ACDBPLACEHOLDER
  2
AcDbPlaceHolder
  3
AutoCAD 2000
 90
    32768
280
     0
281
     0
  0
CLASS
  1
LAYOUT
  2
AcDbLayout
  3
AutoCAD 2000
 90
    32768
280
     0
281
     0
  0
CLASS
  1
DICTIONARYVAR
  2
AcDbDictionaryVar
  3
AutoCAD 2000
 90
    32768
280
     0
281
     0
  0
CLASS
  1
DIMASSOC
  2
AcDbDimAssoc
  3
"AcDbDimAssoc|Product Desc:     AcDim ARX App For Dimension|Company:          Autodesk, Inc.|WEB Address:      www.autodesk.com"
 90
    32768
280
     0
281
     0
  0
CLASS
  1
LONG_TRANSACTION
  2
AcDbLongTransaction
  3
AutoCAD 2000
 90
    32768
280
     0
281
     0
  0
CLASS
  1
LWPOLYLINE
  2
AcDbPolyline
  3
AutoCAD 2000
 90
    32768
280
     0
281
     1
  0
CLASS
  1
HATCH
  2
AcDbHatch
  3
AutoCAD 2000
 90
    32768
280
     0
281
     1
  0
CLASS
  1
XRECORD
  2
AcDbXrecord
  3
AutoCAD 2000
 90
    32768
280
     0
281
     0
  0
CLASS
  1
LONG_TRANSACTION
  2
AcDbLongTransaction
  3
AutoCAD 2000
 90
    32768
280
     0
281
     0
  0
CLASS
  1
LWPOLYLINE
  2
AcDbPolyline
  3
AutoCAD 2000
 90
    32768
280
     0
281
     1
  0
CLASS
  1
HATCH
  2
AcDbHatch
  3
AutoCAD 2000
 90
    32768
280
     0
281
     1
  0
CLASS
  1
XRECORD
  2
AcDbXrecord
  3
AutoCAD 2000
 90
    32768
280
     0
281
     0
  0
CLASS
  1
LONG_TRANSACTION
  2
AcDbLongTransaction
  3
AutoCAD 2000
 90
    32768
280
     0
281
     0
  0
CLASS
  1
LWPOLYLINE
  2
AcDbPolyline
  3
AutoCAD 2000
 90
    32768
280
     0
281
     1
  0
CLASS
  1
HATCH
  2
AcDbHatch
  3
AutoCAD 2000
 90
    32768
280
     0
281
     1
  0
CLASS
  1
XRECORD
  2
AcDbXrecord
  3
AutoCAD 2000
 90
    32768
280
     0
281
     0
  0
CLASS
  1
LONG_TRANSACTION
  2
AcDbLongTransaction
  3
AutoCAD 2000
 90
    32768
280
     0
281
     0
  0
CLASS
  1
LWPOLYLINE
  2
AcDbPolyline
  3
AutoCAD 2000
 90
    32768
280
     0
281
     1
  0
CLASS
  1
HATCH
  2
AcDbHatch
  3
AutoCAD 2000
 90
    32768
280
     0
281
     1
  0
CLASS
  1
XRECORD
  2
AcDbXrecord
  3
AutoCAD 2000
 90
    32768
280
     0
281
     0
  0
CLASS
  1
LONG_TRANSACTION
  2
AcDbLongTransaction
  3
AutoCAD 2000
 90
    32768
280
     0
281
     0
  0
CLASS
  1
LWPOLYLINE
  2
AcDbPolyline
  3
AutoCAD 2000
 90
    32768
280
     0
281
     1
  0
CLASS
  1
HATCH
  2
AcDbHatch
  3
AutoCAD 2000
 90
    32768
280
     0
281
     1
  0
CLASS
  1
XRECORD
  2
AcDbXrecord
  3
AutoCAD 2000
 90
    32768
280
     0
281
     0
  0
CLASS
  1
LONG_TRANSACTION
  2
AcDbLongTransaction
  3
AutoCAD 2000
 90
    32768
280
     0
281
     0
  0
CLASS
  1
LWPOLYLINE
  2
AcDbPolyline
  3
AutoCAD 2000
 90
    32768
280
     0
281
     1
  0
CLASS
  1
HATCH
  2
AcDbHatch
  3
AutoCAD 2000
 90
    32768
280
     0
281
     1
  0
CLASS
  1
XRECORD
  2
AcDbXrecord
  3
AutoCAD 2000
 90
    32768
280
     0
281
     0
  0
CLASS
  1
LONG_TRANSACTION
  2
AcDbLongTransaction
  3
AutoCAD 2000
 90
    32768
280
     0
281
     0
  0
CLASS
  1
LWPOLYLINE
  2
AcDbPolyline
  3
AutoCAD 2000
 90
    32768
280
     0
281
     1
  0
CLASS
  1
HATCH
  2
AcDbHatch
  3
AutoCAD 2000
 90
    32768
280
     0
281
     1
  0
CLASS
  1
XRECORD
  2
AcDbXrecord
  3
AutoCAD 2000
 90
    32768
280
     0
281
     0
  0
CLASS
  1
LONG_TRANSACTION
  2
AcDbLongTransaction
  3
AutoCAD 2000
 90
    32768
280
     0
281
     0
  0
CLASS
  1
LWPOLYLINE
  2
AcDbPolyline
  3
AutoCAD 2000
 90
    32768
280
     0
281
     1
  0
CLASS
  1
HATCH
  2
AcDbHatch
  3
AutoCAD 2000
 90
    32768
280
     0
281
     1
  0
CLASS
  1
XRECORD
  2
AcDbXrecord
  3
AutoCAD 2000
 90
    32768
280
     0
281
     0
  0
CLASS
  1
LONG_TRANSACTION
  2
AcDbLongTransaction
  3
AutoCAD 2000
 90
    32768
280
     0
281
     0
  0
CLASS
  1
LWPOLYLINE
  2
AcDbPolyline
  3
AutoCAD 2000
 90
    32768
280
     0
281
     1
  0
CLASS
  1
HATCH
  2
AcDbHatch
  3
AutoCAD 2000
 90
    32768
280
     0
281
     1
  0
CLASS
  1
XRECORD
  2
AcDbXrecord
  3
AutoCAD 2000
 90
    32768
280
     0
281
     0
  0
CLASS
  1
LONG_TRANSACTION
  2
AcDbLongTransaction
  3
AutoCAD 2000
 90
    32768
280
     0
281
     0
  0
CLASS
  1
LWPOLYLINE
  2
AcDbPolyline
  3
AutoCAD 2000
 90
    32768
280
     0
281
     1
  0
CLASS
  1
HATCH
  2
AcDbHatch
  3
AutoCAD 2000
 90
    32768
280
     0
281
     1
  0
CLASS
  1
XRECORD
  2
AcDbXrecord
  3
AutoCAD 2000
 90
    32768
280
     0
281
     0
  0
CLASS
  1
LONG_TRANSACTION
  2
AcDbLongTransaction
  3
AutoCAD 2000
 90
    32768
280
     0
281
     0
  0
CLASS
  1
LWPOLYLINE
  2
AcDbPolyline
  3
AutoCAD 2000
 90
    32768
280
     0
281
     1
  0
CLASS
  1
HATCH
  2
AcDbHatch
  3
AutoCAD 2000
 90
    32768
280
     0
281
     1
  0
CLASS
  1
XRECORD
  2
AcDbXrecord
  3
AutoCAD 2000
 90
    32768
280
     0
281
     0
  0
CLASS
  1
LONG_TRANSACTION
  2
AcDbLongTransaction
  3
AutoCAD 2000
 90
    32768
280
     0
281
     0
  0
CLASS
  1
LWPOLYLINE
  2
AcDbPolyline
  3
AutoCAD 2000
 90
    32768
280
     0
281
     1
  0
CLASS
  1
HATCH
  2
AcDbHatch
  3
AutoCAD 2000
 90
    32768
280
     0
281
     1
  0
CLASS
  1
XRECORD
  2
AcDbXrecord
  3
AutoCAD 2000
 90
    32768
280
     0
281
     0
  0
CLASS
  1
LONG_TRANSACTION
  2
AcDbLongTransaction
  3
AutoCAD 2000
 90
    32768
280
     0
281
     0
  0
CLASS
  1
LWPOLYLINE
  2
AcDbPolyline
  3
AutoCAD 2000
 90
    32768
280
     0
281
     1
  0
CLASS
  1
HATCH
  2
AcDbHatch
  3
AutoCAD 2000
 90
    32768
280
     0
281
     1
  0
CLASS
  1
XRECORD
  2
AcDbXrecord
  3
AutoCAD 2000
 90
    32768
280
     0
281
     0
  0
CLASS
  1
LONG_TRANSACTION
  2
AcDbLongTransaction
  3
AutoCAD 2000
 90
    32768
280
     0
281
     0
  0
CLASS
  1
LWPOLYLINE
  2
AcDbPolyline
  3
AutoCAD 2000
 90
    32768
280
     0
281
     1
  0
CLASS
  1
HATCH
  2
AcDbHatch
  3
AutoCAD 2000
 90
    32768
280
     0
281
     1
  0
CLASS
  1
XRECORD
  2
AcDbXrecord
  3
AutoCAD 2000
 90
    32768
280
     0
281
     0
  0
CLASS
  1
LONG_TRANSACTION
  2
AcDbLongTransaction
  3
AutoCAD 2000
 90
    32768
280
     0
281
     0
  0
CLASS
  1
LWPOLYLINE
  2
AcDbPolyline
  3
AutoCAD 2000
 90
    32768
280
     0
281
     1
  0
CLASS
  1
HATCH
  2
AcDbHatch
  3
AutoCAD 2000
 90
    32768
280
     0
281
     1
  0
CLASS
  1
XRECORD
  2
AcDbXrecord
  3
AutoCAD 2000
 90
    32768
280
     0
281
     0
  0
CLASS
  1
LONG_TRANSACTION
  2
AcDbLongTransaction
  3
AutoCAD 2000
 90
    32768
280
     0
281
     0
  0
CLASS
  1
LWPOLYLINE
  2
AcDbPolyline
  3
AutoCAD 2000
 90
    32768
280
     0
281
     1
  0
CLASS
  1
HATCH
  2
AcDbHatch
  3
AutoCAD 2000
 90
    32768
280
     0
281
     1
  0
CLASS
  1
XRECORD
  2
AcDbXrecord
  3
AutoCAD 2000
 90
    32768
280
     0
281
     0
  0
CLASS
  1
LONG_TRANSACTION
  2
AcDbLongTransaction
  3
AutoCAD 2000
 90
    32768
280
     0
281
     0
  0
CLASS
  1
LWPOLYLINE
  2
AcDbPolyline
  3
AutoCAD 2000
 90
    32768
280
     0
281
     1
  0
CLASS
  1
HATCH
  2
AcDbHatch
  3
AutoCAD 2000
 90
    32768
280
     0
281
     1
  0
CLASS
  1
XRECORD
  2
AcDbXrecord
  3
AutoCAD 2000
 90
    32768
280
     0
281
     0
  0
CLASS
  1
LONG_TRANSACTION
  2
AcDbLongTransaction
  3
AutoCAD 2000
 90
    32768
280
     0
281
     0
  0
CLASS
  1
LWPOLYLINE
  2
AcDbPolyline
  3
AutoCAD 2000
 90
    32768
280
     0
281
     1
  0
CLASS
  1
HATCH
  2
AcDbHatch
  3
AutoCAD 2000
 90
    32768
280
     0
281
     1
  0
CLASS
  1
XRECORD
  2
AcDbXrecord
  3
AutoCAD 2000
 90
    32768
280
     0
281
     0
  0
CLASS
  1
LONG_TRANSACTION
  2
AcDbLongTransaction
  3
AutoCAD 2000
 90
    32768
280
     0
281
     0
  0
CLASS
  1
LWPOLYLINE
  2
AcDbPolyline
  3
AutoCAD 2000
 90
    32768
280
     0
281
     1
  0
CLASS
  1
HATCH
  2
AcDbHatch
  3
AutoCAD 2000
 90
    32768
280
     0
281
     1
  0
CLASS
  1
XRECORD
  2
AcDbXrecord
  3
AutoCAD 2000
 90
    32768
280
     0
281
     0
  0
CLASS
  1
LONG_TRANSACTION
  2
AcDbLongTransaction
  3
AutoCAD 2000
 90
    32768
280
     0
281
     0
  0
CLASS
  1
LWPOLYLINE
  2
AcDbPolyline
  3
AutoCAD 2000
 90
    32768
280
     0
281
     1
  0
CLASS
  1
HATCH
  2
AcDbHatch
  3
AutoCAD 2000
 90
    32768
280
     0
281
     1
  0
CLASS
  1
XRECORD
  2
AcDbXrecord
  3
AutoCAD 2000
 90
    32768
280
     0
281
     0
  0
CLASS
  1
LONG_TRANSACTION
  2
AcDbLongTransaction
  3
AutoCAD 2000
 90
    32768
280
     0
281
     0
  0
CLASS
  1
LWPOLYLINE
  2
AcDbPolyline
  3
AutoCAD 2000
 90
    32768
280
     0
281
     1
  0
CLASS
  1
HATCH
  2
AcDbHatch
  3
AutoCAD 2000
 90
    32768
280
     0
281
     1
  0
CLASS
  1
XRECORD
  2
AcDbXrecord
  3
AutoCAD 2000
 90
    32768
280
     0
281
     0
  0
CLASS
  1
LONG_TRANSACTION
  2
AcDbLongTransaction
  3
AutoCAD 2000
 90
    32768
280
     0
281
     0
  0
CLASS
  1
LWPOLYLINE
  2
AcDbPolyline
  3
AutoCAD 2000
 90
    32768
280
     0
281
     1
  0
CLASS
  1
HATCH
  2
AcDbHatch
  3
AutoCAD 2000
 90
    32768
280
     0
281
     1
  0
CLASS
  1
XRECORD
  2
AcDbXrecord
  3
AutoCAD 2000
 90
    32768
280
     0
281
     0
  0
CLASS
  1
LONG_TRANSACTION
  2
AcDbLongTransaction
  3
AutoCAD 2000
 90
    32768
280
     0
281
     0
  0
CLASS
  1
LWPOLYLINE
  2
AcDbPolyline
  3
AutoCAD 2000
 90
    32768
280
     0
281
     1
  0
CLASS
  1
HATCH
  2
AcDbHatch
  3
AutoCAD 2000
 90
    32768
280
     0
281
     1
  0
CLASS
  1
XRECORD
  2
AcDbXrecord
  3
AutoCAD 2000
 90
    32768
280
     0
281
     0
  0
CLASS
  1
LONG_TRANSACTION
  2
AcDbLongTransaction
  3
AutoCAD 2000
 90
    32768
280
     0
281
     0
  0
CLASS
  1
LWPOLYLINE
  2
AcDbPolyline
  3
AutoCAD 2000
 90
    32768
280
     0
281
     1
  0
CLASS
  1
HATCH
  2
AcDbHatch
  3
AutoCAD 2000
 90
    32768
280
     0
281
     1
  0
CLASS
  1
XRECORD
  2
AcDbXrecord
  3
AutoCAD 2000
 90
    32768
280
     0
281
     0
  0
CLASS
  1
LONG_TRANSACTION
  2
AcDbLongTransaction
  3
AutoCAD 2000
 90
    32768
280
     0
281
     0
  0
CLASS
  1
LWPOLYLINE
  2
AcDbPolyline
  3
AutoCAD 2000
 90
    32768
280
     0
281
     1
  0
CLASS
  1
HATCH
  2
AcDbHatch
  3
AutoCAD 2000
 90
    32768
280
     0
281
     1
  0
CLASS
  1
XRECORD
  2
AcDbXrecord
  3
AutoCAD 2000
 90
    32768
280
     0
281
     0
  0
CLASS
  1
LONG_TRANSACTION
  2
AcDbLongTransaction
  3
AutoCAD 2000
 90
    32768
280
     0
281
     0
  0
CLASS
  1
LWPOLYLINE
  2
AcDbPolyline
  3
AutoCAD 2000
 90
    32768
280
     0
281
     1
  0
CLASS
  1
HATCH
  2
AcDbHatch
  3
AutoCAD 2000
 90
    32768
280
     0
281
     1
  0
CLASS
  1
XRECORD
  2
AcDbXrecord
  3
AutoCAD 2000
 90
    32768
280
     0
281
     0
  0
CLASS
  1
LONG_TRANSACTION
  2
AcDbLongTransaction
  3
AutoCAD 2000
 90
    32768
280
     0
281
     0
  0
CLASS
  1
LWPOLYLINE
  2
AcDbPolyline
  3
AutoCAD 2000
 90
    32768
280
     0
281
     1
  0
CLASS
  1
HATCH
  2
AcDbHatch
  3
AutoCAD 2000
 90
    32768
280
     0
281
     1
  0
CLASS
  1
XRECORD
  2
AcDbXrecord
  3
AutoCAD 2000
 90
    32768
280
     0
281
     0
  0
CLASS
  1
LONG_TRANSACTION
  2
AcDbLongTransaction
  3
AutoCAD 2000
 90
    32768
280
     0
281
     0
  0
CLASS
  1
LWPOLYLINE
  2
AcDbPolyline
  3
AutoCAD 2000
 90
    32768
280
     0
281
     1
  0
CLASS
  1
HATCH
  2
AcDbHatch
  3
AutoCAD 2000
 90
    32768
280
     0
281
     1
  0
CLASS
  1
XRECORD
  2
AcDbXrecord
  3
AutoCAD 2000
 90
    32768
280
     0
281
     0
  0
CLASS
  1
LONG_TRANSACTION
  2
AcDbLongTransaction
  3
AutoCAD 2000
 90
    32768
280
     0
281
     0
  0
CLASS
  1
LWPOLYLINE
  2
AcDbPolyline
  3
AutoCAD 2000
 90
    32768
280
     0
281
     1
  0
CLASS
  1
HATCH
  2
AcDbHatch
  3
AutoCAD 2000
 90
    32768
280
     0
281
     1
  0
CLASS
  1
XRECORD
  2
AcDbXrecord
  3
AutoCAD 2000
 90
    32768
280
     0
281
     0
  0
CLASS
  1
LONG_TRANSACTION
  2
AcDbLongTransaction
  3
AutoCAD 2000
 90
    32768
280
     0
281
     0
  0
CLASS
  1
LWPOLYLINE
  2
AcDbPolyline
  3
AutoCAD 2000
 90
    32768
280
     0
281
     1
  0
CLASS
  1
HATCH
  2
AcDbHatch
  3
AutoCAD 2000
 90
    32768
280
     0
281
     1
  0
CLASS
  1
XRECORD
  2
AcDbXrecord
  3
AutoCAD 2000
 90
    32768
280
     0
281
     0
  0
CLASS
  1
LONG_TRANSACTION
  2
AcDbLongTransaction
  3
AutoCAD 2000
 90
    32768
280
     0
281
     0
  0
CLASS
  1
LWPOLYLINE
  2
AcDbPolyline
  3
AutoCAD 2000
 90
    32768
280
     0
281
     1
  0
CLASS
  1
HATCH
  2
AcDbHatch
  3
AutoCAD 2000
 90
    32768
280
     0
281
     1
  0
CLASS
  1
XRECORD
  2
AcDbXrecord
  3
AutoCAD 2000
 90
    32768
280
     0
281
     0
  0
CLASS
  1
LONG_TRANSACTION
  2
AcDbLongTransaction
  3
AutoCAD 2000
 90
    32768
280
     0
281
     0
  0
CLASS
  1
LWPOLYLINE
  2
AcDbPolyline
  3
AutoCAD 2000
 90
    32768
280
     0
281
     1
  0
CLASS
  1
HATCH
  2
AcDbHatch
  3
AutoCAD 2000
 90
    32768
280
     0
281
     1
  0
CLASS
  1
XRECORD
  2
AcDbXrecord
  3
AutoCAD 2000
 90
    32768
280
     0
281
     0
  0
CLASS
  1
LONG_TRANSACTION
  2
AcDbLongTransaction
  3
AutoCAD 2000
 90
    32768
280
     0
281
     0
  0
CLASS
  1
LWPOLYLINE
  2
AcDbPolyline
  3
AutoCAD 2000
 90
    32768
280
     0
281
     1
  0
CLASS
  1
HATCH
  2
AcDbHatch
  3
AutoCAD 2000
 90
    32768
280
     0
281
     1
  0
CLASS
  1
XRECORD
  2
AcDbXrecord
  3
AutoCAD 2000
 90
    32768
280
     0
281
     0
  0
CLASS
  1
LONG_TRANSACTION
  2
AcDbLongTransaction
  3
AutoCAD 2000
 90
    32768
280
     0
281
     0
  0
CLASS
  1
LWPOLYLINE
  2
AcDbPolyline
  3
AutoCAD 2000
 90
    32768
280
     0
281
     1
  0
CLASS
  1
HATCH
  2
AcDbHatch
  3
AutoCAD 2000
 90
    32768
280
     0
281
     1
  0
CLASS
  1
XRECORD
  2
AcDbXrecord
  3
AutoCAD 2000
 90
    32768
280
     0
281
     0
  0
CLASS
  1
LONG_TRANSACTION
  2
AcDbLongTransaction
  3
AutoCAD 2000
 90
    32768
280
     0
281
     0
  0
CLASS
  1
LWPOLYLINE
  2
AcDbPolyline
  3
AutoCAD 2000
 90
    32768
280
     0
281
     1
  0
CLASS
  1
HATCH
  2
AcDbHatch
  3
AutoCAD 2000
 90
    32768
280
     0
281
     1
  0
CLASS
  1
XRECORD
  2
AcDbXrecord
  3
AutoCAD 2000
 90
    32768
280
     0
281
     0
  0
CLASS
  1
LONG_TRANSACTION
  2
AcDbLongTransaction
  3
AutoCAD 2000
 90
    32768
280
     0
281
     0
  0
CLASS
  1
LWPOLYLINE
  2
AcDbPolyline
  3
AutoCAD 2000
 90
    32768
280
     0
281
     1
  0
CLASS
  1
HATCH
  2
AcDbHatch
  3
AutoCAD 2000
 90
    32768
280
     0
281
     1
  0
CLASS
  1
XRECORD
  2
AcDbXrecord
  3
AutoCAD 2000
 90
    32768
280
     0
281
     0
  0
CLASS
  1
LONG_TRANSACTION
  2
AcDbLongTransaction
  3
AutoCAD 2000
 90
    32768
280
     0
281
     0
  0
CLASS
  1
LWPOLYLINE
  2
AcDbPolyline
  3
AutoCAD 2000
 90
    32768
280
     0
281
     1
  0
CLASS
  1
HATCH
  2
AcDbHatch
  3
AutoCAD 2000
 90
    32768
280
     0
281
     1
  0
CLASS
  1
XRECORD
  2
AcDbXrecord
  3
AutoCAD 2000
 90
    32768
280
     0
281
     0
  0
CLASS
  1
LONG_TRANSACTION
  2
AcDbLongTransaction
  3
AutoCAD 2000
 90
    32768
280
     0
281
     0
  0
CLASS
  1
LWPOLYLINE
  2
AcDbPolyline
  3
AutoCAD 2000
 90
    32768
280
     0
281
     1
  0
CLASS
  1
HATCH
  2
AcDbHatch
  3
AutoCAD 2000
 90
    32768
280
     0
281
     1
  0
CLASS
  1
XRECORD
  2
AcDbXrecord
  3
AutoCAD 2000
 90
    32768
280
     0
281
     0
  0
CLASS
  1
LONG_TRANSACTION
  2
AcDbLongTransaction
  3
AutoCAD 2000
 90
    32768
280
     0
281
     0
  0
CLASS
  1
LWPOLYLINE
  2
AcDbPolyline
  3
AutoCAD 2000
 90
    32768
280
     0
281
     1
  0
CLASS
  1
HATCH
  2
AcDbHatch
  3
AutoCAD 2000
 90
    32768
280
     0
281
     1
  0
CLASS
  1
XRECORD
  2
AcDbXrecord
  3
AutoCAD 2000
 90
    32768
280
     0
281
     0
  0
CLASS
  1
LONG_TRANSACTION
  2
AcDbLongTransaction
  3
AutoCAD 2000
 90
    32768
280
     0
281
     0
  0
CLASS
  1
LWPOLYLINE
  2
AcDbPolyline
  3
AutoCAD 2000
 90
    32768
280
     0
281
     1
  0
CLASS
  1
HATCH
  2
AcDbHatch
  3
AutoCAD 2000
 90
    32768
280
     0
281
     1
  0
CLASS
  1
XRECORD
  2
AcDbXrecord
  3
AutoCAD 2000
 90
    32768
280
     0
281
     0
  0
CLASS
  1
LONG_TRANSACTION
  2
AcDbLongTransaction
  3
AutoCAD 2000
 90
    32768
280
     0
281
     0
  0
CLASS
  1
LWPOLYLINE
  2
AcDbPolyline
  3
AutoCAD 2000
 90
    32768
280
     0
281
     1
  0
CLASS
  1
HATCH
  2
AcDbHatch
  3
AutoCAD 2000
 90
    32768
280
     0
281
     1
  0
CLASS
  1
XRECORD
  2
AcDbXrecord
  3
AutoCAD 2000
 90
    32768
280
     0
281
     0
  0
CLASS
  1
LONG_TRANSACTION
  2
AcDbLongTransaction
  3
AutoCAD 2000
 90
    32768
280
     0
281
     0
  0
CLASS
  1
LWPOLYLINE
  2
AcDbPolyline
  3
AutoCAD 2000
 90
    32768
280
     0
281
     1
  0
CLASS
  1
HATCH
  2
AcDbHatch
  3
AutoCAD 2000
 90
    32768
280
     0
281
     1
  0
CLASS
  1
XRECORD
  2
AcDbXrecord
  3
AutoCAD 2000
 90
    32768
280
     0
281
     0
  0
CLASS
  1
LONG_TRANSACTION
  2
AcDbLongTransaction
  3
AutoCAD 2000
 90
    32768
280
     0
281
     0
  0
CLASS
  1
LWPOLYLINE
  2
AcDbPolyline
  3
AutoCAD 2000
 90
    32768
280
     0
281
     1
  0
CLASS
  1
HATCH
  2
AcDbHatch
  3
AutoCAD 2000
 90
    32768
280
     0
281
     1
  0
CLASS
  1
XRECORD
  2
AcDbXrecord
  3
AutoCAD 2000
 90
    32768
280
     0
281
     0
  0
CLASS
  1
LONG_TRANSACTION
  2
AcDbLongTransaction
  3
AutoCAD 2000
 90
    32768
280
     0
281
     0
  0
CLASS
  1
LWPOLYLINE
  2
AcDbPolyline
  3
AutoCAD 2000
 90
    32768
280
     0
281
     1
  0
CLASS
  1
HATCH
  2
AcDbHatch
  3
AutoCAD 2000
 90
    32768
280
     0
281
     1
  0
CLASS
  1
XRECORD
  2
AcDbXrecord
  3
AutoCAD 2000
 90
    32768
280
     0
281
     0
  0
CLASS
  1
LONG_TRANSACTION
  2
AcDbLongTransaction
  3
AutoCAD 2000
 90
    32768
280
     0
281
     0
  0
CLASS
  1
LWPOLYLINE
  2
AcDbPolyline
  3
AutoCAD 2000
 90
    32768
280
     0
281
     1
  0
CLASS
  1
HATCH
  2
AcDbHatch
  3
AutoCAD 2000
 90
    32768
280
     0
281
     1
  0
CLASS
  1
XRECORD
  2
AcDbXrecord
  3
AutoCAD 2000
 90
    32768
280
     0
281
     0
  0
CLASS
  1
LONG_TRANSACTION
  2
AcDbLongTransaction
  3
AutoCAD 2000
 90
    32768
280
     0
281
     0
  0
CLASS
  1
LWPOLYLINE
  2
AcDbPolyline
  3
AutoCAD 2000
 90
    32768
280
     0
281
     1
  0
CLASS
  1
HATCH
  2
AcDbHatch
  3
AutoCAD 2000
 90
    32768
280
     0
281
     1
  0
CLASS
  1
XRECORD
  2
AcDbXrecord
  3
AutoCAD 2000
 90
    32768
280
     0
281
     0
  0
CLASS
  1
LONG_TRANSACTION
  2
AcDbLongTransaction
  3
AutoCAD 2000
 90
    32768
280
     0
281
     0
  0
CLASS
  1
LWPOLYLINE
  2
AcDbPolyline
  3
AutoCAD 2000
 90
    32768
280
     0
281
     1
  0
CLASS
  1
HATCH
  2
AcDbHatch
  3
AutoCAD 2000
 90
    32768
280
     0
281
     1
  0
CLASS
  1
XRECORD
  2
AcDbXrecord
  3
AutoCAD 2000
 90
    32768
280
     0
281
     0
  0
CLASS
  1
LONG_TRANSACTION
  2
AcDbLongTransaction
  3
AutoCAD 2000
 90
    32768
280
     0
281
     0
  0
CLASS
  1
LWPOLYLINE
  2
AcDbPolyline
  3
AutoCAD 2000
 90
    32768
280
     0
281
     1
  0
CLASS
  1
HATCH
  2
AcDbHatch
  3
AutoCAD 2000
 90
    32768
280
     0
281
     1
  0
CLASS
  1
XRECORD
  2
AcDbXrecord
  3
AutoCAD 2000
 90
    32768
280
     0
281
     0
  0
CLASS
  1
LONG_TRANSACTION
  2
AcDbLongTransaction
  3
AutoCAD 2000
 90
    32768
280
     0
281
     0
  0
CLASS
  1
LWPOLYLINE
  2
AcDbPolyline
  3
AutoCAD 2000
 90
    32768
280
     0
281
     1
  0
CLASS
  1
HATCH
  2
AcDbHatch
  3
AutoCAD 2000
 90
    32768
280
     0
281
     1
  0
CLASS
  1
XRECORD
  2
AcDbXrecord
  3
AutoCAD 2000
 90
    32768
280
     0
281
     0
  0
CLASS
  1
LONG_TRANSACTION
  2
AcDbLongTransaction
  3
AutoCAD 2000
 90
    32768
280
     0
281
     0
  0
CLASS
  1
LWPOLYLINE
  2
AcDbPolyline
  3
AutoCAD 2000
 90
    32768
280
     0
281
     1
  0
CLASS
  1
HATCH
  2
AcDbHatch
  3
AutoCAD 2000
 90
    32768
280
     0
281
     1
  0
CLASS
  1
XRECORD
  2
AcDbXrecord
  3
AutoCAD 2000
 90
    32768
280
     0
281
     0
  0
CLASS
  1
LONG_TRANSACTION
  2
AcDbLongTransaction
  3
AutoCAD 2000
 90
    32768
280
     0
281
     0
  0
CLASS
  1
LWPOLYLINE
  2
AcDbPolyline
  3
AutoCAD 2000
 90
    32768
280
     0
281
     1
  0
CLASS
  1
HATCH
  2
AcDbHatch
  3
AutoCAD 2000
 90
    32768
280
     0
281
     1
  0
CLASS
  1
XRECORD
  2
AcDbXrecord
  3
AutoCAD 2000
 90
    32768
280
     0
281
     0
  0
CLASS
  1
LONG_TRANSACTION
  2
AcDbLongTransaction
  3
AutoCAD 2000
 90
    32768
280
     0
281
     0
  0
CLASS
  1
LWPOLYLINE
  2
AcDbPolyline
  3
AutoCAD 2000
 90
    32768
280
     0
281
     1
  0
CLASS
  1
HATCH
  2
AcDbHatch
  3
AutoCAD 2000
 90
    32768
280
     0
281
     1
  0
CLASS
  1
XRECORD
  2
AcDbXrecord
  3
AutoCAD 2000
 90
    32768
280
     0
281
     0
  0
CLASS
  1
LONG_TRANSACTION
  2
AcDbLongTransaction
  3
AutoCAD 2000
 90
    32768
280
     0
281
     0
  0
CLASS
  1
LWPOLYLINE
  2
AcDbPolyline
  3
AutoCAD 2000
 90
    32768
280
     0
281
     1
  0
CLASS
  1
HATCH
  2
AcDbHatch
  3
AutoCAD 2000
 90
    32768
280
     0
281
     1
  0
CLASS
  1
XRECORD
  2
AcDbXrecord
  3
AutoCAD 2000
 90
    32768
280
     0
281
     0
  0
CLASS
  1
LONG_TRANSACTION
  2
AcDbLongTransaction
  3
AutoCAD 2000
 90
    32768
280
     0
281
     0
  0
CLASS
  1
LWPOLYLINE
  2
AcDbPolyline
  3
AutoCAD 2000
 90
    32768
280
     0
281
     1
  0
CLASS
  1
HATCH
  2
AcDbHatch
  3
AutoCAD 2000
 90
    32768
280
     0
281
     1
  0
CLASS
  1
XRECORD
  2
AcDbXrecord
  3
AutoCAD 2000
 90
    32768
280
     0
281
     0
  0
CLASS
  1
LONG_TRANSACTION
  2
AcDbLongTransaction
  3
AutoCAD 2000
 90
    32768
280
     0
281
     0
  0
CLASS
  1
LWPOLYLINE
  2
AcDbPolyline
  3
AutoCAD 2000
 90
    32768
280
     0
281
     1
  0
CLASS
  1
HATCH
  2
AcDbHatch
  3
AutoCAD 2000
 90
    32768
280
     0
281
     1
  0
CLASS
  1
XRECORD
  2
AcDbXrecord
  3
AutoCAD 2000
 90
    32768
280
     0
281
     0
  0
CLASS
  1
LONG_TRANSACTION
  2
AcDbLongTransaction
  3
AutoCAD 2000
 90
    32768
280
     0
281
     0
  0
CLASS
  1
LWPOLYLINE
  2
AcDbPolyline
  3
AutoCAD 2000
 90
    32768
280
     0
281
     1
  0
CLASS
  1
HATCH
  2
AcDbHatch
  3
AutoCAD 2000
 90
    32768
280
     0
281
     1
  0
CLASS
  1
XRECORD
  2
AcDbXrecord
  3
AutoCAD 2000
 90
    32768
280
     0
281
     0
  0
CLASS
  1
LONG_TRANSACTION
  2
AcDbLongTransaction
  3
AutoCAD 2000
 90
    32768
280
     0
281
     0
  0
CLASS
  1
LWPOLYLINE
  2
AcDbPolyline
  3
AutoCAD 2000
 90
    32768
280
     0
281
     1
  0
CLASS
  1
HATCH
  2
AcDbHatch
  3
AutoCAD 2000
 90
    32768
280
     0
281
     1
  0
CLASS
  1
XRECORD
  2
AcDbXrecord
  3
AutoCAD 2000
 90
    32768
280
     0
281
     0
  0
CLASS
  1
LONG_TRANSACTION
  2
AcDbLongTransaction
  3
AutoCAD 2000
 90
    32768
280
     0
281
     0
  0
CLASS
  1
LWPOLYLINE
  2
AcDbPolyline
  3
AutoCAD 2000
 90
    32768
280
     0
281
     1
  0
CLASS
  1
HATCH
  2
AcDbHatch
  3
AutoCAD 2000
 90
    32768
280
     0
281
     1
  0
CLASS
  1
XRECORD
  2
AcDbXrecord
  3
AutoCAD 2000
 90
    32768
280
     0
281
     0
  0
CLASS
  1
LONG_TRANSACTION
  2
AcDbLongTransaction
  3
AutoCAD 2000
 90
    32768
280
     0
281
     0
  0
CLASS
  1
LWPOLYLINE
  2
AcDbPolyline
  3
AutoCAD 2000
 90
    32768
280
     0
281
     1
  0
CLASS
  1
HATCH
  2
AcDbHatch
  3
AutoCAD 2000
 90
    32768
280
     0
281
     1
  0
CLASS
  1
XRECORD
  2
AcDbXrecord
  3
AutoCAD 2000
 90
    32768
280
     0
281
     0
  0
CLASS
  1
LONG_TRANSACTION
  2
AcDbLongTransaction
  3
AutoCAD 2000
 90
    32768
280
     0
281
     0
  0
CLASS
  1
LWPOLYLINE
  2
AcDbPolyline
  3
AutoCAD 2000
 90
    32768
280
     0
281
     1
  0
CLASS
  1
HATCH
  2
AcDbHatch
  3
AutoCAD 2000
 90
    32768
280
     0
281
     1
  0
CLASS
  1
XRECORD
  2
AcDbXrecord
  3
AutoCAD 2000
 90
    32768
280
     0
281
     0
  0
CLASS
  1
LONG_TRANSACTION
  2
AcDbLongTransaction
  3
AutoCAD 2000
 90
    32768
280
     0
281
     0
  0
CLASS
  1
LWPOLYLINE
  2
AcDbPolyline
  3
AutoCAD 2000
 90
    32768
280
     0
281
     1
  0
CLASS
  1
HATCH
  2
AcDbHatch
  3
AutoCAD 2000
 90
    32768
280
     0
281
     1
  0
CLASS
  1
XRECORD
  2
AcDbXrecord
  3
AutoCAD 2000
 90
    32768
280
     0
281
     0
  0
CLASS
  1
LONG_TRANSACTION
  2
AcDbLongTransaction
  3
AutoCAD 2000
 90
    32768
280
     0
281
     0
  0
CLASS
  1
LWPOLYLINE
  2
AcDbPolyline
  3
AutoCAD 2000
 90
    32768
280
     0
281
     1
  0
CLASS
  1
HATCH
  2
AcDbHatch
  3
AutoCAD 2000
 90
    32768
280
     0
281
     1
  0
CLASS
  1
XRECORD
  2
AcDbXrecord
  3
AutoCAD 2000
 90
    32768
280
     0
281
     0
  0
CLASS
  1
LONG_TRANSACTION
  2
AcDbLongTransaction
  3
AutoCAD 2000
 90
    32768
280
     0
281
     0
  0
CLASS
  1
LWPOLYLINE
  2
AcDbPolyline
  3
AutoCAD 2000
 90
    32768
280
     0
281
     1
  0
CLASS
  1
HATCH
  2
AcDbHatch
  3
AutoCAD 2000
 90
    32768
280
     0
281
     1
  0
CLASS
  1
XRECORD
  2
AcDbXrecord
  3
AutoCAD 2000
 90
    32768
280
     0
281
     0
  0
CLASS
  1
LONG_TRANSACTION
  2
AcDbLongTransaction
  3
AutoCAD 2000
 90
    32768
280
     0
281
     0
  0
CLASS
  1
LWPOLYLINE
  2
AcDbPolyline
  3
AutoCAD 2000
 90
    32768
280
     0
281
     1
  0
CLASS
  1
HATCH
  2
AcDbHatch
  3
AutoCAD 2000
 90
    32768
280
     0
281
     1
  0
CLASS
  1
XRECORD
  2
AcDbXrecord
  3
AutoCAD 2000
 90
    32768
280
     0
281
     0
  0
CLASS
  1
LONG_TRANSACTION
  2
AcDbLongTransaction
  3
AutoCAD 2000
 90
    32768
280
     0
281
     0
  0
CLASS
  1
LWPOLYLINE
  2
AcDbPolyline
  3
AutoCAD 2000
 90
    32768
280
     0
281
     1
  0
CLASS
  1
HATCH
  2
AcDbHatch
  3
AutoCAD 2000
 90
    32768
280
     0
281
     1
  0
CLASS
  1
XRECORD
  2
AcDbXrecord
  3
AutoCAD 2000
 90
    32768
280
     0
281
     0
  0
CLASS
  1
LONG_TRANSACTION
  2
AcDbLongTransaction
  3
AutoCAD 2000
 90
    32768
280
     0
281
     0
  0
CLASS
  1
LWPOLYLINE
  2
AcDbPolyline
  3
AutoCAD 2000
 90
    32768
280
     0
281
     1
  0
CLASS
  1
HATCH
  2
AcDbHatch
  3
AutoCAD 2000
 90
    32768
280
     0
281
     1
  0
CLASS
  1
XRECORD
  2
AcDbXrecord
  3
AutoCAD 2000
 90
    32768
280
     0
281
     0
  0
CLASS
  1
LONG_TRANSACTION
  2
AcDbLongTransaction
  3
AutoCAD 2000
 90
    32768
280
     0
281
     0
  0
CLASS
  1
LWPOLYLINE
  2
AcDbPolyline
  3
AutoCAD 2000
 90
    32768
280
     0
281
     1
  0
CLASS
  1
HATCH
  2
AcDbHatch
  3
AutoCAD 2000
 90
    32768
280
     0
281
     1
  0
CLASS
  1
XRECORD
  2
AcDbXrecord
  3
AutoCAD 2000
 90
    32768
280
     0
281
     0
  0
CLASS
  1
LONG_TRANSACTION
  2
AcDbLongTransaction
  3
AutoCAD 2000
 90
    32768
280
     0
281
     0
  0
CLASS
  1
LWPOLYLINE
  2
AcDbPolyline
  3
AutoCAD 2000
 90
    32768
280
     0
281
     1
  0
CLASS
  1
HATCH
  2
AcDbHatch
  3
AutoCAD 2000
 90
    32768
280
     0
281
     1
  0
CLASS
  1
XRECORD
  2
AcDbXrecord
  3
AutoCAD 2000
 90
    32768
280
     0
281
     0
  0
CLASS
  1
LONG_TRANSACTION
  2
AcDbLongTransaction
  3
AutoCAD 2000
 90
    32768
280
     0
281
     0
  0
CLASS
  1
LWPOLYLINE
  2
AcDbPolyline
  3
AutoCAD 2000
 90
    32768
280
     0
281
     1
  0
CLASS
  1
HATCH
  2
AcDbHatch
  3
AutoCAD 2000
 90
    32768
280
     0
281
     1
  0
CLASS
  1
XRECORD
  2
AcDbXrecord
  3
AutoCAD 2000
 90
    32768
280
     0
281
     0
  0
CLASS
  1
LONG_TRANSACTION
  2
AcDbLongTransaction
  3
AutoCAD 2000
 90
    32768
280
     0
281
     0
  0
CLASS
  1
LWPOLYLINE
  2
AcDbPolyline
  3
AutoCAD 2000
 90
    32768
280
     0
281
     1
  0
CLASS
  1
HATCH
  2
AcDbHatch
  3
AutoCAD 2000
 90
    32768
280
     0
281
     1
  0
CLASS
  1
XRECORD
  2
AcDbXrecord
  3
AutoCAD 2000
 90
    32768
280
     0
281
     0
  0
CLASS
  1
LONG_TRANSACTION
  2
AcDbLongTransaction
  3
AutoCAD 2000
 90
    32768
280
     0
281
     0
  0
CLASS
  1
LWPOLYLINE
  2
AcDbPolyline
  3
AutoCAD 2000
 90
    32768
280
     0
281
     1
  0
CLASS
  1
HATCH
  2
AcDbHatch
  3
AutoCAD 2000
 90
    32768
280
     0
281
     1
  0
CLASS
  1
XRECORD
  2
AcDbXrecord
  3
AutoCAD 2000
 90
    32768
280
     0
281
     0
  0
CLASS
  1
LONG_TRANSACTION
  2
AcDbLongTransaction
  3
AutoCAD 2000
 90
    32768
280
     0
281
     0
  0
CLASS
  1
LWPOLYLINE
  2
AcDbPolyline
  3
AutoCAD 2000
 90
    32768
280
     0
281
     1
  0
CLASS
  1
HATCH
  2
AcDbHatch
  3
AutoCAD 2000
 90
    32768
280
     0
281
     1
  0
CLASS
  1
XRECORD
  2
AcDbXrecord
  3
AutoCAD 2000
 90
    32768
280
     0
281
     0
  0
CLASS
  1
LONG_TRANSACTION
  2
AcDbLongTransaction
  3
AutoCAD 2000
 90
    32768
280
     0
281
     0
  0
CLASS
  1
LWPOLYLINE
  2
AcDbPolyline
  3
AutoCAD 2000
 90
    32768
280
     0
281
     1
  0
CLASS
  1
HATCH
  2
AcDbHatch
  3
AutoCAD 2000
 90
    32768
280
     0
281
     1
  0
CLASS
  1
XRECORD
  2
AcDbXrecord
  3
AutoCAD 2000
 90
    32768
280
     0
281
     0
  0
CLASS
  1
LONG_TRANSACTION
  2
AcDbLongTransaction
  3
AutoCAD 2000
 90
    32768
280
     0
281
     0
  0
CLASS
  1
LWPOLYLINE
  2
AcDbPolyline
  3
AutoCAD 2000
 90
    32768
280
     0
281
     1
  0
CLASS
  1
HATCH
  2
AcDbHatch
  3
AutoCAD 2000
 90
    32768
280
     0
281
     1
  0
CLASS
  1
XRECORD
  2
AcDbXrecord
  3
AutoCAD 2000
 90
    32768
280
     0
281
     0
  0
CLASS
  1
LONG_TRANSACTION
  2
AcDbLongTransaction
  3
AutoCAD 2000
 90
    32768
280
     0
281
     0
  0
CLASS
  1
LWPOLYLINE
  2
AcDbPolyline
  3
AutoCAD 2000
 90
    32768
280
     0
281
     1
  0
CLASS
  1
HATCH
  2
AcDbHatch
  3
AutoCAD 2000
 90
    32768
280
     0
281
     1
  0
CLASS
  1
XRECORD
  2
AcDbXrecord
  3
AutoCAD 2000
 90
    32768
280
     0
281
     0
  0
CLASS
  1
LONG_TRANSACTION
  2
AcDbLongTransaction
  3
AutoCAD 2000
 90
    32768
280
     0
281
     0
  0
CLASS
  1
LWPOLYLINE
  2
AcDbPolyline
  3
AutoCAD 2000
 90
    32768
280
     0
281
     1
  0
CLASS
  1
HATCH
  2
AcDbHatch
  3
AutoCAD 2000
 90
    32768
280
     0
281
     1
  0
CLASS
  1
XRECORD
  2
AcDbXrecord
  3
AutoCAD 2000
 90
    32768
280
     0
281
     0
  0
CLASS
  1
LONG_TRANSACTION
  2
AcDbLongTransaction
  3
AutoCAD 2000
 90
    32768
280
     0
281
     0
  0
CLASS
  1
LWPOLYLINE
  2
AcDbPolyline
  3
AutoCAD 2000
 90
    32768
280
     0
281
     1
  0
CLASS
  1
HATCH
  2
AcDbHatch
  3
AutoCAD 2000
 90
    32768
280
     0
281
     1
  0
CLASS
  1
XRECORD
  2
AcDbXrecord
  3
AutoCAD 2000
 90
    32768
280
     0
281
     0
  0
CLASS
  1
LONG_TRANSACTION
  2
AcDbLongTransaction
  3
AutoCAD 2000
 90
    32768
280
     0
281
     0
  0
CLASS
  1
LWPOLYLINE
  2
AcDbPolyline
  3
AutoCAD 2000
 90
    32768
280
     0
281
     1
  0
CLASS
  1
HATCH
  2
AcDbHatch
  3
AutoCAD 2000
 90
    32768
280
     0
281
     1
  0
CLASS
  1
XRECORD
  2
AcDbXrecord
  3
AutoCAD 2000
 90
    32768
280
     0
281
     0
  0
CLASS
  1
LONG_TRANSACTION
  2
AcDbLongTransaction
  3
AutoCAD 2000
 90
    32768
280
     0
281
     0
  0
CLASS
  1
LWPOLYLINE
  2
AcDbPolyline
  3
AutoCAD 2000
 90
    32768
280
     0
281
     1
  0
CLASS
  1
HATCH
  2
AcDbHatch
  3
AutoCAD 2000
 90
    32768
280
     0
281
     1
  0
CLASS
  1
XRECORD
  2
AcDbXrecord
  3
AutoCAD 2000
 90
    32768
280
     0
281
     0
  0
CLASS
  1
LONG_TRANSACTION
  2
AcDbLongTransaction
  3
AutoCAD 2000
 90
    32768
280
     0
281
     0
  0
CLASS
  1
LWPOLYLINE
  2
AcDbPolyline
  3
AutoCAD 2000
 90
    32768
280
     0
281
     1
  0
CLASS
  1
HATCH
  2
AcDbHatch
  3
AutoCAD 2000
 90
    32768
280
     0
281
     1
  0
CLASS
  1
XRECORD
  2
AcDbXrecord
  3
AutoCAD 2000
 90
    32768
280
     0
281
     0
  0
CLASS
  1
LONG_TRANSACTION
  2
AcDbLongTransaction
  3
AutoCAD 2000
 90
    32768
280
     0
281
     0
  0
CLASS
  1
LWPOLYLINE
  2
AcDbPolyline
  3
AutoCAD 2000
 90
    32768
280
     0
281
     1
  0
CLASS
  1
HATCH
  2
AcDbHatch
  3
AutoCAD 2000
 90
    32768
280
     0
281
     1
  0
CLASS
  1
XRECORD
  2
AcDbXrecord
  3
AutoCAD 2000
 90
    32768
280
     0
281
     0
  0
CLASS
  1
LONG_TRANSACTION
  2
AcDbLongTransaction
  3
AutoCAD 2000
 90
    32768
280
     0
281
     0
  0
CLASS
  1
LWPOLYLINE
  2
AcDbPolyline
  3
AutoCAD 2000
 90
    32768
280
     0
281
     1
  0
CLASS
  1
HATCH
  2
AcDbHatch
  3
AutoCAD 2000
 90
    32768
280
     0
281
     1
  0
CLASS
  1
XRECORD
  2
AcDbXrecord
  3
AutoCAD 2000
 90
    32768
280
     0
281
     0
  0
CLASS
  1
LONG_TRANSACTION
  2
AcDbLongTransaction
  3
AutoCAD 2000
 90
    32768
280
     0
281
     0
  0
CLASS
  1
LWPOLYLINE
  2
AcDbPolyline
  3
AutoCAD 2000
 90
    32768
280
     0
281
     1
  0
CLASS
  1
HATCH
  2
AcDbHatch
  3
AutoCAD 2000
 90
    32768
280
     0
281
     1
  0
CLASS
  1
XRECORD
  2
AcDbXrecord
  3
AutoCAD 2000
 90
    32768
280
     0
281
     0
  0
CLASS
  1
LONG_TRANSACTION
  2
AcDbLongTransaction
  3
AutoCAD 2000
 90
    32768
280
     0
281
     0
  0
CLASS
  1
LWPOLYLINE
  2
AcDbPolyline
  3
AutoCAD 2000
 90
    32768
280
     0
281
     1
  0
CLASS
  1
HATCH
  2
AcDbHatch
  3
AutoCAD 2000
 90
    32768
280
     0
281
     1
  0
CLASS
  1
XRECORD
  2
AcDbXrecord
  3
AutoCAD 2000
 90
    32768
280
     0
281
     0
  0
CLASS
  1
LONG_TRANSACTION
  2
AcDbLongTransaction
  3
AutoCAD 2000
 90
    32768
280
     0
281
     0
  0
CLASS
  1
LWPOLYLINE
  2
AcDbPolyline
  3
AutoCAD 2000
 90
    32768
280
     0
281
     1
  0
CLASS
  1
HATCH
  2
AcDbHatch
  3
AutoCAD 2000
 90
    32768
280
     0
281
     1
  0
CLASS
  1
XRECORD
  2
AcDbXrecord
  3
AutoCAD 2000
 90
    32768
280
     0
281
     0
  0
CLASS
  1
LONG_TRANSACTION
  2
AcDbLongTransaction
  3
AutoCAD 2000
 90
    32768
280
     0
281
     0
  0
CLASS
  1
LWPOLYLINE
  2
AcDbPolyline
  3
AutoCAD 2000
 90
    32768
280
     0
281
     1
  0
CLASS
  1
HATCH
  2
AcDbHatch
  3
AutoCAD 2000
 90
    32768
280
     0
281
     1
  0
CLASS
  1
XRECORD
  2
AcDbXrecord
  3
AutoCAD 2000
 90
    32768
280
     0
281
     0
  0
CLASS
  1
LONG_TRANSACTION
  2
AcDbLongTransaction
  3
AutoCAD 2000
 90
    32768
280
     0
281
     0
  0
CLASS
  1
LWPOLYLINE
  2
AcDbPolyline
  3
AutoCAD 2000
 90
    32768
280
     0
281
     1
  0
CLASS
  1
HATCH
  2
AcDbHatch
  3
AutoCAD 2000
 90
    32768
280
     0
281
     1
  0
CLASS
  1
XRECORD
  2
AcDbXrecord
  3
AutoCAD 2000
 90
    32768
280
     0
281
     0
  0
CLASS
  1
LONG_TRANSACTION
  2
AcDbLongTransaction
  3
AutoCAD 2000
 90
    32768
280
     0
281
     0
  0
CLASS
  1
LWPOLYLINE
  2
AcDbPolyline
  3
AutoCAD 2000
 90
    32768
280
     0
281
     1
  0
CLASS
  1
HATCH
  2
AcDbHatch
  3
AutoCAD 2000
 90
    32768
280
     0
281
     1
  0
CLASS
  1
XRECORD
  2
AcDbXrecord
  3
AutoCAD 2000
 90
    32768
280
     0
281
     0
  0
CLASS
  1
LONG_TRANSACTION
  2
AcDbLongTransaction
  3
AutoCAD 2000
 90
    32768
280
     0
281
     0
  0
CLASS
  1
LWPOLYLINE
  2
AcDbPolyline
  3
AutoCAD 2000
 90
    32768
280
     0
281
     1
  0
CLASS
  1
HATCH
  2
AcDbHatch
  3
AutoCAD 2000
 90
    32768
280
     0
281
     1
  0
CLASS
  1
XRECORD
  2
AcDbXrecord
  3
AutoCAD 2000
 90
    32768
280
     0
281
     0
  0
CLASS
  1
LONG_TRANSACTION
  2
AcDbLongTransaction
  3
AutoCAD 2000
 90
    32768
280
     0
281
     0
  0
CLASS
  1
LWPOLYLINE
  2
AcDbPolyline
  3
AutoCAD 2000
 90
    32768
280
     0
281
     1
  0
CLASS
  1
HATCH
  2
AcDbHatch
  3
AutoCAD 2000
 90
    32768
280
     0
281
     1
  0
CLASS
  1
XRECORD
  2
AcDbXrecord
  3
AutoCAD 2000
 90
    32768
280
     0
281
     0
  0
CLASS
  1
LONG_TRANSACTION
  2
AcDbLongTransaction
  3
AutoCAD 2000
 90
    32768
280
     0
281
     0
  0
CLASS
  1
LWPOLYLINE
  2
AcDbPolyline
  3
AutoCAD 2000
 90
    32768
280
     0
281
     1
  0
CLASS
  1
HATCH
  2
AcDbHatch
  3
AutoCAD 2000
 90
    32768
280
     0
281
     1
  0
CLASS
  1
XRECORD
  2
AcDbXrecord
  3
AutoCAD 2000
 90
    32768
280
     0
281
     0
  0
CLASS
  1
LONG_TRANSACTION
  2
AcDbLongTransaction
  3
AutoCAD 2000
 90
    32768
280
     0
281
     0
  0
CLASS
  1
LWPOLYLINE
  2
AcDbPolyline
  3
AutoCAD 2000
 90
    32768
280
     0
281
     1
  0
CLASS
  1
HATCH
  2
AcDbHatch
  3
AutoCAD 2000
 90
    32768
280
     0
281
     1
  0
CLASS
  1
XRECORD
  2
AcDbXrecord
  3
AutoCAD 2000
 90
    32768
280
     0
281
     0
  0
CLASS
  1
LONG_TRANSACTION
  2
AcDbLongTransaction
  3
AutoCAD 2000
 90
    32768
280
     0
281
     0
  0
CLASS
  1
LWPOLYLINE
  2
AcDbPolyline
  3
AutoCAD 2000
 90
    32768
280
     0
281
     1
  0
CLASS
  1
HATCH
  2
AcDbHatch
  3
AutoCAD 2000
 90
    32768
280
     0
281
     1
  0
CLASS
  1
XRECORD
  2
AcDbXrecord
  3
AutoCAD 2000
 90
    32768
280
     0
281
     0
  0
CLASS
  1
LONG_TRANSACTION
  2
AcDbLongTransaction
  3
AutoCAD 2000
 90
    32768
280
     0
281
     0
  0
CLASS
  1
LWPOLYLINE
  2
AcDbPolyline
  3
AutoCAD 2000
 90
    32768
280
     0
281
     1
  0
CLASS
  1
HATCH
  2
AcDbHatch
  3
AutoCAD 2000
 90
    32768
280
     0
281
     1
  0
CLASS
  1
XRECORD
  2
AcDbXrecord
  3
AutoCAD 2000
 90
    32768
280
     0
281
     0
  0
CLASS
  1
LONG_TRANSACTION
  2
AcDbLongTransaction
  3
AutoCAD 2000
 90
    32768
280
     0
281
     0
  0
CLASS
  1
LWPOLYLINE
  2
AcDbPolyline
  3
AutoCAD 2000
 90
    32768
280
     0
281
     1
  0
CLASS
  1
HATCH
  2
AcDbHatch
  3
AutoCAD 2000
 90
    32768
280
     0
281
     1
  0
CLASS
  1
XRECORD
  2
AcDbXrecord
  3
AutoCAD 2000
 90
    32768
280
     0
281
     0
  0
CLASS
  1
LONG_TRANSACTION
  2
AcDbLongTransaction
  3
AutoCAD 2000
 90
    32768
280
     0
281
     0
  0
CLASS
  1
LWPOLYLINE
  2
AcDbPolyline
  3
AutoCAD 2000
 90
    32768
280
     0
281
     1
  0
CLASS
  1
HATCH
  2
AcDbHatch
  3
AutoCAD 2000
 90
    32768
280
     0
281
     1
  0
CLASS
  1
XRECORD
  2
AcDbXrecord
  3
AutoCAD 2000
 90
    32768
280
     0
281
     0
  0
CLASS
  1
LONG_TRANSACTION
  2
AcDbLongTransaction
  3
AutoCAD 2000
 90
    32768
280
     0
281
     0
  0
CLASS
  1
LWPOLYLINE
  2
AcDbPolyline
  3
AutoCAD 2000
 90
    32768
280
     0
281
     1
  0
CLASS
  1
HATCH
  2
AcDbHatch
  3
AutoCAD 2000
 90
    32768
280
     0
281
     1
  0
CLASS
  1
XRECORD
  2
AcDbXrecord
  3
AutoCAD 2000
 90
    32768
280
     0
281
     0
  0
CLASS
  1
LONG_TRANSACTION
  2
AcDbLongTransaction
  3
AutoCAD 2000
 90
    32768
280
     0
281
     0
  0
CLASS
  1
LWPOLYLINE
  2
AcDbPolyline
  3
AutoCAD 2000
 90
    32768
280
     0
281
     1
  0
CLASS
  1
HATCH
  2
AcDbHatch
  3
AutoCAD 2000
 90
    32768
280
     0
281
     1
  0
CLASS
  1
XRECORD
  2
AcDbXrecord
  3
AutoCAD 2000
 90
    32768
280
     0
281
     0
  0
CLASS
  1
LONG_TRANSACTION
  2
AcDbLongTransaction
  3
AutoCAD 2000
 90
    32768
280
     0
281
     0
  0
CLASS
  1
LWPOLYLINE
  2
AcDbPolyline
  3
AutoCAD 2000
 90
    32768
280
     0
281
     1
  0
CLASS
  1
HATCH
  2
AcDbHatch
  3
AutoCAD 2000
 90
    32768
280
     0
281
     1
  0
CLASS
  1
XRECORD
  2
AcDbXrecord
  3
AutoCAD 2000
 90
    32768
280
     0
281
     0
  0
ENDSEC
  0
SECTION
  2
TABLES
  0
TABLE
  2
VPORT
  5
90
330
0
100
AcDbSymbolTable
 70
     2
  0
VPORT
  5
386
330
90
100
AcDbSymbolTableRecord
100
AcDbViewportTableRecord
  2
*ACTIVE
 70
     0
 10
0.0
 20
0.0
 11
1.0
 21
1.0
 12
210.0
 22
140.0721719679368
 13
0.0
 23
0.0
 14
10.0
 24
10.0
 15
10.0
 25
10.0
 16
0.0
 26
0.0
 36
1.0
 17
0.0
 27
0.0
 37
0.0
 40
316.2363563629693
 41
1.549367088607595
 42
50.0
 43
0.0
 44
0.0
 50
0.0
 51
0.0
 71
     0
 72
 10000
 73
     1
 74
     3
 75
     0
 76
     0
 77
     0
 78
     1
  0
ENDTAB
  0
TABLE
  2
LTYPE
  5
8B
330
0
100
AcDbSymbolTable
 70
     2
  0
LTYPE
  5
8C
330
8B
100
AcDbSymbolTableRecord
100
AcDbLinetypeTableRecord
  2
BYBLOCK
 70
     0
  3

 72
    65
 73
     0
 40
0.0
  0
LTYPE
  5
8D
330
8B
100
AcDbSymbolTableRecord
100
AcDbLinetypeTableRecord
  2
BYLAYER
 70
     0
  3

 72
    65
 73
     0
 40
0.0
  0
LTYPE
  5
9
330
8B
100
AcDbSymbolTableRecord
100
AcDbLinetypeTableRecord
  2
CONTINUOUS
 70
     0
  3
Solid line
 72
    65
 73
     0
 40
0.0
  0
LTYPE
  5
CD
330
8B
100
AcDbSymbolTableRecord
100
AcDbLinetypeTableRecord
  2
CENTER
 70
     0
  3
Center ____ _ ____ _ ____ _ ____ _ ____ _ ____
 72
    65
 73
     4
 40
50.8
 49
31.75
 74
     0
 49
-6.349999999999998
 74
     0
 49
6.349999999999998
 74
     0
 49
-6.349999999999998
 74
     0
  0
ENDTAB
  0
TABLE
  2
LAYER
  5
12
102
{ACAD_XDICTIONARY
360
13
102
}
330
0
100
AcDbSymbolTable
 70
     6
  0
LAYER
  5
5
330
12
100
AcDbSymbolTableRecord
100
AcDbLayerTableRecord
  2
0
 70
     0
 62
     7
  6
CONTINUOUS
  0
LAYER
  5
16D
330
12
100
AcDbSymbolTableRecord
100
AcDbLayerTableRecord
  2
3
 70
     0
 62
     3
  6
CONTINUOUS
  0
LAYER
  5
AF
330
12
100
AcDbSymbolTableRecord
100
AcDbLayerTableRecord
  2
DEFPOINTS
 70
     0
 62
     7
  6
CONTINUOUS
  0
LAYER
  5
9C
330
12
100
AcDbSymbolTableRecord
100
AcDbLayerTableRecord
  2
DIM
 70
     0
 62
     3
  6
CONTINUOUS
  0
LAYER
  5
CC
330
12
100
AcDbSymbolTableRecord
100
AcDbLayerTableRecord
  2
CEN
 70
     0
 62
     1
  6
CENTER
  0
LAYER
  5
167
330
12
100
AcDbSymbolTableRecord
100
AcDbLayerTableRecord
  2
2
 70
     0
 62
     2
  6
CONTINUOUS
  0
ENDTAB
  0
TABLE
  2
STYLE
  5
88
330
0
100
AcDbSymbolTable
 70
     1
  0
STYLE
  5
89
330
88
100
AcDbSymbolTableRecord
100
AcDbTextStyleTableRecord
  2
STANDARD
 70
     0
 40
0.0
 41
1.0
 50
0.0
 71
     0
 42
5.777225951253058
  3
romans.shx
  4
whgtxt.shx
  0
ENDTAB
  0
TABLE
  2
VIEW
  5
8E
330
0
100
AcDbSymbolTable
 70
     0
  0
ENDTAB
  0
TABLE
  2
UCS
  5
8F
330
0
100
AcDbSymbolTable
 70
     0
  0
ENDTAB
  0
TABLE
  2
APPID
  5
92
330
0
100
AcDbSymbolTable
 70
     2
  0
APPID
  5
93
330
92
100
AcDbSymbolTableRecord
100
AcDbRegAppTableRecord
  2
ACAD
 70
     0
  0
APPID
  5
39F
330
92
100
AcDbSymbolTableRecord
100
AcDbRegAppTableRecord
  2
CONTENTBLOCKICON
 70
     0
  0
ENDTAB
  0
TABLE
  2
DIMSTYLE
  5
94
330
0
100
AcDbSymbolTable
 70
     2
  0
DIMSTYLE
105
A3
102
{ACAD_REACTORS
330
F1
330
D0
330
1B5
330
1A6
330
199
330
A4
330
E1
330
23B
330
22C
330
21D
330
210
330
297
330
18A
330
26B
330
B9
330
17D
330
16E
330
281
102
}
330
94
100
AcDbSymbolTableRecord
100
AcDbDimStyleTableRecord
  2
STANDARD
 70
     0
  3

  4

  5

  6

  7

 40
1.0
 41
2.5
 42
1.0
 43
10.0
 44
0.6
 45
0.0
 46
0.0
 47
0.0
 48
0.0
140
3.0
141
0.09
142
0.0
143
25.4
144
1.0
145
0.0
146
1.0
147
1.0
 71
     0
 72
     0
 73
     0
 74
     0
 75
     0
 76
     0
 77
     1
 78
     8
170
     0
171
     2
172
     1
173
     0
174
     1
175
     0
176
   123
177
   123
178
     3
270
     2
271
     2
272
     2
273
     2
274
     2
340
89
275
     1
280
     0
281
     0
282
     0
283
     1
284
     0
285
     0
286
     0
287
     0
288
     1
  0
DIMSTYLE
105
95
330
94
100
AcDbSymbolTableRecord
100
AcDbDimStyleTableRecord
  2
1_1_2
 70
     0
  3

  4

  5

  6

  7

 40
1.0
 41
3.0
 42
1.0
 43
10.0
 44
0.6
 45
0.0
 46
0.0
 47
0.0
 48
0.0
140
3.5
141
0.09
142
0.0
143
25.4
144
1.0
145
0.0
146
1.0
147
1.0
 71
     0
 72
     0
 73
     0
 74
     0
 75
     0
 76
     0
 77
     1
 78
     8
170
     0
171
     2
172
     1
173
     0
174
     1
175
     0
176
   123
177
   123
178
     3
270
     2
271
     2
272
     2
273
     2
274
     2
340
89
275
     1
280
     0
281
     0
282
     0
283
     1
284
     0
285
     0
286
     0
287
     0
288
     1
  0
ENDTAB
  0
TABLE
  2
BLOCK_RECORD
  5
1
330
0
100
AcDbSymbolTable
 70
    36
  0
BLOCK_RECORD
  5
2
102
{ACAD_XDICTIONARY
360
3
102
}
330
1
100
AcDbSymbolTableRecord
100
AcDbBlockTableRecord
  2
*MODEL_SPACE
  0
BLOCK_RECORD
  5
D
102
{ACAD_XDICTIONARY
360
E
102
}
330
1
100
AcDbSymbolTableRecord
100
AcDbBlockTableRecord
  2
*PAPER_SPACE
  0
BLOCK_RECORD
  5
F4
330
1
100
AcDbSymbolTableRecord
100
AcDbBlockTableRecord
  2
*D0
  0
BLOCK_RECORD
  5
F0
330
1
100
AcDbSymbolTableRecord
100
AcDbBlockTableRecord
  2
3
1001
ACAD
1000
DesignCenter Data
1002
{
1070
     1
1070
     4
1002
}
1001
CONTENTBLOCKICON
1071
        0
1004
2800000020000000200000000100080000000000000400000000000000000000000000000000000000000000000080000080000000808000800000008000800080800000C0C0C000C0DCC000F0CAA6000020400000206000002080000020A0000020C0000020E00000400000004020000040400000406000004080000040A0
1004
000040C0000040E00000600000006020000060400000606000006080000060A0000060C0000060E00000800000008020000080400000806000008080000080A0000080C0000080E00000A0000000A0200000A0400000A0600000A0800000A0A00000A0C00000A0E00000C0000000C0200000C0400000C0600000C0800000C0
1004
A00000C0C00000C0E00000E0000000E0200000E0400000E0600000E0800000E0A00000E0C00000E0E00040000000400020004000400040006000400080004000A0004000C0004000E00040200000402020004020400040206000402080004020A0004020C0004020E000404000004040200040404000404060004040800040
1004
40A0004040C0004040E00040600000406020004060400040606000406080004060A0004060C0004060E00040800000408020004080400040806000408080004080A0004080C0004080E00040A0000040A0200040A0400040A0600040A0800040A0A00040A0C00040A0E00040C0000040C0200040C0400040C0600040C08000
1004
40C0A00040C0C00040C0E00040E0000040E0200040E0400040E0600040E0800040E0A00040E0C00040E0E00080000000800020008000400080006000800080008000A0008000C0008000E00080200000802020008020400080206000802080008020A0008020C0008020E00080400000804020008040400080406000804080
1004
008040A0008040C0008040E00080600000806020008060400080606000806080008060A0008060C0008060E00080800000808020008080400080806000808080008080A0008080C0008080E00080A0000080A0200080A0400080A0600080A0800080A0A00080A0C00080A0E00080C0000080C0200080C0400080C0600080C0
1004
800080C0A00080C0C00080C0E00080E0000080E0200080E0400080E0600080E0800080E0A00080E0C00080E0E000C0000000C0002000C0004000C0006000C0008000C000A000C000C000C000E000C0200000C0202000C0204000C0206000C0208000C020A000C020C000C020E000C0400000C0402000C0404000C0406000C0
1004
408000C040A000C040C000C040E000C0600000C0602000C0604000C0606000C0608000C060A000C060C000C060E000C0800000C0802000C0804000C0806000C0808000C080A000C080C000C080E000C0A00000C0A02000C0A04000C0A06000C0A08000C0A0A000C0A0C000C0A0E000C0C00000C0C02000C0C04000C0C06000
1004
C0C08000C0C0A000F0FBFF00A4A0A000808080000000FF0000FF000000FFFF00FF000000FF00FF00FFFF0000FFFFFF0000000000000000000000000000000000000000000000000000000000000000000000000000000000000000000000000000000000000000000000000000000000000000000000000000000000000000
1004
00000000000000000000000000000000000000000000000000000000000000000000000000000000000000000000000000000000F90000F90000000000000000000000000000F9FFF9000000000000000000F300FFF9FF00000000000000000000000000000000F9FF00000000000000000000F3FFFFF90000000000000000
1004
00000000000000F9FFF900000000000000000000F900F30000000000000000000000000000000000000000000000000000000000000000F3F30000000000000000000000000000000000000000000000000000000000000000F30000000000000000000000000000000000000000000000000000000000000000F300000000
1004
00000000000000000000000000000000000000000000000000000000F30000000000000000000000000000000000000000000000000000000000000000F3F30000000000000000000000000000000000000000000000000000000000000000F300000000000000000000000000000000000000000000000000000000000000
1004
00F30000000000000000000000000000000000000000000000000000000000000000F30000000000000000000000000000000000000000000000000000000000000000F3F30000000000000000000000000000000000000000000000000000000000000000F300000000000000000000000000000000000000000000000000
1004
00000000000000F30000000000000000000000000000000000000000000000000000000000000000F30000000000000000000000000000000000000000000000000000000000000000F3F30000000000000000000000000000000000000000000000000000000000000000F300F900000000000000000000F900F900000000
1004
0000000000000000000000F9FFF9F300000000000000000000FFF9FF00000000000000000000000000000000FFFF00FA000000000000000000F9FFF9000000000000000000000000000000F9FFF9FAFAFA00000000000000000000000000000000000000000000000000F900000000FAFAFAF3000000000000000000000000
1004
0000000000000000000000000000000000FAFAFAFA0000000000000000000000000000000000000000000000000000000000FAFAFAF300000000000000000000000000000000000000000000000000000000000000000000000000000000000000000000000000000000000000000000000000000000000000000000000000
1004
0000000000000000000000000000000000000000000000000000000000000000000000000000000000000000000000000000000000000000
  0
BLOCK_RECORD
  5
E2
330
1
100
AcDbSymbolTableRecord
100
AcDbBlockTableRecord
  2
*D2
  0
BLOCK_RECORD
  5
211
330
1
100
AcDbSymbolTableRecord
100
AcDbBlockTableRecord
  2
*D3
  0
BLOCK_RECORD
  5
22D
330
1
100
AcDbSymbolTableRecord
100
AcDbBlockTableRecord
  2
*D4
  0
BLOCK_RECORD
  5
16F
330
1
100
AcDbSymbolTableRecord
100
AcDbBlockTableRecord
  2
*D5
  0
BLOCK_RECORD
  5
17E
330
1
100
AcDbSymbolTableRecord
100
AcDbBlockTableRecord
  2
*D6
  0
BLOCK_RECORD
  5
D1
330
1
100
AcDbSymbolTableRecord
100
AcDbBlockTableRecord
  2
*D7
  0
BLOCK_RECORD
  5
19A
330
1
100
AcDbSymbolTableRecord
100
AcDbBlockTableRecord
  2
*D8
  0
BLOCK_RECORD
  5
1B6
330
1
100
AcDbSymbolTableRecord
100
AcDbBlockTableRecord
  2
*D9
  0
BLOCK_RECORD
  5
29A
330
1
100
AcDbSymbolTableRecord
100
AcDbBlockTableRecord
  2
*D10
  0
BLOCK_RECORD
  5
220
330
1
100
AcDbSymbolTableRecord
100
AcDbBlockTableRecord
  2
*D11
  0
BLOCK_RECORD
  5
23E
330
1
100
AcDbSymbolTableRecord
100
AcDbBlockTableRecord
  2
*D12
  0
BLOCK_RECORD
  5
26E
330
1
100
AcDbSymbolTableRecord
100
AcDbBlockTableRecord
  2
*D13
  0
BLOCK_RECORD
  5
284
330
1
100
AcDbSymbolTableRecord
100
AcDbBlockTableRecord
  2
*D14
  0
BLOCK_RECORD
  5
18D
330
1
100
AcDbSymbolTableRecord
100
AcDbBlockTableRecord
  2
*D15
  0
BLOCK_RECORD
  5
1A9
330
1
100
AcDbSymbolTableRecord
100
AcDbBlockTableRecord
  2
*D16
  0
BLOCK_RECORD
  5
BC
330
1
100
AcDbSymbolTableRecord
100
AcDbBlockTableRecord
  2
*D17
  0
BLOCK_RECORD
  5
A7
330
1
100
AcDbSymbolTableRecord
100
AcDbBlockTableRecord
  2
*D18
  0
BLOCK_RECORD
  5
2AE
330
1
100
AcDbSymbolTableRecord
100
AcDbBlockTableRecord
  2
*D19
  0
BLOCK_RECORD
  5
2BA
330
1
100
AcDbSymbolTableRecord
100
AcDbBlockTableRecord
  2
*D20
  0
BLOCK_RECORD
  5
2C8
330
1
100
AcDbSymbolTableRecord
100
AcDbBlockTableRecord
  2
*D21
  0
BLOCK_RECORD
  5
2D6
330
1
100
AcDbSymbolTableRecord
100
AcDbBlockTableRecord
  2
*D22
  0
BLOCK_RECORD
  5
2E2
330
1
100
AcDbSymbolTableRecord
100
AcDbBlockTableRecord
  2
*D23
  0
BLOCK_RECORD
  5
2EE
330
1
100
AcDbSymbolTableRecord
100
AcDbBlockTableRecord
  2
*D24
  0
BLOCK_RECORD
  5
2FA
330
1
100
AcDbSymbolTableRecord
100
AcDbBlockTableRecord
  2
*D25
  0
BLOCK_RECORD
  5
308
330
1
100
AcDbSymbolTableRecord
100
AcDbBlockTableRecord
  2
*D26
  0
BLOCK_RECORD
  5
314
330
1
100
AcDbSymbolTableRecord
100
AcDbBlockTableRecord
  2
*D27
  0
BLOCK_RECORD
  5
322
330
1
100
AcDbSymbolTableRecord
100
AcDbBlockTableRecord
  2
*D28
  0
BLOCK_RECORD
  5
32E
330
1
100
AcDbSymbolTableRecord
100
AcDbBlockTableRecord
  2
*D29
  0
BLOCK_RECORD
  5
33A
330
1
100
AcDbSymbolTableRecord
100
AcDbBlockTableRecord
  2
*D30
  0
BLOCK_RECORD
  5
346
330
1
100
AcDbSymbolTableRecord
100
AcDbBlockTableRecord
  2
*D31
  0
BLOCK_RECORD
  5
354
330
1
100
AcDbSymbolTableRecord
100
AcDbBlockTableRecord
  2
*D32
  0
BLOCK_RECORD
  5
360
330
1
100
AcDbSymbolTableRecord
100
AcDbBlockTableRecord
  2
*D33
  0
BLOCK_RECORD
  5
36C
330
1
100
AcDbSymbolTableRecord
100
AcDbBlockTableRecord
  2
*D34
  0
BLOCK_RECORD
  5
378
330
1
100
AcDbSymbolTableRecord
100
AcDbBlockTableRecord
  2
*D35
  0
ENDTAB
  0
ENDSEC
  0
SECTION
  2
BLOCKS
  0
BLOCK
  5
4
330
2
100
AcDbEntity
  8
0
100
AcDbBlockBegin
  2
*MODEL_SPACE
 70
     0
 10
0.0
 20
0.0
 30
0.0
  3
*MODEL_SPACE
  1

  0
ENDBLK
  5
A
330
2
100
AcDbEntity
  8
0
100
AcDbBlockEnd
  0
BLOCK
  5
F
330
D
100
AcDbEntity
 67
     1
  8
0
100
AcDbBlockBegin
  2
*PAPER_SPACE
 70
     0
 10
0.0
 20
0.0
 30
0.0
  3
*PAPER_SPACE
  1

  0
ENDBLK
  5
10
330
D
100
AcDbEntity
 67
     1
  8
0
100
AcDbBlockEnd
  0
BLOCK
  5
FD
330
F4
100
AcDbEntity
  8
0
100
AcDbBlockBegin
  2
*D0
 70
     1
 10
0.0
 20
0.0
 30
0.0
  3
*D0
  1

  0
LINE
  5
F5
330
F4
100
AcDbEntity
  8
0
 62
   123
100
AcDbLine
 10
15629.80488223125
 20
-1733.340049768652
 30
0.0
 11
15627.80633318254
 21
-1734.841982423581
 31
0.0
  0
LINE
  5
F6
330
F4
100
AcDbEntity
  8
0
 62
   123
100
AcDbLine
 10
15699.35438912599
 20
-1681.072793377123
 30
0.0
 11
15717.68393897264
 21
-1667.297925313345
 31
0.0
  0
LINE
  5
F7
330
F4
100
AcDbEntity
  8
0
 62
   123
100
AcDbLine
 10
15631.80343127995
 20
-1731.838117113723
 30
0.0
 11
15697.35584007729
 21
-1682.574726032052
 31
0.0
  0
SOLID
  5
F8
330
F4
100
AcDbEntity
  8
0
 62
   123
100
AcDbTrace
 10
15629.55456012208
 20
-1733.006958260537
 30
0.0
 11
15630.0552043404
 21
-1733.673141276769
 31
0.0
 12
15631.80343127995
 22
-1731.838117113723
 32
0.0
 13
15631.80343127995
 23
-1731.838117113723
 33
0.0
  0
SOLID
  5
F9
330
F4
100
AcDbEntity
  8
0
 62
   123
100
AcDbTrace
 10
15699.10406701684
 20
-1680.739701869008
 30
0.0
 11
15699.60471123515
 21
-1681.40588488524
 31
0.0
 12
15697.35584007729
 22
-1682.574726032052
 32
0.0
 13
15697.35584007729
 23
-1682.574726032052
 33
0.0
  0
MTEXT
  5
FA
330
F4
100
AcDbEntity
  8
0
 62
     3
100
AcDbMText
 10
15708.01650591874
 20
-1671.435843969068
 30
0.0
 40
3.0
 41
0.0
 71
     5
 72
     1
  1
\A1;\U+220582%%P0.5
 11
0.7994196194798298
 21
0.6007730619715935
 31
0.0
1001
ACAD
1000
MTEXTBEGIN
1070
    73
1070
     1
1070
    44
1040
1.0
1070
    74
1070
     0
1000
MTEXTEND
  0
POINT
  5
FB
330
F4
100
AcDbEntity
  8
DEFPOINTS
 62
     0
100
AcDbPoint
 10
15697.35584007729
 20
-1682.574726032052
 30
0.0
  0
POINT
  5
FC
330
F4
100
AcDbEntity
  8
DEFPOINTS
 62
     0
100
AcDbPoint
 10
15631.80343127995
 20
-1731.838117113723
 30
0.0
  0
ENDBLK
  5
FE
330
F4
100
AcDbEntity
  8
0
100
AcDbBlockEnd
  0
BLOCK
  5
10B
330
F0
100
AcDbEntity
  8
0
100
AcDbBlockBegin
  2
3
 70
     0
 10
0.0
 20
0.0
 30
0.0
  3
3
  1

  0
DIMENSION
  5
F1
102
{ACAD_XDICTIONARY
360
F2
102
}
102
{ACAD_REACTORS
330
F3
102
}
330
F0
100
AcDbEntity
  8
0
100
AcDbDimension
  2
*D0
 10
-32.77620439867496
 20
-24.63169554083719
 30
0.0
 11
44.93880289504522
 21
33.772028555117
 31
0.0
 12
-15664.57963567861
 22
1707.206421572886
 32
0.0
 70
   131
  1
<>%%P0.5
  3
STANDARD
100
AcDbDiametricDimension
 15
32.77620439867132
 25
24.63169554083401
 35
0.0
 40
0.0
  0
ARC
  5
FF
102
{ACAD_REACTORS
330
F3
102
}
330
F0
100
AcDbEntity
  8
CEN
 48
0.6
100
AcDbCircle
 10
-0.000000000003638
 20
0.0000000000020464
 30
0.0
 40
41.0
100
AcDbArc
 50
34.15351134749203
 51
55.84648865250797
  0
LINE
  5
100
330
F0
100
AcDbEntity
  8
CEN
 48
0.6
100
AcDbLine
 10
25.63262081800167
 20
25.63262081802145
 30
0.0
 11
32.35013523927227
 21
32.35013523929547
 31
0.0
  0
CIRCLE
  5
101
330
F0
100
AcDbEntity
  8
0
100
AcDbCircle
 10
28.99137802863515
 20
28.99137802865948
 30
0.0
 40
2.75
  0
CIRCLE
  5
102
330
F0
100
AcDbEntity
  8
0
100
AcDbCircle
 10
-28.99137802866608
 20
28.99137802864379
 30
0.0
 40
2.75
  0
LINE
  5
103
330
F0
100
AcDbEntity
  8
CEN
 48
0.6
100
AcDbLine
 10
-25.63262081802895
 20
25.63262081801099
 30
0.0
 11
-32.35013523930319
 21
32.35013523928158
 31
0.0
  0
ARC
  5
104
330
F0
100
AcDbEntity
  8
CEN
 48
0.6
100
AcDbCircle
 10
-0.0000000000090949
 20
0.0000000000047748
 30
0.0
 40
41.0
100
AcDbArc
 50
128.358356428657
 51
141.641643571353
  0
ARC
  5
105
330
F0
100
AcDbEntity
  8
CEN
 48
0.6
100
AcDbCircle
 10
-0.0000000000127329
 20
-0.0000000000009095
 30
0.0
 40
41.0
100
AcDbArc
 50
214.1535113474919
 51
235.8464886525078
  0
CIRCLE
  5
106
330
F0
100
AcDbEntity
  8
0
100
AcDbCircle
 10
-28.99137802865151
 20
-28.99137802865833
 30
0.0
 40
2.75
  0
LINE
  5
107
330
F0
100
AcDbEntity
  8
CEN
 48
0.6
100
AcDbLine
 10
-25.63262081801804
 20
-25.63262081802031
 30
0.0
 11
-32.35013523928865
 21
-32.35013523929433
 31
0.0
  0
CIRCLE
  5
108
330
F0
100
AcDbEntity
  8
0
100
AcDbCircle
 10
28.99137802865151
 20
-28.99137802864446
 30
0.0
 40
2.75
  0
LINE
  5
109
330
F0
100
AcDbEntity
  8
CEN
 48
0.6
100
AcDbLine
 10
25.63262081801257
 20
-25.63262081801052
 30
0.0
 11
32.35013523928683
 21
-32.35013523928113
 31
0.0
  0
ARC
  5
10A
330
F0
100
AcDbEntity
  8
CEN
 48
0.6
100
AcDbCircle
 10
-0.000000000005457
 20
-0.0000000000056843
 30
0.0
 40
41.0
100
AcDbArc
 50
308.3583564286569
 51
321.6416435713529
  0
ENDBLK
  5
10C
330
F0
100
AcDbEntity
  8
0
100
AcDbBlockEnd
  0
BLOCK
  5
EC
330
E2
100
AcDbEntity
  8
0
100
AcDbBlockBegin
  2
*D2
 70
     1
 10
0.0
 20
0.0
 30
0.0
  3
*D2
  1

  0
LINE
  5
E3
330
E2
100
AcDbEntity
  8
0
 62
   123
100
AcDbLine
 10
21183.18437647608
 20
-1969.999007339389
 30
0.0
 11
21183.18437647608
 21
-1970.399007339389
 31
0.0
  0
LINE
  5
E4
330
E2
100
AcDbEntity
  8
0
 62
   123
100
AcDbLine
 10
21263.18437647608
 20
-1992.980623438477
 30
0.0
 11
21263.18437647608
 21
-1970.399007339389
 31
0.0
  0
LINE
  5
E5
330
E2
100
AcDbEntity
  8
0
 62
   123
100
AcDbLine
 10
21185.68437647608
 20
-1970.999007339388
 30
0.0
 11
21260.68437647608
 21
-1970.999007339388
 31
0.0
  0
SOLID
  5
E6
330
E2
100
AcDbEntity
  8
0
 62
   123
100
AcDbTrace
 10
21185.68437647608
 20
-1970.582340672722
 30
0.0
 11
21185.68437647608
 21
-1971.415674006055
 31
0.0
 12
21183.18437647608
 22
-1970.999007339388
 32
0.0
 13
21183.18437647608
 23
-1970.999007339388
 33
0.0
  0
SOLID
  5
E7
330
E2
100
AcDbEntity
  8
0
 62
   123
100
AcDbTrace
 10
21260.68437647608
 20
-1970.582340672722
 30
0.0
 11
21260.68437647608
 21
-1971.415674006055
 31
0.0
 12
21263.18437647608
 22
-1970.999007339388
 32
0.0
 13
21263.18437647608
 23
-1970.999007339388
 33
0.0
  0
MTEXT
  5
E8
330
E2
100
AcDbEntity
  8
0
 62
     3
100
AcDbMText
 10
21220.68437647608
 20
-1968.499007339389
 30
0.0
 40
3.0
 41
0.0
 71
     5
 72
     1
  1
\A1;80
1001
ACAD
1000
MTEXTBEGIN
1070
    73
1070
     1
1070
    44
1040
1.0
1070
    74
1070
     0
1000
MTEXTEND
  0
POINT
  5
E9
330
E2
100
AcDbEntity
  8
DEFPOINTS
 62
     0
100
AcDbPoint
 10
21183.18437647608
 20
-1970.999007339388
 30
0.0
  0
POINT
  5
EA
330
E2
100
AcDbEntity
  8
DEFPOINTS
 62
     0
100
AcDbPoint
 10
21263.18437647608
 20
-1993.980623438478
 30
0.0
  0
POINT
  5
EB
330
E2
100
AcDbEntity
  8
DEFPOINTS
 62
     0
100
AcDbPoint
 10
21263.18437647608
 20
-1970.999007339388
 30
0.0
  0
ENDBLK
  5
ED
330
E2
100
AcDbEntity
  8
0
100
AcDbBlockEnd
  0
BLOCK
  5
21B
330
211
100
AcDbEntity
  8
0
100
AcDbBlockBegin
  2
*D3
 70
     1
 10
0.0
 20
0.0
 30
0.0
  3
*D3
  1

  0
LINE
  5
212
330
211
100
AcDbEntity
  8
0
 62
   123
100
AcDbLine
 10
21170.18437647608
 20
-2022.141123438478
 30
0.0
 11
21170.18437647608
 21
-1970.399007339389
 31
0.0
  0
LINE
  5
213
330
211
100
AcDbEntity
  8
0
 62
   123
100
AcDbLine
 10
21183.18437647608
 20
-1989.980623438476
 30
0.0
 11
21183.18437647608
 21
-1970.399007339389
 31
0.0
  0
LINE
  5
214
330
211
100
AcDbEntity
  8
0
 62
   123
100
AcDbLine
 10
21172.68437647608
 20
-1970.999007339388
 30
0.0
 11
21180.68437647608
 21
-1970.999007339388
 31
0.0
  0
SOLID
  5
215
330
211
100
AcDbEntity
  8
0
 62
   123
100
AcDbTrace
 10
21172.68437647608
 20
-1970.582340672722
 30
0.0
 11
21172.68437647608
 21
-1971.415674006055
 31
0.0
 12
21170.18437647608
 22
-1970.999007339388
 32
0.0
 13
21170.18437647608
 23
-1970.999007339388
 33
0.0
  0
SOLID
  5
216
330
211
100
AcDbEntity
  8
0
 62
   123
100
AcDbTrace
 10
21180.68437647608
 20
-1970.582340672722
 30
0.0
 11
21180.68437647608
 21
-1971.415674006055
 31
0.0
 12
21183.18437647608
 22
-1970.999007339388
 32
0.0
 13
21183.18437647608
 23
-1970.999007339388
 33
0.0
  0
MTEXT
  5
217
330
211
100
AcDbEntity
  8
0
 62
     3
100
AcDbMText
 10
21176.93437647608
 20
-1968.499007339389
 30
0.0
 40
3.0
 41
0.0
 71
     5
 72
     1
  1
\A1;13
1001
ACAD
1000
MTEXTBEGIN
1070
    73
1070
     1
1070
    44
1040
1.0
1070
    74
1070
     0
1000
MTEXTEND
  0
POINT
  5
218
330
211
100
AcDbEntity
  8
DEFPOINTS
 62
     0
100
AcDbPoint
 10
21170.18437647608
 20
-2023.141123438477
 30
0.0
  0
POINT
  5
219
330
211
100
AcDbEntity
  8
DEFPOINTS
 62
     0
100
AcDbPoint
 10
21183.18437647608
 20
-1990.980623438477
 30
0.0
  0
POINT
  5
21A
330
211
100
AcDbEntity
  8
DEFPOINTS
 62
     0
100
AcDbPoint
 10
21183.18437647608
 20
-1970.999007339388
 30
0.0
  0
ENDBLK
  5
21C
330
211
100
AcDbEntity
  8
0
100
AcDbBlockEnd
  0
BLOCK
  5
239
330
22D
100
AcDbEntity
  8
0
100
AcDbBlockBegin
  2
*D4
 70
     1
 10
0.0
 20
0.0
 30
0.0
  3
*D4
  1

  0
LINE
  5
22E
330
22D
100
AcDbEntity
  8
0
 62
   123
100
AcDbLine
 10
21181.18437647608
 20
-1992.980623438477
 30
0.0
 11
21181.18437647608
 21
-1980.172290105144
 31
0.0
  0
LINE
  5
22F
330
22D
100
AcDbEntity
  8
0
 62
   123
100
AcDbLine
 10
21183.18437647608
 20
-1989.980623438476
 30
0.0
 11
21183.18437647608
 21
-1980.172290105144
 31
0.0
  0
LINE
  5
230
330
22D
100
AcDbEntity
  8
0
 62
   123
100
AcDbLine
 10
21185.68437647608
 20
-1980.772290105144
 30
0.0
 11
21188.18437647608
 21
-1980.772290105144
 31
0.0
  0
LINE
  5
231
330
22D
100
AcDbEntity
  8
0
 62
   123
100
AcDbLine
 10
21178.68437647608
 20
-1980.772290105144
 30
0.0
 11
21172.18437647608
 21
-1980.772290105144
 31
0.0
  0
LINE
  5
232
330
22D
100
AcDbEntity
  8
0
 62
   123
100
AcDbLine
 10
21183.18437647608
 20
-1980.772290105144
 30
0.0
 11
21181.18437647608
 21
-1980.772290105144
 31
0.0
  0
SOLID
  5
233
330
22D
100
AcDbEntity
  8
0
 62
   123
100
AcDbTrace
 10
21185.68437647608
 20
-1980.355623438476
 30
0.0
 11
21185.68437647608
 21
-1981.18895677181
 31
0.0
 12
21183.18437647608
 22
-1980.772290105144
 32
0.0
 13
21183.18437647608
 23
-1980.772290105144
 33
0.0
  0
SOLID
  5
234
330
22D
100
AcDbEntity
  8
0
 62
   123
100
AcDbTrace
 10
21178.68437647608
 20
-1980.355623438476
 30
0.0
 11
21178.68437647608
 21
-1981.18895677181
 31
0.0
 12
21181.18437647608
 22
-1980.772290105144
 32
0.0
 13
21181.18437647608
 23
-1980.772290105144
 33
0.0
  0
MTEXT
  5
235
330
22D
100
AcDbEntity
  8
0
 62
     3
100
AcDbMText
 10
21174.18437647608
 20
-1978.272290105143
 30
0.0
 40
3.0
 41
0.0
 71
     5
 72
     1
  1
\A1;2
1001
ACAD
1000
MTEXTBEGIN
1070
    73
1070
     1
1070
    44
1040
1.0
1070
    74
1070
     0
1000
MTEXTEND
  0
POINT
  5
236
330
22D
100
AcDbEntity
  8
DEFPOINTS
 62
     0
100
AcDbPoint
 10
21181.18437647608
 20
-1993.980623438478
 30
0.0
  0
POINT
  5
237
330
22D
100
AcDbEntity
  8
DEFPOINTS
 62
     0
100
AcDbPoint
 10
21183.18437647608
 20
-1990.980623438477
 30
0.0
  0
POINT
  5
238
330
22D
100
AcDbEntity
  8
DEFPOINTS
 62
     0
100
AcDbPoint
 10
21183.18437647608
 20
-1980.772290105144
 30
0.0
  0
ENDBLK
  5
23A
330
22D
100
AcDbEntity
  8
0
100
AcDbBlockEnd
  0
BLOCK
  5
17B
330
16F
100
AcDbEntity
  8
0
100
AcDbBlockBegin
  2
*D5
 70
     1
 10
0.0
 20
0.0
 30
0.0
  3
*D5
  1

  0
LINE
  5
170
330
16F
100
AcDbEntity
  8
0
 62
   123
100
AcDbLine
 10
21180.32621516053
 20
-2183.37104309641
 30
0.0
 11
21166.27858428796
 21
-2183.37104309641
 31
0.0
  0
LINE
  5
171
330
16F
100
AcDbEntity
  8
0
 62
   123
100
AcDbLine
 10
21180.32621516053
 20
-2189.370822325497
 30
0.0
 11
21166.27858428796
 21
-2189.370822325497
 31
0.0
  0
LINE
  5
172
330
16F
100
AcDbEntity
  8
0
 62
   123
100
AcDbLine
 10
21166.87858428797
 20
-2180.87104309641
 30
0.0
 11
21166.87858428797
 21
-2178.37104309641
 31
0.0
  0
LINE
  5
173
330
16F
100
AcDbEntity
  8
0
 62
   123
100
AcDbLine
 10
21166.87858428797
 20
-2191.870822325497
 30
0.0
 11
21166.87858428797
 21
-2194.370822325497
 31
0.0
  0
LINE
  5
174
330
16F
100
AcDbEntity
  8
0
 62
   123
100
AcDbLine
 10
21166.87858428797
 20
-2183.37104309641
 30
0.0
 11
21166.87858428797
 21
-2189.370822325497
 31
0.0
  0
SOLID
  5
175
330
16F
100
AcDbEntity
  8
0
 62
   123
100
AcDbTrace
 10
21166.46191762129
 20
-2180.87104309641
 30
0.0
 11
21167.29525095462
 21
-2180.87104309641
 31
0.0
 12
21166.87858428797
 22
-2183.37104309641
 32
0.0
 13
21166.87858428797
 23
-2183.37104309641
 33
0.0
  0
SOLID
  5
176
330
16F
100
AcDbEntity
  8
0
 62
   123
100
AcDbTrace
 10
21166.46191762129
 20
-2191.870822325497
 30
0.0
 11
21167.29525095462
 21
-2191.870822325497
 31
0.0
 12
21166.87858428797
 22
-2189.370822325497
 32
0.0
 13
21166.87858428797
 23
-2189.370822325497
 33
0.0
  0
MTEXT
  5
177
330
16F
100
AcDbEntity
  8
0
 62
     3
100
AcDbMText
 10
21162.92843428797
 20
-2186.370932710949
 30
0.0
 40
3.0
 41
0.0
 71
     5
 72
     1
  1
\A1;\A1;%%c6{\H0.7x;\S+0^ -0.012;\F;\H1.429x;(h7)}  
 11
0.0000000000000001
 21
1.0
 31
0.0
1001
ACAD
1000
MTEXTBEGIN
1070
    73
1070
     1
1070
    44
1040
1.0
1070
    74
1070
     0
1000
MTEXTEND
  0
POINT
  5
178
330
16F
100
AcDbEntity
  8
DEFPOINTS
 62
     0
100
AcDbPoint
 10
21181.32621516051
 20
-2183.37104309641
 30
0.0
  0
POINT
  5
179
330
16F
100
AcDbEntity
  8
DEFPOINTS
 62
     0
100
AcDbPoint
 10
21181.32621516051
 20
-2189.370822325497
 30
0.0
  0
POINT
  5
17A
330
16F
100
AcDbEntity
  8
DEFPOINTS
 62
     0
100
AcDbPoint
 10
21166.87858428797
 20
-2189.370822325497
 30
0.0
  0
ENDBLK
  5
17C
330
16F
100
AcDbEntity
  8
0
100
AcDbBlockEnd
  0
BLOCK
  5
188
330
17E
100
AcDbEntity
  8
0
100
AcDbBlockBegin
  2
*D6
 70
     1
 10
0.0
 20
0.0
 30
0.0
  3
*D6
  1

  0
LINE
  5
17F
330
17E
100
AcDbEntity
  8
0
 62
   123
100
AcDbLine
 10
21201.82621516053
 20
-2154.370932710953
 30
0.0
 11
21155.95515901286
 21
-2154.370932710953
 31
0.0
  0
LINE
  5
180
330
17E
100
AcDbEntity
  8
0
 62
   123
100
AcDbLine
 10
21200.36781587466
 20
-2218.370932710953
 30
0.0
 11
21155.95515901286
 21
-2218.370932710953
 31
0.0
  0
LINE
  5
181
330
17E
100
AcDbEntity
  8
0
 62
   123
100
AcDbLine
 10
21156.55515901285
 20
-2156.870932710952
 30
0.0
 11
21156.55515901285
 21
-2215.870932710954
 31
0.0
  0
SOLID
  5
182
330
17E
100
AcDbEntity
  8
0
 62
   123
100
AcDbTrace
 10
21156.13849234619
 20
-2156.870932710952
 30
0.0
 11
21156.97182567952
 21
-2156.870932710952
 31
0.0
 12
21156.55515901285
 22
-2154.370932710953
 32
0.0
 13
21156.55515901285
 23
-2154.370932710953
 33
0.0
  0
SOLID
  5
183
330
17E
100
AcDbEntity
  8
0
 62
   123
100
AcDbTrace
 10
21156.13849234619
 20
-2215.870932710954
 30
0.0
 11
21156.97182567952
 21
-2215.870932710954
 31
0.0
 12
21156.55515901285
 22
-2218.370932710953
 32
0.0
 13
21156.55515901285
 23
-2218.370932710953
 33
0.0
  0
MTEXT
  5
184
330
17E
100
AcDbEntity
  8
0
 62
     3
100
AcDbMText
 10
21152.60500901285
 20
-2189.699778534913
 30
0.0
 40
3.0
 41
0.0
 71
     5
 72
     1
  1
\A1;\A1;%%C64{\F;\H0.7x;\S+0^ -0.03;\H1.429x;(h7)} 
 11
0.0000000000000001
 21
1.0
 31
0.0
1001
ACAD
1000
MTEXTBEGIN
1070
    73
1070
     1
1070
    44
1040
1.0
1070
    74
1070
     0
1000
MTEXTEND
  0
POINT
  5
185
330
17E
100
AcDbEntity
  8
DEFPOINTS
 62
     0
100
AcDbPoint
 10
21202.82621516053
 20
-2154.370932710953
 30
0.0
  0
POINT
  5
186
330
17E
100
AcDbEntity
  8
DEFPOINTS
 62
     0
100
AcDbPoint
 10
21201.36781587465
 20
-2218.370932710953
 30
0.0
  0
POINT
  5
187
330
17E
100
AcDbEntity
  8
DEFPOINTS
 62
     0
100
AcDbPoint
 10
21156.55515901285
 20
-2218.370932710953
 30
0.0
  0
ENDBLK
  5
189
330
17E
100
AcDbEntity
  8
0
100
AcDbBlockEnd
  0
BLOCK
  5
DB
330
D1
100
AcDbEntity
  8
0
100
AcDbBlockBegin
  2
*D7
 70
     1
 10
0.0
 20
0.0
 30
0.0
  3
*D7
  1

  0
LINE
  5
D2
330
D1
100
AcDbEntity
  8
0
 62
   123
100
AcDbLine
 10
21204.82621516053
 20
-2128.522492677046
 30
0.0
 11
21204.82621516053
 21
-2128.922492677046
 31
0.0
  0
LINE
  5
D3
330
D1
100
AcDbEntity
  8
0
 62
   123
100
AcDbLine
 10
21284.82621516053
 20
-2153.370932710954
 30
0.0
 11
21284.82621516053
 21
-2128.922492677046
 31
0.0
  0
LINE
  5
D4
330
D1
100
AcDbEntity
  8
0
 62
   123
100
AcDbLine
 10
21207.32621516053
 20
-2129.522492677046
 30
0.0
 11
21282.32621516051
 21
-2129.522492677046
 31
0.0
  0
SOLID
  5
D5
330
D1
100
AcDbEntity
  8
0
 62
   123
100
AcDbTrace
 10
21207.32621516053
 20
-2129.105826010379
 30
0.0
 11
21207.32621516053
 21
-2129.939159343711
 31
0.0
 12
21204.82621516053
 22
-2129.522492677046
 32
0.0
 13
21204.82621516053
 23
-2129.522492677046
 33
0.0
  0
SOLID
  5
D6
330
D1
100
AcDbEntity
  8
0
 62
   123
100
AcDbTrace
 10
21282.32621516051
 20
-2129.105826010379
 30
0.0
 11
21282.32621516051
 21
-2129.939159343711
 31
0.0
 12
21284.82621516053
 22
-2129.522492677046
 32
0.0
 13
21284.82621516053
 23
-2129.522492677046
 33
0.0
  0
MTEXT
  5
D7
330
D1
100
AcDbEntity
  8
0
 62
     3
100
AcDbMText
 10
21242.32621516051
 20
-2127.022492677046
 30
0.0
 40
3.0
 41
0.0
 71
     5
 72
     1
  1
\A1;80
1001
ACAD
1000
MTEXTBEGIN
1070
    73
1070
     1
1070
    44
1040
1.0
1070
    74
1070
     0
1000
MTEXTEND
  0
POINT
  5
D8
330
D1
100
AcDbEntity
  8
DEFPOINTS
 62
     0
100
AcDbPoint
 10
21204.82621516053
 20
-2129.522492677046
 30
0.0
  0
POINT
  5
D9
330
D1
100
AcDbEntity
  8
DEFPOINTS
 62
     0
100
AcDbPoint
 10
21284.82621516053
 20
-2154.370932710953
 30
0.0
  0
POINT
  5
DA
330
D1
100
AcDbEntity
  8
DEFPOINTS
 62
     0
100
AcDbPoint
 10
21284.82621516053
 20
-2129.522492677046
 30
0.0
  0
ENDBLK
  5
DC
330
D1
100
AcDbEntity
  8
0
100
AcDbBlockEnd
  0
BLOCK
  5
1A4
330
19A
100
AcDbEntity
  8
0
100
AcDbBlockBegin
  2
*D8
 70
     1
 10
0.0
 20
0.0
 30
0.0
  3
*D8
  1

  0
LINE
  5
19B
330
19A
100
AcDbEntity
  8
0
 62
   123
100
AcDbLine
 10
21180.82621516053
 20
-2182.87104309641
 30
0.0
 11
21180.82621516053
 21
-2128.922492677046
 31
0.0
  0
LINE
  5
19C
330
19A
100
AcDbEntity
  8
0
 62
   123
100
AcDbLine
 10
21204.82621516053
 20
-2150.370932710953
 30
0.0
 11
21204.82621516053
 21
-2128.922492677046
 31
0.0
  0
LINE
  5
19D
330
19A
100
AcDbEntity
  8
0
 62
   123
100
AcDbLine
 10
21183.32621516051
 20
-2129.522492677046
 30
0.0
 11
21202.32621516051
 21
-2129.522492677046
 31
0.0
  0
SOLID
  5
19E
330
19A
100
AcDbEntity
  8
0
 62
   123
100
AcDbTrace
 10
21183.32621516051
 20
-2129.105826010379
 30
0.0
 11
21183.32621516051
 21
-2129.939159343711
 31
0.0
 12
21180.82621516053
 22
-2129.522492677046
 32
0.0
 13
21180.82621516053
 23
-2129.522492677046
 33
0.0
  0
SOLID
  5
19F
330
19A
100
AcDbEntity
  8
0
 62
   123
100
AcDbTrace
 10
21202.32621516051
 20
-2129.105826010379
 30
0.0
 11
21202.32621516051
 21
-2129.939159343711
 31
0.0
 12
21204.82621516053
 22
-2129.522492677046
 32
0.0
 13
21204.82621516053
 23
-2129.522492677046
 33
0.0
  0
MTEXT
  5
1A0
330
19A
100
AcDbEntity
  8
0
 62
     3
100
AcDbMText
 10
21192.82621516051
 20
-2127.022492677046
 30
0.0
 40
3.0
 41
0.0
 71
     5
 72
     1
  1
\A1;24
1001
ACAD
1000
MTEXTBEGIN
1070
    73
1070
     1
1070
    44
1040
1.0
1070
    74
1070
     0
1000
MTEXTEND
  0
POINT
  5
1A1
330
19A
100
AcDbEntity
  8
DEFPOINTS
 62
     0
100
AcDbPoint
 10
21180.82621516053
 20
-2183.87104309641
 30
0.0
  0
POINT
  5
1A2
330
19A
100
AcDbEntity
  8
DEFPOINTS
 62
     0
100
AcDbPoint
 10
21204.82621516053
 20
-2151.370932710953
 30
0.0
  0
POINT
  5
1A3
330
19A
100
AcDbEntity
  8
DEFPOINTS
 62
     0
100
AcDbPoint
 10
21204.82621516053
 20
-2129.522492677046
 30
0.0
  0
ENDBLK
  5
1A5
330
19A
100
AcDbEntity
  8
0
100
AcDbBlockEnd
  0
BLOCK
  5
1C2
330
1B6
100
AcDbEntity
  8
0
100
AcDbBlockBegin
  2
*D9
 70
     1
 10
0.0
 20
0.0
 30
0.0
  3
*D9
  1

  0
LINE
  5
1B7
330
1B6
100
AcDbEntity
  8
0
 62
   123
100
AcDbLine
 10
21202.82621516053
 20
-2153.370932710954
 30
0.0
 11
21202.82621516053
 21
-2140.158890872198
 31
0.0
  0
LINE
  5
1B8
330
1B6
100
AcDbEntity
  8
0
 62
   123
100
AcDbLine
 10
21204.82621516053
 20
-2150.370932710953
 30
0.0
 11
21204.82621516053
 21
-2140.158890872198
 31
0.0
  0
LINE
  5
1B9
330
1B6
100
AcDbEntity
  8
0
 62
   123
100
AcDbLine
 10
21207.32621516053
 20
-2140.758890872196
 30
0.0
 11
21209.82621516051
 21
-2140.758890872196
 31
0.0
  0
LINE
  5
1BA
330
1B6
100
AcDbEntity
  8
0
 62
   123
100
AcDbLine
 10
21200.32621516051
 20
-2140.758890872196
 30
0.0
 11
21193.82621516053
 21
-2140.758890872196
 31
0.0
  0
LINE
  5
1BB
330
1B6
100
AcDbEntity
  8
0
 62
   123
100
AcDbLine
 10
21204.82621516053
 20
-2140.758890872196
 30
0.0
 11
21202.82621516053
 21
-2140.758890872196
 31
0.0
  0
SOLID
  5
1BC
330
1B6
100
AcDbEntity
  8
0
 62
   123
100
AcDbTrace
 10
21207.32621516053
 20
-2140.34222420553
 30
0.0
 11
21207.32621516053
 21
-2141.175557538864
 31
0.0
 12
21204.82621516053
 22
-2140.758890872196
 32
0.0
 13
21204.82621516053
 23
-2140.758890872196
 33
0.0
  0
SOLID
  5
1BD
330
1B6
100
AcDbEntity
  8
0
 62
   123
100
AcDbTrace
 10
21200.32621516051
 20
-2140.34222420553
 30
0.0
 11
21200.32621516051
 21
-2141.175557538864
 31
0.0
 12
21202.82621516053
 22
-2140.758890872196
 32
0.0
 13
21202.82621516053
 23
-2140.758890872196
 33
0.0
  0
MTEXT
  5
1BE
330
1B6
100
AcDbEntity
  8
0
 62
     3
100
AcDbMText
 10
21195.82621516053
 20
-2138.258890872196
 30
0.0
 40
3.0
 41
0.0
 71
     5
 72
     1
  1
\A1;2
1001
ACAD
1000
MTEXTBEGIN
1070
    73
1070
     1
1070
    44
1040
1.0
1070
    74
1070
     0
1000
MTEXTEND
  0
POINT
  5
1BF
330
1B6
100
AcDbEntity
  8
DEFPOINTS
 62
     0
100
AcDbPoint
 10
21202.82621516053
 20
-2154.370932710953
 30
0.0
  0
POINT
  5
1C0
330
1B6
100
AcDbEntity
  8
DEFPOINTS
 62
     0
100
AcDbPoint
 10
21204.82621516053
 20
-2151.370932710953
 30
0.0
  0
POINT
  5
1C1
330
1B6
100
AcDbEntity
  8
DEFPOINTS
 62
     0
100
AcDbPoint
 10
21204.82621516053
 20
-2140.758890872196
 30
0.0
  0
ENDBLK
  5
1C3
330
1B6
100
AcDbEntity
  8
0
100
AcDbBlockEnd
  0
BLOCK
  5
2A4
330
29A
100
AcDbEntity
  8
0
100
AcDbBlockBegin
  2
*D10
 70
     1
 10
0.0
 20
0.0
 30
0.0
  3
*D10
  1

  0
LINE
  5
29B
330
29A
100
AcDbEntity
  8
0
 62
   123
100
AcDbLine
 10
21257.18437647608
 20
-1991.480623438476
 30
0.0
 11
21280.44504616895
 21
-1991.480623438476
 31
0.0
  0
LINE
  5
29C
330
29A
100
AcDbEntity
  8
0
 62
   123
100
AcDbLine
 10
21257.18437647608
 20
-2060.480623438476
 30
0.0
 11
21280.44504616895
 21
-2060.480623438476
 31
0.0
  0
LINE
  5
29D
330
29A
100
AcDbEntity
  8
0
 62
   123
100
AcDbLine
 10
21279.84504616896
 20
-1993.980623438478
 30
0.0
 11
21279.84504616896
 21
-2057.980623438476
 31
0.0
  0
SOLID
  5
29E
330
29A
100
AcDbEntity
  8
0
 62
   123
100
AcDbTrace
 10
21279.4283795023
 20
-1993.980623438478
 30
0.0
 11
21280.26171283563
 21
-1993.980623438478
 31
0.0
 12
21279.84504616896
 22
-1991.480623438476
 32
0.0
 13
21279.84504616896
 23
-1991.480623438476
 33
0.0
  0
SOLID
  5
29F
330
29A
100
AcDbEntity
  8
0
 62
   123
100
AcDbTrace
 10
21279.4283795023
 20
-2057.980623438476
 30
0.0
 11
21280.26171283563
 21
-2057.980623438476
 31
0.0
 12
21279.84504616896
 22
-2060.480623438476
 32
0.0
 13
21279.84504616896
 23
-2060.480623438476
 33
0.0
  0
MTEXT
  5
2A0
330
29A
100
AcDbEntity
  8
0
 62
     3
100
AcDbMText
 10
21277.34504616896
 20
-2028.136704428566
 30
0.0
 40
3.0
 41
0.0
 71
     5
 72
     1
  1
\A1;%%C69
 11
0.0000000000000001
 21
1.0
 31
0.0
1001
ACAD
1000
MTEXTBEGIN
1070
    73
1070
     1
1070
    44
1040
1.0
1070
    74
1070
     0
1000
MTEXTEND
  0
POINT
  5
2A1
330
29A
100
AcDbEntity
  8
DEFPOINTS
 62
     0
100
AcDbPoint
 10
21256.18437647608
 20
-1991.480623438476
 30
0.0
  0
POINT
  5
2A2
330
29A
100
AcDbEntity
  8
DEFPOINTS
 62
     0
100
AcDbPoint
 10
21256.18437647608
 20
-2060.480623438476
 30
0.0
  0
POINT
  5
2A3
330
29A
100
AcDbEntity
  8
DEFPOINTS
 62
     0
100
AcDbPoint
 10
21279.84504616896
 20
-2060.480623438476
 30
0.0
  0
ENDBLK
  5
2A5
330
29A
100
AcDbEntity
  8
0
100
AcDbBlockEnd
  0
BLOCK
  5
22A
330
220
100
AcDbEntity
  8
0
100
AcDbBlockBegin
  2
*D11
 70
     1
 10
0.0
 20
0.0
 30
0.0
  3
*D11
  1

  0
LINE
  5
221
330
220
100
AcDbEntity
  8
0
 62
   123
100
AcDbLine
 10
21180.18437647608
 20
-1993.980623438478
 30
0.0
 11
21157.4139295922
 21
-1993.980623438478
 31
0.0
  0
LINE
  5
222
330
220
100
AcDbEntity
  8
0
 62
   123
100
AcDbLine
 10
21180.18437647608
 20
-2057.980623438476
 30
0.0
 11
21157.4139295922
 21
-2057.980623438476
 31
0.0
  0
LINE
  5
223
330
220
100
AcDbEntity
  8
0
 62
   123
100
AcDbLine
 10
21158.0139295922
 20
-1996.480623438477
 30
0.0
 11
21158.0139295922
 21
-2055.480623438477
 31
0.0
  0
SOLID
  5
224
330
220
100
AcDbEntity
  8
0
 62
   123
100
AcDbTrace
 10
21157.59726292553
 20
-1996.480623438477
 30
0.0
 11
21158.43059625887
 21
-1996.480623438477
 31
0.0
 12
21158.0139295922
 22
-1993.980623438478
 32
0.0
 13
21158.0139295922
 23
-1993.980623438478
 33
0.0
  0
SOLID
  5
225
330
220
100
AcDbEntity
  8
0
 62
   123
100
AcDbTrace
 10
21157.59726292553
 20
-2055.480623438477
 30
0.0
 11
21158.43059625887
 21
-2055.480623438477
 31
0.0
 12
21158.0139295922
 22
-2057.980623438476
 32
0.0
 13
21158.0139295922
 23
-2057.980623438476
 33
0.0
  0
MTEXT
  5
226
330
220
100
AcDbEntity
  8
0
 62
     3
100
AcDbMText
 10
21154.0637795922
 20
-2027.823654476386
 30
0.0
 40
3.0
 41
0.0
 71
     5
 72
     1
  1
\A1;\A1;%%C{\F;64\H0.7x;\S+0^ -0.030;\H1.429x;(h7)} 
 11
0.0000000000000001
 21
1.0
 31
0.0
1001
ACAD
1000
MTEXTBEGIN
1070
    73
1070
     1
1070
    44
1040
1.0
1070
    74
1070
     0
1000
MTEXTEND
  0
POINT
  5
227
330
220
100
AcDbEntity
  8
DEFPOINTS
 62
     0
100
AcDbPoint
 10
21181.18437647608
 20
-1993.980623438478
 30
0.0
  0
POINT
  5
228
330
220
100
AcDbEntity
  8
DEFPOINTS
 62
     0
100
AcDbPoint
 10
21181.18437647608
 20
-2057.980623438476
 30
0.0
  0
POINT
  5
229
330
220
100
AcDbEntity
  8
DEFPOINTS
 62
     0
100
AcDbPoint
 10
21158.0139295922
 20
-2057.980623438476
 30
0.0
  0
ENDBLK
  5
22B
330
220
100
AcDbEntity
  8
0
100
AcDbBlockEnd
  0
BLOCK
  5
248
330
23E
100
AcDbEntity
  8
0
100
AcDbBlockBegin
  2
*D12
 70
     1
 10
0.0
 20
0.0
 30
0.0
  3
*D12
  1

  0
LINE
  5
23F
330
23E
100
AcDbEntity
  8
0
 62
   123
100
AcDbLine
 10
21183.18437647608
 20
-1980.772290105144
 30
0.0
 11
21183.18437647608
 21
-1980.172290105144
 31
0.0
  0
LINE
  5
240
330
23E
100
AcDbEntity
  8
0
 62
   123
100
AcDbLine
 10
21190.18437647608
 20
-1991.381886096948
 30
0.0
 11
21190.18437647608
 21
-1980.172290105144
 31
0.0
  0
LINE
  5
241
330
23E
100
AcDbEntity
  8
0
 62
   123
100
AcDbLine
 10
21185.68437647608
 20
-1980.772290105144
 30
0.0
 11
21187.68437647608
 21
-1980.772290105144
 31
0.0
  0
SOLID
  5
242
330
23E
100
AcDbEntity
  8
0
 62
   123
100
AcDbTrace
 10
21185.68437647608
 20
-1980.355623438476
 30
0.0
 11
21185.68437647608
 21
-1981.18895677181
 31
0.0
 12
21183.18437647608
 22
-1980.772290105144
 32
0.0
 13
21183.18437647608
 23
-1980.772290105144
 33
0.0
  0
SOLID
  5
243
330
23E
100
AcDbEntity
  8
0
 62
   123
100
AcDbTrace
 10
21187.68437647608
 20
-1980.355623438476
 30
0.0
 11
21187.68437647608
 21
-1981.18895677181
 31
0.0
 12
21190.18437647608
 22
-1980.772290105144
 32
0.0
 13
21190.18437647608
 23
-1980.772290105144
 33
0.0
  0
MTEXT
  5
244
330
23E
100
AcDbEntity
  8
0
 62
     3
100
AcDbMText
 10
21186.68437647608
 20
-1978.272290105143
 30
0.0
 40
3.0
 41
0.0
 71
     5
 72
     1
  1
\A1;7
1001
ACAD
1000
MTEXTBEGIN
1070
    73
1070
     1
1070
    44
1040
1.0
1070
    74
1070
     0
1000
MTEXTEND
  0
POINT
  5
245
330
23E
100
AcDbEntity
  8
DEFPOINTS
 62
     0
100
AcDbPoint
 10
21183.18437647608
 20
-1981.772290105143
 30
0.0
  0
POINT
  5
246
330
23E
100
AcDbEntity
  8
DEFPOINTS
 62
     0
100
AcDbPoint
 10
21190.18437647608
 20
-1992.381886096947
 30
0.0
  0
POINT
  5
247
330
23E
100
AcDbEntity
  8
DEFPOINTS
 62
     0
100
AcDbPoint
 10
21190.18437647608
 20
-1980.772290105144
 30
0.0
  0
ENDBLK
  5
249
330
23E
100
AcDbEntity
  8
0
100
AcDbBlockEnd
  0
BLOCK
  5
278
330
26E
100
AcDbEntity
  8
0
100
AcDbBlockBegin
  2
*D13
 70
     1
 10
0.0
 20
0.0
 30
0.0
  3
*D13
  1

  0
LINE
  5
26F
330
26E
100
AcDbEntity
  8
0
 62
   123
100
AcDbLine
 10
21057.79685038668
 20
-1994.980623438475
 30
0.0
 11
21057.79685038668
 21
-1977.812828312571
 31
0.0
  0
LINE
  5
270
330
26E
100
AcDbEntity
  8
0
 62
   123
100
AcDbLine
 10
21127.79685038669
 20
-1994.980623438475
 30
0.0
 11
21127.79685038669
 21
-1977.812828312571
 31
0.0
  0
LINE
  5
271
330
26E
100
AcDbEntity
  8
0
 62
   123
100
AcDbLine
 10
21060.29685038669
 20
-1978.412828312571
 30
0.0
 11
21125.29685038669
 21
-1978.412828312571
 31
0.0
  0
SOLID
  5
272
330
26E
100
AcDbEntity
  8
0
 62
   123
100
AcDbTrace
 10
21060.29685038669
 20
-1977.996161645904
 30
0.0
 11
21060.29685038669
 21
-1978.829494979237
 31
0.0
 12
21057.79685038668
 22
-1978.412828312571
 32
0.0
 13
21057.79685038668
 23
-1978.412828312571
 33
0.0
  0
SOLID
  5
273
330
26E
100
AcDbEntity
  8
0
 62
   123
100
AcDbTrace
 10
21125.29685038669
 20
-1977.996161645904
 30
0.0
 11
21125.29685038669
 21
-1978.829494979237
 31
0.0
 12
21127.79685038669
 22
-1978.412828312571
 32
0.0
 13
21127.79685038669
 23
-1978.412828312571
 33
0.0
  0
MTEXT
  5
274
330
26E
100
AcDbEntity
  8
0
 62
     3
100
AcDbMText
 10
21092.79685038669
 20
-1975.912828312571
 30
0.0
 40
3.0
 41
0.0
 71
     5
 72
     1
  1
\A1;70
1001
ACAD
1000
MTEXTBEGIN
1070
    73
1070
     1
1070
    44
1040
1.0
1070
    74
1070
     0
1000
MTEXTEND
  0
POINT
  5
275
330
26E
100
AcDbEntity
  8
DEFPOINTS
 62
     0
100
AcDbPoint
 10
21057.79685038668
 20
-1995.980623438476
 30
0.0
  0
POINT
  5
276
330
26E
100
AcDbEntity
  8
DEFPOINTS
 62
     0
100
AcDbPoint
 10
21127.79685038669
 20
-1995.980623438476
 30
0.0
  0
POINT
  5
277
330
26E
100
AcDbEntity
  8
DEFPOINTS
 62
     0
100
AcDbPoint
 10
21127.79685038669
 20
-1978.412828312571
 30
0.0
  0
ENDBLK
  5
279
330
26E
100
AcDbEntity
  8
0
100
AcDbBlockEnd
  0
BLOCK
  5
28E
330
284
100
AcDbEntity
  8
0
100
AcDbBlockBegin
  2
*D14
 70
     1
 10
0.0
 20
0.0
 30
0.0
  3
*D14
  1

  0
LINE
  5
285
330
284
100
AcDbEntity
  8
0
 62
   123
100
AcDbLine
 10
21278.82621516053
 20
-2151.870932710953
 30
0.0
 11
21302.0868848534
 21
-2151.870932710953
 31
0.0
  0
LINE
  5
286
330
284
100
AcDbEntity
  8
0
 62
   123
100
AcDbLine
 10
21278.82621516053
 20
-2220.870932710953
 30
0.0
 11
21302.0868848534
 21
-2220.870932710953
 31
0.0
  0
LINE
  5
287
330
284
100
AcDbEntity
  8
0
 62
   123
100
AcDbLine
 10
21301.4868848534
 20
-2154.370932710953
 30
0.0
 11
21301.4868848534
 21
-2218.370932710953
 31
0.0
  0
SOLID
  5
288
330
284
100
AcDbEntity
  8
0
 62
   123
100
AcDbTrace
 10
21301.07021818674
 20
-2154.370932710953
 30
0.0
 11
21301.90355152008
 21
-2154.370932710953
 31
0.0
 12
21301.4868848534
 22
-2151.870932710953
 32
0.0
 13
21301.4868848534
 23
-2151.870932710953
 33
0.0
  0
SOLID
  5
289
330
284
100
AcDbEntity
  8
0
 62
   123
100
AcDbTrace
 10
21301.07021818674
 20
-2218.370932710953
 30
0.0
 11
21301.90355152008
 21
-2218.370932710953
 31
0.0
 12
21301.4868848534
 22
-2220.870932710953
 32
0.0
 13
21301.4868848534
 23
-2220.870932710953
 33
0.0
  0
MTEXT
  5
28A
330
284
100
AcDbEntity
  8
0
 62
     3
100
AcDbMText
 10
21298.98688485341
 20
-2188.527013701043
 30
0.0
 40
3.0
 41
0.0
 71
     5
 72
     1
  1
\A1;%%C69
 11
0.0000000000000001
 21
1.0
 31
0.0
1001
ACAD
1000
MTEXTBEGIN
1070
    73
1070
     1
1070
    44
1040
1.0
1070
    74
1070
     0
1000
MTEXTEND
  0
POINT
  5
28B
330
284
100
AcDbEntity
  8
DEFPOINTS
 62
     0
100
AcDbPoint
 10
21277.82621516053
 20
-2151.870932710953
 30
0.0
  0
POINT
  5
28C
330
284
100
AcDbEntity
  8
DEFPOINTS
 62
     0
100
AcDbPoint
 10
21277.82621516053
 20
-2220.870932710953
 30
0.0
  0
POINT
  5
28D
330
284
100
AcDbEntity
  8
DEFPOINTS
 62
     0
100
AcDbPoint
 10
21301.4868848534
 20
-2220.870932710953
 30
0.0
  0
ENDBLK
  5
28F
330
284
100
AcDbEntity
  8
0
100
AcDbBlockEnd
  0
BLOCK
  5
197
330
18D
100
AcDbEntity
  8
0
100
AcDbBlockBegin
  2
*D15
 70
     1
 10
0.0
 20
0.0
 30
0.0
  3
*D15
  1

  0
LINE
  5
18E
330
18D
100
AcDbEntity
  8
0
 62
   123
100
AcDbLine
 10
21052.46669074771
 20
-2155.370932710952
 30
0.0
 11
21052.46669074771
 21
-2138.203137585047
 31
0.0
  0
LINE
  5
18F
330
18D
100
AcDbEntity
  8
0
 62
   123
100
AcDbLine
 10
21122.46669074771
 20
-2155.370932710952
 30
0.0
 11
21122.46669074771
 21
-2138.203137585047
 31
0.0
  0
LINE
  5
190
330
18D
100
AcDbEntity
  8
0
 62
   123
100
AcDbLine
 10
21054.96669074771
 20
-2138.803137585047
 30
0.0
 11
21119.96669074771
 21
-2138.803137585047
 31
0.0
  0
SOLID
  5
191
330
18D
100
AcDbEntity
  8
0
 62
   123
100
AcDbTrace
 10
21054.96669074771
 20
-2138.386470918379
 30
0.0
 11
21054.96669074771
 21
-2139.219804251712
 31
0.0
 12
21052.46669074771
 22
-2138.803137585047
 32
0.0
 13
21052.46669074771
 23
-2138.803137585047
 33
0.0
  0
SOLID
  5
192
330
18D
100
AcDbEntity
  8
0
 62
   123
100
AcDbTrace
 10
21119.96669074771
 20
-2138.386470918379
 30
0.0
 11
21119.96669074771
 21
-2139.219804251712
 31
0.0
 12
21122.46669074771
 22
-2138.803137585047
 32
0.0
 13
21122.46669074771
 23
-2138.803137585047
 33
0.0
  0
MTEXT
  5
193
330
18D
100
AcDbEntity
  8
0
 62
     3
100
AcDbMText
 10
21089.39267569359
 20
-2136.303137585046
 30
0.0
 40
3.0
 41
0.0
 71
     5
 72
     1
  1
\A1;70
1001
ACAD
1000
MTEXTBEGIN
1070
    73
1070
     1
1070
    44
1040
1.0
1070
    74
1070
     0
1000
MTEXTEND
  0
POINT
  5
194
330
18D
100
AcDbEntity
  8
DEFPOINTS
 62
     0
100
AcDbPoint
 10
21052.46669074771
 20
-2156.370932710952
 30
0.0
  0
POINT
  5
195
330
18D
100
AcDbEntity
  8
DEFPOINTS
 62
     0
100
AcDbPoint
 10
21122.46669074771
 20
-2156.370932710952
 30
0.0
  0
POINT
  5
196
330
18D
100
AcDbEntity
  8
DEFPOINTS
 62
     0
100
AcDbPoint
 10
21122.46669074771
 20
-2138.803137585047
 30
0.0
  0
ENDBLK
  5
198
330
18D
100
AcDbEntity
  8
0
100
AcDbBlockEnd
  0
BLOCK
  5
1B3
330
1A9
100
AcDbEntity
  8
0
100
AcDbBlockBegin
  2
*D16
 70
     1
 10
0.0
 20
0.0
 30
0.0
  3
*D16
  1

  0
LINE
  5
1AA
330
1A9
100
AcDbEntity
  8
0
 62
   123
100
AcDbLine
 10
21204.82621516053
 20
-2140.758890872196
 30
0.0
 11
21204.82621516053
 21
-2140.158890872198
 31
0.0
  0
LINE
  5
1AB
330
1A9
100
AcDbEntity
  8
0
 62
   123
100
AcDbLine
 10
21211.82621516051
 20
-2151.772195369424
 30
0.0
 11
21211.82621516051
 21
-2140.158890872198
 31
0.0
  0
LINE
  5
1AC
330
1A9
100
AcDbEntity
  8
0
 62
   123
100
AcDbLine
 10
21207.32621516053
 20
-2140.758890872196
 30
0.0
 11
21209.32621516053
 21
-2140.758890872196
 31
0.0
  0
SOLID
  5
1AD
330
1A9
100
AcDbEntity
  8
0
 62
   123
100
AcDbTrace
 10
21207.32621516053
 20
-2140.34222420553
 30
0.0
 11
21207.32621516053
 21
-2141.175557538864
 31
0.0
 12
21204.82621516053
 22
-2140.758890872196
 32
0.0
 13
21204.82621516053
 23
-2140.758890872196
 33
0.0
  0
SOLID
  5
1AE
330
1A9
100
AcDbEntity
  8
0
 62
   123
100
AcDbTrace
 10
21209.32621516053
 20
-2140.34222420553
 30
0.0
 11
21209.32621516053
 21
-2141.175557538864
 31
0.0
 12
21211.82621516051
 22
-2140.758890872196
 32
0.0
 13
21211.82621516051
 23
-2140.758890872196
 33
0.0
  0
MTEXT
  5
1AF
330
1A9
100
AcDbEntity
  8
0
 62
     3
100
AcDbMText
 10
21208.32621516053
 20
-2138.258890872196
 30
0.0
 40
3.0
 41
0.0
 71
     5
 72
     1
  1
\A1;7
1001
ACAD
1000
MTEXTBEGIN
1070
    73
1070
     1
1070
    44
1040
1.0
1070
    74
1070
     0
1000
MTEXTEND
  0
POINT
  5
1B0
330
1A9
100
AcDbEntity
  8
DEFPOINTS
 62
     0
100
AcDbPoint
 10
21204.82621516053
 20
-2141.758890872198
 30
0.0
  0
POINT
  5
1B1
330
1A9
100
AcDbEntity
  8
DEFPOINTS
 62
     0
100
AcDbPoint
 10
21211.82621516051
 20
-2152.772195369423
 30
0.0
  0
POINT
  5
1B2
330
1A9
100
AcDbEntity
  8
DEFPOINTS
 62
     0
100
AcDbPoint
 10
21211.82621516051
 20
-2140.758890872196
 30
0.0
  0
ENDBLK
  5
1B4
330
1A9
100
AcDbEntity
  8
0
100
AcDbBlockEnd
  0
BLOCK
  5
C8
330
BC
100
AcDbEntity
  8
0
100
AcDbBlockBegin
  2
*D17
 70
     1
 10
0.0
 20
0.0
 30
0.0
  3
*D17
  1

  0
LINE
  5
BD
330
BC
100
AcDbEntity
  8
0
 62
   123
100
AcDbLine
 10
21087.46669074772
 20
-2228.472577815724
 30
0.0
 11
21087.46669074771
 21
-2243.33022972517
 31
0.0
  0
LINE
  5
BE
330
BC
100
AcDbEntity
  8
0
 62
   123
100
AcDbLine
 10
21102.34684886313
 20
-2222.294812243455
 30
0.0
 11
21109.2640700342
 21
-2238.994461408617
 31
0.0
  0
ARC
  5
BF
330
BC
100
AcDbEntity
  8
0
 62
   123
100
AcDbCircle
 10
21087.46669074771
 20
-2186.370932710945
 30
0.0
 40
56.35929701422316
100
AcDbArc
 50
272.5417491442641
 51
289.9582508557434
  0
SOLID
  5
C0
330
BC
100
AcDbEntity
  8
0
 62
   123
100
AcDbTrace
 10
21089.97531708285
 20
-2243.091346079987
 30
0.0
 11
21089.95683447711
 21
-2242.258217735894
 31
0.0
 12
21087.46669074772
 22
-2242.730229725168
 32
0.0
 13
21087.46669074772
 23
-2242.730229725168
 33
0.0
  0
SOLID
  5
C1
330
BC
100
AcDbEntity
  8
0
 62
   123
100
AcDbTrace
 10
21106.55323598202
 20
-2238.956988222571
 30
0.0
 11
21106.85498469516
 21
-2239.733771434638
 31
0.0
 12
21109.03445997479
 22
-2238.440133689111
 32
0.0
 13
21109.03445997479
 23
-2238.440133689111
 33
0.0
  0
MTEXT
  5
C2
330
BC
100
AcDbEntity
  8
0
 62
     3
100
AcDbMText
 10
21097.91837825377
 20
-2238.91511406953
 30
0.0
 40
3.0
 41
0.0
 71
     5
 72
     1
  1
\A1;22°30'
 11
0.9807852804032149
 21
0.1950903220162061
 31
0.0
1001
ACAD
1000
MTEXTBEGIN
1070
    73
1070
     1
1070
    44
1040
1.0
1070
    74
1070
     0
1000
MTEXTEND
  0
POINT
  5
C3
330
BC
100
AcDbEntity
  8
DEFPOINTS
 62
     0
100
AcDbPoint
 10
21094.82305518318
 20
-2242.248068126337
 30
0.0
  0
POINT
  5
C4
330
BC
100
AcDbEntity
  8
DEFPOINTS
 62
     0
100
AcDbPoint
 10
21087.46669074772
 20
-2227.472577815724
 30
0.0
  0
POINT
  5
C5
330
BC
100
AcDbEntity
  8
DEFPOINTS
 62
     0
100
AcDbPoint
 10
21087.46669074771
 20
-2186.370932710943
 30
0.0
  0
POINT
  5
C6
330
BC
100
AcDbEntity
  8
DEFPOINTS
 62
     0
100
AcDbPoint
 10
21101.96416543077
 20
-2221.370932710945
 30
0.0
  0
POINT
  5
C7
330
BC
100
AcDbEntity
  8
DEFPOINTS
 62
     0
100
AcDbPoint
 10
21087.4666907477
 20
-2144.323219706748
 30
0.0
  0
ENDBLK
  5
C9
330
BC
100
AcDbEntity
  8
0
100
AcDbBlockEnd
  0
BLOCK
  5
B4
330
A7
100
AcDbEntity
  8
0
100
AcDbBlockBegin
  2
*D18
 70
     1
 10
0.0
 20
0.0
 30
0.0
  3
*D18
  1

  0
LINE
  5
A8
330
A7
100
AcDbEntity
  8
0
 62
   123
100
AcDbLine
 10
21092.79685038669
 20
-2068.08226854326
 30
0.0
 11
21092.79685038669
 21
-2082.939920452703
 31
0.0
  0
LINE
  5
A9
330
A7
100
AcDbEntity
  8
0
 62
   123
100
AcDbLine
 10
21107.67700850212
 20
-2061.90450297099
 30
0.0
 11
21114.59422967319
 21
-2078.60415213615
 31
0.0
  0
ARC
  5
AA
330
A7
100
AcDbEntity
  8
0
 62
   123
100
AcDbCircle
 10
21092.79685038669
 20
-2025.980623438476
 30
0.0
 40
56.35929701422679
100
AcDbArc
 50
272.5417491442675
 51
289.9582508557477
  0
SOLID
  5
AB
330
A7
100
AcDbEntity
  8
0
 62
   123
100
AcDbTrace
 10
21095.30547672184
 20
-2082.70103680752
 30
0.0
 11
21095.2869941161
 21
-2081.867908463429
 31
0.0
 12
21092.79685038669
 22
-2082.339920452704
 32
0.0
 13
21092.79685038669
 23
-2082.339920452704
 33
0.0
  0
SOLID
  5
AC
330
A7
100
AcDbEntity
  8
0
 62
   123
100
AcDbTrace
 10
21111.883395621
 20
-2078.566678950103
 30
0.0
 11
21112.18514433415
 21
-2079.34346216217
 31
0.0
 12
21114.36461961378
 22
-2078.049824416642
 32
0.0
 13
21114.36461961378
 23
-2078.049824416642
 33
0.0
  0
MTEXT
  5
AD
330
A7
100
AcDbEntity
  8
0
 62
     3
100
AcDbMText
 10
21103.24853789276
 20
-2078.524804797065
 30
0.0
 40
3.0
 41
0.0
 71
     5
 72
     1
  1
\A1;22°30'
 11
0.9807852804032155
 21
0.1950903220162043
 31
0.0
1001
ACAD
1000
MTEXTBEGIN
1070
    73
1070
     1
1070
    44
1040
1.0
1070
    74
1070
     0
1000
MTEXTEND
  0
POINT
  5
AE
330
A7
100
AcDbEntity
  8
DEFPOINTS
 62
     0
100
AcDbPoint
 10
21100.15321482216
 20
-2081.857758853871
 30
0.0
  0
POINT
  5
B0
330
A7
100
AcDbEntity
  8
DEFPOINTS
 62
     0
100
AcDbPoint
 10
21092.79685038669
 20
-2067.08226854326
 30
0.0
  0
POINT
  5
B1
330
A7
100
AcDbEntity
  8
DEFPOINTS
 62
     0
100
AcDbPoint
 10
21092.79685038669
 20
-2025.98062343848
 30
0.0
  0
POINT
  5
B2
330
A7
100
AcDbEntity
  8
DEFPOINTS
 62
     0
100
AcDbPoint
 10
21107.29432506975
 20
-2060.98062343848
 30
0.0
  0
POINT
  5
B3
330
A7
100
AcDbEntity
  8
DEFPOINTS
 62
     0
100
AcDbPoint
 10
21092.79685038668
 20
-1983.932910434284
 30
0.0
  0
ENDBLK
  5
B5
330
A7
100
AcDbEntity
  8
0
100
AcDbBlockEnd
  0
BLOCK
  5
2B8
330
2AE
100
AcDbEntity
  8
0
100
AcDbBlockBegin
  2
*D19
 70
     1
 10
0.0
 20
0.0
 30
0.0
  3
*D19
  1

  0
LINE
  5
2AF
330
2AE
100
AcDbEntity
  8
0
 62
   123
100
AcDbLine
 10
237.8262728130212
 20
95.16935051588417
 30
0.0
 11
261.0869425059005
 21
95.16935051588417
 31
0.0
  0
LINE
  5
2B0
330
2AE
100
AcDbEntity
  8
0
 62
   123
100
AcDbLine
 10
237.8262728130212
 20
26.16935051588416
 30
0.0
 11
261.0869425059005
 21
26.16935051588415
 31
0.0
  0
LINE
  5
2B1
330
2AE
100
AcDbEntity
  8
0
 62
   123
100
AcDbLine
 10
260.4869425059005
 20
92.66935051588417
 30
0.0
 11
260.4869425059005
 21
28.66935051588415
 31
0.0
  0
SOLID
  5
2B2
330
2AE
100
AcDbEntity
  8
0
 62
   123
100
AcDbTrace
 10
260.0702758392338
 20
92.66935051588417
 30
0.0
 11
260.9036091725672
 21
92.66935051588417
 31
0.0
 12
260.4869425059005
 22
95.16935051588417
 32
0.0
 13
260.4869425059005
 23
95.16935051588417
 33
0.0
  0
SOLID
  5
2B3
330
2AE
100
AcDbEntity
  8
0
 62
   123
100
AcDbTrace
 10
260.0702758392338
 20
28.66935051588415
 30
0.0
 11
260.9036091725672
 21
28.66935051588415
 31
0.0
 12
260.4869425059005
 22
26.16935051588415
 32
0.0
 13
260.4869425059005
 23
26.16935051588415
 33
0.0
  0
MTEXT
  5
2B4
330
2AE
100
AcDbEntity
  8
0
 62
     3
100
AcDbMText
 10
257.9869425059005
 20
58.51326952579438
 30
0.0
 40
3.0
 41
0.0
 71
     5
 72
     1
  1
\A1;%%C69
 11
0.0000000000000001
 21
1.0
 31
0.0
1001
ACAD
1000
MTEXTBEGIN
1070
    73
1070
     1
1070
    44
1040
1.0
1070
    74
1070
     0
1000
MTEXTEND
  0
POINT
  5
2B5
330
2AE
100
AcDbEntity
  8
DEFPOINTS
 62
     0
100
AcDbPoint
 10
236.8262728130212
 20
95.16935051588417
 30
0.0
  0
POINT
  5
2B6
330
2AE
100
AcDbEntity
  8
DEFPOINTS
 62
     0
100
AcDbPoint
 10
236.8262728130212
 20
26.16935051588416
 30
0.0
  0
POINT
  5
2B7
330
2AE
100
AcDbEntity
  8
DEFPOINTS
 62
     0
100
AcDbPoint
 10
260.4869425059005
 20
26.16935051588415
 30
0.0
  0
ENDBLK
  5
2B9
330
2AE
100
AcDbEntity
  8
0
100
AcDbBlockEnd
  0
BLOCK
  5
2C6
330
2BA
100
AcDbEntity
  8
0
100
AcDbBlockBegin
  2
*D20
 70
     1
 10
0.0
 20
0.0
 30
0.0
  3
*D20
  1

  0
LINE
  5
2BB
330
2BA
100
AcDbEntity
  8
0
 62
   123
100
AcDbLine
 10
161.8262728130211
 20
93.66935051588416
 30
0.0
 11
161.8262728130211
 21
106.8813923546404
 31
0.0
  0
LINE
  5
2BC
330
2BA
100
AcDbEntity
  8
0
 62
   123
100
AcDbLine
 10
163.8262728130212
 20
96.66935051588417
 30
0.0
 11
163.8262728130212
 21
106.8813923546404
 31
0.0
  0
LINE
  5
2BD
330
2BA
100
AcDbEntity
  8
0
 62
   123
100
AcDbLine
 10
166.3262728130212
 20
106.2813923546405
 30
0.0
 11
168.8262728130212
 21
106.2813923546405
 31
0.0
  0
LINE
  5
2BE
330
2BA
100
AcDbEntity
  8
0
 62
   123
100
AcDbLine
 10
159.3262728130212
 20
106.2813923546405
 30
0.0
 11
152.8262728130212
 21
106.2813923546405
 31
0.0
  0
LINE
  5
2BF
330
2BA
100
AcDbEntity
  8
0
 62
   123
100
AcDbLine
 10
163.8262728130212
 20
106.2813923546405
 30
0.0
 11
161.8262728130211
 21
106.2813923546405
 31
0.0
  0
SOLID
  5
2C0
330
2BA
100
AcDbEntity
  8
0
 62
   123
100
AcDbTrace
 10
166.3262728130212
 20
106.6980590213071
 30
0.0
 11
166.3262728130212
 21
105.8647256879738
 31
0.0
 12
163.8262728130212
 22
106.2813923546405
 32
0.0
 13
163.8262728130212
 23
106.2813923546405
 33
0.0
  0
SOLID
  5
2C1
330
2BA
100
AcDbEntity
  8
0
 62
   123
100
AcDbTrace
 10
159.3262728130212
 20
106.6980590213071
 30
0.0
 11
159.3262728130212
 21
105.8647256879738
 31
0.0
 12
161.8262728130211
 22
106.2813923546405
 32
0.0
 13
161.8262728130211
 23
106.2813923546405
 33
0.0
  0
MTEXT
  5
2C2
330
2BA
100
AcDbEntity
  8
0
 62
     3
100
AcDbMText
 10
154.8262728130212
 20
108.7813923546405
 30
0.0
 40
3.0
 41
0.0
 71
     5
 72
     1
  1
\A1;2
1001
ACAD
1000
MTEXTBEGIN
1070
    73
1070
     1
1070
    44
1040
1.0
1070
    74
1070
     0
1000
MTEXTEND
  0
POINT
  5
2C3
330
2BA
100
AcDbEntity
  8
DEFPOINTS
 62
     0
100
AcDbPoint
 10
161.8262728130211
 20
92.66935051588417
 30
0.0
  0
POINT
  5
2C4
330
2BA
100
AcDbEntity
  8
DEFPOINTS
 62
     0
100
AcDbPoint
 10
163.8262728130212
 20
95.66935051588416
 30
0.0
  0
POINT
  5
2C5
330
2BA
100
AcDbEntity
  8
DEFPOINTS
 62
     0
100
AcDbPoint
 10
163.8262728130212
 20
106.2813923546405
 30
0.0
  0
ENDBLK
  5
2C7
330
2BA
100
AcDbEntity
  8
0
100
AcDbBlockEnd
  0
BLOCK
  5
2D4
330
2C8
100
AcDbEntity
  8
0
100
AcDbBlockBegin
  2
*D21
 70
     1
 10
0.0
 20
0.0
 30
0.0
  3
*D21
  1

  0
LINE
  5
2C9
330
2C8
100
AcDbEntity
  8
0
 62
   123
100
AcDbLine
 10
163.8262728130212
 20
106.2813923546396
 30
0.0
 11
163.8262728130212
 21
106.8813923546404
 31
0.0
  0
LINE
  5
2CA
330
2C8
100
AcDbEntity
  8
0
 62
   123
100
AcDbLine
 10
170.8262728130066
 20
95.26808785741332
 30
0.0
 11
170.8262728130066
 21
106.8813923546404
 31
0.0
  0
LINE
  5
2CB
330
2C8
100
AcDbEntity
  8
0
 62
   123
100
AcDbLine
 10
161.3262728130212
 20
106.2813923546405
 30
0.0
 11
158.8262728130212
 21
106.2813923546405
 31
0.0
  0
LINE
  5
2CC
330
2C8
100
AcDbEntity
  8
0
 62
   123
100
AcDbLine
 10
173.3262728130066
 20
106.2813923546405
 30
0.0
 11
175.8262728130066
 21
106.2813923546405
 31
0.0
  0
LINE
  5
2CD
330
2C8
100
AcDbEntity
  8
0
 62
   123
100
AcDbLine
 10
163.8262728130212
 20
106.2813923546405
 30
0.0
 11
170.8262728130066
 21
106.2813923546405
 31
0.0
  0
SOLID
  5
2CE
330
2C8
100
AcDbEntity
  8
0
 62
   123
100
AcDbTrace
 10
161.3262728130212
 20
106.6980590213071
 30
0.0
 11
161.3262728130212
 21
105.8647256879738
 31
0.0
 12
163.8262728130212
 22
106.2813923546405
 32
0.0
 13
163.8262728130212
 23
106.2813923546405
 33
0.0
  0
SOLID
  5
2CF
330
2C8
100
AcDbEntity
  8
0
 62
   123
100
AcDbTrace
 10
173.3262728130066
 20
106.6980590213071
 30
0.0
 11
173.3262728130066
 21
105.8647256879738
 31
0.0
 12
170.8262728130066
 22
106.2813923546405
 32
0.0
 13
170.8262728130066
 23
106.2813923546405
 33
0.0
  0
MTEXT
  5
2D0
330
2C8
100
AcDbEntity
  8
0
 62
     3
100
AcDbMText
 10
167.3262728130139
 20
108.7813923546405
 30
0.0
 40
3.0
 41
0.0
 71
     5
 72
     1
  1
\A1;7
1001
ACAD
1000
MTEXTBEGIN
1070
    73
1070
     1
1070
    44
1040
1.0
1070
    74
1070
     0
1000
MTEXTEND
  0
POINT
  5
2D1
330
2C8
100
AcDbEntity
  8
DEFPOINTS
 62
     0
100
AcDbPoint
 10
163.8262728130212
 20
105.2813923546396
 30
0.0
  0
POINT
  5
2D2
330
2C8
100
AcDbEntity
  8
DEFPOINTS
 62
     0
100
AcDbPoint
 10
170.8262728130066
 20
94.26808785741332
 30
0.0
  0
POINT
  5
2D3
330
2C8
100
AcDbEntity
  8
DEFPOINTS
 62
     0
100
AcDbPoint
 10
170.8262728130066
 20
106.2813923546405
 30
0.0
  0
ENDBLK
  5
2D5
330
2C8
100
AcDbEntity
  8
0
100
AcDbBlockEnd
  0
BLOCK
  5
2E0
330
2D6
100
AcDbEntity
  8
0
100
AcDbBlockBegin
  2
*D22
 70
     1
 10
0.0
 20
0.0
 30
0.0
  3
*D22
  1

  0
LINE
  5
2D7
330
2D6
100
AcDbEntity
  8
0
 62
   123
100
AcDbLine
 10
139.8262728130212
 20
64.16924013042716
 30
0.0
 11
139.8262728130212
 21
118.1177905497912
 31
0.0
  0
LINE
  5
2D8
330
2D6
100
AcDbEntity
  8
0
 62
   123
100
AcDbLine
 10
163.8262728130212
 20
96.66935051588417
 30
0.0
 11
163.8262728130212
 21
118.1177905497912
 31
0.0
  0
LINE
  5
2D9
330
2D6
100
AcDbEntity
  8
0
 62
   123
100
AcDbLine
 10
142.3262728130212
 20
117.5177905497912
 30
0.0
 11
161.3262728130212
 21
117.5177905497912
 31
0.0
  0
SOLID
  5
2DA
330
2D6
100
AcDbEntity
  8
0
 62
   123
100
AcDbTrace
 10
142.3262728130212
 20
117.9344572164579
 30
0.0
 11
142.3262728130212
 21
117.1011238831245
 31
0.0
 12
139.8262728130212
 22
117.5177905497912
 32
0.0
 13
139.8262728130212
 23
117.5177905497912
 33
0.0
  0
SOLID
  5
2DB
330
2D6
100
AcDbEntity
  8
0
 62
   123
100
AcDbTrace
 10
161.3262728130212
 20
117.9344572164579
 30
0.0
 11
161.3262728130212
 21
117.1011238831245
 31
0.0
 12
163.8262728130212
 22
117.5177905497912
 32
0.0
 13
163.8262728130212
 23
117.5177905497912
 33
0.0
  0
MTEXT
  5
2DC
330
2D6
100
AcDbEntity
  8
0
 62
     3
100
AcDbMText
 10
151.8262728130066
 20
120.0177905497912
 30
0.0
 40
3.0
 41
0.0
 71
     5
 72
     1
  1
\A1;24
1001
ACAD
1000
MTEXTBEGIN
1070
    73
1070
     1
1070
    44
1040
1.0
1070
    74
1070
     0
1000
MTEXTEND
  0
POINT
  5
2DD
330
2D6
100
AcDbEntity
  8
DEFPOINTS
 62
     0
100
AcDbPoint
 10
139.8262728130212
 20
63.16924013042717
 30
0.0
  0
POINT
  5
2DE
330
2D6
100
AcDbEntity
  8
DEFPOINTS
 62
     0
100
AcDbPoint
 10
163.8262728130212
 20
95.66935051588416
 30
0.0
  0
POINT
  5
2DF
330
2D6
100
AcDbEntity
  8
DEFPOINTS
 62
     0
100
AcDbPoint
 10
163.8262728130212
 20
117.5177905497912
 30
0.0
  0
ENDBLK
  5
2E1
330
2D6
100
AcDbEntity
  8
0
100
AcDbBlockEnd
  0
BLOCK
  5
2EC
330
2E2
100
AcDbEntity
  8
0
100
AcDbBlockBegin
  2
*D23
 70
     1
 10
0.0
 20
0.0
 30
0.0
  3
*D23
  1

  0
LINE
  5
2E3
330
2E2
100
AcDbEntity
  8
0
 62
   123
100
AcDbLine
 10
11.46674840020205
 20
91.66935051588508
 30
0.0
 11
11.46674840020205
 21
108.8371456417904
 31
0.0
  0
LINE
  5
2E4
330
2E2
100
AcDbEntity
  8
0
 62
   123
100
AcDbLine
 10
81.46674840020205
 20
91.66935051588508
 30
0.0
 11
81.46674840020205
 21
108.8371456417904
 31
0.0
  0
LINE
  5
2E5
330
2E2
100
AcDbEntity
  8
0
 62
   123
100
AcDbLine
 10
13.96674840020205
 20
108.2371456417904
 30
0.0
 11
78.96674840020205
 21
108.2371456417904
 31
0.0
  0
SOLID
  5
2E6
330
2E2
100
AcDbEntity
  8
0
 62
   123
100
AcDbTrace
 10
13.96674840020205
 20
108.6538123084571
 30
0.0
 11
13.96674840020205
 21
107.8204789751237
 31
0.0
 12
11.46674840020205
 22
108.2371456417904
 32
0.0
 13
11.46674840020205
 23
108.2371456417904
 33
0.0
  0
SOLID
  5
2E7
330
2E2
100
AcDbEntity
  8
0
 62
   123
100
AcDbTrace
 10
78.96674840020205
 20
108.6538123084571
 30
0.0
 11
78.96674840020205
 21
107.8204789751237
 31
0.0
 12
81.46674840020205
 22
108.2371456417904
 32
0.0
 13
81.46674840020205
 23
108.2371456417904
 33
0.0
  0
MTEXT
  5
2E8
330
2E2
100
AcDbEntity
  8
0
 62
     3
100
AcDbMText
 10
48.39273334608151
 20
110.7371456417904
 30
0.0
 40
3.0
 41
0.0
 71
     5
 72
     1
  1
\A1;70
1001
ACAD
1000
MTEXTBEGIN
1070
    73
1070
     1
1070
    44
1040
1.0
1070
    74
1070
     0
1000
MTEXTEND
  0
POINT
  5
2E9
330
2E2
100
AcDbEntity
  8
DEFPOINTS
 62
     0
100
AcDbPoint
 10
11.46674840020205
 20
90.66935051588506
 30
0.0
  0
POINT
  5
2EA
330
2E2
100
AcDbEntity
  8
DEFPOINTS
 62
     0
100
AcDbPoint
 10
81.46674840020205
 20
90.66935051588506
 30
0.0
  0
POINT
  5
2EB
330
2E2
100
AcDbEntity
  8
DEFPOINTS
 62
     0
100
AcDbPoint
 10
81.46674840020205
 20
108.2371456417904
 30
0.0
  0
ENDBLK
  5
2ED
330
2E2
100
AcDbEntity
  8
0
100
AcDbBlockEnd
  0
BLOCK
  5
2F8
330
2EE
100
AcDbEntity
  8
0
100
AcDbBlockBegin
  2
*D24
 70
     1
 10
0.0
 20
0.0
 30
0.0
  3
*D24
  1

  0
LINE
  5
2EF
330
2EE
100
AcDbEntity
  8
0
 62
   123
100
AcDbLine
 10
160.8262728130211
 20
92.66935051588417
 30
0.0
 11
114.9552166653396
 21
92.66935051588417
 31
0.0
  0
LINE
  5
2F0
330
2EE
100
AcDbEntity
  8
0
 62
   123
100
AcDbLine
 10
159.3678735271496
 20
28.66935051588416
 30
0.0
 11
114.9552166653396
 21
28.66935051588417
 31
0.0
  0
LINE
  5
2F1
330
2EE
100
AcDbEntity
  8
0
 62
   123
100
AcDbLine
 10
115.5552166653396
 20
90.16935051588417
 30
0.0
 11
115.5552166653396
 21
31.16935051588417
 31
0.0
  0
SOLID
  5
2F2
330
2EE
100
AcDbEntity
  8
0
 62
   123
100
AcDbTrace
 10
115.138549998673
 20
90.16935051588417
 30
0.0
 11
115.9718833320063
 21
90.16935051588417
 31
0.0
 12
115.5552166653396
 22
92.66935051588417
 32
0.0
 13
115.5552166653396
 23
92.66935051588417
 33
0.0
  0
SOLID
  5
2F3
330
2EE
100
AcDbEntity
  8
0
 62
   123
100
AcDbTrace
 10
115.138549998673
 20
31.16935051588417
 30
0.0
 11
115.9718833320063
 21
31.16935051588417
 31
0.0
 12
115.5552166653396
 22
28.66935051588417
 32
0.0
 13
115.5552166653396
 23
28.66935051588417
 33
0.0
  0
MTEXT
  5
2F4
330
2EE
100
AcDbEntity
  8
0
 62
     3
100
AcDbMText
 10
111.6050666653396
 20
57.34050469192425
 30
0.0
 40
3.0
 41
0.0
 71
     5
 72
     1
  1
\A1;\A1;%%C64{\F;\H0.7x;\S+0^ -0.03;\H1.429x;(h7)} 
 11
0.0000000000000001
 21
1.0
 31
0.0
1001
ACAD
1000
MTEXTBEGIN
1070
    73
1070
     1
1070
    44
1040
1.0
1070
    74
1070
     0
1000
MTEXTEND
  0
POINT
  5
2F5
330
2EE
100
AcDbEntity
  8
DEFPOINTS
 62
     0
100
AcDbPoint
 10
161.8262728130211
 20
92.66935051588417
 30
0.0
  0
POINT
  5
2F6
330
2EE
100
AcDbEntity
  8
DEFPOINTS
 62
     0
100
AcDbPoint
 10
160.3678735271496
 20
28.66935051588416
 30
0.0
  0
POINT
  5
2F7
330
2EE
100
AcDbEntity
  8
DEFPOINTS
 62
     0
100
AcDbPoint
 10
115.5552166653396
 20
28.66935051588417
 30
0.0
  0
ENDBLK
  5
2F9
330
2EE
100
AcDbEntity
  8
0
100
AcDbBlockEnd
  0
BLOCK
  5
306
330
2FA
100
AcDbEntity
  8
0
100
AcDbBlockBegin
  2
*D25
 70
     1
 10
0.0
 20
0.0
 30
0.0
  3
*D25
  1

  0
LINE
  5
2FB
330
2FA
100
AcDbEntity
  8
0
 62
   123
100
AcDbLine
 10
139.3262728130066
 20
63.66924013042717
 30
0.0
 11
125.2786419404605
 21
63.66924013042717
 31
0.0
  0
LINE
  5
2FC
330
2FA
100
AcDbEntity
  8
0
 62
   123
100
AcDbLine
 10
139.3262728130066
 20
57.66946090134024
 30
0.0
 11
125.2786419404605
 21
57.66946090134024
 31
0.0
  0
LINE
  5
2FD
330
2FA
100
AcDbEntity
  8
0
 62
   123
100
AcDbLine
 10
125.8786419404605
 20
66.16924013042717
 30
0.0
 11
125.8786419404605
 21
68.66924013042717
 31
0.0
  0
LINE
  5
2FE
330
2FA
100
AcDbEntity
  8
0
 62
   123
100
AcDbLine
 10
125.8786419404605
 20
55.16946090134024
 30
0.0
 11
125.8786419404605
 21
52.66946090134024
 31
0.0
  0
LINE
  5
2FF
330
2FA
100
AcDbEntity
  8
0
 62
   123
100
AcDbLine
 10
125.8786419404605
 20
63.66924013042717
 30
0.0
 11
125.8786419404605
 21
57.66946090134024
 31
0.0
  0
SOLID
  5
300
330
2FA
100
AcDbEntity
  8
0
 62
   123
100
AcDbTrace
 10
125.4619752737938
 20
66.16924013042717
 30
0.0
 11
126.2953086071272
 21
66.16924013042717
 31
0.0
 12
125.8786419404605
 22
63.66924013042717
 32
0.0
 13
125.8786419404605
 23
63.66924013042717
 33
0.0
  0
SOLID
  5
301
330
2FA
100
AcDbEntity
  8
0
 62
   123
100
AcDbTrace
 10
125.4619752737938
 20
55.16946090134024
 30
0.0
 11
126.2953086071272
 21
55.16946090134024
 31
0.0
 12
125.8786419404605
 22
57.66946090134024
 32
0.0
 13
125.8786419404605
 23
57.66946090134024
 33
0.0
  0
MTEXT
  5
302
330
2FA
100
AcDbEntity
  8
0
 62
     3
100
AcDbMText
 10
121.9284919404605
 20
60.66935051588373
 30
0.0
 40
3.0
 41
0.0
 71
     5
 72
     1
  1
\A1;\A1;%%c6{\H0.7x;\S+0^ -0.012;\F;\H1.429x;(h7)}  
 11
0.0000000000000001
 21
1.0
 31
0.0
1001
ACAD
1000
MTEXTBEGIN
1070
    73
1070
     1
1070
    44
1040
1.0
1070
    74
1070
     0
1000
MTEXTEND
  0
POINT
  5
303
330
2FA
100
AcDbEntity
  8
DEFPOINTS
 62
     0
100
AcDbPoint
 10
140.3262728130066
 20
63.66924013042717
 30
0.0
  0
POINT
  5
304
330
2FA
100
AcDbEntity
  8
DEFPOINTS
 62
     0
100
AcDbPoint
 10
140.3262728130066
 20
57.66946090134024
 30
0.0
  0
POINT
  5
305
330
2FA
100
AcDbEntity
  8
DEFPOINTS
 62
     0
100
AcDbPoint
 10
125.8786419404605
 20
57.66946090134024
 30
0.0
  0
ENDBLK
  5
307
330
2FA
100
AcDbEntity
  8
0
100
AcDbBlockEnd
  0
BLOCK
  5
312
330
308
100
AcDbEntity
  8
0
100
AcDbBlockBegin
  2
*D26
 70
     1
 10
0.0
 20
0.0
 30
0.0
  3
*D26
  1

  0
LINE
  5
309
330
308
100
AcDbEntity
  8
0
 62
   123
100
AcDbLine
 10
163.8262728130212
 20
118.5177905497912
 30
0.0
 11
163.8262728130212
 21
118.1177905497912
 31
0.0
  0
LINE
  5
30A
330
308
100
AcDbEntity
  8
0
 62
   123
100
AcDbLine
 10
243.8262728130212
 20
93.66935051588416
 30
0.0
 11
243.8262728130212
 21
118.1177905497912
 31
0.0
  0
LINE
  5
30B
330
308
100
AcDbEntity
  8
0
 62
   123
100
AcDbLine
 10
166.3262728130212
 20
117.5177905497912
 30
0.0
 11
241.3262728130212
 21
117.5177905497912
 31
0.0
  0
SOLID
  5
30C
330
308
100
AcDbEntity
  8
0
 62
   123
100
AcDbTrace
 10
166.3262728130212
 20
117.9344572164579
 30
0.0
 11
166.3262728130212
 21
117.1011238831245
 31
0.0
 12
163.8262728130212
 22
117.5177905497912
 32
0.0
 13
163.8262728130212
 23
117.5177905497912
 33
0.0
  0
SOLID
  5
30D
330
308
100
AcDbEntity
  8
0
 62
   123
100
AcDbTrace
 10
241.3262728130212
 20
117.9344572164579
 30
0.0
 11
241.3262728130212
 21
117.1011238831245
 31
0.0
 12
243.8262728130212
 22
117.5177905497912
 32
0.0
 13
243.8262728130212
 23
117.5177905497912
 33
0.0
  0
MTEXT
  5
30E
330
308
100
AcDbEntity
  8
0
 62
     3
100
AcDbMText
 10
201.3262728130066
 20
120.0177905497912
 30
0.0
 40
3.0
 41
0.0
 71
     5
 72
     1
  1
\A1;80
1001
ACAD
1000
MTEXTBEGIN
1070
    73
1070
     1
1070
    44
1040
1.0
1070
    74
1070
     0
1000
MTEXTEND
  0
POINT
  5
30F
330
308
100
AcDbEntity
  8
DEFPOINTS
 62
     0
100
AcDbPoint
 10
163.8262728130212
 20
117.5177905497912
 30
0.0
  0
POINT
  5
310
330
308
100
AcDbEntity
  8
DEFPOINTS
 62
     0
100
AcDbPoint
 10
243.8262728130212
 20
92.66935051588417
 30
0.0
  0
POINT
  5
311
330
308
100
AcDbEntity
  8
DEFPOINTS
 62
     0
100
AcDbPoint
 10
243.8262728130212
 20
117.5177905497912
 30
0.0
  0
ENDBLK
  5
313
330
308
100
AcDbEntity
  8
0
100
AcDbBlockEnd
  0
BLOCK
  5
320
330
314
100
AcDbEntity
  8
0
100
AcDbBlockBegin
  2
*D27
 70
     1
 10
0.0
 20
0.0
 30
0.0
  3
*D27
  1

  0
LINE
  5
394
330
314
100
AcDbEntity
  8
0
 62
   123
100
AcDbLine
 10
46.46674840020218
 20
18.56770541111336
 30
0.0
 11
46.46674840020413
 21
3.710053501668151
 31
0.0
  0
LINE
  5
395
330
314
100
AcDbEntity
  8
0
 62
   123
100
AcDbLine
 10
61.34690651562657
 20
24.74547098338197
 30
0.0
 11
68.26412768670929
 21
8.045821818220993
 31
0.0
  0
ARC
  5
396
330
314
100
AcDbEntity
  8
0
 62
   123
100
AcDbCircle
 10
46.46674840019666
 20
60.66935051590627
 30
0.0
 40
56.35929701423812
100
AcDbArc
 50
272.5417491442643
 51
289.9582508557447
  0
SOLID
  5
397
330
314
100
AcDbEntity
  8
0
 62
   123
100
AcDbTrace
 10
48.97537473535145
 20
3.948937146851499
 30
0.0
 11
48.95689212960834
 21
4.782065490943446
 31
0.0
 12
46.46674840020405
 22
4.310053501668152
 32
0.0
 13
46.46674840020405
 23
4.310053501668152
 33
0.0
  0
SOLID
  5
398
330
314
100
AcDbEntity
  8
0
 62
   123
100
AcDbTrace
 10
65.553293634509
 20
8.083295004267913
 30
0.0
 11
65.85504234767334
 21
7.306511792201567
 31
0.0
 12
68.03451762729022
 22
8.600149537727761
 32
0.0
 13
68.03451762729022
 23
8.600149537727761
 33
0.0
  0
MTEXT
  5
399
330
314
100
AcDbEntity
  8
0
 62
     3
100
AcDbMText
 10
56.91843590626621
 20
8.125169157306187
 30
0.0
 40
3.0
 41
0.0
 71
     5
 72
     1
  1
\A1;22°30'
 11
0.9807852804032149
 21
0.195090322016206
 31
0.0
  0
POINT
  5
39A
330
314
100
AcDbEntity
  8
DEFPOINTS
 62
     0
100
AcDbPoint
 10
53.82311283566947
 20
4.792215100500263
 30
0.0
  0
POINT
  5
39B
330
314
100
AcDbEntity
  8
DEFPOINTS
 62
     0
100
AcDbPoint
 10
46.46674840020206
 20
19.56770541111336
 30
0.0
  0
POINT
  5
39C
330
314
100
AcDbEntity
  8
DEFPOINTS
 62
     0
100
AcDbPoint
 10
46.46674840020205
 20
60.66935051589325
 30
0.0
  0
POINT
  5
39D
330
314
100
AcDbEntity
  8
DEFPOINTS
 62
     0
100
AcDbPoint
 10
60.96422308326145
 20
25.66935051589325
 30
0.0
  0
POINT
  5
39E
330
314
100
AcDbEntity
  8
DEFPOINTS
 62
     0
100
AcDbPoint
 10
46.46674840019114
 20
102.7170635200891
 30
0.0
  0
ENDBLK
  5
321
330
314
100
AcDbEntity
  8
0
100
AcDbBlockEnd
  0
BLOCK
  5
32C
330
322
100
AcDbEntity
  8
0
100
AcDbBlockBegin
  2
*D28
 70
     1
 10
0.0
 20
0.0
 30
0.0
  3
*D28
  1

  0
LINE
  5
323
330
322
100
AcDbEntity
  8
0
 62
   123
100
AcDbLine
 10
216.1844341285723
 20
255.5596597883604
 30
0.0
 11
239.4451038214516
 21
255.5596597883604
 31
0.0
  0
LINE
  5
324
330
322
100
AcDbEntity
  8
0
 62
   123
100
AcDbLine
 10
216.1844341285723
 20
186.5596597883604
 30
0.0
 11
239.4451038214516
 21
186.5596597883604
 31
0.0
  0
LINE
  5
325
330
322
100
AcDbEntity
  8
0
 62
   123
100
AcDbLine
 10
238.8451038214516
 20
253.0596597883604
 30
0.0
 11
238.8451038214516
 21
189.0596597883604
 31
0.0
  0
SOLID
  5
326
330
322
100
AcDbEntity
  8
0
 62
   123
100
AcDbTrace
 10
238.428437154785
 20
253.0596597883604
 30
0.0
 11
239.2617704881183
 21
253.0596597883604
 31
0.0
 12
238.8451038214516
 22
255.5596597883604
 32
0.0
 13
238.8451038214516
 23
255.5596597883604
 33
0.0
  0
SOLID
  5
327
330
322
100
AcDbEntity
  8
0
 62
   123
100
AcDbTrace
 10
238.4284371547849
 20
189.0596597883604
 30
0.0
 11
239.2617704881183
 21
189.0596597883604
 31
0.0
 12
238.8451038214516
 22
186.5596597883604
 32
0.0
 13
238.8451038214516
 23
186.5596597883604
 33
0.0
  0
MTEXT
  5
328
330
322
100
AcDbEntity
  8
0
 62
     3
100
AcDbMText
 10
236.3451038214516
 20
218.9035787982713
 30
0.0
 40
3.0
 41
0.0
 71
     5
 72
     1
  1
\A1;%%C69
 11
0.0000000000000001
 21
1.0
 31
0.0
1001
ACAD
1000
MTEXTBEGIN
1070
    73
1070
     1
1070
    44
1040
1.0
1070
    74
1070
     0
1000
MTEXTEND
  0
POINT
  5
329
330
322
100
AcDbEntity
  8
DEFPOINTS
 62
     0
100
AcDbPoint
 10
215.1844341285723
 20
255.5596597883604
 30
0.0
  0
POINT
  5
32A
330
322
100
AcDbEntity
  8
DEFPOINTS
 62
     0
100
AcDbPoint
 10
215.1844341285723
 20
186.5596597883604
 30
0.0
  0
POINT
  5
32B
330
322
100
AcDbEntity
  8
DEFPOINTS
 62
     0
100
AcDbPoint
 10
238.8451038214516
 20
186.5596597883604
 30
0.0
  0
ENDBLK
  5
32D
330
322
100
AcDbEntity
  8
0
100
AcDbBlockEnd
  0
BLOCK
  5
338
330
32E
100
AcDbEntity
  8
0
100
AcDbBlockBegin
  2
*D29
 70
     1
 10
0.0
 20
0.0
 30
0.0
  3
*D29
  1

  0
LINE
  5
32F
330
32E
100
AcDbEntity
  8
0
 62
   123
100
AcDbLine
 10
16.79690803918129
 20
252.0596597883614
 30
0.0
 11
16.79690803918129
 21
269.2274549142663
 31
0.0
  0
LINE
  5
330
330
32E
100
AcDbEntity
  8
0
 62
   123
100
AcDbLine
 10
86.79690803918129
 20
252.0596597883614
 30
0.0
 11
86.79690803918129
 21
269.2274549142663
 31
0.0
  0
LINE
  5
331
330
32E
100
AcDbEntity
  8
0
 62
   123
100
AcDbLine
 10
19.29690803918129
 20
268.6274549142662
 30
0.0
 11
84.29690803918129
 21
268.6274549142662
 31
0.0
  0
SOLID
  5
332
330
32E
100
AcDbEntity
  8
0
 62
   123
100
AcDbTrace
 10
19.29690803918129
 20
269.0441215809329
 30
0.0
 11
19.29690803918129
 21
268.2107882475996
 31
0.0
 12
16.79690803918129
 22
268.6274549142662
 32
0.0
 13
16.79690803918129
 23
268.6274549142662
 33
0.0
  0
SOLID
  5
333
330
32E
100
AcDbEntity
  8
0
 62
   123
100
AcDbTrace
 10
84.29690803918129
 20
269.0441215809329
 30
0.0
 11
84.29690803918129
 21
268.2107882475996
 31
0.0
 12
86.79690803918129
 22
268.6274549142662
 32
0.0
 13
86.79690803918129
 23
268.6274549142662
 33
0.0
  0
MTEXT
  5
334
330
32E
100
AcDbEntity
  8
0
 62
     3
100
AcDbMText
 10
51.79690803918129
 20
271.1274549142663
 30
0.0
 40
3.0
 41
0.0
 71
     5
 72
     1
  1
\A1;70
1001
ACAD
1000
MTEXTBEGIN
1070
    73
1070
     1
1070
    44
1040
1.0
1070
    74
1070
     0
1000
MTEXTEND
  0
POINT
  5
335
330
32E
100
AcDbEntity
  8
DEFPOINTS
 62
     0
100
AcDbPoint
 10
16.79690803918129
 20
251.0596597883613
 30
0.0
  0
POINT
  5
336
330
32E
100
AcDbEntity
  8
DEFPOINTS
 62
     0
100
AcDbPoint
 10
86.79690803918129
 20
251.0596597883613
 30
0.0
  0
POINT
  5
337
330
32E
100
AcDbEntity
  8
DEFPOINTS
 62
     0
100
AcDbPoint
 10
86.79690803918129
 20
268.6274549142662
 30
0.0
  0
ENDBLK
  5
339
330
32E
100
AcDbEntity
  8
0
100
AcDbBlockEnd
  0
BLOCK
  5
344
330
33A
100
AcDbEntity
  8
0
100
AcDbBlockBegin
  2
*D30
 70
     1
 10
0.0
 20
0.0
 30
0.0
  3
*D30
  1

  0
LINE
  5
33B
330
33A
100
AcDbEntity
  8
0
 62
   123
100
AcDbLine
 10
142.1844341285723
 20
266.2679931216932
 30
0.0
 11
142.1844341285723
 21
266.8679931216932
 31
0.0
  0
LINE
  5
33C
330
33A
100
AcDbEntity
  8
0
 62
   123
100
AcDbLine
 10
149.1844341285723
 20
255.6583971298894
 30
0.0
 11
149.1844341285723
 21
266.8679931216932
 31
0.0
  0
LINE
  5
33D
330
33A
100
AcDbEntity
  8
0
 62
   123
100
AcDbLine
 10
144.6844341285723
 20
266.2679931216932
 30
0.0
 11
146.6844341285723
 21
266.2679931216932
 31
0.0
  0
SOLID
  5
33E
330
33A
100
AcDbEntity
  8
0
 62
   123
100
AcDbTrace
 10
144.6844341285723
 20
266.6846597883599
 30
0.0
 11
144.6844341285723
 21
265.8513264550265
 31
0.0
 12
142.1844341285723
 22
266.2679931216932
 32
0.0
 13
142.1844341285723
 23
266.2679931216932
 33
0.0
  0
SOLID
  5
33F
330
33A
100
AcDbEntity
  8
0
 62
   123
100
AcDbTrace
 10
146.6844341285723
 20
266.6846597883599
 30
0.0
 11
146.6844341285723
 21
265.8513264550265
 31
0.0
 12
149.1844341285723
 22
266.2679931216932
 32
0.0
 13
149.1844341285723
 23
266.2679931216932
 33
0.0
  0
MTEXT
  5
340
330
33A
100
AcDbEntity
  8
0
 62
     3
100
AcDbMText
 10
145.6844341285723
 20
268.7679931216933
 30
0.0
 40
3.0
 41
0.0
 71
     5
 72
     1
  1
\A1;7
1001
ACAD
1000
MTEXTBEGIN
1070
    73
1070
     1
1070
    44
1040
1.0
1070
    74
1070
     0
1000
MTEXTEND
  0
POINT
  5
341
330
33A
100
AcDbEntity
  8
DEFPOINTS
 62
     0
100
AcDbPoint
 10
142.1844341285723
 20
265.2679931216932
 30
0.0
  0
POINT
  5
342
330
33A
100
AcDbEntity
  8
DEFPOINTS
 62
     0
100
AcDbPoint
 10
149.1844341285723
 20
254.6583971298894
 30
0.0
  0
POINT
  5
343
330
33A
100
AcDbEntity
  8
DEFPOINTS
 62
     0
100
AcDbPoint
 10
149.1844341285723
 20
266.2679931216932
 30
0.0
  0
ENDBLK
  5
345
330
33A
100
AcDbEntity
  8
0
100
AcDbBlockEnd
  0
BLOCK
  5
352
330
346
100
AcDbEntity
  8
0
100
AcDbBlockBegin
  2
*D31
 70
     1
 10
0.0
 20
0.0
 30
0.0
  3
*D31
  1

  0
LINE
  5
347
330
346
100
AcDbEntity
  8
0
 62
   123
100
AcDbLine
 10
140.1844341285723
 20
254.0596597883593
 30
0.0
 11
140.1844341285723
 21
266.8679931216932
 31
0.0
  0
LINE
  5
348
330
346
100
AcDbEntity
  8
0
 62
   123
100
AcDbLine
 10
142.1844341285723
 20
257.0596597883604
 30
0.0
 11
142.1844341285723
 21
266.8679931216932
 31
0.0
  0
LINE
  5
349
330
346
100
AcDbEntity
  8
0
 62
   123
100
AcDbLine
 10
144.6844341285723
 20
266.2679931216932
 30
0.0
 11
147.1844341285723
 21
266.2679931216932
 31
0.0
  0
LINE
  5
34A
330
346
100
AcDbEntity
  8
0
 62
   123
100
AcDbLine
 10
137.6844341285723
 20
266.2679931216932
 30
0.0
 11
131.1844341285723
 21
266.2679931216932
 31
0.0
  0
LINE
  5
34B
330
346
100
AcDbEntity
  8
0
 62
   123
100
AcDbLine
 10
142.1844341285723
 20
266.2679931216932
 30
0.0
 11
140.1844341285723
 21
266.2679931216932
 31
0.0
  0
SOLID
  5
34C
330
346
100
AcDbEntity
  8
0
 62
   123
100
AcDbTrace
 10
144.6844341285723
 20
266.6846597883599
 30
0.0
 11
144.6844341285723
 21
265.8513264550265
 31
0.0
 12
142.1844341285723
 22
266.2679931216932
 32
0.0
 13
142.1844341285723
 23
266.2679931216932
 33
0.0
  0
SOLID
  5
34D
330
346
100
AcDbEntity
  8
0
 62
   123
100
AcDbTrace
 10
137.6844341285723
 20
266.6846597883599
 30
0.0
 11
137.6844341285723
 21
265.8513264550265
 31
0.0
 12
140.1844341285723
 22
266.2679931216932
 32
0.0
 13
140.1844341285723
 23
266.2679931216932
 33
0.0
  0
MTEXT
  5
34E
330
346
100
AcDbEntity
  8
0
 62
     3
100
AcDbMText
 10
133.1844341285723
 20
268.7679931216933
 30
0.0
 40
3.0
 41
0.0
 71
     5
 72
     1
  1
\A1;2
1001
ACAD
1000
MTEXTBEGIN
1070
    73
1070
     1
1070
    44
1040
1.0
1070
    74
1070
     0
1000
MTEXTEND
  0
POINT
  5
34F
330
346
100
AcDbEntity
  8
DEFPOINTS
 62
     0
100
AcDbPoint
 10
140.1844341285723
 20
253.0596597883593
 30
0.0
  0
POINT
  5
350
330
346
100
AcDbEntity
  8
DEFPOINTS
 62
     0
100
AcDbPoint
 10
142.1844341285723
 20
256.0596597883604
 30
0.0
  0
POINT
  5
351
330
346
100
AcDbEntity
  8
DEFPOINTS
 62
     0
100
AcDbPoint
 10
142.1844341285723
 20
266.2679931216932
 30
0.0
  0
ENDBLK
  5
353
330
346
100
AcDbEntity
  8
0
100
AcDbBlockEnd
  0
BLOCK
  5
35E
330
354
100
AcDbEntity
  8
0
100
AcDbBlockBegin
  2
*D32
 70
     1
 10
0.0
 20
0.0
 30
0.0
  3
*D32
  1

  0
LINE
  5
355
330
354
100
AcDbEntity
  8
0
 62
   123
100
AcDbLine
 10
139.1844341285723
 20
253.0596597883593
 30
0.0
 11
116.4139872446889
 21
253.0596597883593
 31
0.0
  0
LINE
  5
356
330
354
100
AcDbEntity
  8
0
 62
   123
100
AcDbLine
 10
139.1844341285723
 20
189.0596597883604
 30
0.0
 11
116.4139872446889
 21
189.0596597883604
 31
0.0
  0
LINE
  5
357
330
354
100
AcDbEntity
  8
0
 62
   123
100
AcDbLine
 10
117.0139872446889
 20
250.5596597883593
 30
0.0
 11
117.0139872446889
 21
191.5596597883604
 31
0.0
  0
SOLID
  5
358
330
354
100
AcDbEntity
  8
0
 62
   123
100
AcDbTrace
 10
116.5973205780222
 20
250.5596597883593
 30
0.0
 11
117.4306539113556
 21
250.5596597883593
 31
0.0
 12
117.0139872446889
 22
253.0596597883593
 32
0.0
 13
117.0139872446889
 23
253.0596597883593
 33
0.0
  0
SOLID
  5
359
330
354
100
AcDbEntity
  8
0
 62
   123
100
AcDbTrace
 10
116.5973205780222
 20
191.5596597883604
 30
0.0
 11
117.4306539113556
 21
191.5596597883604
 31
0.0
 12
117.0139872446889
 22
189.0596597883604
 32
0.0
 13
117.0139872446889
 23
189.0596597883604
 33
0.0
  0
MTEXT
  5
35A
330
354
100
AcDbEntity
  8
0
 62
     3
100
AcDbMText
 10
113.0638372446889
 20
219.2166287504512
 30
0.0
 40
3.0
 41
0.0
 71
     5
 72
     1
  1
\A1;\A1;%%C{\F;64\H0.7x;\S+0^ -0.030;\H1.429x;(h7)} 
 11
0.0000000000000001
 21
1.0
 31
0.0
1001
ACAD
1000
MTEXTBEGIN
1070
    73
1070
     1
1070
    44
1040
1.0
1070
    74
1070
     0
1000
MTEXTEND
  0
POINT
  5
35B
330
354
100
AcDbEntity
  8
DEFPOINTS
 62
     0
100
AcDbPoint
 10
140.1844341285723
 20
253.0596597883593
 30
0.0
  0
POINT
  5
35C
330
354
100
AcDbEntity
  8
DEFPOINTS
 62
     0
100
AcDbPoint
 10
140.1844341285723
 20
189.0596597883604
 30
0.0
  0
POINT
  5
35D
330
354
100
AcDbEntity
  8
DEFPOINTS
 62
     0
100
AcDbPoint
 10
117.0139872446889
 20
189.0596597883604
 30
0.0
  0
ENDBLK
  5
35F
330
354
100
AcDbEntity
  8
0
100
AcDbBlockEnd
  0
BLOCK
  5
36A
330
360
100
AcDbEntity
  8
0
100
AcDbBlockBegin
  2
*D33
 70
     1
 10
0.0
 20
0.0
 30
0.0
  3
*D33
  1

  0
LINE
  5
361
330
360
100
AcDbEntity
  8
0
 62
   123
100
AcDbLine
 10
129.1844341285723
 20
224.8991597883605
 30
0.0
 11
129.1844341285723
 21
276.6412758874484
 31
0.0
  0
LINE
  5
362
330
360
100
AcDbEntity
  8
0
 62
   123
100
AcDbLine
 10
142.1844341285723
 20
257.0596597883604
 30
0.0
 11
142.1844341285723
 21
276.6412758874484
 31
0.0
  0
LINE
  5
363
330
360
100
AcDbEntity
  8
0
 62
   123
100
AcDbLine
 10
131.6844341285723
 20
276.0412758874483
 30
0.0
 11
139.6844341285723
 21
276.0412758874483
 31
0.0
  0
SOLID
  5
364
330
360
100
AcDbEntity
  8
0
 62
   123
100
AcDbTrace
 10
131.6844341285723
 20
276.457942554115
 30
0.0
 11
131.6844341285723
 21
275.6246092207816
 31
0.0
 12
129.1844341285723
 22
276.0412758874483
 32
0.0
 13
129.1844341285723
 23
276.0412758874483
 33
0.0
  0
SOLID
  5
365
330
360
100
AcDbEntity
  8
0
 62
   123
100
AcDbTrace
 10
139.6844341285723
 20
276.457942554115
 30
0.0
 11
139.6844341285723
 21
275.6246092207816
 31
0.0
 12
142.1844341285723
 22
276.0412758874483
 32
0.0
 13
142.1844341285723
 23
276.0412758874483
 33
0.0
  0
MTEXT
  5
366
330
360
100
AcDbEntity
  8
0
 62
     3
100
AcDbMText
 10
135.9344341285723
 20
278.5412758874483
 30
0.0
 40
3.0
 41
0.0
 71
     5
 72
     1
  1
\A1;13
1001
ACAD
1000
MTEXTBEGIN
1070
    73
1070
     1
1070
    44
1040
1.0
1070
    74
1070
     0
1000
MTEXTEND
  0
POINT
  5
367
330
360
100
AcDbEntity
  8
DEFPOINTS
 62
     0
100
AcDbPoint
 10
129.1844341285723
 20
223.8991597883605
 30
0.0
  0
POINT
  5
368
330
360
100
AcDbEntity
  8
DEFPOINTS
 62
     0
100
AcDbPoint
 10
142.1844341285723
 20
256.0596597883604
 30
0.0
  0
POINT
  5
369
330
360
100
AcDbEntity
  8
DEFPOINTS
 62
     0
100
AcDbPoint
 10
142.1844341285723
 20
276.0412758874483
 30
0.0
  0
ENDBLK
  5
36B
330
360
100
AcDbEntity
  8
0
100
AcDbBlockEnd
  0
BLOCK
  5
376
330
36C
100
AcDbEntity
  8
0
100
AcDbBlockBegin
  2
*D34
 70
     1
 10
0.0
 20
0.0
 30
0.0
  3
*D34
  1

  0
LINE
  5
36D
330
36C
100
AcDbEntity
  8
0
 62
   123
100
AcDbLine
 10
142.1844341285723
 20
277.0412758874483
 30
0.0
 11
142.1844341285723
 21
276.6412758874484
 31
0.0
  0
LINE
  5
36E
330
36C
100
AcDbEntity
  8
0
 62
   123
100
AcDbLine
 10
222.1844341285723
 20
254.0596597883593
 30
0.0
 11
222.1844341285723
 21
276.6412758874484
 31
0.0
  0
LINE
  5
36F
330
36C
100
AcDbEntity
  8
0
 62
   123
100
AcDbLine
 10
144.6844341285723
 20
276.0412758874483
 30
0.0
 11
219.6844341285723
 21
276.0412758874483
 31
0.0
  0
SOLID
  5
370
330
36C
100
AcDbEntity
  8
0
 62
   123
100
AcDbTrace
 10
144.6844341285723
 20
276.457942554115
 30
0.0
 11
144.6844341285723
 21
275.6246092207816
 31
0.0
 12
142.1844341285723
 22
276.0412758874483
 32
0.0
 13
142.1844341285723
 23
276.0412758874483
 33
0.0
  0
SOLID
  5
371
330
36C
100
AcDbEntity
  8
0
 62
   123
100
AcDbTrace
 10
219.6844341285723
 20
276.457942554115
 30
0.0
 11
219.6844341285723
 21
275.6246092207816
 31
0.0
 12
222.1844341285723
 22
276.0412758874483
 32
0.0
 13
222.1844341285723
 23
276.0412758874483
 33
0.0
  0
MTEXT
  5
372
330
36C
100
AcDbEntity
  8
0
 62
     3
100
AcDbMText
 10
179.6844341285723
 20
278.5412758874483
 30
0.0
 40
3.0
 41
0.0
 71
     5
 72
     1
  1
\A1;80
1001
ACAD
1000
MTEXTBEGIN
1070
    73
1070
     1
1070
    44
1040
1.0
1070
    74
1070
     0
1000
MTEXTEND
  0
POINT
  5
373
330
36C
100
AcDbEntity
  8
DEFPOINTS
 62
     0
100
AcDbPoint
 10
142.1844341285723
 20
276.0412758874483
 30
0.0
  0
POINT
  5
374
330
36C
100
AcDbEntity
  8
DEFPOINTS
 62
     0
100
AcDbPoint
 10
222.1844341285723
 20
253.0596597883593
 30
0.0
  0
POINT
  5
375
330
36C
100
AcDbEntity
  8
DEFPOINTS
 62
     0
100
AcDbPoint
 10
222.1844341285723
 20
276.0412758874483
 30
0.0
  0
ENDBLK
  5
377
330
36C
100
AcDbEntity
  8
0
100
AcDbBlockEnd
  0
BLOCK
  5
384
330
378
100
AcDbEntity
  8
0
100
AcDbBlockBegin
  2
*D35
 70
     1
 10
0.0
 20
0.0
 30
0.0
  3
*D35
  1

  0
LINE
  5
389
330
378
100
AcDbEntity
  8
0
 62
   123
100
AcDbLine
 10
51.79690803918138
 20
178.9580146835769
 30
0.0
 11
51.79690803918269
 21
164.1003627741341
 31
0.0
  0
LINE
  5
38A
330
378
100
AcDbEntity
  8
0
 62
   123
100
AcDbLine
 10
66.67706615460581
 20
185.135780255846
 30
0.0
 11
73.59428732568794
 21
168.4361310906865
 31
0.0
  0
ARC
  5
38B
330
378
100
AcDbEntity
  8
0
 62
   123
100
AcDbCircle
 10
51.79690803917768
 20
221.0596597883657
 30
0.0
 40
56.35929701423157
100
AcDbArc
 50
272.5417491442621
 51
289.9582508557445
  0
SOLID
  5
38C
330
378
100
AcDbEntity
  8
0
 62
   123
100
AcDbTrace
 10
54.30553437433001
 20
164.3392464193173
 30
0.0
 11
54.28705176858693
 21
165.1723747634093
 31
0.0
 12
51.79690803918264
 22
164.7003627741341
 32
0.0
 13
51.79690803918264
 23
164.7003627741341
 33
0.0
  0
SOLID
  5
38D
330
378
100
AcDbEntity
  8
0
 62
   123
100
AcDbTrace
 10
70.88345327348766
 20
168.4736042767334
 30
0.0
 11
71.18520198665201
 21
167.6968210646671
 31
0.0
 12
73.36467726626889
 22
168.9904588101933
 32
0.0
 13
73.36467726626889
 23
168.9904588101933
 33
0.0
  0
MTEXT
  5
38E
330
378
100
AcDbEntity
  8
0
 62
     3
100
AcDbMText
 10
62.24859554524485
 20
168.5154784297718
 30
0.0
 40
3.0
 41
0.0
 71
     5
 72
     1
  1
\A1;22°30'
 11
0.980785280403219
 21
0.1950903220161851
 31
0.0
  0
POINT
  5
38F
330
378
100
AcDbEntity
  8
DEFPOINTS
 62
     0
100
AcDbPoint
 10
59.15327247464806
 20
165.1825243729659
 30
0.0
  0
POINT
  5
390
330
378
100
AcDbEntity
  8
DEFPOINTS
 62
     0
100
AcDbPoint
 10
51.79690803918128
 20
179.9580146835769
 30
0.0
  0
POINT
  5
391
330
378
100
AcDbEntity
  8
DEFPOINTS
 62
     0
100
AcDbPoint
 10
51.79690803918127
 20
221.059659788357
 30
0.0
  0
POINT
  5
392
330
378
100
AcDbEntity
  8
DEFPOINTS
 62
     0
100
AcDbPoint
 10
66.29438272224068
 20
186.0596597883573
 30
0.0
  0
POINT
  5
393
330
378
100
AcDbEntity
  8
DEFPOINTS
 62
     0
100
AcDbPoint
 10
51.796908039174
 20
263.1073727925531
 30
0.0
  0
ENDBLK
  5
385
330
378
100
AcDbEntity
  8
0
100
AcDbBlockEnd
  0
ENDSEC
  0
SECTION
  2
ENTITIES
  0
MTEXT
  5
9B
330
2
100
AcDbEntity
  8
DIM
100
AcDbMText
 10
198.7563562654722
 20
155.2916429943224
 30
0.0
 40
3.5
 41
0.0
 71
     5
 72
     1
  1
MOTOR LEAD WIRE 300mm
1001
ACAD
1000
MTEXTBEGIN
1070
    73
1070
     1
1070
    44
1040
1.0
1070
    74
1070
     0
1000
MTEXTEND
  0
MTEXT
  5
9D
330
2
100
AcDbEntity
  8
DIM
100
AcDbMText
 10
194.7568372714995
 20
146.2483765653491
 30
0.0
 40
3.5
 41
0.0
 71
     5
 72
     1
  1
UL Style 3271 , AWG20
1001
ACAD
1000
MTEXTBEGIN
1070
    73
1070
     1
1070
    44
1040
1.0
1070
    74
1070
     0
1000
MTEXTEND
  0
MTEXT
  5
9E
330
2
100
AcDbEntity
  8
0
 62
     3
100
AcDbMText
 10
72.3312566675013
 20
278.6866826903642
 30
0.0
 40
3.0
 41
0.0
 71
     9
 72
     1
  1
4-%%c5.5 hole
1001
ACAD
1000
MTEXTBEGIN
1070
    73
1070
     1
1070
    44
1040
1.0
1070
    74
1070
     0
1000
MTEXTEND
  0
MTEXT
  5
9F
330
2
100
AcDbEntity
  8
DIM
100
AcDbMText
 10
220.3981949499102
 20
-5.098666278153814
 30
0.0
 40
3.5
 41
0.0
 71
     5
 72
     1
  1
MOTOR LEAD WIRE 300mm
1001
ACAD
1000
MTEXTBEGIN
1070
    73
1070
     1
1070
    44
1040
1.0
1070
    74
1070
     0
1000
MTEXTEND
  0
MTEXT
  5
A0
330
2
100
AcDbEntity
  8
DIM
100
AcDbMText
 10
216.398675955952
 20
-14.14193270712667
 30
0.0
 40
3.5
 41
0.0
 71
     5
 72
     1
  1
UL Style 3271 , AWG20
1001
ACAD
1000
MTEXTBEGIN
1070
    73
1070
     1
1070
    44
1040
1.0
1070
    74
1070
     0
1000
MTEXTEND
  0
MTEXT
  5
A1
330
2
100
AcDbEntity
  8
0
 62
     3
100
AcDbMText
 10
67.00109702852206
 20
118.2963734178883
 30
0.0
 40
3.0
 41
0.0
 71
     9
 72
     1
  1
4-%%c5.5 hole
1001
ACAD
1000
MTEXTBEGIN
1070
    73
1070
     1
1070
    44
1040
1.0
1070
    74
1070
     0
1000
MTEXTEND
  0
LEADER
  5
A2
330
2
100
AcDbEntity
  8
0
 62
   123
100
AcDbLeader
  3
STANDARD
 73
     0
 75
     1
 40
3.0
 41
26.65178571428571
 76
     3
 10
80.83257382622106
 20
252.2568291699224
 30
0.0
 10
75.83125666750129
 20
277.6866826903642
 30
0.0
 10
73.33125666750129
 20
277.6866826903642
 30
0.0
340
9E
1001
ACAD
1000
DSTYLE
1002
{
1070
     5
1000

1070
   342
1005
0
1002
}
1000
LEANOF
1010
0.0
1020
0.0
1030
0.0
  0
DIMENSION
  5
A4
102
{ACAD_XDICTIONARY
360
A5
102
}
102
{ACAD_REACTORS
330
A6
102
}
330
2
100
AcDbEntity
  8
0
100
AcDbDimension
  2
*D35
 10
51.79690803917401
 20
263.1073727925531
 30
0.0
 11
62.24859554524485
 21
168.5154784297718
 31
0.0
 70
    34
  3
STANDARD
100
AcDb2LineAngularDimension
 13
51.79690803918129
 23
221.059659788357
 33
0.0
 14
66.2943827222407
 24
186.0596597883573
 34
0.0
 15
51.79690803918129
 25
179.9580146835769
 35
0.0
 16
59.15327247464806
 26
165.1825243729659
 36
0.0
1001
ACAD
1000
DSTYLE
1002
{
1070
   271
1070
     1
1070
   271
1070
     1
1002
}
  0
LEADER
  5
B6
330
2
100
AcDbEntity
  8
0
100
AcDbLeader
  3
STANDARD
 76
     2
 10
156.8216984616737
 20
171.3187764627041
 30
0.0
 10
161.4581323778111
 20
151.8365058691992
 30
0.0
1001
ACAD
1000
DSTYLE
1002
{
1070
     5
1000

1070
   342
1005
0
1002
}
1000
LEANOF
1010
0.0
1020
0.0
1030
0.0
  0
LEADER
  5
B7
330
2
100
AcDbEntity
  8
0
100
AcDbLeader
  3
STANDARD
 73
     0
 75
     1
 40
3.0
 41
26.65178571428571
 76
     3
 10
75.40442211630943
 20
92.36477344361537
 30
0.0
 10
70.50109702852205
 20
117.2963734178883
 30
0.0
 10
68.00109702852205
 20
117.2963734178883
 30
0.0
340
A1
1001
ACAD
1000
DSTYLE
1002
{
1070
     5
1000

1070
   342
1005
0
1002
}
1000
LEANOF
1010
0.0
1020
0.0
1030
0.0
  0
LEADER
  5
B8
330
2
100
AcDbEntity
  8
0
100
AcDbLeader
  3
STANDARD
 76
     2
 10
178.4635371461226
 20
10.92846719022918
 30
0.0
 10
183.09997106226
 20
-8.553803403277015
 30
0.0
1001
ACAD
1000
DSTYLE
1002
{
1070
     5
1000

1070
   342
1005
0
1002
}
1000
LEANOF
1010
0.0
1020
0.0
1030
0.0
  0
DIMENSION
  5
B9
102
{ACAD_XDICTIONARY
360
BA
102
}
102
{ACAD_REACTORS
330
BB
102
}
330
2
100
AcDbEntity
  8
0
100
AcDbDimension
  2
*D27
 10
46.46674840019113
 20
102.7170635200891
 30
0.0
 11
56.91843590626621
 21
8.125169157306187
 31
0.0
 70
    34
  3
STANDARD
100
AcDb2LineAngularDimension
 13
46.46674840020205
 23
60.66935051589325
 33
0.0
 14
60.96422308326146
 24
25.66935051589325
 34
0.0
 15
46.46674840020205
 25
19.56770541111336
 35
0.0
 16
53.82311283566947
 26
4.792215100500263
 36
0.0
1001
ACAD
1000
DSTYLE
1002
{
1070
   271
1070
     1
1070
   271
1070
     1
1002
}
  0
LINE
  5
CA
330
2
100
AcDbEntity
  8
0
100
AcDbLine
 10
236.8262728130212
 20
95.16935051588417
 30
0.0
 11
169.9262728130088
 21
95.16935051588417
 31
0.0
  0
LINE
  5
CB
330
2
100
AcDbEntity
  8
CEN
 48
0.6
100
AcDbLine
 10
249.3645717400795
 20
60.66935051588416
 30
0.0
 11
135.6394132561399
 21
60.66935051588416
 31
0.0
  0
LINE
  5
CE
102
{ACAD_REACTORS
330
283
102
}
330
2
100
AcDbEntity
  8
0
100
AcDbLine
 10
236.8262728130212
 20
26.16935051588416
 30
0.0
 11
169.9262728130088
 21
26.16935051588416
 31
0.0
  0
LINE
  5
CF
330
2
100
AcDbEntity
  8
0
 62
   123
100
AcDbLine
 10
183.09997106226
 20
-8.553803403277015
 30
0.0
 11
256.0738589421816
 21
-8.553803403277015
 31
0.0
  0
DIMENSION
  5
D0
330
2
100
AcDbEntity
  8
0
100
AcDbDimension
  2
*D26
 10
243.8262728130212
 20
117.5177905497912
 30
0.0
 11
201.3262728130066
 21
117.5177905497912
 31
0.0
 70
   160
  3
STANDARD
100
AcDbAlignedDimension
 13
163.8262728130212
 23
117.5177905497912
 33
0.0
 14
243.8262728130212
 24
92.66935051588417
 34
0.0
100
AcDbRotatedDimension
  0
LINE
  5
DD
330
2
100
AcDbEntity
  8
0
 62
   123
100
AcDbLine
 10
161.4581323778111
 20
151.8365058691992
 30
0.0
 11
234.43202025774
 21
151.8365058691992
 31
0.0
  0
LINE
  5
DE
102
{ACAD_REACTORS
330
299
102
}
330
2
100
AcDbEntity
  8
0
100
AcDbLine
 10
215.1844341285723
 20
186.5596597883604
 30
0.0
 11
148.2844341285708
 21
186.5596597883604
 31
0.0
  0
LINE
  5
DF
330
2
100
AcDbEntity
  8
CEN
 48
0.6
100
AcDbLine
 10
227.7227330556415
 20
221.0596597883604
 30
0.0
 11
124.55733948134
 21
221.0596597883604
 31
0.0
  0
LINE
  5
E0
330
2
100
AcDbEntity
  8
0
100
AcDbLine
 10
215.1844341285723
 20
255.5596597883604
 30
0.0
 11
148.2844341285708
 21
255.5596597883604
 31
0.0
  0
DIMENSION
  5
E1
330
2
100
AcDbEntity
  8
0
100
AcDbDimension
  2
*D34
 10
222.1844341285723
 20
276.0412758874483
 30
0.0
 11
179.6844341285723
 21
276.0412758874483
 31
0.0
 70
   160
  3
STANDARD
100
AcDbAlignedDimension
 13
142.1844341285723
 23
276.0412758874483
 33
0.0
 14
222.1844341285723
 24
253.0596597883593
 34
0.0
100
AcDbRotatedDimension
  0
LINE
  5
EE
330
2
100
AcDbEntity
  8
CEN
 48
0.6
100
AcDbLine
 10
46.46674840020205
 20
19.44804395705341
 30
0.0
 11
46.46674840020205
 21
101.8906570747112
 31
0.0
  0
INSERT
  5
EF
330
2
100
AcDbEntity
  8
0
100
AcDbBlockReference
  2
3
 10
46.46674840020932
 20
60.66935051588643
 30
0.0
  0
ARC
  5
10D
330
2
100
AcDbEntity
  8
0
100
AcDbCircle
 10
70.7727270384421
 20
13.15156516442448
 30
0.0
 40
0.7499080000000001
100
AcDbArc
 50
77.66127699999917
 51
197.832805000001
  0
ARC
  5
10E
330
2
100
AcDbEntity
  8
0
100
AcDbCircle
 10
94.63914803845183
 20
39.97990316442428
 30
0.0
 40
33.95579199999999
100
AcDbArc
 50
204.9259499999998
 51
236.3981230000006
  0
ARC
  5
10F
330
2
100
AcDbEntity
  8
0
100
AcDbCircle
 10
94.63914803845183
 20
39.97990316442428
 30
0.0
 40
37.855792
100
AcDbArc
 50
202.2115912309427
 51
227.7470409999976
  0
ARC
  5
110
330
2
100
AcDbEntity
  8
0
100
AcDbCircle
 10
94.63914803845183
 20
39.97990316442428
 30
0.0
 40
39.15579199999999
100
AcDbArc
 50
201.4369589999971
 51
235.2486590000054
  0
ARC
  5
111
330
2
100
AcDbEntity
  8
0
100
AcDbCircle
 10
94.63914803845183
 20
39.97990316442428
 30
0.0
 40
36.555792
100
AcDbArc
 50
227.7470409999976
 51
236.3176429999981
  0
ARC
  5
112
330
2
100
AcDbEntity
  8
0
100
AcDbCircle
 10
69.34497103844114
 20
12.69226116442359
 30
0.0
 40
0.7499080000000001
100
AcDbArc
 50
257.6612769999992
 51
17.83280500000109
  0
ARC
  5
113
330
2
100
AcDbEntity
  8
0
100
AcDbCircle
 10
73.73852703844022
 20
9.19720016442352
 30
0.0
 40
0.7499080000000001
100
AcDbArc
 50
85.16289500000455
 51
205.3344229999993
  0
ARC
  5
114
330
2
100
AcDbEntity
  8
0
100
AcDbCircle
 10
74.42897103844007
 20
10.30815516442453
 30
0.0
 40
0.7499080000000001
100
AcDbArc
 50
265.1628950000044
 51
25.33442299999946
  0
ARC
  5
115
330
2
100
AcDbEntity
  8
0
100
AcDbCircle
 10
75.78454303844046
 20
10.94992716442447
 30
0.0
 40
0.7499080000000001
100
AcDbArc
 50
85.16289500000455
 51
205.3344229999993
  0
ARC
  5
116
330
2
100
AcDbEntity
  8
0
100
AcDbCircle
 10
94.63914803845183
 20
39.97990316442428
 30
0.0
 40
35.255792
100
AcDbArc
 50
236.3564240000014
 51
242.0987460000029
  0
ARC
  5
117
330
2
100
AcDbEntity
  8
0
100
AcDbCircle
 10
76.89822003844165
 20
7.274089164423457
 30
0.0
 40
0.7499080000000001
100
AcDbArc
 50
272.0129819999954
 51
32.18451000000101
  0
ARC
  5
118
330
2
100
AcDbEntity
  8
0
100
AcDbCircle
 10
78.16757103844065
 20
8.072962164423188
 30
0.0
 40
0.7499080000000001
100
AcDbArc
 50
92.01298199999559
 51
212.184510000001
  0
ARC
  5
119
330
2
100
AcDbEntity
  8
0
100
AcDbCircle
 10
72.38295403843949
 20
8.555427164424145
 30
0.0
 40
0.7499080000000001
100
AcDbArc
 50
265.1628950000044
 51
25.33442299999946
  0
ARC
  5
11A
330
2
100
AcDbEntity
  8
0
100
AcDbCircle
 10
94.63914803845183
 20
39.97990316442428
 30
0.0
 40
37.855792
100
AcDbArc
 50
235.2486590000054
 51
242.0987460000029
  0
CIRCLE
  5
11B
330
2
100
AcDbEntity
  8
0
 48
0.6
100
AcDbCircle
 10
46.46674840020205
 20
60.66935051588416
 30
0.0
 40
32.00000000000005
  0
CIRCLE
  5
11C
330
2
100
AcDbEntity
  8
0
 48
0.6
100
AcDbCircle
 10
46.46674840020205
 20
60.66935051588416
 30
0.0
 40
33.5
  0
CIRCLE
  5
11D
330
2
100
AcDbEntity
  8
0
 48
0.6
100
AcDbCircle
 10
46.46674840020205
 20
60.66935051588416
 30
0.0
 40
13.0
  0
LINE
  5
11E
330
2
100
AcDbEntity
  8
0
 48
0.6
100
AcDbLine
 10
81.46674840020205
 20
90.66935051588506
 30
0.0
 11
81.46674840020205
 21
30.66935051588507
 31
0.0
  0
ARC
  5
11F
330
2
100
AcDbEntity
  8
0
 48
0.6
100
AcDbCircle
 10
46.46674840020205
 20
60.66935051588416
 30
0.0
 40
27.83999999999998
100
AcDbArc
 50
26.36567250321681
 51
63.63432749678904
  0
LINE
  5
120
330
2
100
AcDbEntity
  8
0
 48
0.6
100
AcDbLine
 10
11.46674840020205
 20
90.66935051588506
 30
0.0
 11
11.46674840020205
 21
30.66935051588507
 31
0.0
  0
ARC
  5
121
330
2
100
AcDbEntity
  8
0
 48
0.6
100
AcDbCircle
 10
46.46674840020205
 20
60.66935051588416
 30
0.0
 40
27.83999999999998
100
AcDbArc
 50
116.3656725032109
 51
153.634327496783
  0
ARC
  5
122
330
2
100
AcDbEntity
  8
0
 48
0.6
100
AcDbCircle
 10
46.46674840020205
 20
60.66935051588416
 30
0.0
 40
25.52
100
AcDbArc
 50
252.2801918471949
 51
287.7198081528051
  0
LINE
  5
123
330
2
100
AcDbEntity
  8
CEN
 48
0.6
100
AcDbLine
 10
6.869113680349983
 20
60.66935051588234
 30
0.0
 11
86.06438312003957
 21
60.66935051588234
 31
0.0
  0
LINE
  5
124
330
2
100
AcDbEntity
  8
0
 48
0.6
100
AcDbLine
 10
16.46674840020205
 20
25.66935051588507
 30
0.0
 11
76.46674840020205
 21
25.66935051588507
 31
0.0
  0
CIRCLE
  5
125
330
2
100
AcDbEntity
  8
0
 48
0.6
100
AcDbCircle
 10
46.46674840020205
 20
60.66935051588416
 30
0.0
 40
2.000000000000055
  0
CIRCLE
  5
126
330
2
100
AcDbEntity
  8
0
 48
0.6
100
AcDbCircle
 10
46.46674840020205
 20
60.66935051588416
 30
0.0
 40
3.000000000000055
  0
ARC
  5
127
330
2
100
AcDbEntity
  8
0
 48
0.6
100
AcDbCircle
 10
37.99329933783883
 20
34.15018271243343
 30
0.0
 40
2.319999999999998
100
AcDbArc
 50
72.28019184719491
 51
128.0513255193868
  0
ARC
  5
128
330
2
100
AcDbEntity
  8
0
 48
0.6
100
AcDbCircle
 10
35.13335586533867
 20
37.80399214015142
 30
0.0
 40
2.319999999999998
100
AcDbArc
 50
243.634327496789
 51
308.0513255193868
  0
ARC
  5
129
330
2
100
AcDbEntity
  8
0
 48
0.6
100
AcDbCircle
 10
19.94758059675223
 20
69.14279957824238
 30
0.0
 40
2.319999999999998
100
AcDbArc
 50
342.2801918472014
 51
38.05132551937779
  0
ARC
  5
12A
330
2
100
AcDbEntity
  8
0
 48
0.6
100
AcDbCircle
 10
23.60139002447249
 20
72.00274305074618
 30
0.0
 40
2.319999999999998
100
AcDbArc
 50
153.634327496783
 51
218.0513255193776
  0
ARC
  5
12B
330
2
100
AcDbEntity
  8
0
 48
0.6
100
AcDbCircle
 10
19.94758059675223
 20
52.19590145352549
 30
0.0
 40
2.319999999999998
100
AcDbArc
 50
321.9486744806221
 51
17.71980815279839
  0
ARC
  5
12C
330
2
100
AcDbEntity
  8
0
 48
0.6
100
AcDbCircle
 10
46.46674840020205
 20
60.66935051588416
 30
0.0
 40
25.52
100
AcDbArc
 50
162.2801918472015
 51
197.7198081527984
  0
ARC
  5
12D
330
2
100
AcDbEntity
  8
0
 48
0.6
100
AcDbCircle
 10
16.46674840020205
 20
30.66935051588507
 30
0.0
 40
5.0
100
AcDbArc
 50
180.0
 51
270.0
  0
ARC
  5
12E
330
2
100
AcDbEntity
  8
0
 48
0.6
100
AcDbCircle
 10
23.60139002447249
 20
49.33595798102124
 30
0.0
 40
2.319999999999998
100
AcDbArc
 50
141.9486744806222
 51
206.3656725032168
  0
ARC
  5
12F
330
2
100
AcDbEntity
  8
0
 48
0.6
100
AcDbCircle
 10
46.46674840020205
 20
60.66935051588416
 30
0.0
 40
27.83999999999998
100
AcDbArc
 50
206.3656725032168
 51
243.634327496789
  0
LINE
  5
130
330
2
100
AcDbEntity
  8
0
 48
0.6
100
AcDbLine
 10
63.8462285074711
 20
25.66935051588507
 30
0.0
 11
58.1051782809518
 21
25.66935051588507
 31
0.0
  0
ARC
  5
131
330
2
100
AcDbEntity
  8
0
 48
0.6
100
AcDbCircle
 10
72.98591620365186
 20
69.14279957824238
 30
0.0
 40
2.319999999999998
100
AcDbArc
 50
141.9486744806222
 51
197.7198081527984
  0
ARC
  5
132
330
2
100
AcDbEntity
  8
0
 48
0.6
100
AcDbCircle
 10
69.33210677593161
 20
72.00274305074618
 30
0.0
 40
2.319999999999998
100
AcDbArc
 50
321.9486744806221
 51
26.36567250321681
  0
ARC
  5
133
330
2
100
AcDbEntity
  8
0
 48
0.6
100
AcDbCircle
 10
72.98591620365186
 20
52.19590145352549
 30
0.0
 40
2.319999999999998
100
AcDbArc
 50
162.2801918472015
 51
218.0513255193776
  0
ARC
  5
134
330
2
100
AcDbEntity
  8
0
 48
0.6
100
AcDbCircle
 10
46.46674840020205
 20
60.66935051588416
 30
0.0
 40
25.52
100
AcDbArc
 50
342.2801918472014
 51
17.71980815279839
  0
ARC
  5
135
330
2
100
AcDbEntity
  8
0
 48
0.6
100
AcDbCircle
 10
76.46674840020205
 20
30.66935051588507
 30
0.0
 40
5.0
100
AcDbArc
 50
270.0
 51
0.0
  0
ARC
  5
136
330
2
100
AcDbEntity
  8
0
 48
0.6
100
AcDbCircle
 10
54.94019746255799
 20
34.15018271243343
 30
0.0
 40
2.319999999999998
100
AcDbArc
 50
51.94867448061305
 51
107.719808152805
  0
ARC
  5
137
330
2
100
AcDbEntity
  8
0
 48
0.6
100
AcDbCircle
 10
57.8001409350727
 20
37.80399214015142
 30
0.0
 40
2.319999999999998
100
AcDbArc
 50
231.948674480613
 51
296.3656725032108
  0
ARC
  5
138
330
2
100
AcDbEntity
  8
0
 48
0.6
100
AcDbCircle
 10
46.46674840020205
 20
60.66935051588416
 30
0.0
 40
27.83999999999998
100
AcDbArc
 50
296.3656725032108
 51
333.6343274967831
  0
ARC
  5
139
330
2
100
AcDbEntity
  8
0
 48
0.6
100
AcDbCircle
 10
69.33210677593161
 20
49.33595798102124
 30
0.0
 40
2.319999999999998
100
AcDbArc
 50
333.6343274967831
 51
38.05132551937779
  0
ARC
  5
13A
330
2
100
AcDbEntity
  8
0
100
AcDbCircle
 10
94.63914803845183
 20
39.97990316442428
 30
0.0
 40
35.255792
100
AcDbArc
 50
203.947941
 51
227.7470409999976
  0
ARC
  5
13B
330
2
100
AcDbEntity
  8
0
 48
0.6
100
AcDbCircle
 10
46.46674840020205
 20
60.66935051588416
 30
0.0
 40
25.52
100
AcDbArc
 50
72.28019184719491
 51
107.719808152805
  0
LINE
  5
13C
330
2
100
AcDbEntity
  8
0
 48
0.6
100
AcDbLine
 10
16.46674840020205
 20
95.66935051588416
 30
0.0
 11
76.46674840020205
 21
95.66935051588506
 31
0.0
  0
ARC
  5
13D
330
2
100
AcDbEntity
  8
0
 48
0.6
100
AcDbCircle
 10
37.99329933783883
 20
87.18851831933625
 30
0.0
 40
2.319999999999998
100
AcDbArc
 50
231.948674480613
 51
287.7198081528051
  0
ARC
  5
13E
330
2
100
AcDbEntity
  8
0
 48
0.6
100
AcDbCircle
 10
35.13335586533867
 20
83.53470889161735
 30
0.0
 40
2.319999999999998
100
AcDbArc
 50
51.94867448061305
 51
116.3656725032109
  0
ARC
  5
13F
102
{ACAD_REACTORS
330
18C
102
}
330
2
100
AcDbEntity
  8
0
 48
0.6
100
AcDbCircle
 10
16.46674840020205
 20
90.66935051588506
 30
0.0
 40
5.0
100
AcDbArc
 50
90.0
 51
180.0
  0
ARC
  5
140
102
{ACAD_REACTORS
330
18C
102
}
330
2
100
AcDbEntity
  8
0
 48
0.6
100
AcDbCircle
 10
76.46674840020205
 20
90.66935051588506
 30
0.0
 40
5.0
100
AcDbArc
 50
0.0
 51
90.0
  0
ARC
  5
141
330
2
100
AcDbEntity
  8
0
 48
0.6
100
AcDbCircle
 10
54.94019746255799
 20
87.18851831933625
 30
0.0
 40
2.319999999999998
100
AcDbArc
 50
252.2801918471949
 51
308.0513255193868
  0
ARC
  5
142
330
2
100
AcDbEntity
  8
0
 48
0.6
100
AcDbCircle
 10
57.8001409350727
 20
83.53470889161735
 30
0.0
 40
2.319999999999998
100
AcDbArc
 50
63.63432749678904
 51
128.0513255193868
  0
LINE
  5
143
102
{ACAD_REACTORS
330
BB
102
}
330
2
100
AcDbEntity
  8
CEN
  6
CENTER
 62
     1
 48
0.6
100
AcDbLine
 10
46.46674840020205
 20
60.66935051589325
 30
0.0
 11
60.96422308326146
 21
25.66935051589325
 31
0.0
  0
ARC
  5
144
330
2
100
AcDbEntity
  8
0
100
AcDbCircle
 10
182.1023388130233
 20
5.401683515884087
 30
0.0
 40
0.7499080000000001
100
AcDbArc
 50
242.6628950000009
 51
2.834422999996808
  0
ARC
  5
145
330
2
100
AcDbEntity
  8
0
100
AcDbCircle
 10
212.1289948130215
 20
25.08070451588537
 30
0.0
 40
37.855792
100
AcDbArc
 50
212.7486590000019
 51
219.5987459999966
  0
ARC
  5
146
330
2
100
AcDbEntity
  8
0
100
AcDbCircle
 10
212.1289948130215
 20
25.08070451588537
 30
0.0
 40
33.95579199999999
100
AcDbArc
 50
179.8504230000004
 51
213.8981229999992
  0
ARC
  5
147
330
2
100
AcDbEntity
  8
0
100
AcDbCircle
 10
212.1289948130215
 20
25.08070451588537
 30
0.0
 40
37.855792
100
AcDbArc
 50
179.8658329999985
 51
205.2470409999969
  0
ARC
  5
148
330
2
100
AcDbEntity
  8
0
100
AcDbCircle
 10
212.1289948130215
 20
25.08070451588537
 30
0.0
 40
39.15579199999999
100
AcDbArc
 50
179.8702869999971
 51
212.7486590000019
  0
ARC
  5
149
330
2
100
AcDbEntity
  8
0
100
AcDbCircle
 10
212.1289948130215
 20
25.08070451588537
 30
0.0
 40
35.255792
100
AcDbArc
 50
179.8559380000023
 51
205.2470409999969
  0
ARC
  5
14A
330
2
100
AcDbEntity
  8
0
100
AcDbCircle
 10
179.812536813024
 20
9.427835515884453
 30
0.0
 40
0.7499080000000001
100
AcDbArc
 50
55.16127700000105
 51
175.3328050000016
  0
ARC
  5
14B
330
2
100
AcDbEntity
  8
0
100
AcDbCircle
 10
178.3176938130236
 20
9.549872515884089
 30
0.0
 40
0.7499080000000001
100
AcDbArc
 50
235.1612770000011
 51
355.3328050000017
  0
ARC
  5
14C
330
2
100
AcDbEntity
  8
0
100
AcDbCircle
 10
181.0393078130218
 20
4.639516515884224
 30
0.0
 40
0.7499080000000001
100
AcDbArc
 50
62.66289500000094
 51
182.8344229999968
  0
ARC
  5
14D
330
2
100
AcDbEntity
  8
0
100
AcDbCircle
 10
179.5413268130214
 20
4.565350515884347
 30
0.0
 40
0.7499080000000001
100
AcDbArc
 50
242.6628950000009
 51
2.834422999996808
  0
ARC
  5
14E
330
2
100
AcDbEntity
  8
0
100
AcDbCircle
 10
212.1289948130215
 20
25.08070451588537
 30
0.0
 40
36.555792
100
AcDbArc
 50
205.2470409999969
 51
213.8176429999978
  0
LINE
  5
14F
330
2
100
AcDbEntity
  8
0
100
AcDbLine
 10
161.8262728130211
 20
92.66935051588417
 30
0.0
 11
161.8262728130211
 21
28.66935051588416
 31
0.0
  0
LINE
  5
150
330
2
100
AcDbEntity
  8
0
100
AcDbLine
 10
169.9262728130233
 20
95.66935051588506
 30
0.0
 11
169.9262728130233
 21
25.66935051588325
 31
0.0
  0
LINE
  5
151
330
2
100
AcDbEntity
  8
0
100
AcDbLine
 10
163.8262728130212
 20
95.66935051588506
 30
0.0
 11
163.8262728130212
 21
25.66935051588416
 31
0.0
  0
LINE
  5
152
330
2
100
AcDbEntity
  8
0
100
AcDbLine
 10
169.9262728130233
 20
34.77061317435437
 30
0.0
 11
170.8262728130066
 21
34.77061317435437
 31
0.0
  0
ARC
  5
153
330
2
100
AcDbEntity
  8
0
100
AcDbCircle
 10
180.3262728130066
 20
25.66935051588416
 30
0.0
 40
0.5
100
AcDbArc
 50
270.0
 51
0.0
  0
LINE
  5
154
330
2
100
AcDbEntity
  8
0
100
AcDbLine
 10
180.8262728130212
 20
26.16935051588416
 30
0.0
 11
180.8262728130212
 21
25.66935051588416
 31
0.0
  0
ARC
  5
155
330
2
100
AcDbEntity
  8
0
100
AcDbCircle
 10
171.3262728130212
 20
25.66935051588416
 30
0.0
 40
0.5
100
AcDbArc
 50
180.0
 51
270.0
  0
LINE
  5
156
330
2
100
AcDbEntity
  8
0
100
AcDbLine
 10
170.8262728130066
 20
26.16935051588416
 30
0.0
 11
170.8262728130066
 21
25.66935051588416
 31
0.0
  0
LINE
  5
157
330
2
100
AcDbEntity
  8
0
100
AcDbLine
 10
169.9262728130233
 20
27.07061317435455
 30
0.0
 11
170.8262728130066
 21
27.07061317435455
 31
0.0
  0
LINE
  5
158
330
2
100
AcDbEntity
  8
0
100
AcDbLine
 10
163.8262728130212
 20
28.66935051588416
 30
0.0
 11
161.8262728130211
 21
28.66935051588416
 31
0.0
  0
LINE
  5
159
330
2
100
AcDbEntity
  8
0
100
AcDbLine
 10
163.8262728130212
 20
25.66935051588325
 30
0.0
 11
169.9262728130233
 21
25.66935051588325
 31
0.0
  0
LINE
  5
15A
330
2
100
AcDbEntity
  8
0
100
AcDbLine
 10
180.3262728130066
 20
25.16935051588416
 30
0.0
 11
171.3262728130212
 21
25.16935051588416
 31
0.0
  0
LINE
  5
15B
330
2
100
AcDbEntity
  8
0
100
AcDbLine
 10
170.8262728130066
 20
34.77061317435437
 30
0.0
 11
170.8262728130066
 21
27.07061317435455
 31
0.0
  0
LINE
  5
15C
102
{ACAD_REACTORS
330
1A8
102
}
330
2
100
AcDbEntity
  8
0
100
AcDbLine
 10
169.9262728130233
 20
94.26808785741332
 30
0.0
 11
170.8262728130066
 21
94.26808785741332
 31
0.0
  0
LINE
  5
15D
330
2
100
AcDbEntity
  8
0
100
AcDbLine
 10
163.8262728130212
 20
92.66935051588417
 30
0.0
 11
161.8262728130211
 21
92.66935051588417
 31
0.0
  0
LINE
  5
15E
330
2
100
AcDbEntity
  8
0
100
AcDbLine
 10
163.8262728130212
 20
95.66935051588506
 30
0.0
 11
169.9262728130233
 21
95.66935051588506
 31
0.0
  0
LINE
  5
15F
330
2
100
AcDbEntity
  8
0
100
AcDbLine
 10
169.9262728130233
 20
86.56808785741304
 30
0.0
 11
170.8262728130066
 21
86.56808785741304
 31
0.0
  0
LINE
  5
160
330
2
100
AcDbEntity
  8
0
100
AcDbLine
 10
170.8262728130066
 20
86.56808785741304
 30
0.0
 11
170.8262728130066
 21
94.26808785741332
 31
0.0
  0
ARC
  5
161
330
2
100
AcDbEntity
  8
0
100
AcDbCircle
 10
183.2225418130219
 20
1.653631515884171
 30
0.0
 40
0.7499080000000001
100
AcDbArc
 50
249.5129820000002
 51
9.684509999999278
  0
ARC
  5
162
330
2
100
AcDbEntity
  8
0
100
AcDbCircle
 10
184.7009838130215
 20
1.905934515884382
 30
0.0
 40
0.7499080000000001
100
AcDbArc
 50
69.51298200000024
 51
189.6845099999992
  0
ARC
  5
163
330
2
100
AcDbEntity
  8
0
100
AcDbCircle
 10
212.1289948130215
 20
25.08070451588537
 30
0.0
 40
35.255792
100
AcDbArc
 50
213.8564239999994
 51
219.5987459999966
  0
ARC
  5
164
330
2
100
AcDbEntity
  8
0
100
AcDbCircle
 10
183.6003208130241
 20
5.475849515884419
 30
0.0
 40
0.7499080000000001
100
AcDbArc
 50
62.66289500000094
 51
182.8344229999968
  0
LINE
  5
165
330
2
100
AcDbEntity
  8
0
 48
0.6
100
AcDbLine
 10
139.8262728130212
 20
63.16924013042717
 30
0.0
 11
139.8262728130212
 21
58.16946090134024
 31
0.0
  0
LINE
  5
166
330
2
100
AcDbEntity
  8
2
 48
0.6
100
AcDbLine
 10
140.3262728130066
 20
63.66924013042717
 30
0.0
 11
140.3262728130066
 21
57.66946090134024
 31
0.0
  0
LINE
  5
168
330
2
100
AcDbEntity
  8
0
 48
0.6
100
AcDbLine
 10
139.8262728130212
 20
58.16946090134024
 30
0.0
 11
140.3262728130066
 21
57.66946090134024
 31
0.0
  0
LINE
  5
169
330
2
100
AcDbEntity
  8
0
 48
0.6
100
AcDbLine
 10
139.8262728130212
 20
63.16924013042717
 30
0.0
 11
140.3262728130066
 21
63.66924013042717
 31
0.0
  0
LINE
  5
16A
330
2
100
AcDbEntity
  8
0
 48
0.6
100
AcDbLine
 10
140.3262728130066
 20
57.66946090134024
 30
0.0
 11
161.8262728130211
 21
57.66936011460121
 31
0.0
  0
LINE
  5
16B
330
2
100
AcDbEntity
  8
0
 48
0.6
100
AcDbLine
 10
140.3262728130066
 20
63.66924013042717
 30
0.0
 11
161.8262728130211
 21
63.66936011464122
 31
0.0
  0
POLYLINE
  5
16C
330
2
100
AcDbEntity
  8
3
100
AcDb2dPolyline
 66
     1
 10
0.0
 20
0.0
 30
0.0
 70
     1
  0
VERTEX
  5
3A0
330
16C
100
AcDbEntity
  8
3
100
AcDbVertex
100
AcDb2dVertex
 10
41.44446993315796
 20
109.0102472467456
 30
0.0
  0
VERTEX
  5
3A1
330
16C
100
AcDbEntity
  8
3
100
AcDbVertex
100
AcDb2dVertex
 10
44.74446993316087
 20
109.0102472467456
 30
0.0
  0
VERTEX
  5
3A2
330
16C
100
AcDbEntity
  8
3
100
AcDbVertex
100
AcDb2dVertex
 10
44.74446993316087
 20
112.5102472467456
 30
0.0
  0
VERTEX
  5
3A3
330
16C
100
AcDbEntity
  8
3
100
AcDbVertex
100
AcDb2dVertex
 10
41.44446993315796
 20
112.5102472467456
 30
0.0
  0
SEQEND
  5
3A4
330
16C
100
AcDbEntity
  8
3
  0
DIMENSION
  5
16E
330
2
100
AcDbEntity
  8
0
 48
0.6
100
AcDbDimension
  2
*D25
 10
125.8786419404605
 20
57.66946090134024
 30
0.0
 11
125.8786419404605
 21
60.66935051588373
 31
0.0
 70
   160
  1
\A1;%%c<>{\H0.7x;\S+0^ -0.012;\f??|b0|i0|c0|p49;\H1.429x;(h7)}  
  3
STANDARD
100
AcDbAlignedDimension
 13
140.3262728130066
 23
63.66924013042717
 33
0.0
 14
140.3262728130066
 24
57.66946090134024
 34
0.0
 50
90.0
100
AcDbRotatedDimension
  0
DIMENSION
  5
17D
330
2
100
AcDbEntity
  8
0
 48
0.6
100
AcDbDimension
  2
*D24
 10
115.5552166653396
 20
28.66935051588417
 30
0.0
 11
115.5552166653396
 21
57.34050469192425
 31
0.0
 70
   160
  1
\A1;%%C<>{\f??|b0|i0|c0|p49;\H0.7x;\S+0^ -0.03;\H1.429x;(h7)} 
  3
STANDARD
100
AcDbAlignedDimension
 13
161.8262728130211
 23
92.66935051588417
 33
0.0
 14
160.3678735271496
 24
28.66935051588416
 34
0.0
 50
90.0
100
AcDbRotatedDimension
  0
DIMENSION
  5
18A
102
{ACAD_XDICTIONARY
360
18B
102
}
102
{ACAD_REACTORS
330
18C
102
}
330
2
100
AcDbEntity
  8
0
100
AcDbDimension
  2
*D23
 10
81.46674840020205
 20
108.2371456417904
 30
0.0
 11
48.39273334608151
 21
108.2371456417904
 31
0.0
 70
   160
  3
STANDARD
100
AcDbAlignedDimension
 13
11.46674840020205
 23
90.66935051588506
 33
0.0
 14
81.46674840020205
 24
90.66935051588506
 34
0.0
100
AcDbRotatedDimension
  0
DIMENSION
  5
199
330
2
100
AcDbEntity
  8
0
100
AcDbDimension
  2
*D22
 10
163.8262728130212
 20
117.5177905497912
 30
0.0
 11
151.8262728130066
 21
117.5177905497912
 31
0.0
 70
   160
  1
<>
  3
STANDARD
100
AcDbAlignedDimension
 13
139.8262728130212
 23
63.16924013042717
 33
0.0
 14
163.8262728130212
 24
95.66935051588416
 34
0.0
100
AcDbRotatedDimension
  0
DIMENSION
  5
1A6
102
{ACAD_XDICTIONARY
360
1A7
102
}
102
{ACAD_REACTORS
330
1A8
102
}
330
2
100
AcDbEntity
  8
0
100
AcDbDimension
  2
*D21
 10
170.8262728130066
 20
106.2813923546405
 30
0.0
 11
167.3262728130139
 21
106.2813923546405
 31
0.0
 70
   160
  3
STANDARD
100
AcDbAlignedDimension
 13
163.8262728130212
 23
105.2813923546396
 33
0.0
 14
170.8262728130066
 24
94.26808785741332
 34
0.0
100
AcDbRotatedDimension
  0
DIMENSION
  5
1B5
330
2
100
AcDbEntity
  8
0
100
AcDbDimension
  2
*D20
 10
163.8262728130212
 20
106.2813923546405
 30
0.0
 11
154.8262728130212
 21
106.2813923546405
 31
0.0
 70
   160
  3
STANDARD
100
AcDbAlignedDimension
 13
161.8262728130211
 23
92.66935051588417
 33
0.0
 14
163.8262728130212
 24
95.66935051588416
 34
0.0
100
AcDbRotatedDimension
  0
ARC
  5
1C4
330
2
100
AcDbEntity
  8
0
100
AcDbCircle
 10
99.96930767742378
 20
200.3702124369001
 30
0.0
 40
35.255792
100
AcDbArc
 50
203.947941
 51
227.7470409999976
  0
ARC
  5
1C5
330
2
100
AcDbEntity
  8
0
100
AcDbCircle
 10
99.96930767742378
 20
200.3702124369001
 30
0.0
 40
37.855792
100
AcDbArc
 50
202.2115912309427
 51
227.7470409999976
  0
ARC
  5
1C6
330
2
100
AcDbEntity
  8
0
100
AcDbCircle
 10
99.96930767742378
 20
200.3702124369001
 30
0.0
 40
33.95579199999999
100
AcDbArc
 50
204.9259499999998
 51
236.3981230000006
  0
ARC
  5
1C7
330
2
100
AcDbEntity
  8
0
100
AcDbCircle
 10
99.96930767742378
 20
200.3702124369001
 30
0.0
 40
37.855792
100
AcDbArc
 50
235.2486590000054
 51
242.0987460000029
  0
ARC
  5
1C8
330
2
100
AcDbEntity
  8
0
100
AcDbCircle
 10
77.71311367742237
 20
168.9457364369
 30
0.0
 40
0.7499080000000001
100
AcDbArc
 50
265.1628950000044
 51
25.33442299999946
  0
ARC
  5
1C9
330
2
100
AcDbEntity
  8
0
100
AcDbCircle
 10
83.49773067742352
 20
168.4632714368994
 30
0.0
 40
0.7499080000000001
100
AcDbArc
 50
92.01298199999559
 51
212.184510000001
  0
ARC
  5
1CA
330
2
100
AcDbEntity
  8
0
100
AcDbCircle
 10
82.22837967742089
 20
167.6643984369002
 30
0.0
 40
0.7499080000000001
100
AcDbArc
 50
272.0129819999954
 51
32.18451000000101
  0
ARC
  5
1CB
330
2
100
AcDbEntity
  8
0
100
AcDbCircle
 10
99.96930767742378
 20
200.3702124369001
 30
0.0
 40
35.255792
100
AcDbArc
 50
236.3564240000014
 51
242.0987460000029
  0
ARC
  5
1CC
330
2
100
AcDbEntity
  8
0
100
AcDbCircle
 10
76.10288667742134
 20
173.5418744369003
 30
0.0
 40
0.7499080000000001
100
AcDbArc
 50
77.66127699999917
 51
197.832805000001
  0
ARC
  5
1CD
330
2
100
AcDbEntity
  8
0
100
AcDbCircle
 10
81.11470267742333
 20
171.3402364368994
 30
0.0
 40
0.7499080000000001
100
AcDbArc
 50
85.16289500000455
 51
205.3344229999993
  0
ARC
  5
1CE
330
2
100
AcDbEntity
  8
0
100
AcDbCircle
 10
79.75913067742294
 20
170.6984644369003
 30
0.0
 40
0.7499080000000001
100
AcDbArc
 50
265.1628950000044
 51
25.33442299999946
  0
ARC
  5
1CF
330
2
100
AcDbEntity
  8
0
100
AcDbCircle
 10
79.0686866774231
 20
169.5875094369002
 30
0.0
 40
0.7499080000000001
100
AcDbArc
 50
85.16289500000455
 51
205.3344229999993
  0
ARC
  5
1D0
330
2
100
AcDbEntity
  8
0
100
AcDbCircle
 10
74.67513067742402
 20
173.0825704368994
 30
0.0
 40
0.7499080000000001
100
AcDbArc
 50
257.6612769999992
 51
17.83280500000109
  0
ARC
  5
1D1
330
2
100
AcDbEntity
  8
0
100
AcDbCircle
 10
99.96930767742378
 20
200.3702124369001
 30
0.0
 40
36.555792
100
AcDbArc
 50
227.7470409999976
 51
236.3176429999981
  0
ARC
  5
1D2
330
2
100
AcDbEntity
  8
0
 48
0.6
100
AcDbCircle
 10
51.79690803918129
 20
221.0596597883604
 30
0.0
 40
27.83999999999998
100
AcDbArc
 50
26.36567250321681
 51
63.63432749678904
  0
LINE
  5
1D3
330
2
100
AcDbEntity
  8
0
 48
0.6
100
AcDbLine
 10
86.79690803918129
 20
251.0596597883613
 30
0.0
 11
86.79690803918129
 21
191.0596597883604
 31
0.0
  0
ARC
  5
1D4
330
2
100
AcDbEntity
  8
0
 48
0.6
100
AcDbCircle
 10
74.66226641491084
 20
209.7262672534975
 30
0.0
 40
2.319999999999998
100
AcDbArc
 50
333.6343274967831
 51
38.05132551937779
  0
ARC
  5
1D5
330
2
100
AcDbEntity
  8
0
 48
0.6
100
AcDbCircle
 10
51.79690803918129
 20
221.0596597883604
 30
0.0
 40
27.83999999999998
100
AcDbArc
 50
296.3656725032108
 51
333.6343274967831
  0
ARC
  5
1D6
330
2
100
AcDbEntity
  8
0
 48
0.6
100
AcDbCircle
 10
81.79690803918129
 20
191.0596597883604
 30
0.0
 40
5.0
100
AcDbArc
 50
270.0
 51
0.0
  0
ARC
  5
1D7
330
2
100
AcDbEntity
  8
0
 48
0.6
100
AcDbCircle
 10
51.79690803918129
 20
221.0596597883604
 30
0.0
 40
25.52
100
AcDbArc
 50
342.2801918472014
 51
17.71980815279839
  0
ARC
  5
1D8
330
2
100
AcDbEntity
  8
0
 48
0.6
100
AcDbCircle
 10
78.3160758426311
 20
212.5862107260015
 30
0.0
 40
2.319999999999998
100
AcDbArc
 50
162.2801918472015
 51
218.0513255193776
  0
ARC
  5
1D9
330
2
100
AcDbEntity
  8
0
 48
0.6
100
AcDbCircle
 10
74.66226641491084
 20
232.3930523232222
 30
0.0
 40
2.319999999999998
100
AcDbArc
 50
321.9486744806221
 51
26.36567250321681
  0
ARC
  5
1DA
330
2
100
AcDbEntity
  8
0
 48
0.6
100
AcDbCircle
 10
78.3160758426311
 20
229.5331088507182
 30
0.0
 40
2.319999999999998
100
AcDbArc
 50
141.9486744806222
 51
197.7198081527984
  0
ARC
  5
1DB
102
{ACAD_REACTORS
330
26D
102
}
330
2
100
AcDbEntity
  8
0
 48
0.6
100
AcDbCircle
 10
81.79690803918129
 20
251.0596597883613
 30
0.0
 40
5.0
100
AcDbArc
 50
0.0
 51
90.0
  0
LINE
  5
1DC
330
2
100
AcDbEntity
  8
0
 48
0.6
100
AcDbLine
 10
69.17638814645034
 20
186.0596597883604
 30
0.0
 11
63.43533791993104
 21
186.0596597883604
 31
0.0
  0
ARC
  5
1DD
330
2
100
AcDbEntity
  8
0
100
AcDbCircle
 10
190.4871561285726
 20
185.4710137883612
 30
0.0
 40
33.95579199999999
100
AcDbArc
 50
179.8504230000004
 51
213.8981229999992
  0
ARC
  5
1DE
330
2
100
AcDbEntity
  8
0
100
AcDbCircle
 10
190.4871561285726
 20
185.4710137883612
 30
0.0
 40
35.255792
100
AcDbArc
 50
179.8559380000023
 51
205.2470409999969
  0
ARC
  5
1DF
330
2
100
AcDbEntity
  8
0
100
AcDbCircle
 10
190.4871561285726
 20
185.4710137883612
 30
0.0
 40
39.15579199999999
100
AcDbArc
 50
179.8702869999971
 51
212.7486590000019
  0
ARC
  5
1E0
330
2
100
AcDbEntity
  8
0
100
AcDbCircle
 10
190.4871561285726
 20
185.4710137883612
 30
0.0
 40
37.855792
100
AcDbArc
 50
179.8658329999985
 51
205.2470409999969
  0
ARC
  5
1E1
330
2
100
AcDbEntity
  8
0
100
AcDbCircle
 10
190.4871561285726
 20
185.4710137883612
 30
0.0
 40
36.555792
100
AcDbArc
 50
205.2470409999969
 51
213.8176429999978
  0
ARC
  5
1E2
330
2
100
AcDbEntity
  8
0
100
AcDbCircle
 10
190.4871561285726
 20
185.4710137883612
 30
0.0
 40
37.855792
100
AcDbArc
 50
212.7486590000019
 51
219.5987459999966
  0
ARC
  5
1E3
330
2
100
AcDbEntity
  8
0
100
AcDbCircle
 10
161.9584821285716
 20
165.8661587883602
 30
0.0
 40
0.7499080000000001
100
AcDbArc
 50
62.66289500000094
 51
182.8344229999968
  0
ARC
  5
1E4
330
2
100
AcDbEntity
  8
0
100
AcDbCircle
 10
160.4605001285708
 20
165.791992788359
 30
0.0
 40
0.7499080000000001
100
AcDbArc
 50
242.6628950000009
 51
2.834422999996808
  0
ARC
  5
1E5
330
2
100
AcDbEntity
  8
0
100
AcDbCircle
 10
190.4871561285726
 20
185.4710137883612
 30
0.0
 40
35.255792
100
AcDbArc
 50
213.8564239999994
 51
219.5987459999966
  0
ARC
  5
1E6
330
2
100
AcDbEntity
  8
0
100
AcDbCircle
 10
157.8994881285725
 20
164.9556597883593
 30
0.0
 40
0.7499080000000001
100
AcDbArc
 50
242.6628950000009
 51
2.834422999996808
  0
ARC
  5
1E7
330
2
100
AcDbEntity
  8
0
100
AcDbCircle
 10
159.397469128573
 20
165.0298257883591
 30
0.0
 40
0.7499080000000001
100
AcDbArc
 50
62.66289500000094
 51
182.8344229999968
  0
ARC
  5
1E8
330
2
100
AcDbEntity
  8
0
100
AcDbCircle
 10
163.0591451285727
 20
162.2962437883606
 30
0.0
 40
0.7499080000000001
100
AcDbArc
 50
69.51298200000024
 51
189.6845099999992
  0
ARC
  5
1E9
330
2
100
AcDbEntity
  8
0
100
AcDbCircle
 10
161.580703128573
 20
162.0439407883604
 30
0.0
 40
0.7499080000000001
100
AcDbArc
 50
249.5129820000002
 51
9.684509999999278
  0
ARC
  5
1EA
330
2
100
AcDbEntity
  8
0
100
AcDbCircle
 10
156.6758551285711
 20
169.9401817883604
 30
0.0
 40
0.7499080000000001
100
AcDbArc
 50
235.1612770000011
 51
355.3328050000017
  0
ARC
  5
1EB
330
2
100
AcDbEntity
  8
0
100
AcDbCircle
 10
158.1706981285715
 20
169.8181447883603
 30
0.0
 40
0.7499080000000001
100
AcDbArc
 50
55.16127700000105
 51
175.3328050000016
  0
LINE
  5
1EC
330
2
100
AcDbEntity
  8
0
100
AcDbLine
 10
142.1844341285723
 20
256.0596597883604
 30
0.0
 11
142.1844341285723
 21
186.0596597883604
 31
0.0
  0
LINE
  5
1ED
330
2
100
AcDbEntity
  8
0
100
AcDbLine
 10
148.2844341285708
 20
256.0596597883604
 30
0.0
 11
148.2844341285708
 21
186.0596597883591
 31
0.0
  0
LINE
  5
1EE
102
{ACAD_REACTORS
330
21F
102
}
330
2
100
AcDbEntity
  8
0
100
AcDbLine
 10
140.1844341285723
 20
253.0596597883593
 30
0.0
 11
140.1844341285723
 21
189.0596597883604
 31
0.0
  0
LINE
  5
1EF
330
2
100
AcDbEntity
  8
0
100
AcDbLine
 10
149.1844341285723
 20
195.1609224468302
 30
0.0
 11
149.1844341285723
 21
187.4609224468304
 31
0.0
  0
LINE
  5
1F0
330
2
100
AcDbEntity
  8
0
100
AcDbLine
 10
158.6844341285723
 20
185.5596597883591
 30
0.0
 11
149.6844341285723
 21
185.5596597883591
 31
0.0
  0
LINE
  5
1F1
330
2
100
AcDbEntity
  8
0
100
AcDbLine
 10
142.1844341285723
 20
186.0596597883591
 30
0.0
 11
148.2844341285708
 21
186.0596597883591
 31
0.0
  0
LINE
  5
1F2
330
2
100
AcDbEntity
  8
0
100
AcDbLine
 10
142.1844341285723
 20
189.0596597883604
 30
0.0
 11
140.1844341285723
 21
189.0596597883604
 31
0.0
  0
LINE
  5
1F3
330
2
100
AcDbEntity
  8
0
100
AcDbLine
 10
148.2844341285708
 20
187.4609224468304
 30
0.0
 11
149.1844341285723
 21
187.4609224468304
 31
0.0
  0
LINE
  5
1F4
330
2
100
AcDbEntity
  8
0
100
AcDbLine
 10
149.1844341285723
 20
186.5596597883604
 30
0.0
 11
149.1844341285723
 21
186.0596597883604
 31
0.0
  0
ARC
  5
1F5
330
2
100
AcDbEntity
  8
0
100
AcDbCircle
 10
149.6844341285723
 20
186.0596597883604
 30
0.0
 40
0.5
100
AcDbArc
 50
180.0
 51
270.0
  0
LINE
  5
1F6
330
2
100
AcDbEntity
  8
0
100
AcDbLine
 10
159.1844341285723
 20
186.5596597883604
 30
0.0
 11
159.1844341285723
 21
186.0596597883604
 31
0.0
  0
ARC
  5
1F7
330
2
100
AcDbEntity
  8
0
100
AcDbCircle
 10
158.6844341285723
 20
186.0596597883604
 30
0.0
 40
0.5
100
AcDbArc
 50
270.0
 51
0.0
  0
LINE
  5
1F8
330
2
100
AcDbEntity
  8
0
100
AcDbLine
 10
148.2844341285708
 20
195.1609224468302
 30
0.0
 11
149.1844341285723
 21
195.1609224468302
 31
0.0
  0
LINE
  5
1F9
330
2
100
AcDbEntity
  8
CEN
 48
0.6
100
AcDbLine
 10
127.6844341285723
 20
218.2201597883592
 30
0.0
 11
143.1844341285723
 21
218.2201597883592
 31
0.0
  0
LINE
  5
1FA
330
2
100
AcDbEntity
  8
0
100
AcDbLine
 10
129.6844341285723
 20
217.7096597883605
 30
0.0
 11
140.1844341285723
 21
217.7096597883605
 31
0.0
  0
LINE
  5
1FB
330
2
100
AcDbEntity
  8
CEN
 48
0.6
100
AcDbLine
 10
127.6844341285723
 20
223.8991597883605
 30
0.0
 11
143.1844341285723
 21
223.8991597883605
 31
0.0
  0
LINE
  5
1FC
330
2
100
AcDbEntity
  8
0
100
AcDbLine
 10
129.6844341285723
 20
224.4096597883603
 30
0.0
 11
140.1844341285723
 21
224.4096597883603
 31
0.0
  0
ARC
  5
1FD
330
2
100
AcDbEntity
  8
0
100
AcDbCircle
 10
134.7245618631241
 20
188.4271780186622
 30
0.0
 40
30.21776684021463
100
AcDbArc
 50
79.59038642143004
 51
87.23086447349437
  0
ARC
  5
1FE
330
2
100
AcDbEntity
  8
0
100
AcDbCircle
 10
134.7245618631241
 20
253.6921415580552
 30
0.0
 40
30.21776684021192
100
AcDbArc
 50
272.7691355265055
 51
280.40961357857
  0
LINE
  5
1FF
330
2
100
AcDbEntity
  8
2
100
AcDbLine
 10
136.1844341285723
 20
222.9796597883605
 30
0.0
 11
130.1844341285723
 21
219.8042333078162
 31
0.0
  0
LINE
  5
200
330
2
100
AcDbEntity
  8
2
100
AcDbLine
 10
135.2335620462981
 20
223.5096597883591
 30
0.0
 11
130.1844341285723
 21
220.9589338461973
 31
0.0
  0
LINE
  5
201
330
2
100
AcDbEntity
  8
2
100
AcDbLine
 10
129.6844341285723
 20
224.4096597883603
 30
0.0
 11
129.6844341285723
 21
217.7096597883605
 31
0.0
  0
LINE
  5
202
330
2
100
AcDbEntity
  8
0
100
AcDbLine
 10
129.1844341285723
 20
223.9096597883603
 30
0.0
 11
129.1844341285723
 21
218.2201597883592
 31
0.0
  0
LINE
  5
203
330
2
100
AcDbEntity
  8
2
100
AcDbLine
 10
136.1844341285723
 20
223.5096597883591
 30
0.0
 11
136.1844341285723
 21
218.6096597883604
 31
0.0
  0
LINE
  5
204
330
2
100
AcDbEntity
  8
2
100
AcDbLine
 10
136.1844341285723
 20
221.8249592499812
 30
0.0
 11
130.0166866441904
 21
218.6096597883604
 31
0.0
  0
LINE
  5
205
330
2
100
AcDbEntity
  8
0
100
AcDbLine
 10
129.1844341285723
 20
218.6096597883604
 30
0.0
 11
136.1844341285723
 21
218.6096597883604
 31
0.0
  0
LINE
  5
206
330
2
100
AcDbEntity
  8
0
100
AcDbLine
 10
129.1844341285723
 20
218.2096597883605
 30
0.0
 11
129.6844341285723
 21
217.7096597883605
 31
0.0
  0
LINE
  5
207
330
2
100
AcDbEntity
  8
0
100
AcDbLine
 10
129.1844341285723
 20
223.5096597883591
 30
0.0
 11
136.1844341285723
 21
223.5096597883591
 31
0.0
  0
LINE
  5
208
330
2
100
AcDbEntity
  8
0
100
AcDbLine
 10
129.6844341285723
 20
224.4096597883603
 30
0.0
 11
129.1844341285723
 21
223.9096597883603
 31
0.0
  0
LINE
  5
209
330
2
100
AcDbEntity
  8
0
100
AcDbLine
 10
142.1844341285723
 20
223.8796597883604
 30
0.0
 11
142.1844341285723
 21
218.2396597883605
 31
0.0
  0
LINE
  5
20A
330
2
100
AcDbEntity
  8
0
100
AcDbLine
 10
142.1844341285723
 20
223.8796597883604
 30
0.0
 11
142.1844341285723
 21
218.2396597883605
 31
0.0
  0
LINE
  5
20B
330
2
100
AcDbEntity
  8
0
100
AcDbLine
 10
149.1844341285723
 20
246.9583971298893
 30
0.0
 11
149.1844341285723
 21
254.6583971298894
 31
0.0
  0
LINE
  5
20C
330
2
100
AcDbEntity
  8
0
100
AcDbLine
 10
148.2844341285708
 20
246.9583971298893
 30
0.0
 11
149.1844341285723
 21
246.9583971298893
 31
0.0
  0
LINE
  5
20D
330
2
100
AcDbEntity
  8
0
100
AcDbLine
 10
142.1844341285723
 20
256.0596597883604
 30
0.0
 11
148.2844341285708
 21
256.0596597883604
 31
0.0
  0
LINE
  5
20E
330
2
100
AcDbEntity
  8
0
100
AcDbLine
 10
142.1844341285723
 20
253.0596597883593
 30
0.0
 11
140.1844341285723
 21
253.0596597883593
 31
0.0
  0
LINE
  5
20F
102
{ACAD_REACTORS
330
23D
102
}
330
2
100
AcDbEntity
  8
0
100
AcDbLine
 10
148.2844341285708
 20
254.6583971298894
 30
0.0
 11
149.1844341285723
 21
254.6583971298894
 31
0.0
  0
DIMENSION
  5
210
330
2
100
AcDbEntity
  8
0
100
AcDbDimension
  2
*D33
 10
142.1844341285723
 20
276.0412758874483
 30
0.0
 11
135.9344341285723
 21
276.0412758874483
 31
0.0
 70
   160
  1
<>
  3
STANDARD
100
AcDbAlignedDimension
 13
129.1844341285723
 23
223.8991597883605
 33
0.0
 14
142.1844341285723
 24
256.0596597883604
 34
0.0
100
AcDbRotatedDimension
  0
DIMENSION
  5
21D
102
{ACAD_XDICTIONARY
360
21E
102
}
102
{ACAD_REACTORS
330
21F
102
}
330
2
100
AcDbEntity
  8
0
100
AcDbDimension
  2
*D32
 10
117.0139872446889
 20
189.0596597883604
 30
0.0
 11
117.0139872446888
 21
219.2166287504512
 31
0.0
 70
   160
  1
\A1;%%C{\f??|b0|i0|c0|p49;64\H0.7x;\S+0^ -0.030;\H1.429x;(h7)} 
  3
STANDARD
100
AcDbAlignedDimension
 13
140.1844341285723
 23
253.0596597883593
 33
0.0
 14
140.1844341285723
 24
189.0596597883604
 34
0.0
 50
90.0
100
AcDbRotatedDimension
  0
DIMENSION
  5
22C
330
2
100
AcDbEntity
  8
0
100
AcDbDimension
  2
*D31
 10
142.1844341285723
 20
266.2679931216932
 30
0.0
 11
133.1844341285723
 21
266.2679931216932
 31
0.0
 70
   160
  3
STANDARD
100
AcDbAlignedDimension
 13
140.1844341285723
 23
253.0596597883593
 33
0.0
 14
142.1844341285723
 24
256.0596597883604
 34
0.0
100
AcDbRotatedDimension
  0
DIMENSION
  5
23B
102
{ACAD_XDICTIONARY
360
23C
102
}
102
{ACAD_REACTORS
330
23D
102
}
330
2
100
AcDbEntity
  8
0
100
AcDbDimension
  2
*D30
 10
149.1844341285723
 20
266.2679931216932
 30
0.0
 11
145.6844341285723
 21
266.2679931216932
 31
0.0
 70
   160
  3
STANDARD
100
AcDbAlignedDimension
 13
142.1844341285723
 23
265.2679931216932
 33
0.0
 14
149.1844341285723
 24
254.6583971298894
 34
0.0
100
AcDbRotatedDimension
  0
LINE
  5
24A
330
2
100
AcDbEntity
  8
CEN
 48
0.6
100
AcDbLine
 10
51.79690803918129
 20
179.8383532295301
 30
0.0
 11
51.79690803918129
 21
262.2809663471891
 31
0.0
  0
ARC
  5
24B
330
2
100
AcDbEntity
  8
0
 48
0.6
100
AcDbCircle
 10
51.79690803918129
 20
221.0596597883604
 30
0.0
 40
27.83999999999998
100
AcDbArc
 50
116.3656725032109
 51
153.634327496783
  0
ARC
  5
24C
330
2
100
AcDbEntity
  8
0
 48
0.6
100
AcDbCircle
 10
51.79690803918129
 20
221.0596597883604
 30
0.0
 40
27.83999999999998
100
AcDbArc
 50
206.3656725032168
 51
243.634327496789
  0
LINE
  5
24D
330
2
100
AcDbEntity
  8
0
 48
0.6
100
AcDbLine
 10
16.79690803918129
 20
251.0596597883613
 30
0.0
 11
16.79690803918129
 21
191.0596597883604
 31
0.0
  0
ARC
  5
24E
330
2
100
AcDbEntity
  8
0
 48
0.6
100
AcDbCircle
 10
28.93154966345173
 20
209.7262672534975
 30
0.0
 40
2.319999999999998
100
AcDbArc
 50
141.9486744806222
 51
206.3656725032168
  0
ARC
  5
24F
330
2
100
AcDbEntity
  8
0
 48
0.6
100
AcDbCircle
 10
21.79690803918128
 20
191.0596597883604
 30
0.0
 40
5.0
100
AcDbArc
 50
180.0
 51
270.0
  0
ARC
  5
250
330
2
100
AcDbEntity
  8
0
 48
0.6
100
AcDbCircle
 10
51.79690803918129
 20
221.0596597883604
 30
0.0
 40
25.52
100
AcDbArc
 50
162.2801918472015
 51
197.7198081527984
  0
ARC
  5
251
330
2
100
AcDbEntity
  8
0
 48
0.6
100
AcDbCircle
 10
25.27774023573147
 20
212.5862107260015
 30
0.0
 40
2.319999999999998
100
AcDbArc
 50
321.9486744806221
 51
17.71980815279839
  0
ARC
  5
252
330
2
100
AcDbEntity
  8
0
 48
0.6
100
AcDbCircle
 10
28.93154966345173
 20
232.3930523232222
 30
0.0
 40
2.319999999999998
100
AcDbArc
 50
153.634327496783
 51
218.0513255193776
  0
ARC
  5
253
330
2
100
AcDbEntity
  8
0
 48
0.6
100
AcDbCircle
 10
25.27774023573147
 20
229.5331088507182
 30
0.0
 40
2.319999999999998
100
AcDbArc
 50
342.2801918472014
 51
38.05132551937779
  0
ARC
  5
254
102
{ACAD_REACTORS
330
26D
102
}
330
2
100
AcDbEntity
  8
0
 48
0.6
100
AcDbCircle
 10
21.79690803918128
 20
251.0596597883613
 30
0.0
 40
5.0
100
AcDbArc
 50
90.0
 51
180.0
  0
ARC
  5
255
330
2
100
AcDbEntity
  8
0
 48
0.6
100
AcDbCircle
 10
51.79690803918129
 20
221.0596597883604
 30
0.0
 40
25.52
100
AcDbArc
 50
252.2801918471949
 51
287.7198081528051
  0
ARC
  5
256
330
2
100
AcDbEntity
  8
0
 48
0.6
100
AcDbCircle
 10
40.46351550432155
 20
198.1943014126263
 30
0.0
 40
2.319999999999998
100
AcDbArc
 50
243.634327496789
 51
308.0513255193868
  0
ARC
  5
257
330
2
100
AcDbEntity
  8
0
 48
0.6
100
AcDbCircle
 10
43.32345897682171
 20
194.5404919849092
 30
0.0
 40
2.319999999999998
100
AcDbArc
 50
72.28019184719491
 51
128.0513255193868
  0
ARC
  5
258
330
2
100
AcDbEntity
  8
0
 48
0.6
100
AcDbCircle
 10
60.27035710154087
 20
194.5404919849092
 30
0.0
 40
2.319999999999998
100
AcDbArc
 50
51.94867448061305
 51
107.719808152805
  0
CIRCLE
  5
259
330
2
100
AcDbEntity
  8
0
 48
0.6
100
AcDbCircle
 10
51.79690803918129
 20
221.0596597883604
 30
0.0
 40
3.000000000000055
  0
CIRCLE
  5
25A
330
2
100
AcDbEntity
  8
0
 48
0.6
100
AcDbCircle
 10
51.79690803918129
 20
221.0596597883604
 30
0.0
 40
2.000000000000055
  0
ARC
  5
25B
330
2
100
AcDbEntity
  8
0
 48
0.6
100
AcDbCircle
 10
51.79690803918129
 20
221.0596597883604
 30
0.0
 40
25.52
100
AcDbArc
 50
72.28019184719491
 51
107.719808152805
  0
ARC
  5
25C
330
2
100
AcDbEntity
  8
0
 48
0.6
100
AcDbCircle
 10
40.46351550432155
 20
243.9250181640932
 30
0.0
 40
2.319999999999998
100
AcDbArc
 50
51.94867448061305
 51
116.3656725032109
  0
ARC
  5
25D
330
2
100
AcDbEntity
  8
0
 48
0.6
100
AcDbCircle
 10
43.32345897682171
 20
247.5788275918114
 30
0.0
 40
2.319999999999998
100
AcDbArc
 50
231.948674480613
 51
287.7198081528051
  0
ARC
  5
25E
330
2
100
AcDbEntity
  8
0
 48
0.6
100
AcDbCircle
 10
60.27035710154087
 20
247.5788275918114
 30
0.0
 40
2.319999999999998
100
AcDbArc
 50
252.2801918471949
 51
308.0513255193868
  0
POLYLINE
  5
25F
330
2
100
AcDbEntity
  8
3
100
AcDb2dPolyline
 66
     1
 10
0.0
 20
0.0
 30
0.0
 70
     1
  0
VERTEX
  5
3A5
330
25F
100
AcDbEntity
  8
3
100
AcDbVertex
100
AcDb2dVertex
 10
44.84864462626137
 20
269.4005565192215
 30
0.0
  0
VERTEX
  5
3A6
330
25F
100
AcDbEntity
  8
3
100
AcDbVertex
100
AcDb2dVertex
 10
48.14864462626065
 20
269.4005565192215
 30
0.0
  0
VERTEX
  5
3A7
330
25F
100
AcDbEntity
  8
3
100
AcDbVertex
100
AcDb2dVertex
 10
48.14864462626065
 20
272.9005565192214
 30
0.0
  0
VERTEX
  5
3A8
330
25F
100
AcDbEntity
  8
3
100
AcDbVertex
100
AcDb2dVertex
 10
44.84864462626137
 20
272.9005565192214
 30
0.0
  0
SEQEND
  5
3A9
330
25F
100
AcDbEntity
  8
3
  0
INSERT
  5
260
330
2
100
AcDbEntity
  8
0
100
AcDbBlockReference
  2
3
 10
51.79690803918129
 20
221.0596597883643
 30
0.0
  0
LINE
  5
261
330
2
100
AcDbEntity
  8
0
 48
0.6
100
AcDbLine
 10
21.79690803918128
 20
186.0596597883604
 30
0.0
 11
81.79690803918129
 21
186.0596597883604
 31
0.0
  0
LINE
  5
262
330
2
100
AcDbEntity
  8
CEN
 48
0.6
100
AcDbLine
 10
12.19927331933286
 20
221.0596597883604
 30
0.0
 11
91.39454275902972
 21
221.0596597883604
 31
0.0
  0
LINE
  5
263
330
2
100
AcDbEntity
  8
0
 48
0.6
100
AcDbLine
 10
21.79690803918128
 20
256.0596597883604
 30
0.0
 11
81.79690803918129
 21
256.0596597883604
 31
0.0
  0
ARC
  5
264
330
2
100
AcDbEntity
  8
0
100
AcDbCircle
 10
99.96930767742378
 20
200.3702124369001
 30
0.0
 40
39.15579199999999
100
AcDbArc
 50
201.4369589999971
 51
235.2486590000054
  0
CIRCLE
  5
265
330
2
100
AcDbEntity
  8
0
 48
0.6
100
AcDbCircle
 10
51.79690803918129
 20
221.0596597883604
 30
0.0
 40
13.0
  0
ARC
  5
266
330
2
100
AcDbEntity
  8
0
 48
0.6
100
AcDbCircle
 10
63.13030057404103
 20
198.1943014126263
 30
0.0
 40
2.319999999999998
100
AcDbArc
 50
231.948674480613
 51
296.3656725032108
  0
ARC
  5
267
330
2
100
AcDbEntity
  8
0
 48
0.6
100
AcDbCircle
 10
63.13030057404103
 20
243.9250181640932
 30
0.0
 40
2.319999999999998
100
AcDbArc
 50
63.63432749678904
 51
128.0513255193868
  0
CIRCLE
  5
268
330
2
100
AcDbEntity
  8
0
 48
0.6
100
AcDbCircle
 10
51.79690803918129
 20
221.0596597883604
 30
0.0
 40
33.5
  0
CIRCLE
  5
269
330
2
100
AcDbEntity
  8
0
 48
0.6
100
AcDbCircle
 10
51.79690803918129
 20
221.0596597883604
 30
0.0
 40
32.00000000000005
  0
LINE
  5
26A
102
{ACAD_REACTORS
330
A6
102
}
330
2
100
AcDbEntity
  8
CEN
  6
CENTER
 62
     1
 48
0.6
100
AcDbLine
 10
51.79690803918129
 20
221.059659788357
 30
0.0
 11
66.2943827222407
 21
186.0596597883573
 31
0.0
  0
DIMENSION
  5
26B
102
{ACAD_XDICTIONARY
360
26C
102
}
102
{ACAD_REACTORS
330
26D
102
}
330
2
100
AcDbEntity
  8
0
100
AcDbDimension
  2
*D29
 10
86.79690803918129
 20
268.6274549142662
 30
0.0
 11
51.79690803918129
 21
268.6274549142662
 31
0.0
 70
   160
  3
STANDARD
100
AcDbAlignedDimension
 13
16.79690803918129
 23
251.0596597883613
 33
0.0
 14
86.79690803918129
 24
251.0596597883613
 34
0.0
100
AcDbRotatedDimension
  0
LINE
  5
27A
330
2
100
AcDbEntity
  8
0
100
AcDbLine
 10
243.8262728130212
 20
92.66935051588417
 30
0.0
 11
243.8262728130212
 21
28.66935051588416
 31
0.0
  0
LINE
  5
27B
102
{ACAD_REACTORS
330
283
102
}
330
2
100
AcDbEntity
  8
0
100
AcDbLine
 10
236.8262728130212
 20
26.16935051588416
 30
0.0
 11
236.8262728130212
 21
95.16935051588417
 31
0.0
  0
LINE
  5
27C
330
2
100
AcDbEntity
  8
0
100
AcDbLine
 10
242.8262728130212
 20
93.66935051588326
 30
0.0
 11
242.8262728130212
 21
27.66935051588416
 31
0.0
  0
LINE
  5
27D
330
2
100
AcDbEntity
  8
0
100
AcDbLine
 10
243.8262728130212
 20
28.66935051588416
 30
0.0
 11
242.8262728130212
 21
27.66935051588416
 31
0.0
  0
LINE
  5
27E
330
2
100
AcDbEntity
  8
0
100
AcDbLine
 10
242.8262728130212
 20
27.66935051588416
 30
0.0
 11
236.8262728130212
 21
27.66935051588416
 31
0.0
  0
LINE
  5
27F
330
2
100
AcDbEntity
  8
0
100
AcDbLine
 10
243.8262728130212
 20
92.66935051588417
 30
0.0
 11
242.8262728130212
 21
93.66935051588326
 31
0.0
  0
LINE
  5
280
330
2
100
AcDbEntity
  8
0
100
AcDbLine
 10
242.8262728130212
 20
93.66935051588326
 30
0.0
 11
236.8262728130212
 21
93.66935051588326
 31
0.0
  0
DIMENSION
  5
281
102
{ACAD_XDICTIONARY
360
282
102
}
102
{ACAD_REACTORS
330
283
102
}
330
2
100
AcDbEntity
  8
0
100
AcDbDimension
  2
*D19
 10
260.4869425059005
 20
26.16935051588415
 30
0.0
 11
260.4869425059005
 21
58.51326952579438
 31
0.0
 70
   160
  1
%%C<>
  3
STANDARD
100
AcDbAlignedDimension
 13
236.8262728130212
 23
95.16935051588417
 33
0.0
 14
236.8262728130212
 24
26.16935051588416
 34
0.0
 50
90.0
100
AcDbRotatedDimension
  0
LINE
  5
290
330
2
100
AcDbEntity
  8
0
100
AcDbLine
 10
221.1844341285723
 20
254.0596597883604
 30
0.0
 11
221.1844341285723
 21
188.0596597883604
 31
0.0
  0
LINE
  5
291
102
{ACAD_REACTORS
330
299
102
}
330
2
100
AcDbEntity
  8
0
100
AcDbLine
 10
215.1844341285723
 20
186.5596597883604
 30
0.0
 11
215.1844341285723
 21
255.5596597883604
 31
0.0
  0
LINE
  5
292
330
2
100
AcDbEntity
  8
0
100
AcDbLine
 10
222.1844341285723
 20
253.0596597883593
 30
0.0
 11
222.1844341285723
 21
189.0596597883604
 31
0.0
  0
LINE
  5
293
330
2
100
AcDbEntity
  8
0
100
AcDbLine
 10
221.1844341285723
 20
188.0596597883604
 30
0.0
 11
215.1844341285723
 21
188.0596597883604
 31
0.0
  0
LINE
  5
294
330
2
100
AcDbEntity
  8
0
100
AcDbLine
 10
222.1844341285723
 20
189.0596597883604
 30
0.0
 11
221.1844341285723
 21
188.0596597883604
 31
0.0
  0
LINE
  5
295
330
2
100
AcDbEntity
  8
0
100
AcDbLine
 10
221.1844341285723
 20
254.0596597883604
 30
0.0
 11
215.1844341285723
 21
254.0596597883604
 31
0.0
  0
LINE
  5
296
330
2
100
AcDbEntity
  8
0
100
AcDbLine
 10
222.1844341285723
 20
253.0596597883593
 30
0.0
 11
221.1844341285723
 21
254.0596597883604
 31
0.0
  0
DIMENSION
  5
297
102
{ACAD_XDICTIONARY
360
298
102
}
102
{ACAD_REACTORS
330
299
102
}
330
2
100
AcDbEntity
  8
0
100
AcDbDimension
  2
*D28
 10
238.8451038214516
 20
186.5596597883604
 30
0.0
 11
238.8451038214516
 21
218.9035787982713
 31
0.0
 70
   160
  1
%%C<>
  3
STANDARD
100
AcDbAlignedDimension
 13
215.1844341285723
 23
255.5596597883604
 33
0.0
 14
215.1844341285723
 24
186.5596597883604
 34
0.0
 50
90.0
100
AcDbRotatedDimension
  0
ENDSEC
  0
SECTION
  2
OBJECTS
  0
DICTIONARY
  5
8
330
0
100
AcDbDictionary
  3
ACAD_GROUP
350
97
  3
ACAD_LAYOUT
350
C
  3
ACAD_MLINESTYLE
350
98
  3
ACAD_PLOTSETTINGS
350
99
1001
ACAD
1000
TREAT_AS_HARD
1070
     0
  0
DICTIONARY
  5
13
330
12
100
AcDbDictionary
  3
ACAD_LAYERFILTERS
350
14
  3
ACAD_LAYERSTATES
350
87
1001
ACAD
1000
TREAT_AS_HARD
1070
     1
  0
DICTIONARY
  5
3
330
2
100
AcDbDictionary
  3
ACAD_LAYOUTSELFREF
350
387
1001
ACAD
1000
TREAT_AS_HARD
1070
     1
  0
DICTIONARY
  5
E
330
D
100
AcDbDictionary
  3
ACAD_LAYOUTSELFREF
350
388
1001
ACAD
1000
TREAT_AS_HARD
1070
     1
  0
DICTIONARY
  5
F2
330
F1
100
AcDbDictionary
  3
ACAD_DIMASSOC
350
F3
1001
ACAD
1000
TREAT_AS_HARD
1070
     1
  0
DICTIONARY
  5
A5
330
A4
100
AcDbDictionary
  3
ACAD_DIMASSOC
350
A6
1001
ACAD
1000
TREAT_AS_HARD
1070
     1
  0
DICTIONARY
  5
BA
330
B9
100
AcDbDictionary
  3
ACAD_DIMASSOC
350
BB
1001
ACAD
1000
TREAT_AS_HARD
1070
     1
  0
DICTIONARY
  5
18B
330
18A
100
AcDbDictionary
  3
ACAD_DIMASSOC
350
18C
1001
ACAD
1000
TREAT_AS_HARD
1070
     1
  0
DICTIONARY
  5
1A7
330
1A6
100
AcDbDictionary
  3
ACAD_DIMASSOC
350
1A8
1001
ACAD
1000
TREAT_AS_HARD
1070
     1
  0
DICTIONARY
  5
21E
330
21D
100
AcDbDictionary
  3
ACAD_DIMASSOC
350
21F
1001
ACAD
1000
TREAT_AS_HARD
1070
     1
  0
DICTIONARY
  5
23C
330
23B
100
AcDbDictionary
  3
ACAD_DIMASSOC
350
23D
1001
ACAD
1000
TREAT_AS_HARD
1070
     1
  0
DICTIONARY
  5
26C
330
26B
100
AcDbDictionary
  3
ACAD_DIMASSOC
350
26D
1001
ACAD
1000
TREAT_AS_HARD
1070
     1
  0
DICTIONARY
  5
282
330
281
100
AcDbDictionary
  3
ACAD_DIMASSOC
350
283
1001
ACAD
1000
TREAT_AS_HARD
1070
     1
  0
DICTIONARY
  5
298
330
297
100
AcDbDictionary
  3
ACAD_DIMASSOC
350
299
1001
ACAD
1000
TREAT_AS_HARD
1070
     1
  0
DICTIONARY
  5
97
102
{ACAD_REACTORS
330
8
102
}
330
8
100
AcDbDictionary
1001
ACAD
1000
TREAT_AS_HARD
1070
     0
  0
DICTIONARY
  5
C
102
{ACAD_REACTORS
330
8
102
}
330
8
100
AcDbDictionary
1001
ACAD
1000
TREAT_AS_HARD
1070
     0
  0
DICTIONARY
  5
98
102
{ACAD_REACTORS
330
8
102
}
330
8
100
AcDbDictionary
  3
STANDARD
350
9A
1001
ACAD
1000
TREAT_AS_HARD
1070
     0
  0
DICTIONARY
  5
99
102
{ACAD_REACTORS
330
8
102
}
330
8
100
AcDbDictionary
1001
ACAD
1000
TREAT_AS_HARD
1070
     0
  0
DICTIONARY
  5
14
102
{ACAD_REACTORS
330
13
102
}
330
13
100
AcDbDictionary
  3
$LAYERS
350
15
  3
-_UND_0
350
16
  3
-PEGC
350
17
  3
101
350
18
  3
102
350
19
  3
1DUC
350
1A
  3
1EQ
350
1B
  3
1TUB
350
1C
  3
2
350
1D
  3
2000
350
1E
  3
50
350
1F
  3
58J
350
20
  3
65
350
21
  3
AA
350
22
  3
ACABADOS
350
23
  3
AGUA_Y_DREN
350
24
  3
AIRE
350
25
  3
ALLE_AUS
350
26
  3
ALLES_MIT_S
350
27
  3
AMARILLO
350
28
  3
APAGADOS
350
29
  3
ARR
350
2A
  3
BA
350
2B
  3
BACKS
350
2C
  3
BASE
350
2D
  3
BLOQ_INUTIL
350
2E
  3
CADKON
350
2F
  3
CARPINTERIA
350
30
  3
CERRADOS
350
31
  3
COL
350
32
  3
COLOR
350
33
  3
COLOR_250
350
34
  3
COLORES
350
35
  3
CONGELADOS
350
36
  3
CONJUNTO
350
37
  3
D1
350
38
  3
DA_
350
39
  3
DET-
350
3A
  3
DOR-H
350
3B
  3
EJES
350
3C
  3
ELECTRICO
350
3D
  3
F1
350
3E
  3
FROZEN
350
3F
  3
GRID
350
40
  3
GRIDTXT
350
41
  3
HATCH
350
42
  3
HCAD
350
43
  3
INSTALACIONES
350
44
  3
JIZNI
350
45
  3
KCK
350
46
  3
KKK
350
47
  3
LAY
350
48
  3
LAYER-0
350
4C
  3
LAYER-1
350
4D
  3
LAYER_1_UND_0
350
49
  3
LAYER_2_UND_0
350
4A
  3
LAYER_9_UND_0_SCHRAFFUR
350
4B
  3
LOCK
350
4E
  3
LOCKED
350
4F
  3
LOTES
350
50
  3
LUNAR
350
51
  3
LUNAR2
350
52
  3
M
350
53
  3
MIS_LAYERS
350
54
  3
MRKCK
350
55
  3
NECADKON
350
56
  3
NI_LH
350
57
  3
NI_RH
350
58
  3
NUM
350
59
  3
OFF
350
5A
  3
ON
350
5B
  3
PBASE
350
5C
  3
PEGC
350
5D
  3
PEGCT
350
5E
  3
PFRAME
350
5F
  3
PGRID
350
60
  3
PGRIDT
350
61
  3
PLAFONES
350
62
  3
PLANTAS
350
63
  3
PLOT
350
64
  3
PRENDIDAS
350
65
  3
PRENDIDOS
350
66
  3
PRINT
350
67
  3
PT
350
68
  3
PTH
350
69
  3
PVGRID
350
6A
  3
RED_DE_AGUA_POTABLE
350
6B
  3
RED_DE_ENERGIA_ELECTRICA
350
6C
  3
SEVERNI
350
6D
  3
SHIN
350
6E
  3
SHOW_ALL_LAYER
350
6F
  3
SIN
350
70
  3
STORAGE-CART
350
71
  3
T
350
72
  3
TEXTOS
350
73
  3
TEXTURAS
350
74
  3
TUBERIAS
350
75
  3
UNFRZ
350
76
  3
V\U+0160ECHNY_NEPOU\U+017D\U+00CDVAN\U+00C9
350
77
  3
VA
350
78
  3
VENTILACI\U+00D3N
350
79
  3
VYHODNI
350
7A
  3
YO
350
7B
  3
ZAPADNI
350
7C
  3
사용
350
7D
  3
신규
350
7E
  3
실박스
350
7F
  3
우리토목
350
80
  3
주차
350
81
  3
지상정밀
350
82
  3
쩜선
350
83
  3
플로터_작업층
350
84
  3
현재_작업층
350
85
  3
현재_잠금
350
86
1001
ACAD
1000
TREAT_AS_HARD
1070
     1
  0
DICTIONARY
  5
87
102
{ACAD_REACTORS
330
13
102
}
330
13
100
AcDbDictionary
1001
ACAD
1000
TREAT_AS_HARD
1070
     0
  0
XRECORD
  5
387
102
{ACAD_REACTORS
330
3
102
}
330
3
100
AcDbXrecord
340
2
  0
XRECORD
  5
388
102
{ACAD_REACTORS
330
E
102
}
330
E
100
AcDbXrecord
340
D
  0
DIMASSOC
  5
F3
102
{ACAD_REACTORS
330
F2
102
}
330
F2
100
AcDbDimAssoc
330
F1
 90
        2
 70
     0
 71
     0
  1
AcDbOsnapPointRef
 72
     3
331
FF
 73
     2
 91
        0
 40
0.0
 10
-0.000000000003638
 20
0.0000000000020464
 30
0.0
 75
     0
  0
DIMASSOC
  5
A6
102
{ACAD_REACTORS
330
A5
102
}
330
A5
100
AcDbDimAssoc
330
A4
 90
        3
 70
     0
 71
     0
  1
AcDbOsnapPointRef
 72
    13
331
26A
 73
     2
 91
        0
 40
0.0
 10
51.79690803918129
 20
221.059659788357
 30
0.0
 75
     0
  1
AcDbOsnapPointRef
 72
     1
331
26A
 73
     2
 91
        0
 40
1.0
 10
66.2943827222407
 20
186.0596597883573
 30
0.0
 75
     0
  0
DIMASSOC
  5
BB
102
{ACAD_REACTORS
330
BA
102
}
330
BA
100
AcDbDimAssoc
330
B9
 90
        3
 70
     0
 71
     0
  1
AcDbOsnapPointRef
 72
    13
331
143
 73
     2
 91
        0
 40
0.0
 10
46.46674840020205
 20
60.66935051589325
 30
0.0
 75
     0
  1
AcDbOsnapPointRef
 72
     1
331
143
 73
     2
 91
        0
 40
1.0
 10
60.96422308326146
 20
25.66935051589325
 30
0.0
 75
     0
  0
DIMASSOC
  5
18C
102
{ACAD_REACTORS
330
18B
102
}
330
18B
100
AcDbDimAssoc
330
18A
 90
        3
 70
     0
 71
     0
  1
AcDbOsnapPointRef
 72
     1
331
13F
 73
     2
 91
        0
 40
3.141592653589792
 10
11.46674840020205
 20
90.66935051588506
 30
0.0
 75
     0
  1
AcDbOsnapPointRef
 72
    13
331
140
 73
     2
 91
        0
 40
0.0
 10
81.46674840020205
 20
90.66935051588506
 30
0.0
 75
     0
  0
DIMASSOC
  5
1A8
102
{ACAD_REACTORS
330
1A7
102
}
330
1A7
100
AcDbDimAssoc
330
1A6
 90
        2
 70
     0
 71
     0
  1
AcDbOsnapPointRef
 72
     1
331
15C
 73
     2
 91
        0
 40
1.0
 10
170.8262728130066
 20
94.26808785741332
 30
0.0
 75
     0
  0
DIMASSOC
  5
21F
102
{ACAD_REACTORS
330
21E
102
}
330
21E
100
AcDbDimAssoc
330
21D
 90
        1
 70
     0
 71
     0
  1
AcDbOsnapPointRef
 72
    13
331
1EE
 73
     2
 91
        0
 40
0.0
 10
140.1844341285723
 20
253.0596597883593
 30
0.0
 75
     0
  0
DIMASSOC
  5
23D
102
{ACAD_REACTORS
330
23C
102
}
330
23C
100
AcDbDimAssoc
330
23B
 90
        2
 70
     0
 71
     0
  1
AcDbOsnapPointRef
 72
     1
331
20F
 73
     2
 91
        0
 40
1.0
 10
149.1844341285723
 20
254.6583971298894
 30
0.0
 75
     0
  0
DIMASSOC
  5
26D
102
{ACAD_REACTORS
330
26C
102
}
330
26C
100
AcDbDimAssoc
330
26B
 90
        3
 70
     0
 71
     0
  1
AcDbOsnapPointRef
 72
     1
331
254
 73
     2
 91
        0
 40
3.141592653589792
 10
16.79690803918129
 20
251.0596597883613
 30
0.0
 75
     0
  1
AcDbOsnapPointRef
 72
    13
331
1DB
 73
     2
 91
        0
 40
0.0
 10
86.79690803918129
 20
251.0596597883613
 30
0.0
 75
     0
  0
DIMASSOC
  5
283
102
{ACAD_REACTORS
330
282
102
}
330
282
100
AcDbDimAssoc
330
281
 90
        3
 70
     0
 71
     0
  1
AcDbOsnapPointRef
 72
     1
331
27B
 73
     2
 91
        0
 40
1.0
 10
236.8262728130212
 20
95.16935051588417
 30
0.0
 75
     0
  1
AcDbOsnapPointRef
 72
    13
331
CE
 73
     2
 91
        0
 40
0.0
 10
236.8262728130212
 20
26.16935051588416
 30
0.0
 75
     0
  0
DIMASSOC
  5
299
102
{ACAD_REACTORS
330
298
102
}
330
298
100
AcDbDimAssoc
330
297
 90
        3
 70
     0
 71
     0
  1
AcDbOsnapPointRef
 72
     1
331
291
 73
     2
 91
        0
 40
1.0
 10
215.1844341285723
 20
255.5596597883604
 30
0.0
 75
     0
  1
AcDbOsnapPointRef
 72
    13
331
DE
 73
     2
 91
        0
 40
0.0
 10
215.1844341285723
 20
186.5596597883604
 30
0.0
 75
     0
  0
MLINESTYLE
  5
9A
102
{ACAD_REACTORS
330
98
102
}
330
98
100
AcDbMlineStyle
  2
STANDARD
 70
     0
  3

 62
   256
 51
90.0
 52
90.0
 71
     2
 49
0.5
 62
   256
  6
BYLAYER
 49
-0.5
 62
   256
  6
BYLAYER
  0
XRECORD
  5
15
102
{ACAD_REACTORS
330
14
102
}
330
14
100
AcDbXrecord
  1
$layers
  1
*
  1
*
  1
*
 70
     0
  1
*
  1
*
  0
XRECORD
  5
16
102
{ACAD_REACTORS
330
14
102
}
330
14
100
AcDbXrecord
  1
- und 0
  1
-*,0
  1
*
  1
*
 70
     0
  1
*
  1
*
  0
XRECORD
  5
17
102
{ACAD_REACTORS
330
14
102
}
330
14
100
AcDbXrecord
  1
-pegc
  1
*-pegc
  1
*
  1
*
 70
     0
  1
*
  1
*
  0
XRECORD
  5
18
102
{ACAD_REACTORS
330
14
102
}
330
14
100
AcDbXrecord
  1
101
  1
*101
  1
*
  1
*
 70
   256
  1
*
  1
*
  0
XRECORD
  5
19
102
{ACAD_REACTORS
330
14
102
}
330
14
100
AcDbXrecord
  1
102
  1
102*
  1
*
  1
*
 70
     0
  1
*
  1
*
  0
XRECORD
  5
1A
102
{ACAD_REACTORS
330
14
102
}
330
14
100
AcDbXrecord
  1
1duc
  1
*1duc*
  1
*
  1
*
 70
     0
  1
*
  1
*
  0
XRECORD
  5
1B
102
{ACAD_REACTORS
330
14
102
}
330
14
100
AcDbXrecord
  1
1eq
  1
*1eq*
  1
*
  1
*
 70
     0
  1
*
  1
*
  0
XRECORD
  5
1C
102
{ACAD_REACTORS
330
14
102
}
330
14
100
AcDbXrecord
  1
1tub
  1
*1t*
  1
*
  1
*
 70
     0
  1
*
  1
*
  0
XRECORD
  5
1D
102
{ACAD_REACTORS
330
14
102
}
330
14
100
AcDbXrecord
  1
2
  1
*
  1
2
  1
*
 70
     0
  1
*
  1
*
  0
XRECORD
  5
1E
102
{ACAD_REACTORS
330
14
102
}
330
14
100
AcDbXrecord
  1
2000
  1
2000*
  1
*
  1
*
 70
     0
  1
*
  1
*
  0
XRECORD
  5
1F
102
{ACAD_REACTORS
330
14
102
}
330
14
100
AcDbXrecord
  1
50
  1
*-50
  1
*
  1
*
 70
     0
  1
*
  1
*
  0
XRECORD
  5
20
102
{ACAD_REACTORS
330
14
102
}
330
14
100
AcDbXrecord
  1
58J
  1
*58*
  1
*
  1
*
 70
     0
  1
*
  1
*
  0
XRECORD
  5
21
102
{ACAD_REACTORS
330
14
102
}
330
14
100
AcDbXrecord
  1
65
  1
*65
  1
*
  1
*
 70
     0
  1
*
  1
*
  0
XRECORD
  5
22
102
{ACAD_REACTORS
330
14
102
}
330
14
100
AcDbXrecord
  1
aa
  1
aa*
  1
*
  1
*
 70
     0
  1
*
  1
*
  0
XRECORD
  5
23
102
{ACAD_REACTORS
330
14
102
}
330
14
100
AcDbXrecord
  1
acabados
  1
a-*
  1
*
  1
*
 70
     5
  1
*
  1
*
  0
XRECORD
  5
24
102
{ACAD_REACTORS
330
14
102
}
330
14
100
AcDbXrecord
  1
AGUA Y DREN
  1
A-DS-*
  1
*
  1
*
 70
     0
  1
*
  1
*
  0
XRECORD
  5
25
102
{ACAD_REACTORS
330
14
102
}
330
14
100
AcDbXrecord
  1
Aire
  1
*
  1
*
  1
*
 70
     0
  1
*
  1
*
  0
XRECORD
  5
26
102
{ACAD_REACTORS
330
14
102
}
330
14
100
AcDbXrecord
  1
alle aus
  1
99999999999
  1
*
  1
*
 70
     0
  1
*
  1
*
  0
XRECORD
  5
27
102
{ACAD_REACTORS
330
14
102
}
330
14
100
AcDbXrecord
  1
Alles mit S
  1
s*
  1
*
  1
*
 70
     0
  1
*
  1
*
  0
XRECORD
  5
28
102
{ACAD_REACTORS
330
14
102
}
330
14
100
AcDbXrecord
  1
amarillo
  1
*
  1
yellow
  1
*
 70
     0
  1
*
  1
*
  0
XRECORD
  5
29
102
{ACAD_REACTORS
330
14
102
}
330
14
100
AcDbXrecord
  1
APAGADOS
  1
*
  1
*
  1
*
 70
     4
  1
*
  1
*
  0
XRECORD
  5
2A
102
{ACAD_REACTORS
330
14
102
}
330
14
100
AcDbXrecord
  1
ARR
  1
ARR*
  1
*
  1
*
 70
     0
  1
*
  1
*
  0
XRECORD
  5
2B
102
{ACAD_REACTORS
330
14
102
}
330
14
100
AcDbXrecord
  1
ba
  1
*
  1
*
  1
*
 70
     0
  1
*
  1
*
  0
XRECORD
  5
2C
102
{ACAD_REACTORS
330
14
102
}
330
14
100
AcDbXrecord
  1
BACKS
  1
*-H
  1
*
  1
*
 70
     0
  1
*
  1
*
  0
XRECORD
  5
2D
102
{ACAD_REACTORS
330
14
102
}
330
14
100
AcDbXrecord
  1
BASE
  1
*-PBASE
  1
*
  1
*
 70
     0
  1
*
  1
*
  0
XRECORD
  5
2E
102
{ACAD_REACTORS
330
14
102
}
330
14
100
AcDbXrecord
  1
BLOQ_INUTIL
  1
*
  1
*
  1
*
 70
     0
  1
*
  1
*
  0
XRECORD
  5
2F
102
{ACAD_REACTORS
330
14
102
}
330
14
100
AcDbXrecord
  1
CADKON
  1
?[KAHBSM]?????[23M],?[KAHBSM]?????[23M][1456A-DGHILN-SU-Z]
  1
*
  1
*
 70
     0
  1
*
  1
*
  0
XRECORD
  5
30
102
{ACAD_REACTORS
330
14
102
}
330
14
100
AcDbXrecord
  1
carpinteria
  1
carp*
  1
*
  1
*
 70
     0
  1
*
  1
*
  0
XRECORD
  5
31
102
{ACAD_REACTORS
330
14
102
}
330
14
100
AcDbXrecord
  1
cerrados
  1
*
  1
*
  1
*
 70
   256
  1
*
  1
*
  0
XRECORD
  5
32
102
{ACAD_REACTORS
330
14
102
}
330
14
100
AcDbXrecord
  1
COL
  1
*
  1
*
  1
*
 70
     1
  1
*
  1
*
  0
XRECORD
  5
33
102
{ACAD_REACTORS
330
14
102
}
330
14
100
AcDbXrecord
  1
COLOR
  1
*
  1
253
  1
*
 70
     0
  1
*
  1
*
  0
XRECORD
  5
34
102
{ACAD_REACTORS
330
14
102
}
330
14
100
AcDbXrecord
  1
color 250
  1
*
  1
250
  1
*
 70
     0
  1
*
  1
*
  0
XRECORD
  5
35
102
{ACAD_REACTORS
330
14
102
}
330
14
100
AcDbXrecord
  1
COLORES
  1
*
  1
6
  1
*
 70
     0
  1
*
  1
*
  0
XRECORD
  5
36
102
{ACAD_REACTORS
330
14
102
}
330
14
100
AcDbXrecord
  1
Congelados
  1
*
  1
*
  1
*
 70
     4
  1
*
  1
*
  0
XRECORD
  5
37
102
{ACAD_REACTORS
330
14
102
}
330
14
100
AcDbXrecord
  1
CONJUNTO
  1
CON-*
  1
*
  1
*
 70
     0
  1
*
  1
*
  0
XRECORD
  5
38
102
{ACAD_REACTORS
330
14
102
}
330
14
100
AcDbXrecord
  1
d1
  1
achurados
  1
*
  1
*
 70
     0
  1
*
  1
*
  0
XRECORD
  5
39
102
{ACAD_REACTORS
330
14
102
}
330
14
100
AcDbXrecord
  1
DA_
  1
DA*
  1
*
  1
*
 70
     0
  1
*
  1
*
  0
XRECORD
  5
3A
102
{ACAD_REACTORS
330
14
102
}
330
14
100
AcDbXrecord
  1
DET-
  1
*
  1
*
  1
*
 70
     0
  1
*
  1
*
  0
XRECORD
  5
3B
102
{ACAD_REACTORS
330
14
102
}
330
14
100
AcDbXrecord
  1
DOR-H
  1
*
  1
7
  1
*
 70
     0
  1
*
  1
*
  0
XRECORD
  5
3C
102
{ACAD_REACTORS
330
14
102
}
330
14
100
AcDbXrecord
  1
ejes
  1
eje*
  1
*
  1
*
 70
     0
  1
*
  1
*
  0
XRECORD
  5
3D
102
{ACAD_REACTORS
330
14
102
}
330
14
100
AcDbXrecord
  1
ELECTRICO
  1
ELEC-*
  1
*
  1
*
 70
     0
  1
*
  1
*
  0
XRECORD
  5
3E
102
{ACAD_REACTORS
330
14
102
}
330
14
100
AcDbXrecord
  1
F1
  1
Halaxref*
  1
*
  1
*
 70
     0
  1
*
  1
*
  0
XRECORD
  5
3F
102
{ACAD_REACTORS
330
14
102
}
330
14
100
AcDbXrecord
  1
frozen
  1
*
  1
*
  1
*
 70
     4
  1
*
  1
*
  0
XRECORD
  5
40
102
{ACAD_REACTORS
330
14
102
}
330
14
100
AcDbXrecord
  1
grid
  1
*-PGRID
  1
*
  1
*
 70
     1
  1
*
  1
*
  0
XRECORD
  5
41
102
{ACAD_REACTORS
330
14
102
}
330
14
100
AcDbXrecord
  1
GRIDTXT
  1
*-PGRIDT
  1
*
  1
*
 70
     0
  1
*
  1
*
  0
XRECORD
  5
42
102
{ACAD_REACTORS
330
14
102
}
330
14
100
AcDbXrecord
  1
HATCH
  1
HAT*
  1
*
  1
*
 70
     0
  1
*
  1
*
  0
XRECORD
  5
43
102
{ACAD_REACTORS
330
14
102
}
330
14
100
AcDbXrecord
  1
HCAD
  1
1HCAD-*
  1
*
  1
*
 70
    13
  1
*
  1
*
  0
XRECORD
  5
44
102
{ACAD_REACTORS
330
14
102
}
330
14
100
AcDbXrecord
  1
INSTALACIONES
  1
I-*
  1
*
  1
*
 70
     0
  1
*
  1
*
  0
XRECORD
  5
45
102
{ACAD_REACTORS
330
14
102
}
330
14
100
AcDbXrecord
  1
JIZNI
  1
*-J
  1
*
  1
*
 70
     0
  1
*
  1
*
  0
XRECORD
  5
46
102
{ACAD_REACTORS
330
14
102
}
330
14
100
AcDbXrecord
  1
kck
  1
*
  1
*
  1
*
 70
     0
  1
*
  1
*
  0
XRECORD
  5
47
102
{ACAD_REACTORS
330
14
102
}
330
14
100
AcDbXrecord
  1
kkk
  1
k
  1
*
  1
*
 70
     0
  1
*
  1
*
  0
XRECORD
  5
48
102
{ACAD_REACTORS
330
14
102
}
330
14
100
AcDbXrecord
  1
lay
  1
??-*
  1
*
  1
*
 70
     0
  1
*
  1
*
  0
XRECORD
  5
4C
102
{ACAD_REACTORS
330
14
102
}
330
14
100
AcDbXrecord
  1
Layer-0
  1
0*
  1
*
  1
*
 70
     0
  1
*
  1
*
  0
XRECORD
  5
4D
102
{ACAD_REACTORS
330
14
102
}
330
14
100
AcDbXrecord
  1
Layer-1
  1
1*
  1
*
  1
*
 70
     0
  1
*
  1
*
  0
XRECORD
  5
49
102
{ACAD_REACTORS
330
14
102
}
330
14
100
AcDbXrecord
  1
Layer 1 und 0
  1
1*,0
  1
*
  1
*
 70
     0
  1
*
  1
*
  0
XRECORD
  5
4A
102
{ACAD_REACTORS
330
14
102
}
330
14
100
AcDbXrecord
  1
Layer 2 und 0
  1
2*,0
  1
*
  1
*
 70
     0
  1
*
  1
*
  0
XRECORD
  5
4B
102
{ACAD_REACTORS
330
14
102
}
330
14
100
AcDbXrecord
  1
Layer 9 und 0 Schraffur
  1
9*,0
  1
*
  1
*
 70
     0
  1
*
  1
*
  0
XRECORD
  5
4E
102
{ACAD_REACTORS
330
14
102
}
330
14
100
AcDbXrecord
  1
LOCK
  1
*
  1
*
  1
*
 70
   256
  1
*
  1
*
  0
XRECORD
  5
4F
102
{ACAD_REACTORS
330
14
102
}
330
14
100
AcDbXrecord
  1
locked
  1
*
  1
*
  1
*
 70
   256
  1
*
  1
*
  0
XRECORD
  5
50
102
{ACAD_REACTORS
330
14
102
}
330
14
100
AcDbXrecord
  1
Lotes
  1
*
  1
*
  1
*
 70
     1
  1
*
  1
*
  0
XRECORD
  5
51
102
{ACAD_REACTORS
330
14
102
}
330
14
100
AcDbXrecord
  1
LUNAR
  1
*
  1
*
  1
*
 70
    48
  1
*
  1
*
  0
XRECORD
  5
52
102
{ACAD_REACTORS
330
14
102
}
330
14
100
AcDbXrecord
  1
LUNAR2
  1
*
  1
*
  1
*
 70
    12
  1
*
  1
*
  0
XRECORD
  5
53
102
{ACAD_REACTORS
330
14
102
}
330
14
100
AcDbXrecord
  1
M
  1
M*
  1
*
  1
*
 70
     0
  1
*
  1
*
  0
XRECORD
  5
54
102
{ACAD_REACTORS
330
14
102
}
330
14
100
AcDbXrecord
  1
mis_layers
  1
mis_*
  1
*
  1
*
 70
     0
  1
*
  1
*
  0
XRECORD
  5
55
102
{ACAD_REACTORS
330
14
102
}
330
14
100
AcDbXrecord
  1
MRKCK
  1
*
  1
*
  1
*
 70
     0
  1
*
  1
*
  0
XRECORD
  5
56
102
{ACAD_REACTORS
330
14
102
}
330
14
100
AcDbXrecord
  1
NECADKON
  1
~*?[KAHBSM]?????[23M]*
  1
*
  1
*
 70
     0
  1
*
  1
*
  0
XRECORD
  5
57
102
{ACAD_REACTORS
330
14
102
}
330
14
100
AcDbXrecord
  1
NI_LH
  1
NI_LH*
  1
*
  1
*
 70
     0
  1
*
  1
*
  0
XRECORD
  5
58
102
{ACAD_REACTORS
330
14
102
}
330
14
100
AcDbXrecord
  1
NI_RH
  1
NI_RH*
  1
*
  1
*
 70
     0
  1
*
  1
*
  0
XRECORD
  5
59
102
{ACAD_REACTORS
330
14
102
}
330
14
100
AcDbXrecord
  1
NUM
  1
NUM*
  1
*
  1
*
 70
     0
  1
*
  1
*
  0
XRECORD
  5
5A
102
{ACAD_REACTORS
330
14
102
}
330
14
100
AcDbXrecord
  1
off
  1
*
  1
*
  1
*
 70
     3
  1
*
  1
*
  0
XRECORD
  5
5B
102
{ACAD_REACTORS
330
14
102
}
330
14
100
AcDbXrecord
  1
on
  1
*
  1
*
  1
*
 70
     0
  1
*
  1
*
  0
XRECORD
  5
5C
102
{ACAD_REACTORS
330
14
102
}
330
14
100
AcDbXrecord
  1
PBASE
  1
*PBASE
  1
*
  1
*
 70
     0
  1
*
  1
*
  0
XRECORD
  5
5D
102
{ACAD_REACTORS
330
14
102
}
330
14
100
AcDbXrecord
  1
PEGC
  1
*PEGC
  1
*
  1
*
 70
     0
  1
*
  1
*
  0
XRECORD
  5
5E
102
{ACAD_REACTORS
330
14
102
}
330
14
100
AcDbXrecord
  1
PEGCT
  1
*PEGCT
  1
*
  1
*
 70
     0
  1
*
  1
*
  0
XRECORD
  5
5F
102
{ACAD_REACTORS
330
14
102
}
330
14
100
AcDbXrecord
  1
PFRAME
  1
PFRAME*
  1
*
  1
*
 70
     0
  1
*
  1
*
  0
XRECORD
  5
60
102
{ACAD_REACTORS
330
14
102
}
330
14
100
AcDbXrecord
  1
PGRID
  1
*PGRID
  1
*
  1
*
 70
     0
  1
*
  1
*
  0
XRECORD
  5
61
102
{ACAD_REACTORS
330
14
102
}
330
14
100
AcDbXrecord
  1
PGRIDT
  1
*PGRIDT
  1
*
  1
*
 70
     0
  1
*
  1
*
  0
XRECORD
  5
62
102
{ACAD_REACTORS
330
14
102
}
330
14
100
AcDbXrecord
  1
PLAFONES
  1
0-*
  1
*
  1
*
 70
     0
  1
*
  1
*
  0
XRECORD
  5
63
102
{ACAD_REACTORS
330
14
102
}
330
14
100
AcDbXrecord
  1
PLANTAS
  1
P-*
  1
*
  1
*
 70
     0
  1
*
  1
*
  0
XRECORD
  5
64
102
{ACAD_REACTORS
330
14
102
}
330
14
100
AcDbXrecord
  1
Plot
  1
*
  1
*
  1
*
 70
  1024
  1
*
  1
*
  0
XRECORD
  5
65
102
{ACAD_REACTORS
330
14
102
}
330
14
100
AcDbXrecord
  1
PRENDIDAS
  1
*
  1
*
  1
*
 70
    13
  1
*
  1
*
  0
XRECORD
  5
66
102
{ACAD_REACTORS
330
14
102
}
330
14
100
AcDbXrecord
  1
PRENDIDOS
  1
*
  1
*
  1
*
 70
    12
  1
*
  1
*
  0
XRECORD
  5
67
102
{ACAD_REACTORS
330
14
102
}
330
14
100
AcDbXrecord
  1
print
  1
*
  1
7
  1
*
 70
  1280
  1
*
  1
*
  0
XRECORD
  5
68
102
{ACAD_REACTORS
330
14
102
}
330
14
100
AcDbXrecord
  1
PT
  1
PT-*
  1
*
  1
*
 70
     0
  1
*
  1
*
  0
XRECORD
  5
69
102
{ACAD_REACTORS
330
14
102
}
330
14
100
AcDbXrecord
  1
PTH
  1
PTH*
  1
*
  1
*
 70
     0
  1
*
  1
*
  0
XRECORD
  5
6A
102
{ACAD_REACTORS
330
14
102
}
330
14
100
AcDbXrecord
  1
PVGRID
  1
*PVGRID
  1
*
  1
*
 70
     0
  1
*
  1
*
  0
XRECORD
  5
6B
102
{ACAD_REACTORS
330
14
102
}
330
14
100
AcDbXrecord
  1
Red de Agua Potable
  1
Red de Agua Potable
  1
*
  1
*
 70
     1
  1
*
  1
*
  0
XRECORD
  5
6C
102
{ACAD_REACTORS
330
14
102
}
330
14
100
AcDbXrecord
  1
Red de Energia Electrica
  1
Lotes
  1
*
  1
*
 70
     1
  1
*
  1
*
  0
XRECORD
  5
6D
102
{ACAD_REACTORS
330
14
102
}
330
14
100
AcDbXrecord
  1
SEVERNI
  1
*-S
  1
*
  1
*
 70
     0
  1
*
  1
*
  0
XRECORD
  5
6E
102
{ACAD_REACTORS
330
14
102
}
330
14
100
AcDbXrecord
  1
shin
  1
일*
  1
*
  1
*
 70
     0
  1
*
  1
*
  0
XRECORD
  5
6F
102
{ACAD_REACTORS
330
14
102
}
330
14
100
AcDbXrecord
  1
SHOW ALL LAYER
  1
*
  1
*
  1
*
 70
     0
  1
*
  1
*
  0
XRECORD
  5
70
102
{ACAD_REACTORS
330
14
102
}
330
14
100
AcDbXrecord
  1
sin
  1
sin
  1
*
  1
*
 70
     0
  1
*
  1
*
  0
XRECORD
  5
71
102
{ACAD_REACTORS
330
14
102
}
330
14
100
AcDbXrecord
  1
STORAGE-CART
  1
STORAGE-CART*
  1
*
  1
*
 70
     0
  1
*
  1
*
  0
XRECORD
  5
72
102
{ACAD_REACTORS
330
14
102
}
330
14
100
AcDbXrecord
  1
T
  1
T*
  1
*
  1
*
 70
     0
  1
*
  1
*
  0
XRECORD
  5
73
102
{ACAD_REACTORS
330
14
102
}
330
14
100
AcDbXrecord
  1
TEXTOS
  1
TXT*
  1
*
  1
*
 70
     0
  1
*
  1
*
  0
XRECORD
  5
74
102
{ACAD_REACTORS
330
14
102
}
330
14
100
AcDbXrecord
  1
TEXTURAS
  1
*TEXTURAS
  1
*
  1
*
 70
     0
  1
*
  1
*
  0
XRECORD
  5
75
102
{ACAD_REACTORS
330
14
102
}
330
14
100
AcDbXrecord
  1
TUBERIAS
  1
T*
  1
*
  1
*
 70
     0
  1
*
  1
*
  0
XRECORD
  5
76
102
{ACAD_REACTORS
330
14
102
}
330
14
100
AcDbXrecord
  1
UNFRZ
  1
*
  1
*
  1
*
 70
    12
  1
*
  1
*
  0
XRECORD
  5
77
102
{ACAD_REACTORS
330
14
102
}
330
14
100
AcDbXrecord
  1
v\U+0161echny nepou\U+017E\U+00EDvan\U+00E9
  1
*
  1
*
  1
*
 70
     0
  1
*
  1
*
  0
XRECORD
  5
78
102
{ACAD_REACTORS
330
14
102
}
330
14
100
AcDbXrecord
  1
VA
  1
VA*
  1
*
  1
*
 70
     0
  1
*
  1
*
  0
XRECORD
  5
79
102
{ACAD_REACTORS
330
14
102
}
330
14
100
AcDbXrecord
  1
Ventilaci\U+00F3n
  1
*
  1
*
  1
*
 70
     0
  1
*
  1
*
  0
XRECORD
  5
7A
102
{ACAD_REACTORS
330
14
102
}
330
14
100
AcDbXrecord
  1
VYHODNI
  1
*-V
  1
*
  1
*
 70
     0
  1
*
  1
*
  0
XRECORD
  5
7B
102
{ACAD_REACTORS
330
14
102
}
330
14
100
AcDbXrecord
  1
Yo
  1
Muros
  1
*
  1
*
 70
     0
  1
*
  1
*
  0
XRECORD
  5
7C
102
{ACAD_REACTORS
330
14
102
}
330
14
100
AcDbXrecord
  1
ZAPADNI
  1
*-Z
  1
*
  1
*
 70
     0
  1
*
  1
*
  0
XRECORD
  5
7D
102
{ACAD_REACTORS
330
14
102
}
330
14
100
AcDbXrecord
  1
사용
  1
*
  1
*
  1
*
 70
   256
  1
*
  1
*
  0
XRECORD
  5
7E
102
{ACAD_REACTORS
330
14
102
}
330
14
100
AcDbXrecord
  1
신규
  1
신규
  1
*
  1
*
 70
     0
  1
*
  1
*
  0
XRECORD
  5
7F
102
{ACAD_REACTORS
330
14
102
}
330
14
100
AcDbXrecord
  1
실박스
  1
BLO,SYM,SYM1,SYM2
  1
*
  1
*
 70
     0
  1
*
  1
*
  0
XRECORD
  5
80
102
{ACAD_REACTORS
330
14
102
}
330
14
100
AcDbXrecord
  1
우리토목
  1
w-*
  1
*
  1
*
 70
     0
  1
*
  1
*
  0
XRECORD
  5
81
102
{ACAD_REACTORS
330
14
102
}
330
14
100
AcDbXrecord
  1
주차
  1
car*
  1
*
  1
*
 70
     0
  1
*
  1
*
  0
XRECORD
  5
82
102
{ACAD_REACTORS
330
14
102
}
330
14
100
AcDbXrecord
  1
지상정밀
  1
*
  1
*
  1
*
 70
     0
  1
*
  1
*
  0
XRECORD
  5
83
102
{ACAD_REACTORS
330
14
102
}
330
14
100
AcDbXrecord
  1
쩜선
  1
*
  1
*
  1
*
 70
     0
  1
*
  1
*
  0
XRECORD
  5
84
102
{ACAD_REACTORS
330
14
102
}
330
14
100
AcDbXrecord
  1
플로터 작업층
  1
*
  1
*
  1
*
 70
  1025
  1
*
  1
*
  0
XRECORD
  5
85
102
{ACAD_REACTORS
330
14
102
}
330
14
100
AcDbXrecord
  1
현재 작업층
  1
*
  1
*
  1
*
 70
     1
  1
*
  1
*
  0
XRECORD
  5
86
102
{ACAD_REACTORS
330
14
102
}
330
14
100
AcDbXrecord
  1
현재 잠금
  1
*
  1
*
  1
*
 70
   257
  1
*
  1
*
  0
ENDSEC
  0
EOF
