  0
SECTION
  2
HEADER
  9
$ACADVER
  1
AC1015
  9
$ACADMAINTVER
 70
    20
  9
$DWGCODEPAGE
  3
ANSI_949
  9
$INSBASE
 10
0.0
 20
0.0
 30
0.0
  9
$EXTMIN
 10
9405.360155799469
 20
-2205.672739857559
 30
-0.0000091545749633
  9
$EXTMAX
 10
9833.930228999424
 20
-2010.933213303064
 30
0.0000137332594111
  9
$LIMMIN
 10
0.0
 20
0.0
  9
$LIMMAX
 10
420.0
 20
297.0
  9
$ORTHOMODE
 70
     1
  9
$REGENMODE
 70
     1
  9
$FILLMODE
 70
     1
  9
$QTEXTMODE
 70
     0
  9
$MIRRTEXT
 70
     0
  9
$LTSCALE
 40
1.0
  9
$ATTMODE
 70
     1
  9
$TEXTSIZE
 40
2.5
  9
$TRACEWID
 40
1.0
  9
$TEXTSTYLE
  7
Standard
  9
$CLAYER
  8
0
  9
$CELTYPE
  6
ByLayer
  9
$CECOLOR
 62
   256
  9
$CELTSCALE
 40
1.0
  9
$DISPSILH
 70
     0
  9
$DIMSCALE
 40
1.0
  9
$DIMASZ
 40
4.0
  9
$DIMEXO
 40
1.0
  9
$DIMDLI
 40
10.0
  9
$DIMRND
 40
0.0
  9
$DIMDLE
 40
0.0
  9
$DIMEXE
 40
0.6
  9
$DIMTP
 40
0.0
  9
$DIMTM
 40
0.0
  9
$DIMTXT
 40
5.0
  9
$DIMCEN
 40
0.09
  9
$DIMTSZ
 40
0.0
  9
$DIMTOL
 70
     0
  9
$DIMLIM
 70
     0
  9
$DIMTIH
 70
     0
  9
$DIMTOH
 70
     0
  9
$DIMSE1
 70
     0
  9
$DIMSE2
 70
     0
  9
$DIMTAD
 70
     1
  9
$DIMZIN
 70
     8
  9
$DIMBLK
  1

  9
$DIMASO
 70
     1
  9
$DIMSHO
 70
     1
  9
$DIMPOST
  1

  9
$DIMAPOST
  1

  9
$DIMALT
 70
     0
  9
$DIMALTD
 70
     2
  9
$DIMALTF
 40
25.4
  9
$DIMLFAC
 40
1.0
  9
$DIMTOFL
 70
     1
  9
$DIMTVP
 40
0.0
  9
$DIMTIX
 70
     1
  9
$DIMSOXD
 70
     0
  9
$DIMSAH
 70
     0
  9
$DIMBLK1
  1

  9
$DIMBLK2
  1

  9
$DIMSTYLE
  2
STANDARD
  9
$DIMCLRD
 70
   123
  9
$DIMCLRE
 70
   123
  9
$DIMCLRT
 70
     3
  9
$DIMTFAC
 40
1.0
  9
$DIMGAP
 40
1.5
  9
$DIMJUST
 70
     0
  9
$DIMSD1
 70
     0
  9
$DIMSD2
 70
     0
  9
$DIMTOLJ
 70
     1
  9
$DIMTZIN
 70
     0
  9
$DIMALTZ
 70
     0
  9
$DIMALTTZ
 70
     0
  9
$DIMUPT
 70
     1
  9
$DIMDEC
 70
     2
  9
$DIMTDEC
 70
     2
  9
$DIMALTU
 70
     2
  9
$DIMALTTD
 70
     2
  9
$DIMTXSTY
  7
Standard
  9
$DIMAUNIT
 70
     1
  9
$DIMADEC
 70
     1
  9
$DIMALTRND
 40
0.0
  9
$DIMAZIN
 70
     2
  9
$DIMDSEP
 70
    46
  9
$DIMATFIT
 70
     0
  9
$DIMFRAC
 70
     0
  9
$DIMLDRBLK
  1

  9
$DIMLUNIT
 70
     2
  9
$DIMLWD
 70
    -2
  9
$DIMLWE
 70
    -2
  9
$DIMTMOVE
 70
     0
  9
$LUNITS
 70
     2
  9
$LUPREC
 70
     4
  9
$SKETCHINC
 40
1.0
  9
$FILLETRAD
 40
0.0
  9
$AUNITS
 70
     0
  9
$AUPREC
 70
     0
  9
$MENU
  1
.
  9
$ELEVATION
 40
0.0
  9
$PELEVATION
 40
0.0
  9
$THICKNESS
 40
0.0
  9
$LIMCHECK
 70
     0
  9
$CHAMFERA
 40
0.5
  9
$CHAMFERB
 40
0.5
  9
$CHAMFERC
 40
0.0
  9
$CHAMFERD
 40
0.0
  9
$SKPOLY
 70
     0
  9
$TDCREATE
 40
2455638.478663565
  9
$TDUCREATE
 40
2455638.103663565
  9
$TDUPDATE
 40
2455916.470194398
  9
$TDUUPDATE
 40
2455916.095194398
  9
$TDINDWG
 40
3.4876814815
  9
$TDUSRTIMER
 40
3.4876814815
  9
$USRTIMER
 70
     1
  9
$ANGBASE
 50
0.0
  9
$ANGDIR
 70
     0
  9
$PDMODE
 70
     0
  9
$PDSIZE
 40
0.0
  9
$PLINEWID
 40
0.0
  9
$SPLFRAME
 70
     0
  9
$SPLINETYPE
 70
     6
  9
$SPLINESEGS
 70
     8
  9
$HANDSEED
  5
408
  9
$SURFTAB1
 70
     6
  9
$SURFTAB2
 70
     6
  9
$SURFTYPE
 70
     6
  9
$SURFU
 70
     6
  9
$SURFV
 70
     6
  9
$UCSBASE
  2

  9
$UCSNAME
  2

  9
$UCSORG
 10
0.0
 20
0.0
 30
0.0
  9
$UCSXDIR
 10
1.0
 20
0.0
 30
0.0
  9
$UCSYDIR
 10
0.0
 20
1.0
 30
0.0
  9
$UCSORTHOREF
  2

  9
$UCSORTHOVIEW
 70
     0
  9
$UCSORGTOP
 10
0.0
 20
0.0
 30
0.0
  9
$UCSORGBOTTOM
 10
0.0
 20
0.0
 30
0.0
  9
$UCSORGLEFT
 10
0.0
 20
0.0
 30
0.0
  9
$UCSORGRIGHT
 10
0.0
 20
0.0
 30
0.0
  9
$UCSORGFRONT
 10
0.0
 20
0.0
 30
0.0
  9
$UCSORGBACK
 10
0.0
 20
0.0
 30
0.0
  9
$PUCSBASE
  2

  9
$PUCSNAME
  2

  9
$PUCSORG
 10
0.0
 20
0.0
 30
0.0
  9
$PUCSXDIR
 10
1.0
 20
0.0
 30
0.0
  9
$PUCSYDIR
 10
0.0
 20
1.0
 30
0.0
  9
$PUCSORTHOREF
  2

  9
$PUCSORTHOVIEW
 70
     0
  9
$PUCSORGTOP
 10
0.0
 20
0.0
 30
0.0
  9
$PUCSORGBOTTOM
 10
0.0
 20
0.0
 30
0.0
  9
$PUCSORGLEFT
 10
0.0
 20
0.0
 30
0.0
  9
$PUCSORGRIGHT
 10
0.0
 20
0.0
 30
0.0
  9
$PUCSORGFRONT
 10
0.0
 20
0.0
 30
0.0
  9
$PUCSORGBACK
 10
0.0
 20
0.0
 30
0.0
  9
$USERI1
 70
     0
  9
$USERI2
 70
     0
  9
$USERI3
 70
     0
  9
$USERI4
 70
     0
  9
$USERI5
 70
     0
  9
$USERR1
 40
0.0
  9
$USERR2
 40
0.0
  9
$USERR3
 40
0.0
  9
$USERR4
 40
0.0
  9
$USERR5
 40
0.0
  9
$WORLDVIEW
 70
     1
  9
$SHADEDGE
 70
     3
  9
$SHADEDIF
 70
    70
  9
$TILEMODE
 70
     1
  9
$MAXACTVP
 70
    48
  9
$PINSBASE
 10
0.0
 20
0.0
 30
0.0
  9
$PLIMCHECK
 70
     0
  9
$PEXTMIN
 10
0.0
 20
0.0
 30
0.0
  9
$PEXTMAX
 10
0.0
 20
0.0
 30
0.0
  9
$PLIMMIN
 10
0.0
 20
0.0
  9
$PLIMMAX
 10
12.0
 20
9.0
  9
$UNITMODE
 70
     0
  9
$VISRETAIN
 70
     1
  9
$PLINEGEN
 70
     0
  9
$PSLTSCALE
 70
     1
  9
$TREEDEPTH
 70
  3020
  9
$CMLSTYLE
  2
Standard
  9
$CMLJUST
 70
     0
  9
$CMLSCALE
 40
20.0
  9
$PROXYGRAPHICS
 70
     1
  9
$MEASUREMENT
 70
     1
  9
$CELWEIGHT
370
    -1
  9
$ENDCAPS
280
     0
  9
$JOINSTYLE
280
     0
  9
$LWDISPLAY
290
     0
  9
$INSUNITS
 70
     4
  9
$HYPERLINKBASE
  1

  9
$STYLESHEET
  1

  9
$XEDIT
290
     1
  9
$CEPSNTYPE
380
     0
  9
$PSTYLEMODE
290
     1
  9
$FINGERPRINTGUID
  2
{221B0529-F40D-42FA-9550-C0D16B92489C}
  9
$VERSIONGUID
  2
{53523E5B-9297-48DD-A331-1889592BF7F1}
  9
$EXTNAMES
290
     1
  9
$PSVPSCALE
 40
0.0
  9
$OLESTARTUP
290
     0
  0
ENDSEC
  0
SECTION
  2
CLASSES
  0
CLASS
  1
ACDBDICTIONARYWDFLT
  2
AcDbDictionaryWithDefault
  3
ObjectDBX Classes
 90
        0
280
     0
281
     0
  0
CLASS
  1
ACDBPLACEHOLDER
  2
AcDbPlaceHolder
  3
ObjectDBX Classes
 90
        0
280
     0
281
     0
  0
CLASS
  1
LAYOUT
  2
AcDbLayout
  3
ObjectDBX Classes
 90
        0
280
     0
281
     0
  0
CLASS
  1
DICTIONARYVAR
  2
AcDbDictionaryVar
  3
ObjectDBX Classes
 90
        0
280
     0
281
     0
  0
CLASS
  1
TABLESTYLE
  2
AcDbTableStyle
  3
ObjectDBX Classes
 90
     4095
280
     0
281
     0
  0
CLASS
  1
MATERIAL
  2
AcDbMaterial
  3
ObjectDBX Classes
 90
     1153
280
     0
281
     0
  0
CLASS
  1
VISUALSTYLE
  2
AcDbVisualStyle
  3
ObjectDBX Classes
 90
     4095
280
     0
281
     0
  0
CLASS
  1
SCALE
  2
AcDbScale
  3
ObjectDBX Classes
 90
     1153
280
     0
281
     0
  0
CLASS
  1
MLEADERSTYLE
  2
AcDbMLeaderStyle
  3
ACDB_MLEADERSTYLE_CLASS
 90
     4095
280
     0
281
     0
  0
CLASS
  1
CELLSTYLEMAP
  2
AcDbCellStyleMap
  3
ObjectDBX Classes
 90
     1152
280
     0
281
     0
  0
CLASS
  1
DIMASSOC
  2
AcDbDimAssoc
  3
"AcDbDimAssoc|Product Desc:     AcDim ARX App For Dimension|Company:          Autodesk, Inc.|WEB Address:      www.autodesk.com"
 90
        0
280
     0
281
     0
  0
CLASS
  1
SORTENTSTABLE
  2
AcDbSortentsTable
  3
ObjectDBX Classes
 90
        0
280
     0
281
     0
  0
CLASS
  1
BREAKDATA
  2
AcDbBreakData
  3
ObjectDBX Classes
 90
    33792
280
     0
281
     0
  0
CLASS
  1
EXACXREFPANELOBJECT
  2
ExAcXREFPanelObject
  3
EXAC_ESW
 90
     1025
280
     0
281
     0
  0
CLASS
  1
NPOCOLLECTION
  2
AcDbImpNonPersistentObjectsCollection
  3
ObjectDBX Classes
 90
     1153
280
     0
281
     0
  0
CLASS
  1
SOLID_BACKGROUND
  2
AcDbSolidBackground
  3
SCENEOE
 90
    36863
280
     0
281
     0
  0
ENDSEC
  0
SECTION
  2
TABLES
  0
TABLE
  2
VPORT
  5
2B
102
{ACAD_XDICTIONARY
360
2F
102
}
330
0
100
AcDbSymbolTable
 70
     1
  0
VPORT
  5
2C
330
2B
100
AcDbSymbolTableRecord
100
AcDbViewportTableRecord
  2
*Active
 70
     0
 10
0.0
 20
0.0
 11
1.0
 21
1.0
 12
9619.645192399445
 22
-2108.302976580311
 13
0.0
 23
0.0
 14
10.0
 24
10.0
 15
10.0
 25
10.0
 16
0.0
 26
0.0
 36
1.0
 17
0.0
 27
0.0
 37
0.0
 40
288.4458404100634
 41
1.492874109263657
 42
50.0
 43
0.0
 44
0.0
 50
0.0
 51
0.0
 71
     0
 72
  1000
 73
     1
 74
     3
 75
     0
 76
     0
 77
     0
 78
     0
281
     0
 65
     1
110
0.0
120
0.0
130
0.0
111
1.0
121
0.0
131
0.0
112
0.0
122
1.0
132
0.0
 79
     0
146
0.0
  0
ENDTAB
  0
TABLE
  2
LTYPE
  5
26
330
0
100
AcDbSymbolTable
 70
     2
  0
LTYPE
  5
27
330
26
100
AcDbSymbolTableRecord
100
AcDbLinetypeTableRecord
  2
ByBlock
 70
     0
  3

 72
    65
 73
     0
 40
0.0
  0
LTYPE
  5
28
330
26
100
AcDbSymbolTableRecord
100
AcDbLinetypeTableRecord
  2
ByLayer
 70
     0
  3

 72
    65
 73
     0
 40
0.0
  0
LTYPE
  5
15
330
26
100
AcDbSymbolTableRecord
100
AcDbLinetypeTableRecord
  2
Continuous
 70
     0
  3
Solid line
 72
    65
 73
     0
 40
0.0
  0
LTYPE
  5
77
330
26
100
AcDbSymbolTableRecord
100
AcDbLinetypeTableRecord
  2
CENTER
 70
     0
  3
Center ____ _ ____ _ ____ _ ____ _ ____ _ ____
 72
    65
 73
     4
 40
50.8
 49
31.75
 74
     0
 49
-6.349999999999998
 74
     0
 49
6.349999999999998
 74
     0
 49
-6.349999999999998
 74
     0
  0
ENDTAB
  0
TABLE
  2
LAYER
  5
20
102
{ACAD_XDICTIONARY
360
21
102
}
330
0
100
AcDbSymbolTable
 70
     2
  0
LAYER
  5
7
102
{ACAD_XDICTIONARY
360
8
102
}
330
20
100
AcDbSymbolTableRecord
100
AcDbLayerTableRecord
  2
0
 70
     0
 62
     7
  6
Continuous
370
    -3
390
A
  0
LAYER
  5
6F
330
20
100
AcDbSymbolTableRecord
100
AcDbLayerTableRecord
  2
Defpoints
 70
     0
 62
     7
  6
Continuous
290
     0
370
    -3
390
A
  0
ENDTAB
  0
TABLE
  2
STYLE
  5
23
330
0
100
AcDbSymbolTable
 70
     1
  0
STYLE
  5
24
330
23
100
AcDbSymbolTableRecord
100
AcDbTextStyleTableRecord
  2
Standard
 70
     0
 40
0.0
 41
1.0
 50
0.0
 71
     0
 42
2.5
  3
romans.shx
  4
whgtxt.shx
  0
ENDTAB
  0
TABLE
  2
VIEW
  5
29
330
0
100
AcDbSymbolTable
 70
     0
  0
ENDTAB
  0
TABLE
  2
UCS
  5
2A
330
0
100
AcDbSymbolTable
 70
     0
  0
ENDTAB
  0
TABLE
  2
APPID
  5
30
330
0
100
AcDbSymbolTable
 70
     5
  0
APPID
  5
14
330
30
100
AcDbSymbolTableRecord
100
AcDbRegAppTableRecord
  2
ACAD
 70
     0
  0
APPID
  5
19
330
30
100
AcDbSymbolTableRecord
100
AcDbRegAppTableRecord
  2
ACAD_PSEXT
 70
     0
  0
APPID
  5
41
330
30
100
AcDbSymbolTableRecord
100
AcDbRegAppTableRecord
  2
ACAD_DSTYLE_DIMJAG
 70
     0
  0
APPID
  5
42
330
30
100
AcDbSymbolTableRecord
100
AcDbRegAppTableRecord
  2
ACAD_DSTYLE_DIMTALN
 70
     0
  0
APPID
  5
3F5
330
30
100
AcDbSymbolTableRecord
100
AcDbRegAppTableRecord
  2
ACAD_MLEADERVER
 70
     0
  0
ENDTAB
  0
TABLE
  2
DIMSTYLE
  5
31
330
0
100
AcDbSymbolTable
 70
     1
100
AcDbDimStyleTable
 71
     0
  0
DIMSTYLE
105
40
102
{ACAD_REACTORS
330
180
330
17F
330
15F
330
14D
330
13E
330
128
330
118
330
101
330
F2
330
E1
330
CB
330
BD
330
B3
330
87
330
65
102
}
330
31
100
AcDbSymbolTableRecord
100
AcDbDimStyleTableRecord
  2
STANDARD
 70
     0
 41
4.0
 42
1.0
 43
10.0
 44
0.6
 73
     0
 74
     0
 77
     1
 78
     8
 79
     2
140
5.0
147
1.5
172
     1
174
     1
176
   123
177
   123
178
     3
179
     1
271
     2
272
     2
275
     1
288
     1
289
     0
340
24
1001
ACAD_DSTYLE_DIMJAG
1070
   388
1040
1.5
1001
ACAD_DSTYLE_DIMTALN
1070
   392
1070
     0
  0
ENDTAB
  0
TABLE
  2
BLOCK_RECORD
  5
1
330
0
100
AcDbSymbolTable
 70
    12
  0
BLOCK_RECORD
  5
2
102
{ACAD_XDICTIONARY
360
3
102
}
330
1
100
AcDbSymbolTableRecord
100
AcDbBlockTableRecord
  2
*Model_Space
340
17
  0
BLOCK_RECORD
  5
1A
102
{ACAD_XDICTIONARY
360
1B
102
}
330
1
100
AcDbSymbolTableRecord
100
AcDbBlockTableRecord
  2
*Paper_Space
340
1F
  0
BLOCK_RECORD
  5
66
330
1
100
AcDbSymbolTableRecord
100
AcDbBlockTableRecord
  2
*D0
340
0
  0
BLOCK_RECORD
  5
BE
330
1
100
AcDbSymbolTableRecord
100
AcDbBlockTableRecord
  2
*D1
340
0
  0
BLOCK_RECORD
  5
8A
330
1
100
AcDbSymbolTableRecord
100
AcDbBlockTableRecord
  2
*D2
340
0
  0
BLOCK_RECORD
  5
CC
330
1
100
AcDbSymbolTableRecord
100
AcDbBlockTableRecord
  2
*D3
340
0
  0
BLOCK_RECORD
  5
F3
330
1
100
AcDbSymbolTableRecord
100
AcDbBlockTableRecord
  2
*D4
340
0
  0
BLOCK_RECORD
  5
160
330
1
100
AcDbSymbolTableRecord
100
AcDbBlockTableRecord
  2
*D5
340
0
  0
BLOCK_RECORD
  5
E4
330
1
100
AcDbSymbolTableRecord
100
AcDbBlockTableRecord
  2
*D6
340
0
  0
BLOCK_RECORD
  5
104
330
1
100
AcDbSymbolTableRecord
100
AcDbBlockTableRecord
  2
*D7
340
0
  0
BLOCK_RECORD
  5
11B
330
1
100
AcDbSymbolTableRecord
100
AcDbBlockTableRecord
  2
*D8
340
0
  0
BLOCK_RECORD
  5
12B
330
1
100
AcDbSymbolTableRecord
100
AcDbBlockTableRecord
  2
*D9
340
0
  0
BLOCK_RECORD
  5
141
330
1
100
AcDbSymbolTableRecord
100
AcDbBlockTableRecord
  2
*D10
340
0
  0
BLOCK_RECORD
  5
150
330
1
100
AcDbSymbolTableRecord
100
AcDbBlockTableRecord
  2
*D11
340
0
  0
ENDTAB
  0
ENDSEC
  0
SECTION
  2
BLOCKS
  0
BLOCK
  5
6
330
2
100
AcDbEntity
  8
0
100
AcDbBlockBegin
  2
*Model_Space
 70
     0
 10
0.0
 20
0.0
 30
0.0
  3
*Model_Space
  1

  0
ENDBLK
  5
16
330
2
100
AcDbEntity
  8
0
100
AcDbBlockEnd
  0
BLOCK
  5
1D
330
1A
100
AcDbEntity
 67
     1
  8
0
100
AcDbBlockBegin
  2
*Paper_Space
 70
     0
 10
0.0
 20
0.0
 30
0.0
  3
*Paper_Space
  1

  0
ENDBLK
  5
1E
330
1A
100
AcDbEntity
 67
     1
  8
0
100
AcDbBlockEnd
  0
BLOCK
  5
67
330
66
100
AcDbEntity
  8
0
100
AcDbBlockBegin
  2
*D0
 70
     1
 10
0.0
 20
0.0
 30
0.0
  3
*D0
  1

  0
LINE
  5
68
330
66
100
AcDbEntity
  8
0
 62
   123
 48
0.6
100
AcDbLine
 10
9458.876343812772
 20
-2150.514911911907
 30
0.0
 11
9458.877338767299
 21
-2167.377576560181
 31
0.0
  0
LINE
  5
69
330
66
100
AcDbEntity
  8
0
 62
   123
 48
0.6
100
AcDbLine
 10
9477.898687499076
 20
-2143.690709143233
 30
0.0
 11
9485.516754658114
 21
-2162.076217288388
 31
0.0
  0
ARC
  5
6A
330
66
100
AcDbEntity
  8
0
 62
   123
 48
0.6
100
AcDbCircle
 10
9458.873231949969
 20
-2097.774512730037
 30
0.0
 40
69.00306395130207
100
AcDbArc
 50
273.325192837065
 51
289.184944706053
  0
SOLID
  5
6B
330
66
100
AcDbEntity
  8
0
 62
   123
 48
0.6
100
AcDbTrace
 10
9462.894978127076
 20
-2167.327789204409
 30
0.0
 11
9462.856253862069
 21
-2165.995018327973
 31
0.0
 12
9458.877303365262
 22
-2166.777576561225
 32
0.0
 13
9458.877303365262
 23
-2166.777576561225
 33
0.0
  0
SOLID
  5
6C
330
66
100
AcDbEntity
  8
0
 62
   123
 48
0.6
100
AcDbTrace
 10
9481.311677786756
 20
-2162.322308943539
 30
0.0
 11
9481.786151040743
 21
-2163.568363881745
 31
0.0
 12
9485.287079228369
 22
-2161.521916650674
 32
0.0
 13
9485.287079228369
 23
-2161.521916650674
 33
0.0
  0
MTEXT
  5
6D
330
66
100
AcDbEntity
  8
0
 62
     3
 48
0.6
100
AcDbMText
 10
9471.467399221713
 20
-2161.060406507437
 30
0.0
 40
5.0
 41
0.0
 71
     5
 72
     1
  1
\A1;22°30'
 11
0.9807680175579823
 21
0.1951770881414752
 31
0.0
 73
     1
 44
1.0
1001
ACAD
1000
MTEXTBEGIN
1070
    73
1070
     1
1070
    44
1040
1.0
1070
    74
1070
     0
1000
MTEXTEND
  0
POINT
  5
6E
330
66
100
AcDbEntity
  8
Defpoints
 62
     0
 48
0.6
100
AcDbPoint
 10
9467.885319474012
 20
-2166.18653735383
 30
0.0
  0
POINT
  5
70
330
66
100
AcDbEntity
  8
Defpoints
 62
     0
 48
0.6
100
AcDbPoint
 10
9458.876284809376
 20
-2149.514911913647
 30
0.0
  0
POINT
  5
71
330
66
100
AcDbEntity
  8
Defpoints
 62
     0
 48
0.6
100
AcDbPoint
 10
9458.870067138482
 20
-2097.766874747052
 30
0.0
  0
POINT
  5
72
330
66
100
AcDbEntity
  8
Defpoints
 62
     0
 48
0.6
100
AcDbPoint
 10
9477.515895116161
 20
-2142.766874747044
 30
0.0
  0
POINT
  5
73
330
66
100
AcDbEntity
  8
Defpoints
 62
     0
 48
0.6
100
AcDbPoint
 10
9458.870067138482
 20
-2044.136729983299
 30
0.0
  0
ENDBLK
  5
74
330
66
100
AcDbEntity
  8
0
100
AcDbBlockEnd
  0
BLOCK
  5
BF
330
BE
100
AcDbEntity
  8
0
100
AcDbBlockBegin
  2
*D1
 70
     1
 10
0.0
 20
0.0
 30
0.0
  3
*D1
  1

  0
LINE
  5
C0
330
BE
100
AcDbEntity
  8
0
 62
   123
370
    -2
100
AcDbLine
 10
9413.876284809374
 20
-2056.788271626457
 30
0.0
 11
9413.876284809374
 21
-2017.114433438595
 31
0.0
  0
LINE
  5
C1
330
BE
100
AcDbEntity
  8
0
 62
   123
370
    -2
100
AcDbLine
 10
9503.876284809374
 20
-2056.788271626457
 30
0.0
 11
9503.876284809374
 21
-2017.114433438595
 31
0.0
  0
LINE
  5
C2
330
BE
100
AcDbEntity
  8
0
 62
   123
370
    -2
100
AcDbLine
 10
9417.876284809372
 20
-2017.714433438595
 30
0.0
 11
9499.876284809372
 21
-2017.714433438595
 31
0.0
  0
SOLID
  5
C3
330
BE
100
AcDbEntity
  8
0
 62
   123
100
AcDbTrace
 10
9417.876284809372
 20
-2017.047766771928
 30
0.0
 11
9417.876284809372
 21
-2018.381100105262
 31
0.0
 12
9413.876284809374
 22
-2017.714433438595
 32
0.0
 13
9413.876284809374
 23
-2017.714433438595
 33
0.0
  0
SOLID
  5
C4
330
BE
100
AcDbEntity
  8
0
 62
   123
100
AcDbTrace
 10
9499.876284809372
 20
-2017.047766771928
 30
0.0
 11
9499.876284809372
 21
-2018.381100105262
 31
0.0
 12
9503.876284809374
 22
-2017.714433438595
 32
0.0
 13
9503.876284809374
 23
-2017.714433438595
 33
0.0
  0
MTEXT
  5
C5
330
BE
100
AcDbEntity
  8
0
 62
     3
100
AcDbMText
 10
9458.876284809374
 20
-2013.714433438595
 30
0.0
 40
5.0
 41
0.0
 71
     5
 72
     1
  1
\A1;90
 73
     1
 44
1.0
1001
ACAD
1000
MTEXTBEGIN
1070
    73
1070
     1
1070
    44
1040
1.0
1070
    74
1070
     0
1000
MTEXTEND
  0
POINT
  5
C6
330
BE
100
AcDbEntity
  8
Defpoints
 62
     0
100
AcDbPoint
 10
9413.876284809374
 20
-2057.788271626457
 30
0.0
  0
POINT
  5
C7
330
BE
100
AcDbEntity
  8
Defpoints
 62
     0
100
AcDbPoint
 10
9503.876284809374
 20
-2057.788271626457
 30
0.0
  0
POINT
  5
C8
330
BE
100
AcDbEntity
  8
Defpoints
 62
     0
100
AcDbPoint
 10
9503.876284809374
 20
-2017.714433438595
 30
0.0
  0
ENDBLK
  5
C9
330
BE
100
AcDbEntity
  8
0
100
AcDbBlockEnd
  0
BLOCK
  5
8B
330
8A
100
AcDbEntity
  8
0
100
AcDbBlockBegin
  2
*D2
 70
     1
 10
0.0
 20
0.0
 30
0.0
  3
*D2
  1

  0
LINE
  5
8C
330
8A
100
AcDbEntity
  8
0
 62
   123
100
AcDbLine
 10
9539.789238646717
 20
-2036.126360410682
 30
0.0
 11
9503.428117025928
 21
-2063.81710852653
 31
0.0
  0
LINE
  5
8D
330
8A
100
AcDbEntity
  8
0
 62
   123
100
AcDbLine
 10
9414.324452592817
 20
-2131.673847208796
 30
0.0
 11
9411.142178863062
 21
-2134.097302161734
 31
0.0
  0
MTEXT
  5
8E
102
{ACAD_XDICTIONARY
360
406
102
}
330
8A
100
AcDbEntity
  8
0
 62
     3
100
AcDbMText
 10
9522.060562422108
 20
-2044.599750978393
 30
0.0
 40
5.0
 41
0.0
 71
     5
 72
     1
  1
\A1;\U+2205104%%P0.5
 11
0.7955684324384325
 21
0.6058637382344775
 31
0.0
 73
     1
 44
1.0
1001
ACAD
1000
MTEXTBEGIN
1070
    73
1070
     1
1070
    44
1040
1.0
1070
    74
1070
     0
1000
MTEXTEND
  0
LINE
  5
8F
330
8A
100
AcDbEntity
  8
0
 62
   123
100
AcDbLine
 10
9417.506726322569
 20
-2129.250392255858
 30
0.0
 11
9500.245843296172
 21
-2066.240563479468
 31
0.0
  0
SOLID
  5
90
330
8A
100
AcDbEntity
  8
0
 62
   123
100
AcDbTrace
 10
9413.920543433992
 20
-2131.143468253838
 30
0.0
 11
9414.72836175164
 21
-2132.204226163756
 31
0.0
 12
9417.506726322569
 22
-2129.250392255858
 32
0.0
 13
9417.506726322569
 23
-2129.250392255858
 33
0.0
  0
SOLID
  5
91
330
8A
100
AcDbEntity
  8
0
 62
   123
100
AcDbTrace
 10
9503.024207867104
 20
-2063.286729571571
 30
0.0
 11
9503.832026184749
 21
-2064.347487481489
 31
0.0
 12
9500.245843296172
 22
-2066.240563479468
 32
0.0
 13
9500.245843296172
 23
-2066.240563479468
 33
0.0
  0
POINT
  5
92
330
8A
100
AcDbEntity
  8
Defpoints
 62
     0
100
AcDbPoint
 10
9500.245843296172
 20
-2066.240563479468
 30
0.0
  0
POINT
  5
93
330
8A
100
AcDbEntity
  8
Defpoints
 62
     0
100
AcDbPoint
 10
9417.506726322569
 20
-2129.250392255858
 30
0.0
  0
ENDBLK
  5
94
330
8A
100
AcDbEntity
  8
0
100
AcDbBlockEnd
  0
BLOCK
  5
CD
330
CC
100
AcDbEntity
  8
0
100
AcDbBlockBegin
  2
*D3
 70
     1
 10
0.0
 20
0.0
 30
0.0
  3
*D3
  1

  0
LINE
  5
CE
330
CC
100
AcDbEntity
  8
0
 62
   123
370
    -2
100
AcDbLine
 10
9809.633217006584
 20
-2051.565664578694
 30
0.0
 11
9831.119677843133
 21
-2051.565664578694
 31
0.0
  0
LINE
  5
CF
330
CC
100
AcDbEntity
  8
0
 62
   123
370
    -2
100
AcDbLine
 10
9809.633217006584
 20
-2143.565664578698
 30
0.0
 11
9831.119677843133
 21
-2143.565664578698
 31
0.0
  0
LINE
  5
D0
330
CC
100
AcDbEntity
  8
0
 62
   123
370
    -2
100
AcDbLine
 10
9830.519677843133
 20
-2055.565664578694
 30
0.0
 11
9830.519677843133
 21
-2139.565664578698
 31
0.0
  0
SOLID
  5
D1
330
CC
100
AcDbEntity
  8
0
 62
   123
100
AcDbTrace
 10
9829.853011176469
 20
-2055.565664578694
 30
0.0
 11
9831.186344509802
 21
-2055.565664578694
 31
0.0
 12
9830.519677843133
 22
-2051.565664578694
 32
0.0
 13
9830.519677843133
 23
-2051.565664578694
 33
0.0
  0
SOLID
  5
D2
330
CC
100
AcDbEntity
  8
0
 62
   123
100
AcDbTrace
 10
9829.853011176469
 20
-2139.565664578698
 30
0.0
 11
9831.186344509802
 21
-2139.565664578698
 31
0.0
 12
9830.519677843133
 22
-2143.565664578698
 32
0.0
 13
9830.519677843133
 23
-2143.565664578698
 33
0.0
  0
MTEXT
  5
D3
330
CC
100
AcDbEntity
  8
0
 62
     3
100
AcDbMText
 10
9826.519677843133
 20
-2097.565664578694
 30
0.0
 40
5.0
 41
0.0
 71
     5
 72
     1
  1
\A1;92
 11
0.0000000000000001
 21
1.0
 31
0.0
 73
     1
 44
1.0
1001
ACAD
1000
MTEXTBEGIN
1070
    73
1070
     1
1070
    44
1040
1.0
1070
    74
1070
     0
1000
MTEXTEND
  0
POINT
  5
D4
330
CC
100
AcDbEntity
  8
Defpoints
 62
     0
100
AcDbPoint
 10
9808.633217006589
 20
-2051.565664578694
 30
0.0
  0
POINT
  5
D5
330
CC
100
AcDbEntity
  8
Defpoints
 62
     0
100
AcDbPoint
 10
9808.633217006589
 20
-2143.565664578698
 30
0.0
  0
POINT
  5
D6
330
CC
100
AcDbEntity
  8
Defpoints
 62
     0
100
AcDbPoint
 10
9830.519677843133
 20
-2143.565664578698
 30
0.0
  0
ENDBLK
  5
D7
330
CC
100
AcDbEntity
  8
0
100
AcDbBlockEnd
  0
BLOCK
  5
F4
330
F3
100
AcDbEntity
  8
0
100
AcDbBlockBegin
  2
*D4
 70
     1
 10
0.0
 20
0.0
 30
0.0
  3
*D4
  1

  0
LINE
  5
F5
330
F3
100
AcDbEntity
  8
0
 62
   123
370
    -2
100
AcDbLine
 10
9608.634294805938
 20
-2055.245477867661
 30
0.0
 11
9608.634294805938
 21
-2041.583614988338
 31
0.0
  0
LINE
  5
F6
330
F3
100
AcDbEntity
  8
0
 62
   123
370
    -2
100
AcDbLine
 10
9610.634294805938
 20
-2051.745477867661
 30
0.0
 11
9610.634294805938
 21
-2041.583614988338
 31
0.0
  0
LINE
  5
F7
330
F3
100
AcDbEntity
  8
0
 62
   123
370
    -2
100
AcDbLine
 10
9614.634294805938
 20
-2042.183614988338
 30
0.0
 11
9618.634294805938
 21
-2042.183614988338
 31
0.0
  0
LINE
  5
F8
330
F3
100
AcDbEntity
  8
0
 62
   123
370
    -2
100
AcDbLine
 10
9604.634294805938
 20
-2042.183614988338
 30
0.0
 11
9594.300961472603
 21
-2042.183614988338
 31
0.0
  0
LINE
  5
F9
330
F3
100
AcDbEntity
  8
0
 62
   123
370
    -2
100
AcDbLine
 10
9610.634294805938
 20
-2042.183614988338
 30
0.0
 11
9608.634294805938
 21
-2042.183614988338
 31
0.0
  0
SOLID
  5
FA
330
F3
100
AcDbEntity
  8
0
 62
   123
100
AcDbTrace
 10
9614.634294805938
 20
-2041.516948321671
 30
0.0
 11
9614.634294805938
 21
-2042.850281655004
 31
0.0
 12
9610.634294805938
 22
-2042.183614988338
 32
0.0
 13
9610.634294805938
 23
-2042.183614988338
 33
0.0
  0
SOLID
  5
FB
330
F3
100
AcDbEntity
  8
0
 62
   123
100
AcDbTrace
 10
9604.634294805938
 20
-2041.516948321671
 30
0.0
 11
9604.634294805938
 21
-2042.850281655004
 31
0.0
 12
9608.634294805938
 22
-2042.183614988338
 32
0.0
 13
9608.634294805938
 23
-2042.183614988338
 33
0.0
  0
MTEXT
  5
FC
330
F3
100
AcDbEntity
  8
0
 62
     3
100
AcDbMText
 10
9597.467628139273
 20
-2038.183614988338
 30
0.0
 40
5.0
 41
0.0
 71
     5
 72
     1
  1
\A1;2
 73
     1
 44
1.0
1001
ACAD
1000
MTEXTBEGIN
1070
    73
1070
     1
1070
    44
1040
1.0
1070
    74
1070
     0
1000
MTEXTEND
  0
POINT
  5
FD
330
F3
100
AcDbEntity
  8
Defpoints
 62
     0
100
AcDbPoint
 10
9608.634294805938
 20
-2056.245477867661
 30
0.0
  0
POINT
  5
FE
330
F3
100
AcDbEntity
  8
Defpoints
 62
     0
100
AcDbPoint
 10
9610.634294805938
 20
-2052.745477867661
 30
0.0
  0
POINT
  5
FF
330
F3
100
AcDbEntity
  8
Defpoints
 62
     0
100
AcDbPoint
 10
9610.634294805938
 20
-2042.183614988338
 30
0.0
  0
ENDBLK
  5
100
330
F3
100
AcDbEntity
  8
0
100
AcDbBlockEnd
  0
BLOCK
  5
161
330
160
100
AcDbEntity
  8
0
100
AcDbBlockBegin
  2
*D5
 70
     1
 10
0.0
 20
0.0
 30
0.0
  3
*D5
  1

  0
LINE
  5
162
330
160
100
AcDbEntity
  8
0
 62
   123
370
    -2
100
AcDbLine
 10
9610.634294805938
 20
-2051.745477867661
 30
0.0
 11
9610.634294805938
 21
-2019.217817590774
 31
0.0
  0
LINE
  5
163
330
160
100
AcDbEntity
  8
0
 62
   123
370
    -2
100
AcDbLine
 10
9810.633217006586
 20
-2053.565664578694
 30
0.0
 11
9810.633217006586
 21
-2019.217817590774
 31
0.0
  0
LINE
  5
164
330
160
100
AcDbEntity
  8
0
 62
   123
370
    -2
100
AcDbLine
 10
9614.634294805938
 20
-2019.817817590773
 30
0.0
 11
9806.633217006584
 21
-2019.817817590773
 31
0.0
  0
SOLID
  5
165
330
160
100
AcDbEntity
  8
0
 62
   123
100
AcDbTrace
 10
9614.634294805938
 20
-2019.151150924107
 30
0.0
 11
9614.634294805938
 21
-2020.48448425744
 31
0.0
 12
9610.634294805938
 22
-2019.817817590773
 32
0.0
 13
9610.634294805938
 23
-2019.817817590773
 33
0.0
  0
SOLID
  5
166
330
160
100
AcDbEntity
  8
0
 62
   123
100
AcDbTrace
 10
9806.633217006584
 20
-2019.151150924107
 30
0.0
 11
9806.633217006584
 21
-2020.48448425744
 31
0.0
 12
9810.633217006586
 22
-2019.817817590773
 32
0.0
 13
9810.633217006586
 23
-2019.817817590773
 33
0.0
  0
MTEXT
  5
167
330
160
100
AcDbEntity
  8
0
 62
     3
100
AcDbMText
 10
9710.633755906259
 20
-2015.817817590773
 30
0.0
 40
5.0
 41
0.0
 71
     5
 72
     1
  1
\A1;200
 73
     1
 44
1.0
1001
ACAD
1000
MTEXTBEGIN
1070
    73
1070
     1
1070
    44
1040
1.0
1070
    74
1070
     0
1000
MTEXTEND
  0
POINT
  5
168
330
160
100
AcDbEntity
  8
Defpoints
 62
     0
100
AcDbPoint
 10
9610.634294805938
 20
-2052.745477867661
 30
0.0
  0
POINT
  5
169
330
160
100
AcDbEntity
  8
Defpoints
 62
     0
100
AcDbPoint
 10
9810.633217006586
 20
-2054.565664578694
 30
0.0
  0
POINT
  5
16A
330
160
100
AcDbEntity
  8
Defpoints
 62
     0
100
AcDbPoint
 10
9810.633217006586
 20
-2019.817817590773
 30
0.0
  0
ENDBLK
  5
16B
330
160
100
AcDbEntity
  8
0
100
AcDbBlockEnd
  0
BLOCK
  5
E5
330
E4
100
AcDbEntity
  8
0
100
AcDbBlockBegin
  2
*D6
 70
     1
 10
0.0
 20
0.0
 30
0.0
  3
*D6
  1

  0
LINE
  5
E6
330
E4
100
AcDbEntity
  8
0
 62
   123
370
    -2
100
AcDbLine
 10
9610.634294805938
 20
-2051.537144534329
 30
0.0
 11
9610.634294805938
 21
-2030.884492675917
 31
0.0
  0
LINE
  5
E7
330
E4
100
AcDbEntity
  8
0
 62
   123
370
    -2
100
AcDbLine
 10
9618.13429480594
 20
-2053.146740526131
 30
0.0
 11
9618.13429480594
 21
-2030.884492675917
 31
0.0
  0
LINE
  5
E8
330
E4
100
AcDbEntity
  8
0
 62
   123
370
    -2
100
AcDbLine
 10
9606.634294805935
 20
-2031.484492675917
 30
0.0
 11
9602.634294805936
 21
-2031.484492675917
 31
0.0
  0
LINE
  5
E9
330
E4
100
AcDbEntity
  8
0
 62
   123
370
    -2
100
AcDbLine
 10
9622.134294805938
 20
-2031.484492675917
 30
0.0
 11
9639.610485282128
 21
-2031.484492675917
 31
0.0
  0
LINE
  5
EA
330
E4
100
AcDbEntity
  8
0
 62
   123
370
    -2
100
AcDbLine
 10
9610.634294805938
 20
-2031.484492675917
 30
0.0
 11
9618.13429480594
 21
-2031.484492675917
 31
0.0
  0
SOLID
  5
EB
330
E4
100
AcDbEntity
  8
0
 62
   123
100
AcDbTrace
 10
9606.634294805935
 20
-2030.817826009251
 30
0.0
 11
9606.634294805935
 21
-2032.151159342584
 31
0.0
 12
9610.634294805938
 22
-2031.484492675917
 32
0.0
 13
9610.634294805938
 23
-2031.484492675917
 33
0.0
  0
SOLID
  5
EC
330
E4
100
AcDbEntity
  8
0
 62
   123
100
AcDbTrace
 10
9622.134294805938
 20
-2030.817826009251
 30
0.0
 11
9622.134294805938
 21
-2032.151159342584
 31
0.0
 12
9618.13429480594
 22
-2031.484492675917
 32
0.0
 13
9618.13429480594
 23
-2031.484492675917
 33
0.0
  0
MTEXT
  5
ED
330
E4
100
AcDbEntity
  8
0
 62
     3
100
AcDbMText
 10
9632.872390044033
 20
-2027.484492675917
 30
0.0
 40
5.0
 41
0.0
 71
     5
 72
     1
  1
\A1;7.5
 73
     1
 44
1.0
1001
ACAD
1000
MTEXTBEGIN
1070
    73
1070
     1
1070
    44
1040
1.0
1070
    74
1070
     0
1000
MTEXTEND
  0
POINT
  5
EE
330
E4
100
AcDbEntity
  8
Defpoints
 62
     0
100
AcDbPoint
 10
9610.634294805938
 20
-2052.537144534329
 30
0.0
  0
POINT
  5
EF
330
E4
100
AcDbEntity
  8
Defpoints
 62
     0
100
AcDbPoint
 10
9618.13429480594
 20
-2054.146740526131
 30
0.0
  0
POINT
  5
F0
330
E4
100
AcDbEntity
  8
Defpoints
 62
     0
100
AcDbPoint
 10
9618.13429480594
 20
-2031.484492675917
 30
0.0
  0
ENDBLK
  5
F1
330
E4
100
AcDbEntity
  8
0
100
AcDbBlockEnd
  0
BLOCK
  5
105
330
104
100
AcDbEntity
  8
0
100
AcDbBlockBegin
  2
*D7
 70
     1
 10
0.0
 20
0.0
 30
0.0
  3
*D7
  1

  0
LINE
  5
106
330
104
100
AcDbEntity
  8
0
 62
   123
370
    -2
100
AcDbLine
 10
9573.634294805938
 20
-2091.745477867661
 30
0.0
 11
9573.634294805938
 21
-2019.217817590774
 31
0.0
  0
LINE
  5
107
330
104
100
AcDbEntity
  8
0
 62
   123
370
    -2
100
AcDbLine
 10
9610.634294805938
 20
-2051.537144534329
 30
0.0
 11
9610.634294805938
 21
-2019.217817590774
 31
0.0
  0
LINE
  5
108
330
104
100
AcDbEntity
  8
0
 62
   123
370
    -2
100
AcDbLine
 10
9577.634294805935
 20
-2019.817817590773
 30
0.0
 11
9606.634294805935
 21
-2019.817817590773
 31
0.0
  0
SOLID
  5
109
330
104
100
AcDbEntity
  8
0
 62
   123
100
AcDbTrace
 10
9577.634294805935
 20
-2019.151150924107
 30
0.0
 11
9577.634294805935
 21
-2020.48448425744
 31
0.0
 12
9573.634294805938
 22
-2019.817817590773
 32
0.0
 13
9573.634294805938
 23
-2019.817817590773
 33
0.0
  0
SOLID
  5
10A
330
104
100
AcDbEntity
  8
0
 62
   123
100
AcDbTrace
 10
9606.634294805935
 20
-2019.151150924107
 30
0.0
 11
9606.634294805935
 21
-2020.48448425744
 31
0.0
 12
9610.634294805938
 22
-2019.817817590773
 32
0.0
 13
9610.634294805938
 23
-2019.817817590773
 33
0.0
  0
MTEXT
  5
10B
330
104
100
AcDbEntity
  8
0
 62
     3
100
AcDbMText
 10
9593.884294805937
 20
-2015.817817590773
 30
0.0
 40
5.0
 41
0.0
 71
     5
 72
     1
  1
\A1;37
 73
     1
 44
1.0
1001
ACAD
1000
MTEXTBEGIN
1070
    73
1070
     1
1070
    44
1040
1.0
1070
    74
1070
     0
1000
MTEXTEND
  0
POINT
  5
10C
330
104
100
AcDbEntity
  8
Defpoints
 62
     0
100
AcDbPoint
 10
9573.634294805938
 20
-2092.745477867661
 30
0.0
  0
POINT
  5
10D
330
104
100
AcDbEntity
  8
Defpoints
 62
     0
100
AcDbPoint
 10
9610.634294805938
 20
-2052.537144534329
 30
0.0
  0
POINT
  5
10E
330
104
100
AcDbEntity
  8
Defpoints
 62
     0
100
AcDbPoint
 10
9610.634294805938
 20
-2019.817817590773
 30
0.0
  0
ENDBLK
  5
10F
330
104
100
AcDbEntity
  8
0
100
AcDbBlockEnd
  0
BLOCK
  5
11C
330
11B
100
AcDbEntity
  8
0
100
AcDbBlockBegin
  2
*D8
 70
     1
 10
0.0
 20
0.0
 30
0.0
  3
*D8
  1

  0
LINE
  5
11D
330
11B
100
AcDbEntity
  8
0
 62
   123
370
    -2
100
AcDbLine
 10
9572.634294805935
 20
-2103.745477867661
 30
0.0
 11
9560.565813925228
 21
-2103.745477867661
 31
0.0
  0
LINE
  5
11E
330
11B
100
AcDbEntity
  8
0
 62
   123
370
    -2
100
AcDbLine
 10
9572.634294805935
 20
-2092.745477867661
 30
0.0
 11
9560.565813925228
 21
-2092.745477867661
 31
0.0
  0
LINE
  5
11F
330
11B
100
AcDbEntity
  8
0
 62
   123
370
    -2
100
AcDbLine
 10
9561.165813925226
 20
-2099.745477867661
 30
0.0
 11
9561.165813925226
 21
-2096.745477867661
 31
0.0
  0
SOLID
  5
120
330
11B
100
AcDbEntity
  8
0
 62
   123
100
AcDbTrace
 10
9560.499147258559
 20
-2099.745477867661
 30
0.0
 11
9561.832480591894
 21
-2099.745477867661
 31
0.0
 12
9561.165813925226
 22
-2103.745477867661
 32
0.0
 13
9561.165813925226
 23
-2103.745477867661
 33
0.0
  0
SOLID
  5
121
330
11B
100
AcDbEntity
  8
0
 62
   123
100
AcDbTrace
 10
9560.499147258559
 20
-2096.745477867661
 30
0.0
 11
9561.832480591894
 21
-2096.745477867661
 31
0.0
 12
9561.165813925226
 22
-2092.745477867661
 32
0.0
 13
9561.165813925226
 23
-2092.745477867661
 33
0.0
  0
MTEXT
  5
122
330
11B
100
AcDbEntity
  8
0
 62
     3
100
AcDbMText
 10
9557.165813925228
 20
-2098.24547786766
 30
0.0
 40
5.0
 41
0.0
 71
     5
 72
     1
  1
\A1;11
 11
0.0000000000000001
 21
1.0
 31
0.0
 73
     1
 44
1.0
1001
ACAD
1000
MTEXTBEGIN
1070
    73
1070
     1
1070
    44
1040
1.0
1070
    74
1070
     0
1000
MTEXTEND
  0
POINT
  5
123
330
11B
100
AcDbEntity
  8
Defpoints
 62
     0
100
AcDbPoint
 10
9573.634294805938
 20
-2103.745477867661
 30
0.0
  0
POINT
  5
124
330
11B
100
AcDbEntity
  8
Defpoints
 62
     0
100
AcDbPoint
 10
9573.634294805938
 20
-2092.745477867661
 30
0.0
  0
POINT
  5
125
330
11B
100
AcDbEntity
  8
Defpoints
 62
     0
100
AcDbPoint
 10
9561.165813925226
 20
-2092.745477867661
 30
0.0
  0
ENDBLK
  5
126
330
11B
100
AcDbEntity
  8
0
100
AcDbBlockEnd
  0
BLOCK
  5
12C
330
12B
100
AcDbEntity
  8
0
100
AcDbBlockBegin
  2
*D9
 70
     1
 10
0.0
 20
0.0
 30
0.0
  3
*D9
  1

  0
LINE
  5
12D
330
12B
100
AcDbEntity
  8
0
 62
   123
370
    -2
100
AcDbLine
 10
9573.634294805938
 20
-2091.745477867661
 30
0.0
 11
9573.634294805938
 21
-2071.512653826353
 31
0.0
  0
LINE
  5
12E
330
12B
100
AcDbEntity
  8
0
 62
   123
370
    -2
100
AcDbLine
 10
9603.634294805935
 20
-2090.745477867661
 30
0.0
 11
9603.634294805935
 21
-2071.512653826353
 31
0.0
  0
LINE
  5
12F
330
12B
100
AcDbEntity
  8
0
 62
   123
370
    -2
100
AcDbLine
 10
9577.634294805935
 20
-2072.112653826353
 30
0.0
 11
9599.634294805936
 21
-2072.112653826353
 31
0.0
  0
SOLID
  5
130
330
12B
100
AcDbEntity
  8
0
 62
   123
100
AcDbTrace
 10
9577.634294805935
 20
-2071.445987159686
 30
0.0
 11
9577.634294805935
 21
-2072.779320493019
 31
0.0
 12
9573.634294805938
 22
-2072.112653826353
 32
0.0
 13
9573.634294805938
 23
-2072.112653826353
 33
0.0
  0
SOLID
  5
131
330
12B
100
AcDbEntity
  8
0
 62
   123
100
AcDbTrace
 10
9599.634294805936
 20
-2071.445987159686
 30
0.0
 11
9599.634294805936
 21
-2072.779320493019
 31
0.0
 12
9603.634294805935
 22
-2072.112653826353
 32
0.0
 13
9603.634294805935
 23
-2072.112653826353
 33
0.0
  0
MTEXT
  5
132
330
12B
100
AcDbEntity
  8
0
 62
     3
100
AcDbMText
 10
9589.892979170436
 20
-2068.112653826352
 30
0.0
 40
5.0
 41
0.0
 71
     5
 72
     1
  1
\A1;30
 73
     1
 44
1.0
1001
ACAD
1000
MTEXTBEGIN
1070
    73
1070
     1
1070
    44
1040
1.0
1070
    74
1070
     0
1000
MTEXTEND
  0
POINT
  5
133
330
12B
100
AcDbEntity
  8
Defpoints
 62
     0
100
AcDbPoint
 10
9573.634294805938
 20
-2092.745477867661
 30
0.0
  0
POINT
  5
134
330
12B
100
AcDbEntity
  8
Defpoints
 62
     0
100
AcDbPoint
 10
9603.634294805935
 20
-2091.745477867661
 30
0.0
  0
POINT
  5
135
330
12B
100
AcDbEntity
  8
Defpoints
 62
     0
100
AcDbPoint
 10
9603.634294805935
 20
-2072.112653826353
 30
0.0
  0
ENDBLK
  5
136
330
12B
100
AcDbEntity
  8
0
100
AcDbBlockEnd
  0
BLOCK
  5
142
330
141
100
AcDbEntity
  8
0
100
AcDbBlockBegin
  2
*D10
 70
     1
 10
0.0
 20
0.0
 30
0.0
  3
*D10
  1

  0
LINE
  5
143
330
141
100
AcDbEntity
  8
0
 62
   123
370
    -2
100
AcDbLine
 10
9572.634294805935
 20
-2103.745477867661
 30
0.0
 11
9548.869685269643
 21
-2103.745477867661
 31
0.0
  0
LINE
  5
144
330
141
100
AcDbEntity
  8
0
 62
   123
370
    -2
100
AcDbLine
 10
9602.634294805936
 20
-2091.745477867661
 30
0.0
 11
9548.869685269643
 21
-2091.745477867661
 31
0.0
  0
LINE
  5
145
330
141
100
AcDbEntity
  8
0
 62
   123
370
    -2
100
AcDbLine
 10
9549.469685269643
 20
-2099.745477867661
 30
0.0
 11
9549.469685269643
 21
-2095.745477867661
 31
0.0
  0
SOLID
  5
146
330
141
100
AcDbEntity
  8
0
 62
   123
100
AcDbTrace
 10
9548.803018602979
 20
-2099.745477867661
 30
0.0
 11
9550.136351936314
 21
-2099.745477867661
 31
0.0
 12
9549.469685269643
 22
-2103.745477867661
 32
0.0
 13
9549.469685269643
 23
-2103.745477867661
 33
0.0
  0
SOLID
  5
147
330
141
100
AcDbEntity
  8
0
 62
   123
100
AcDbTrace
 10
9548.803018602979
 20
-2095.745477867661
 30
0.0
 11
9550.136351936314
 21
-2095.745477867661
 31
0.0
 12
9549.469685269643
 22
-2091.745477867661
 32
0.0
 13
9549.469685269643
 23
-2091.745477867661
 33
0.0
  0
MTEXT
  5
148
330
141
100
AcDbEntity
  8
0
 62
     3
100
AcDbMText
 10
9543.052768602978
 20
-2097.745477867659
 30
0.0
 40
5.0
 41
0.0
 71
     5
 72
     1
  1
\A1;\A1;{\f??|b0|i0|c0|p49;%%C}12{\f??|b0|i0|c0|p49;\H0.7x;\S+0^ -0.018;\H1.429x;(h}7{\f??|b0|i0|c0|p49;)}
 11
0.0000000000000001
 21
1.0
 31
0.0
 73
     1
 44
1.0
1001
ACAD
1000
MTEXTBEGIN
1070
    73
1070
     1
1070
    44
1040
1.0
1070
    74
1070
     0
1000
MTEXTEND
  0
POINT
  5
149
330
141
100
AcDbEntity
  8
Defpoints
 62
     0
100
AcDbPoint
 10
9573.634294805938
 20
-2103.745477867661
 30
0.0
  0
POINT
  5
14A
330
141
100
AcDbEntity
  8
Defpoints
 62
     0
100
AcDbPoint
 10
9603.634294805935
 20
-2091.745477867661
 30
0.0
  0
POINT
  5
14B
330
141
100
AcDbEntity
  8
Defpoints
 62
     0
100
AcDbPoint
 10
9549.469685269643
 20
-2091.745477867661
 30
0.0
  0
ENDBLK
  5
14C
330
141
100
AcDbEntity
  8
0
100
AcDbBlockEnd
  0
BLOCK
  5
151
330
150
100
AcDbEntity
  8
0
100
AcDbBlockBegin
  2
*D11
 70
     1
 10
0.0
 20
0.0
 30
0.0
  3
*D11
  1

  0
LINE
  5
152
330
150
100
AcDbEntity
  8
0
 62
   123
370
    -2
100
AcDbLine
 10
9607.634294805938
 20
-2056.245477867661
 30
0.0
 11
9532.969329340129
 21
-2056.245477867661
 31
0.0
  0
LINE
  5
153
330
150
100
AcDbEntity
  8
0
 62
   123
370
    -2
100
AcDbLine
 10
9607.634294805938
 20
-2139.245477867661
 30
0.0
 11
9532.969329340129
 21
-2139.245477867661
 31
0.0
  0
LINE
  5
154
330
150
100
AcDbEntity
  8
0
 62
   123
370
    -2
100
AcDbLine
 10
9533.56932934013
 20
-2060.245477867661
 30
0.0
 11
9533.56932934013
 21
-2135.245477867661
 31
0.0
  0
SOLID
  5
155
330
150
100
AcDbEntity
  8
0
 62
   123
100
AcDbTrace
 10
9532.902662673462
 20
-2060.245477867661
 30
0.0
 11
9534.235996006795
 21
-2060.245477867661
 31
0.0
 12
9533.56932934013
 22
-2056.245477867661
 32
0.0
 13
9533.56932934013
 23
-2056.245477867661
 33
0.0
  0
SOLID
  5
156
330
150
100
AcDbEntity
  8
0
 62
   123
100
AcDbTrace
 10
9532.902662673462
 20
-2135.245477867661
 30
0.0
 11
9534.235996006795
 21
-2135.245477867661
 31
0.0
 12
9533.56932934013
 22
-2139.245477867661
 32
0.0
 13
9533.56932934013
 23
-2139.245477867661
 33
0.0
  0
MTEXT
  5
157
330
150
100
AcDbEntity
  8
0
 62
     3
100
AcDbMText
 10
9527.152412673462
 20
-2096.380521234911
 30
0.0
 40
5.0
 41
0.0
 71
     5
 72
     1
  1
\A1;\A1;{\f??|b0|i0|c0|p49;%%C}83{\f??|b0|i0|c0|p49;\H0.7x;\S+0^ -0.035;\H1.429x;(h}7{\f??|b0|i0|c0|p49;)}
 11
0.0000000000000001
 21
1.0
 31
0.0
 73
     1
 44
1.0
1001
ACAD
1000
MTEXTBEGIN
1070
    73
1070
     1
1070
    44
1040
1.0
1070
    74
1070
     0
1000
MTEXTEND
  0
POINT
  5
158
330
150
100
AcDbEntity
  8
Defpoints
 62
     0
100
AcDbPoint
 10
9608.634294805938
 20
-2056.245477867661
 30
0.0
  0
POINT
  5
159
330
150
100
AcDbEntity
  8
Defpoints
 62
     0
100
AcDbPoint
 10
9608.634294805938
 20
-2139.245477867661
 30
0.0
  0
POINT
  5
15A
330
150
100
AcDbEntity
  8
Defpoints
 62
     0
100
AcDbPoint
 10
9533.56932934013
 20
-2139.245477867661
 30
0.0
  0
ENDBLK
  5
15B
330
150
100
AcDbEntity
  8
0
100
AcDbBlockEnd
  0
ENDSEC
  0
SECTION
  2
ENTITIES
  0
MTEXT
  5
64
102
{ACAD_REACTORS
330
B3
102
}
330
2
100
AcDbEntity
  8
0
 62
     3
100
AcDbMText
 10
9481.778254464922
 20
-2030.130692253456
 30
0.0
 40
5.0
 41
0.0
 71
     9
 72
     1
  1
4-%%C6.5 hole
 73
     1
 44
1.0
1001
ACAD
1000
MTEXTBEGIN
1070
    73
1070
     1
1070
    44
1040
1.0
1070
    74
1070
     0
1000
MTEXTEND
  0
DIMENSION
  5
65
330
2
100
AcDbEntity
  8
0
 48
0.6
100
AcDbDimension
  2
*D0
 10
9458.870067138482
 20
-2044.136729983299
 30
0.0
 11
9471.467399221713
 21
-2161.060406507437
 31
0.0
 70
     2
  1
<>
 71
     5
 42
-1.0
  3
STANDARD
100
AcDb2LineAngularDimension
 13
9458.870067138482
 23
-2097.766874747052
 33
0.0
 14
9477.515895116161
 24
-2142.766874747044
 34
0.0
 15
9458.876284809374
 25
-2149.514911913647
 35
0.0
 16
9467.885319474012
 26
-2166.18653735383
 36
0.0
1001
ACAD
1000
DSTYLE
1002
{
1070
   271
1070
     1
1070
   271
1070
     1
1070
   271
1070
     1
1070
   271
1070
     1
1070
   271
1070
     1
1070
   271
1070
     1
1070
   271
1070
     1
1002
}
  0
ARC
  5
75
330
2
100
AcDbEntity
  8
0
 48
0.6
100
AcDbCircle
 10
9458.800820495191
 20
-2097.745477867661
 30
0.0
 40
36.81561599999999
100
AcDbArc
 50
26.36567250326933
 51
63.63432749679486
  0
LINE
  5
76
330
2
100
AcDbEntity
  8
0
  6
CENTER
 62
     1
 48
0.6
100
AcDbLine
 10
9458.876284809374
 20
-2149.514911913647
 30
0.0
 11
9458.876284809374
 21
-2045.976043821676
 31
0.0
  0
ARC
  5
78
330
2
100
AcDbEntity
  8
0
 48
0.6
100
AcDbCircle
 10
9458.800820495191
 20
-2097.745477867661
 30
0.0
 40
36.81561599999999
100
AcDbArc
 50
116.3656725032051
 51
153.6343274967306
  0
CIRCLE
  5
79
330
2
100
AcDbEntity
  8
0
 48
0.6
100
AcDbCircle
 10
9458.876284809374
 20
-2097.745477867661
 30
0.0
 40
20.0
  0
CIRCLE
  5
7A
330
2
100
AcDbEntity
  8
0
 48
0.6
100
AcDbCircle
 10
9458.876284809374
 20
-2097.745477867661
 30
0.0
 40
43.5
  0
CIRCLE
  5
7B
330
2
100
AcDbEntity
  8
0
 48
0.6
100
AcDbCircle
 10
9458.876284809374
 20
-2097.745477867661
 30
0.0
 40
42.00000000000005
  0
LINE
  5
7C
330
2
100
AcDbEntity
  8
0
100
AcDbLine
 10
9418.876284809376
 20
-2142.745477867661
 30
0.0
 11
9498.876284809375
 21
-2142.745477867661
 31
0.0
  0
ARC
  5
7D
330
2
100
AcDbEntity
  8
0
100
AcDbCircle
 10
9498.876284809375
 20
-2137.745477867661
 30
0.0
 40
5.0
100
AcDbArc
 50
270.0
 51
0.0
  0
LINE
  5
7E
330
2
100
AcDbEntity
  8
0
100
AcDbLine
 10
9503.876284809374
 20
-2137.745477867661
 30
0.0
 11
9503.876284809374
 21
-2057.745477867661
 31
0.0
  0
ARC
  5
7F
330
2
100
AcDbEntity
  8
0
100
AcDbCircle
 10
9498.876284809375
 20
-2057.745477867661
 30
0.0
 40
5.0
100
AcDbArc
 50
0.0
 51
90.0
  0
LINE
  5
80
330
2
100
AcDbEntity
  8
0
100
AcDbLine
 10
9498.876284809375
 20
-2052.745477867661
 30
0.0
 11
9418.876284809376
 21
-2052.745477867661
 31
0.0
  0
ARC
  5
81
330
2
100
AcDbEntity
  8
0
100
AcDbCircle
 10
9418.876284809376
 20
-2057.745477867661
 30
0.0
 40
5.0
100
AcDbArc
 50
90.0
 51
180.0
  0
LINE
  5
82
330
2
100
AcDbEntity
  8
0
100
AcDbLine
 10
9413.876284809374
 20
-2057.745477867661
 30
0.0
 11
9413.876284809374
 21
-2137.745477867661
 31
0.0
  0
ARC
  5
83
330
2
100
AcDbEntity
  8
0
100
AcDbCircle
 10
9418.876284809376
 20
-2137.745477867661
 30
0.0
 40
5.0
100
AcDbArc
 50
180.0
 51
270.0
  0
CIRCLE
  5
84
330
2
100
AcDbEntity
  8
0
100
AcDbCircle
 10
9495.645837431071
 20
-2060.975925245962
 30
0.0
 40
3.25
  0
LINE
  5
85
330
2
100
AcDbEntity
  8
0
  6
CENTER
 62
     1
 48
0.6
100
AcDbLine
 10
9491.933526829845
 20
-2064.688235847191
 30
0.0
 11
9499.358148032303
 21
-2057.263614644732
 31
0.0
  0
ARC
  5
86
102
{ACAD_REACTORS
330
89
102
}
330
2
100
AcDbEntity
  8
0
  6
CENTER
 62
     1
 48
0.6
100
AcDbCircle
 10
9458.876284809374
 20
-2097.745477867661
 30
0.0
 40
51.9999999999996
100
AcDbArc
 50
35.90024337538924
 51
54.09975662468745
  0
DIMENSION
  5
87
102
{ACAD_XDICTIONARY
360
88
102
}
102
{ACAD_REACTORS
330
89
102
}
330
2
100
AcDbEntity
  8
0
100
AcDbDimension
  2
*D2
 10
9417.506726322569
 20
-2129.250392255858
 30
0.0
 11
9524.484017375048
 21
-2047.782024708147
 31
0.0
 70
   131
  1
<>%%P0.5
 71
     5
 42
-1.0
  3
STANDARD
100
AcDbDiametricDimension
 15
9500.245843296172
 25
-2066.240563479468
 35
0.0
 40
0.0
1001
ACAD
1000
DSTYLE
1002
{
1070
   287
1070
     4
1070
   287
1070
     4
1070
   287
1070
     4
1070
   287
1070
     4
1070
   287
1070
     4
1070
   287
1070
     4
1070
   279
1070
     1
1070
   289
1070
     3
1002
}
  0
ARC
  5
95
330
2
100
AcDbEntity
  8
0
  6
CENTER
 62
     1
 48
0.6
100
AcDbCircle
 10
9458.876284809374
 20
-2097.745477867661
 30
0.0
 40
52.0
100
AcDbArc
 50
129.2128702779744
 51
140.7871297219251
  0
LINE
  5
96
330
2
100
AcDbEntity
  8
0
  6
CENTER
 62
     1
 48
0.6
100
AcDbLine
 10
9425.819042788905
 20
-2064.688235847191
 30
0.0
 11
9418.394421586446
 21
-2057.263614644732
 31
0.0
  0
CIRCLE
  5
97
330
2
100
AcDbEntity
  8
0
100
AcDbCircle
 10
9422.106732187677
 20
-2060.975925245962
 30
0.0
 40
3.25
  0
LINE
  5
98
330
2
100
AcDbEntity
  8
0
  6
CENTER
 62
     1
 48
0.6
100
AcDbLine
 10
9425.819042788905
 20
-2130.802719888131
 30
0.0
 11
9418.394421586446
 21
-2138.22734109059
 31
0.0
  0
CIRCLE
  5
99
330
2
100
AcDbEntity
  8
0
100
AcDbCircle
 10
9422.106732187677
 20
-2134.51503048936
 30
0.0
 40
3.25
  0
ARC
  5
9A
330
2
100
AcDbEntity
  8
0
  6
CENTER
 62
     1
 48
0.6
100
AcDbCircle
 10
9458.876284809374
 20
-2097.745477867661
 30
0.0
 40
51.9999999999996
100
AcDbArc
 50
215.9002433753892
 51
234.0997566246874
  0
ARC
  5
9B
330
2
100
AcDbEntity
  8
0
  6
CENTER
 62
     1
 48
0.6
100
AcDbCircle
 10
9458.876284809374
 20
-2097.745477867661
 30
0.0
 40
52.0
100
AcDbArc
 50
309.2128702779743
 51
320.7871297219251
  0
LINE
  5
9C
330
2
100
AcDbEntity
  8
0
  6
CENTER
 62
     1
 48
0.6
100
AcDbLine
 10
9491.933526829845
 20
-2130.802719888131
 30
0.0
 11
9499.358148032303
 21
-2138.22734109059
 31
0.0
  0
CIRCLE
  5
9D
330
2
100
AcDbEntity
  8
0
100
AcDbCircle
 10
9495.645837431071
 20
-2134.51503048936
 30
0.0
 40
3.25
  0
ARC
  5
9E
330
2
100
AcDbEntity
  8
0
 48
0.6
100
AcDbCircle
 10
9458.800820495191
 20
-2097.745477867661
 30
0.0
 40
33.74764799999999
100
AcDbArc
 50
342.2801918475104
 51
17.71980815248924
  0
ARC
  5
9F
330
2
100
AcDbEntity
  8
0
 48
0.6
100
AcDbCircle
 10
9473.788098783296
 20
-2127.982627783727
 30
0.0
 40
3.067967999999998
100
AcDbArc
 50
231.9486744806317
 51
296.3656725032052
  0
ARC
  5
A0
330
2
100
AcDbEntity
  8
0
 48
0.6
100
AcDbCircle
 10
9470.006109535255
 20
-2132.814425370946
 30
0.0
 40
3.067967999999998
100
AcDbArc
 50
51.94867448063167
 51
107.7198081527503
  0
ARC
  5
A1
330
2
100
AcDbEntity
  8
0
 48
0.6
100
AcDbCircle
 10
9489.037970411262
 20
-2112.73275615576
 30
0.0
 40
3.067967999999998
100
AcDbArc
 50
333.6343274967307
 51
38.05132551945803
  0
ARC
  5
A2
330
2
100
AcDbEntity
  8
0
 48
0.6
100
AcDbCircle
 10
9458.800820495191
 20
-2097.745477867661
 30
0.0
 40
36.81561599999999
100
AcDbArc
 50
296.3656725032052
 51
333.6343274967307
  0
ARC
  5
A3
330
2
100
AcDbEntity
  8
0
 48
0.6
100
AcDbCircle
 10
9493.86976799848
 20
-2108.950766907728
 30
0.0
 40
3.067967999999998
100
AcDbArc
 50
162.2801918475107
 51
218.0513255194577
  0
ARC
  5
A4
330
2
100
AcDbEntity
  8
0
 48
0.6
100
AcDbCircle
 10
9489.037970411262
 20
-2082.758199579562
 30
0.0
 40
3.067967999999998
100
AcDbArc
 50
321.9486744805418
 51
26.36567250326933
  0
ARC
  5
A5
330
2
100
AcDbEntity
  8
0
 48
0.6
100
AcDbCircle
 10
9493.86976799848
 20
-2086.540188827595
 30
0.0
 40
3.067967999999998
100
AcDbArc
 50
141.9486744805419
 51
197.7198081524892
  0
ARC
  5
A6
330
2
100
AcDbEntity
  8
0
 48
0.6
100
AcDbCircle
 10
9458.800820495191
 20
-2097.745477867661
 30
0.0
 40
33.74764799999999
100
AcDbArc
 50
162.2801918475107
 51
197.7198081524892
  0
ARC
  5
A7
330
2
100
AcDbEntity
  8
0
 48
0.6
100
AcDbCircle
 10
9428.563670579125
 20
-2112.73275615576
 30
0.0
 40
3.067967999999998
100
AcDbArc
 50
141.9486744805419
 51
206.3656725032693
  0
ARC
  5
A8
330
2
100
AcDbEntity
  8
0
 48
0.6
100
AcDbCircle
 10
9443.813542207092
 20
-2127.982627783727
 30
0.0
 40
3.067967999999998
100
AcDbArc
 50
243.6343274967948
 51
308.0513255193683
  0
ARC
  5
A9
330
2
100
AcDbEntity
  8
0
 48
0.6
100
AcDbCircle
 10
9458.800820495191
 20
-2097.745477867661
 30
0.0
 40
36.81561599999999
100
AcDbArc
 50
206.3656725032693
 51
243.6343274967948
  0
ARC
  5
AA
330
2
100
AcDbEntity
  8
0
 48
0.6
100
AcDbCircle
 10
9447.59553145513
 20
-2132.814425370946
 30
0.0
 40
3.067967999999998
100
AcDbArc
 50
72.28019184724963
 51
128.0513255193683
  0
ARC
  5
AB
330
2
100
AcDbEntity
  8
0
 48
0.6
100
AcDbCircle
 10
9423.731872991908
 20
-2108.950766907728
 30
0.0
 40
3.067967999999998
100
AcDbArc
 50
321.9486744805418
 51
17.71980815248924
  0
ARC
  5
AC
330
2
100
AcDbEntity
  8
0
 48
0.6
100
AcDbCircle
 10
9428.563670579125
 20
-2082.758199579562
 30
0.0
 40
3.067967999999998
100
AcDbArc
 50
153.6343274967306
 51
218.0513255194577
  0
ARC
  5
AD
330
2
100
AcDbEntity
  8
0
 48
0.6
100
AcDbCircle
 10
9423.731872991908
 20
-2086.540188827595
 30
0.0
 40
3.067967999999998
100
AcDbArc
 50
342.2801918475104
 51
38.05132551945803
  0
LINE
  5
AE
330
2
100
AcDbEntity
  8
0
 48
0.6
100
AcDbLine
 10
9455.559660019018
 20
-2092.745477867661
 30
0.0
 11
9462.192909599732
 21
-2092.745477867661
 31
0.0
  0
CIRCLE
  5
AF
330
2
100
AcDbEntity
  8
0
 48
0.6
100
AcDbCircle
 10
9458.876284809374
 20
-2097.745477867661
 30
0.0
 40
6.0
  0
LINE
  5
B0
330
2
100
AcDbEntity
  8
0
  6
CENTER
 62
     1
 48
0.6
100
AcDbLine
 10
9477.515895116161
 20
-2142.745477867647
 30
0.0
 11
9458.87628480937
 21
-2097.745477867654
 31
0.0
  0
ARC
  5
B1
330
2
100
AcDbEntity
  8
0
 48
0.6
100
AcDbCircle
 10
9458.800820495191
 20
-2097.745477867661
 30
0.0
 40
33.74764799999999
100
AcDbArc
 50
252.2801918472496
 51
287.7198081527502
  0
LINE
  5
B2
330
2
100
AcDbEntity
  8
0
  6
CENTER
 62
     1
 48
0.6
100
AcDbLine
 10
9409.623008594975
 20
-2097.745477867661
 30
0.0
 11
9508.129561023769
 21
-2097.745477867661
 31
0.0
  0
LEADER
  5
B3
330
2
100
AcDbEntity
  8
0
100
AcDbLeader
  3
STANDARD
 76
     2
 10
9495.670478005804
 20
-2057.826303414854
 30
0.0
 10
9482.778254464923
 20
-2031.630226070628
 30
0.0
1001
ACAD
1000
DSTYLE
1002
{
1070
     5
1000

1002
}
  0
ARC
  5
B4
330
2
100
AcDbEntity
  8
0
 48
0.6
100
AcDbCircle
 10
9473.788098783296
 20
-2067.508327951589
 30
0.0
 40
3.067967999999998
100
AcDbArc
 50
63.63432749679486
 51
128.0513255193683
  0
ARC
  5
B5
330
2
100
AcDbEntity
  8
0
 48
0.6
100
AcDbCircle
 10
9470.006109535255
 20
-2062.676530364376
 30
0.0
 40
3.067967999999998
100
AcDbArc
 50
252.2801918472496
 51
308.0513255193683
  0
LINE
  5
B6
330
2
100
AcDbEntity
  8
0
 62
     3
100
AcDbLine
 10
9448.684323617845
 20
-2016.000418109745
 30
0.0
 11
9452.314323617844
 21
-2016.000418109745
 31
0.0
  0
LINE
  5
B7
330
2
100
AcDbEntity
  8
0
 62
     3
100
AcDbLine
 10
9452.314323617844
 20
-2016.000418109745
 30
0.0
 11
9452.314323617844
 21
-2012.150418109746
 31
0.0
  0
LINE
  5
B8
330
2
100
AcDbEntity
  8
0
 62
     3
100
AcDbLine
 10
9452.314323617844
 20
-2012.150418109746
 30
0.0
 11
9448.684323617845
 21
-2012.150418109746
 31
0.0
  0
LINE
  5
B9
330
2
100
AcDbEntity
  8
0
 62
     3
100
AcDbLine
 10
9448.684323617845
 20
-2012.150418109746
 30
0.0
 11
9448.684323617845
 21
-2016.000418109745
 31
0.0
  0
ARC
  5
BA
330
2
100
AcDbEntity
  8
0
 48
0.6
100
AcDbCircle
 10
9443.813542207092
 20
-2067.508327951589
 30
0.0
 40
3.067967999999998
100
AcDbArc
 50
51.94867448063167
 51
116.3656725032051
  0
ARC
  5
BB
330
2
100
AcDbEntity
  8
0
 48
0.6
100
AcDbCircle
 10
9447.59553145513
 20
-2062.676530364376
 30
0.0
 40
3.067967999999998
100
AcDbArc
 50
231.9486744806317
 51
287.7198081527502
  0
ARC
  5
BC
330
2
100
AcDbEntity
  8
0
 48
0.6
100
AcDbCircle
 10
9458.800820495191
 20
-2097.745477867661
 30
0.0
 40
33.74764799999999
100
AcDbArc
 50
72.28019184724963
 51
107.7198081527503
  0
DIMENSION
  5
BD
330
2
100
AcDbEntity
  8
0
100
AcDbDimension
  2
*D1
 10
9503.876284809374
 20
-2017.714433438595
 30
0.0
 11
9458.876284809374
 21
-2017.714433438595
 31
0.0
 70
   128
 71
     5
 42
-1.0
  3
STANDARD
100
AcDbAlignedDimension
 13
9413.876284809374
 23
-2057.788271626457
 33
0.0
 14
9503.876284809374
 24
-2057.788271626457
 34
0.0
100
AcDbRotatedDimension
  0
LINE
  5
CA
330
2
100
AcDbEntity
  8
0
 62
   123
100
AcDbLine
 10
9482.778254464923
 20
-2031.630226070628
 30
0.0
 11
9434.910800382381
 21
-2031.630226070628
 31
0.0
  0
DIMENSION
  5
CB
330
2
100
AcDbEntity
  8
0
100
AcDbDimension
  2
*D3
 10
9830.519677843133
 20
-2143.565664578698
 30
0.0
 11
9830.519677843133
 21
-2097.565664578694
 31
0.0
 70
   128
 71
     5
 42
-1.0
  3
STANDARD
100
AcDbAlignedDimension
 13
9808.633217006589
 23
-2051.565664578694
 33
0.0
 14
9808.633217006589
 24
-2143.565664578698
 34
0.0
 50
90.0
100
AcDbRotatedDimension
  0
LINE
  5
D8
330
2
100
AcDbEntity
  8
0
  6
CENTER
 62
     1
100
AcDbLine
 10
9818.51357269833
 20
-2097.745477867661
 30
0.0
 11
9565.784298256604
 21
-2097.745477867661
 31
0.0
  0
LINE
  5
D9
330
2
100
AcDbEntity
  8
0
100
AcDbLine
 10
9751.974329513629
 20
-2074.295535626693
 30
0.0
 11
9810.633217006586
 21
-2074.295535626693
 31
0.0
  0
LINE
  5
DA
330
2
100
AcDbEntity
  8
0
100
AcDbLine
 10
9807.633217006586
 20
-2051.565664578694
 30
0.0
 11
9751.974329513629
 21
-2051.565664578697
 31
0.0
  0
ARC
  5
DB
330
2
100
AcDbEntity
  8
0
100
AcDbCircle
 10
9807.633217006586
 20
-2054.565664578694
 30
0.0
 40
3.0
100
AcDbArc
 50
0.0
 51
90.0
  0
LINE
  5
DC
330
2
100
AcDbEntity
  8
0
100
AcDbLine
 10
9807.633217006586
 20
-2143.565664578698
 30
0.0
 11
9751.974329513629
 21
-2143.565664578698
 31
0.0
  0
ARC
  5
DD
330
2
100
AcDbEntity
  8
0
100
AcDbCircle
 10
9807.633217006586
 20
-2140.565664578698
 30
0.0
 40
3.0
100
AcDbArc
 50
270.0
 51
0.0
  0
LINE
  5
DE
330
2
100
AcDbEntity
  8
0
100
AcDbLine
 10
9751.974329513629
 20
-2120.835793530698
 30
0.0
 11
9810.633217006586
 21
-2120.835793530702
 31
0.0
  0
LINE
  5
DF
330
2
100
AcDbEntity
  8
0
100
AcDbLine
 10
9810.633217006586
 20
-2054.565664578694
 30
0.0
 11
9810.633217006586
 21
-2140.565664578698
 31
0.0
  0
LINE
  5
E0
330
2
100
AcDbEntity
  8
0
100
AcDbLine
 10
9751.974329513629
 20
-2051.565664578697
 30
0.0
 11
9751.974329513629
 21
-2143.565664578698
 31
0.0
  0
DIMENSION
  5
E1
102
{ACAD_XDICTIONARY
360
E2
102
}
102
{ACAD_REACTORS
330
E3
102
}
330
2
100
AcDbEntity
  8
0
100
AcDbDimension
  2
*D6
 10
9618.13429480594
 20
-2031.484492675917
 30
0.0
 11
9632.872390044033
 21
-2031.484492675917
 31
0.0
 70
   128
 71
     5
 42
-1.0
  3
STANDARD
100
AcDbAlignedDimension
 13
9610.634294805938
 23
-2052.537144534329
 33
0.0
 14
9618.13429480594
 24
-2054.146740526131
 34
0.0
100
AcDbRotatedDimension
  0
DIMENSION
  5
F2
330
2
100
AcDbEntity
  8
0
100
AcDbDimension
  2
*D4
 10
9610.634294805938
 20
-2042.183614988338
 30
0.0
 11
9597.467628139273
 21
-2042.183614988338
 31
0.0
 70
   128
 71
     5
 42
-1.0
  3
STANDARD
100
AcDbAlignedDimension
 13
9608.634294805938
 23
-2056.245477867661
 33
0.0
 14
9610.634294805938
 24
-2052.745477867661
 34
0.0
100
AcDbRotatedDimension
  0
DIMENSION
  5
101
102
{ACAD_XDICTIONARY
360
102
102
}
102
{ACAD_REACTORS
330
103
102
}
330
2
100
AcDbEntity
  8
0
100
AcDbDimension
  2
*D7
 10
9610.634294805938
 20
-2019.817817590773
 30
0.0
 11
9593.884294805937
 21
-2019.817817590773
 31
0.0
 70
   128
 71
     5
 42
-1.0
  3
STANDARD
100
AcDbAlignedDimension
 13
9573.634294805938
 23
-2092.745477867661
 33
0.0
 14
9610.634294805938
 24
-2052.537144534329
 34
0.0
100
AcDbRotatedDimension
  0
LINE
  5
110
330
2
100
AcDbEntity
  8
0
100
AcDbLine
 10
9618.13429480594
 20
-2061.846740526132
 30
0.0
 11
9618.13429480594
 21
-2054.146740526131
 31
0.0
  0
LINE
  5
111
330
2
100
AcDbEntity
  8
0
100
AcDbLine
 10
9610.634294805938
 20
-2056.245477867661
 30
0.0
 11
9608.634294805938
 21
-2056.245477867661
 31
0.0
  0
LINE
  5
112
330
2
100
AcDbEntity
  8
0
100
AcDbLine
 10
9610.634294805938
 20
-2052.745477867661
 30
0.0
 11
9751.974329513629
 21
-2052.745477867661
 31
0.0
  0
LINE
  5
113
330
2
100
AcDbEntity
  8
0
100
AcDbLine
 10
9617.234294805939
 20
-2061.846740526132
 30
0.0
 11
9618.13429480594
 21
-2061.846740526132
 31
0.0
  0
LINE
  5
114
102
{ACAD_REACTORS
330
E3
102
}
330
2
100
AcDbEntity
  8
0
100
AcDbLine
 10
9617.234294805939
 20
-2054.146740526131
 30
0.0
 11
9618.13429480594
 21
-2054.146740526131
 31
0.0
  0
LINE
  5
115
330
2
100
AcDbEntity
  8
0
100
AcDbLine
 10
9603.634294805935
 20
-2091.745477867661
 30
0.0
 11
9603.634294805935
 21
-2092.745477867661
 31
0.0
  0
LINE
  5
116
102
{ACAD_REACTORS
330
12A
330
140
102
}
330
2
100
AcDbEntity
  8
0
100
AcDbLine
 10
9608.634294805938
 20
-2091.745477867661
 30
0.0
 11
9603.634294805935
 21
-2091.745477867661
 31
0.0
  0
LINE
  5
117
330
2
100
AcDbEntity
  8
0
100
AcDbLine
 10
9573.634294805938
 20
-2092.745477867661
 30
0.0
 11
9573.634294805938
 21
-2103.745477867661
 31
0.0
  0
DIMENSION
  5
118
102
{ACAD_XDICTIONARY
360
119
102
}
102
{ACAD_REACTORS
330
11A
102
}
330
2
100
AcDbEntity
  8
0
100
AcDbDimension
  2
*D8
 10
9561.165813925226
 20
-2092.745477867661
 30
0.0
 11
9561.165813925226
 21
-2098.24547786766
 31
0.0
 70
   128
  1
<>
 71
     5
 42
-1.0
  3
STANDARD
100
AcDbAlignedDimension
 13
9573.634294805938
 23
-2103.745477867661
 33
0.0
 14
9573.634294805938
 24
-2092.745477867661
 34
0.0
 50
90.0
100
AcDbRotatedDimension
  0
LINE
  5
127
102
{ACAD_REACTORS
330
12A
330
11A
330
103
102
}
330
2
100
AcDbEntity
  8
0
100
AcDbLine
 10
9603.634294805935
 20
-2092.745477867661
 30
0.0
 11
9573.634294805938
 21
-2092.745477867661
 31
0.0
  0
DIMENSION
  5
128
102
{ACAD_XDICTIONARY
360
129
102
}
102
{ACAD_REACTORS
330
12A
102
}
330
2
100
AcDbEntity
  8
0
100
AcDbDimension
  2
*D9
 10
9603.634294805935
 20
-2072.112653826353
 30
0.0
 11
9589.892979170436
 21
-2072.112653826353
 31
0.0
 70
   128
 71
     5
 42
-1.0
  3
STANDARD
100
AcDbAlignedDimension
 13
9573.634294805938
 23
-2092.745477867661
 33
0.0
 14
9603.634294805935
 24
-2091.745477867661
 34
0.0
100
AcDbRotatedDimension
  0
LINE
  5
137
102
{ACAD_REACTORS
330
11A
330
140
102
}
330
2
100
AcDbEntity
  8
0
100
AcDbLine
 10
9608.634294805938
 20
-2103.745477867661
 30
0.0
 11
9573.634294805938
 21
-2103.745477867661
 31
0.0
  0
LINE
  5
138
330
2
100
AcDbEntity
  8
0
100
AcDbLine
 10
9617.234294805939
 20
-2133.644215209191
 30
0.0
 11
9618.13429480594
 21
-2133.644215209191
 31
0.0
  0
LINE
  5
139
330
2
100
AcDbEntity
  8
0
100
AcDbLine
 10
9618.13429480594
 20
-2133.644215209191
 30
0.0
 11
9618.13429480594
 21
-2141.344215209191
 31
0.0
  0
LINE
  5
13A
330
2
100
AcDbEntity
  8
0
100
AcDbLine
 10
9610.634294805938
 20
-2142.745477867661
 30
0.0
 11
9625.946313463392
 21
-2142.745477867661
 31
0.0
  0
LINE
  5
13B
330
2
100
AcDbEntity
  8
0
100
AcDbLine
 10
9631.161085719419
 20
-2142.745477867661
 30
0.0
 11
9751.974329513629
 21
-2142.745477867661
 31
0.0
  0
LINE
  5
13C
330
2
100
AcDbEntity
  8
0
100
AcDbLine
 10
9610.634294805938
 20
-2139.245477867661
 30
0.0
 11
9608.634294805938
 21
-2139.245477867661
 31
0.0
  0
LINE
  5
13D
330
2
100
AcDbEntity
  8
0
100
AcDbLine
 10
9617.234294805939
 20
-2141.344215209191
 30
0.0
 11
9618.13429480594
 21
-2141.344215209191
 31
0.0
  0
DIMENSION
  5
13E
102
{ACAD_XDICTIONARY
360
13F
102
}
102
{ACAD_REACTORS
330
140
102
}
330
2
100
AcDbEntity
  8
0
100
AcDbDimension
  2
*D10
 10
9549.469685269643
 20
-2091.745477867661
 30
0.0
 11
9549.469685269643
 21
-2097.745477867659
 31
0.0
 70
   128
  1
\A1;{\f??|b0|i0|c0|p49;%%C}12{\f??|b0|i0|c0|p49;\H0.7x;\S+0^ -0.018;\H1.429x;(h}7{\f??|b0|i0|c0|p49;)}
 71
     5
 42
-1.0
  3
STANDARD
100
AcDbAlignedDimension
 13
9573.634294805938
 23
-2103.745477867661
 33
0.0
 14
9603.634294805935
 24
-2091.745477867661
 34
0.0
 50
90.0
100
AcDbRotatedDimension
  0
DIMENSION
  5
14D
102
{ACAD_XDICTIONARY
360
14E
102
}
102
{ACAD_REACTORS
330
14F
102
}
330
2
100
AcDbEntity
  8
0
100
AcDbDimension
  2
*D11
 10
9533.56932934013
 20
-2139.245477867661
 30
0.0
 11
9533.56932934013
 21
-2096.380521234911
 31
0.0
 70
   128
  1
\A1;{\f??|b0|i0|c0|p49;%%C}<>{\f??|b0|i0|c0|p49;\H0.7x;\S+0^ -0.035;\H1.429x;(h}7{\f??|b0|i0|c0|p49;)}
 71
     5
 42
-1.0
  3
STANDARD
100
AcDbAlignedDimension
 13
9608.634294805938
 23
-2056.245477867661
 33
0.0
 14
9608.634294805938
 24
-2139.245477867661
 34
0.0
 50
90.0
100
AcDbRotatedDimension
  0
LINE
  5
15C
330
2
100
AcDbEntity
  8
0
100
AcDbLine
 10
9610.634294805938
 20
-2052.745477867661
 30
0.0
 11
9610.634294805938
 21
-2142.745477867661
 31
0.0
  0
LINE
  5
15D
102
{ACAD_REACTORS
330
14F
102
}
330
2
100
AcDbEntity
  8
0
100
AcDbLine
 10
9608.634294805938
 20
-2056.245477867661
 30
0.0
 11
9608.634294805938
 21
-2139.245477867661
 31
0.0
  0
LINE
  5
15E
330
2
100
AcDbEntity
  8
0
100
AcDbLine
 10
9617.234294805939
 20
-2052.745477867661
 30
0.0
 11
9617.234294805939
 21
-2142.745477867661
 31
0.0
  0
DIMENSION
  5
15F
330
2
100
AcDbEntity
  8
0
100
AcDbDimension
  2
*D5
 10
9810.633217006586
 20
-2019.817817590773
 30
0.0
 11
9710.633755906259
 21
-2019.817817590773
 31
0.0
 70
   128
 71
     5
 42
-1.0
  3
STANDARD
100
AcDbAlignedDimension
 13
9610.634294805938
 23
-2052.745477867661
 33
0.0
 14
9810.633217006586
 24
-2054.565664578694
 34
0.0
100
AcDbRotatedDimension
  0
CIRCLE
  5
16C
330
2
100
AcDbEntity
  8
0
100
AcDbCircle
 10
9756.97432951363
 20
-2097.565664578698
 30
0.0
 40
3.0
  0
ARC
  5
16D
330
2
100
AcDbEntity
  8
0
100
AcDbCircle
 10
9757.938615227914
 20
-2096.601378864412
 30
0.0
 40
0.5357142857142857
100
AcDbArc
 50
180.0
 51
270.0
  0
ARC
  5
16E
330
2
100
AcDbEntity
  8
0
100
AcDbCircle
 10
9756.010043799342
 20
-2096.601378864412
 30
0.0
 40
0.5357142857142857
100
AcDbArc
 50
270.0
 51
0.0
  0
LINE
  5
16F
330
2
100
AcDbEntity
  8
0
100
AcDbLine
 10
9757.938615227914
 20
-2097.137093150125
 30
0.0
 11
9758.688615227914
 21
-2097.137093150125
 31
0.0
  0
ARC
  5
170
330
2
100
AcDbEntity
  8
0
100
AcDbCircle
 10
9757.938615227914
 20
-2098.529950292984
 30
0.0
 40
0.5357142857142857
100
AcDbArc
 50
90.0
 51
180.0
  0
LINE
  5
171
330
2
100
AcDbEntity
  8
0
100
AcDbLine
 10
9757.938615227914
 20
-2097.99423600727
 30
0.0
 11
9758.688615227914
 21
-2097.99423600727
 31
0.0
  0
LINE
  5
172
330
2
100
AcDbEntity
  8
0
100
AcDbLine
 10
9757.402900942199
 20
-2099.279950292984
 30
0.0
 11
9757.402900942199
 21
-2098.529950292984
 31
0.0
  0
LINE
  5
173
330
2
100
AcDbEntity
  8
0
100
AcDbLine
 10
9758.688615227914
 20
-2097.137093150125
 30
0.0
 11
9758.688615227914
 21
-2097.99423600727
 31
0.0
  0
ARC
  5
174
330
2
100
AcDbEntity
  8
0
100
AcDbCircle
 10
9756.010043799342
 20
-2098.529950292984
 30
0.0
 40
0.5357142857142857
100
AcDbArc
 50
0.0
 51
90.0
  0
LINE
  5
175
330
2
100
AcDbEntity
  8
0
100
AcDbLine
 10
9755.26004379934
 20
-2097.137093150125
 30
0.0
 11
9756.010043799342
 21
-2097.137093150125
 31
0.0
  0
LINE
  5
176
330
2
100
AcDbEntity
  8
0
100
AcDbLine
 10
9755.26004379934
 20
-2097.99423600727
 30
0.0
 11
9756.010043799342
 21
-2097.99423600727
 31
0.0
  0
LINE
  5
177
330
2
100
AcDbEntity
  8
0
100
AcDbLine
 10
9755.26004379934
 20
-2097.137093150125
 30
0.0
 11
9755.26004379934
 21
-2097.99423600727
 31
0.0
  0
LINE
  5
178
330
2
100
AcDbEntity
  8
0
100
AcDbLine
 10
9756.545758085056
 20
-2099.279950292984
 30
0.0
 11
9756.545758085056
 21
-2098.529950292984
 31
0.0
  0
LINE
  5
179
330
2
100
AcDbEntity
  8
0
100
AcDbLine
 10
9756.545758085056
 20
-2099.279950292984
 30
0.0
 11
9757.402900942199
 21
-2099.279950292984
 31
0.0
  0
LINE
  5
17A
330
2
100
AcDbEntity
  8
0
100
AcDbLine
 10
9757.402900942199
 20
-2096.601378864412
 30
0.0
 11
9757.402900942199
 21
-2095.851378864411
 31
0.0
  0
LINE
  5
17B
330
2
100
AcDbEntity
  8
0
100
AcDbLine
 10
9756.545758085056
 20
-2096.601378864412
 30
0.0
 11
9756.545758085056
 21
-2095.851378864411
 31
0.0
  0
LINE
  5
17C
330
2
100
AcDbEntity
  8
0
100
AcDbLine
 10
9756.545758085056
 20
-2095.851378864411
 30
0.0
 11
9757.402900942199
 21
-2095.851378864411
 31
0.0
  0
LINE
  5
17D
330
2
100
AcDbEntity
  8
0
 62
   123
 48
0.6
100
AcDbLine
 10
9704.785974340325
 20
-2175.018992401749
 30
0.0
 11
9817.560845639516
 21
-2175.018992401749
 31
0.0
  0
LINE
  5
17E
330
2
100
AcDbEntity
  8
0
 62
   123
100
AcDbLine
 10
9591.70715165446
 20
-2196.902147267395
 30
0.0
 11
9698.781147794754
 21
-2196.902147267395
 31
0.0
  0
LEADER
  5
17F
330
2
100
AcDbEntity
  8
0
 48
0.6
100
AcDbLeader
  3
STANDARD
 76
     2
 10
9724.345802521545
 20
-2137.508592280827
 30
0.0
 10
9704.785974340325
 20
-2175.018992401749
 30
0.0
1001
ACAD
1000
DSTYLE
1002
{
1070
     5
1000

1002
}
  0
LEADER
  5
180
330
2
100
AcDbEntity
  8
0
100
AcDbLeader
  3
STANDARD
 76
     2
 10
9620.208270008951
 20
-2149.941268705591
 30
0.0
 10
9591.70715165446
 20
-2196.902147267395
 30
0.0
1001
ACAD
1000
DSTYLE
1002
{
1070
     5
1000

1002
}
  0
MTEXT
  5
181
330
2
100
AcDbEntity
  8
0
 62
     3
100
AcDbMText
 10
9640.940163552867
 20
-2202.194996578789
 30
0.0
 40
5.0
 41
0.0
 71
     5
 72
     1
  1
UL Style 3271, AWG20
 73
     1
 44
1.0
1001
ACAD
1000
MTEXTBEGIN
1070
    73
1070
     1
1070
    44
1040
1.0
1070
    74
1070
     0
1000
MTEXTEND
  0
MTEXT
  5
182
330
2
100
AcDbEntity
  8
0
 62
     3
100
AcDbMText
 10
9758.438381653192
 20
-2179.883572268306
 30
0.0
 40
5.0
 41
0.0
 71
     5
 72
     1
  1
UL Style 3266 , AWG20
 73
     1
 44
1.0
1001
ACAD
1000
MTEXTBEGIN
1070
    73
1070
     1
1070
    44
1040
1.0
1070
    74
1070
     0
1000
MTEXTEND
  0
MTEXT
  5
183
102
{ACAD_XDICTIONARY
360
3FE
102
}
330
2
100
AcDbEntity
  8
0
 62
     3
100
AcDbMText
 10
9716.113796137571
 20
-2166.739253363513
 30
0.0
 40
5.0
 41
0.0
 71
     5
 72
     1
  1
ELECTRO-MAGNETIC BRAKE\PLEAD WIRE 300mm
 73
     1
 44
1.0
1001
ACAD
1000
MTEXTBEGIN
1070
    73
1070
     1
1070
    44
1040
1.0
1070
    74
1070
     0
1000
MTEXTEND
  0
MTEXT
  5
184
330
2
100
AcDbEntity
  8
0
 62
     3
100
AcDbMText
 10
9649.326307102638
 20
-2191.739065921865
 30
0.0
 40
5.0
 41
0.0
 71
     5
 72
     1
  1
MOTOR LEAD WIRE 300mm
 73
     1
 44
1.0
1001
ACAD
1000
MTEXTBEGIN
1070
    73
1070
     1
1070
    44
1040
1.0
1070
    74
1070
     0
1000
MTEXTEND
  0
LINE
  5
185
330
2
100
AcDbEntity
  8
0
100
AcDbLine
 10
9634.161085719417
 20
-2138.096235705761
 30
0.0
 11
9709.151131022665
 21
-2138.096235705757
 31
0.0
  0
LINE
  5
186
330
2
100
AcDbEntity
  8
0
100
AcDbLine
 10
9633.946018481578
 20
-2133.096235705761
 30
0.0
 11
9709.151131022665
 21
-2133.096235705757
 31
0.0
  0
LINE
  5
187
330
2
100
AcDbEntity
  8
0
100
AcDbLine
 10
9751.975407312979
 20
-2135.508592280828
 30
0.0
 11
9709.151131022665
 21
-2135.508592280828
 31
0.0
  0
LINE
  5
188
330
2
100
AcDbEntity
  8
0
100
AcDbLine
 10
9751.975407312979
 20
-2137.508592280827
 30
0.0
 11
9709.151131022665
 21
-2137.508592280827
 31
0.0
  0
LINE
  5
189
330
2
100
AcDbEntity
  8
0
100
AcDbLine
 10
9751.975407312979
 20
-2133.508592280827
 30
0.0
 11
9709.151131022665
 21
-2133.508592280827
 31
0.0
  0
ARC
  5
18A
330
2
100
AcDbEntity
  8
0
 48
0.6
100
AcDbCircle
 10
19250.33697331881
 20
-2142.770831007895
 30
0.0
 40
9630.131372805323
100
AcDbArc
 50
180.0057987943465
 51
180.0854738431518
  0
ARC
  5
18B
330
2
100
AcDbEntity
  8
0
 48
0.6
100
AcDbCircle
 10
17960.24714241146
 20
-2142.785946634495
 30
0.0
 40
8338.016067540399
100
AcDbArc
 50
180.0065935456831
 51
180.0986155903735
  0
ARC
  5
18C
330
2
100
AcDbEntity
  8
0
 48
0.6
100
AcDbCircle
 10
25603.50175557158
 20
-2141.429231384477
 30
0.0
 40
15979.38658124886
100
AcDbArc
 50
180.008305146539
 51
180.0563220726751
  0
ARC
  5
18D
330
2
100
AcDbEntity
  8
0
 48
0.6
100
AcDbCircle
 10
34183.50426667349
 20
-2137.527257954916
 30
0.0
 40
24557.55850761821
100
AcDbArc
 50
180.0083295739286
 51
180.0457520545317
  0
ARC
  5
18E
330
2
100
AcDbEntity
  8
0
 48
0.6
100
AcDbCircle
 10
9633.946018481578
 20
-2141.096235705757
 30
0.0
 40
8.0
100
AcDbArc
 50
90.0
 51
180.0083295739286
  0
LINE
  5
18F
330
2
100
AcDbEntity
  8
0
100
AcDbLine
 10
9709.151131022665
 20
-2133.096235705757
 30
0.0
 11
9709.151131022665
 21
-2138.096235705757
 31
0.0
  0
LINE
  5
190
330
2
100
AcDbEntity
  8
0
100
AcDbLine
 10
9631.161085719419
 20
-2141.096235705761
 30
0.0
 11
9631.161085719419
 21
-2157.137055523096
 31
0.0
  0
ARC
  5
191
330
2
100
AcDbEntity
  8
0
100
AcDbCircle
 10
9634.161085719417
 20
-2141.096235705761
 30
0.0
 40
3.0
100
AcDbArc
 50
90.0
 51
180.0
  0
LINE
  5
192
330
2
100
AcDbEntity
  8
0
100
AcDbLine
 10
9619.044253427869
 20
-2157.137055523096
 30
0.0
 11
9632.17249883052
 21
-2157.137055523096
 31
0.0
  0
LINE
  5
193
330
2
100
AcDbEntity
  8
0
100
AcDbLine
 10
9619.044253427869
 20
-2157.137055523096
 30
0.0
 11
9619.044253427869
 21
-2178.648925485813
 31
0.0
  0
LINE
  5
194
330
2
100
AcDbEntity
  8
0
100
AcDbLine
 10
9632.17249883052
 20
-2157.137055523096
 30
0.0
 11
9632.17249883052
 21
-2178.563317021307
 31
0.0
  0
SPLINE
  5
195
330
2
100
AcDbEntity
  8
0
100
AcDbSpline
210
0.0
220
0.0
230
1.0
 70
     8
 71
     3
 72
    11
 73
     7
 74
     0
 42
0.0000000001
 43
0.0000000001
 40
0.5894126140828729
 40
0.5894126140828729
 40
0.5894126140828729
 40
0.5894126140828729
 40
3.94622577503947
 40
7.252032053323973
 40
10.09210796370155
 40
13.81861596368982
 40
13.81861596368982
 40
13.81861596368982
 40
13.81861596368982
 10
9619.607491856037
 20
-2179.548502791759
 30
0.0
 10
9620.676622312714
 20
-2180.067585582826
 30
0.0
 10
9622.796631371471
 20
-2180.951071944258
 30
0.0
 10
9625.782309700085
 20
-2179.428991554479
 30
0.0
 10
9628.666575759066
 20
-2177.38196976716
 30
0.0
 10
9630.775186739926
 20
-2178.489873708534
 30
0.0
 10
9631.974999428393
 20
-2179.159968335275
 30
0.0
  0
SPLINE
  5
196
330
2
100
AcDbEntity
  8
0
100
AcDbSpline
210
0.0
220
0.0
230
1.0
 70
     8
 71
     3
 72
     9
 73
     5
 74
     0
 42
0.0000000001
 43
0.0000000001
 40
6.313964801839686
 40
6.313964801839686
 40
6.313964801839686
 40
6.313964801840936
 40
9.154040712218515
 40
11.79142878795785
 40
11.79142878795785
 40
11.79142878795785
 40
11.79142878795785
 10
9625.88945175853
 20
-2179.270509934634
 30
0.0
 10
9626.755782458101
 20
-2179.843090593003
 30
0.0
 10
9628.36863618858
 20
-2181.072029674934
 30
0.0
 10
9630.036734029268
 20
-2180.053590623014
 30
0.0
 10
9631.521619450111
 20
-2179.500394815891
 30
0.0
  0
ARC
  5
197
330
2
100
AcDbEntity
  8
0
100
AcDbCircle
 10
9620.044253427872
 20
-2178.648925485813
 30
0.0
 40
1.0
100
AcDbArc
 50
180.0
 51
244.1025614949291
  0
ARC
  5
198
330
2
100
AcDbEntity
  8
0
100
AcDbCircle
 10
9631.172498830546
 20
-2178.563317021307
 30
0.0
 40
1.0
100
AcDbArc
 50
290.4329643529747
 51
0.0
  0
ARC
  5
199
330
2
100
AcDbEntity
  8
0
100
AcDbCircle
 10
9618.13429480594
 20
-2143.245477867661
 30
0.0
 40
0.5
100
AcDbArc
 50
180.0
 51
270.0
  0
LINE
  5
19A
330
2
100
AcDbEntity
  8
0
100
AcDbLine
 10
9617.634294805938
 20
-2142.745477867661
 30
0.0
 11
9617.634294805938
 21
-2143.245477867661
 31
0.0
  0
LINE
  5
19B
330
2
100
AcDbEntity
  8
0
100
AcDbLine
 10
9625.946546313089
 20
-2143.745477867661
 30
0.0
 11
9618.13429480594
 21
-2143.745477867661
 31
0.0
  0
ARC
  5
19C
330
2
100
AcDbEntity
  8
0
 48
0.6
100
AcDbCircle
 10
9577.261014690881
 20
-2088.61920339327
 30
0.0
 40
116.9686661741608
100
AcDbArc
 50
210.156015353598
 51
216.2412691602675
  0
LINE
  5
19D
330
2
100
AcDbEntity
  8
0
100
AcDbLine
 10
9476.122805446305
 20
-2147.379151464745
 30
0.0
 11
9482.614936791845
 21
-2144.488551488015
 31
0.0
  0
ARC
  5
19E
330
2
100
AcDbEntity
  8
0
 48
0.6
100
AcDbCircle
 10
9511.03248965682
 20
-2128.434925219123
 30
0.0
 40
39.155792
100
AcDbArc
 50
201.4369589999573
 51
208.5517089162816
  0
ARC
  5
19F
330
2
100
AcDbEntity
  8
0
 48
0.6
100
AcDbCircle
 10
9443.700199106615
 20
-2156.334176484502
 30
0.0
 40
39.155792
100
AcDbArc
 50
16.65391050761862
 51
20.30648800595296
  0
ARC
  5
1A0
330
2
100
AcDbEntity
  8
0
 48
0.6
100
AcDbCircle
 10
9565.202559474821
 20
-2095.845571063269
 30
0.0
 40
95.84808274048763
100
AcDbArc
 50
210.4975034246524
 51
218.057529567493
  0
LINE
  5
1A1
330
2
100
AcDbEntity
  8
0
100
AcDbLine
 10
9482.92172663306
 20
-2157.769529461234
 30
0.0
 11
9482.924742048174
 21
-2157.754956046453
 31
0.0
  0
LINE
  5
1A2
330
2
100
AcDbEntity
  8
0
100
AcDbLine
 10
9482.924742048174
 20
-2157.754956046453
 30
0.0
 11
9482.928290499499
 21
-2157.738296357783
 31
0.0
  0
LINE
  5
1A3
330
2
100
AcDbEntity
  8
0
100
AcDbLine
 10
9482.928290499499
 20
-2157.738296357783
 30
0.0
 11
9482.931917917682
 21
-2157.721743312314
 31
0.0
  0
LINE
  5
1A4
330
2
100
AcDbEntity
  8
0
100
AcDbLine
 10
9482.931917917682
 20
-2157.721743312314
 30
0.0
 11
9482.935624047961
 21
-2157.705296554183
 31
0.0
  0
LINE
  5
1A5
330
2
100
AcDbEntity
  8
0
100
AcDbLine
 10
9482.935624047961
 20
-2157.705296554183
 30
0.0
 11
9482.939408635578
 21
-2157.688955727505
 31
0.0
  0
LINE
  5
1A6
330
2
100
AcDbEntity
  8
0
100
AcDbLine
 10
9482.939408635578
 20
-2157.688955727505
 30
0.0
 11
9482.943271425776
 21
-2157.672720476417
 31
0.0
  0
LINE
  5
1A7
330
2
100
AcDbEntity
  8
0
100
AcDbLine
 10
9482.943271425776
 20
-2157.672720476417
 30
0.0
 11
9482.947212163798
 21
-2157.656590445043
 31
0.0
  0
LINE
  5
1A8
330
2
100
AcDbEntity
  8
0
100
AcDbLine
 10
9482.947212163798
 20
-2157.656590445043
 30
0.0
 11
9482.95123059489
 21
-2157.640565277506
 31
0.0
  0
LINE
  5
1A9
330
2
100
AcDbEntity
  8
0
100
AcDbLine
 10
9482.95123059489
 20
-2157.640565277506
 30
0.0
 11
9482.95532646429
 21
-2157.624644617935
 31
0.0
  0
LINE
  5
1AA
330
2
100
AcDbEntity
  8
0
100
AcDbLine
 10
9482.95532646429
 20
-2157.624644617935
 30
0.0
 11
9482.959499517241
 21
-2157.608828110463
 31
0.0
  0
LINE
  5
1AB
330
2
100
AcDbEntity
  8
0
100
AcDbLine
 10
9482.959499517241
 20
-2157.608828110463
 30
0.0
 11
9482.963749498983
 21
-2157.593115399212
 31
0.0
  0
LINE
  5
1AC
330
2
100
AcDbEntity
  8
0
100
AcDbLine
 10
9482.963749498983
 20
-2157.593115399212
 30
0.0
 11
9482.968076154767
 21
-2157.577506128305
 31
0.0
  0
LINE
  5
1AD
330
2
100
AcDbEntity
  8
0
100
AcDbLine
 10
9482.968076154767
 20
-2157.577506128305
 30
0.0
 11
9482.972479229827
 21
-2157.561999941878
 31
0.0
  0
LINE
  5
1AE
330
2
100
AcDbEntity
  8
0
100
AcDbLine
 10
9482.972479229827
 20
-2157.561999941878
 30
0.0
 11
9482.976958469413
 21
-2157.546596484055
 31
0.0
  0
LINE
  5
1AF
330
2
100
AcDbEntity
  8
0
100
AcDbLine
 10
9482.976958469413
 20
-2157.546596484055
 30
0.0
 11
9482.981513618758
 21
-2157.531295398959
 31
0.0
  0
LINE
  5
1B0
330
2
100
AcDbEntity
  8
0
100
AcDbLine
 10
9482.981513618758
 20
-2157.531295398959
 30
0.0
 11
9482.986144423113
 21
-2157.51609633072
 31
0.0
  0
LINE
  5
1B1
330
2
100
AcDbEntity
  8
0
100
AcDbLine
 10
9482.986144423113
 20
-2157.51609633072
 30
0.0
 11
9482.990850627713
 21
-2157.50099892347
 31
0.0
  0
LINE
  5
1B2
330
2
100
AcDbEntity
  8
0
100
AcDbLine
 10
9482.990850627713
 20
-2157.50099892347
 30
0.0
 11
9482.995631977809
 21
-2157.486002821329
 31
0.0
  0
LINE
  5
1B3
330
2
100
AcDbEntity
  8
0
100
AcDbLine
 10
9482.995631977809
 20
-2157.486002821329
 30
0.0
 11
9483.000488218637
 21
-2157.471107668424
 31
0.0
  0
LINE
  5
1B4
330
2
100
AcDbEntity
  8
0
100
AcDbLine
 10
9483.000488218637
 20
-2157.471107668424
 30
0.0
 11
9483.005419095446
 21
-2157.456313108894
 31
0.0
  0
LINE
  5
1B5
330
2
100
AcDbEntity
  8
0
100
AcDbLine
 10
9483.005419095446
 20
-2157.456313108894
 30
0.0
 11
9483.010424353468
 21
-2157.441618786847
 31
0.0
  0
LINE
  5
1B6
330
2
100
AcDbEntity
  8
0
100
AcDbLine
 10
9483.010424353468
 20
-2157.441618786847
 30
0.0
 11
9483.015503737954
 21
-2157.427024346426
 31
0.0
  0
LINE
  5
1B7
330
2
100
AcDbEntity
  8
0
100
AcDbLine
 10
9483.015503737954
 20
-2157.427024346426
 30
0.0
 11
9483.020656994144
 21
-2157.412529431748
 31
0.0
  0
LINE
  5
1B8
330
2
100
AcDbEntity
  8
0
100
AcDbLine
 10
9483.020656994144
 20
-2157.412529431748
 30
0.0
 11
9483.025883867282
 21
-2157.398133686946
 31
0.0
  0
LINE
  5
1B9
330
2
100
AcDbEntity
  8
0
100
AcDbLine
 10
9483.025883867282
 20
-2157.398133686946
 30
0.0
 11
9483.031184102607
 21
-2157.38383675615
 31
0.0
  0
LINE
  5
1BA
330
2
100
AcDbEntity
  8
0
100
AcDbLine
 10
9483.031184102607
 20
-2157.38383675615
 30
0.0
 11
9483.036557445368
 21
-2157.369638283482
 31
0.0
  0
LINE
  5
1BB
330
2
100
AcDbEntity
  8
0
100
AcDbLine
 10
9483.036557445368
 20
-2157.369638283482
 30
0.0
 11
9483.0420036408
 21
-2157.355537913066
 31
0.0
  0
LINE
  5
1BC
330
2
100
AcDbEntity
  8
0
100
AcDbLine
 10
9483.0420036408
 20
-2157.355537913066
 30
0.0
 11
9483.047522434148
 21
-2157.341535289036
 31
0.0
  0
LINE
  5
1BD
330
2
100
AcDbEntity
  8
0
100
AcDbLine
 10
9483.047522434148
 20
-2157.341535289036
 30
0.0
 11
9483.053113570655
 21
-2157.327630055514
 31
0.0
  0
LINE
  5
1BE
330
2
100
AcDbEntity
  8
0
100
AcDbLine
 10
9483.053113570655
 20
-2157.327630055514
 30
0.0
 11
9483.058776795568
 21
-2157.31382185663
 31
0.0
  0
LINE
  5
1BF
330
2
100
AcDbEntity
  8
0
100
AcDbLine
 10
9483.058776795568
 20
-2157.31382185663
 30
0.0
 11
9483.064511854122
 21
-2157.300110336509
 31
0.0
  0
LINE
  5
1C0
330
2
100
AcDbEntity
  8
0
100
AcDbLine
 10
9483.064511854122
 20
-2157.300110336509
 30
0.0
 11
9483.070318491561
 21
-2157.286495139283
 31
0.0
  0
LINE
  5
1C1
330
2
100
AcDbEntity
  8
0
100
AcDbLine
 10
9483.070318491561
 20
-2157.286495139283
 30
0.0
 11
9483.076196453131
 21
-2157.272975909075
 31
0.0
  0
LINE
  5
1C2
330
2
100
AcDbEntity
  8
0
100
AcDbLine
 10
9483.076196453131
 20
-2157.272975909075
 30
0.0
 11
9483.082145484075
 21
-2157.259552290015
 31
0.0
  0
LINE
  5
1C3
330
2
100
AcDbEntity
  8
0
100
AcDbLine
 10
9483.082145484075
 20
-2157.259552290015
 30
0.0
 11
9483.088165329633
 21
-2157.246223926224
 31
0.0
  0
LINE
  5
1C4
330
2
100
AcDbEntity
  8
0
100
AcDbLine
 10
9483.088165329633
 20
-2157.246223926224
 30
0.0
 11
9483.094255735045
 21
-2157.232990461837
 31
0.0
  0
LINE
  5
1C5
330
2
100
AcDbEntity
  8
0
100
AcDbLine
 10
9483.094255735045
 20
-2157.232990461837
 30
0.0
 11
9483.100416445555
 21
-2157.219851540975
 31
0.0
  0
LINE
  5
1C6
330
2
100
AcDbEntity
  8
0
100
AcDbLine
 10
9483.100416445555
 20
-2157.219851540975
 30
0.0
 11
9483.10664720641
 21
-2157.206806807767
 31
0.0
  0
LINE
  5
1C7
330
2
100
AcDbEntity
  8
0
100
AcDbLine
 10
9483.10664720641
 20
-2157.206806807767
 30
0.0
 11
9483.112947762847
 21
-2157.193855906341
 31
0.0
  0
LINE
  5
1C8
330
2
100
AcDbEntity
  8
0
100
AcDbLine
 10
9483.112947762847
 20
-2157.193855906341
 30
0.0
 11
9483.119317860111
 21
-2157.180998480827
 31
0.0
  0
LINE
  5
1C9
330
2
100
AcDbEntity
  8
0
100
AcDbLine
 10
9483.119317860111
 20
-2157.180998480827
 30
0.0
 11
9483.125757243447
 21
-2157.168234175347
 31
0.0
  0
LINE
  5
1CA
330
2
100
AcDbEntity
  8
0
100
AcDbLine
 10
9483.125757243447
 20
-2157.168234175347
 30
0.0
 11
9483.132265658092
 21
-2157.155562634029
 31
0.0
  0
LINE
  5
1CB
330
2
100
AcDbEntity
  8
0
100
AcDbLine
 10
9483.132265658092
 20
-2157.155562634029
 30
0.0
 11
9483.138842849294
 21
-2157.142983501005
 31
0.0
  0
LINE
  5
1CC
330
2
100
AcDbEntity
  8
0
100
AcDbLine
 10
9483.138842849294
 20
-2157.142983501005
 30
0.0
 11
9483.145488562291
 21
-2157.130496420395
 31
0.0
  0
LINE
  5
1CD
330
2
100
AcDbEntity
  8
0
100
AcDbLine
 10
9483.145488562291
 20
-2157.130496420395
 30
0.0
 11
9483.152202542326
 21
-2157.118101036328
 31
0.0
  0
LINE
  5
1CE
330
2
100
AcDbEntity
  8
0
100
AcDbLine
 10
9483.152202542326
 20
-2157.118101036328
 30
0.0
 11
9483.158984534645
 21
-2157.105796992938
 31
0.0
  0
LINE
  5
1CF
330
2
100
AcDbEntity
  8
0
100
AcDbLine
 10
9483.158984534645
 20
-2157.105796992938
 30
0.0
 11
9483.165834284486
 21
-2157.093583934343
 31
0.0
  0
LINE
  5
1D0
330
2
100
AcDbEntity
  8
0
100
AcDbLine
 10
9483.165834284486
 20
-2157.093583934343
 30
0.0
 11
9483.172751537097
 21
-2157.081461504676
 31
0.0
  0
LINE
  5
1D1
330
2
100
AcDbEntity
  8
0
100
AcDbLine
 10
9483.172751537097
 20
-2157.081461504676
 30
0.0
 11
9483.179736037714
 21
-2157.069429348062
 31
0.0
  0
LINE
  5
1D2
330
2
100
AcDbEntity
  8
0
100
AcDbLine
 10
9483.179736037714
 20
-2157.069429348062
 30
0.0
 11
9483.186787531582
 21
-2157.057487108628
 31
0.0
  0
LINE
  5
1D3
330
2
100
AcDbEntity
  8
0
100
AcDbLine
 10
9483.186787531582
 20
-2157.057487108628
 30
0.0
 11
9483.193905763949
 21
-2157.045634430498
 31
0.0
  0
LINE
  5
1D4
330
2
100
AcDbEntity
  8
0
100
AcDbLine
 10
9483.193905763949
 20
-2157.045634430498
 30
0.0
 11
9483.201090480049
 21
-2157.033870957809
 31
0.0
  0
LINE
  5
1D5
330
2
100
AcDbEntity
  8
0
100
AcDbLine
 10
9483.201090480049
 20
-2157.033870957809
 30
0.0
 11
9483.208341425129
 21
-2157.022196334677
 31
0.0
  0
LINE
  5
1D6
330
2
100
AcDbEntity
  8
0
100
AcDbLine
 10
9483.208341425129
 20
-2157.022196334677
 30
0.0
 11
9483.215658344427
 21
-2157.010610205237
 31
0.0
  0
LINE
  5
1D7
330
2
100
AcDbEntity
  8
0
100
AcDbLine
 10
9483.215658344427
 20
-2157.010610205237
 30
0.0
 11
9483.223040983196
 21
-2156.999112213612
 31
0.0
  0
LINE
  5
1D8
330
2
100
AcDbEntity
  8
0
100
AcDbLine
 10
9483.223040983196
 20
-2156.999112213612
 30
0.0
 11
9483.230489086663
 21
-2156.98770200393
 31
0.0
  0
LINE
  5
1D9
330
2
100
AcDbEntity
  8
0
100
AcDbLine
 10
9483.230489086663
 20
-2156.98770200393
 30
0.0
 11
9483.238002400089
 21
-2156.976379220319
 31
0.0
  0
LINE
  5
1DA
330
2
100
AcDbEntity
  8
0
100
AcDbLine
 10
9483.238002400089
 20
-2156.976379220319
 30
0.0
 11
9483.245580668699
 21
-2156.965143506905
 31
0.0
  0
LINE
  5
1DB
330
2
100
AcDbEntity
  8
0
100
AcDbLine
 10
9483.245580668699
 20
-2156.965143506905
 30
0.0
 11
9483.253223637749
 21
-2156.953994507813
 31
0.0
  0
LINE
  5
1DC
330
2
100
AcDbEntity
  8
0
100
AcDbLine
 10
9483.253223637749
 20
-2156.953994507813
 30
0.0
 11
9483.260931052475
 21
-2156.942931867178
 31
0.0
  0
LINE
  5
1DD
330
2
100
AcDbEntity
  8
0
100
AcDbLine
 10
9483.260931052475
 20
-2156.942931867178
 30
0.0
 11
9483.268702658117
 21
-2156.931955229119
 31
0.0
  0
LINE
  5
1DE
330
2
100
AcDbEntity
  8
0
100
AcDbLine
 10
9483.268702658117
 20
-2156.931955229119
 30
0.0
 11
9483.276538199925
 21
-2156.921064237765
 31
0.0
  0
LINE
  5
1DF
330
2
100
AcDbEntity
  8
0
100
AcDbLine
 10
9483.276538199925
 20
-2156.921064237765
 30
0.0
 11
9483.284437423131
 21
-2156.910258537248
 31
0.0
  0
LINE
  5
1E0
330
2
100
AcDbEntity
  8
0
100
AcDbLine
 10
9483.284437423131
 20
-2156.910258537248
 30
0.0
 11
9483.292400072988
 21
-2156.899537771692
 31
0.0
  0
LINE
  5
1E1
330
2
100
AcDbEntity
  8
0
100
AcDbLine
 10
9483.292400072988
 20
-2156.899537771692
 30
0.0
 11
9483.300425894737
 21
-2156.888901585217
 31
0.0
  0
LINE
  5
1E2
330
2
100
AcDbEntity
  8
0
100
AcDbLine
 10
9483.300425894737
 20
-2156.888901585217
 30
0.0
 11
9483.308514633613
 21
-2156.878349621961
 31
0.0
  0
LINE
  5
1E3
330
2
100
AcDbEntity
  8
0
100
AcDbLine
 10
9483.308514633613
 20
-2156.878349621961
 30
0.0
 11
9483.316666034864
 21
-2156.867881526049
 31
0.0
  0
LINE
  5
1E4
330
2
100
AcDbEntity
  8
0
100
AcDbLine
 10
9483.316666034864
 20
-2156.867881526049
 30
0.0
 11
9483.324879843733
 21
-2156.857496941603
 31
0.0
  0
LINE
  5
1E5
330
2
100
AcDbEntity
  8
0
100
AcDbLine
 10
9483.324879843733
 20
-2156.857496941603
 30
0.0
 11
9483.333155805459
 21
-2156.847195512753
 31
0.0
  0
LINE
  5
1E6
330
2
100
AcDbEntity
  8
0
100
AcDbLine
 10
9483.333155805459
 20
-2156.847195512753
 30
0.0
 11
9483.341493665291
 21
-2156.836976883627
 31
0.0
  0
LINE
  5
1E7
330
2
100
AcDbEntity
  8
0
100
AcDbLine
 10
9483.341493665291
 20
-2156.836976883627
 30
0.0
 11
9483.349893168464
 21
-2156.826840698351
 31
0.0
  0
LINE
  5
1E8
330
2
100
AcDbEntity
  8
0
100
AcDbLine
 10
9483.349893168464
 20
-2156.826840698351
 30
0.0
 11
9483.358354060225
 21
-2156.816786601055
 31
0.0
  0
LINE
  5
1E9
330
2
100
AcDbEntity
  8
0
100
AcDbLine
 10
9483.358354060225
 20
-2156.816786601055
 30
0.0
 11
9483.366876085812
 21
-2156.80681423586
 31
0.0
  0
LINE
  5
1EA
330
2
100
AcDbEntity
  8
0
100
AcDbLine
 10
9483.366876085812
 20
-2156.80681423586
 30
0.0
 11
9483.375458990472
 21
-2156.796923246896
 31
0.0
  0
LINE
  5
1EB
330
2
100
AcDbEntity
  8
0
100
AcDbLine
 10
9483.375458990472
 20
-2156.796923246896
 30
0.0
 11
9483.384102519449
 21
-2156.787113278296
 31
0.0
  0
LINE
  5
1EC
330
2
100
AcDbEntity
  8
0
100
AcDbLine
 10
9483.384102519449
 20
-2156.787113278296
 30
0.0
 11
9483.392806417979
 21
-2156.777383974178
 31
0.0
  0
LINE
  5
1ED
330
2
100
AcDbEntity
  8
0
100
AcDbLine
 10
9483.392806417979
 20
-2156.777383974178
 30
0.0
 11
9483.401570431311
 21
-2156.767734978675
 31
0.0
  0
LINE
  5
1EE
330
2
100
AcDbEntity
  8
0
100
AcDbLine
 10
9483.401570431311
 20
-2156.767734978675
 30
0.0
 11
9483.410394304687
 21
-2156.758165935912
 31
0.0
  0
LINE
  5
1EF
330
2
100
AcDbEntity
  8
0
100
AcDbLine
 10
9483.410394304687
 20
-2156.758165935912
 30
0.0
 11
9483.419277783346
 21
-2156.748676490019
 31
0.0
  0
LINE
  5
1F0
330
2
100
AcDbEntity
  8
0
100
AcDbLine
 10
9483.419277783346
 20
-2156.748676490019
 30
0.0
 11
9483.428220612529
 21
-2156.739266285119
 31
0.0
  0
LINE
  5
1F1
330
2
100
AcDbEntity
  8
0
100
AcDbLine
 10
9483.428220612529
 20
-2156.739266285119
 30
0.0
 11
9483.437222537485
 21
-2156.72993496534
 31
0.0
  0
LINE
  5
1F2
330
2
100
AcDbEntity
  8
0
100
AcDbLine
 10
9483.437222537485
 20
-2156.72993496534
 30
0.0
 11
9483.446283303448
 21
-2156.72068217481
 31
0.0
  0
LINE
  5
1F3
330
2
100
AcDbEntity
  8
0
100
AcDbLine
 10
9483.446283303448
 20
-2156.72068217481
 30
0.0
 11
9483.455402655668
 21
-2156.711507557658
 31
0.0
  0
LINE
  5
1F4
330
2
100
AcDbEntity
  8
0
100
AcDbLine
 10
9483.455402655668
 20
-2156.711507557658
 30
0.0
 11
9483.464580339385
 21
-2156.70241075801
 31
0.0
  0
LINE
  5
1F5
330
2
100
AcDbEntity
  8
0
100
AcDbLine
 10
9483.464580339385
 20
-2156.70241075801
 30
0.0
 11
9483.473816099841
 21
-2156.69339141999
 31
0.0
  0
LINE
  5
1F6
330
2
100
AcDbEntity
  8
0
100
AcDbLine
 10
9483.473816099841
 20
-2156.69339141999
 30
0.0
 11
9483.483109682278
 21
-2156.684449187727
 31
0.0
  0
LINE
  5
1F7
330
2
100
AcDbEntity
  8
0
100
AcDbLine
 10
9483.483109682278
 20
-2156.684449187727
 30
0.0
 11
9483.492460831939
 21
-2156.675583705352
 31
0.0
  0
LINE
  5
1F8
330
2
100
AcDbEntity
  8
0
100
AcDbLine
 10
9483.492460831939
 20
-2156.675583705352
 30
0.0
 11
9483.501869294071
 21
-2156.666794616986
 31
0.0
  0
LINE
  5
1F9
330
2
100
AcDbEntity
  8
0
100
AcDbLine
 10
9483.501869294071
 20
-2156.666794616986
 30
0.0
 11
9483.511334813906
 21
-2156.658081566761
 31
0.0
  0
LINE
  5
1FA
330
2
100
AcDbEntity
  8
0
100
AcDbLine
 10
9483.511334813906
 20
-2156.658081566761
 30
0.0
 11
9483.520857136694
 21
-2156.649444198802
 31
0.0
  0
LINE
  5
1FB
330
2
100
AcDbEntity
  8
0
100
AcDbLine
 10
9483.520857136694
 20
-2156.649444198802
 30
0.0
 11
9483.530436007679
 21
-2156.640882157236
 31
0.0
  0
LINE
  5
1FC
330
2
100
AcDbEntity
  8
0
100
AcDbLine
 10
9483.530436007679
 20
-2156.640882157236
 30
0.0
 11
9483.540071172098
 21
-2156.632395086191
 31
0.0
  0
LINE
  5
1FD
330
2
100
AcDbEntity
  8
0
100
AcDbLine
 10
9483.540071172098
 20
-2156.632395086191
 30
0.0
 11
9483.549762375201
 21
-2156.623982629792
 31
0.0
  0
LINE
  5
1FE
330
2
100
AcDbEntity
  8
0
100
AcDbLine
 10
9483.549762375201
 20
-2156.623982629792
 30
0.0
 11
9483.559509362221
 21
-2156.615644432167
 31
0.0
  0
LINE
  5
1FF
330
2
100
AcDbEntity
  8
0
100
AcDbLine
 10
9483.559509362221
 20
-2156.615644432167
 30
0.0
 11
9483.569311878408
 21
-2156.607380137451
 31
0.0
  0
LINE
  5
200
330
2
100
AcDbEntity
  8
0
100
AcDbLine
 10
9483.569311878408
 20
-2156.607380137451
 30
0.0
 11
9483.579169668999
 21
-2156.599189389758
 31
0.0
  0
LINE
  5
201
330
2
100
AcDbEntity
  8
0
100
AcDbLine
 10
9483.579169668999
 20
-2156.599189389758
 30
0.0
 11
9483.589082479239
 21
-2156.591071833223
 31
0.0
  0
LINE
  5
202
330
2
100
AcDbEntity
  8
0
100
AcDbLine
 10
9483.589082479239
 20
-2156.591071833223
 30
0.0
 11
9483.599050054374
 21
-2156.583027111969
 31
0.0
  0
LINE
  5
203
330
2
100
AcDbEntity
  8
0
100
AcDbLine
 10
9483.599050054374
 20
-2156.583027111969
 30
0.0
 11
9483.609072139643
 21
-2156.575054870125
 31
0.0
  0
LINE
  5
204
330
2
100
AcDbEntity
  8
0
100
AcDbLine
 10
9483.609072139643
 20
-2156.575054870125
 30
0.0
 11
9483.619148480288
 21
-2156.567154751821
 31
0.0
  0
LINE
  5
205
330
2
100
AcDbEntity
  8
0
100
AcDbLine
 10
9483.619148480288
 20
-2156.567154751821
 30
0.0
 11
9483.629278821553
 21
-2156.559326401183
 31
0.0
  0
LINE
  5
206
330
2
100
AcDbEntity
  8
0
100
AcDbLine
 10
9483.629278821553
 20
-2156.559326401183
 30
0.0
 11
9483.639462908675
 21
-2156.551569462335
 31
0.0
  0
LINE
  5
207
330
2
100
AcDbEntity
  8
0
100
AcDbLine
 10
9483.639462908675
 20
-2156.551569462335
 30
0.0
 11
9483.649700486905
 21
-2156.543883579407
 31
0.0
  0
LINE
  5
208
330
2
100
AcDbEntity
  8
0
100
AcDbLine
 10
9483.649700486905
 20
-2156.543883579407
 30
0.0
 11
9483.659991301484
 21
-2156.536268396529
 31
0.0
  0
LINE
  5
209
330
2
100
AcDbEntity
  8
0
100
AcDbLine
 10
9483.659991301484
 20
-2156.536268396529
 30
0.0
 11
9483.670335097647
 21
-2156.528723557817
 31
0.0
  0
LINE
  5
20A
330
2
100
AcDbEntity
  8
0
100
AcDbLine
 10
9483.670335097647
 20
-2156.528723557817
 30
0.0
 11
9483.680731620649
 21
-2156.521248707409
 31
0.0
  0
LINE
  5
20B
330
2
100
AcDbEntity
  8
0
100
AcDbLine
 10
9483.680731620649
 20
-2156.521248707409
 30
0.0
 11
9483.69118061572
 21
-2156.513843489428
 31
0.0
  0
LINE
  5
20C
330
2
100
AcDbEntity
  8
0
100
AcDbLine
 10
9483.69118061572
 20
-2156.513843489428
 30
0.0
 11
9483.701681828106
 21
-2156.506507548001
 31
0.0
  0
LINE
  5
20D
330
2
100
AcDbEntity
  8
0
100
AcDbLine
 10
9483.701681828106
 20
-2156.506507548001
 30
0.0
 11
9483.712235003055
 21
-2156.49924052726
 31
0.0
  0
LINE
  5
20E
330
2
100
AcDbEntity
  8
0
100
AcDbLine
 10
9483.712235003055
 20
-2156.49924052726
 30
0.0
 11
9483.722839885805
 21
-2156.492042071323
 31
0.0
  0
LINE
  5
20F
330
2
100
AcDbEntity
  8
0
100
AcDbLine
 10
9483.722839885805
 20
-2156.492042071323
 30
0.0
 11
9483.733496221601
 21
-2156.484911824328
 31
0.0
  0
LINE
  5
210
330
2
100
AcDbEntity
  8
0
100
AcDbLine
 10
9483.733496221601
 20
-2156.484911824328
 30
0.0
 11
9483.74420375568
 21
-2156.477849430393
 31
0.0
  0
LINE
  5
211
330
2
100
AcDbEntity
  8
0
100
AcDbLine
 10
9483.74420375568
 20
-2156.477849430393
 30
0.0
 11
9483.754962233289
 21
-2156.470854533646
 31
0.0
  0
LINE
  5
212
330
2
100
AcDbEntity
  8
0
100
AcDbLine
 10
9483.754962233289
 20
-2156.470854533646
 30
0.0
 11
9483.765771399673
 21
-2156.463926778225
 31
0.0
  0
LINE
  5
213
330
2
100
AcDbEntity
  8
0
100
AcDbLine
 10
9483.765771399673
 20
-2156.463926778225
 30
0.0
 11
9483.776631000067
 21
-2156.457065808244
 31
0.0
  0
LINE
  5
214
330
2
100
AcDbEntity
  8
0
100
AcDbLine
 10
9483.776631000067
 20
-2156.457065808244
 30
0.0
 11
9483.78754077972
 21
-2156.450271267832
 31
0.0
  0
LINE
  5
215
330
2
100
AcDbEntity
  8
0
100
AcDbLine
 10
9483.78754077972
 20
-2156.450271267832
 30
0.0
 11
9483.798500483873
 21
-2156.443542801123
 31
0.0
  0
LINE
  5
216
330
2
100
AcDbEntity
  8
0
100
AcDbLine
 10
9483.798500483873
 20
-2156.443542801123
 30
0.0
 11
9483.809509857769
 21
-2156.436880052238
 31
0.0
  0
LINE
  5
217
330
2
100
AcDbEntity
  8
0
100
AcDbLine
 10
9483.809509857769
 20
-2156.436880052238
 30
0.0
 11
9483.820568646645
 21
-2156.430282665307
 31
0.0
  0
LINE
  5
218
330
2
100
AcDbEntity
  8
0
100
AcDbLine
 10
9483.820568646645
 20
-2156.430282665307
 30
0.0
 11
9483.83167659575
 21
-2156.423750284458
 31
0.0
  0
LINE
  5
219
330
2
100
AcDbEntity
  8
0
100
AcDbLine
 10
9483.83167659575
 20
-2156.423750284458
 30
0.0
 11
9483.842833450324
 21
-2156.417282553818
 31
0.0
  0
LINE
  5
21A
330
2
100
AcDbEntity
  8
0
100
AcDbLine
 10
9483.842833450324
 20
-2156.417282553818
 30
0.0
 11
9483.854038955611
 21
-2156.410879117509
 31
0.0
  0
LINE
  5
21B
330
2
100
AcDbEntity
  8
0
100
AcDbLine
 10
9483.854038955611
 20
-2156.410879117509
 30
0.0
 11
9483.865292856853
 21
-2156.404539619666
 31
0.0
  0
LINE
  5
21C
330
2
100
AcDbEntity
  8
0
100
AcDbLine
 10
9483.865292856853
 20
-2156.404539619666
 30
0.0
 11
9483.876594899287
 21
-2156.398263704409
 31
0.0
  0
LINE
  5
21D
330
2
100
AcDbEntity
  8
0
100
AcDbLine
 10
9483.876594899287
 20
-2156.398263704409
 30
0.0
 11
9483.887944828165
 21
-2156.39205101587
 31
0.0
  0
LINE
  5
21E
330
2
100
AcDbEntity
  8
0
100
AcDbLine
 10
9483.887944828165
 20
-2156.39205101587
 30
0.0
 11
9483.899342388722
 21
-2156.385901198176
 31
0.0
  0
LINE
  5
21F
330
2
100
AcDbEntity
  8
0
100
AcDbLine
 10
9483.899342388722
 20
-2156.385901198176
 30
0.0
 11
9483.910787326204
 21
-2156.379813895451
 31
0.0
  0
LINE
  5
220
330
2
100
AcDbEntity
  8
0
100
AcDbLine
 10
9483.910787326204
 20
-2156.379813895451
 30
0.0
 11
9483.922279385856
 21
-2156.373788751821
 31
0.0
  0
LINE
  5
221
330
2
100
AcDbEntity
  8
0
100
AcDbLine
 10
9483.922279385856
 20
-2156.373788751821
 30
0.0
 11
9483.933818312912
 21
-2156.36782541142
 31
0.0
  0
LINE
  5
222
330
2
100
AcDbEntity
  8
0
100
AcDbLine
 10
9483.933818312912
 20
-2156.36782541142
 30
0.0
 11
9483.945403852624
 21
-2156.361923518368
 31
0.0
  0
LINE
  5
223
330
2
100
AcDbEntity
  8
0
100
AcDbLine
 10
9483.945403852624
 20
-2156.361923518368
 30
0.0
 11
9483.957035750229
 21
-2156.356082716796
 31
0.0
  0
LINE
  5
224
330
2
100
AcDbEntity
  8
0
100
AcDbLine
 10
9483.957035750229
 20
-2156.356082716796
 30
0.0
 11
9483.968713750968
 21
-2156.350302650833
 31
0.0
  0
LINE
  5
225
330
2
100
AcDbEntity
  8
0
100
AcDbLine
 10
9483.968713750968
 20
-2156.350302650833
 30
0.0
 11
9483.98043760009
 21
-2156.3445829646
 31
0.0
  0
LINE
  5
226
330
2
100
AcDbEntity
  8
0
100
AcDbLine
 10
9483.98043760009
 20
-2156.3445829646
 30
0.0
 11
9483.992207042833
 21
-2156.338923302231
 31
0.0
  0
LINE
  5
227
330
2
100
AcDbEntity
  8
0
100
AcDbLine
 10
9483.992207042833
 20
-2156.338923302231
 30
0.0
 11
9484.004021824439
 21
-2156.333323307848
 31
0.0
  0
LINE
  5
228
330
2
100
AcDbEntity
  8
0
100
AcDbLine
 10
9484.004021824439
 20
-2156.333323307848
 30
0.0
 11
9484.015881690153
 21
-2156.327782625579
 31
0.0
  0
LINE
  5
229
330
2
100
AcDbEntity
  8
0
100
AcDbLine
 10
9484.015881690153
 20
-2156.327782625579
 30
0.0
 11
9484.027786385215
 21
-2156.322300899555
 31
0.0
  0
LINE
  5
22A
330
2
100
AcDbEntity
  8
0
100
AcDbLine
 10
9484.027786385215
 20
-2156.322300899555
 30
0.0
 11
9484.039735654867
 21
-2156.316877773897
 31
0.0
  0
LINE
  5
22B
330
2
100
AcDbEntity
  8
0
100
AcDbLine
 10
9484.039735654867
 20
-2156.316877773897
 30
0.0
 11
9484.051729244358
 21
-2156.311512892738
 31
0.0
  0
LINE
  5
22C
330
2
100
AcDbEntity
  8
0
100
AcDbLine
 10
9484.051729244358
 20
-2156.311512892738
 30
0.0
 11
9484.063766898925
 21
-2156.306205900203
 31
0.0
  0
LINE
  5
22D
330
2
100
AcDbEntity
  8
0
100
AcDbLine
 10
9484.063766898925
 20
-2156.306205900203
 30
0.0
 11
9484.07584836381
 21
-2156.300956440416
 31
0.0
  0
LINE
  5
22E
330
2
100
AcDbEntity
  8
0
100
AcDbLine
 10
9484.07584836381
 20
-2156.300956440416
 30
0.0
 11
9484.087973384255
 21
-2156.295764157508
 31
0.0
  0
LINE
  5
22F
330
2
100
AcDbEntity
  8
0
100
AcDbLine
 10
9484.087973384255
 20
-2156.295764157508
 30
0.0
 11
9484.100141705509
 21
-2156.290628695605
 31
0.0
  0
LINE
  5
230
330
2
100
AcDbEntity
  8
0
100
AcDbLine
 10
9484.100141705509
 20
-2156.290628695605
 30
0.0
 11
9484.112353072806
 21
-2156.285549698833
 31
0.0
  0
LINE
  5
231
330
2
100
AcDbEntity
  8
0
100
AcDbLine
 10
9484.112353072806
 20
-2156.285549698833
 30
0.0
 11
9484.124607231391
 21
-2156.280526811322
 31
0.0
  0
LINE
  5
232
330
2
100
AcDbEntity
  8
0
100
AcDbLine
 10
9484.124607231391
 20
-2156.280526811322
 30
0.0
 11
9484.136903926511
 21
-2156.275559677196
 31
0.0
  0
LINE
  5
233
330
2
100
AcDbEntity
  8
0
100
AcDbLine
 10
9484.136903926511
 20
-2156.275559677196
 30
0.0
 11
9484.149242903404
 21
-2156.270647940585
 31
0.0
  0
LINE
  5
234
330
2
100
AcDbEntity
  8
0
100
AcDbLine
 10
9484.149242903404
 20
-2156.270647940585
 30
0.0
 11
9484.161623907317
 21
-2156.265791245616
 31
0.0
  0
LINE
  5
235
330
2
100
AcDbEntity
  8
0
100
AcDbLine
 10
9484.161623907317
 20
-2156.265791245616
 30
0.0
 11
9484.174046683483
 21
-2156.260989236412
 31
0.0
  0
LINE
  5
236
330
2
100
AcDbEntity
  8
0
100
AcDbLine
 10
9484.174046683483
 20
-2156.260989236412
 30
0.0
 11
9484.186510977155
 21
-2156.256241557104
 31
0.0
  0
LINE
  5
237
330
2
100
AcDbEntity
  8
0
100
AcDbLine
 10
9484.186510977155
 20
-2156.256241557104
 30
0.0
 11
9484.199016533571
 21
-2156.251547851817
 31
0.0
  0
LINE
  5
238
330
2
100
AcDbEntity
  8
0
100
AcDbLine
 10
9484.199016533571
 20
-2156.251547851817
 30
0.0
 11
9484.211563097971
 21
-2156.246907764681
 31
0.0
  0
LINE
  5
239
330
2
100
AcDbEntity
  8
0
100
AcDbLine
 10
9484.211563097971
 20
-2156.246907764681
 30
0.0
 11
9484.224150415604
 21
-2156.242320939826
 31
0.0
  0
LINE
  5
23A
330
2
100
AcDbEntity
  8
0
100
AcDbLine
 10
9484.224150415604
 20
-2156.242320939826
 30
0.0
 11
9484.236778231707
 21
-2156.237787021367
 31
0.0
  0
LINE
  5
23B
330
2
100
AcDbEntity
  8
0
100
AcDbLine
 10
9484.236778231707
 20
-2156.237787021367
 30
0.0
 11
9484.249446291526
 21
-2156.23330565344
 31
0.0
  0
LINE
  5
23C
330
2
100
AcDbEntity
  8
0
100
AcDbLine
 10
9484.249446291526
 20
-2156.23330565344
 30
0.0
 11
9484.262154340299
 21
-2156.228876480173
 31
0.0
  0
LINE
  5
23D
330
2
100
AcDbEntity
  8
0
100
AcDbLine
 10
9484.262154340299
 20
-2156.228876480173
 30
0.0
 11
9484.274902123273
 21
-2156.22449914569
 31
0.0
  0
LINE
  5
23E
330
2
100
AcDbEntity
  8
0
100
AcDbLine
 10
9484.274902123273
 20
-2156.22449914569
 30
0.0
 11
9484.287689385688
 21
-2156.220173294117
 31
0.0
  0
LINE
  5
23F
330
2
100
AcDbEntity
  8
0
100
AcDbLine
 10
9484.287689385688
 20
-2156.220173294117
 30
0.0
 11
9484.300515872789
 21
-2156.215898569589
 31
0.0
  0
LINE
  5
240
330
2
100
AcDbEntity
  8
0
100
AcDbLine
 10
9484.300515872789
 20
-2156.215898569589
 30
0.0
 11
9484.313381329815
 21
-2156.211674616224
 31
0.0
  0
LINE
  5
241
330
2
100
AcDbEntity
  8
0
100
AcDbLine
 10
9484.313381329815
 20
-2156.211674616224
 30
0.0
 11
9484.326285502012
 21
-2156.207501078155
 31
0.0
  0
LINE
  5
242
330
2
100
AcDbEntity
  8
0
100
AcDbLine
 10
9484.326285502012
 20
-2156.207501078155
 30
0.0
 11
9484.33922813462
 21
-2156.2033775995
 31
0.0
  0
LINE
  5
243
330
2
100
AcDbEntity
  8
0
100
AcDbLine
 10
9484.33922813462
 20
-2156.2033775995
 30
0.0
 11
9484.352208972879
 21
-2156.199303824399
 31
0.0
  0
LINE
  5
244
330
2
100
AcDbEntity
  8
0
100
AcDbLine
 10
9484.352208972879
 20
-2156.199303824399
 30
0.0
 11
9484.36522776204
 21
-2156.195279396975
 31
0.0
  0
LINE
  5
245
330
2
100
AcDbEntity
  8
0
100
AcDbLine
 10
9484.36522776204
 20
-2156.195279396975
 30
0.0
 11
9484.378284247339
 21
-2156.19130396135
 31
0.0
  0
LINE
  5
246
330
2
100
AcDbEntity
  8
0
100
AcDbLine
 10
9484.378284247339
 20
-2156.19130396135
 30
0.0
 11
9484.39137817402
 21
-2156.187377161651
 31
0.0
  0
LINE
  5
247
330
2
100
AcDbEntity
  8
0
100
AcDbLine
 10
9484.39137817402
 20
-2156.187377161651
 30
0.0
 11
9484.404509287324
 21
-2156.183498642013
 31
0.0
  0
LINE
  5
248
330
2
100
AcDbEntity
  8
0
100
AcDbLine
 10
9484.404509287324
 20
-2156.183498642013
 30
0.0
 11
9484.417677332494
 21
-2156.179668046555
 31
0.0
  0
LINE
  5
249
330
2
100
AcDbEntity
  8
0
100
AcDbLine
 10
9484.417677332494
 20
-2156.179668046555
 30
0.0
 11
9484.430882054772
 21
-2156.175885019412
 31
0.0
  0
LINE
  5
24A
330
2
100
AcDbEntity
  8
0
100
AcDbLine
 10
9484.430882054772
 20
-2156.175885019412
 30
0.0
 11
9484.444123199407
 21
-2156.172149204707
 31
0.0
  0
LINE
  5
24B
330
2
100
AcDbEntity
  8
0
100
AcDbLine
 10
9484.444123199407
 20
-2156.172149204707
 30
0.0
 11
9484.457400511635
 21
-2156.168460246564
 31
0.0
  0
LINE
  5
24C
330
2
100
AcDbEntity
  8
0
100
AcDbLine
 10
9484.457400511635
 20
-2156.168460246564
 30
0.0
 11
9484.470713736696
 21
-2156.164817789115
 31
0.0
  0
LINE
  5
24D
330
2
100
AcDbEntity
  8
0
100
AcDbLine
 10
9484.470713736696
 20
-2156.164817789115
 30
0.0
 11
9484.48406261984
 21
-2156.161221476482
 31
0.0
  0
LINE
  5
24E
330
2
100
AcDbEntity
  8
0
100
AcDbLine
 10
9484.48406261984
 20
-2156.161221476482
 30
0.0
 11
9484.497446906303
 21
-2156.157670952801
 31
0.0
  0
LINE
  5
24F
330
2
100
AcDbEntity
  8
0
100
AcDbLine
 10
9484.497446906303
 20
-2156.157670952801
 30
0.0
 11
9484.510866341334
 21
-2156.154165862193
 31
0.0
  0
LINE
  5
250
330
2
100
AcDbEntity
  8
0
100
AcDbLine
 10
9484.510866341334
 20
-2156.154165862193
 30
0.0
 11
9484.524320670169
 21
-2156.150705848784
 31
0.0
  0
LINE
  5
251
330
2
100
AcDbEntity
  8
0
100
AcDbLine
 10
9484.524320670169
 20
-2156.150705848784
 30
0.0
 11
9484.537809638052
 21
-2156.147290556698
 31
0.0
  0
LINE
  5
252
330
2
100
AcDbEntity
  8
0
100
AcDbLine
 10
9484.537809638052
 20
-2156.147290556698
 30
0.0
 11
9484.55133299023
 21
-2156.143919630077
 31
0.0
  0
LINE
  5
253
330
2
100
AcDbEntity
  8
0
100
AcDbLine
 10
9484.55133299023
 20
-2156.143919630077
 30
0.0
 11
9484.564890471942
 21
-2156.140592713032
 31
0.0
  0
LINE
  5
254
330
2
100
AcDbEntity
  8
0
100
AcDbLine
 10
9484.564890471942
 20
-2156.140592713032
 30
0.0
 11
9484.57848182843
 21
-2156.137309449695
 31
0.0
  0
LINE
  5
255
330
2
100
AcDbEntity
  8
0
100
AcDbLine
 10
9484.57848182843
 20
-2156.137309449695
 30
0.0
 11
9484.592106804937
 21
-2156.134069484199
 31
0.0
  0
LINE
  5
256
330
2
100
AcDbEntity
  8
0
100
AcDbLine
 10
9484.592106804937
 20
-2156.134069484199
 30
0.0
 11
9484.605765146703
 21
-2156.130872460663
 31
0.0
  0
LINE
  5
257
330
2
100
AcDbEntity
  8
0
100
AcDbLine
 10
9484.605765146703
 20
-2156.130872460663
 30
0.0
 11
9484.619456598979
 21
-2156.12771802322
 31
0.0
  0
LINE
  5
258
330
2
100
AcDbEntity
  8
0
100
AcDbLine
 10
9484.619456598979
 20
-2156.12771802322
 30
0.0
 11
9484.633180907
 21
-2156.124605815995
 31
0.0
  0
LINE
  5
259
330
2
100
AcDbEntity
  8
0
100
AcDbLine
 10
9484.633180907
 20
-2156.124605815995
 30
0.0
 11
9484.646937816009
 21
-2156.121535483118
 31
0.0
  0
LINE
  5
25A
330
2
100
AcDbEntity
  8
0
100
AcDbLine
 10
9484.646937816009
 20
-2156.121535483118
 30
0.0
 11
9484.660727071252
 21
-2156.118506668709
 31
0.0
  0
LINE
  5
25B
330
2
100
AcDbEntity
  8
0
100
AcDbLine
 10
9484.660727071252
 20
-2156.118506668709
 30
0.0
 11
9484.674548417968
 21
-2156.1155190169
 31
0.0
  0
LINE
  5
25C
330
2
100
AcDbEntity
  8
0
100
AcDbLine
 10
9484.674548417968
 20
-2156.1155190169
 30
0.0
 11
9484.688401601397
 21
-2156.112572171819
 31
0.0
  0
LINE
  5
25D
330
2
100
AcDbEntity
  8
0
100
AcDbLine
 10
9484.688401601397
 20
-2156.112572171819
 30
0.0
 11
9484.702286366792
 21
-2156.109665777591
 31
0.0
  0
LINE
  5
25E
330
2
100
AcDbEntity
  8
0
100
AcDbLine
 10
9484.702286366792
 20
-2156.109665777591
 30
0.0
 11
9484.716202459384
 21
-2156.106799478344
 31
0.0
  0
LINE
  5
25F
330
2
100
AcDbEntity
  8
0
100
AcDbLine
 10
9484.716202459384
 20
-2156.106799478344
 30
0.0
 11
9484.730149624422
 21
-2156.103972918208
 31
0.0
  0
LINE
  5
260
330
2
100
AcDbEntity
  8
0
100
AcDbLine
 10
9484.730149624422
 20
-2156.103972918208
 30
0.0
 11
9484.744127607148
 21
-2156.101185741302
 31
0.0
  0
LINE
  5
261
330
2
100
AcDbEntity
  8
0
100
AcDbLine
 10
9484.744127607148
 20
-2156.101185741302
 30
0.0
 11
9484.758136152796
 21
-2156.098437591761
 31
0.0
  0
LINE
  5
262
330
2
100
AcDbEntity
  8
0
100
AcDbLine
 10
9484.758136152796
 20
-2156.098437591761
 30
0.0
 11
9484.772175006629
 21
-2156.095728113708
 31
0.0
  0
LINE
  5
263
330
2
100
AcDbEntity
  8
0
100
AcDbLine
 10
9484.772175006629
 20
-2156.095728113708
 30
0.0
 11
9484.786243913866
 21
-2156.09305695127
 31
0.0
  0
LINE
  5
264
330
2
100
AcDbEntity
  8
0
100
AcDbLine
 10
9484.786243913866
 20
-2156.09305695127
 30
0.0
 11
9484.800342619765
 21
-2156.09042374858
 31
0.0
  0
LINE
  5
265
330
2
100
AcDbEntity
  8
0
100
AcDbLine
 10
9484.800342619765
 20
-2156.09042374858
 30
0.0
 11
9484.81447086956
 21
-2156.087828149761
 31
0.0
  0
LINE
  5
266
330
2
100
AcDbEntity
  8
0
100
AcDbLine
 10
9484.81447086956
 20
-2156.087828149761
 30
0.0
 11
9484.828628408498
 21
-2156.085269798939
 31
0.0
  0
LINE
  5
267
330
2
100
AcDbEntity
  8
0
100
AcDbLine
 10
9484.828628408498
 20
-2156.085269798939
 30
0.0
 11
9484.842814981822
 21
-2156.082748340238
 31
0.0
  0
LINE
  5
268
330
2
100
AcDbEntity
  8
0
100
AcDbLine
 10
9484.842814981822
 20
-2156.082748340238
 30
0.0
 11
9484.857030334771
 21
-2156.080263417795
 31
0.0
  0
LINE
  5
269
330
2
100
AcDbEntity
  8
0
100
AcDbLine
 10
9484.857030334771
 20
-2156.080263417795
 30
0.0
 11
9484.87127421259
 21
-2156.077814675728
 31
0.0
  0
LINE
  5
26A
330
2
100
AcDbEntity
  8
0
100
AcDbLine
 10
9484.87127421259
 20
-2156.077814675728
 30
0.0
 11
9484.885546360521
 21
-2156.075401758171
 31
0.0
  0
LINE
  5
26B
330
2
100
AcDbEntity
  8
0
100
AcDbLine
 10
9484.885546360521
 20
-2156.075401758171
 30
0.0
 11
9484.899846523804
 21
-2156.073024309243
 31
0.0
  0
LINE
  5
26C
330
2
100
AcDbEntity
  8
0
100
AcDbLine
 10
9484.899846523804
 20
-2156.073024309243
 30
0.0
 11
9484.914174447686
 21
-2156.070681973079
 31
0.0
  0
LINE
  5
26D
330
2
100
AcDbEntity
  8
0
100
AcDbLine
 10
9484.914174447686
 20
-2156.070681973079
 30
0.0
 11
9484.928529877404
 21
-2156.068374393806
 31
0.0
  0
LINE
  5
26E
330
2
100
AcDbEntity
  8
0
100
AcDbLine
 10
9484.928529877404
 20
-2156.068374393806
 30
0.0
 11
9484.94291255821
 21
-2156.066101215543
 31
0.0
  0
LINE
  5
26F
330
2
100
AcDbEntity
  8
0
100
AcDbLine
 10
9484.94291255821
 20
-2156.066101215543
 30
0.0
 11
9484.957322235336
 21
-2156.063862082424
 31
0.0
  0
LINE
  5
270
330
2
100
AcDbEntity
  8
0
100
AcDbLine
 10
9484.957322235336
 20
-2156.063862082424
 30
0.0
 11
9484.971758654031
 21
-2156.061656638572
 31
0.0
  0
LINE
  5
271
330
2
100
AcDbEntity
  8
0
100
AcDbLine
 10
9484.971758654031
 20
-2156.061656638572
 30
0.0
 11
9484.986221559536
 21
-2156.059484528122
 31
0.0
  0
LINE
  5
272
330
2
100
AcDbEntity
  8
0
100
AcDbLine
 10
9484.986221559536
 20
-2156.059484528122
 30
0.0
 11
9485.000710697088
 21
-2156.057345395194
 31
0.0
  0
LINE
  5
273
330
2
100
AcDbEntity
  8
0
100
AcDbLine
 10
9485.000710697088
 20
-2156.057345395194
 30
0.0
 11
9485.015225811942
 21
-2156.055238883912
 31
0.0
  0
LINE
  5
274
330
2
100
AcDbEntity
  8
0
100
AcDbLine
 10
9485.015225811942
 20
-2156.055238883912
 30
0.0
 11
9485.029766649326
 21
-2156.053164638414
 31
0.0
  0
LINE
  5
275
330
2
100
AcDbEntity
  8
0
100
AcDbLine
 10
9485.029766649326
 20
-2156.053164638414
 30
0.0
 11
9485.044332954492
 21
-2156.051122302821
 31
0.0
  0
LINE
  5
276
330
2
100
AcDbEntity
  8
0
100
AcDbLine
 10
9485.044332954492
 20
-2156.051122302821
 30
0.0
 11
9485.05892447268
 21
-2156.049111521257
 31
0.0
  0
LINE
  5
277
330
2
100
AcDbEntity
  8
0
100
AcDbLine
 10
9485.05892447268
 20
-2156.049111521257
 30
0.0
 11
9485.073540949132
 21
-2156.047131937855
 31
0.0
  0
LINE
  5
278
330
2
100
AcDbEntity
  8
0
100
AcDbLine
 10
9485.073540949132
 20
-2156.047131937855
 30
0.0
 11
9485.088182129087
 21
-2156.045183196743
 31
0.0
  0
LINE
  5
279
330
2
100
AcDbEntity
  8
0
100
AcDbLine
 10
9485.088182129087
 20
-2156.045183196743
 30
0.0
 11
9485.102847757799
 21
-2156.043264942039
 31
0.0
  0
LINE
  5
27A
330
2
100
AcDbEntity
  8
0
100
AcDbLine
 10
9485.102847757799
 20
-2156.043264942039
 30
0.0
 11
9485.117537580498
 21
-2156.041376817876
 31
0.0
  0
LINE
  5
27B
330
2
100
AcDbEntity
  8
0
100
AcDbLine
 10
9485.117537580498
 20
-2156.041376817876
 30
0.0
 11
9485.132251342431
 21
-2156.039518468387
 31
0.0
  0
LINE
  5
27C
330
2
100
AcDbEntity
  8
0
100
AcDbLine
 10
9485.132251342431
 20
-2156.039518468387
 30
0.0
 11
9485.146988788844
 21
-2156.03768953769
 31
0.0
  0
LINE
  5
27D
330
2
100
AcDbEntity
  8
0
100
AcDbLine
 10
9485.146988788844
 20
-2156.03768953769
 30
0.0
 11
9485.161749664973
 21
-2156.03588966991
 31
0.0
  0
LINE
  5
27E
330
2
100
AcDbEntity
  8
0
100
AcDbLine
 10
9485.161749664973
 20
-2156.03588966991
 30
0.0
 11
9485.176533716069
 21
-2156.034118509188
 31
0.0
  0
LINE
  5
27F
330
2
100
AcDbEntity
  8
0
100
AcDbLine
 10
9485.176533716069
 20
-2156.034118509188
 30
0.0
 11
9485.191340687364
 21
-2156.032375699636
 31
0.0
  0
LINE
  5
280
330
2
100
AcDbEntity
  8
0
100
AcDbLine
 10
9485.191340687364
 20
-2156.032375699636
 30
0.0
 11
9485.206170324108
 21
-2156.030660885392
 31
0.0
  0
LINE
  5
281
330
2
100
AcDbEntity
  8
0
100
AcDbLine
 10
9485.206170324108
 20
-2156.030660885392
 30
0.0
 11
9485.221022371542
 21
-2156.028973710578
 31
0.0
  0
LINE
  5
282
330
2
100
AcDbEntity
  8
0
100
AcDbLine
 10
9485.221022371542
 20
-2156.028973710578
 30
0.0
 11
9485.235896574904
 21
-2156.027313819322
 31
0.0
  0
LINE
  5
283
330
2
100
AcDbEntity
  8
0
100
AcDbLine
 10
9485.235896574904
 20
-2156.027313819322
 30
0.0
 11
9485.250792679444
 21
-2156.025680855753
 31
0.0
  0
LINE
  5
284
330
2
100
AcDbEntity
  8
0
100
AcDbLine
 10
9485.250792679444
 20
-2156.025680855753
 30
0.0
 11
9485.2657104304
 21
-2156.024074463995
 31
0.0
  0
LINE
  5
285
330
2
100
AcDbEntity
  8
0
100
AcDbLine
 10
9485.2657104304
 20
-2156.024074463995
 30
0.0
 11
9485.280649573017
 21
-2156.022494288175
 31
0.0
  0
LINE
  5
286
330
2
100
AcDbEntity
  8
0
100
AcDbLine
 10
9485.280649573017
 20
-2156.022494288175
 30
0.0
 11
9485.295609852533
 21
-2156.020939972425
 31
0.0
  0
LINE
  5
287
330
2
100
AcDbEntity
  8
0
100
AcDbLine
 10
9485.295609852533
 20
-2156.020939972425
 30
0.0
 11
9485.310591014195
 21
-2156.019411160865
 31
0.0
  0
LINE
  5
288
330
2
100
AcDbEntity
  8
0
100
AcDbLine
 10
9485.310591014195
 20
-2156.019411160865
 30
0.0
 11
9485.32559280324
 21
-2156.017907497629
 31
0.0
  0
LINE
  5
289
330
2
100
AcDbEntity
  8
0
100
AcDbLine
 10
9485.32559280324
 20
-2156.017907497629
 30
0.0
 11
9485.34061496492
 21
-2156.01642862684
 31
0.0
  0
LINE
  5
28A
330
2
100
AcDbEntity
  8
0
100
AcDbLine
 10
9485.34061496492
 20
-2156.01642862684
 30
0.0
 11
9485.355657244468
 21
-2156.014974192628
 31
0.0
  0
LINE
  5
28B
330
2
100
AcDbEntity
  8
0
100
AcDbLine
 10
9485.355657244468
 20
-2156.014974192628
 30
0.0
 11
9485.370719387134
 21
-2156.013543839114
 31
0.0
  0
LINE
  5
28C
330
2
100
AcDbEntity
  8
0
100
AcDbLine
 10
9485.370719387134
 20
-2156.013543839114
 30
0.0
 11
9485.385801138155
 21
-2156.012137210432
 31
0.0
  0
LINE
  5
28D
330
2
100
AcDbEntity
  8
0
100
AcDbLine
 10
9485.385801138155
 20
-2156.012137210432
 30
0.0
 11
9485.400902242773
 21
-2156.010753950711
 31
0.0
  0
LINE
  5
28E
330
2
100
AcDbEntity
  8
0
100
AcDbLine
 10
9485.400902242773
 20
-2156.010753950711
 30
0.0
 11
9485.416022446235
 21
-2156.009393704072
 31
0.0
  0
LINE
  5
28F
330
2
100
AcDbEntity
  8
0
100
AcDbLine
 10
9485.416022446235
 20
-2156.009393704072
 30
0.0
 11
9485.431161493783
 21
-2156.008056114638
 31
0.0
  0
LINE
  5
290
330
2
100
AcDbEntity
  8
0
100
AcDbLine
 10
9485.431161493783
 20
-2156.008056114638
 30
0.0
 11
9485.446319130655
 21
-2156.006740826549
 31
0.0
  0
LINE
  5
291
330
2
100
AcDbEntity
  8
0
100
AcDbLine
 10
9485.446319130655
 20
-2156.006740826549
 30
0.0
 11
9485.461495102098
 21
-2156.005447483923
 31
0.0
  0
LINE
  5
292
330
2
100
AcDbEntity
  8
0
100
AcDbLine
 10
9485.461495102098
 20
-2156.005447483923
 30
0.0
 11
9485.476689153353
 21
-2156.004175730889
 31
0.0
  0
LINE
  5
293
330
2
100
AcDbEntity
  8
0
100
AcDbLine
 10
9485.476689153353
 20
-2156.004175730889
 30
0.0
 11
9485.491901029659
 21
-2156.002925211577
 31
0.0
  0
LINE
  5
294
330
2
100
AcDbEntity
  8
0
100
AcDbLine
 10
9485.491901029659
 20
-2156.002925211577
 30
0.0
 11
9485.507130476268
 21
-2156.001695570109
 31
0.0
  0
LINE
  5
295
330
2
100
AcDbEntity
  8
0
100
AcDbLine
 10
9485.507130476268
 20
-2156.001695570109
 30
0.0
 11
9485.522377238412
 21
-2156.000486450619
 31
0.0
  0
LINE
  5
296
330
2
100
AcDbEntity
  8
0
100
AcDbLine
 10
9485.522377238412
 20
-2156.000486450619
 30
0.0
 11
9485.537641061339
 21
-2155.999297497226
 31
0.0
  0
LINE
  5
297
330
2
100
AcDbEntity
  8
0
100
AcDbLine
 10
9485.537641061339
 20
-2155.999297497226
 30
0.0
 11
9485.55292169029
 21
-2155.998128354061
 31
0.0
  0
LINE
  5
298
330
2
100
AcDbEntity
  8
0
100
AcDbLine
 10
9485.55292169029
 20
-2155.998128354061
 30
0.0
 11
9485.568218870509
 21
-2155.99697866525
 31
0.0
  0
LINE
  5
299
330
2
100
AcDbEntity
  8
0
100
AcDbLine
 10
9485.568218870509
 20
-2155.99697866525
 30
0.0
 11
9485.583532347236
 21
-2155.995848074926
 31
0.0
  0
LINE
  5
29A
330
2
100
AcDbEntity
  8
0
100
AcDbLine
 10
9485.583532347236
 20
-2155.995848074926
 30
0.0
 11
9485.598861865716
 21
-2155.99473622721
 31
0.0
  0
LINE
  5
29B
330
2
100
AcDbEntity
  8
0
100
AcDbLine
 10
9485.598861865716
 20
-2155.99473622721
 30
0.0
 11
9485.614207171192
 21
-2155.993642766231
 31
0.0
  0
LINE
  5
29C
330
2
100
AcDbEntity
  8
0
100
AcDbLine
 10
9485.614207171192
 20
-2155.993642766231
 30
0.0
 11
9485.629568008901
 21
-2155.992567336113
 31
0.0
  0
LINE
  5
29D
330
2
100
AcDbEntity
  8
0
100
AcDbLine
 10
9485.629568008901
 20
-2155.992567336113
 30
0.0
 11
9485.644944124087
 21
-2155.991509580991
 31
0.0
  0
LINE
  5
29E
330
2
100
AcDbEntity
  8
0
100
AcDbLine
 10
9485.644944124087
 20
-2155.991509580991
 30
0.0
 11
9485.660335262002
 21
-2155.990469144984
 31
0.0
  0
LINE
  5
29F
330
2
100
AcDbEntity
  8
0
100
AcDbLine
 10
9485.660335262002
 20
-2155.990469144984
 30
0.0
 11
9485.675741167876
 21
-2155.989445672224
 31
0.0
  0
LINE
  5
2A0
330
2
100
AcDbEntity
  8
0
100
AcDbLine
 10
9485.675741167876
 20
-2155.989445672224
 30
0.0
 11
9485.691161586961
 21
-2155.988438806838
 31
0.0
  0
LINE
  5
2A1
330
2
100
AcDbEntity
  8
0
100
AcDbLine
 10
9485.691161586961
 20
-2155.988438806838
 30
0.0
 11
9485.706596264492
 21
-2155.987448192947
 31
0.0
  0
LINE
  5
2A2
330
2
100
AcDbEntity
  8
0
100
AcDbLine
 10
9485.706596264492
 20
-2155.987448192947
 30
0.0
 11
9485.722044945715
 21
-2155.986473474687
 31
0.0
  0
LINE
  5
2A3
330
2
100
AcDbEntity
  8
0
100
AcDbLine
 10
9485.722044945715
 20
-2155.986473474687
 30
0.0
 11
9485.737507375876
 21
-2155.985514296178
 31
0.0
  0
LINE
  5
2A4
330
2
100
AcDbEntity
  8
0
100
AcDbLine
 10
9485.737507375876
 20
-2155.985514296178
 30
0.0
 11
9485.752983300212
 21
-2155.984570301552
 31
0.0
  0
LINE
  5
2A5
330
2
100
AcDbEntity
  8
0
100
AcDbLine
 10
9485.752983300212
 20
-2155.984570301552
 30
0.0
 11
9485.768472463965
 21
-2155.983641134934
 31
0.0
  0
LINE
  5
2A6
330
2
100
AcDbEntity
  8
0
100
AcDbLine
 10
9485.768472463965
 20
-2155.983641134934
 30
0.0
 11
9485.783974612385
 21
-2155.982726440451
 31
0.0
  0
LINE
  5
2A7
330
2
100
AcDbEntity
  8
0
100
AcDbLine
 10
9485.783974612385
 20
-2155.982726440451
 30
0.0
 11
9485.799489490704
 21
-2155.981825862232
 31
0.0
  0
LINE
  5
2A8
330
2
100
AcDbEntity
  8
0
100
AcDbLine
 10
9485.799489490704
 20
-2155.981825862232
 30
0.0
 11
9485.815016844172
 21
-2155.980939044398
 31
0.0
  0
LINE
  5
2A9
330
2
100
AcDbEntity
  8
0
100
AcDbLine
 10
9485.815016844172
 20
-2155.980939044398
 30
0.0
 11
9485.830556418028
 21
-2155.980065631086
 31
0.0
  0
LINE
  5
2AA
330
2
100
AcDbEntity
  8
0
100
AcDbLine
 10
9485.830556418028
 20
-2155.980065631086
 30
0.0
 11
9485.846107957518
 21
-2155.979205266419
 31
0.0
  0
LINE
  5
2AB
330
2
100
AcDbEntity
  8
0
100
AcDbLine
 10
9485.846107957518
 20
-2155.979205266419
 30
0.0
 11
9485.861671207883
 21
-2155.978357594518
 31
0.0
  0
LINE
  5
2AC
330
2
100
AcDbEntity
  8
0
100
AcDbLine
 10
9485.861671207883
 20
-2155.978357594518
 30
0.0
 11
9485.877245914362
 21
-2155.977522259519
 31
0.0
  0
LINE
  5
2AD
330
2
100
AcDbEntity
  8
0
100
AcDbLine
 10
9485.877245914362
 20
-2155.977522259519
 30
0.0
 11
9485.892831822203
 21
-2155.976698905545
 31
0.0
  0
LINE
  5
2AE
330
2
100
AcDbEntity
  8
0
100
AcDbLine
 10
9485.892831822203
 20
-2155.976698905545
 30
0.0
 11
9485.908428676644
 21
-2155.975887176726
 31
0.0
  0
LINE
  5
2AF
330
2
100
AcDbEntity
  8
0
100
AcDbLine
 10
9485.908428676644
 20
-2155.975887176726
 30
0.0
 11
9485.924036222932
 21
-2155.975086717182
 31
0.0
  0
LINE
  5
2B0
330
2
100
AcDbEntity
  8
0
100
AcDbLine
 10
9485.924036222932
 20
-2155.975086717182
 30
0.0
 11
9485.939654206303
 21
-2155.974297171043
 31
0.0
  0
LINE
  5
2B1
330
2
100
AcDbEntity
  8
0
100
AcDbLine
 10
9485.939654206303
 20
-2155.974297171043
 30
0.0
 11
9485.955282372009
 21
-2155.973518182443
 31
0.0
  0
LINE
  5
2B2
330
2
100
AcDbEntity
  8
0
100
AcDbLine
 10
9485.955282372009
 20
-2155.973518182443
 30
0.0
 11
9485.970920465282
 21
-2155.972749395506
 31
0.0
  0
LINE
  5
2B3
330
2
100
AcDbEntity
  8
0
100
AcDbLine
 10
9485.970920465282
 20
-2155.972749395506
 30
0.0
 11
9485.986568231368
 21
-2155.971990454352
 31
0.0
  0
LINE
  5
2B4
330
2
100
AcDbEntity
  8
0
100
AcDbLine
 10
9485.986568231368
 20
-2155.971990454352
 30
0.0
 11
9486.002225415516
 21
-2155.971241003116
 31
0.0
  0
LINE
  5
2B5
330
2
100
AcDbEntity
  8
0
100
AcDbLine
 10
9486.002225415516
 20
-2155.971241003116
 30
0.0
 11
9486.017891762958
 21
-2155.970500685921
 31
0.0
  0
LINE
  5
2B6
330
2
100
AcDbEntity
  8
0
100
AcDbLine
 10
9486.017891762958
 20
-2155.970500685921
 30
0.0
 11
9486.033567018948
 21
-2155.969769146897
 31
0.0
  0
LINE
  5
2B7
330
2
100
AcDbEntity
  8
0
100
AcDbLine
 10
9486.033567018948
 20
-2155.969769146897
 30
0.0
 11
9486.04925092872
 21
-2155.969046030171
 31
0.0
  0
LINE
  5
2B8
330
2
100
AcDbEntity
  8
0
100
AcDbLine
 10
9486.04925092872
 20
-2155.969046030171
 30
0.0
 11
9486.064943237515
 21
-2155.96833097987
 31
0.0
  0
LINE
  5
2B9
330
2
100
AcDbEntity
  8
0
100
AcDbLine
 10
9486.064943237515
 20
-2155.96833097987
 30
0.0
 11
9486.080643690584
 21
-2155.967623640117
 31
0.0
  0
LINE
  5
2BA
330
2
100
AcDbEntity
  8
0
100
AcDbLine
 10
9486.080643690584
 20
-2155.967623640117
 30
0.0
 11
9486.096352033165
 21
-2155.966923655043
 31
0.0
  0
LINE
  5
2BB
330
2
100
AcDbEntity
  8
0
100
AcDbLine
 10
9486.096352033165
 20
-2155.966923655043
 30
0.0
 11
9486.112068010497
 21
-2155.966230668774
 31
0.0
  0
LINE
  5
2BC
330
2
100
AcDbEntity
  8
0
100
AcDbLine
 10
9486.112068010497
 20
-2155.966230668774
 30
0.0
 11
9486.127791367827
 21
-2155.965544325441
 31
0.0
  0
LINE
  5
2BD
330
2
100
AcDbEntity
  8
0
100
AcDbLine
 10
9486.127791367827
 20
-2155.965544325441
 30
0.0
 11
9486.143521850395
 21
-2155.964864269167
 31
0.0
  0
LINE
  5
2BE
330
2
100
AcDbEntity
  8
0
100
AcDbLine
 10
9486.143521850395
 20
-2155.964864269167
 30
0.0
 11
9486.159259203448
 21
-2155.964190144076
 31
0.0
  0
LINE
  5
2BF
330
2
100
AcDbEntity
  8
0
100
AcDbLine
 10
9486.159259203448
 20
-2155.964190144076
 30
0.0
 11
9486.175003172226
 21
-2155.963521594304
 31
0.0
  0
LINE
  5
2C0
330
2
100
AcDbEntity
  8
0
100
AcDbLine
 10
9486.175003172226
 20
-2155.963521594304
 30
0.0
 11
9486.190753501967
 21
-2155.96285826397
 31
0.0
  0
LINE
  5
2C1
330
2
100
AcDbEntity
  8
0
100
AcDbLine
 10
9486.190753501967
 20
-2155.96285826397
 30
0.0
 11
9486.206509937922
 21
-2155.962199797206
 31
0.0
  0
LINE
  5
2C2
330
2
100
AcDbEntity
  8
0
100
AcDbLine
 10
9486.206509937922
 20
-2155.962199797206
 30
0.0
 11
9486.222272225324
 21
-2155.961545838137
 31
0.0
  0
LINE
  5
2C3
330
2
100
AcDbEntity
  8
0
100
AcDbLine
 10
9486.222272225324
 20
-2155.961545838137
 30
0.0
 11
9486.238040109423
 21
-2155.96089603089
 31
0.0
  0
LINE
  5
2C4
330
2
100
AcDbEntity
  8
0
100
AcDbLine
 10
9486.238040109423
 20
-2155.96089603089
 30
0.0
 11
9486.253813335462
 21
-2155.960250019593
 31
0.0
  0
LINE
  5
2C5
330
2
100
AcDbEntity
  8
0
100
AcDbLine
 10
9486.253813335462
 20
-2155.960250019593
 30
0.0
 11
9486.269591648676
 21
-2155.959607448374
 31
0.0
  0
LINE
  5
2C6
330
2
100
AcDbEntity
  8
0
100
AcDbLine
 10
9486.269591648676
 20
-2155.959607448374
 30
0.0
 11
9486.285374794311
 21
-2155.958967961355
 31
0.0
  0
LINE
  5
2C7
330
2
100
AcDbEntity
  8
0
100
AcDbLine
 10
9486.285374794311
 20
-2155.958967961355
 30
0.0
 11
9486.301162517612
 21
-2155.958331202672
 31
0.0
  0
LINE
  5
2C8
330
2
100
AcDbEntity
  8
0
100
AcDbLine
 10
9486.301162517612
 20
-2155.958331202672
 30
0.0
 11
9486.316954563822
 21
-2155.957696816447
 31
0.0
  0
LINE
  5
2C9
330
2
100
AcDbEntity
  8
0
100
AcDbLine
 10
9486.316954563822
 20
-2155.957696816447
 30
0.0
 11
9486.332750678178
 21
-2155.957064446807
 31
0.0
  0
LINE
  5
2CA
330
2
100
AcDbEntity
  8
0
100
AcDbLine
 10
9486.332750678178
 20
-2155.957064446807
 30
0.0
 11
9486.34855060593
 21
-2155.956433737879
 31
0.0
  0
LINE
  5
2CB
330
2
100
AcDbEntity
  8
0
100
AcDbLine
 10
9486.34855060593
 20
-2155.956433737879
 30
0.0
 11
9486.364354092314
 21
-2155.955804333792
 31
0.0
  0
LINE
  5
2CC
330
2
100
AcDbEntity
  8
0
100
AcDbLine
 10
9486.364354092314
 20
-2155.955804333792
 30
0.0
 11
9486.380160882573
 21
-2155.955175878668
 31
0.0
  0
LINE
  5
2CD
330
2
100
AcDbEntity
  8
0
100
AcDbLine
 10
9486.380160882573
 20
-2155.955175878668
 30
0.0
 11
9486.395970721956
 21
-2155.954548016644
 31
0.0
  0
LINE
  5
2CE
330
2
100
AcDbEntity
  8
0
100
AcDbLine
 10
9486.395970721956
 20
-2155.954548016644
 30
0.0
 11
9486.411783355697
 21
-2155.953920391838
 31
0.0
  0
LINE
  5
2CF
330
2
100
AcDbEntity
  8
0
100
AcDbLine
 10
9486.411783355697
 20
-2155.953920391838
 30
0.0
 11
9486.427598529042
 21
-2155.95329264838
 31
0.0
  0
LINE
  5
2D0
330
2
100
AcDbEntity
  8
0
100
AcDbLine
 10
9486.427598529042
 20
-2155.95329264838
 30
0.0
 11
9486.443415987237
 21
-2155.952664430401
 31
0.0
  0
LINE
  5
2D1
330
2
100
AcDbEntity
  8
0
100
AcDbLine
 10
9486.443415987237
 20
-2155.952664430401
 30
0.0
 11
9486.459235475519
 21
-2155.952035382022
 31
0.0
  0
LINE
  5
2D2
330
2
100
AcDbEntity
  8
0
100
AcDbLine
 10
9486.459235475519
 20
-2155.952035382022
 30
0.0
 11
9486.475056739136
 21
-2155.951405147373
 31
0.0
  0
LINE
  5
2D3
330
2
100
AcDbEntity
  8
0
100
AcDbLine
 10
9486.475056739136
 20
-2155.951405147373
 30
0.0
 11
9486.490879523325
 21
-2155.950773370582
 31
0.0
  0
LINE
  5
2D4
330
2
100
AcDbEntity
  8
0
100
AcDbLine
 10
9486.490879523325
 20
-2155.950773370582
 30
0.0
 11
9486.506703573331
 21
-2155.950139695774
 31
0.0
  0
LINE
  5
2D5
330
2
100
AcDbEntity
  8
0
100
AcDbLine
 10
9486.506703573331
 20
-2155.950139695774
 30
0.0
 11
9486.522528634395
 21
-2155.949503767078
 31
0.0
  0
LINE
  5
2D6
330
2
100
AcDbEntity
  8
0
100
AcDbLine
 10
9486.522528634395
 20
-2155.949503767078
 30
0.0
 11
9486.538354451765
 21
-2155.948865228623
 31
0.0
  0
LINE
  5
2D7
330
2
100
AcDbEntity
  8
0
100
AcDbLine
 10
9486.538354451765
 20
-2155.948865228623
 30
0.0
 11
9486.554180770674
 21
-2155.948223724531
 31
0.0
  0
LINE
  5
2D8
330
2
100
AcDbEntity
  8
0
100
AcDbLine
 10
9486.554180770674
 20
-2155.948223724531
 30
0.0
 11
9486.570007336371
 21
-2155.947578898929
 31
0.0
  0
LINE
  5
2D9
330
2
100
AcDbEntity
  8
0
100
AcDbLine
 10
9486.570007336371
 20
-2155.947578898929
 30
0.0
 11
9486.585833894102
 21
-2155.946930395948
 31
0.0
  0
LINE
  5
2DA
330
2
100
AcDbEntity
  8
0
100
AcDbLine
 10
9486.585833894102
 20
-2155.946930395948
 30
0.0
 11
9486.6016601891
 21
-2155.946277859718
 31
0.0
  0
LINE
  5
2DB
330
2
100
AcDbEntity
  8
0
100
AcDbLine
 10
9486.6016601891
 20
-2155.946277859718
 30
0.0
 11
9486.617485966617
 21
-2155.945620934362
 31
0.0
  0
LINE
  5
2DC
330
2
100
AcDbEntity
  8
0
100
AcDbLine
 10
9486.617485966617
 20
-2155.945620934362
 30
0.0
 11
9486.633310971889
 21
-2155.944959264
 31
0.0
  0
LINE
  5
2DD
330
2
100
AcDbEntity
  8
0
100
AcDbLine
 10
9486.633310971889
 20
-2155.944959264
 30
0.0
 11
9486.649134950155
 21
-2155.944292492774
 31
0.0
  0
LINE
  5
2DE
330
2
100
AcDbEntity
  8
0
100
AcDbLine
 10
9486.649134950155
 20
-2155.944292492774
 30
0.0
 11
9486.66495764667
 21
-2155.943620264802
 31
0.0
  0
LINE
  5
2DF
330
2
100
AcDbEntity
  8
0
100
AcDbLine
 10
9486.66495764667
 20
-2155.943620264802
 30
0.0
 11
9486.680778806668
 21
-2155.942942224213
 31
0.0
  0
LINE
  5
2E0
330
2
100
AcDbEntity
  8
0
100
AcDbLine
 10
9486.680778806668
 20
-2155.942942224213
 30
0.0
 11
9486.69659817539
 21
-2155.942258015132
 31
0.0
  0
LINE
  5
2E1
330
2
100
AcDbEntity
  8
0
100
AcDbLine
 10
9486.69659817539
 20
-2155.942258015132
 30
0.0
 11
9486.712415498082
 21
-2155.941567281689
 31
0.0
  0
LINE
  5
2E2
330
2
100
AcDbEntity
  8
0
100
AcDbLine
 10
9486.712415498082
 20
-2155.941567281689
 30
0.0
 11
9486.728230519991
 21
-2155.94086966801
 31
0.0
  0
LINE
  5
2E3
330
2
100
AcDbEntity
  8
0
100
AcDbLine
 10
9486.728230519991
 20
-2155.94086966801
 30
0.0
 11
9486.74404298635
 21
-2155.940164818224
 31
0.0
  0
LINE
  5
2E4
330
2
100
AcDbEntity
  8
0
100
AcDbLine
 10
9486.74404298635
 20
-2155.940164818224
 30
0.0
 11
9486.759852642405
 21
-2155.939452376456
 31
0.0
  0
LINE
  5
2E5
330
2
100
AcDbEntity
  8
0
100
AcDbLine
 10
9486.759852642405
 20
-2155.939452376456
 30
0.0
 11
9486.775659233405
 21
-2155.938731986832
 31
0.0
  0
LINE
  5
2E6
330
2
100
AcDbEntity
  8
0
100
AcDbLine
 10
9486.775659233405
 20
-2155.938731986832
 30
0.0
 11
9486.791462504582
 21
-2155.938003293481
 31
0.0
  0
LINE
  5
2E7
330
2
100
AcDbEntity
  8
0
100
AcDbLine
 10
9486.791462504582
 20
-2155.938003293481
 30
0.0
 11
9486.807262201182
 21
-2155.937265940534
 31
0.0
  0
LINE
  5
2E8
330
2
100
AcDbEntity
  8
0
100
AcDbLine
 10
9486.807262201182
 20
-2155.937265940534
 30
0.0
 11
9486.823058068452
 21
-2155.93651957211
 31
0.0
  0
LINE
  5
2E9
330
2
100
AcDbEntity
  8
0
100
AcDbLine
 10
9486.823058068452
 20
-2155.93651957211
 30
0.0
 11
9486.838849851633
 21
-2155.935763832341
 31
0.0
  0
LINE
  5
2EA
330
2
100
AcDbEntity
  8
0
100
AcDbLine
 10
9486.838849851633
 20
-2155.935763832341
 30
0.0
 11
9486.854637295959
 21
-2155.934998365351
 31
0.0
  0
LINE
  5
2EB
330
2
100
AcDbEntity
  8
0
100
AcDbLine
 10
9486.854637295959
 20
-2155.934998365351
 30
0.0
 11
9486.870420146686
 21
-2155.934222815274
 31
0.0
  0
LINE
  5
2EC
330
2
100
AcDbEntity
  8
0
100
AcDbLine
 10
9486.870420146686
 20
-2155.934222815274
 30
0.0
 11
9486.886198149049
 21
-2155.933436826227
 31
0.0
  0
LINE
  5
2ED
330
2
100
AcDbEntity
  8
0
100
AcDbLine
 10
9486.886198149049
 20
-2155.933436826227
 30
0.0
 11
9486.901971048292
 21
-2155.932640042348
 31
0.0
  0
LINE
  5
2EE
330
2
100
AcDbEntity
  8
0
100
AcDbLine
 10
9486.901971048292
 20
-2155.932640042348
 30
0.0
 11
9486.917738589657
 21
-2155.931832107758
 31
0.0
  0
LINE
  5
2EF
330
2
100
AcDbEntity
  8
0
100
AcDbLine
 10
9486.917738589657
 20
-2155.931832107758
 30
0.0
 11
9486.933500518382
 21
-2155.931012666587
 31
0.0
  0
LINE
  5
2F0
330
2
100
AcDbEntity
  8
0
100
AcDbLine
 10
9486.933500518382
 20
-2155.931012666587
 30
0.0
 11
9486.949256579716
 21
-2155.930181362956
 31
0.0
  0
LINE
  5
2F1
330
2
100
AcDbEntity
  8
0
100
AcDbLine
 10
9486.949256579716
 20
-2155.930181362956
 30
0.0
 11
9486.9650065189
 21
-2155.929337841
 31
0.0
  0
LINE
  5
2F2
330
2
100
AcDbEntity
  8
0
100
AcDbLine
 10
9486.9650065189
 20
-2155.929337841
 30
0.0
 11
9486.980750081178
 21
-2155.928481744838
 31
0.0
  0
LINE
  5
2F3
330
2
100
AcDbEntity
  8
0
100
AcDbLine
 10
9486.980750081178
 20
-2155.928481744838
 30
0.0
 11
9486.996487011785
 21
-2155.927612718605
 31
0.0
  0
LINE
  5
2F4
330
2
100
AcDbEntity
  8
0
100
AcDbLine
 10
9486.996487011785
 20
-2155.927612718605
 30
0.0
 11
9487.012217055974
 21
-2155.926730406426
 31
0.0
  0
LINE
  5
2F5
330
2
100
AcDbEntity
  8
0
100
AcDbLine
 10
9487.012217055974
 20
-2155.926730406426
 30
0.0
 11
9487.027939958982
 21
-2155.925834452423
 31
0.0
  0
LINE
  5
2F6
330
2
100
AcDbEntity
  8
0
100
AcDbLine
 10
9487.027939958982
 20
-2155.925834452423
 30
0.0
 11
9487.043655466051
 21
-2155.924924500729
 31
0.0
  0
LINE
  5
2F7
330
2
100
AcDbEntity
  8
0
100
AcDbLine
 10
9487.043655466051
 20
-2155.924924500729
 30
0.0
 11
9487.059363322423
 21
-2155.92400019547
 31
0.0
  0
LINE
  5
2F8
330
2
100
AcDbEntity
  8
0
100
AcDbLine
 10
9487.059363322423
 20
-2155.92400019547
 30
0.0
 11
9487.075063273342
 21
-2155.923061180772
 31
0.0
  0
LINE
  5
2F9
330
2
100
AcDbEntity
  8
0
100
AcDbLine
 10
9487.075063273342
 20
-2155.923061180772
 30
0.0
 11
9487.09075506405
 21
-2155.922107100762
 31
0.0
  0
LINE
  5
2FA
330
2
100
AcDbEntity
  8
0
100
AcDbLine
 10
9487.09075506405
 20
-2155.922107100762
 30
0.0
 11
9487.106438439793
 21
-2155.921137599572
 31
0.0
  0
LINE
  5
2FB
330
2
100
AcDbEntity
  8
0
100
AcDbLine
 10
9487.106438439793
 20
-2155.921137599572
 30
0.0
 11
9487.12211314581
 21
-2155.92015232132
 31
0.0
  0
LINE
  5
2FC
330
2
100
AcDbEntity
  8
0
100
AcDbLine
 10
9487.12211314581
 20
-2155.92015232132
 30
0.0
 11
9487.137778927342
 21
-2155.919150910143
 31
0.0
  0
LINE
  5
2FD
330
2
100
AcDbEntity
  8
0
100
AcDbLine
 10
9487.137778927342
 20
-2155.919150910143
 30
0.0
 11
9487.153435529638
 21
-2155.918133010156
 31
0.0
  0
LINE
  5
2FE
330
2
100
AcDbEntity
  8
0
100
AcDbLine
 10
9487.153435529638
 20
-2155.918133010156
 30
0.0
 11
9487.16908269793
 21
-2155.917098265497
 31
0.0
  0
LINE
  5
2FF
330
2
100
AcDbEntity
  8
0
100
AcDbLine
 10
9487.16908269793
 20
-2155.917098265497
 30
0.0
 11
9487.184720177468
 21
-2155.916046320292
 31
0.0
  0
LINE
  5
300
330
2
100
AcDbEntity
  8
0
100
AcDbLine
 10
9487.184720177468
 20
-2155.916046320292
 30
0.0
 11
9487.200347713494
 21
-2155.914976818661
 31
0.0
  0
LINE
  5
301
330
2
100
AcDbEntity
  8
0
100
AcDbLine
 10
9487.200347713494
 20
-2155.914976818661
 30
0.0
 11
9487.215965051246
 21
-2155.913889404738
 31
0.0
  0
LINE
  5
302
330
2
100
AcDbEntity
  8
0
100
AcDbLine
 10
9487.215965051246
 20
-2155.913889404738
 30
0.0
 11
9487.231571935977
 21
-2155.912783722647
 31
0.0
  0
LINE
  5
303
330
2
100
AcDbEntity
  8
0
100
AcDbLine
 10
9487.231571935977
 20
-2155.912783722647
 30
0.0
 11
9487.247168112915
 21
-2155.911659416516
 31
0.0
  0
LINE
  5
304
330
2
100
AcDbEntity
  8
0
100
AcDbLine
 10
9487.247168112915
 20
-2155.911659416516
 30
0.0
 11
9487.262753327316
 21
-2155.910516130475
 31
0.0
  0
LINE
  5
305
330
2
100
AcDbEntity
  8
0
100
AcDbLine
 10
9487.262753327316
 20
-2155.910516130475
 30
0.0
 11
9487.278327324416
 21
-2155.90935350865
 31
0.0
  0
LINE
  5
306
330
2
100
AcDbEntity
  8
0
100
AcDbLine
 10
9487.278327324416
 20
-2155.90935350865
 30
0.0
 11
9487.293889849452
 21
-2155.908171195161
 31
0.0
  0
LINE
  5
307
330
2
100
AcDbEntity
  8
0
100
AcDbLine
 10
9487.293889849452
 20
-2155.908171195161
 30
0.0
 11
9487.309440647676
 21
-2155.906968834139
 31
0.0
  0
LINE
  5
308
330
2
100
AcDbEntity
  8
0
100
AcDbLine
 10
9487.309440647676
 20
-2155.906968834139
 30
0.0
 11
9487.324979464327
 21
-2155.905746069722
 31
0.0
  0
LINE
  5
309
330
2
100
AcDbEntity
  8
0
100
AcDbLine
 10
9487.324979464327
 20
-2155.905746069722
 30
0.0
 11
9487.340506044647
 21
-2155.904502546021
 31
0.0
  0
LINE
  5
30A
330
2
100
AcDbEntity
  8
0
100
AcDbLine
 10
9487.340506044647
 20
-2155.904502546021
 30
0.0
 11
9487.356020133878
 21
-2155.903237907171
 31
0.0
  0
LINE
  5
30B
330
2
100
AcDbEntity
  8
0
100
AcDbLine
 10
9487.356020133878
 20
-2155.903237907171
 30
0.0
 11
9487.371521477268
 21
-2155.901951797298
 31
0.0
  0
LINE
  5
30C
330
2
100
AcDbEntity
  8
0
100
AcDbLine
 10
9487.371521477268
 20
-2155.901951797298
 30
0.0
 11
9487.38700982005
 21
-2155.900643860531
 31
0.0
  0
LINE
  5
30D
330
2
100
AcDbEntity
  8
0
100
AcDbLine
 10
9487.38700982005
 20
-2155.900643860531
 30
0.0
 11
9487.402484907475
 21
-2155.899313740992
 31
0.0
  0
LINE
  5
30E
330
2
100
AcDbEntity
  8
0
100
AcDbLine
 10
9487.402484907475
 20
-2155.899313740992
 30
0.0
 11
9487.41794648478
 21
-2155.897961082816
 31
0.0
  0
LINE
  5
30F
330
2
100
AcDbEntity
  8
0
100
AcDbLine
 10
9487.41794648478
 20
-2155.897961082816
 30
0.0
 11
9487.433394297209
 21
-2155.896585530124
 31
0.0
  0
LINE
  5
310
330
2
100
AcDbEntity
  8
0
100
AcDbLine
 10
9487.433394297209
 20
-2155.896585530124
 30
0.0
 11
9487.448828090004
 21
-2155.895186727043
 31
0.0
  0
LINE
  5
311
330
2
100
AcDbEntity
  8
0
100
AcDbLine
 10
9487.448828090004
 20
-2155.895186727043
 30
0.0
 11
9487.464247608413
 21
-2155.893764317704
 31
0.0
  0
LINE
  5
312
330
2
100
AcDbEntity
  8
0
100
AcDbLine
 10
9487.464247608413
 20
-2155.893764317704
 30
0.0
 11
9487.479652597668
 21
-2155.892317946236
 31
0.0
  0
LINE
  5
313
330
2
100
AcDbEntity
  8
0
100
AcDbLine
 10
9487.479652597668
 20
-2155.892317946236
 30
0.0
 11
9487.49504280302
 21
-2155.890847256756
 31
0.0
  0
LINE
  5
314
330
2
100
AcDbEntity
  8
0
100
AcDbLine
 10
9487.49504280302
 20
-2155.890847256756
 30
0.0
 11
9487.51041796971
 21
-2155.889351893405
 31
0.0
  0
LINE
  5
315
330
2
100
AcDbEntity
  8
0
100
AcDbLine
 10
9487.51041796971
 20
-2155.889351893405
 30
0.0
 11
9487.52577784298
 21
-2155.887831500294
 31
0.0
  0
LINE
  5
316
330
2
100
AcDbEntity
  8
0
100
AcDbLine
 10
9487.52577784298
 20
-2155.887831500294
 30
0.0
 11
9487.541122168067
 21
-2155.886285721564
 31
0.0
  0
LINE
  5
317
330
2
100
AcDbEntity
  8
0
100
AcDbLine
 10
9487.541122168067
 20
-2155.886285721564
 30
0.0
 11
9487.556450690226
 21
-2155.884714201336
 31
0.0
  0
LINE
  5
318
330
2
100
AcDbEntity
  8
0
100
AcDbLine
 10
9487.556450690226
 20
-2155.884714201336
 30
0.0
 11
9487.571763154686
 21
-2155.883116583739
 31
0.0
  0
LINE
  5
319
330
2
100
AcDbEntity
  8
0
100
AcDbLine
 10
9487.571763154686
 20
-2155.883116583739
 30
0.0
 11
9487.587059306695
 21
-2155.881492512897
 31
0.0
  0
LINE
  5
31A
330
2
100
AcDbEntity
  8
0
100
AcDbLine
 10
9487.587059306695
 20
-2155.881492512897
 30
0.0
 11
9487.602338891502
 21
-2155.879841632944
 31
0.0
  0
LINE
  5
31B
330
2
100
AcDbEntity
  8
0
100
AcDbLine
 10
9487.602338891502
 20
-2155.879841632944
 30
0.0
 11
9487.61760165434
 21
-2155.878163587996
 31
0.0
  0
LINE
  5
31C
330
2
100
AcDbEntity
  8
0
100
AcDbLine
 10
9487.61760165434
 20
-2155.878163587996
 30
0.0
 11
9487.632847340456
 21
-2155.87645802219
 31
0.0
  0
LINE
  5
31D
330
2
100
AcDbEntity
  8
0
100
AcDbLine
 10
9487.632847340456
 20
-2155.87645802219
 30
0.0
 11
9487.648075695089
 21
-2155.87472457965
 31
0.0
  0
LINE
  5
31E
330
2
100
AcDbEntity
  8
0
100
AcDbLine
 10
9487.648075695089
 20
-2155.87472457965
 30
0.0
 11
9487.663286463483
 21
-2155.872962904505
 31
0.0
  0
LINE
  5
31F
330
2
100
AcDbEntity
  8
0
100
AcDbLine
 10
9487.663286463483
 20
-2155.872962904505
 30
0.0
 11
9487.678479390886
 21
-2155.871172640879
 31
0.0
  0
LINE
  5
320
330
2
100
AcDbEntity
  8
0
100
AcDbLine
 10
9487.678479390886
 20
-2155.871172640879
 30
0.0
 11
9487.693654222534
 21
-2155.869353432899
 31
0.0
  0
LINE
  5
321
330
2
100
AcDbEntity
  8
0
100
AcDbLine
 10
9487.693654222534
 20
-2155.869353432899
 30
0.0
 11
9487.70881070367
 21
-2155.867504924695
 31
0.0
  0
LINE
  5
322
330
2
100
AcDbEntity
  8
0
100
AcDbLine
 10
9487.70881070367
 20
-2155.867504924695
 30
0.0
 11
9487.723948579541
 21
-2155.865626760387
 31
0.0
  0
LINE
  5
323
330
2
100
AcDbEntity
  8
0
100
AcDbLine
 10
9487.723948579541
 20
-2155.865626760387
 30
0.0
 11
9487.739067595382
 21
-2155.863718584114
 31
0.0
  0
LINE
  5
324
330
2
100
AcDbEntity
  8
0
100
AcDbLine
 10
9487.739067595382
 20
-2155.863718584114
 30
0.0
 11
9487.754167496444
 21
-2155.861780039995
 31
0.0
  0
LINE
  5
325
330
2
100
AcDbEntity
  8
0
100
AcDbLine
 10
9487.754167496444
 20
-2155.861780039995
 30
0.0
 11
9487.769248027964
 21
-2155.859810772162
 31
0.0
  0
LINE
  5
326
330
2
100
AcDbEntity
  8
0
100
AcDbLine
 10
9487.769248027964
 20
-2155.859810772162
 30
0.0
 11
9487.784308935188
 21
-2155.857810424735
 31
0.0
  0
LINE
  5
327
330
2
100
AcDbEntity
  8
0
100
AcDbLine
 10
9487.784308935188
 20
-2155.857810424735
 30
0.0
 11
9487.799349963351
 21
-2155.855778641845
 31
0.0
  0
LINE
  5
328
330
2
100
AcDbEntity
  8
0
100
AcDbLine
 10
9487.799349963351
 20
-2155.855778641845
 30
0.0
 11
9487.814370857709
 21
-2155.853715067619
 31
0.0
  0
LINE
  5
329
330
2
100
AcDbEntity
  8
0
100
AcDbLine
 10
9487.814370857709
 20
-2155.853715067619
 30
0.0
 11
9487.829371363487
 21
-2155.85161934619
 31
0.0
  0
LINE
  5
32A
330
2
100
AcDbEntity
  8
0
100
AcDbLine
 10
9487.829371363487
 20
-2155.85161934619
 30
0.0
 11
9487.844351225943
 21
-2155.849491121676
 31
0.0
  0
LINE
  5
32B
330
2
100
AcDbEntity
  8
0
100
AcDbLine
 10
9487.844351225943
 20
-2155.849491121676
 30
0.0
 11
9487.859310190314
 21
-2155.847330038209
 31
0.0
  0
LINE
  5
32C
330
2
100
AcDbEntity
  8
0
100
AcDbLine
 10
9487.859310190314
 20
-2155.847330038209
 30
0.0
 11
9487.874248001839
 21
-2155.845135739916
 31
0.0
  0
LINE
  5
32D
330
2
100
AcDbEntity
  8
0
100
AcDbLine
 10
9487.874248001839
 20
-2155.845135739916
 30
0.0
 11
9487.889164405766
 21
-2155.842907870923
 31
0.0
  0
LINE
  5
32E
330
2
100
AcDbEntity
  8
0
100
AcDbLine
 10
9487.889164405766
 20
-2155.842907870923
 30
0.0
 11
9487.90405914733
 21
-2155.840646075353
 31
0.0
  0
LINE
  5
32F
330
2
100
AcDbEntity
  8
0
100
AcDbLine
 10
9487.90405914733
 20
-2155.840646075353
 30
0.0
 11
9487.918931971783
 21
-2155.838349997342
 31
0.0
  0
LINE
  5
330
330
2
100
AcDbEntity
  8
0
100
AcDbLine
 10
9487.918931971783
 20
-2155.838349997342
 30
0.0
 11
9487.933782624365
 21
-2155.836019281009
 31
0.0
  0
LINE
  5
331
330
2
100
AcDbEntity
  8
0
100
AcDbLine
 10
9487.933782624365
 20
-2155.836019281009
 30
0.0
 11
9487.948610850313
 21
-2155.833653570487
 31
0.0
  0
LINE
  5
332
330
2
100
AcDbEntity
  8
0
100
AcDbLine
 10
9487.948610850313
 20
-2155.833653570487
 30
0.0
 11
9487.963416394872
 21
-2155.831252509902
 31
0.0
  0
LINE
  5
333
330
2
100
AcDbEntity
  8
0
100
AcDbLine
 10
9487.963416394872
 20
-2155.831252509902
 30
0.0
 11
9487.978199003288
 21
-2155.828815743377
 31
0.0
  0
LINE
  5
334
330
2
100
AcDbEntity
  8
0
100
AcDbLine
 10
9487.978199003288
 20
-2155.828815743377
 30
0.0
 11
9487.9929584208
 21
-2155.826342915046
 31
0.0
  0
LINE
  5
335
330
2
100
AcDbEntity
  8
0
100
AcDbLine
 10
9487.9929584208
 20
-2155.826342915046
 30
0.0
 11
9488.007694392653
 21
-2155.823833669033
 31
0.0
  0
LINE
  5
336
330
2
100
AcDbEntity
  8
0
100
AcDbLine
 10
9488.007694392653
 20
-2155.823833669033
 30
0.0
 11
9488.022406664084
 21
-2155.821287649462
 31
0.0
  0
LINE
  5
337
330
2
100
AcDbEntity
  8
0
100
AcDbLine
 10
9488.022406664084
 20
-2155.821287649462
 30
0.0
 11
9488.037094980342
 21
-2155.818704500463
 31
0.0
  0
LINE
  5
338
330
2
100
AcDbEntity
  8
0
100
AcDbLine
 10
9488.037094980342
 20
-2155.818704500463
 30
0.0
 11
9488.051759086667
 21
-2155.816083866163
 31
0.0
  0
LINE
  5
339
330
2
100
AcDbEntity
  8
0
100
AcDbLine
 10
9488.051759086667
 20
-2155.816083866163
 30
0.0
 11
9488.066398728298
 21
-2155.813425390689
 31
0.0
  0
LINE
  5
33A
330
2
100
AcDbEntity
  8
0
100
AcDbLine
 10
9488.066398728298
 20
-2155.813425390689
 30
0.0
 11
9488.081013650488
 21
-2155.810728718169
 31
0.0
  0
LINE
  5
33B
330
2
100
AcDbEntity
  8
0
100
AcDbLine
 10
9488.081013650488
 20
-2155.810728718169
 30
0.0
 11
9488.095603598468
 21
-2155.807993492729
 31
0.0
  0
LINE
  5
33C
330
2
100
AcDbEntity
  8
0
100
AcDbLine
 10
9488.095603598468
 20
-2155.807993492729
 30
0.0
 11
9488.110168317488
 21
-2155.805219358494
 31
0.0
  0
LINE
  5
33D
330
2
100
AcDbEntity
  8
0
100
AcDbLine
 10
9488.110168317488
 20
-2155.805219358494
 30
0.0
 11
9488.124707552785
 21
-2155.802405959595
 31
0.0
  0
LINE
  5
33E
330
2
100
AcDbEntity
  8
0
100
AcDbLine
 10
9488.124707552785
 20
-2155.802405959595
 30
0.0
 11
9488.139221049602
 21
-2155.799552940159
 31
0.0
  0
LINE
  5
33F
330
2
100
AcDbEntity
  8
0
100
AcDbLine
 10
9488.139221049602
 20
-2155.799552940159
 30
0.0
 11
9488.153708553186
 21
-2155.796659944309
 31
0.0
  0
LINE
  5
340
330
2
100
AcDbEntity
  8
0
100
AcDbLine
 10
9488.153708553186
 20
-2155.796659944309
 30
0.0
 11
9488.168169808776
 21
-2155.793726616174
 31
0.0
  0
LINE
  5
341
330
2
100
AcDbEntity
  8
0
100
AcDbLine
 10
9488.168169808776
 20
-2155.793726616174
 30
0.0
 11
9488.182604561616
 21
-2155.790752599888
 31
0.0
  0
LINE
  5
342
330
2
100
AcDbEntity
  8
0
100
AcDbLine
 10
9488.182604561616
 20
-2155.790752599888
 30
0.0
 11
9488.19701255695
 21
-2155.787737539569
 31
0.0
  0
LINE
  5
343
330
2
100
AcDbEntity
  8
0
100
AcDbLine
 10
9488.19701255695
 20
-2155.787737539569
 30
0.0
 11
9488.211393540016
 21
-2155.784681079348
 31
0.0
  0
LINE
  5
344
330
2
100
AcDbEntity
  8
0
100
AcDbLine
 10
9488.211393540016
 20
-2155.784681079348
 30
0.0
 11
9488.225747256059
 21
-2155.781582863353
 31
0.0
  0
LINE
  5
345
330
2
100
AcDbEntity
  8
0
100
AcDbLine
 10
9488.225747256059
 20
-2155.781582863353
 30
0.0
 11
9488.240073450318
 21
-2155.778442535705
 31
0.0
  0
LINE
  5
346
330
2
100
AcDbEntity
  8
0
100
AcDbLine
 10
9488.240073450318
 20
-2155.778442535705
 30
0.0
 11
9488.254371868046
 21
-2155.775259740541
 31
0.0
  0
LINE
  5
347
330
2
100
AcDbEntity
  8
0
100
AcDbLine
 10
9488.254371868046
 20
-2155.775259740541
 30
0.0
 11
9488.268642254476
 21
-2155.772034121982
 31
0.0
  0
LINE
  5
348
330
2
100
AcDbEntity
  8
0
100
AcDbLine
 10
9488.268642254476
 20
-2155.772034121982
 30
0.0
 11
9488.282884354852
 21
-2155.768765324151
 31
0.0
  0
LINE
  5
349
330
2
100
AcDbEntity
  8
0
100
AcDbLine
 10
9488.282884354852
 20
-2155.768765324151
 30
0.0
 11
9488.297097914417
 21
-2155.765452991188
 31
0.0
  0
LINE
  5
34A
330
2
100
AcDbEntity
  8
0
100
AcDbLine
 10
9488.297097914417
 20
-2155.765452991188
 30
0.0
 11
9488.311282678417
 21
-2155.762096767208
 31
0.0
  0
LINE
  5
34B
330
2
100
AcDbEntity
  8
0
100
AcDbLine
 10
9488.311282678417
 20
-2155.762096767208
 30
0.0
 11
9488.325438392086
 21
-2155.758696296342
 31
0.0
  0
LINE
  5
34C
330
2
100
AcDbEntity
  8
0
100
AcDbLine
 10
9488.325438392086
 20
-2155.758696296342
 30
0.0
 11
9488.339564800675
 21
-2155.755251222719
 31
0.0
  0
LINE
  5
34D
330
2
100
AcDbEntity
  8
0
100
AcDbLine
 10
9488.339564800675
 20
-2155.755251222719
 30
0.0
 11
9488.353661649428
 21
-2155.751761190465
 31
0.0
  0
LINE
  5
34E
330
2
100
AcDbEntity
  8
0
100
AcDbLine
 10
9488.353661649428
 20
-2155.751761190465
 30
0.0
 11
9488.367728683575
 21
-2155.748225843708
 31
0.0
  0
LINE
  5
34F
330
2
100
AcDbEntity
  8
0
100
AcDbLine
 10
9488.367728683575
 20
-2155.748225843708
 30
0.0
 11
9488.381765648377
 21
-2155.744644826576
 31
0.0
  0
LINE
  5
350
330
2
100
AcDbEntity
  8
0
100
AcDbLine
 10
9488.381765648377
 20
-2155.744644826576
 30
0.0
 11
9488.395772289058
 21
-2155.741017783191
 31
0.0
  0
LINE
  5
351
330
2
100
AcDbEntity
  8
0
100
AcDbLine
 10
9488.395772289058
 20
-2155.741017783191
 30
0.0
 11
9488.409748350866
 21
-2155.737344357683
 31
0.0
  0
LINE
  5
352
330
2
100
AcDbEntity
  8
0
100
AcDbLine
 10
9488.409748350866
 20
-2155.737344357683
 30
0.0
 11
9488.423693579052
 21
-2155.73362419418
 31
0.0
  0
LINE
  5
353
330
2
100
AcDbEntity
  8
0
100
AcDbLine
 10
9488.423693579052
 20
-2155.73362419418
 30
0.0
 11
9488.43760771885
 21
-2155.72985693681
 31
0.0
  0
LINE
  5
354
330
2
100
AcDbEntity
  8
0
100
AcDbLine
 10
9488.43760771885
 20
-2155.72985693681
 30
0.0
 11
9488.451490515505
 21
-2155.726042229696
 31
0.0
  0
LINE
  5
355
330
2
100
AcDbEntity
  8
0
100
AcDbLine
 10
9488.451490515505
 20
-2155.726042229696
 30
0.0
 11
9488.465341714258
 21
-2155.722179716972
 31
0.0
  0
LINE
  5
356
330
2
100
AcDbEntity
  8
0
100
AcDbLine
 10
9488.465341714258
 20
-2155.722179716972
 30
0.0
 11
9488.479161060357
 21
-2155.718269042761
 31
0.0
  0
LINE
  5
357
330
2
100
AcDbEntity
  8
0
100
AcDbLine
 10
9488.479161060357
 20
-2155.718269042761
 30
0.0
 11
9488.492948299038
 21
-2155.714309851187
 31
0.0
  0
LINE
  5
358
330
2
100
AcDbEntity
  8
0
100
AcDbLine
 10
9488.492948299038
 20
-2155.714309851187
 30
0.0
 11
9488.506703175549
 21
-2155.710301786384
 31
0.0
  0
LINE
  5
359
330
2
100
AcDbEntity
  8
0
100
AcDbLine
 10
9488.506703175549
 20
-2155.710301786384
 30
0.0
 11
9488.520425435124
 21
-2155.706244492473
 31
0.0
  0
LINE
  5
35A
330
2
100
AcDbEntity
  8
0
100
AcDbLine
 10
9488.520425435124
 20
-2155.706244492473
 30
0.0
 11
9488.534114823011
 21
-2155.702137613588
 31
0.0
  0
LINE
  5
35B
330
2
100
AcDbEntity
  8
0
100
AcDbLine
 10
9488.534114823011
 20
-2155.702137613588
 30
0.0
 11
9488.547771084455
 21
-2155.697980793847
 31
0.0
  0
LINE
  5
35C
330
2
100
AcDbEntity
  8
0
100
AcDbLine
 10
9488.547771084455
 20
-2155.697980793847
 30
0.0
 11
9488.561393964696
 21
-2155.693773677382
 31
0.0
  0
LINE
  5
35D
330
2
100
AcDbEntity
  8
0
100
AcDbLine
 10
9488.561393964696
 20
-2155.693773677382
 30
0.0
 11
9488.574983208978
 21
-2155.689515908328
 31
0.0
  0
LINE
  5
35E
330
2
100
AcDbEntity
  8
0
100
AcDbLine
 10
9488.574983208978
 20
-2155.689515908328
 30
0.0
 11
9488.588538562542
 21
-2155.685207130794
 31
0.0
  0
LINE
  5
35F
330
2
100
AcDbEntity
  8
0
100
AcDbLine
 10
9488.588538562542
 20
-2155.685207130794
 30
0.0
 11
9488.602059770629
 21
-2155.680846988925
 31
0.0
  0
LINE
  5
360
330
2
100
AcDbEntity
  8
0
100
AcDbLine
 10
9488.602059770629
 20
-2155.680846988925
 30
0.0
 11
9488.615546578484
 21
-2155.676435126839
 31
0.0
  0
LINE
  5
361
330
2
100
AcDbEntity
  8
0
100
AcDbLine
 10
9488.615546578484
 20
-2155.676435126839
 30
0.0
 11
9488.628998731348
 21
-2155.671971188661
 31
0.0
  0
LINE
  5
362
330
2
100
AcDbEntity
  8
0
100
AcDbLine
 10
9488.628998731348
 20
-2155.671971188661
 30
0.0
 11
9488.642415974462
 21
-2155.667454818525
 31
0.0
  0
LINE
  5
363
330
2
100
AcDbEntity
  8
0
100
AcDbLine
 10
9488.642415974462
 20
-2155.667454818525
 30
0.0
 11
9488.655798053072
 21
-2155.662885660559
 31
0.0
  0
LINE
  5
364
330
2
100
AcDbEntity
  8
0
100
AcDbLine
 10
9488.655798053072
 20
-2155.662885660559
 30
0.0
 11
9488.669144712419
 21
-2155.658263358883
 31
0.0
  0
LINE
  5
365
330
2
100
AcDbEntity
  8
0
100
AcDbLine
 10
9488.669144712419
 20
-2155.658263358883
 30
0.0
 11
9488.682455697746
 21
-2155.653587557622
 31
0.0
  0
LINE
  5
366
330
2
100
AcDbEntity
  8
0
100
AcDbLine
 10
9488.682455697746
 20
-2155.653587557622
 30
0.0
 11
9488.695730754294
 21
-2155.648857900915
 31
0.0
  0
LINE
  5
367
330
2
100
AcDbEntity
  8
0
100
AcDbLine
 10
9488.695730754294
 20
-2155.648857900915
 30
0.0
 11
9488.708969627309
 21
-2155.644074032883
 31
0.0
  0
LINE
  5
368
330
2
100
AcDbEntity
  8
0
100
AcDbLine
 10
9488.708969627309
 20
-2155.644074032883
 30
0.0
 11
9488.722172062027
 21
-2155.639235597649
 31
0.0
  0
LINE
  5
369
330
2
100
AcDbEntity
  8
0
100
AcDbLine
 10
9488.722172062027
 20
-2155.639235597649
 30
0.0
 11
9488.735337803698
 21
-2155.634342239347
 31
0.0
  0
LINE
  5
36A
330
2
100
AcDbEntity
  8
0
100
AcDbLine
 10
9488.735337803698
 20
-2155.634342239347
 30
0.0
 11
9488.748466597559
 21
-2155.629393602102
 31
0.0
  0
LINE
  5
36B
330
2
100
AcDbEntity
  8
0
100
AcDbLine
 10
9488.748466597559
 20
-2155.629393602102
 30
0.0
 11
9488.761558188857
 21
-2155.624389330037
 31
0.0
  0
LINE
  5
36C
330
2
100
AcDbEntity
  8
0
100
AcDbLine
 10
9488.761558188857
 20
-2155.624389330037
 30
0.0
 11
9488.774612322828
 21
-2155.619329067281
 31
0.0
  0
LINE
  5
36D
330
2
100
AcDbEntity
  8
0
100
AcDbLine
 10
9488.774612322828
 20
-2155.619329067281
 30
0.0
 11
9488.787628744722
 21
-2155.61421245797
 31
0.0
  0
LINE
  5
36E
330
2
100
AcDbEntity
  8
0
100
AcDbLine
 10
9488.787628744722
 20
-2155.61421245797
 30
0.0
 11
9488.800607199776
 21
-2155.60903914622
 31
0.0
  0
LINE
  5
36F
330
2
100
AcDbEntity
  8
0
100
AcDbLine
 10
9488.800607199776
 20
-2155.60903914622
 30
0.0
 11
9488.813547433236
 21
-2155.603808776158
 31
0.0
  0
LINE
  5
370
330
2
100
AcDbEntity
  8
0
100
AcDbLine
 10
9488.813547433236
 20
-2155.603808776158
 30
0.0
 11
9488.826449190341
 21
-2155.598520991915
 31
0.0
  0
LINE
  5
371
330
2
100
AcDbEntity
  8
0
100
AcDbLine
 10
9488.826449190341
 20
-2155.598520991915
 30
0.0
 11
9488.839312216336
 21
-2155.593175437624
 31
0.0
  0
LINE
  5
372
330
2
100
AcDbEntity
  8
0
100
AcDbLine
 10
9488.839312216336
 20
-2155.593175437624
 30
0.0
 11
9488.852136256465
 21
-2155.587771757403
 31
0.0
  0
LINE
  5
373
330
2
100
AcDbEntity
  8
0
100
AcDbLine
 10
9488.852136256465
 20
-2155.587771757403
 30
0.0
 11
9488.864921055968
 21
-2155.582309595385
 31
0.0
  0
LINE
  5
374
330
2
100
AcDbEntity
  8
0
100
AcDbLine
 10
9488.864921055968
 20
-2155.582309595385
 30
0.0
 11
9488.877666360087
 21
-2155.576788595691
 31
0.0
  0
LINE
  5
375
330
2
100
AcDbEntity
  8
0
100
AcDbLine
 10
9488.877666360087
 20
-2155.576788595691
 30
0.0
 11
9488.890371914065
 21
-2155.571208402455
 31
0.0
  0
LINE
  5
376
330
2
100
AcDbEntity
  8
0
100
AcDbLine
 10
9488.890371914065
 20
-2155.571208402455
 30
0.0
 11
9488.903037463146
 21
-2155.565568659799
 31
0.0
  0
LINE
  5
377
330
2
100
AcDbEntity
  8
0
100
AcDbLine
 10
9488.903037463146
 20
-2155.565568659799
 30
0.0
 11
9488.915662752573
 21
-2155.559869011852
 31
0.0
  0
LINE
  5
378
330
2
100
AcDbEntity
  8
0
100
AcDbLine
 10
9488.915662752573
 20
-2155.559869011852
 30
0.0
 11
9488.928247527585
 21
-2155.55410910274
 31
0.0
  0
LINE
  5
379
330
2
100
AcDbEntity
  8
0
100
AcDbLine
 10
9488.928247527585
 20
-2155.55410910274
 30
0.0
 11
9488.940791533423
 21
-2155.548288576595
 31
0.0
  0
LINE
  5
37A
330
2
100
AcDbEntity
  8
0
100
AcDbLine
 10
9488.940791533423
 20
-2155.548288576595
 30
0.0
 11
9488.953294515338
 21
-2155.54240707754
 31
0.0
  0
LINE
  5
37B
330
2
100
AcDbEntity
  8
0
100
AcDbLine
 10
9488.953294515338
 20
-2155.54240707754
 30
0.0
 11
9488.965756218567
 21
-2155.536464249701
 31
0.0
  0
LINE
  5
37C
330
2
100
AcDbEntity
  8
0
100
AcDbLine
 10
9488.965756218567
 20
-2155.536464249701
 30
0.0
 11
9488.978176388354
 21
-2155.530459737208
 31
0.0
  0
LINE
  5
37D
330
2
100
AcDbEntity
  8
0
100
AcDbLine
 10
9488.978176388354
 20
-2155.530459737208
 30
0.0
 11
9488.990554769937
 21
-2155.524393184183
 31
0.0
  0
LINE
  5
37E
330
2
100
AcDbEntity
  8
0
100
AcDbLine
 10
9488.990554769937
 20
-2155.524393184183
 30
0.0
 11
9489.002891108565
 21
-2155.51826423476
 31
0.0
  0
LINE
  5
37F
330
2
100
AcDbEntity
  8
0
100
AcDbLine
 10
9489.002891108565
 20
-2155.51826423476
 30
0.0
 11
9489.015185149476
 21
-2155.512072533062
 31
0.0
  0
LINE
  5
380
330
2
100
AcDbEntity
  8
0
100
AcDbLine
 10
9489.015185149476
 20
-2155.512072533062
 30
0.0
 11
9489.027436637913
 21
-2155.50581772322
 31
0.0
  0
LINE
  5
381
330
2
100
AcDbEntity
  8
0
100
AcDbLine
 10
9489.027436637913
 20
-2155.50581772322
 30
0.0
 11
9489.03964531912
 21
-2155.49949944936
 31
0.0
  0
LINE
  5
382
330
2
100
AcDbEntity
  8
0
100
AcDbLine
 10
9489.03964531912
 20
-2155.49949944936
 30
0.0
 11
9489.05181093834
 21
-2155.493117355602
 31
0.0
  0
LINE
  5
383
330
2
100
AcDbEntity
  8
0
100
AcDbLine
 10
9489.05181093834
 20
-2155.493117355602
 30
0.0
 11
9489.063933240815
 21
-2155.48667108608
 31
0.0
  0
LINE
  5
384
330
2
100
AcDbEntity
  8
0
100
AcDbLine
 10
9489.063933240815
 20
-2155.48667108608
 30
0.0
 11
9489.076011971789
 21
-2155.480160284925
 31
0.0
  0
LINE
  5
385
330
2
100
AcDbEntity
  8
0
100
AcDbLine
 10
9489.076011971789
 20
-2155.480160284925
 30
0.0
 11
9489.088046876501
 21
-2155.473584596256
 31
0.0
  0
LINE
  5
386
330
2
100
AcDbEntity
  8
0
100
AcDbLine
 10
9489.088046876501
 20
-2155.473584596256
 30
0.0
 11
9489.100037700191
 21
-2155.466943664199
 31
0.0
  0
LINE
  5
387
330
2
100
AcDbEntity
  8
0
100
AcDbLine
 10
9489.100037700191
 20
-2155.466943664199
 30
0.0
 11
9489.111984188108
 21
-2155.460237132894
 31
0.0
  0
LINE
  5
388
330
2
100
AcDbEntity
  8
0
100
AcDbLine
 10
9489.111984188108
 20
-2155.460237132894
 30
0.0
 11
9489.123886085494
 21
-2155.453464646452
 31
0.0
  0
LINE
  5
389
330
2
100
AcDbEntity
  8
0
100
AcDbLine
 10
9489.123886085494
 20
-2155.453464646452
 30
0.0
 11
9489.135743137588
 21
-2155.446625849013
 31
0.0
  0
LINE
  5
38A
330
2
100
AcDbEntity
  8
0
100
AcDbLine
 10
9489.135743137588
 20
-2155.446625849013
 30
0.0
 11
9489.147555089635
 21
-2155.439720384696
 31
0.0
  0
LINE
  5
38B
330
2
100
AcDbEntity
  8
0
100
AcDbLine
 10
9489.147555089635
 20
-2155.439720384696
 30
0.0
 11
9489.159321686877
 21
-2155.432747897629
 31
0.0
  0
LINE
  5
38C
330
2
100
AcDbEntity
  8
0
100
AcDbLine
 10
9489.159321686877
 20
-2155.432747897629
 30
0.0
 11
9489.171042674552
 21
-2155.425708031943
 31
0.0
  0
LINE
  5
38D
330
2
100
AcDbEntity
  8
0
100
AcDbLine
 10
9489.171042674552
 20
-2155.425708031943
 30
0.0
 11
9489.182717797907
 21
-2155.418600431767
 31
0.0
  0
LINE
  5
38E
330
2
100
AcDbEntity
  8
0
100
AcDbLine
 10
9489.182717797907
 20
-2155.418600431767
 30
0.0
 11
9489.194346802188
 21
-2155.411424741221
 31
0.0
  0
LINE
  5
38F
330
2
100
AcDbEntity
  8
0
100
AcDbLine
 10
9489.194346802188
 20
-2155.411424741221
 30
0.0
 11
9489.205929432632
 21
-2155.404180604433
 31
0.0
  0
LINE
  5
390
330
2
100
AcDbEntity
  8
0
100
AcDbLine
 10
9489.205929432632
 20
-2155.404180604433
 30
0.0
 11
9489.217465434482
 21
-2155.396867665539
 31
0.0
  0
LINE
  5
391
330
2
100
AcDbEntity
  8
0
100
AcDbLine
 10
9489.217465434482
 20
-2155.396867665539
 30
0.0
 11
9489.228954552983
 21
-2155.389485568655
 31
0.0
  0
LINE
  5
392
330
2
100
AcDbEntity
  8
0
100
AcDbLine
 10
9489.228954552983
 20
-2155.389485568655
 30
0.0
 11
9489.240396533375
 21
-2155.382033957917
 31
0.0
  0
LINE
  5
393
330
2
100
AcDbEntity
  8
0
100
AcDbLine
 10
9489.240396533375
 20
-2155.382033957917
 30
0.0
 11
9489.251791120899
 21
-2155.374512477442
 31
0.0
  0
LINE
  5
394
330
2
100
AcDbEntity
  8
0
100
AcDbLine
 10
9489.251791120899
 20
-2155.374512477442
 30
0.0
 11
9489.263138060804
 21
-2155.366920771367
 31
0.0
  0
LINE
  5
395
330
2
100
AcDbEntity
  8
0
100
AcDbLine
 10
9489.263138060804
 20
-2155.366920771367
 30
0.0
 11
9489.274437098329
 21
-2155.359258483818
 31
0.0
  0
LINE
  5
396
330
2
100
AcDbEntity
  8
0
100
AcDbLine
 10
9489.274437098329
 20
-2155.359258483818
 30
0.0
 11
9489.285687978714
 21
-2155.351525258916
 31
0.0
  0
LINE
  5
397
330
2
100
AcDbEntity
  8
0
100
AcDbLine
 10
9489.285687978714
 20
-2155.351525258916
 30
0.0
 11
9489.296890447205
 21
-2155.343720740791
 31
0.0
  0
LINE
  5
398
330
2
100
AcDbEntity
  8
0
100
AcDbLine
 10
9489.296890447205
 20
-2155.343720740791
 30
0.0
 11
9489.308044249041
 21
-2155.335844573575
 31
0.0
  0
LINE
  5
399
330
2
100
AcDbEntity
  8
0
100
AcDbLine
 10
9489.308044249041
 20
-2155.335844573575
 30
0.0
 11
9489.319149129467
 21
-2155.327896401387
 31
0.0
  0
LINE
  5
39A
330
2
100
AcDbEntity
  8
0
100
AcDbLine
 10
9489.319149129467
 20
-2155.327896401387
 30
0.0
 11
9489.330204833725
 21
-2155.31987586836
 31
0.0
  0
LINE
  5
39B
330
2
100
AcDbEntity
  8
0
100
AcDbLine
 10
9489.330204833725
 20
-2155.31987586836
 30
0.0
 11
9489.341211107062
 21
-2155.31178261862
 31
0.0
  0
LINE
  5
39C
330
2
100
AcDbEntity
  8
0
100
AcDbLine
 10
9489.341211107062
 20
-2155.31178261862
 30
0.0
 11
9489.352167694708
 21
-2155.303616296295
 31
0.0
  0
LINE
  5
39D
330
2
100
AcDbEntity
  8
0
100
AcDbLine
 10
9489.352167694708
 20
-2155.303616296295
 30
0.0
 11
9489.36307434192
 21
-2155.295376545509
 31
0.0
  0
LINE
  5
39E
330
2
100
AcDbEntity
  8
0
100
AcDbLine
 10
9489.36307434192
 20
-2155.295376545509
 30
0.0
 11
9489.373930793933
 21
-2155.287063010385
 31
0.0
  0
LINE
  5
39F
330
2
100
AcDbEntity
  8
0
100
AcDbLine
 10
9489.373930793933
 20
-2155.287063010385
 30
0.0
 11
9489.384736795988
 21
-2155.278675335066
 31
0.0
  0
LINE
  5
3A0
330
2
100
AcDbEntity
  8
0
100
AcDbLine
 10
9489.384736795988
 20
-2155.278675335066
 30
0.0
 11
9489.395492093333
 21
-2155.270213163661
 31
0.0
  0
LINE
  5
3A1
330
2
100
AcDbEntity
  8
0
100
AcDbLine
 10
9489.395492093333
 20
-2155.270213163661
 30
0.0
 11
9489.406196431204
 21
-2155.261676140311
 31
0.0
  0
LINE
  5
3A2
330
2
100
AcDbEntity
  8
0
100
AcDbLine
 10
9489.406196431204
 20
-2155.261676140311
 30
0.0
 11
9489.416849554848
 21
-2155.253063909134
 31
0.0
  0
LINE
  5
3A3
330
2
100
AcDbEntity
  8
0
100
AcDbLine
 10
9489.416849554848
 20
-2155.253063909134
 30
0.0
 11
9489.427451209509
 21
-2155.244376114259
 31
0.0
  0
LINE
  5
3A4
330
2
100
AcDbEntity
  8
0
100
AcDbLine
 10
9489.427451209509
 20
-2155.244376114259
 30
0.0
 11
9489.438001140426
 21
-2155.235612399817
 31
0.0
  0
LINE
  5
3A5
330
2
100
AcDbEntity
  8
0
100
AcDbLine
 10
9489.438001140426
 20
-2155.235612399817
 30
0.0
 11
9489.448499092842
 21
-2155.226772409935
 31
0.0
  0
LINE
  5
3A6
330
2
100
AcDbEntity
  8
0
100
AcDbLine
 10
9489.448499092842
 20
-2155.226772409935
 30
0.0
 11
9489.458944811998
 21
-2155.217855788734
 31
0.0
  0
LINE
  5
3A7
330
2
100
AcDbEntity
  8
0
100
AcDbLine
 10
9489.458944811998
 20
-2155.217855788734
 30
0.0
 11
9489.469338043141
 21
-2155.208862180348
 31
0.0
  0
LINE
  5
3A8
330
2
100
AcDbEntity
  8
0
100
AcDbLine
 10
9489.469338043141
 20
-2155.208862180348
 30
0.0
 11
9489.479678531512
 21
-2155.1997912289
 31
0.0
  0
LINE
  5
3A9
330
2
100
AcDbEntity
  8
0
100
AcDbLine
 10
9489.479678531512
 20
-2155.1997912289
 30
0.0
 11
9489.489966022352
 21
-2155.190642578519
 31
0.0
  0
LINE
  5
3AA
330
2
100
AcDbEntity
  8
0
100
AcDbLine
 10
9489.489966022352
 20
-2155.190642578519
 30
0.0
 11
9489.500200260902
 21
-2155.181415873332
 31
0.0
  0
LINE
  5
3AB
330
2
100
AcDbEntity
  8
0
100
AcDbLine
 10
9489.500200260902
 20
-2155.181415873332
 30
0.0
 11
9489.510380992408
 21
-2155.172110757462
 31
0.0
  0
LINE
  5
3AC
330
2
100
AcDbEntity
  8
0
100
AcDbLine
 10
9489.510380992408
 20
-2155.172110757462
 30
0.0
 11
9489.52050796211
 21
-2155.162726875044
 31
0.0
  0
LINE
  5
3AD
330
2
100
AcDbEntity
  8
0
100
AcDbLine
 10
9489.52050796211
 20
-2155.162726875044
 30
0.0
 11
9489.530580915253
 21
-2155.153263870197
 31
0.0
  0
LINE
  5
3AE
330
2
100
AcDbEntity
  8
0
100
AcDbLine
 10
9489.530580915253
 20
-2155.153263870197
 30
0.0
 11
9489.540599597075
 21
-2155.143721387055
 31
0.0
  0
LINE
  5
3AF
330
2
100
AcDbEntity
  8
0
100
AcDbLine
 10
9489.540599597075
 20
-2155.143721387055
 30
0.0
 11
9489.550563752827
 21
-2155.134099069742
 31
0.0
  0
LINE
  5
3B0
330
2
100
AcDbEntity
  8
0
100
AcDbLine
 10
9489.550563752827
 20
-2155.134099069742
 30
0.0
 11
9489.560473127742
 21
-2155.124396562386
 31
0.0
  0
LINE
  5
3B1
330
2
100
AcDbEntity
  8
0
100
AcDbLine
 10
9489.560473127742
 20
-2155.124396562386
 30
0.0
 11
9489.570327467069
 21
-2155.11461350911
 31
0.0
  0
LINE
  5
3B2
330
2
100
AcDbEntity
  8
0
100
AcDbLine
 10
9489.570327467069
 20
-2155.11461350911
 30
0.0
 11
9489.580126516043
 21
-2155.104749554047
 31
0.0
  0
LINE
  5
3B3
330
2
100
AcDbEntity
  8
0
100
AcDbLine
 10
9489.580126516043
 20
-2155.104749554047
 30
0.0
 11
9489.589870019916
 21
-2155.094804341322
 31
0.0
  0
LINE
  5
3B4
330
2
100
AcDbEntity
  8
0
100
AcDbLine
 10
9489.589870019916
 20
-2155.094804341322
 30
0.0
 11
9489.599557723925
 21
-2155.084777515064
 31
0.0
  0
LINE
  5
3B5
330
2
100
AcDbEntity
  8
0
100
AcDbLine
 10
9489.599557723925
 20
-2155.084777515064
 30
0.0
 11
9489.609189373316
 21
-2155.074668719396
 31
0.0
  0
LINE
  5
3B6
330
2
100
AcDbEntity
  8
0
100
AcDbLine
 10
9489.609189373316
 20
-2155.074668719396
 30
0.0
 11
9489.618764713325
 21
-2155.064477598447
 31
0.0
  0
LINE
  5
3B7
330
2
100
AcDbEntity
  8
0
100
AcDbLine
 10
9489.618764713325
 20
-2155.064477598447
 30
0.0
 11
9489.628283489201
 21
-2155.054203796345
 31
0.0
  0
LINE
  5
3B8
330
2
100
AcDbEntity
  8
0
100
AcDbLine
 10
9489.628283489201
 20
-2155.054203796345
 30
0.0
 11
9489.637745446184
 21
-2155.043846957218
 31
0.0
  0
LINE
  5
3B9
330
2
100
AcDbEntity
  8
0
100
AcDbLine
 10
9489.637745446184
 20
-2155.043846957218
 30
0.0
 11
9489.647150329515
 21
-2155.033406725189
 31
0.0
  0
LINE
  5
3BA
330
2
100
AcDbEntity
  8
0
100
AcDbLine
 10
9489.647150329515
 20
-2155.033406725189
 30
0.0
 11
9489.656497884439
 21
-2155.022882744393
 31
0.0
  0
LINE
  5
3BB
330
2
100
AcDbEntity
  8
0
100
AcDbLine
 10
9489.656497884439
 20
-2155.022882744393
 30
0.0
 11
9489.6657878562
 21
-2155.012274658947
 31
0.0
  0
LINE
  5
3BC
330
2
100
AcDbEntity
  8
0
100
AcDbLine
 10
9489.6657878562
 20
-2155.012274658947
 30
0.0
 11
9489.675019990034
 21
-2155.001582112985
 31
0.0
  0
LINE
  5
3BD
330
2
100
AcDbEntity
  8
0
100
AcDbLine
 10
9489.675019990034
 20
-2155.001582112985
 30
0.0
 11
9489.684194031189
 21
-2154.990804750632
 31
0.0
  0
LINE
  5
3BE
330
2
100
AcDbEntity
  8
0
100
AcDbLine
 10
9489.684194031189
 20
-2154.990804750632
 30
0.0
 11
9489.693309724909
 21
-2154.979942216013
 31
0.0
  0
LINE
  5
3BF
330
2
100
AcDbEntity
  8
0
100
AcDbLine
 10
9489.693309724909
 20
-2154.979942216013
 30
0.0
 11
9489.702366816429
 21
-2154.968994153263
 31
0.0
  0
LINE
  5
3C0
330
2
100
AcDbEntity
  8
0
100
AcDbLine
 10
9489.702366816429
 20
-2154.968994153263
 30
0.0
 11
9489.711365050998
 21
-2154.957960206498
 31
0.0
  0
LINE
  5
3C1
330
2
100
AcDbEntity
  8
0
100
AcDbLine
 10
9489.711365050998
 20
-2154.957960206498
 30
0.0
 11
9489.720304173856
 21
-2154.946840019857
 31
0.0
  0
LINE
  5
3C2
330
2
100
AcDbEntity
  8
0
100
AcDbLine
 10
9489.720304173856
 20
-2154.946840019857
 30
0.0
 11
9489.729183930247
 21
-2154.935633237458
 31
0.0
  0
LINE
  5
3C3
330
2
100
AcDbEntity
  8
0
100
AcDbLine
 10
9489.729183930247
 20
-2154.935633237458
 30
0.0
 11
9489.732528380754
 21
-2154.93135083885
 31
0.0
  0
ENDSEC
  0
SECTION
  2
OBJECTS
  0
DICTIONARY
  5
C
330
0
100
AcDbDictionary
281
     1
  3
ACAD_COLOR
350
38
  3
ACAD_GROUP
350
33
  3
ACAD_LAYOUT
350
18
  3
ACAD_MATERIAL
350
E
  3
ACAD_MLEADERSTYLE
350
3F3
  3
ACAD_MLINESTYLE
350
34
  3
ACAD_PLOTSETTINGS
350
35
  3
ACAD_PLOTSTYLENAME
350
B
  3
ACAD_SCALELIST
350
39
  3
ACAD_TABLESTYLE
350
3A
  3
ACAD_VISUALSTYLE
350
2E
  3
ACDB_RECOMPOSE_DATA
350
3D7
  3
AcDbVariableDictionary
350
3C8
  3
DWGPROPS
350
400
  0
DICTIONARY
  5
2F
330
2B
100
AcDbDictionary
280
     1
281
     1
  0
DICTIONARY
  5
21
330
20
100
AcDbDictionary
280
     1
281
     1
  3
ACAD_LAYERSTATES
360
22
  0
DICTIONARY
  5
8
330
7
100
AcDbDictionary
280
     1
281
     1
  3
ADSK_XREC_LAYER_RECONCILED
360
9
  0
DICTIONARY
  5
3
330
2
100
AcDbDictionary
280
     1
281
     1
  3
ACAD_LAYOUTSELFREF
360
4
  3
ACAD_SORTENTS
360
3C4
  0
DICTIONARY
  5
1B
330
1A
100
AcDbDictionary
280
     1
281
     1
  3
ACAD_LAYOUTSELFREF
360
1C
  0
DICTIONARY
  5
406
330
8E
100
AcDbDictionary
280
     1
281
     1
  3
ACAD_MTEXT_RT
360
407
  0
DICTIONARY
  5
88
330
87
100
AcDbDictionary
280
     1
281
     1
  3
ACAD_DIMASSOC
360
89
  0
DICTIONARY
  5
E2
330
E1
100
AcDbDictionary
280
     1
281
     1
  3
ACAD_DIMASSOC
360
E3
  0
DICTIONARY
  5
102
330
101
100
AcDbDictionary
280
     1
281
     1
  3
ACAD_DIMASSOC
360
103
  0
DICTIONARY
  5
119
330
118
100
AcDbDictionary
280
     1
281
     1
  3
ACAD_DIMASSOC
360
11A
  0
DICTIONARY
  5
129
330
128
100
AcDbDictionary
280
     1
281
     1
  3
ACAD_DIMASSOC
360
12A
  0
DICTIONARY
  5
13F
330
13E
100
AcDbDictionary
280
     1
281
     1
  3
ACAD_DIMASSOC
360
140
  0
DICTIONARY
  5
14E
330
14D
100
AcDbDictionary
280
     1
281
     1
  3
ACAD_DIMASSOC
360
14F
  0
DICTIONARY
  5
3FE
330
183
100
AcDbDictionary
280
     1
281
     1
  3
ACAD_MTEXT_2008_RT
360
3FF
  0
DICTIONARY
  5
38
102
{ACAD_REACTORS
330
C
102
}
330
C
100
AcDbDictionary
281
     1
  0
DICTIONARY
  5
33
102
{ACAD_REACTORS
330
C
102
}
330
C
100
AcDbDictionary
281
     1
  0
DICTIONARY
  5
18
102
{ACAD_REACTORS
330
C
102
}
330
C
100
AcDbDictionary
281
     1
  3
Model
350
17
  3
배치1
350
1F
  0
DICTIONARY
  5
E
102
{ACAD_REACTORS
330
C
102
}
330
C
100
AcDbDictionary
281
     1
  3
ByBlock
350
37
  3
ByLayer
350
36
  3
Global
350
D
  0
DICTIONARY
  5
3F3
102
{ACAD_REACTORS
330
C
102
}
330
C
100
AcDbDictionary
281
     1
  3
Standard
350
3F4
  0
DICTIONARY
  5
34
102
{ACAD_REACTORS
330
C
102
}
330
C
100
AcDbDictionary
281
     1
  3
Standard
350
3B
  0
DICTIONARY
  5
35
102
{ACAD_REACTORS
330
C
102
}
330
C
100
AcDbDictionary
281
     1
  0
ACDBDICTIONARYWDFLT
  5
B
102
{ACAD_REACTORS
330
C
102
}
330
C
100
AcDbDictionary
281
     1
  3
Normal
350
A
100
AcDbDictionaryWithDefault
340
A
  0
DICTIONARY
  5
39
102
{ACAD_REACTORS
330
C
102
}
330
C
100
AcDbDictionary
281
     1
  3
A0
350
43
  3
A1
350
44
  3
A2
350
45
  3
A3
350
46
  3
A4
350
47
  3
A5
350
48
  3
A6
350
49
  3
A7
350
4A
  3
A8
350
4B
  3
A9
350
4C
  3
B0
350
4D
  3
B1
350
4E
  3
B2
350
4F
  3
B3
350
50
  3
B4
350
51
  3
B5
350
52
  3
B6
350
53
  3
B7
350
54
  3
B8
350
55
  3
B9
350
56
  3
C0
350
57
  3
C1
350
58
  3
C2
350
59
  3
C3
350
5A
  3
C4
350
5B
  3
C5
350
5C
  3
C6
350
5D
  3
C7
350
5E
  3
C8
350
5F
  3
C9
350
60
  3
D0
350
61
  3
D1
350
62
  3
D2
350
63
  0
DICTIONARY
  5
3A
102
{ACAD_REACTORS
330
C
102
}
330
C
100
AcDbDictionary
281
     1
  3
Standard
350
3C
  0
DICTIONARY
  5
2E
102
{ACAD_REACTORS
330
C
102
}
330
C
100
AcDbDictionary
281
     1
  3
2dWireframe
350
2D
  3
3D Hidden
350
3EB
  3
3dWireframe
350
3F
  3
Basic
350
3EA
  3
Brighten
350
3EE
  3
ColorChange
350
3F2
  3
Conceptual
350
3EC
  3
Dim
350
3ED
  3
Facepattern
350
3F1
  3
Flat
350
3E6
  3
FlatWithEdges
350
3E7
  3
Gouraud
350
3E8
  3
GouraudWithEdges
350
3E9
  3
Linepattern
350
3F0
  3
Realistic
350
3E
  3
Thicken
350
3EF
  0
XRECORD
  5
3D7
102
{ACAD_REACTORS
330
C
102
}
330
C
100
AcDbXrecord
280
     1
 90
        1
330
3C
330
183
  0
DICTIONARY
  5
3C8
102
{ACAD_REACTORS
330
C
102
}
330
C
100
AcDbDictionary
281
     1
  3
CANNOSCALE
350
3CC
  3
CMLEADERSTYLE
350
3CA
  3
CTABLESTYLE
350
3C9
  3
DIMASSOC
350
3D1
  3
HIDETEXT
350
3D0
  3
INDEXCTL
350
3CF
  3
LIGHTINGUNITS
350
3CD
  3
MSLTSCALE
350
3CB
  3
PSOLHEIGHT
350
3FC
  3
PSOLWIDTH
350
3FB
  3
SORTENTS
350
3CE
  0
XRECORD
  5
400
102
{ACAD_REACTORS
330
C
102
}
330
C
100
AcDbXrecord
280
     1
  1
DWGPROPS COOKIE
  2

  3

  4

  6

  7

  8
김성진
  9

300
=
301
=
302
=
303
=
304
=
305
=
306
=
307
=
308
=
309
=
 40
3.487681296296296
 41
2455638.478663565
 42
2455916.470194398
  1

 90
        0
  0
DICTIONARY
  5
22
102
{ACAD_REACTORS
330
21
102
}
330
21
100
AcDbDictionary
281
     1
  0
XRECORD
  5
9
102
{ACAD_REACTORS
330
8
102
}
330
8
100
AcDbXrecord
280
     1
290
     1
  0
XRECORD
  5
4
102
{ACAD_REACTORS
330
3
102
}
330
3
100
AcDbXrecord
280
     1
340
2
  0
SORTENTSTABLE
  5
3C4
102
{ACAD_REACTORS
330
3
102
}
330
3
100
AcDbSortentsTable
330
2
  0
XRECORD
  5
1C
102
{ACAD_REACTORS
330
1B
102
}
330
1B
100
AcDbXrecord
280
     1
340
1A
  0
XRECORD
  5
407
102
{ACAD_REACTORS
330
406
102
}
330
406
100
AcDbXrecord
280
     1
 40
11034.0
  1
\A1;\U+2205104%%P0.5
  0
DIMASSOC
  5
89
102
{ACAD_REACTORS
330
88
102
}
330
88
100
AcDbDimAssoc
330
87
 90
        2
 70
     0
 71
     0
  1
AcDbOsnapPointRef
 72
     3
331
86
 73
     2
 91
        0
 40
0.0
 10
0.0
 20
0.0
 30
0.0
 75
     0
  0
DIMASSOC
  5
E3
102
{ACAD_REACTORS
330
E2
102
}
330
E2
100
AcDbDimAssoc
330
E1
 90
        2
 70
     0
 71
     0
  1
AcDbOsnapPointRef
 72
     1
331
114
 73
     2
 91
        0
 40
1.0
 10
4865.51451084566
 20
-4051.759302602638
 30
0.0
 75
     0
  0
DIMASSOC
  5
103
102
{ACAD_REACTORS
330
102
102
}
330
102
100
AcDbDimAssoc
330
101
 90
        1
 70
     0
 71
     0
  1
AcDbOsnapPointRef
 72
     1
331
127
 73
     2
 91
        0
 40
1.0
 10
4821.01451084566
 20
-4090.358039944168
 30
0.0
 75
     0
  0
DIMASSOC
  5
11A
102
{ACAD_REACTORS
330
119
102
}
330
119
100
AcDbDimAssoc
330
118
 90
        3
 70
     0
 71
     0
  1
AcDbOsnapPointRef
 72
     1
331
137
 73
     2
 91
        0
 40
1.0
 10
4821.01451084566
 20
-4101.358039944167
 30
0.0
 75
     0
  1
AcDbOsnapPointRef
 72
     1
331
127
 73
     2
 91
        0
 40
1.0
 10
4821.01451084566
 20
-4090.358039944168
 30
0.0
 75
     0
  0
DIMASSOC
  5
12A
102
{ACAD_REACTORS
330
129
102
}
330
129
100
AcDbDimAssoc
330
128
 90
        3
 70
     0
 71
     0
  1
AcDbOsnapPointRef
 72
     1
331
127
 73
     2
 91
        0
 40
1.0
 10
4821.01451084566
 20
-4090.358039944168
 30
0.0
 75
     0
  1
AcDbOsnapPointRef
 72
     1
331
116
 73
     2
 91
        0
 40
1.0
 10
4851.01451084566
 20
-4089.358039944166
 30
0.0
 75
     0
  0
DIMASSOC
  5
140
102
{ACAD_REACTORS
330
13F
102
}
330
13F
100
AcDbDimAssoc
330
13E
 90
        3
 70
     0
 71
     0
  1
AcDbOsnapPointRef
 72
     1
331
137
 73
     2
 91
        0
 40
1.0
 10
4821.01451084566
 20
-4101.358039944167
 30
0.0
 75
     0
  1
AcDbOsnapPointRef
 72
     1
331
116
 73
     2
 91
        0
 40
1.0
 10
4851.01451084566
 20
-4089.358039944166
 30
0.0
 75
     0
  0
DIMASSOC
  5
14F
102
{ACAD_REACTORS
330
14E
102
}
330
14E
100
AcDbDimAssoc
330
14D
 90
        3
 70
     0
 71
     0
  1
AcDbOsnapPointRef
 72
    13
331
15D
 73
     2
 91
        0
 40
0.0
 10
4856.01451084566
 20
-4053.858039944167
 30
0.0
 75
     0
  1
AcDbOsnapPointRef
 72
     1
331
15D
 73
     2
 91
        0
 40
1.0
 10
4856.01451084566
 20
-4136.858039944167
 30
0.0
 75
     0
  0
XRECORD
  5
3FF
102
{ACAD_REACTORS
330
3FE
102
}
330
3FE
100
AcDbXrecord
280
     1
 40
54365.0
  1
\pxql;ELECTRO-MAGNETIC BRAKE\PLEAD WIRE 300mm
  0
LAYOUT
  5
17
102
{ACAD_XDICTIONARY
360
401
102
}
102
{ACAD_REACTORS
330
18
102
}
330
18
100
AcDbPlotSettings
  1

  2
none_device
  4
ISO_A4_(210.00_x_297.00_MM)
  6

 40
7.5
 41
20.0
 42
7.5
 43
20.0
 44
210.0
 45
297.0
 46
11.54999923706054
 47
-13.65000009536743
 48
0.0
 49
0.0
140
0.0
141
0.0
142
1.0
143
8.704084754739808
 70
 11952
 72
     1
 73
     0
 74
     0
  7

 75
     0
147
0.1148885871608098
148
0.0
149
0.0
100
AcDbLayout
  1
Model
 70
     1
 71
     0
 10
0.0
 20
0.0
 11
12.0
 21
9.0
 12
0.0
 22
0.0
 32
0.0
 14
0.0
 24
0.0
 34
0.0
 15
0.0
 25
0.0
 35
0.0
146
0.0
 13
0.0
 23
0.0
 33
0.0
 16
1.0
 26
0.0
 36
0.0
 17
0.0
 27
1.0
 37
0.0
 76
     0
330
2
331
2C
1001
ACAD_PSEXT
1000
None
1000
None
1000
Not applicable
1000
The layout will not be plotted unless a new plotter configuration name is selected.
1070
     0
  0
LAYOUT
  5
1F
102
{ACAD_XDICTIONARY
360
403
102
}
102
{ACAD_REACTORS
330
18
102
}
330
18
100
AcDbPlotSettings
  1

  2
C:\Documents and Settings\basas\Application Data\Autodesk\AutoCAD 2005\R16.1\enu\plotters\Default Windows System Printer.pc3
  4

  6

 40
0.0
 41
0.0
 42
0.0
 43
0.0
 44
0.0
 45
0.0
 46
0.0
 47
0.0
 48
0.0
 49
0.0
140
0.0
141
0.0
142
1.0
143
1.0
 70
   688
 72
     0
 73
     0
 74
     5
  7

 75
    16
147
1.0
148
0.0
149
0.0
100
AcDbLayout
  1
배치1
 70
     1
 71
     1
 10
0.0
 20
0.0
 11
12.0
 21
9.0
 12
0.0
 22
0.0
 32
0.0
 14
0.0
 24
0.0
 34
0.0
 15
0.0
 25
0.0
 35
0.0
146
0.0
 13
0.0
 23
0.0
 33
0.0
 16
1.0
 26
0.0
 36
0.0
 17
0.0
 27
1.0
 37
0.0
 76
     0
330
1A
  0
MATERIAL
  5
37
102
{ACAD_XDICTIONARY
360
3DF
102
}
102
{ACAD_REACTORS
330
E
102
}
330
E
100
AcDbMaterial
  1
ByBlock
  0
MATERIAL
  5
36
102
{ACAD_XDICTIONARY
360
3DD
102
}
102
{ACAD_REACTORS
330
E
102
}
330
E
100
AcDbMaterial
  1
ByLayer
  0
MATERIAL
  5
D
102
{ACAD_XDICTIONARY
360
F
102
}
102
{ACAD_REACTORS
330
E
102
}
330
E
100
AcDbMaterial
  1
Global
 43
0.0007999999797903
 43
0.0
 43
0.0
 43
0.0
 43
0.0
 43
0.0007999999797903
 43
0.0
 43
0.0
 43
0.0
 43
0.0
 43
1.0
 43
0.0
 43
0.0
 43
0.0
 43
0.0
 43
1.0
 49
0.0007999999797903
 49
0.0
 49
0.0
 49
0.0
 49
0.0
 49
0.0007999999797903
 49
0.0
 49
0.0
 49
0.0
 49
0.0
 49
1.0
 49
0.0
 49
0.0
 49
0.0
 49
0.0
 49
1.0
142
0.0007999999797903
142
0.0
142
0.0
142
0.0
142
0.0
142
0.0007999999797903
142
0.0
142
0.0
142
0.0
142
0.0
142
1.0
142
0.0
142
0.0
142
0.0
142
0.0
142
1.0
144
0.0007999999797903
144
0.0
144
0.0
144
0.0
144
0.0
144
0.0007999999797903
144
0.0
144
0.0
144
0.0
144
0.0
144
1.0
144
0.0
144
0.0
144
0.0
144
0.0
144
1.0
1001
ACAD
1070
    -1
1070
     3
1070
     0
1000

1071
        0
1070
     0
  0
MLEADERSTYLE
  5
3F4
102
{ACAD_REACTORS
330
3F3
102
}
330
3F3
100
AcDbMLeaderStyle
170
     2
171
     1
172
     0
 90
        2
 40
0.0
 41
0.0
173
     1
 91
-1056964608
340
27
 92
       -2
290
     1
 42
2.0
291
     1
 43
0.36
  3
Standard
 44
4.0
300

342
24
174
     1
178
     6
175
     1
176
     0
 93
-1056964608
 45
4.0
292
     0
297
     0
 46
4.0
 94
-1056964608
 47
1.0
 49
1.0
140
1.0
293
     1
141
0.0
294
     1
177
     0
142
1.0
295
     0
296
     0
143
0.125
1001
ACAD_MLEADERVER
1070
     2
  0
MLINESTYLE
  5
3B
102
{ACAD_REACTORS
330
34
102
}
330
34
100
AcDbMlineStyle
  2
STANDARD
 70
     0
  3

 62
   256
 51
90.0
 52
90.0
 71
     2
 49
0.5
 62
   256
  6
BYLAYER
 49
-0.5
 62
   256
  6
BYLAYER
  0
ACDBPLACEHOLDER
  5
A
102
{ACAD_REACTORS
330
B
102
}
330
B
  0
SCALE
  5
43
102
{ACAD_REACTORS
330
39
102
}
330
39
100
AcDbScale
 70
     0
300
1:1
140
1.0
141
1.0
290
     1
  0
SCALE
  5
44
102
{ACAD_REACTORS
330
39
102
}
330
39
100
AcDbScale
 70
     0
300
1:2
140
1.0
141
2.0
290
     0
  0
SCALE
  5
45
102
{ACAD_REACTORS
330
39
102
}
330
39
100
AcDbScale
 70
     0
300
1:4
140
1.0
141
4.0
290
     0
  0
SCALE
  5
46
102
{ACAD_REACTORS
330
39
102
}
330
39
100
AcDbScale
 70
     0
300
1:5
140
1.0
141
5.0
290
     0
  0
SCALE
  5
47
102
{ACAD_REACTORS
330
39
102
}
330
39
100
AcDbScale
 70
     0
300
1:8
140
1.0
141
8.0
290
     0
  0
SCALE
  5
48
102
{ACAD_REACTORS
330
39
102
}
330
39
100
AcDbScale
 70
     0
300
1:10
140
1.0
141
10.0
290
     0
  0
SCALE
  5
49
102
{ACAD_REACTORS
330
39
102
}
330
39
100
AcDbScale
 70
     0
300
1:16
140
1.0
141
16.0
290
     0
  0
SCALE
  5
4A
102
{ACAD_REACTORS
330
39
102
}
330
39
100
AcDbScale
 70
     0
300
1:20
140
1.0
141
20.0
290
     0
  0
SCALE
  5
4B
102
{ACAD_REACTORS
330
39
102
}
330
39
100
AcDbScale
 70
     0
300
1:30
140
1.0
141
30.0
290
     0
  0
SCALE
  5
4C
102
{ACAD_REACTORS
330
39
102
}
330
39
100
AcDbScale
 70
     0
300
1:40
140
1.0
141
40.0
290
     0
  0
SCALE
  5
4D
102
{ACAD_REACTORS
330
39
102
}
330
39
100
AcDbScale
 70
     0
300
1:50
140
1.0
141
50.0
290
     0
  0
SCALE
  5
4E
102
{ACAD_REACTORS
330
39
102
}
330
39
100
AcDbScale
 70
     0
300
1:100
140
1.0
141
100.0
290
     0
  0
SCALE
  5
4F
102
{ACAD_REACTORS
330
39
102
}
330
39
100
AcDbScale
 70
     0
300
2:1
140
2.0
141
1.0
290
     0
  0
SCALE
  5
50
102
{ACAD_REACTORS
330
39
102
}
330
39
100
AcDbScale
 70
     0
300
4:1
140
4.0
141
1.0
290
     0
  0
SCALE
  5
51
102
{ACAD_REACTORS
330
39
102
}
330
39
100
AcDbScale
 70
     0
300
8:1
140
8.0
141
1.0
290
     0
  0
SCALE
  5
52
102
{ACAD_REACTORS
330
39
102
}
330
39
100
AcDbScale
 70
     0
300
10:1
140
10.0
141
1.0
290
     0
  0
SCALE
  5
53
102
{ACAD_REACTORS
330
39
102
}
330
39
100
AcDbScale
 70
     0
300
100:1
140
100.0
141
1.0
290
     0
  0
SCALE
  5
54
102
{ACAD_REACTORS
330
39
102
}
330
39
100
AcDbScale
 70
     0
300
1/128" = 1'-0"
140
0.0078125
141
12.0
290
     0
  0
SCALE
  5
55
102
{ACAD_REACTORS
330
39
102
}
330
39
100
AcDbScale
 70
     0
300
1/64" = 1'-0"
140
0.015625
141
12.0
290
     0
  0
SCALE
  5
56
102
{ACAD_REACTORS
330
39
102
}
330
39
100
AcDbScale
 70
     0
300
1/32" = 1'-0"
140
0.03125
141
12.0
290
     0
  0
SCALE
  5
57
102
{ACAD_REACTORS
330
39
102
}
330
39
100
AcDbScale
 70
     0
300
1/16" = 1'-0"
140
0.0625
141
12.0
290
     0
  0
SCALE
  5
58
102
{ACAD_REACTORS
330
39
102
}
330
39
100
AcDbScale
 70
     0
300
3/32" = 1'-0"
140
0.09375
141
12.0
290
     0
  0
SCALE
  5
59
102
{ACAD_REACTORS
330
39
102
}
330
39
100
AcDbScale
 70
     0
300
1/8" = 1'-0"
140
0.125
141
12.0
290
     0
  0
SCALE
  5
5A
102
{ACAD_REACTORS
330
39
102
}
330
39
100
AcDbScale
 70
     0
300
3/16" = 1'-0"
140
0.1875
141
12.0
290
     0
  0
SCALE
  5
5B
102
{ACAD_REACTORS
330
39
102
}
330
39
100
AcDbScale
 70
     0
300
1/4" = 1'-0"
140
0.25
141
12.0
290
     0
  0
SCALE
  5
5C
102
{ACAD_REACTORS
330
39
102
}
330
39
100
AcDbScale
 70
     0
300
3/8" = 1'-0"
140
0.375
141
12.0
290
     0
  0
SCALE
  5
5D
102
{ACAD_REACTORS
330
39
102
}
330
39
100
AcDbScale
 70
     0
300
1/2" = 1'-0"
140
0.5
141
12.0
290
     0
  0
SCALE
  5
5E
102
{ACAD_REACTORS
330
39
102
}
330
39
100
AcDbScale
 70
     0
300
3/4" = 1'-0"
140
0.75
141
12.0
290
     0
  0
SCALE
  5
5F
102
{ACAD_REACTORS
330
39
102
}
330
39
100
AcDbScale
 70
     0
300
1" = 1'-0"
140
1.0
141
12.0
290
     0
  0
SCALE
  5
60
102
{ACAD_REACTORS
330
39
102
}
330
39
100
AcDbScale
 70
     0
300
1-1/2" = 1'-0"
140
1.5
141
12.0
290
     0
  0
SCALE
  5
61
102
{ACAD_REACTORS
330
39
102
}
330
39
100
AcDbScale
 70
     0
300
3" = 1'-0"
140
3.0
141
12.0
290
     0
  0
SCALE
  5
62
102
{ACAD_REACTORS
330
39
102
}
330
39
100
AcDbScale
 70
     0
300
6" = 1'-0"
140
6.0
141
12.0
290
     0
  0
SCALE
  5
63
102
{ACAD_REACTORS
330
39
102
}
330
39
100
AcDbScale
 70
     0
300
1'-0" = 1'-0"
140
12.0
141
12.0
290
     0
  0
TABLESTYLE
  5
3C
102
{ACAD_XDICTIONARY
360
3D
102
}
102
{ACAD_REACTORS
330
3A
102
}
330
3A
100
AcDbTableStyle
  3
Standard
 70
     0
 71
     0
 40
1.5
 41
1.5
280
     0
281
     0
  7
Standard
140
4.5
170
     2
 62
     0
 63
     7
283
     0
274
    -2
284
     1
 64
     0
275
    -2
285
     1
 65
     0
276
    -2
286
     1
 66
     0
277
    -2
287
     1
 67
     0
278
    -2
288
     1
 68
     0
279
    -2
289
     1
 69
     0
  7
Standard
140
6.0
170
     5
 62
     0
 63
     7
283
     0
274
    -2
284
     1
 64
     0
275
    -2
285
     1
 65
     0
276
    -2
286
     1
 66
     0
277
    -2
287
     1
 67
     0
278
    -2
288
     1
 68
     0
279
    -2
289
     1
 69
     0
  7
Standard
140
4.5
170
     5
 62
     0
 63
     7
283
     0
274
    -2
284
     1
 64
     0
275
    -2
285
     1
 65
     0
276
    -2
286
     1
 66
     0
277
    -2
287
     1
 67
     0
278
    -2
288
     1
 68
     0
279
    -2
289
     1
 69
     0
  0
VISUALSTYLE
  5
2D
102
{ACAD_REACTORS
330
2E
102
}
330
2E
100
AcDbVisualStyle
  2
2dWireframe
 70
     4
 71
     0
 72
     2
 73
     1
 90
        0
 40
-0.6
 41
-30.0
 62
     5
 63
     7
 74
     1
 91
        4
 64
     7
 65
   257
 75
     1
175
     1
 42
1.0
 92
        0
 66
   257
 43
1.0
 76
     1
 77
     6
 78
     2
 67
     7
 79
     5
170
     0
171
     0
290
     0
174
     0
 93
        1
 44
0.0
173
     0
291
     0
 45
0.0
1001
ACAD
1000
AcDbSavedByObjectVersion
1070
     0
1000
AcDbSavedByObjectVersion
1070
     0
  0
VISUALSTYLE
  5
3EB
102
{ACAD_REACTORS
330
2E
102
}
330
2E
100
AcDbVisualStyle
  2
3D Hidden
 70
     6
 71
     1
 72
     2
 73
     2
 90
        0
 40
-0.6
 41
-30.0
 62
     5
 63
     7
 74
     2
 91
        2
 64
     7
 65
   257
 75
     2
175
     1
 42
40.0
 92
        0
 66
   257
 43
1.0
 76
     1
 77
     6
 78
     2
 67
     7
 79
     3
170
     0
171
     0
290
     0
174
     0
 93
        1
 44
0.0
173
     0
291
     0
 45
0.0
1001
ACAD
1000
AcDbSavedByObjectVersion
1070
     0
  0
VISUALSTYLE
  5
3F
102
{ACAD_REACTORS
330
2E
102
}
330
2E
100
AcDbVisualStyle
  2
3dWireframe
 70
     5
 71
     0
 72
     2
 73
     1
 90
        0
 40
-0.6
 41
-30.0
 62
     5
 63
     7
 74
     1
 91
        4
 64
     7
 65
   257
 75
     1
175
     1
 42
1.0
 92
        0
 66
   257
 43
1.0
 76
     1
 77
     6
 78
     2
 67
     7
 79
     5
170
     0
171
     0
290
     0
174
     0
 93
        1
 44
0.0
173
     0
291
     0
 45
0.0
1001
ACAD
1000
AcDbSavedByObjectVersion
1070
     0
1000
AcDbSavedByObjectVersion
1070
     0
  0
VISUALSTYLE
  5
3EA
102
{ACAD_REACTORS
330
2E
102
}
330
2E
100
AcDbVisualStyle
  2
Basic
 70
     7
 71
     1
 72
     0
 73
     1
 90
        0
 40
-0.6
 41
-30.0
 62
     5
 63
     7
 74
     0
 91
        4
 64
     7
 65
   257
 75
     1
175
     1
 42
1.0
 92
        8
 66
     7
 43
1.0
 76
     1
 77
     6
 78
     2
 67
     7
 79
     5
170
     0
171
     0
290
     0
174
     0
 93
        1
 44
0.0
173
     0
291
     1
 45
0.0
1001
ACAD
1000
AcDbSavedByObjectVersion
1070
     0
  0
VISUALSTYLE
  5
3EE
102
{ACAD_REACTORS
330
2E
102
}
330
2E
100
AcDbVisualStyle
  2
Brighten
 70
    12
 71
     2
 72
     2
 73
     0
 90
        0
 40
-0.6
 41
-30.0
 62
     5
 63
     7
 74
     1
 91
        4
 64
     7
 65
   257
 75
     1
175
     1
 42
1.0
 92
        8
 66
     7
 43
1.0
 76
     1
 77
     6
 78
     2
 67
     7
 79
     5
170
     0
171
     0
290
     0
174
     0
 93
        1
 44
50.0
173
     0
291
     1
 45
0.0
1001
ACAD
1000
AcDbSavedByObjectVersion
1070
     0
  0
VISUALSTYLE
  5
3F2
102
{ACAD_REACTORS
330
2E
102
}
330
2E
100
AcDbVisualStyle
  2
ColorChange
 70
    16
 71
     2
 72
     2
 73
     3
 90
        0
 40
-0.6
 41
-30.0
 62
     5
 63
     8
 74
     1
 91
        4
 64
     7
 65
   257
 75
     1
175
     1
 42
1.0
 92
        8
 66
     8
 43
1.0
 76
     1
 77
     6
 78
     2
 67
     7
 79
     5
170
     0
171
     0
290
     0
174
     0
 93
        1
 44
0.0
173
     0
291
     1
 45
0.0
1001
ACAD
1000
AcDbSavedByObjectVersion
1070
     0
  0
VISUALSTYLE
  5
3EC
102
{ACAD_REACTORS
330
2E
102
}
330
2E
100
AcDbVisualStyle
  2
Conceptual
 70
     9
 71
     3
 72
     2
 73
     0
 90
        0
 40
-0.6
 41
-30.0
 62
     5
 63
     7
 74
     2
 91
        2
 64
     7
 65
   257
 75
     1
175
     1
 42
40.0
 92
        8
 66
     7
 43
1.0
 76
     1
 77
     6
 78
     2
 67
     7
 79
     3
170
     0
171
     0
290
     0
174
     0
 93
        1
 44
0.0
173
     0
291
     0
 45
0.0
1001
ACAD
1000
AcDbSavedByObjectVersion
1070
     0
  0
VISUALSTYLE
  5
3ED
102
{ACAD_REACTORS
330
2E
102
}
330
2E
100
AcDbVisualStyle
  2
Dim
 70
    11
 71
     2
 72
     2
 73
     0
 90
        0
 40
-0.6
 41
-30.0
 62
     5
 63
     7
 74
     1
 91
        4
 64
     7
 65
   257
 75
     1
175
     1
 42
1.0
 92
        8
 66
     7
 43
1.0
 76
     1
 77
     6
 78
     2
 67
     7
 79
     5
170
     0
171
     0
290
     0
174
     0
 93
        1
 44
-50.0
173
     0
291
     1
 45
0.0
1001
ACAD
1000
AcDbSavedByObjectVersion
1070
     0
  0
VISUALSTYLE
  5
3F1
102
{ACAD_REACTORS
330
2E
102
}
330
2E
100
AcDbVisualStyle
  2
Facepattern
 70
    15
 71
     2
 72
     2
 73
     0
 90
        0
 40
-0.6
 41
-30.0
 62
     5
 63
     7
 74
     1
 91
        4
 64
     7
 65
   257
 75
     1
175
     1
 42
1.0
 92
        8
 66
     7
 43
1.0
 76
     1
 77
     6
 78
     2
 67
     7
 79
     5
170
     0
171
     0
290
     0
174
     0
 93
        1
 44
0.0
173
     0
291
     1
 45
0.0
1001
ACAD
1000
AcDbSavedByObjectVersion
1070
     0
  0
VISUALSTYLE
  5
3E6
102
{ACAD_REACTORS
330
2E
102
}
330
2E
100
AcDbVisualStyle
  2
Flat
 70
     0
 71
     2
 72
     1
 73
     1
 90
        2
 40
-0.6
 41
30.0
 62
     5
 63
     7
 74
     0
 91
        4
 64
     7
 65
   257
 75
     1
175
     1
 42
1.0
 92
        8
 66
     7
 43
1.0
 76
     1
 77
     6
 78
     2
 67
     7
 79
     5
170
     0
171
     0
290
     0
174
     0
 93
       13
 44
0.0
173
     0
291
     1
 45
0.0
1001
ACAD
1000
AcDbSavedByObjectVersion
1070
     0
  0
VISUALSTYLE
  5
3E7
102
{ACAD_REACTORS
330
2E
102
}
330
2E
100
AcDbVisualStyle
  2
FlatWithEdges
 70
     1
 71
     2
 72
     1
 73
     1
 90
        2
 40
-0.6
 41
30.0
 62
     5
 63
     7
 74
     1
 91
        4
 64
     7
 65
   257
 75
     1
175
     1
 42
1.0
 92
        0
 66
   257
 43
1.0
 76
     1
 77
     6
 78
     2
 67
     7
 79
     5
170
     0
171
     0
290
     0
174
     0
 93
       13
 44
0.0
173
     0
291
     1
 45
0.0
1001
ACAD
1000
AcDbSavedByObjectVersion
1070
     0
  0
VISUALSTYLE
  5
3E8
102
{ACAD_REACTORS
330
2E
102
}
330
2E
100
AcDbVisualStyle
  2
Gouraud
 70
     2
 71
     2
 72
     2
 73
     1
 90
        2
 40
-0.6
 41
30.0
 62
     5
 63
     7
 74
     0
 91
        4
 64
     7
 65
   257
 75
     1
175
     1
 42
1.0
 92
        0
 66
     7
 43
1.0
 76
     1
 77
     6
 78
     2
 67
     7
 79
     5
170
     0
171
     0
290
     0
174
     0
 93
       13
 44
0.0
173
     0
291
     1
 45
0.0
1001
ACAD
1000
AcDbSavedByObjectVersion
1070
     0
  0
VISUALSTYLE
  5
3E9
102
{ACAD_REACTORS
330
2E
102
}
330
2E
100
AcDbVisualStyle
  2
GouraudWithEdges
 70
     3
 71
     2
 72
     2
 73
     1
 90
        2
 40
-0.6
 41
30.0
 62
     5
 63
     7
 74
     1
 91
        4
 64
     7
 65
   257
 75
     1
175
     1
 42
1.0
 92
        0
 66
   257
 43
1.0
 76
     1
 77
     6
 78
     2
 67
     7
 79
     5
170
     0
171
     0
290
     0
174
     0
 93
       13
 44
0.0
173
     0
291
     1
 45
0.0
1001
ACAD
1000
AcDbSavedByObjectVersion
1070
     0
  0
VISUALSTYLE
  5
3F0
102
{ACAD_REACTORS
330
2E
102
}
330
2E
100
AcDbVisualStyle
  2
Linepattern
 70
    14
 71
     2
 72
     2
 73
     0
 90
        0
 40
-0.6
 41
-30.0
 62
     5
 63
     7
 74
     1
 91
        4
 64
     7
 65
   257
 75
     7
175
     7
 42
1.0
 92
        8
 66
     7
 43
1.0
 76
     1
 77
     6
 78
     2
 67
     7
 79
     5
170
     0
171
     0
290
     0
174
     0
 93
        1
 44
0.0
173
     0
291
     1
 45
0.0
1001
ACAD
1000
AcDbSavedByObjectVersion
1070
     0
  0
VISUALSTYLE
  5
3E
102
{ACAD_REACTORS
330
2E
102
}
330
2E
100
AcDbVisualStyle
  2
Realistic
 70
     8
 71
     2
 72
     2
 73
     1
 90
        0
 40
-0.6
 41
-30.0
 62
     5
 63
     7
 74
     1
 91
        0
 64
     7
 65
   257
 75
     1
175
     1
 42
1.0
 92
        8
 66
     8
 43
1.0
 76
     1
 77
     6
 78
     2
 67
     7
 79
     5
170
     0
171
     0
290
     0
174
     0
 93
       13
 44
0.0
173
     0
291
     0
 45
0.0
1001
ACAD
1000
AcDbSavedByObjectVersion
1070
     0
1000
AcDbSavedByObjectVersion
1070
     0
  0
VISUALSTYLE
  5
3EF
102
{ACAD_REACTORS
330
2E
102
}
330
2E
100
AcDbVisualStyle
  2
Thicken
 70
    13
 71
     2
 72
     2
 73
     0
 90
        0
 40
-0.6
 41
-30.0
 62
     5
 63
     7
 74
     1
 91
        4
 64
     7
 65
   257
 75
     1
175
     1
 42
1.0
 92
       12
 66
     7
 43
1.0
 76
     1
 77
     6
 78
     2
 67
     7
 79
     5
170
     0
171
     0
290
     0
174
     0
 93
        1
 44
0.0
173
     0
291
     1
 45
0.0
1001
ACAD
1000
AcDbSavedByObjectVersion
1070
     0
  0
DICTIONARYVAR
  5
3CC
102
{ACAD_REACTORS
330
3C8
102
}
330
3C8
100
DictionaryVariables
280
     0
  1
1:1
  0
DICTIONARYVAR
  5
3CA
102
{ACAD_REACTORS
330
3C8
102
}
330
3C8
100
DictionaryVariables
280
     0
  1
STANDARD
  0
DICTIONARYVAR
  5
3C9
102
{ACAD_REACTORS
330
3C8
102
}
330
3C8
100
DictionaryVariables
280
     0
  1
STANDARD
  0
DICTIONARYVAR
  5
3D1
102
{ACAD_REACTORS
330
3C8
102
}
330
3C8
100
DictionaryVariables
280
     0
  1
2
  0
DICTIONARYVAR
  5
3D0
102
{ACAD_REACTORS
330
3C8
102
}
330
3C8
100
DictionaryVariables
280
     0
  1
1
  0
DICTIONARYVAR
  5
3CF
102
{ACAD_REACTORS
330
3C8
102
}
330
3C8
100
DictionaryVariables
280
     0
  1
0
  0
DICTIONARYVAR
  5
3CD
102
{ACAD_REACTORS
330
3C8
102
}
330
3C8
100
DictionaryVariables
280
     0
  1
2
  0
DICTIONARYVAR
  5
3CB
102
{ACAD_REACTORS
330
3C8
102
}
330
3C8
100
DictionaryVariables
280
     0
  1
1
  0
DICTIONARYVAR
  5
3FC
102
{ACAD_REACTORS
330
3C8
102
}
330
3C8
100
DictionaryVariables
280
     0
  1
80.000000
  0
DICTIONARYVAR
  5
3FB
102
{ACAD_REACTORS
330
3C8
102
}
330
3C8
100
DictionaryVariables
280
     0
  1
5.000000
  0
DICTIONARYVAR
  5
3CE
102
{ACAD_REACTORS
330
3C8
102
}
330
3C8
100
DictionaryVariables
280
     0
  1
127
  0
DICTIONARY
  5
401
330
17
100
AcDbDictionary
280
     1
281
     1
  3
ACAD_XREC_ROUNDTRIP
360
402
  0
DICTIONARY
  5
403
330
1F
100
AcDbDictionary
280
     1
281
     1
  3
ACAD_XREC_ROUNDTRIP
360
404
  0
DICTIONARY
  5
3DF
330
37
100
AcDbDictionary
280
     1
281
     1
  3
ACAD_XREC_ROUNDTRIP
360
3E0
  0
DICTIONARY
  5
3DD
330
36
100
AcDbDictionary
280
     1
281
     1
  3
ACAD_XREC_ROUNDTRIP
360
3DE
  0
DICTIONARY
  5
F
330
D
100
AcDbDictionary
280
     1
281
     1
  3
ACAD_XREC_ROUNDTRIP
360
3D8
  3
BUMPTILE
360
10
  3
DIFFUSETILE
360
11
  3
OPACITYTILE
360
12
  3
REFLECTIONTILE
360
13
  0
DICTIONARY
  5
3D
330
3C
100
AcDbDictionary
280
     1
281
     1
  3
ACAD_ROUNDTRIP_2008_TABLESTYLE_CELLSTYLEMAP
360
3FD
  3
ACAD_XREC_ROUNDTRIP
360
405
  0
XRECORD
  5
402
102
{ACAD_REACTORS
330
401
102
}
330
401
100
AcDbXrecord
280
     1
102
SHADEPLOT
 70
     0
102
SHADEPLOTRESLEVEL
 70
     2
102
SHADEPLOTCUSTOMDPI
 70
   300
  0
XRECORD
  5
404
102
{ACAD_REACTORS
330
403
102
}
330
403
100
AcDbXrecord
280
     1
102
SHADEPLOT
 70
     0
102
SHADEPLOTRESLEVEL
 70
     2
102
SHADEPLOTCUSTOMDPI
 70
   300
  0
XRECORD
  5
3E0
102
{ACAD_REACTORS
330
3DF
102
}
330
3DF
100
AcDbXrecord
280
     1
102
MATERIAL
148
0.0
149
0.0
149
0.0
 93
        0
 94
      127
282
     0
 72
     1
 77
     1
171
     1
175
     1
179
     1
273
     0
  0
XRECORD
  5
3DE
102
{ACAD_REACTORS
330
3DD
102
}
330
3DD
100
AcDbXrecord
280
     1
102
MATERIAL
148
0.0
149
0.0
149
0.0
 93
        0
 94
      127
282
     0
 72
     1
 77
     1
171
     1
175
     1
179
     1
273
     0
  0
XRECORD
  5
3D8
102
{ACAD_REACTORS
330
F
102
}
330
F
100
AcDbXrecord
280
     1
102
MATERIAL
148
0.0
149
0.0
149
0.0
 93
        0
 94
      127
282
     0
 72
     1
 77
     1
171
     1
175
     1
179
     1
273
     0
  0
XRECORD
  5
10
102
{ACAD_REACTORS
330
F
102
}
330
F
100
AcDbXrecord
280
     1
270
     1
271
     1
  0
XRECORD
  5
11
102
{ACAD_REACTORS
330
F
102
}
330
F
100
AcDbXrecord
280
     1
270
     1
271
     1
  0
XRECORD
  5
12
102
{ACAD_REACTORS
330
F
102
}
330
F
100
AcDbXrecord
280
     1
270
     1
271
     1
  0
XRECORD
  5
13
102
{ACAD_REACTORS
330
F
102
}
330
F
100
AcDbXrecord
280
     1
270
     1
271
     1
  0
CELLSTYLEMAP
  5
3FD
102
{ACAD_REACTORS
330
3D
102
}
330
3D
100
AcDbCellStyleMap
 90
        3
300
CELLSTYLE
  1
TABLEFORMAT_BEGIN
 90
        5
170
     1
 91
        0
 92
    32768
 62
   257
 93
        1
300
CONTENTFORMAT
  1
CONTENTFORMAT_BEGIN
 90
        0
 91
        0
 92
      512
 93
        0
300

 40
0.0
140
1.0
 94
        5
 62
     0
340
24
144
6.0
309
CONTENTFORMAT_END
171
     1
301
MARGIN
  1
CELLMARGIN_BEGIN
 40
1.5
 40
1.5
 40
1.5
 40
1.5
 40
0.18
 40
0.18
309
CELLMARGIN_END
 94
        6
 95
        1
302
GRIDFORMAT
  1
GRIDFORMAT_BEGIN
 90
        0
 91
        1
 62
     0
 92
       -2
340
27
 93
        0
 40
1.125
309
GRIDFORMAT_END
 95
        2
302
GRIDFORMAT
  1
GRIDFORMAT_BEGIN
 90
        0
 91
        1
 62
     0
 92
       -2
340
27
 93
        0
 40
1.125
309
GRIDFORMAT_END
 95
        4
302
GRIDFORMAT
  1
GRIDFORMAT_BEGIN
 90
        0
 91
        1
 62
     0
 92
       -2
340
27
 93
        0
 40
1.125
309
GRIDFORMAT_END
 95
        8
302
GRIDFORMAT
  1
GRIDFORMAT_BEGIN
 90
        0
 91
        1
 62
     0
 92
       -2
340
27
 93
        0
 40
1.125
309
GRIDFORMAT_END
 95
       16
302
GRIDFORMAT
  1
GRIDFORMAT_BEGIN
 90
        0
 91
        1
 62
     0
 92
       -2
340
27
 93
        0
 40
1.125
309
GRIDFORMAT_END
 95
       32
302
GRIDFORMAT
  1
GRIDFORMAT_BEGIN
 90
        0
 91
        1
 62
     0
 92
       -2
340
27
 93
        0
 40
1.125
309
GRIDFORMAT_END
309
TABLEFORMAT_END
  1
CELLSTYLE_BEGIN
 90
        1
 91
        1
300
_TITLE
309
CELLSTYLE_END
300
CELLSTYLE
  1
TABLEFORMAT_BEGIN
 90
        5
170
     1
 91
        0
 92
        0
 62
   257
 93
        1
300
CONTENTFORMAT
  1
CONTENTFORMAT_BEGIN
 90
        0
 91
        0
 92
      512
 93
        0
300

 40
0.0
140
1.0
 94
        5
 62
     0
340
24
144
4.5
309
CONTENTFORMAT_END
171
     1
301
MARGIN
  1
CELLMARGIN_BEGIN
 40
1.5
 40
1.5
 40
1.5
 40
1.5
 40
0.18
 40
0.18
309
CELLMARGIN_END
 94
        6
 95
        1
302
GRIDFORMAT
  1
GRIDFORMAT_BEGIN
 90
        0
 91
        1
 62
     0
 92
       -2
340
27
 93
        0
 40
1.125
309
GRIDFORMAT_END
 95
        2
302
GRIDFORMAT
  1
GRIDFORMAT_BEGIN
 90
        0
 91
        1
 62
     0
 92
       -2
340
27
 93
        0
 40
1.125
309
GRIDFORMAT_END
 95
        4
302
GRIDFORMAT
  1
GRIDFORMAT_BEGIN
 90
        0
 91
        1
 62
     0
 92
       -2
340
27
 93
        0
 40
1.125
309
GRIDFORMAT_END
 95
        8
302
GRIDFORMAT
  1
GRIDFORMAT_BEGIN
 90
        0
 91
        1
 62
     0
 92
       -2
340
27
 93
        0
 40
1.125
309
GRIDFORMAT_END
 95
       16
302
GRIDFORMAT
  1
GRIDFORMAT_BEGIN
 90
        0
 91
        1
 62
     0
 92
       -2
340
27
 93
        0
 40
1.125
309
GRIDFORMAT_END
 95
       32
302
GRIDFORMAT
  1
GRIDFORMAT_BEGIN
 90
        0
 91
        1
 62
     0
 92
       -2
340
27
 93
        0
 40
1.125
309
GRIDFORMAT_END
309
TABLEFORMAT_END
  1
CELLSTYLE_BEGIN
 90
        2
 91
        1
300
_HEADER
309
CELLSTYLE_END
300
CELLSTYLE
  1
TABLEFORMAT_BEGIN
 90
        5
170
     1
 91
        0
 92
        0
 62
   257
 93
        1
300
CONTENTFORMAT
  1
CONTENTFORMAT_BEGIN
 90
        0
 91
        0
 92
      512
 93
        0
300

 40
0.0
140
1.0
 94
        2
 62
     0
340
24
144
4.5
309
CONTENTFORMAT_END
171
     1
301
MARGIN
  1
CELLMARGIN_BEGIN
 40
1.5
 40
1.5
 40
1.5
 40
1.5
 40
0.18
 40
0.18
309
CELLMARGIN_END
 94
        6
 95
        1
302
GRIDFORMAT
  1
GRIDFORMAT_BEGIN
 90
        0
 91
        1
 62
     0
 92
       -2
340
27
 93
        0
 40
1.125
309
GRIDFORMAT_END
 95
        2
302
GRIDFORMAT
  1
GRIDFORMAT_BEGIN
 90
        0
 91
        1
 62
     0
 92
       -2
340
27
 93
        0
 40
1.125
309
GRIDFORMAT_END
 95
        4
302
GRIDFORMAT
  1
GRIDFORMAT_BEGIN
 90
        0
 91
        1
 62
     0
 92
       -2
340
27
 93
        0
 40
1.125
309
GRIDFORMAT_END
 95
        8
302
GRIDFORMAT
  1
GRIDFORMAT_BEGIN
 90
        0
 91
        1
 62
     0
 92
       -2
340
27
 93
        0
 40
1.125
309
GRIDFORMAT_END
 95
       16
302
GRIDFORMAT
  1
GRIDFORMAT_BEGIN
 90
        0
 91
        1
 62
     0
 92
       -2
340
27
 93
        0
 40
1.125
309
GRIDFORMAT_END
 95
       32
302
GRIDFORMAT
  1
GRIDFORMAT_BEGIN
 90
        0
 91
        1
 62
     0
 92
       -2
340
27
 93
        0
 40
1.125
309
GRIDFORMAT_END
309
TABLEFORMAT_END
  1
CELLSTYLE_BEGIN
 90
        3
 91
        2
300
_DATA
309
CELLSTYLE_END
  0
XRECORD
  5
405
102
{ACAD_REACTORS
330
3D
102
}
330
3D
100
AcDbXrecord
280
     1
102
ACAD_ROUNDTRIP_PRE2007_TABLESTYLE
 90
      512
 91
        0
  1

 92
      512
 93
        0
  2

 94
      512
 95
        0
  3

  0
ENDSEC
  0
EOF
