  0
SECTION
  2
HEADER
  9
$ACADVER
  1
AC1015
  9
$ACADMAINTVER
 70
    20
  9
$DWGCODEPAGE
  3
ANSI_949
  9
$INSBASE
 10
0.0
 20
0.0
 30
0.0
  9
$EXTMIN
 10
9405.360155799469
 20
-1907.97526440729
 30
-0.0000091545749633
  9
$EXTMAX
 10
9829.644527613492
 20
-1713.235737852794
 30
0.0000137332594111
  9
$LIMMIN
 10
0.0
 20
0.0
  9
$LIMMAX
 10
420.0
 20
297.0
  9
$ORTHOMODE
 70
     1
  9
$REGENMODE
 70
     1
  9
$FILLMODE
 70
     1
  9
$QTEXTMODE
 70
     0
  9
$MIRRTEXT
 70
     0
  9
$LTSCALE
 40
1.0
  9
$ATTMODE
 70
     1
  9
$TEXTSIZE
 40
2.5
  9
$TRACEWID
 40
1.0
  9
$TEXTSTYLE
  7
Standard
  9
$CLAYER
  8
0
  9
$CELTYPE
  6
ByLayer
  9
$CECOLOR
 62
   256
  9
$CELTSCALE
 40
1.0
  9
$DISPSILH
 70
     0
  9
$DIMSCALE
 40
1.0
  9
$DIMASZ
 40
4.0
  9
$DIMEXO
 40
1.0
  9
$DIMDLI
 40
10.0
  9
$DIMRND
 40
0.0
  9
$DIMDLE
 40
0.0
  9
$DIMEXE
 40
0.6
  9
$DIMTP
 40
0.0
  9
$DIMTM
 40
0.0
  9
$DIMTXT
 40
5.0
  9
$DIMCEN
 40
0.09
  9
$DIMTSZ
 40
0.0
  9
$DIMTOL
 70
     0
  9
$DIMLIM
 70
     0
  9
$DIMTIH
 70
     0
  9
$DIMTOH
 70
     0
  9
$DIMSE1
 70
     0
  9
$DIMSE2
 70
     0
  9
$DIMTAD
 70
     1
  9
$DIMZIN
 70
     8
  9
$DIMBLK
  1

  9
$DIMASO
 70
     1
  9
$DIMSHO
 70
     1
  9
$DIMPOST
  1

  9
$DIMAPOST
  1

  9
$DIMALT
 70
     0
  9
$DIMALTD
 70
     2
  9
$DIMALTF
 40
25.4
  9
$DIMLFAC
 40
1.0
  9
$DIMTOFL
 70
     1
  9
$DIMTVP
 40
0.0
  9
$DIMTIX
 70
     1
  9
$DIMSOXD
 70
     0
  9
$DIMSAH
 70
     0
  9
$DIMBLK1
  1

  9
$DIMBLK2
  1

  9
$DIMSTYLE
  2
STANDARD
  9
$DIMCLRD
 70
   123
  9
$DIMCLRE
 70
   123
  9
$DIMCLRT
 70
     3
  9
$DIMTFAC
 40
1.0
  9
$DIMGAP
 40
1.5
  9
$DIMJUST
 70
     0
  9
$DIMSD1
 70
     0
  9
$DIMSD2
 70
     0
  9
$DIMTOLJ
 70
     1
  9
$DIMTZIN
 70
     0
  9
$DIMALTZ
 70
     0
  9
$DIMALTTZ
 70
     0
  9
$DIMUPT
 70
     1
  9
$DIMDEC
 70
     2
  9
$DIMTDEC
 70
     2
  9
$DIMALTU
 70
     2
  9
$DIMALTTD
 70
     2
  9
$DIMTXSTY
  7
Standard
  9
$DIMAUNIT
 70
     1
  9
$DIMADEC
 70
     1
  9
$DIMALTRND
 40
0.0
  9
$DIMAZIN
 70
     2
  9
$DIMDSEP
 70
    46
  9
$DIMATFIT
 70
     0
  9
$DIMFRAC
 70
     0
  9
$DIMLDRBLK
  1

  9
$DIMLUNIT
 70
     2
  9
$DIMLWD
 70
    -2
  9
$DIMLWE
 70
    -2
  9
$DIMTMOVE
 70
     0
  9
$LUNITS
 70
     2
  9
$LUPREC
 70
     4
  9
$SKETCHINC
 40
1.0
  9
$FILLETRAD
 40
0.0
  9
$AUNITS
 70
     0
  9
$AUPREC
 70
     0
  9
$MENU
  1
.
  9
$ELEVATION
 40
0.0
  9
$PELEVATION
 40
0.0
  9
$THICKNESS
 40
0.0
  9
$LIMCHECK
 70
     0
  9
$CHAMFERA
 40
0.5
  9
$CHAMFERB
 40
0.5
  9
$CHAMFERC
 40
0.0
  9
$CHAMFERD
 40
0.0
  9
$SKPOLY
 70
     0
  9
$TDCREATE
 40
2455638.478663565
  9
$TDUCREATE
 40
2455638.103663565
  9
$TDUPDATE
 40
2455916.470028565
  9
$TDUUPDATE
 40
2455916.095028565
  9
$TDINDWG
 40
3.4873727778
  9
$TDUSRTIMER
 40
3.4873725926
  9
$USRTIMER
 70
     1
  9
$ANGBASE
 50
0.0
  9
$ANGDIR
 70
     0
  9
$PDMODE
 70
     0
  9
$PDSIZE
 40
0.0
  9
$PLINEWID
 40
0.0
  9
$SPLFRAME
 70
     0
  9
$SPLINETYPE
 70
     6
  9
$SPLINESEGS
 70
     8
  9
$HANDSEED
  5
408
  9
$SURFTAB1
 70
     6
  9
$SURFTAB2
 70
     6
  9
$SURFTYPE
 70
     6
  9
$SURFU
 70
     6
  9
$SURFV
 70
     6
  9
$UCSBASE
  2

  9
$UCSNAME
  2

  9
$UCSORG
 10
0.0
 20
0.0
 30
0.0
  9
$UCSXDIR
 10
1.0
 20
0.0
 30
0.0
  9
$UCSYDIR
 10
0.0
 20
1.0
 30
0.0
  9
$UCSORTHOREF
  2

  9
$UCSORTHOVIEW
 70
     0
  9
$UCSORGTOP
 10
0.0
 20
0.0
 30
0.0
  9
$UCSORGBOTTOM
 10
0.0
 20
0.0
 30
0.0
  9
$UCSORGLEFT
 10
0.0
 20
0.0
 30
0.0
  9
$UCSORGRIGHT
 10
0.0
 20
0.0
 30
0.0
  9
$UCSORGFRONT
 10
0.0
 20
0.0
 30
0.0
  9
$UCSORGBACK
 10
0.0
 20
0.0
 30
0.0
  9
$PUCSBASE
  2

  9
$PUCSNAME
  2

  9
$PUCSORG
 10
0.0
 20
0.0
 30
0.0
  9
$PUCSXDIR
 10
1.0
 20
0.0
 30
0.0
  9
$PUCSYDIR
 10
0.0
 20
1.0
 30
0.0
  9
$PUCSORTHOREF
  2

  9
$PUCSORTHOVIEW
 70
     0
  9
$PUCSORGTOP
 10
0.0
 20
0.0
 30
0.0
  9
$PUCSORGBOTTOM
 10
0.0
 20
0.0
 30
0.0
  9
$PUCSORGLEFT
 10
0.0
 20
0.0
 30
0.0
  9
$PUCSORGRIGHT
 10
0.0
 20
0.0
 30
0.0
  9
$PUCSORGFRONT
 10
0.0
 20
0.0
 30
0.0
  9
$PUCSORGBACK
 10
0.0
 20
0.0
 30
0.0
  9
$USERI1
 70
     0
  9
$USERI2
 70
     0
  9
$USERI3
 70
     0
  9
$USERI4
 70
     0
  9
$USERI5
 70
     0
  9
$USERR1
 40
0.0
  9
$USERR2
 40
0.0
  9
$USERR3
 40
0.0
  9
$USERR4
 40
0.0
  9
$USERR5
 40
0.0
  9
$WORLDVIEW
 70
     1
  9
$SHADEDGE
 70
     3
  9
$SHADEDIF
 70
    70
  9
$TILEMODE
 70
     1
  9
$MAXACTVP
 70
    48
  9
$PINSBASE
 10
0.0
 20
0.0
 30
0.0
  9
$PLIMCHECK
 70
     0
  9
$PEXTMIN
 10
0.0
 20
0.0
 30
0.0
  9
$PEXTMAX
 10
0.0
 20
0.0
 30
0.0
  9
$PLIMMIN
 10
0.0
 20
0.0
  9
$PLIMMAX
 10
12.0
 20
9.0
  9
$UNITMODE
 70
     0
  9
$VISRETAIN
 70
     1
  9
$PLINEGEN
 70
     0
  9
$PSLTSCALE
 70
     1
  9
$TREEDEPTH
 70
  3020
  9
$CMLSTYLE
  2
Standard
  9
$CMLJUST
 70
     0
  9
$CMLSCALE
 40
20.0
  9
$PROXYGRAPHICS
 70
     1
  9
$MEASUREMENT
 70
     1
  9
$CELWEIGHT
370
    -1
  9
$ENDCAPS
280
     0
  9
$JOINSTYLE
280
     0
  9
$LWDISPLAY
290
     0
  9
$INSUNITS
 70
     4
  9
$HYPERLINKBASE
  1

  9
$STYLESHEET
  1

  9
$XEDIT
290
     1
  9
$CEPSNTYPE
380
     0
  9
$PSTYLEMODE
290
     1
  9
$FINGERPRINTGUID
  2
{BAAA512C-530C-45C3-A597-5DBFB94719B4}
  9
$VERSIONGUID
  2
{A5D7E247-DC50-4755-81A9-B1DBC95BF8B4}
  9
$EXTNAMES
290
     1
  9
$PSVPSCALE
 40
0.0
  9
$OLESTARTUP
290
     0
  0
ENDSEC
  0
SECTION
  2
CLASSES
  0
CLASS
  1
ACDBDICTIONARYWDFLT
  2
AcDbDictionaryWithDefault
  3
ObjectDBX Classes
 90
        0
280
     0
281
     0
  0
CLASS
  1
ACDBPLACEHOLDER
  2
AcDbPlaceHolder
  3
ObjectDBX Classes
 90
        0
280
     0
281
     0
  0
CLASS
  1
LAYOUT
  2
AcDbLayout
  3
ObjectDBX Classes
 90
        0
280
     0
281
     0
  0
CLASS
  1
DICTIONARYVAR
  2
AcDbDictionaryVar
  3
ObjectDBX Classes
 90
        0
280
     0
281
     0
  0
CLASS
  1
TABLESTYLE
  2
AcDbTableStyle
  3
ObjectDBX Classes
 90
     4095
280
     0
281
     0
  0
CLASS
  1
MATERIAL
  2
AcDbMaterial
  3
ObjectDBX Classes
 90
     1153
280
     0
281
     0
  0
CLASS
  1
VISUALSTYLE
  2
AcDbVisualStyle
  3
ObjectDBX Classes
 90
     4095
280
     0
281
     0
  0
CLASS
  1
SCALE
  2
AcDbScale
  3
ObjectDBX Classes
 90
     1153
280
     0
281
     0
  0
CLASS
  1
MLEADERSTYLE
  2
AcDbMLeaderStyle
  3
ACDB_MLEADERSTYLE_CLASS
 90
     4095
280
     0
281
     0
  0
CLASS
  1
CELLSTYLEMAP
  2
AcDbCellStyleMap
  3
ObjectDBX Classes
 90
     1152
280
     0
281
     0
  0
CLASS
  1
DIMASSOC
  2
AcDbDimAssoc
  3
"AcDbDimAssoc|Product Desc:     AcDim ARX App For Dimension|Company:          Autodesk, Inc.|WEB Address:      www.autodesk.com"
 90
        0
280
     0
281
     0
  0
CLASS
  1
SORTENTSTABLE
  2
AcDbSortentsTable
  3
ObjectDBX Classes
 90
        0
280
     0
281
     0
  0
CLASS
  1
BREAKDATA
  2
AcDbBreakData
  3
ObjectDBX Classes
 90
    33792
280
     0
281
     0
  0
CLASS
  1
EXACXREFPANELOBJECT
  2
ExAcXREFPanelObject
  3
EXAC_ESW
 90
     1025
280
     0
281
     0
  0
CLASS
  1
NPOCOLLECTION
  2
AcDbImpNonPersistentObjectsCollection
  3
ObjectDBX Classes
 90
     1153
280
     0
281
     0
  0
CLASS
  1
SOLID_BACKGROUND
  2
AcDbSolidBackground
  3
SCENEOE
 90
    36863
280
     0
281
     0
  0
ENDSEC
  0
SECTION
  2
TABLES
  0
TABLE
  2
VPORT
  5
2B
102
{ACAD_XDICTIONARY
360
2F
102
}
330
0
100
AcDbSymbolTable
 70
     1
  0
VPORT
  5
2C
330
2B
100
AcDbSymbolTableRecord
100
AcDbViewportTableRecord
  2
*Active
 70
     0
 10
0.0
 20
0.0
 11
1.0
 21
1.0
 12
9617.502341706481
 22
-1810.605501130042
 13
0.0
 23
0.0
 14
10.0
 24
10.0
 15
10.0
 25
10.0
 16
0.0
 26
0.0
 36
1.0
 17
0.0
 27
0.0
 37
0.0
 40
285.5613815658377
 41
1.492874109263657
 42
50.0
 43
0.0
 44
0.0
 50
0.0
 51
0.0
 71
     0
 72
  1000
 73
     1
 74
     3
 75
     0
 76
     0
 77
     0
 78
     0
281
     0
 65
     1
110
0.0
120
0.0
130
0.0
111
1.0
121
0.0
131
0.0
112
0.0
122
1.0
132
0.0
 79
     0
146
0.0
  0
ENDTAB
  0
TABLE
  2
LTYPE
  5
26
330
0
100
AcDbSymbolTable
 70
     2
  0
LTYPE
  5
27
330
26
100
AcDbSymbolTableRecord
100
AcDbLinetypeTableRecord
  2
ByBlock
 70
     0
  3

 72
    65
 73
     0
 40
0.0
  0
LTYPE
  5
28
330
26
100
AcDbSymbolTableRecord
100
AcDbLinetypeTableRecord
  2
ByLayer
 70
     0
  3

 72
    65
 73
     0
 40
0.0
  0
LTYPE
  5
15
330
26
100
AcDbSymbolTableRecord
100
AcDbLinetypeTableRecord
  2
Continuous
 70
     0
  3
Solid line
 72
    65
 73
     0
 40
0.0
  0
LTYPE
  5
77
330
26
100
AcDbSymbolTableRecord
100
AcDbLinetypeTableRecord
  2
CENTER
 70
     0
  3
Center ____ _ ____ _ ____ _ ____ _ ____ _ ____
 72
    65
 73
     4
 40
50.8
 49
31.75
 74
     0
 49
-6.349999999999998
 74
     0
 49
6.349999999999998
 74
     0
 49
-6.349999999999998
 74
     0
  0
ENDTAB
  0
TABLE
  2
LAYER
  5
20
102
{ACAD_XDICTIONARY
360
21
102
}
330
0
100
AcDbSymbolTable
 70
     2
  0
LAYER
  5
7
102
{ACAD_XDICTIONARY
360
8
102
}
330
20
100
AcDbSymbolTableRecord
100
AcDbLayerTableRecord
  2
0
 70
     0
 62
     7
  6
Continuous
370
    -3
390
A
  0
LAYER
  5
6F
330
20
100
AcDbSymbolTableRecord
100
AcDbLayerTableRecord
  2
Defpoints
 70
     0
 62
     7
  6
Continuous
290
     0
370
    -3
390
A
  0
ENDTAB
  0
TABLE
  2
STYLE
  5
23
330
0
100
AcDbSymbolTable
 70
     1
  0
STYLE
  5
24
330
23
100
AcDbSymbolTableRecord
100
AcDbTextStyleTableRecord
  2
Standard
 70
     0
 40
0.0
 41
1.0
 50
0.0
 71
     0
 42
2.5
  3
romans.shx
  4
whgtxt.shx
  0
ENDTAB
  0
TABLE
  2
VIEW
  5
29
330
0
100
AcDbSymbolTable
 70
     0
  0
ENDTAB
  0
TABLE
  2
UCS
  5
2A
330
0
100
AcDbSymbolTable
 70
     0
  0
ENDTAB
  0
TABLE
  2
APPID
  5
30
330
0
100
AcDbSymbolTable
 70
     5
  0
APPID
  5
14
330
30
100
AcDbSymbolTableRecord
100
AcDbRegAppTableRecord
  2
ACAD
 70
     0
  0
APPID
  5
19
330
30
100
AcDbSymbolTableRecord
100
AcDbRegAppTableRecord
  2
ACAD_PSEXT
 70
     0
  0
APPID
  5
41
330
30
100
AcDbSymbolTableRecord
100
AcDbRegAppTableRecord
  2
ACAD_DSTYLE_DIMJAG
 70
     0
  0
APPID
  5
42
330
30
100
AcDbSymbolTableRecord
100
AcDbRegAppTableRecord
  2
ACAD_DSTYLE_DIMTALN
 70
     0
  0
APPID
  5
3F5
330
30
100
AcDbSymbolTableRecord
100
AcDbRegAppTableRecord
  2
ACAD_MLEADERVER
 70
     0
  0
ENDTAB
  0
TABLE
  2
DIMSTYLE
  5
31
330
0
100
AcDbSymbolTable
 70
     1
100
AcDbDimStyleTable
 71
     0
  0
DIMSTYLE
105
40
102
{ACAD_REACTORS
330
180
330
17F
330
15F
330
14D
330
13E
330
128
330
118
330
101
330
F2
330
E1
330
CB
330
BD
330
B3
330
87
330
65
102
}
330
31
100
AcDbSymbolTableRecord
100
AcDbDimStyleTableRecord
  2
STANDARD
 70
     0
 41
4.0
 42
1.0
 43
10.0
 44
0.6
 73
     0
 74
     0
 77
     1
 78
     8
 79
     2
140
5.0
147
1.5
172
     1
174
     1
176
   123
177
   123
178
     3
179
     1
271
     2
272
     2
275
     1
288
     1
289
     0
340
24
1001
ACAD_DSTYLE_DIMJAG
1070
   388
1040
1.5
1001
ACAD_DSTYLE_DIMTALN
1070
   392
1070
     0
  0
ENDTAB
  0
TABLE
  2
BLOCK_RECORD
  5
1
330
0
100
AcDbSymbolTable
 70
    12
  0
BLOCK_RECORD
  5
2
102
{ACAD_XDICTIONARY
360
3
102
}
330
1
100
AcDbSymbolTableRecord
100
AcDbBlockTableRecord
  2
*Model_Space
340
17
  0
BLOCK_RECORD
  5
1A
102
{ACAD_XDICTIONARY
360
1B
102
}
330
1
100
AcDbSymbolTableRecord
100
AcDbBlockTableRecord
  2
*Paper_Space
340
1F
  0
BLOCK_RECORD
  5
66
330
1
100
AcDbSymbolTableRecord
100
AcDbBlockTableRecord
  2
*D0
340
0
  0
BLOCK_RECORD
  5
BE
330
1
100
AcDbSymbolTableRecord
100
AcDbBlockTableRecord
  2
*D1
340
0
  0
BLOCK_RECORD
  5
8A
330
1
100
AcDbSymbolTableRecord
100
AcDbBlockTableRecord
  2
*D2
340
0
  0
BLOCK_RECORD
  5
CC
330
1
100
AcDbSymbolTableRecord
100
AcDbBlockTableRecord
  2
*D3
340
0
  0
BLOCK_RECORD
  5
F3
330
1
100
AcDbSymbolTableRecord
100
AcDbBlockTableRecord
  2
*D4
340
0
  0
BLOCK_RECORD
  5
160
330
1
100
AcDbSymbolTableRecord
100
AcDbBlockTableRecord
  2
*D5
340
0
  0
BLOCK_RECORD
  5
E4
330
1
100
AcDbSymbolTableRecord
100
AcDbBlockTableRecord
  2
*D6
340
0
  0
BLOCK_RECORD
  5
104
330
1
100
AcDbSymbolTableRecord
100
AcDbBlockTableRecord
  2
*D7
340
0
  0
BLOCK_RECORD
  5
11B
330
1
100
AcDbSymbolTableRecord
100
AcDbBlockTableRecord
  2
*D8
340
0
  0
BLOCK_RECORD
  5
12B
330
1
100
AcDbSymbolTableRecord
100
AcDbBlockTableRecord
  2
*D9
340
0
  0
BLOCK_RECORD
  5
141
330
1
100
AcDbSymbolTableRecord
100
AcDbBlockTableRecord
  2
*D10
340
0
  0
BLOCK_RECORD
  5
150
330
1
100
AcDbSymbolTableRecord
100
AcDbBlockTableRecord
  2
*D11
340
0
  0
ENDTAB
  0
ENDSEC
  0
SECTION
  2
BLOCKS
  0
BLOCK
  5
6
330
2
100
AcDbEntity
  8
0
100
AcDbBlockBegin
  2
*Model_Space
 70
     0
 10
0.0
 20
0.0
 30
0.0
  3
*Model_Space
  1

  0
ENDBLK
  5
16
330
2
100
AcDbEntity
  8
0
100
AcDbBlockEnd
  0
BLOCK
  5
1D
330
1A
100
AcDbEntity
 67
     1
  8
0
100
AcDbBlockBegin
  2
*Paper_Space
 70
     0
 10
0.0
 20
0.0
 30
0.0
  3
*Paper_Space
  1

  0
ENDBLK
  5
1E
330
1A
100
AcDbEntity
 67
     1
  8
0
100
AcDbBlockEnd
  0
BLOCK
  5
67
330
66
100
AcDbEntity
  8
0
100
AcDbBlockBegin
  2
*D0
 70
     1
 10
0.0
 20
0.0
 30
0.0
  3
*D0
  1

  0
LINE
  5
68
330
66
100
AcDbEntity
  8
0
 62
   123
 48
0.6
100
AcDbLine
 10
9455.93386531411
 20
-1852.659686120062
 30
0.0
 11
9455.935279881989
 21
-1876.634031836857
 31
0.0
  0
LINE
  5
69
330
66
100
AcDbEntity
  8
0
 62
   123
 48
0.6
100
AcDbLine
 10
9474.956209000415
 20
-1845.83548335139
 30
0.0
 11
9485.296573506946
 21
-1870.791007093804
 31
0.0
  0
ARC
  5
6A
330
66
100
AcDbEntity
  8
0
 62
   123
 48
0.6
100
AcDbCircle
 10
9455.930753451305
 20
-1799.919286938192
 30
0.0
 40
76.11474503220304
100
AcDbArc
 50
273.0147485324904
 51
289.4953890106271
  0
SOLID
  5
6B
330
66
100
AcDbEntity
  8
0
 62
   123
 48
0.6
100
AcDbTrace
 10
9459.951413898108
 20
-1876.59512688253
 30
0.0
 11
9459.916300430515
 21
-1875.262255987743
 31
0.0
 12
9455.935244479951
 22
-1876.034031837902
 32
0.0
 13
9455.935244479951
 23
-1876.034031837902
 33
0.0
  0
SOLID
  5
6C
330
66
100
AcDbEntity
  8
0
 62
   123
 48
0.6
100
AcDbTrace
 10
9481.093679594389
 20
-1871.04786570821
 30
0.0
 11
9481.57152683739
 21
-1872.29263066198
 31
0.0
 12
9485.066898077198
 22
-1870.236706456091
 32
0.0
 13
9485.066898077198
 23
-1870.236706456091
 33
0.0
  0
MTEXT
  5
6D
330
66
100
AcDbEntity
  8
0
 62
     3
 48
0.6
100
AcDbMText
 10
9469.912957928213
 20
-1870.180090070812
 30
0.0
 40
5.0
 41
0.0
 71
     5
 72
     1
  1
\A1;22°30'
 11
0.980768017557982
 21
0.1951770881414769
 31
0.0
 73
     1
 44
1.0
1001
ACAD
1000
MTEXTBEGIN
1070
    73
1070
     1
1070
    44
1040
1.0
1070
    74
1070
     0
1000
MTEXTEND
  0
POINT
  5
6E
330
66
100
AcDbEntity
  8
Defpoints
 62
     0
 48
0.6
100
AcDbPoint
 10
9465.871656142008
 20
-1875.38207819992
 30
0.0
  0
POINT
  5
70
330
66
100
AcDbEntity
  8
Defpoints
 62
     0
 48
0.6
100
AcDbPoint
 10
9455.93380631071
 20
-1851.659686121803
 30
0.0
  0
POINT
  5
71
330
66
100
AcDbEntity
  8
Defpoints
 62
     0
 48
0.6
100
AcDbPoint
 10
9455.927588639822
 20
-1799.911648955208
 30
0.0
  0
POINT
  5
72
330
66
100
AcDbEntity
  8
Defpoints
 62
     0
 48
0.6
100
AcDbPoint
 10
9474.573416617497
 20
-1844.9116489552
 30
0.0
  0
POINT
  5
73
330
66
100
AcDbEntity
  8
Defpoints
 62
     0
 48
0.6
100
AcDbPoint
 10
9455.927588639822
 20
-1746.281504191455
 30
0.0
  0
ENDBLK
  5
74
330
66
100
AcDbEntity
  8
0
100
AcDbBlockEnd
  0
BLOCK
  5
BF
330
BE
100
AcDbEntity
  8
0
100
AcDbBlockBegin
  2
*D1
 70
     1
 10
0.0
 20
0.0
 30
0.0
  3
*D1
  1

  0
LINE
  5
C0
330
BE
100
AcDbEntity
  8
0
 62
   123
370
    -2
100
AcDbLine
 10
9410.933806310712
 20
-1758.933045834613
 30
0.0
 11
9410.933806310712
 21
-1719.259207646751
 31
0.0
  0
LINE
  5
C1
330
BE
100
AcDbEntity
  8
0
 62
   123
370
    -2
100
AcDbLine
 10
9500.933806310712
 20
-1758.933045834613
 30
0.0
 11
9500.933806310712
 21
-1719.259207646751
 31
0.0
  0
LINE
  5
C2
330
BE
100
AcDbEntity
  8
0
 62
   123
370
    -2
100
AcDbLine
 10
9414.933806310711
 20
-1719.859207646751
 30
0.0
 11
9496.933806310712
 21
-1719.859207646751
 31
0.0
  0
SOLID
  5
C3
330
BE
100
AcDbEntity
  8
0
 62
   123
100
AcDbTrace
 10
9414.933806310711
 20
-1719.192540980084
 30
0.0
 11
9414.933806310711
 21
-1720.525874313418
 31
0.0
 12
9410.933806310712
 22
-1719.859207646751
 32
0.0
 13
9410.933806310712
 23
-1719.859207646751
 33
0.0
  0
SOLID
  5
C4
330
BE
100
AcDbEntity
  8
0
 62
   123
100
AcDbTrace
 10
9496.933806310712
 20
-1719.192540980084
 30
0.0
 11
9496.933806310712
 21
-1720.525874313418
 31
0.0
 12
9500.933806310712
 22
-1719.859207646751
 32
0.0
 13
9500.933806310712
 23
-1719.859207646751
 33
0.0
  0
MTEXT
  5
C5
330
BE
100
AcDbEntity
  8
0
 62
     3
100
AcDbMText
 10
9455.933806310712
 20
-1715.859207646751
 30
0.0
 40
5.0
 41
0.0
 71
     5
 72
     1
  1
\A1;90
 73
     1
 44
1.0
1001
ACAD
1000
MTEXTBEGIN
1070
    73
1070
     1
1070
    44
1040
1.0
1070
    74
1070
     0
1000
MTEXTEND
  0
POINT
  5
C6
330
BE
100
AcDbEntity
  8
Defpoints
 62
     0
100
AcDbPoint
 10
9410.933806310712
 20
-1759.933045834613
 30
0.0
  0
POINT
  5
C7
330
BE
100
AcDbEntity
  8
Defpoints
 62
     0
100
AcDbPoint
 10
9500.933806310712
 20
-1759.933045834613
 30
0.0
  0
POINT
  5
C8
330
BE
100
AcDbEntity
  8
Defpoints
 62
     0
100
AcDbPoint
 10
9500.933806310712
 20
-1719.859207646751
 30
0.0
  0
ENDBLK
  5
C9
330
BE
100
AcDbEntity
  8
0
100
AcDbBlockEnd
  0
BLOCK
  5
8B
330
8A
100
AcDbEntity
  8
0
100
AcDbBlockBegin
  2
*D2
 70
     1
 10
0.0
 20
0.0
 30
0.0
  3
*D2
  1

  0
LINE
  5
8C
330
8A
100
AcDbEntity
  8
0
 62
   123
100
AcDbLine
 10
9539.419481222713
 20
-1736.817489829766
 30
0.0
 11
9500.615741591891
 21
-1766.133405962349
 31
0.0
  0
LINE
  5
8D
330
8A
100
AcDbEntity
  8
0
 62
   123
100
AcDbLine
 10
9411.251871029525
 20
-1833.647098189291
 30
0.0
 11
9408.060304223727
 21
-1836.05830148311
 31
0.0
  0
MTEXT
  5
8E
102
{ACAD_XDICTIONARY
360
406
102
}
330
8A
100
AcDbEntity
  8
0
 62
     3
100
AcDbMText
 10
9521.658361386718
 20
-1745.222662675192
 30
0.0
 40
5.0
 41
0.0
 71
     5
 72
     1
  1
\A1;\U+2205104%%P0.5
 11
0.7978917014496552
 21
0.6028008234547914
 31
0.0
 73
     1
 44
1.0
1001
ACAD
1000
MTEXTBEGIN
1070
    73
1070
     1
1070
    44
1040
1.0
1070
    74
1070
     0
1000
MTEXTEND
  0
LINE
  5
8F
330
8A
100
AcDbEntity
  8
0
 62
   123
100
AcDbLine
 10
9414.443437835323
 20
-1831.235894895472
 30
0.0
 11
9497.424174786095
 21
-1768.544609256168
 31
0.0
  0
SOLID
  5
90
330
8A
100
AcDbEntity
  8
0
 62
   123
100
AcDbTrace
 10
9410.850003813889
 20
-1833.115170388323
 30
0.0
 11
9411.653738245162
 21
-1834.179025990257
 31
0.0
 12
9414.443437835323
 22
-1831.235894895472
 32
0.0
 13
9414.443437835323
 23
-1831.235894895472
 33
0.0
  0
SOLID
  5
91
330
8A
100
AcDbEntity
  8
0
 62
   123
100
AcDbTrace
 10
9500.213874376255
 20
-1765.601478161381
 30
0.0
 11
9501.017608807527
 21
-1766.665333763316
 31
0.0
 12
9497.424174786095
 22
-1768.544609256168
 32
0.0
 13
9497.424174786095
 23
-1768.544609256168
 33
0.0
  0
POINT
  5
92
330
8A
100
AcDbEntity
  8
Defpoints
 62
     0
100
AcDbPoint
 10
9497.424174786095
 20
-1768.544609256168
 30
0.0
  0
POINT
  5
93
330
8A
100
AcDbEntity
  8
Defpoints
 62
     0
100
AcDbPoint
 10
9414.443437835323
 20
-1831.235894895472
 30
0.0
  0
ENDBLK
  5
94
330
8A
100
AcDbEntity
  8
0
100
AcDbBlockEnd
  0
BLOCK
  5
CD
330
CC
100
AcDbEntity
  8
0
100
AcDbBlockBegin
  2
*D3
 70
     1
 10
0.0
 20
0.0
 30
0.0
  3
*D3
  1

  0
LINE
  5
CE
330
CC
100
AcDbEntity
  8
0
 62
   123
370
    -2
100
AcDbLine
 10
9806.690738507924
 20
-1753.71043878685
 30
0.0
 11
9828.177199344471
 21
-1753.71043878685
 31
0.0
  0
LINE
  5
CF
330
CC
100
AcDbEntity
  8
0
 62
   123
370
    -2
100
AcDbLine
 10
9806.690738507924
 20
-1845.710438786854
 30
0.0
 11
9828.177199344471
 21
-1845.710438786854
 31
0.0
  0
LINE
  5
D0
330
CC
100
AcDbEntity
  8
0
 62
   123
370
    -2
100
AcDbLine
 10
9827.577199344473
 20
-1757.71043878685
 30
0.0
 11
9827.577199344473
 21
-1841.710438786854
 31
0.0
  0
SOLID
  5
D1
330
CC
100
AcDbEntity
  8
0
 62
   123
100
AcDbTrace
 10
9826.910532677805
 20
-1757.71043878685
 30
0.0
 11
9828.243866011137
 21
-1757.71043878685
 31
0.0
 12
9827.577199344473
 22
-1753.71043878685
 32
0.0
 13
9827.577199344473
 23
-1753.71043878685
 33
0.0
  0
SOLID
  5
D2
330
CC
100
AcDbEntity
  8
0
 62
   123
100
AcDbTrace
 10
9826.910532677805
 20
-1841.710438786854
 30
0.0
 11
9828.243866011137
 21
-1841.710438786854
 31
0.0
 12
9827.577199344473
 22
-1845.710438786854
 32
0.0
 13
9827.577199344473
 23
-1845.710438786854
 33
0.0
  0
MTEXT
  5
D3
330
CC
100
AcDbEntity
  8
0
 62
     3
100
AcDbMText
 10
9823.57719934447
 20
-1799.71043878685
 30
0.0
 40
5.0
 41
0.0
 71
     5
 72
     1
  1
\A1;92
 11
0.0000000000000001
 21
1.0
 31
0.0
 73
     1
 44
1.0
1001
ACAD
1000
MTEXTBEGIN
1070
    73
1070
     1
1070
    44
1040
1.0
1070
    74
1070
     0
1000
MTEXTEND
  0
POINT
  5
D4
330
CC
100
AcDbEntity
  8
Defpoints
 62
     0
100
AcDbPoint
 10
9805.690738507923
 20
-1753.71043878685
 30
0.0
  0
POINT
  5
D5
330
CC
100
AcDbEntity
  8
Defpoints
 62
     0
100
AcDbPoint
 10
9805.690738507923
 20
-1845.710438786854
 30
0.0
  0
POINT
  5
D6
330
CC
100
AcDbEntity
  8
Defpoints
 62
     0
100
AcDbPoint
 10
9827.577199344473
 20
-1845.710438786854
 30
0.0
  0
ENDBLK
  5
D7
330
CC
100
AcDbEntity
  8
0
100
AcDbBlockEnd
  0
BLOCK
  5
F4
330
F3
100
AcDbEntity
  8
0
100
AcDbBlockBegin
  2
*D4
 70
     1
 10
0.0
 20
0.0
 30
0.0
  3
*D4
  1

  0
LINE
  5
F5
330
F3
100
AcDbEntity
  8
0
 62
   123
370
    -2
100
AcDbLine
 10
9605.691816307276
 20
-1757.390252075817
 30
0.0
 11
9605.691816307276
 21
-1742.869214779424
 31
0.0
  0
LINE
  5
F6
330
F3
100
AcDbEntity
  8
0
 62
   123
370
    -2
100
AcDbLine
 10
9607.691816307275
 20
-1753.890252075817
 30
0.0
 11
9607.691816307275
 21
-1742.869214779424
 31
0.0
  0
LINE
  5
F7
330
F3
100
AcDbEntity
  8
0
 62
   123
370
    -2
100
AcDbLine
 10
9611.691816307276
 20
-1743.469214779424
 30
0.0
 11
9615.691816307275
 21
-1743.469214779424
 31
0.0
  0
LINE
  5
F8
330
F3
100
AcDbEntity
  8
0
 62
   123
370
    -2
100
AcDbLine
 10
9601.691816307276
 20
-1743.469214779424
 30
0.0
 11
9591.358482973944
 21
-1743.469214779424
 31
0.0
  0
LINE
  5
F9
330
F3
100
AcDbEntity
  8
0
 62
   123
370
    -2
100
AcDbLine
 10
9607.691816307275
 20
-1743.469214779424
 30
0.0
 11
9605.691816307276
 21
-1743.469214779424
 31
0.0
  0
SOLID
  5
FA
330
F3
100
AcDbEntity
  8
0
 62
   123
100
AcDbTrace
 10
9611.691816307276
 20
-1742.802548112757
 30
0.0
 11
9611.691816307276
 21
-1744.135881446091
 31
0.0
 12
9607.691816307275
 22
-1743.469214779424
 32
0.0
 13
9607.691816307275
 23
-1743.469214779424
 33
0.0
  0
SOLID
  5
FB
330
F3
100
AcDbEntity
  8
0
 62
   123
100
AcDbTrace
 10
9601.691816307276
 20
-1742.802548112757
 30
0.0
 11
9601.691816307276
 21
-1744.135881446091
 31
0.0
 12
9605.691816307276
 22
-1743.469214779424
 32
0.0
 13
9605.691816307276
 23
-1743.469214779424
 33
0.0
  0
MTEXT
  5
FC
330
F3
100
AcDbEntity
  8
0
 62
     3
100
AcDbMText
 10
9594.525149640608
 20
-1739.469214779424
 30
0.0
 40
5.0
 41
0.0
 71
     5
 72
     1
  1
\A1;2
 73
     1
 44
1.0
1001
ACAD
1000
MTEXTBEGIN
1070
    73
1070
     1
1070
    44
1040
1.0
1070
    74
1070
     0
1000
MTEXTEND
  0
POINT
  5
FD
330
F3
100
AcDbEntity
  8
Defpoints
 62
     0
100
AcDbPoint
 10
9605.691816307276
 20
-1758.390252075817
 30
0.0
  0
POINT
  5
FE
330
F3
100
AcDbEntity
  8
Defpoints
 62
     0
100
AcDbPoint
 10
9607.691816307275
 20
-1754.890252075817
 30
0.0
  0
POINT
  5
FF
330
F3
100
AcDbEntity
  8
Defpoints
 62
     0
100
AcDbPoint
 10
9607.691816307275
 20
-1743.469214779424
 30
0.0
  0
ENDBLK
  5
100
330
F3
100
AcDbEntity
  8
0
100
AcDbBlockEnd
  0
BLOCK
  5
161
330
160
100
AcDbEntity
  8
0
100
AcDbBlockBegin
  2
*D5
 70
     1
 10
0.0
 20
0.0
 30
0.0
  3
*D5
  1

  0
LINE
  5
162
330
160
100
AcDbEntity
  8
0
 62
   123
370
    -2
100
AcDbLine
 10
9607.691816307275
 20
-1753.890252075817
 30
0.0
 11
9607.691816307275
 21
-1720.128934000287
 31
0.0
  0
LINE
  5
163
330
160
100
AcDbEntity
  8
0
 62
   123
370
    -2
100
AcDbLine
 10
9807.690738507924
 20
-1755.71043878685
 30
0.0
 11
9807.690738507924
 21
-1720.128934000287
 31
0.0
  0
LINE
  5
164
330
160
100
AcDbEntity
  8
0
 62
   123
370
    -2
100
AcDbLine
 10
9611.691816307276
 20
-1720.728934000287
 30
0.0
 11
9803.690738507924
 21
-1720.728934000287
 31
0.0
  0
SOLID
  5
165
330
160
100
AcDbEntity
  8
0
 62
   123
100
AcDbTrace
 10
9611.691816307276
 20
-1720.06226733362
 30
0.0
 11
9611.691816307276
 21
-1721.395600666954
 31
0.0
 12
9607.691816307275
 22
-1720.728934000287
 32
0.0
 13
9607.691816307275
 23
-1720.728934000287
 33
0.0
  0
SOLID
  5
166
330
160
100
AcDbEntity
  8
0
 62
   123
100
AcDbTrace
 10
9803.690738507924
 20
-1720.06226733362
 30
0.0
 11
9803.690738507924
 21
-1721.395600666954
 31
0.0
 12
9807.690738507924
 22
-1720.728934000287
 32
0.0
 13
9807.690738507924
 23
-1720.728934000287
 33
0.0
  0
MTEXT
  5
167
330
160
100
AcDbEntity
  8
0
 62
     3
100
AcDbMText
 10
9707.691277407601
 20
-1716.728934000287
 30
0.0
 40
5.0
 41
0.0
 71
     5
 72
     1
  1
\A1;200
 73
     1
 44
1.0
1001
ACAD
1000
MTEXTBEGIN
1070
    73
1070
     1
1070
    44
1040
1.0
1070
    74
1070
     0
1000
MTEXTEND
  0
POINT
  5
168
330
160
100
AcDbEntity
  8
Defpoints
 62
     0
100
AcDbPoint
 10
9607.691816307275
 20
-1754.890252075817
 30
0.0
  0
POINT
  5
169
330
160
100
AcDbEntity
  8
Defpoints
 62
     0
100
AcDbPoint
 10
9807.690738507924
 20
-1756.71043878685
 30
0.0
  0
POINT
  5
16A
330
160
100
AcDbEntity
  8
Defpoints
 62
     0
100
AcDbPoint
 10
9807.690738507924
 20
-1720.728934000287
 30
0.0
  0
ENDBLK
  5
16B
330
160
100
AcDbEntity
  8
0
100
AcDbBlockEnd
  0
BLOCK
  5
E5
330
E4
100
AcDbEntity
  8
0
100
AcDbBlockBegin
  2
*D6
 70
     1
 10
0.0
 20
0.0
 30
0.0
  3
*D6
  1

  0
LINE
  5
E6
330
E4
100
AcDbEntity
  8
0
 62
   123
370
    -2
100
AcDbLine
 10
9607.691816307275
 20
-1753.681918742485
 30
0.0
 11
9607.691816307275
 21
-1733.726877622644
 31
0.0
  0
LINE
  5
E7
330
E4
100
AcDbEntity
  8
0
 62
   123
370
    -2
100
AcDbLine
 10
9615.191816307275
 20
-1755.291514734287
 30
0.0
 11
9615.191816307275
 21
-1733.726877622644
 31
0.0
  0
LINE
  5
E8
330
E4
100
AcDbEntity
  8
0
 62
   123
370
    -2
100
AcDbLine
 10
9603.691816307275
 20
-1734.326877622644
 30
0.0
 11
9599.691816307275
 21
-1734.326877622644
 31
0.0
  0
LINE
  5
E9
330
E4
100
AcDbEntity
  8
0
 62
   123
370
    -2
100
AcDbLine
 10
9619.191816307276
 20
-1734.326877622644
 30
0.0
 11
9636.668006783466
 21
-1734.326877622644
 31
0.0
  0
LINE
  5
EA
330
E4
100
AcDbEntity
  8
0
 62
   123
370
    -2
100
AcDbLine
 10
9607.691816307275
 20
-1734.326877622644
 30
0.0
 11
9615.191816307275
 21
-1734.326877622644
 31
0.0
  0
SOLID
  5
EB
330
E4
100
AcDbEntity
  8
0
 62
   123
100
AcDbTrace
 10
9603.691816307275
 20
-1733.660210955977
 30
0.0
 11
9603.691816307275
 21
-1734.993544289311
 31
0.0
 12
9607.691816307275
 22
-1734.326877622644
 32
0.0
 13
9607.691816307275
 23
-1734.326877622644
 33
0.0
  0
SOLID
  5
EC
330
E4
100
AcDbEntity
  8
0
 62
   123
100
AcDbTrace
 10
9619.191816307276
 20
-1733.660210955977
 30
0.0
 11
9619.191816307276
 21
-1734.993544289311
 31
0.0
 12
9615.191816307275
 22
-1734.326877622644
 32
0.0
 13
9615.191816307275
 23
-1734.326877622644
 33
0.0
  0
MTEXT
  5
ED
330
E4
100
AcDbEntity
  8
0
 62
     3
100
AcDbMText
 10
9629.929911545373
 20
-1730.326877622644
 30
0.0
 40
5.0
 41
0.0
 71
     5
 72
     1
  1
\A1;7.5
 73
     1
 44
1.0
1001
ACAD
1000
MTEXTBEGIN
1070
    73
1070
     1
1070
    44
1040
1.0
1070
    74
1070
     0
1000
MTEXTEND
  0
POINT
  5
EE
330
E4
100
AcDbEntity
  8
Defpoints
 62
     0
100
AcDbPoint
 10
9607.691816307275
 20
-1754.681918742485
 30
0.0
  0
POINT
  5
EF
330
E4
100
AcDbEntity
  8
Defpoints
 62
     0
100
AcDbPoint
 10
9615.191816307275
 20
-1756.291514734287
 30
0.0
  0
POINT
  5
F0
330
E4
100
AcDbEntity
  8
Defpoints
 62
     0
100
AcDbPoint
 10
9615.191816307275
 20
-1734.326877622644
 30
0.0
  0
ENDBLK
  5
F1
330
E4
100
AcDbEntity
  8
0
100
AcDbBlockEnd
  0
BLOCK
  5
105
330
104
100
AcDbEntity
  8
0
100
AcDbBlockBegin
  2
*D7
 70
     1
 10
0.0
 20
0.0
 30
0.0
  3
*D7
  1

  0
LINE
  5
106
330
104
100
AcDbEntity
  8
0
 62
   123
370
    -2
100
AcDbLine
 10
9570.691816307276
 20
-1793.890252075817
 30
0.0
 11
9570.691816307276
 21
-1720.128934000287
 31
0.0
  0
LINE
  5
107
330
104
100
AcDbEntity
  8
0
 62
   123
370
    -2
100
AcDbLine
 10
9607.691816307275
 20
-1753.681918742485
 30
0.0
 11
9607.691816307275
 21
-1720.128934000287
 31
0.0
  0
LINE
  5
108
330
104
100
AcDbEntity
  8
0
 62
   123
370
    -2
100
AcDbLine
 10
9574.691816307275
 20
-1720.728934000287
 30
0.0
 11
9603.691816307275
 21
-1720.728934000287
 31
0.0
  0
SOLID
  5
109
330
104
100
AcDbEntity
  8
0
 62
   123
100
AcDbTrace
 10
9574.691816307275
 20
-1720.06226733362
 30
0.0
 11
9574.691816307275
 21
-1721.395600666954
 31
0.0
 12
9570.691816307276
 22
-1720.728934000287
 32
0.0
 13
9570.691816307276
 23
-1720.728934000287
 33
0.0
  0
SOLID
  5
10A
330
104
100
AcDbEntity
  8
0
 62
   123
100
AcDbTrace
 10
9603.691816307275
 20
-1720.06226733362
 30
0.0
 11
9603.691816307275
 21
-1721.395600666954
 31
0.0
 12
9607.691816307275
 22
-1720.728934000287
 32
0.0
 13
9607.691816307275
 23
-1720.728934000287
 33
0.0
  0
MTEXT
  5
10B
330
104
100
AcDbEntity
  8
0
 62
     3
100
AcDbMText
 10
9590.941816307276
 20
-1716.728934000287
 30
0.0
 40
5.0
 41
0.0
 71
     5
 72
     1
  1
\A1;37
 73
     1
 44
1.0
1001
ACAD
1000
MTEXTBEGIN
1070
    73
1070
     1
1070
    44
1040
1.0
1070
    74
1070
     0
1000
MTEXTEND
  0
POINT
  5
10C
330
104
100
AcDbEntity
  8
Defpoints
 62
     0
100
AcDbPoint
 10
9570.691816307276
 20
-1794.890252075817
 30
0.0
  0
POINT
  5
10D
330
104
100
AcDbEntity
  8
Defpoints
 62
     0
100
AcDbPoint
 10
9607.691816307275
 20
-1754.681918742485
 30
0.0
  0
POINT
  5
10E
330
104
100
AcDbEntity
  8
Defpoints
 62
     0
100
AcDbPoint
 10
9607.691816307275
 20
-1720.728934000287
 30
0.0
  0
ENDBLK
  5
10F
330
104
100
AcDbEntity
  8
0
100
AcDbBlockEnd
  0
BLOCK
  5
11C
330
11B
100
AcDbEntity
  8
0
100
AcDbBlockBegin
  2
*D8
 70
     1
 10
0.0
 20
0.0
 30
0.0
  3
*D8
  1

  0
LINE
  5
11D
330
11B
100
AcDbEntity
  8
0
 62
   123
370
    -2
100
AcDbLine
 10
9569.691816307274
 20
-1805.890252075817
 30
0.0
 11
9557.623335426564
 21
-1805.890252075817
 31
0.0
  0
LINE
  5
11E
330
11B
100
AcDbEntity
  8
0
 62
   123
370
    -2
100
AcDbLine
 10
9569.691816307274
 20
-1794.890252075817
 30
0.0
 11
9557.623335426564
 21
-1794.890252075817
 31
0.0
  0
LINE
  5
11F
330
11B
100
AcDbEntity
  8
0
 62
   123
370
    -2
100
AcDbLine
 10
9558.223335426566
 20
-1801.890252075817
 30
0.0
 11
9558.223335426566
 21
-1798.890252075817
 31
0.0
  0
SOLID
  5
120
330
11B
100
AcDbEntity
  8
0
 62
   123
100
AcDbTrace
 10
9557.556668759897
 20
-1801.890252075817
 30
0.0
 11
9558.890002093233
 21
-1801.890252075817
 31
0.0
 12
9558.223335426566
 22
-1805.890252075817
 32
0.0
 13
9558.223335426566
 23
-1805.890252075817
 33
0.0
  0
SOLID
  5
121
330
11B
100
AcDbEntity
  8
0
 62
   123
100
AcDbTrace
 10
9557.556668759897
 20
-1798.890252075817
 30
0.0
 11
9558.890002093233
 21
-1798.890252075817
 31
0.0
 12
9558.223335426566
 22
-1794.890252075817
 32
0.0
 13
9558.223335426566
 23
-1794.890252075817
 33
0.0
  0
MTEXT
  5
122
330
11B
100
AcDbEntity
  8
0
 62
     3
100
AcDbMText
 10
9554.223335426565
 20
-1800.390252075817
 30
0.0
 40
5.0
 41
0.0
 71
     5
 72
     1
  1
\A1;11
 11
0.0000000000000001
 21
1.0
 31
0.0
 73
     1
 44
1.0
1001
ACAD
1000
MTEXTBEGIN
1070
    73
1070
     1
1070
    44
1040
1.0
1070
    74
1070
     0
1000
MTEXTEND
  0
POINT
  5
123
330
11B
100
AcDbEntity
  8
Defpoints
 62
     0
100
AcDbPoint
 10
9570.691816307276
 20
-1805.890252075817
 30
0.0
  0
POINT
  5
124
330
11B
100
AcDbEntity
  8
Defpoints
 62
     0
100
AcDbPoint
 10
9570.691816307276
 20
-1794.890252075817
 30
0.0
  0
POINT
  5
125
330
11B
100
AcDbEntity
  8
Defpoints
 62
     0
100
AcDbPoint
 10
9558.223335426566
 20
-1794.890252075817
 30
0.0
  0
ENDBLK
  5
126
330
11B
100
AcDbEntity
  8
0
100
AcDbBlockEnd
  0
BLOCK
  5
12C
330
12B
100
AcDbEntity
  8
0
100
AcDbBlockBegin
  2
*D9
 70
     1
 10
0.0
 20
0.0
 30
0.0
  3
*D9
  1

  0
LINE
  5
12D
330
12B
100
AcDbEntity
  8
0
 62
   123
370
    -2
100
AcDbLine
 10
9570.691816307276
 20
-1793.890252075817
 30
0.0
 11
9570.691816307276
 21
-1772.769491360704
 31
0.0
  0
LINE
  5
12E
330
12B
100
AcDbEntity
  8
0
 62
   123
370
    -2
100
AcDbLine
 10
9600.691816307275
 20
-1792.890252075817
 30
0.0
 11
9600.691816307275
 21
-1772.769491360704
 31
0.0
  0
LINE
  5
12F
330
12B
100
AcDbEntity
  8
0
 62
   123
370
    -2
100
AcDbLine
 10
9574.691816307275
 20
-1773.369491360704
 30
0.0
 11
9596.691816307275
 21
-1773.369491360704
 31
0.0
  0
SOLID
  5
130
330
12B
100
AcDbEntity
  8
0
 62
   123
100
AcDbTrace
 10
9574.691816307275
 20
-1772.702824694037
 30
0.0
 11
9574.691816307275
 21
-1774.036158027371
 31
0.0
 12
9570.691816307276
 22
-1773.369491360704
 32
0.0
 13
9570.691816307276
 23
-1773.369491360704
 33
0.0
  0
SOLID
  5
131
330
12B
100
AcDbEntity
  8
0
 62
   123
100
AcDbTrace
 10
9596.691816307275
 20
-1772.702824694037
 30
0.0
 11
9596.691816307275
 21
-1774.036158027371
 31
0.0
 12
9600.691816307275
 22
-1773.369491360704
 32
0.0
 13
9600.691816307275
 23
-1773.369491360704
 33
0.0
  0
MTEXT
  5
132
330
12B
100
AcDbEntity
  8
0
 62
     3
100
AcDbMText
 10
9585.691816307274
 20
-1769.369491360704
 30
0.0
 40
5.0
 41
0.0
 71
     5
 72
     1
  1
\A1;30
 73
     1
 44
1.0
1001
ACAD
1000
MTEXTBEGIN
1070
    73
1070
     1
1070
    44
1040
1.0
1070
    74
1070
     0
1000
MTEXTEND
  0
POINT
  5
133
330
12B
100
AcDbEntity
  8
Defpoints
 62
     0
100
AcDbPoint
 10
9570.691816307276
 20
-1794.890252075817
 30
0.0
  0
POINT
  5
134
330
12B
100
AcDbEntity
  8
Defpoints
 62
     0
100
AcDbPoint
 10
9600.691816307275
 20
-1793.890252075817
 30
0.0
  0
POINT
  5
135
330
12B
100
AcDbEntity
  8
Defpoints
 62
     0
100
AcDbPoint
 10
9600.691816307275
 20
-1773.369491360704
 30
0.0
  0
ENDBLK
  5
136
330
12B
100
AcDbEntity
  8
0
100
AcDbBlockEnd
  0
BLOCK
  5
142
330
141
100
AcDbEntity
  8
0
100
AcDbBlockBegin
  2
*D10
 70
     1
 10
0.0
 20
0.0
 30
0.0
  3
*D10
  1

  0
LINE
  5
143
330
141
100
AcDbEntity
  8
0
 62
   123
370
    -2
100
AcDbLine
 10
9569.691816307274
 20
-1805.890252075817
 30
0.0
 11
9546.754854545856
 21
-1805.890252075817
 31
0.0
  0
LINE
  5
144
330
141
100
AcDbEntity
  8
0
 62
   123
370
    -2
100
AcDbLine
 10
9599.691816307275
 20
-1793.890252075817
 30
0.0
 11
9546.754854545856
 21
-1793.890252075817
 31
0.0
  0
LINE
  5
145
330
141
100
AcDbEntity
  8
0
 62
   123
370
    -2
100
AcDbLine
 10
9547.354854545856
 20
-1801.890252075817
 30
0.0
 11
9547.354854545856
 21
-1797.890252075817
 31
0.0
  0
SOLID
  5
146
330
141
100
AcDbEntity
  8
0
 62
   123
100
AcDbTrace
 10
9546.68818787919
 20
-1801.890252075817
 30
0.0
 11
9548.021521212524
 21
-1801.890252075817
 31
0.0
 12
9547.354854545856
 22
-1805.890252075817
 32
0.0
 13
9547.354854545856
 23
-1805.890252075817
 33
0.0
  0
SOLID
  5
147
330
141
100
AcDbEntity
  8
0
 62
   123
100
AcDbTrace
 10
9546.68818787919
 20
-1797.890252075817
 30
0.0
 11
9548.021521212524
 21
-1797.890252075817
 31
0.0
 12
9547.354854545856
 22
-1793.890252075817
 32
0.0
 13
9547.354854545856
 23
-1793.890252075817
 33
0.0
  0
MTEXT
  5
148
330
141
100
AcDbEntity
  8
0
 62
     3
100
AcDbMText
 10
9540.93793787919
 20
-1799.890252075816
 30
0.0
 40
5.0
 41
0.0
 71
     5
 72
     1
  1
\A1;\A1;{\f??|b0|i0|c0|p49;%%C}12{\f??|b0|i0|c0|p49;\H0.7x;\S+0^ -0.018;\H1.429x;(h}7{\f??|b0|i0|c0|p49;)}
 11
0.0000000000000001
 21
1.0
 31
0.0
 73
     1
 44
1.0
1001
ACAD
1000
MTEXTBEGIN
1070
    73
1070
     1
1070
    44
1040
1.0
1070
    74
1070
     0
1000
MTEXTEND
  0
POINT
  5
149
330
141
100
AcDbEntity
  8
Defpoints
 62
     0
100
AcDbPoint
 10
9570.691816307276
 20
-1805.890252075817
 30
0.0
  0
POINT
  5
14A
330
141
100
AcDbEntity
  8
Defpoints
 62
     0
100
AcDbPoint
 10
9600.691816307275
 20
-1793.890252075817
 30
0.0
  0
POINT
  5
14B
330
141
100
AcDbEntity
  8
Defpoints
 62
     0
100
AcDbPoint
 10
9547.354854545856
 20
-1793.890252075817
 30
0.0
  0
ENDBLK
  5
14C
330
141
100
AcDbEntity
  8
0
100
AcDbBlockEnd
  0
BLOCK
  5
151
330
150
100
AcDbEntity
  8
0
100
AcDbBlockBegin
  2
*D11
 70
     1
 10
0.0
 20
0.0
 30
0.0
  3
*D11
  1

  0
LINE
  5
152
330
150
100
AcDbEntity
  8
0
 62
   123
370
    -2
100
AcDbLine
 10
9604.691816307274
 20
-1758.390252075817
 30
0.0
 11
9531.394087173053
 21
-1758.390252075817
 31
0.0
  0
LINE
  5
153
330
150
100
AcDbEntity
  8
0
 62
   123
370
    -2
100
AcDbLine
 10
9604.691816307274
 20
-1841.390252075817
 30
0.0
 11
9531.394087173053
 21
-1841.390252075817
 31
0.0
  0
LINE
  5
154
330
150
100
AcDbEntity
  8
0
 62
   123
370
    -2
100
AcDbLine
 10
9531.994087173051
 20
-1762.390252075817
 30
0.0
 11
9531.994087173051
 21
-1837.390252075817
 31
0.0
  0
SOLID
  5
155
330
150
100
AcDbEntity
  8
0
 62
   123
100
AcDbTrace
 10
9531.327420506386
 20
-1762.390252075817
 30
0.0
 11
9532.660753839719
 21
-1762.390252075817
 31
0.0
 12
9531.994087173051
 22
-1758.390252075817
 32
0.0
 13
9531.994087173051
 23
-1758.390252075817
 33
0.0
  0
SOLID
  5
156
330
150
100
AcDbEntity
  8
0
 62
   123
100
AcDbTrace
 10
9531.327420506386
 20
-1837.390252075817
 30
0.0
 11
9532.660753839719
 21
-1837.390252075817
 31
0.0
 12
9531.994087173051
 22
-1841.390252075817
 32
0.0
 13
9531.994087173051
 23
-1841.390252075817
 33
0.0
  0
MTEXT
  5
157
330
150
100
AcDbEntity
  8
0
 62
     3
100
AcDbMText
 10
9525.577170506386
 20
-1798.525295443066
 30
0.0
 40
5.0
 41
0.0
 71
     5
 72
     1
  1
\A1;\A1;{\f??|b0|i0|c0|p49;%%C}83{\f??|b0|i0|c0|p49;\H0.7x;\S+0^ -0.035;\H1.429x;(h}7{\f??|b0|i0|c0|p49;)}
 11
0.0000000000000001
 21
1.0
 31
0.0
 73
     1
 44
1.0
1001
ACAD
1000
MTEXTBEGIN
1070
    73
1070
     1
1070
    44
1040
1.0
1070
    74
1070
     0
1000
MTEXTEND
  0
POINT
  5
158
330
150
100
AcDbEntity
  8
Defpoints
 62
     0
100
AcDbPoint
 10
9605.691816307276
 20
-1758.390252075817
 30
0.0
  0
POINT
  5
159
330
150
100
AcDbEntity
  8
Defpoints
 62
     0
100
AcDbPoint
 10
9605.691816307276
 20
-1841.390252075817
 30
0.0
  0
POINT
  5
15A
330
150
100
AcDbEntity
  8
Defpoints
 62
     0
100
AcDbPoint
 10
9531.994087173051
 20
-1841.390252075817
 30
0.0
  0
ENDBLK
  5
15B
330
150
100
AcDbEntity
  8
0
100
AcDbBlockEnd
  0
ENDSEC
  0
SECTION
  2
ENTITIES
  0
MTEXT
  5
64
102
{ACAD_REACTORS
330
B3
102
}
330
2
100
AcDbEntity
  8
0
 62
     3
100
AcDbMText
 10
9483.165097482762
 20
-1732.275466461612
 30
0.0
 40
5.0
 41
0.0
 71
     9
 72
     1
  1
4-%%C6.5 hole
 73
     1
 44
1.0
1001
ACAD
1000
MTEXTBEGIN
1070
    73
1070
     1
1070
    44
1040
1.0
1070
    74
1070
     0
1000
MTEXTEND
  0
DIMENSION
  5
65
330
2
100
AcDbEntity
  8
0
 48
0.6
100
AcDbDimension
  2
*D0
 10
9455.927588639822
 20
-1746.281504191455
 30
0.0
 11
9469.912957928213
 21
-1870.180090070812
 31
0.0
 70
     2
  1
<>
 71
     5
 42
-1.0
  3
STANDARD
100
AcDb2LineAngularDimension
 13
9455.927588639822
 23
-1799.911648955208
 33
0.0
 14
9474.573416617497
 24
-1844.911648955201
 34
0.0
 15
9455.933806310712
 25
-1851.659686121803
 35
0.0
 16
9465.871656142008
 26
-1875.38207819992
 36
0.0
1001
ACAD
1000
DSTYLE
1002
{
1070
   271
1070
     1
1070
   271
1070
     1
1070
   271
1070
     1
1070
   271
1070
     1
1070
   271
1070
     1
1070
   271
1070
     1
1070
   271
1070
     1
1002
}
  0
ARC
  5
75
330
2
100
AcDbEntity
  8
0
 48
0.6
100
AcDbCircle
 10
9455.858341996529
 20
-1799.890252075817
 30
0.0
 40
36.81561599999999
100
AcDbArc
 50
26.36567250326935
 51
63.63432749679486
  0
LINE
  5
76
330
2
100
AcDbEntity
  8
0
  6
CENTER
 62
     1
 48
0.6
100
AcDbLine
 10
9455.933806310712
 20
-1851.659686121803
 30
0.0
 11
9455.933806310712
 21
-1748.120818029831
 31
0.0
  0
ARC
  5
78
330
2
100
AcDbEntity
  8
0
 48
0.6
100
AcDbCircle
 10
9455.858341996529
 20
-1799.890252075817
 30
0.0
 40
36.81561599999999
100
AcDbArc
 50
116.3656725032051
 51
153.6343274967306
  0
CIRCLE
  5
79
330
2
100
AcDbEntity
  8
0
 48
0.6
100
AcDbCircle
 10
9455.933806310712
 20
-1799.890252075817
 30
0.0
 40
20.0
  0
CIRCLE
  5
7A
330
2
100
AcDbEntity
  8
0
 48
0.6
100
AcDbCircle
 10
9455.933806310712
 20
-1799.890252075817
 30
0.0
 40
43.5
  0
CIRCLE
  5
7B
330
2
100
AcDbEntity
  8
0
 48
0.6
100
AcDbCircle
 10
9455.933806310712
 20
-1799.890252075817
 30
0.0
 40
42.00000000000005
  0
LINE
  5
7C
330
2
100
AcDbEntity
  8
0
100
AcDbLine
 10
9415.933806310711
 20
-1844.890252075817
 30
0.0
 11
9495.933806310711
 21
-1844.890252075817
 31
0.0
  0
ARC
  5
7D
330
2
100
AcDbEntity
  8
0
100
AcDbCircle
 10
9495.933806310711
 20
-1839.890252075817
 30
0.0
 40
5.0
100
AcDbArc
 50
270.0
 51
0.0
  0
LINE
  5
7E
330
2
100
AcDbEntity
  8
0
100
AcDbLine
 10
9500.933806310712
 20
-1839.890252075817
 30
0.0
 11
9500.933806310712
 21
-1759.890252075817
 31
0.0
  0
ARC
  5
7F
330
2
100
AcDbEntity
  8
0
100
AcDbCircle
 10
9495.933806310711
 20
-1759.890252075817
 30
0.0
 40
5.0
100
AcDbArc
 50
0.0
 51
90.0
  0
LINE
  5
80
330
2
100
AcDbEntity
  8
0
100
AcDbLine
 10
9495.933806310711
 20
-1754.890252075817
 30
0.0
 11
9415.933806310711
 21
-1754.890252075817
 31
0.0
  0
ARC
  5
81
330
2
100
AcDbEntity
  8
0
100
AcDbCircle
 10
9415.933806310711
 20
-1759.890252075817
 30
0.0
 40
5.0
100
AcDbArc
 50
90.0
 51
180.0
  0
LINE
  5
82
330
2
100
AcDbEntity
  8
0
100
AcDbLine
 10
9410.933806310712
 20
-1759.890252075817
 30
0.0
 11
9410.933806310712
 21
-1839.890252075817
 31
0.0
  0
ARC
  5
83
330
2
100
AcDbEntity
  8
0
100
AcDbCircle
 10
9415.933806310711
 20
-1839.890252075817
 30
0.0
 40
5.0
100
AcDbArc
 50
180.0
 51
270.0
  0
CIRCLE
  5
84
330
2
100
AcDbEntity
  8
0
100
AcDbCircle
 10
9492.703358932413
 20
-1763.120699454118
 30
0.0
 40
3.25
  0
LINE
  5
85
330
2
100
AcDbEntity
  8
0
  6
CENTER
 62
     1
 48
0.6
100
AcDbLine
 10
9488.991048331184
 20
-1766.833010055347
 30
0.0
 11
9496.415669533641
 21
-1759.408388852888
 31
0.0
  0
ARC
  5
86
102
{ACAD_REACTORS
330
89
102
}
330
2
100
AcDbEntity
  8
0
  6
CENTER
 62
     1
 48
0.6
100
AcDbCircle
 10
9455.933806310712
 20
-1799.890252075817
 30
0.0
 40
51.9999999999996
100
AcDbArc
 50
35.90024337538928
 51
54.0997566246877
  0
DIMENSION
  5
87
102
{ACAD_XDICTIONARY
360
88
102
}
102
{ACAD_REACTORS
330
89
102
}
330
2
100
AcDbEntity
  8
0
100
AcDbDimension
  2
*D2
 10
9414.443437835323
 20
-1831.235894895472
 30
0.0
 11
9524.069564680536
 21
-1748.414229480992
 31
0.0
 70
   131
  1
<>%%P0.5
 71
     5
 42
-1.0
  3
STANDARD
100
AcDbDiametricDimension
 15
9497.424174786095
 25
-1768.544609256168
 35
0.0
 40
0.0
1001
ACAD
1000
DSTYLE
1002
{
1070
   287
1070
     4
1070
   287
1070
     4
1070
   287
1070
     4
1070
   287
1070
     4
1070
   287
1070
     4
1070
   287
1070
     4
1070
   279
1070
     1
1070
   289
1070
     3
1002
}
  0
ARC
  5
95
330
2
100
AcDbEntity
  8
0
  6
CENTER
 62
     1
 48
0.6
100
AcDbCircle
 10
9455.933806310712
 20
-1799.890252075817
 30
0.0
 40
52.0
100
AcDbArc
 50
129.2128702779743
 51
140.7871297219263
  0
LINE
  5
96
330
2
100
AcDbEntity
  8
0
  6
CENTER
 62
     1
 48
0.6
100
AcDbLine
 10
9422.876564290239
 20
-1766.833010055347
 30
0.0
 11
9415.451943087782
 21
-1759.408388852888
 31
0.0
  0
CIRCLE
  5
97
330
2
100
AcDbEntity
  8
0
100
AcDbCircle
 10
9419.164253689013
 20
-1763.120699454118
 30
0.0
 40
3.25
  0
LINE
  5
98
330
2
100
AcDbEntity
  8
0
  6
CENTER
 62
     1
 48
0.6
100
AcDbLine
 10
9422.876564290239
 20
-1832.947494096287
 30
0.0
 11
9415.451943087782
 21
-1840.372115298746
 31
0.0
  0
CIRCLE
  5
99
330
2
100
AcDbEntity
  8
0
100
AcDbCircle
 10
9419.164253689013
 20
-1836.659804697517
 30
0.0
 40
3.25
  0
ARC
  5
9A
330
2
100
AcDbEntity
  8
0
  6
CENTER
 62
     1
 48
0.6
100
AcDbCircle
 10
9455.933806310712
 20
-1799.890252075817
 30
0.0
 40
51.9999999999996
100
AcDbArc
 50
215.9002433753892
 51
234.0997566246876
  0
ARC
  5
9B
330
2
100
AcDbEntity
  8
0
  6
CENTER
 62
     1
 48
0.6
100
AcDbCircle
 10
9455.933806310712
 20
-1799.890252075817
 30
0.0
 40
52.0
100
AcDbArc
 50
309.2128702779743
 51
320.7871297219262
  0
LINE
  5
9C
330
2
100
AcDbEntity
  8
0
  6
CENTER
 62
     1
 48
0.6
100
AcDbLine
 10
9488.991048331184
 20
-1832.947494096287
 30
0.0
 11
9496.415669533641
 21
-1840.372115298746
 31
0.0
  0
CIRCLE
  5
9D
330
2
100
AcDbEntity
  8
0
100
AcDbCircle
 10
9492.703358932413
 20
-1836.659804697517
 30
0.0
 40
3.25
  0
ARC
  5
9E
330
2
100
AcDbEntity
  8
0
 48
0.6
100
AcDbCircle
 10
9455.858341996529
 20
-1799.890252075817
 30
0.0
 40
33.74764799999999
100
AcDbArc
 50
342.2801918475121
 51
17.71980815248794
  0
ARC
  5
9F
330
2
100
AcDbEntity
  8
0
 48
0.6
100
AcDbCircle
 10
9470.845620284633
 20
-1830.127401991883
 30
0.0
 40
3.067967999999998
100
AcDbArc
 50
231.9486744806315
 51
296.3656725032052
  0
ARC
  5
A0
330
2
100
AcDbEntity
  8
0
 48
0.6
100
AcDbCircle
 10
9467.063631036593
 20
-1834.959199579103
 30
0.0
 40
3.067967999999998
100
AcDbArc
 50
51.94867448063119
 51
107.7198081527501
  0
ARC
  5
A1
330
2
100
AcDbEntity
  8
0
 48
0.6
100
AcDbCircle
 10
9486.0954919126
 20
-1814.877530363917
 30
0.0
 40
3.067967999999998
100
AcDbArc
 50
333.6343274967306
 51
38.05132551945754
  0
ARC
  5
A2
330
2
100
AcDbEntity
  8
0
 48
0.6
100
AcDbCircle
 10
9455.858341996529
 20
-1799.890252075817
 30
0.0
 40
36.81561599999999
100
AcDbArc
 50
296.3656725032052
 51
333.6343274967306
  0
ARC
  5
A3
330
2
100
AcDbEntity
  8
0
 48
0.6
100
AcDbCircle
 10
9490.927289499815
 20
-1811.095541115884
 30
0.0
 40
3.067967999999998
100
AcDbArc
 50
162.280191847512
 51
218.0513255194576
  0
ARC
  5
A4
330
2
100
AcDbEntity
  8
0
 48
0.6
100
AcDbCircle
 10
9486.0954919126
 20
-1784.902973787717
 30
0.0
 40
3.067967999999998
100
AcDbArc
 50
321.9486744805424
 51
26.36567250326935
  0
ARC
  5
A5
330
2
100
AcDbEntity
  8
0
 48
0.6
100
AcDbCircle
 10
9490.927289499815
 20
-1788.684963035751
 30
0.0
 40
3.067967999999998
100
AcDbArc
 50
141.9486744805424
 51
197.7198081524879
  0
ARC
  5
A6
330
2
100
AcDbEntity
  8
0
 48
0.6
100
AcDbCircle
 10
9455.858341996529
 20
-1799.890252075817
 30
0.0
 40
33.74764799999999
100
AcDbArc
 50
162.280191847512
 51
197.7198081524879
  0
ARC
  5
A7
330
2
100
AcDbEntity
  8
0
 48
0.6
100
AcDbCircle
 10
9425.621192080461
 20
-1814.877530363917
 30
0.0
 40
3.067967999999998
100
AcDbArc
 50
141.9486744805424
 51
206.3656725032693
  0
ARC
  5
A8
330
2
100
AcDbEntity
  8
0
 48
0.6
100
AcDbCircle
 10
9440.871063708428
 20
-1830.127401991883
 30
0.0
 40
3.067967999999998
100
AcDbArc
 50
243.6343274967948
 51
308.0513255193686
  0
ARC
  5
A9
330
2
100
AcDbEntity
  8
0
 48
0.6
100
AcDbCircle
 10
9455.858341996529
 20
-1799.890252075817
 30
0.0
 40
36.81561599999999
100
AcDbArc
 50
206.3656725032693
 51
243.6343274967948
  0
ARC
  5
AA
330
2
100
AcDbEntity
  8
0
 48
0.6
100
AcDbCircle
 10
9444.653052956468
 20
-1834.959199579103
 30
0.0
 40
3.067967999999998
100
AcDbArc
 50
72.28019184724981
 51
128.0513255193685
  0
ARC
  5
AB
330
2
100
AcDbEntity
  8
0
 48
0.6
100
AcDbCircle
 10
9420.789394493246
 20
-1811.095541115884
 30
0.0
 40
3.067967999999998
100
AcDbArc
 50
321.9486744805424
 51
17.71980815248794
  0
ARC
  5
AC
330
2
100
AcDbEntity
  8
0
 48
0.6
100
AcDbCircle
 10
9425.621192080461
 20
-1784.902973787717
 30
0.0
 40
3.067967999999998
100
AcDbArc
 50
153.6343274967306
 51
218.0513255194576
  0
ARC
  5
AD
330
2
100
AcDbEntity
  8
0
 48
0.6
100
AcDbCircle
 10
9420.789394493246
 20
-1788.684963035751
 30
0.0
 40
3.067967999999998
100
AcDbArc
 50
342.2801918475121
 51
38.05132551945754
  0
LINE
  5
AE
330
2
100
AcDbEntity
  8
0
 48
0.6
100
AcDbLine
 10
9452.617181520354
 20
-1794.890252075817
 30
0.0
 11
9459.250431101068
 21
-1794.890252075817
 31
0.0
  0
CIRCLE
  5
AF
330
2
100
AcDbEntity
  8
0
 48
0.6
100
AcDbCircle
 10
9455.933806310712
 20
-1799.890252075817
 30
0.0
 40
6.0
  0
LINE
  5
B0
330
2
100
AcDbEntity
  8
0
  6
CENTER
 62
     1
 48
0.6
100
AcDbLine
 10
9474.573416617497
 20
-1844.890252075803
 30
0.0
 11
9455.933806310708
 21
-1799.89025207581
 31
0.0
  0
ARC
  5
B1
330
2
100
AcDbEntity
  8
0
 48
0.6
100
AcDbCircle
 10
9455.858341996529
 20
-1799.890252075817
 30
0.0
 40
33.74764799999999
100
AcDbArc
 50
252.2801918472498
 51
287.7198081527502
  0
LINE
  5
B2
330
2
100
AcDbEntity
  8
0
  6
CENTER
 62
     1
 48
0.6
100
AcDbLine
 10
9406.680530096311
 20
-1799.890252075817
 30
0.0
 11
9505.187082525109
 21
-1799.890252075817
 31
0.0
  0
LEADER
  5
B3
330
2
100
AcDbEntity
  8
0
100
AcDbLeader
  3
STANDARD
 76
     2
 10
9492.727999507144
 20
-1759.97107762301
 30
0.0
 10
9483.764785955003
 20
-1733.275466461612
 30
0.0
1001
ACAD
1000
DSTYLE
1002
{
1070
     5
1000

1002
}
  0
ARC
  5
B4
330
2
100
AcDbEntity
  8
0
 48
0.6
100
AcDbCircle
 10
9470.845620284633
 20
-1769.653102159745
 30
0.0
 40
3.067967999999998
100
AcDbArc
 50
63.63432749679486
 51
128.0513255193685
  0
ARC
  5
B5
330
2
100
AcDbEntity
  8
0
 48
0.6
100
AcDbCircle
 10
9467.063631036593
 20
-1764.821304572532
 30
0.0
 40
3.067967999999998
100
AcDbArc
 50
252.2801918472498
 51
308.0513255193686
  0
LINE
  5
B6
330
2
100
AcDbEntity
  8
0
 62
     3
100
AcDbLine
 10
9446.906322759728
 20
-1718.149570938481
 30
0.0
 11
9450.536322759724
 21
-1718.149570938481
 31
0.0
  0
LINE
  5
B7
330
2
100
AcDbEntity
  8
0
 62
     3
100
AcDbLine
 10
9450.536322759724
 20
-1718.149570938481
 30
0.0
 11
9450.536322759724
 21
-1714.299570938481
 31
0.0
  0
LINE
  5
B8
330
2
100
AcDbEntity
  8
0
 62
     3
100
AcDbLine
 10
9450.536322759724
 20
-1714.299570938481
 30
0.0
 11
9446.906322759728
 21
-1714.299570938481
 31
0.0
  0
LINE
  5
B9
330
2
100
AcDbEntity
  8
0
 62
     3
100
AcDbLine
 10
9446.906322759728
 20
-1714.299570938481
 30
0.0
 11
9446.906322759728
 21
-1718.149570938481
 31
0.0
  0
ARC
  5
BA
330
2
100
AcDbEntity
  8
0
 48
0.6
100
AcDbCircle
 10
9440.871063708428
 20
-1769.653102159745
 30
0.0
 40
3.067967999999998
100
AcDbArc
 50
51.94867448063119
 51
116.3656725032051
  0
ARC
  5
BB
330
2
100
AcDbEntity
  8
0
 48
0.6
100
AcDbCircle
 10
9444.653052956468
 20
-1764.821304572532
 30
0.0
 40
3.067967999999998
100
AcDbArc
 50
231.9486744806315
 51
287.7198081527502
  0
ARC
  5
BC
330
2
100
AcDbEntity
  8
0
 48
0.6
100
AcDbCircle
 10
9455.858341996529
 20
-1799.890252075817
 30
0.0
 40
33.74764799999999
100
AcDbArc
 50
72.28019184724981
 51
107.7198081527501
  0
DIMENSION
  5
BD
330
2
100
AcDbEntity
  8
0
100
AcDbDimension
  2
*D1
 10
9500.933806310712
 20
-1719.859207646751
 30
0.0
 11
9455.933806310712
 21
-1719.859207646751
 31
0.0
 70
   128
 71
     5
 42
-1.0
  3
STANDARD
100
AcDbAlignedDimension
 13
9410.933806310712
 23
-1759.933045834613
 33
0.0
 14
9500.933806310712
 24
-1759.933045834613
 34
0.0
100
AcDbRotatedDimension
  0
LINE
  5
CA
330
2
100
AcDbEntity
  8
0
 62
   123
100
AcDbLine
 10
9483.764785955003
 20
-1733.275466461612
 30
0.0
 11
9437.824734711467
 21
-1733.275466461612
 31
0.0
  0
DIMENSION
  5
CB
330
2
100
AcDbEntity
  8
0
100
AcDbDimension
  2
*D3
 10
9827.577199344473
 20
-1845.710438786854
 30
0.0
 11
9827.577199344473
 21
-1799.71043878685
 31
0.0
 70
   128
 71
     5
 42
-1.0
  3
STANDARD
100
AcDbAlignedDimension
 13
9805.690738507923
 23
-1753.71043878685
 33
0.0
 14
9805.690738507923
 24
-1845.710438786854
 34
0.0
 50
90.0
100
AcDbRotatedDimension
  0
LINE
  5
D8
330
2
100
AcDbEntity
  8
0
  6
CENTER
 62
     1
100
AcDbLine
 10
9815.571094199668
 20
-1799.890252075817
 30
0.0
 11
9562.841819757945
 21
-1799.890252075817
 31
0.0
  0
LINE
  5
D9
330
2
100
AcDbEntity
  8
0
100
AcDbLine
 10
9749.031851014965
 20
-1776.440309834849
 30
0.0
 11
9807.690738507924
 21
-1776.440309834849
 31
0.0
  0
LINE
  5
DA
330
2
100
AcDbEntity
  8
0
100
AcDbLine
 10
9804.690738507924
 20
-1753.71043878685
 30
0.0
 11
9749.031851014965
 21
-1753.710438786854
 31
0.0
  0
ARC
  5
DB
330
2
100
AcDbEntity
  8
0
100
AcDbCircle
 10
9804.690738507924
 20
-1756.71043878685
 30
0.0
 40
3.0
100
AcDbArc
 50
0.0
 51
90.0
  0
LINE
  5
DC
330
2
100
AcDbEntity
  8
0
100
AcDbLine
 10
9804.690738507924
 20
-1845.710438786854
 30
0.0
 11
9749.031851014965
 21
-1845.710438786854
 31
0.0
  0
ARC
  5
DD
330
2
100
AcDbEntity
  8
0
100
AcDbCircle
 10
9804.690738507924
 20
-1842.710438786854
 30
0.0
 40
3.0
100
AcDbArc
 50
270.0
 51
0.0
  0
LINE
  5
DE
330
2
100
AcDbEntity
  8
0
100
AcDbLine
 10
9749.031851014965
 20
-1822.980567738855
 30
0.0
 11
9807.690738507924
 21
-1822.980567738859
 31
0.0
  0
LINE
  5
DF
330
2
100
AcDbEntity
  8
0
100
AcDbLine
 10
9807.690738507924
 20
-1756.71043878685
 30
0.0
 11
9807.690738507924
 21
-1842.710438786854
 31
0.0
  0
LINE
  5
E0
330
2
100
AcDbEntity
  8
0
100
AcDbLine
 10
9749.031851014965
 20
-1753.710438786854
 30
0.0
 11
9749.031851014965
 21
-1845.710438786854
 31
0.0
  0
DIMENSION
  5
E1
102
{ACAD_XDICTIONARY
360
E2
102
}
102
{ACAD_REACTORS
330
E3
102
}
330
2
100
AcDbEntity
  8
0
100
AcDbDimension
  2
*D6
 10
9615.191816307275
 20
-1734.326877622644
 30
0.0
 11
9629.929911545373
 21
-1734.326877622644
 31
0.0
 70
   128
 71
     5
 42
-1.0
  3
STANDARD
100
AcDbAlignedDimension
 13
9607.691816307275
 23
-1754.681918742485
 33
0.0
 14
9615.191816307275
 24
-1756.291514734287
 34
0.0
100
AcDbRotatedDimension
  0
DIMENSION
  5
F2
330
2
100
AcDbEntity
  8
0
100
AcDbDimension
  2
*D4
 10
9607.691816307275
 20
-1743.469214779424
 30
0.0
 11
9594.525149640608
 21
-1743.469214779424
 31
0.0
 70
   128
 71
     5
 42
-1.0
  3
STANDARD
100
AcDbAlignedDimension
 13
9605.691816307276
 23
-1758.390252075817
 33
0.0
 14
9607.691816307275
 24
-1754.890252075817
 34
0.0
100
AcDbRotatedDimension
  0
DIMENSION
  5
101
102
{ACAD_XDICTIONARY
360
102
102
}
102
{ACAD_REACTORS
330
103
102
}
330
2
100
AcDbEntity
  8
0
100
AcDbDimension
  2
*D7
 10
9607.691816307275
 20
-1720.728934000287
 30
0.0
 11
9590.941816307276
 21
-1720.728934000287
 31
0.0
 70
   128
 71
     5
 42
-1.0
  3
STANDARD
100
AcDbAlignedDimension
 13
9570.691816307276
 23
-1794.890252075817
 33
0.0
 14
9607.691816307275
 24
-1754.681918742485
 34
0.0
100
AcDbRotatedDimension
  0
LINE
  5
110
330
2
100
AcDbEntity
  8
0
100
AcDbLine
 10
9615.191816307275
 20
-1763.991514734288
 30
0.0
 11
9615.191816307275
 21
-1756.291514734287
 31
0.0
  0
LINE
  5
111
330
2
100
AcDbEntity
  8
0
100
AcDbLine
 10
9607.691816307275
 20
-1758.390252075817
 30
0.0
 11
9605.691816307276
 21
-1758.390252075817
 31
0.0
  0
LINE
  5
112
330
2
100
AcDbEntity
  8
0
100
AcDbLine
 10
9607.691816307275
 20
-1754.890252075817
 30
0.0
 11
9749.031851014965
 21
-1754.890252075817
 31
0.0
  0
LINE
  5
113
330
2
100
AcDbEntity
  8
0
100
AcDbLine
 10
9614.291816307281
 20
-1763.991514734288
 30
0.0
 11
9615.191816307275
 21
-1763.991514734288
 31
0.0
  0
LINE
  5
114
102
{ACAD_REACTORS
330
E3
102
}
330
2
100
AcDbEntity
  8
0
100
AcDbLine
 10
9614.291816307281
 20
-1756.291514734287
 30
0.0
 11
9615.191816307275
 21
-1756.291514734287
 31
0.0
  0
LINE
  5
115
330
2
100
AcDbEntity
  8
0
100
AcDbLine
 10
9600.691816307275
 20
-1793.890252075817
 30
0.0
 11
9600.691816307275
 21
-1794.890252075817
 31
0.0
  0
LINE
  5
116
102
{ACAD_REACTORS
330
12A
330
140
102
}
330
2
100
AcDbEntity
  8
0
100
AcDbLine
 10
9605.691816307276
 20
-1793.890252075817
 30
0.0
 11
9600.691816307275
 21
-1793.890252075817
 31
0.0
  0
LINE
  5
117
330
2
100
AcDbEntity
  8
0
100
AcDbLine
 10
9570.691816307276
 20
-1794.890252075817
 30
0.0
 11
9570.691816307276
 21
-1805.890252075817
 31
0.0
  0
DIMENSION
  5
118
102
{ACAD_XDICTIONARY
360
119
102
}
102
{ACAD_REACTORS
330
11A
102
}
330
2
100
AcDbEntity
  8
0
100
AcDbDimension
  2
*D8
 10
9558.223335426566
 20
-1794.890252075817
 30
0.0
 11
9558.223335426566
 21
-1800.390252075817
 31
0.0
 70
   128
  1
<>
 71
     5
 42
-1.0
  3
STANDARD
100
AcDbAlignedDimension
 13
9570.691816307276
 23
-1805.890252075817
 33
0.0
 14
9570.691816307276
 24
-1794.890252075817
 34
0.0
 50
90.0
100
AcDbRotatedDimension
  0
LINE
  5
127
102
{ACAD_REACTORS
330
12A
330
11A
330
103
102
}
330
2
100
AcDbEntity
  8
0
100
AcDbLine
 10
9600.691816307275
 20
-1794.890252075817
 30
0.0
 11
9570.691816307276
 21
-1794.890252075817
 31
0.0
  0
DIMENSION
  5
128
102
{ACAD_XDICTIONARY
360
129
102
}
102
{ACAD_REACTORS
330
12A
102
}
330
2
100
AcDbEntity
  8
0
100
AcDbDimension
  2
*D9
 10
9600.691816307275
 20
-1773.369491360704
 30
0.0
 11
9585.691816307274
 21
-1773.369491360704
 31
0.0
 70
   128
 71
     5
 42
-1.0
  3
STANDARD
100
AcDbAlignedDimension
 13
9570.691816307276
 23
-1794.890252075817
 33
0.0
 14
9600.691816307275
 24
-1793.890252075817
 34
0.0
100
AcDbRotatedDimension
  0
LINE
  5
137
102
{ACAD_REACTORS
330
11A
330
140
102
}
330
2
100
AcDbEntity
  8
0
100
AcDbLine
 10
9605.691816307276
 20
-1805.890252075817
 30
0.0
 11
9570.691816307276
 21
-1805.890252075817
 31
0.0
  0
LINE
  5
138
330
2
100
AcDbEntity
  8
0
100
AcDbLine
 10
9614.291816307281
 20
-1835.788989417347
 30
0.0
 11
9615.191816307275
 21
-1835.788989417347
 31
0.0
  0
LINE
  5
139
330
2
100
AcDbEntity
  8
0
100
AcDbLine
 10
9615.191816307275
 20
-1835.788989417347
 30
0.0
 11
9615.191816307275
 21
-1843.488989417348
 31
0.0
  0
LINE
  5
13A
330
2
100
AcDbEntity
  8
0
100
AcDbLine
 10
9607.691816307275
 20
-1844.890252075817
 30
0.0
 11
9623.003834964727
 21
-1844.890252075817
 31
0.0
  0
LINE
  5
13B
330
2
100
AcDbEntity
  8
0
100
AcDbLine
 10
9628.218607220755
 20
-1844.890252075817
 30
0.0
 11
9749.031851014965
 21
-1844.890252075817
 31
0.0
  0
LINE
  5
13C
330
2
100
AcDbEntity
  8
0
100
AcDbLine
 10
9607.691816307275
 20
-1841.390252075817
 30
0.0
 11
9605.691816307276
 21
-1841.390252075817
 31
0.0
  0
LINE
  5
13D
330
2
100
AcDbEntity
  8
0
100
AcDbLine
 10
9614.291816307281
 20
-1843.488989417348
 30
0.0
 11
9615.191816307275
 21
-1843.488989417348
 31
0.0
  0
DIMENSION
  5
13E
102
{ACAD_XDICTIONARY
360
13F
102
}
102
{ACAD_REACTORS
330
140
102
}
330
2
100
AcDbEntity
  8
0
100
AcDbDimension
  2
*D10
 10
9547.354854545856
 20
-1793.890252075817
 30
0.0
 11
9547.354854545856
 21
-1799.890252075816
 31
0.0
 70
   128
  1
\A1;{\f??|b0|i0|c0|p49;%%C}12{\f??|b0|i0|c0|p49;\H0.7x;\S+0^ -0.018;\H1.429x;(h}7{\f??|b0|i0|c0|p49;)}
 71
     5
 42
-1.0
  3
STANDARD
100
AcDbAlignedDimension
 13
9570.691816307276
 23
-1805.890252075817
 33
0.0
 14
9600.691816307275
 24
-1793.890252075817
 34
0.0
 50
90.0
100
AcDbRotatedDimension
  0
DIMENSION
  5
14D
102
{ACAD_XDICTIONARY
360
14E
102
}
102
{ACAD_REACTORS
330
14F
102
}
330
2
100
AcDbEntity
  8
0
100
AcDbDimension
  2
*D11
 10
9531.994087173051
 20
-1841.390252075817
 30
0.0
 11
9531.994087173051
 21
-1798.525295443066
 31
0.0
 70
   128
  1
\A1;{\f??|b0|i0|c0|p49;%%C}<>{\f??|b0|i0|c0|p49;\H0.7x;\S+0^ -0.035;\H1.429x;(h}7{\f??|b0|i0|c0|p49;)}
 71
     5
 42
-1.0
  3
STANDARD
100
AcDbAlignedDimension
 13
9605.691816307276
 23
-1758.390252075817
 33
0.0
 14
9605.691816307276
 24
-1841.390252075817
 34
0.0
 50
90.0
100
AcDbRotatedDimension
  0
LINE
  5
15C
330
2
100
AcDbEntity
  8
0
100
AcDbLine
 10
9607.691816307275
 20
-1754.890252075817
 30
0.0
 11
9607.691816307275
 21
-1844.890252075817
 31
0.0
  0
LINE
  5
15D
102
{ACAD_REACTORS
330
14F
102
}
330
2
100
AcDbEntity
  8
0
100
AcDbLine
 10
9605.691816307276
 20
-1758.390252075817
 30
0.0
 11
9605.691816307276
 21
-1841.390252075817
 31
0.0
  0
LINE
  5
15E
330
2
100
AcDbEntity
  8
0
100
AcDbLine
 10
9614.291816307281
 20
-1754.890252075817
 30
0.0
 11
9614.291816307281
 21
-1844.890252075817
 31
0.0
  0
DIMENSION
  5
15F
330
2
100
AcDbEntity
  8
0
100
AcDbDimension
  2
*D5
 10
9807.690738507924
 20
-1720.728934000287
 30
0.0
 11
9707.691277407601
 21
-1720.728934000287
 31
0.0
 70
   128
 71
     5
 42
-1.0
  3
STANDARD
100
AcDbAlignedDimension
 13
9607.691816307275
 23
-1754.890252075817
 33
0.0
 14
9807.690738507924
 24
-1756.71043878685
 34
0.0
100
AcDbRotatedDimension
  0
CIRCLE
  5
16C
330
2
100
AcDbEntity
  8
0
100
AcDbCircle
 10
9754.031851014964
 20
-1799.710438786854
 30
0.0
 40
3.0
  0
ARC
  5
16D
330
2
100
AcDbEntity
  8
0
100
AcDbCircle
 10
9754.996136729253
 20
-1798.746153072568
 30
0.0
 40
0.5357142857142857
100
AcDbArc
 50
180.0
 51
270.0
  0
ARC
  5
16E
330
2
100
AcDbEntity
  8
0
100
AcDbCircle
 10
9753.067565300678
 20
-1798.746153072568
 30
0.0
 40
0.5357142857142857
100
AcDbArc
 50
270.0
 51
0.0
  0
LINE
  5
16F
330
2
100
AcDbEntity
  8
0
100
AcDbLine
 10
9754.996136729253
 20
-1799.281867358281
 30
0.0
 11
9755.74613672925
 21
-1799.281867358281
 31
0.0
  0
ARC
  5
170
330
2
100
AcDbEntity
  8
0
100
AcDbCircle
 10
9754.996136729253
 20
-1800.67472450114
 30
0.0
 40
0.5357142857142857
100
AcDbArc
 50
90.0
 51
180.0
  0
LINE
  5
171
330
2
100
AcDbEntity
  8
0
100
AcDbLine
 10
9754.996136729253
 20
-1800.139010215426
 30
0.0
 11
9755.74613672925
 21
-1800.139010215426
 31
0.0
  0
LINE
  5
172
330
2
100
AcDbEntity
  8
0
100
AcDbLine
 10
9754.460422443537
 20
-1801.42472450114
 30
0.0
 11
9754.460422443537
 21
-1800.67472450114
 31
0.0
  0
LINE
  5
173
330
2
100
AcDbEntity
  8
0
100
AcDbLine
 10
9755.74613672925
 20
-1799.281867358281
 30
0.0
 11
9755.74613672925
 21
-1800.139010215426
 31
0.0
  0
ARC
  5
174
330
2
100
AcDbEntity
  8
0
100
AcDbCircle
 10
9753.067565300678
 20
-1800.67472450114
 30
0.0
 40
0.5357142857142857
100
AcDbArc
 50
0.0
 51
90.0
  0
LINE
  5
175
330
2
100
AcDbEntity
  8
0
100
AcDbLine
 10
9752.317565300678
 20
-1799.281867358281
 30
0.0
 11
9753.067565300678
 21
-1799.281867358281
 31
0.0
  0
LINE
  5
176
330
2
100
AcDbEntity
  8
0
100
AcDbLine
 10
9752.317565300678
 20
-1800.139010215426
 30
0.0
 11
9753.067565300678
 21
-1800.139010215426
 31
0.0
  0
LINE
  5
177
330
2
100
AcDbEntity
  8
0
100
AcDbLine
 10
9752.317565300678
 20
-1799.281867358281
 30
0.0
 11
9752.317565300678
 21
-1800.139010215426
 31
0.0
  0
LINE
  5
178
330
2
100
AcDbEntity
  8
0
100
AcDbLine
 10
9753.603279586393
 20
-1801.42472450114
 30
0.0
 11
9753.603279586393
 21
-1800.67472450114
 31
0.0
  0
LINE
  5
179
330
2
100
AcDbEntity
  8
0
100
AcDbLine
 10
9753.603279586393
 20
-1801.42472450114
 30
0.0
 11
9754.460422443537
 21
-1801.42472450114
 31
0.0
  0
LINE
  5
17A
330
2
100
AcDbEntity
  8
0
100
AcDbLine
 10
9754.460422443537
 20
-1798.746153072568
 30
0.0
 11
9754.460422443537
 21
-1797.996153072568
 31
0.0
  0
LINE
  5
17B
330
2
100
AcDbEntity
  8
0
100
AcDbLine
 10
9753.603279586393
 20
-1798.746153072568
 30
0.0
 11
9753.603279586393
 21
-1797.996153072568
 31
0.0
  0
LINE
  5
17C
330
2
100
AcDbEntity
  8
0
100
AcDbLine
 10
9753.603279586393
 20
-1797.996153072568
 30
0.0
 11
9754.460422443537
 21
-1797.996153072568
 31
0.0
  0
LINE
  5
17D
330
2
100
AcDbEntity
  8
0
 62
   123
 48
0.6
100
AcDbLine
 10
9700.740642220566
 20
-1876.384132874068
 30
0.0
 11
9815.500858798394
 21
-1876.384132874068
 31
0.0
  0
LINE
  5
17E
330
2
100
AcDbEntity
  8
0
 62
   123
100
AcDbLine
 10
9588.764673155797
 20
-1899.046921475551
 30
0.0
 11
9698.985116049373
 21
-1899.046921475551
 31
0.0
  0
LEADER
  5
17F
330
2
100
AcDbEntity
  8
0
 48
0.6
100
AcDbLeader
  3
STANDARD
 76
     2
 10
9721.40332402288
 20
-1839.653366488984
 30
0.0
 10
9700.740642220566
 20
-1876.384132874068
 30
0.0
1001
ACAD
1000
DSTYLE
1002
{
1070
     5
1000

1002
}
  0
LEADER
  5
180
330
2
100
AcDbEntity
  8
0
100
AcDbLeader
  3
STANDARD
 76
     2
 10
9617.265791510286
 20
-1852.086042913747
 30
0.0
 10
9588.764673155797
 20
-1899.046921475551
 30
0.0
1001
ACAD
1000
DSTYLE
1002
{
1070
     5
1000

1002
}
  0
MTEXT
  5
181
330
2
100
AcDbEntity
  8
0
 62
     3
100
AcDbMText
 10
9640.338196947872
 20
-1904.556475399339
 30
0.0
 40
5.0
 41
0.0
 71
     5
 72
     1
  1
UL Style 3271, AWG20
 73
     1
 44
1.0
1001
ACAD
1000
MTEXTBEGIN
1070
    73
1070
     1
1070
    44
1040
1.0
1070
    74
1070
     0
1000
MTEXTEND
  0
MTEXT
  5
182
330
2
100
AcDbEntity
  8
0
 62
     3
100
AcDbMText
 10
9754.123077532874
 20
-1881.728283016452
 30
0.0
 40
5.0
 41
0.0
 71
     5
 72
     1
  1
UL Style 3266 , AWG20
 73
     1
 44
1.0
1001
ACAD
1000
MTEXTBEGIN
1070
    73
1070
     1
1070
    44
1040
1.0
1070
    74
1070
     0
1000
MTEXTEND
  0
MTEXT
  5
183
102
{ACAD_XDICTIONARY
360
3FE
102
}
330
2
100
AcDbEntity
  8
0
 62
     3
100
AcDbMText
 10
9712.068464017818
 20
-1867.038459470085
 30
0.0
 40
5.0
 41
0.0
 71
     5
 72
     1
  1
ELECTRO-MAGNETIC BRAKE\PLEAD WIRE 300mm
 73
     1
 44
1.0
1001
ACAD
1000
MTEXTBEGIN
1070
    73
1070
     1
1070
    44
1040
1.0
1070
    74
1070
     0
1000
MTEXTEND
  0
MTEXT
  5
184
330
2
100
AcDbEntity
  8
0
 62
     3
100
AcDbMText
 10
9648.069632835928
 20
-1893.883840130021
 30
0.0
 40
5.0
 41
0.0
 71
     5
 72
     1
  1
MOTOR LEAD WIRE 300mm
 73
     1
 44
1.0
1001
ACAD
1000
MTEXTBEGIN
1070
    73
1070
     1
1070
    44
1040
1.0
1070
    74
1070
     0
1000
MTEXTEND
  0
LINE
  5
185
330
2
100
AcDbEntity
  8
0
100
AcDbLine
 10
9631.218607220755
 20
-1840.241009913917
 30
0.0
 11
9706.208652524002
 21
-1840.241009913913
 31
0.0
  0
LINE
  5
186
330
2
100
AcDbEntity
  8
0
100
AcDbLine
 10
9631.003539982916
 20
-1835.241009913917
 30
0.0
 11
9706.208652524002
 21
-1835.241009913913
 31
0.0
  0
LINE
  5
187
330
2
100
AcDbEntity
  8
0
100
AcDbLine
 10
9749.032928814317
 20
-1837.653366488984
 30
0.0
 11
9706.208652524002
 21
-1837.653366488984
 31
0.0
  0
LINE
  5
188
330
2
100
AcDbEntity
  8
0
100
AcDbLine
 10
9749.032928814317
 20
-1839.653366488984
 30
0.0
 11
9706.208652524002
 21
-1839.653366488984
 31
0.0
  0
LINE
  5
189
330
2
100
AcDbEntity
  8
0
100
AcDbLine
 10
9749.032928814317
 20
-1835.653366488983
 30
0.0
 11
9706.208652524002
 21
-1835.653366488983
 31
0.0
  0
ARC
  5
18A
330
2
100
AcDbEntity
  8
0
 48
0.6
100
AcDbCircle
 10
19247.39449482015
 20
-1844.915605216051
 30
0.0
 40
9630.131372805323
100
AcDbArc
 50
180.0057987943465
 51
180.0854738431518
  0
ARC
  5
18B
330
2
100
AcDbEntity
  8
0
 48
0.6
100
AcDbCircle
 10
17957.3046639128
 20
-1844.930720842652
 30
0.0
 40
8338.016067540399
100
AcDbArc
 50
180.0065935456831
 51
180.0986155903735
  0
ARC
  5
18C
330
2
100
AcDbEntity
  8
0
 48
0.6
100
AcDbCircle
 10
25600.55927707292
 20
-1843.574005592633
 30
0.0
 40
15979.38658124886
100
AcDbArc
 50
180.008305146539
 51
180.0563220726751
  0
ARC
  5
18D
330
2
100
AcDbEntity
  8
0
 48
0.6
100
AcDbCircle
 10
34180.56178817483
 20
-1839.672032163072
 30
0.0
 40
24557.55850761821
100
AcDbArc
 50
180.0083295739286
 51
180.0457520545317
  0
ARC
  5
18E
330
2
100
AcDbEntity
  8
0
 48
0.6
100
AcDbCircle
 10
9631.003539982916
 20
-1843.241009913913
 30
0.0
 40
8.0
100
AcDbArc
 50
90.0
 51
180.0083295739286
  0
LINE
  5
18F
330
2
100
AcDbEntity
  8
0
100
AcDbLine
 10
9706.208652524002
 20
-1835.241009913913
 30
0.0
 11
9706.208652524002
 21
-1840.241009913913
 31
0.0
  0
LINE
  5
190
330
2
100
AcDbEntity
  8
0
100
AcDbLine
 10
9628.218607220755
 20
-1843.241009913917
 30
0.0
 11
9628.218607220755
 21
-1859.281829731252
 31
0.0
  0
ARC
  5
191
330
2
100
AcDbEntity
  8
0
100
AcDbCircle
 10
9631.218607220755
 20
-1843.241009913917
 30
0.0
 40
3.0
100
AcDbArc
 50
90.0
 51
180.0
  0
LINE
  5
192
330
2
100
AcDbEntity
  8
0
100
AcDbLine
 10
9616.101774929205
 20
-1859.281829731252
 30
0.0
 11
9629.230020331858
 21
-1859.281829731252
 31
0.0
  0
LINE
  5
193
330
2
100
AcDbEntity
  8
0
100
AcDbLine
 10
9616.101774929205
 20
-1859.281829731252
 30
0.0
 11
9616.101774929205
 21
-1880.793699693969
 31
0.0
  0
LINE
  5
194
330
2
100
AcDbEntity
  8
0
100
AcDbLine
 10
9629.230020331858
 20
-1859.281829731252
 30
0.0
 11
9629.230020331858
 21
-1880.708091229463
 31
0.0
  0
SPLINE
  5
195
330
2
100
AcDbEntity
  8
0
100
AcDbSpline
210
0.0
220
0.0
230
1.0
 70
     8
 71
     3
 72
    11
 73
     7
 74
     0
 42
0.0000000001
 43
0.0000000001
 40
0.5894126140828729
 40
0.5894126140828729
 40
0.5894126140828729
 40
0.5894126140828729
 40
3.94622577503947
 40
7.252032053323973
 40
10.09210796370155
 40
13.81861596368982
 40
13.81861596368982
 40
13.81861596368982
 40
13.81861596368982
 10
9616.665013357376
 20
-1881.693276999916
 30
0.0
 10
9617.734143814049
 20
-1882.212359790982
 30
0.0
 10
9619.854152872813
 20
-1883.095846152414
 30
0.0
 10
9622.839831201424
 20
-1881.573765762635
 30
0.0
 10
9625.724097260405
 20
-1879.526743975316
 30
0.0
 10
9627.832708241264
 20
-1880.634647916689
 30
0.0
 10
9629.032520929728
 20
-1881.304742543431
 30
0.0
  0
SPLINE
  5
196
330
2
100
AcDbEntity
  8
0
100
AcDbSpline
210
0.0
220
0.0
230
1.0
 70
     8
 71
     3
 72
     9
 73
     5
 74
     0
 42
0.0000000001
 43
0.0000000001
 40
6.313964801839686
 40
6.313964801839686
 40
6.313964801839686
 40
6.313964801840936
 40
9.154040712218515
 40
11.79142878795785
 40
11.79142878795785
 40
11.79142878795785
 40
11.79142878795785
 10
9622.946973259864
 20
-1881.415284142789
 30
0.0
 10
9623.813303959437
 20
-1881.987864801159
 30
0.0
 10
9625.426157689915
 20
-1883.21680388309
 30
0.0
 10
9627.094255530606
 20
-1882.19836483117
 30
0.0
 10
9628.579140951451
 20
-1881.645169024047
 30
0.0
  0
ARC
  5
197
330
2
100
AcDbEntity
  8
0
100
AcDbCircle
 10
9617.10177492921
 20
-1880.793699693969
 30
0.0
 40
1.0
100
AcDbArc
 50
180.0
 51
244.1025614949296
  0
ARC
  5
198
330
2
100
AcDbEntity
  8
0
100
AcDbCircle
 10
9628.230020331884
 20
-1880.708091229463
 30
0.0
 40
1.0
100
AcDbArc
 50
290.432964352975
 51
0.0
  0
ARC
  5
199
330
2
100
AcDbEntity
  8
0
100
AcDbCircle
 10
9615.191816307275
 20
-1845.390252075817
 30
0.0
 40
0.5
100
AcDbArc
 50
180.0
 51
270.0
  0
LINE
  5
19A
330
2
100
AcDbEntity
  8
0
100
AcDbLine
 10
9614.691816307276
 20
-1844.890252075817
 30
0.0
 11
9614.691816307276
 21
-1845.390252075817
 31
0.0
  0
LINE
  5
19B
330
2
100
AcDbEntity
  8
0
100
AcDbLine
 10
9623.004067814427
 20
-1845.890252075817
 30
0.0
 11
9615.191816307275
 21
-1845.890252075817
 31
0.0
  0
ARC
  5
19C
330
2
100
AcDbEntity
  8
0
 48
0.6
100
AcDbCircle
 10
9574.318536192212
 20
-1790.763977601429
 30
0.0
 40
116.9686661741608
100
AcDbArc
 50
210.156015353598
 51
216.2412691602675
  0
LINE
  5
19D
330
2
100
AcDbEntity
  8
0
100
AcDbLine
 10
9473.180326947632
 20
-1849.523925672903
 30
0.0
 11
9479.672458293174
 21
-1846.633325696173
 31
0.0
  0
ARC
  5
19E
330
2
100
AcDbEntity
  8
0
 48
0.6
100
AcDbCircle
 10
9508.090011158152
 20
-1830.579699427282
 30
0.0
 40
39.155792
100
AcDbArc
 50
201.4369589999572
 51
208.5517089162816
  0
ARC
  5
19F
330
2
100
AcDbEntity
  8
0
 48
0.6
100
AcDbCircle
 10
9440.757720607948
 20
-1858.478950692661
 30
0.0
 40
39.155792
100
AcDbArc
 50
16.65391050761862
 51
20.30648800595336
  0
ARC
  5
1A0
330
2
100
AcDbEntity
  8
0
 48
0.6
100
AcDbCircle
 10
9562.26008097615
 20
-1797.990345271428
 30
0.0
 40
95.84808274048763
100
AcDbArc
 50
210.4975034246528
 51
218.057529567493
  0
LINE
  5
1A1
330
2
100
AcDbEntity
  8
0
100
AcDbLine
 10
9479.979248134389
 20
-1859.914303669393
 30
0.0
 11
9479.982263549503
 21
-1859.899730254612
 31
0.0
  0
LINE
  5
1A2
330
2
100
AcDbEntity
  8
0
100
AcDbLine
 10
9479.982263549503
 20
-1859.899730254612
 30
0.0
 11
9479.985812000832
 21
-1859.883070565942
 31
0.0
  0
LINE
  5
1A3
330
2
100
AcDbEntity
  8
0
100
AcDbLine
 10
9479.985812000832
 20
-1859.883070565942
 30
0.0
 11
9479.989439419012
 21
-1859.866517520473
 31
0.0
  0
LINE
  5
1A4
330
2
100
AcDbEntity
  8
0
100
AcDbLine
 10
9479.989439419012
 20
-1859.866517520473
 30
0.0
 11
9479.993145549292
 21
-1859.850070762342
 31
0.0
  0
LINE
  5
1A5
330
2
100
AcDbEntity
  8
0
100
AcDbLine
 10
9479.993145549292
 20
-1859.850070762342
 30
0.0
 11
9479.996930136907
 21
-1859.833729935664
 31
0.0
  0
LINE
  5
1A6
330
2
100
AcDbEntity
  8
0
100
AcDbLine
 10
9479.996930136907
 20
-1859.833729935664
 30
0.0
 11
9480.000792927109
 21
-1859.817494684575
 31
0.0
  0
LINE
  5
1A7
330
2
100
AcDbEntity
  8
0
100
AcDbLine
 10
9480.000792927109
 20
-1859.817494684575
 30
0.0
 11
9480.004733665131
 21
-1859.801364653202
 31
0.0
  0
LINE
  5
1A8
330
2
100
AcDbEntity
  8
0
100
AcDbLine
 10
9480.004733665131
 20
-1859.801364653202
 30
0.0
 11
9480.008752096219
 21
-1859.785339485665
 31
0.0
  0
LINE
  5
1A9
330
2
100
AcDbEntity
  8
0
100
AcDbLine
 10
9480.008752096219
 20
-1859.785339485665
 30
0.0
 11
9480.012847965619
 21
-1859.769418826093
 31
0.0
  0
LINE
  5
1AA
330
2
100
AcDbEntity
  8
0
100
AcDbLine
 10
9480.012847965619
 20
-1859.769418826093
 30
0.0
 11
9480.017021018571
 21
-1859.753602318622
 31
0.0
  0
LINE
  5
1AB
330
2
100
AcDbEntity
  8
0
100
AcDbLine
 10
9480.017021018571
 20
-1859.753602318622
 30
0.0
 11
9480.021271000316
 21
-1859.737889607371
 31
0.0
  0
LINE
  5
1AC
330
2
100
AcDbEntity
  8
0
100
AcDbLine
 10
9480.021271000316
 20
-1859.737889607371
 30
0.0
 11
9480.0255976561
 21
-1859.722280336464
 31
0.0
  0
LINE
  5
1AD
330
2
100
AcDbEntity
  8
0
100
AcDbLine
 10
9480.0255976561
 20
-1859.722280336464
 30
0.0
 11
9480.030000731158
 21
-1859.706774150036
 31
0.0
  0
LINE
  5
1AE
330
2
100
AcDbEntity
  8
0
100
AcDbLine
 10
9480.030000731158
 20
-1859.706774150036
 30
0.0
 11
9480.034479970742
 21
-1859.691370692213
 31
0.0
  0
LINE
  5
1AF
330
2
100
AcDbEntity
  8
0
100
AcDbLine
 10
9480.034479970742
 20
-1859.691370692213
 30
0.0
 11
9480.039035120087
 21
-1859.676069607118
 31
0.0
  0
LINE
  5
1B0
330
2
100
AcDbEntity
  8
0
100
AcDbLine
 10
9480.039035120087
 20
-1859.676069607118
 30
0.0
 11
9480.043665924442
 21
-1859.660870538879
 31
0.0
  0
LINE
  5
1B1
330
2
100
AcDbEntity
  8
0
100
AcDbLine
 10
9480.043665924442
 20
-1859.660870538879
 30
0.0
 11
9480.048372129044
 21
-1859.645773131629
 31
0.0
  0
LINE
  5
1B2
330
2
100
AcDbEntity
  8
0
100
AcDbLine
 10
9480.048372129044
 20
-1859.645773131629
 30
0.0
 11
9480.053153479138
 21
-1859.630777029488
 31
0.0
  0
LINE
  5
1B3
330
2
100
AcDbEntity
  8
0
100
AcDbLine
 10
9480.053153479138
 20
-1859.630777029488
 30
0.0
 11
9480.058009719966
 21
-1859.615881876583
 31
0.0
  0
LINE
  5
1B4
330
2
100
AcDbEntity
  8
0
100
AcDbLine
 10
9480.058009719966
 20
-1859.615881876583
 30
0.0
 11
9480.062940596774
 21
-1859.601087317052
 31
0.0
  0
LINE
  5
1B5
330
2
100
AcDbEntity
  8
0
100
AcDbLine
 10
9480.062940596774
 20
-1859.601087317052
 30
0.0
 11
9480.067945854798
 21
-1859.586392995007
 31
0.0
  0
LINE
  5
1B6
330
2
100
AcDbEntity
  8
0
100
AcDbLine
 10
9480.067945854798
 20
-1859.586392995007
 30
0.0
 11
9480.073025239283
 21
-1859.571798554585
 31
0.0
  0
LINE
  5
1B7
330
2
100
AcDbEntity
  8
0
100
AcDbLine
 10
9480.073025239283
 20
-1859.571798554585
 30
0.0
 11
9480.078178495476
 21
-1859.557303639907
 31
0.0
  0
LINE
  5
1B8
330
2
100
AcDbEntity
  8
0
100
AcDbLine
 10
9480.078178495476
 20
-1859.557303639907
 30
0.0
 11
9480.083405368612
 21
-1859.542907895106
 31
0.0
  0
LINE
  5
1B9
330
2
100
AcDbEntity
  8
0
100
AcDbLine
 10
9480.083405368612
 20
-1859.542907895106
 30
0.0
 11
9480.088705603941
 21
-1859.528610964309
 31
0.0
  0
LINE
  5
1BA
330
2
100
AcDbEntity
  8
0
100
AcDbLine
 10
9480.088705603941
 20
-1859.528610964309
 30
0.0
 11
9480.0940789467
 21
-1859.51441249164
 31
0.0
  0
LINE
  5
1BB
330
2
100
AcDbEntity
  8
0
100
AcDbLine
 10
9480.0940789467
 20
-1859.51441249164
 30
0.0
 11
9480.099525142128
 21
-1859.500312121225
 31
0.0
  0
LINE
  5
1BC
330
2
100
AcDbEntity
  8
0
100
AcDbLine
 10
9480.099525142128
 20
-1859.500312121225
 30
0.0
 11
9480.105043935481
 21
-1859.486309497195
 31
0.0
  0
LINE
  5
1BD
330
2
100
AcDbEntity
  8
0
100
AcDbLine
 10
9480.105043935481
 20
-1859.486309497195
 30
0.0
 11
9480.110635071989
 21
-1859.472404263673
 31
0.0
  0
LINE
  5
1BE
330
2
100
AcDbEntity
  8
0
100
AcDbLine
 10
9480.110635071989
 20
-1859.472404263673
 30
0.0
 11
9480.116298296898
 21
-1859.458596064789
 31
0.0
  0
LINE
  5
1BF
330
2
100
AcDbEntity
  8
0
100
AcDbLine
 10
9480.116298296898
 20
-1859.458596064789
 30
0.0
 11
9480.122033355453
 21
-1859.444884544668
 31
0.0
  0
LINE
  5
1C0
330
2
100
AcDbEntity
  8
0
100
AcDbLine
 10
9480.122033355453
 20
-1859.444884544668
 30
0.0
 11
9480.127839992894
 21
-1859.431269347442
 31
0.0
  0
LINE
  5
1C1
330
2
100
AcDbEntity
  8
0
100
AcDbLine
 10
9480.127839992894
 20
-1859.431269347442
 30
0.0
 11
9480.133717954464
 21
-1859.417750117234
 31
0.0
  0
LINE
  5
1C2
330
2
100
AcDbEntity
  8
0
100
AcDbLine
 10
9480.133717954464
 20
-1859.417750117234
 30
0.0
 11
9480.139666985406
 21
-1859.404326498174
 31
0.0
  0
LINE
  5
1C3
330
2
100
AcDbEntity
  8
0
100
AcDbLine
 10
9480.139666985406
 20
-1859.404326498174
 30
0.0
 11
9480.145686830962
 21
-1859.390998134382
 31
0.0
  0
LINE
  5
1C4
330
2
100
AcDbEntity
  8
0
100
AcDbLine
 10
9480.145686830962
 20
-1859.390998134382
 30
0.0
 11
9480.151777236375
 21
-1859.377764669996
 31
0.0
  0
LINE
  5
1C5
330
2
100
AcDbEntity
  8
0
100
AcDbLine
 10
9480.151777236375
 20
-1859.377764669996
 30
0.0
 11
9480.157937946888
 21
-1859.364625749135
 31
0.0
  0
LINE
  5
1C6
330
2
100
AcDbEntity
  8
0
100
AcDbLine
 10
9480.157937946888
 20
-1859.364625749135
 30
0.0
 11
9480.164168707741
 21
-1859.351581015926
 31
0.0
  0
LINE
  5
1C7
330
2
100
AcDbEntity
  8
0
100
AcDbLine
 10
9480.164168707741
 20
-1859.351581015926
 30
0.0
 11
9480.170469264178
 21
-1859.3386301145
 31
0.0
  0
LINE
  5
1C8
330
2
100
AcDbEntity
  8
0
100
AcDbLine
 10
9480.170469264178
 20
-1859.3386301145
 30
0.0
 11
9480.176839361444
 21
-1859.325772688986
 31
0.0
  0
LINE
  5
1C9
330
2
100
AcDbEntity
  8
0
100
AcDbLine
 10
9480.176839361444
 20
-1859.325772688986
 30
0.0
 11
9480.183278744778
 21
-1859.313008383506
 31
0.0
  0
LINE
  5
1CA
330
2
100
AcDbEntity
  8
0
100
AcDbLine
 10
9480.183278744778
 20
-1859.313008383506
 30
0.0
 11
9480.189787159424
 21
-1859.300336842188
 31
0.0
  0
LINE
  5
1CB
330
2
100
AcDbEntity
  8
0
100
AcDbLine
 10
9480.189787159424
 20
-1859.300336842188
 30
0.0
 11
9480.196364350623
 21
-1859.287757709164
 31
0.0
  0
LINE
  5
1CC
330
2
100
AcDbEntity
  8
0
100
AcDbLine
 10
9480.196364350623
 20
-1859.287757709164
 30
0.0
 11
9480.20301006362
 21
-1859.275270628554
 31
0.0
  0
LINE
  5
1CD
330
2
100
AcDbEntity
  8
0
100
AcDbLine
 10
9480.20301006362
 20
-1859.275270628554
 30
0.0
 11
9480.209724043657
 21
-1859.262875244487
 31
0.0
  0
LINE
  5
1CE
330
2
100
AcDbEntity
  8
0
100
AcDbLine
 10
9480.209724043657
 20
-1859.262875244487
 30
0.0
 11
9480.216506035977
 21
-1859.250571201097
 31
0.0
  0
LINE
  5
1CF
330
2
100
AcDbEntity
  8
0
100
AcDbLine
 10
9480.216506035977
 20
-1859.250571201097
 30
0.0
 11
9480.223355785815
 21
-1859.238358142502
 31
0.0
  0
LINE
  5
1D0
330
2
100
AcDbEntity
  8
0
100
AcDbLine
 10
9480.223355785815
 20
-1859.238358142502
 30
0.0
 11
9480.230273038428
 21
-1859.226235712835
 31
0.0
  0
LINE
  5
1D1
330
2
100
AcDbEntity
  8
0
100
AcDbLine
 10
9480.230273038428
 20
-1859.226235712835
 30
0.0
 11
9480.237257539043
 21
-1859.214203556221
 31
0.0
  0
LINE
  5
1D2
330
2
100
AcDbEntity
  8
0
100
AcDbLine
 10
9480.237257539043
 20
-1859.214203556221
 30
0.0
 11
9480.244309032912
 21
-1859.202261316786
 31
0.0
  0
LINE
  5
1D3
330
2
100
AcDbEntity
  8
0
100
AcDbLine
 10
9480.244309032912
 20
-1859.202261316786
 30
0.0
 11
9480.251427265278
 21
-1859.190408638657
 31
0.0
  0
LINE
  5
1D4
330
2
100
AcDbEntity
  8
0
100
AcDbLine
 10
9480.251427265278
 20
-1859.190408638657
 30
0.0
 11
9480.258611981374
 21
-1859.178645165968
 31
0.0
  0
LINE
  5
1D5
330
2
100
AcDbEntity
  8
0
100
AcDbLine
 10
9480.258611981374
 20
-1859.178645165968
 30
0.0
 11
9480.265862926456
 21
-1859.166970542836
 31
0.0
  0
LINE
  5
1D6
330
2
100
AcDbEntity
  8
0
100
AcDbLine
 10
9480.265862926456
 20
-1859.166970542836
 30
0.0
 11
9480.273179845758
 21
-1859.155384413396
 31
0.0
  0
LINE
  5
1D7
330
2
100
AcDbEntity
  8
0
100
AcDbLine
 10
9480.273179845758
 20
-1859.155384413396
 30
0.0
 11
9480.280562484525
 21
-1859.143886421771
 31
0.0
  0
LINE
  5
1D8
330
2
100
AcDbEntity
  8
0
100
AcDbLine
 10
9480.280562484525
 20
-1859.143886421771
 30
0.0
 11
9480.288010587996
 21
-1859.132476212089
 31
0.0
  0
LINE
  5
1D9
330
2
100
AcDbEntity
  8
0
100
AcDbLine
 10
9480.288010587996
 20
-1859.132476212089
 30
0.0
 11
9480.295523901419
 21
-1859.121153428478
 31
0.0
  0
LINE
  5
1DA
330
2
100
AcDbEntity
  8
0
100
AcDbLine
 10
9480.295523901419
 20
-1859.121153428478
 30
0.0
 11
9480.303102170031
 21
-1859.109917715064
 31
0.0
  0
LINE
  5
1DB
330
2
100
AcDbEntity
  8
0
100
AcDbLine
 10
9480.303102170031
 20
-1859.109917715064
 30
0.0
 11
9480.310745139078
 21
-1859.098768715972
 31
0.0
  0
LINE
  5
1DC
330
2
100
AcDbEntity
  8
0
100
AcDbLine
 10
9480.310745139078
 20
-1859.098768715972
 30
0.0
 11
9480.318452553806
 21
-1859.087706075337
 31
0.0
  0
LINE
  5
1DD
330
2
100
AcDbEntity
  8
0
100
AcDbLine
 10
9480.318452553806
 20
-1859.087706075337
 30
0.0
 11
9480.326224159448
 21
-1859.076729437278
 31
0.0
  0
LINE
  5
1DE
330
2
100
AcDbEntity
  8
0
100
AcDbLine
 10
9480.326224159448
 20
-1859.076729437278
 30
0.0
 11
9480.334059701254
 21
-1859.065838445924
 31
0.0
  0
LINE
  5
1DF
330
2
100
AcDbEntity
  8
0
100
AcDbLine
 10
9480.334059701254
 20
-1859.065838445924
 30
0.0
 11
9480.341958924462
 21
-1859.055032745407
 31
0.0
  0
LINE
  5
1E0
330
2
100
AcDbEntity
  8
0
100
AcDbLine
 10
9480.341958924462
 20
-1859.055032745407
 30
0.0
 11
9480.349921574321
 21
-1859.044311979851
 31
0.0
  0
LINE
  5
1E1
330
2
100
AcDbEntity
  8
0
100
AcDbLine
 10
9480.349921574321
 20
-1859.044311979851
 30
0.0
 11
9480.357947396065
 21
-1859.033675793376
 31
0.0
  0
LINE
  5
1E2
330
2
100
AcDbEntity
  8
0
100
AcDbLine
 10
9480.357947396065
 20
-1859.033675793376
 30
0.0
 11
9480.366036134943
 21
-1859.02312383012
 31
0.0
  0
LINE
  5
1E3
330
2
100
AcDbEntity
  8
0
100
AcDbLine
 10
9480.366036134943
 20
-1859.02312383012
 30
0.0
 11
9480.374187536197
 21
-1859.012655734208
 31
0.0
  0
LINE
  5
1E4
330
2
100
AcDbEntity
  8
0
100
AcDbLine
 10
9480.374187536197
 20
-1859.012655734208
 30
0.0
 11
9480.382401345064
 21
-1859.002271149762
 31
0.0
  0
LINE
  5
1E5
330
2
100
AcDbEntity
  8
0
100
AcDbLine
 10
9480.382401345064
 20
-1859.002271149762
 30
0.0
 11
9480.390677306791
 21
-1858.991969720911
 31
0.0
  0
LINE
  5
1E6
330
2
100
AcDbEntity
  8
0
100
AcDbLine
 10
9480.390677306791
 20
-1858.991969720911
 30
0.0
 11
9480.39901516662
 21
-1858.981751091786
 31
0.0
  0
LINE
  5
1E7
330
2
100
AcDbEntity
  8
0
100
AcDbLine
 10
9480.39901516662
 20
-1858.981751091786
 30
0.0
 11
9480.407414669793
 21
-1858.97161490651
 31
0.0
  0
LINE
  5
1E8
330
2
100
AcDbEntity
  8
0
100
AcDbLine
 10
9480.407414669793
 20
-1858.97161490651
 30
0.0
 11
9480.415875561552
 21
-1858.961560809213
 31
0.0
  0
LINE
  5
1E9
330
2
100
AcDbEntity
  8
0
100
AcDbLine
 10
9480.415875561552
 20
-1858.961560809213
 30
0.0
 11
9480.424397587142
 21
-1858.951588444019
 31
0.0
  0
LINE
  5
1EA
330
2
100
AcDbEntity
  8
0
100
AcDbLine
 10
9480.424397587142
 20
-1858.951588444019
 30
0.0
 11
9480.432980491803
 21
-1858.941697455055
 31
0.0
  0
LINE
  5
1EB
330
2
100
AcDbEntity
  8
0
100
AcDbLine
 10
9480.432980491803
 20
-1858.941697455055
 30
0.0
 11
9480.441624020782
 21
-1858.931887486455
 31
0.0
  0
LINE
  5
1EC
330
2
100
AcDbEntity
  8
0
100
AcDbLine
 10
9480.441624020782
 20
-1858.931887486455
 30
0.0
 11
9480.450327919312
 21
-1858.922158182337
 31
0.0
  0
LINE
  5
1ED
330
2
100
AcDbEntity
  8
0
100
AcDbLine
 10
9480.450327919312
 20
-1858.922158182337
 30
0.0
 11
9480.459091932644
 21
-1858.912509186833
 31
0.0
  0
LINE
  5
1EE
330
2
100
AcDbEntity
  8
0
100
AcDbLine
 10
9480.459091932644
 20
-1858.912509186833
 30
0.0
 11
9480.467915806022
 21
-1858.902940144071
 31
0.0
  0
LINE
  5
1EF
330
2
100
AcDbEntity
  8
0
100
AcDbLine
 10
9480.467915806022
 20
-1858.902940144071
 30
0.0
 11
9480.476799284678
 21
-1858.893450698178
 31
0.0
  0
LINE
  5
1F0
330
2
100
AcDbEntity
  8
0
100
AcDbLine
 10
9480.476799284678
 20
-1858.893450698178
 30
0.0
 11
9480.485742113861
 21
-1858.884040493278
 31
0.0
  0
LINE
  5
1F1
330
2
100
AcDbEntity
  8
0
100
AcDbLine
 10
9480.485742113861
 20
-1858.884040493278
 30
0.0
 11
9480.494744038812
 21
-1858.874709173498
 31
0.0
  0
LINE
  5
1F2
330
2
100
AcDbEntity
  8
0
100
AcDbLine
 10
9480.494744038812
 20
-1858.874709173498
 30
0.0
 11
9480.503804804781
 21
-1858.865456382969
 31
0.0
  0
LINE
  5
1F3
330
2
100
AcDbEntity
  8
0
100
AcDbLine
 10
9480.503804804781
 20
-1858.865456382969
 30
0.0
 11
9480.512924157
 21
-1858.856281765817
 31
0.0
  0
LINE
  5
1F4
330
2
100
AcDbEntity
  8
0
100
AcDbLine
 10
9480.512924157
 20
-1858.856281765817
 30
0.0
 11
9480.522101840717
 21
-1858.847184966169
 31
0.0
  0
LINE
  5
1F5
330
2
100
AcDbEntity
  8
0
100
AcDbLine
 10
9480.522101840717
 20
-1858.847184966169
 30
0.0
 11
9480.531337601172
 21
-1858.838165628149
 31
0.0
  0
LINE
  5
1F6
330
2
100
AcDbEntity
  8
0
100
AcDbLine
 10
9480.531337601172
 20
-1858.838165628149
 30
0.0
 11
9480.540631183609
 21
-1858.829223395886
 31
0.0
  0
LINE
  5
1F7
330
2
100
AcDbEntity
  8
0
100
AcDbLine
 10
9480.540631183609
 20
-1858.829223395886
 30
0.0
 11
9480.54998233327
 21
-1858.820357913511
 31
0.0
  0
LINE
  5
1F8
330
2
100
AcDbEntity
  8
0
100
AcDbLine
 10
9480.54998233327
 20
-1858.820357913511
 30
0.0
 11
9480.5593907954
 21
-1858.811568825145
 31
0.0
  0
LINE
  5
1F9
330
2
100
AcDbEntity
  8
0
100
AcDbLine
 10
9480.5593907954
 20
-1858.811568825145
 30
0.0
 11
9480.568856315235
 21
-1858.80285577492
 31
0.0
  0
LINE
  5
1FA
330
2
100
AcDbEntity
  8
0
100
AcDbLine
 10
9480.568856315235
 20
-1858.80285577492
 30
0.0
 11
9480.578378638028
 21
-1858.794218406961
 31
0.0
  0
LINE
  5
1FB
330
2
100
AcDbEntity
  8
0
100
AcDbLine
 10
9480.578378638028
 20
-1858.794218406961
 30
0.0
 11
9480.587957509007
 21
-1858.785656365395
 31
0.0
  0
LINE
  5
1FC
330
2
100
AcDbEntity
  8
0
100
AcDbLine
 10
9480.587957509007
 20
-1858.785656365395
 30
0.0
 11
9480.597592673431
 21
-1858.77716929435
 31
0.0
  0
LINE
  5
1FD
330
2
100
AcDbEntity
  8
0
100
AcDbLine
 10
9480.597592673431
 20
-1858.77716929435
 30
0.0
 11
9480.60728387653
 21
-1858.768756837951
 31
0.0
  0
LINE
  5
1FE
330
2
100
AcDbEntity
  8
0
100
AcDbLine
 10
9480.60728387653
 20
-1858.768756837951
 30
0.0
 11
9480.617030863552
 21
-1858.760418640326
 31
0.0
  0
LINE
  5
1FF
330
2
100
AcDbEntity
  8
0
100
AcDbLine
 10
9480.617030863552
 20
-1858.760418640326
 30
0.0
 11
9480.626833379735
 21
-1858.752154345609
 31
0.0
  0
LINE
  5
200
330
2
100
AcDbEntity
  8
0
100
AcDbLine
 10
9480.626833379735
 20
-1858.752154345609
 30
0.0
 11
9480.63669117033
 21
-1858.743963597917
 31
0.0
  0
LINE
  5
201
330
2
100
AcDbEntity
  8
0
100
AcDbLine
 10
9480.63669117033
 20
-1858.743963597917
 30
0.0
 11
9480.646603980572
 21
-1858.735846041382
 31
0.0
  0
LINE
  5
202
330
2
100
AcDbEntity
  8
0
100
AcDbLine
 10
9480.646603980572
 20
-1858.735846041382
 30
0.0
 11
9480.656571555703
 21
-1858.727801320128
 31
0.0
  0
LINE
  5
203
330
2
100
AcDbEntity
  8
0
100
AcDbLine
 10
9480.656571555703
 20
-1858.727801320128
 30
0.0
 11
9480.666593640972
 21
-1858.719829078284
 31
0.0
  0
LINE
  5
204
330
2
100
AcDbEntity
  8
0
100
AcDbLine
 10
9480.666593640972
 20
-1858.719829078284
 30
0.0
 11
9480.676669981617
 21
-1858.711928959979
 31
0.0
  0
LINE
  5
205
330
2
100
AcDbEntity
  8
0
100
AcDbLine
 10
9480.676669981617
 20
-1858.711928959979
 30
0.0
 11
9480.686800322883
 21
-1858.704100609342
 31
0.0
  0
LINE
  5
206
330
2
100
AcDbEntity
  8
0
100
AcDbLine
 10
9480.686800322883
 20
-1858.704100609342
 30
0.0
 11
9480.696984410007
 21
-1858.696343670494
 31
0.0
  0
LINE
  5
207
330
2
100
AcDbEntity
  8
0
100
AcDbLine
 10
9480.696984410007
 20
-1858.696343670494
 30
0.0
 11
9480.707221988236
 21
-1858.688657787567
 31
0.0
  0
LINE
  5
208
330
2
100
AcDbEntity
  8
0
100
AcDbLine
 10
9480.707221988236
 20
-1858.688657787567
 30
0.0
 11
9480.717512802812
 21
-1858.681042604686
 31
0.0
  0
LINE
  5
209
330
2
100
AcDbEntity
  8
0
100
AcDbLine
 10
9480.717512802812
 20
-1858.681042604686
 30
0.0
 11
9480.72785659898
 21
-1858.673497765976
 31
0.0
  0
LINE
  5
20A
330
2
100
AcDbEntity
  8
0
100
AcDbLine
 10
9480.72785659898
 20
-1858.673497765976
 30
0.0
 11
9480.738253121975
 21
-1858.666022915568
 31
0.0
  0
LINE
  5
20B
330
2
100
AcDbEntity
  8
0
100
AcDbLine
 10
9480.738253121975
 20
-1858.666022915568
 30
0.0
 11
9480.748702117049
 21
-1858.658617697587
 31
0.0
  0
LINE
  5
20C
330
2
100
AcDbEntity
  8
0
100
AcDbLine
 10
9480.748702117049
 20
-1858.658617697587
 30
0.0
 11
9480.759203329437
 21
-1858.651281756159
 31
0.0
  0
LINE
  5
20D
330
2
100
AcDbEntity
  8
0
100
AcDbLine
 10
9480.759203329437
 20
-1858.651281756159
 30
0.0
 11
9480.769756504384
 21
-1858.644014735419
 31
0.0
  0
LINE
  5
20E
330
2
100
AcDbEntity
  8
0
100
AcDbLine
 10
9480.769756504384
 20
-1858.644014735419
 30
0.0
 11
9480.780361387134
 21
-1858.636816279482
 31
0.0
  0
LINE
  5
20F
330
2
100
AcDbEntity
  8
0
100
AcDbLine
 10
9480.780361387134
 20
-1858.636816279482
 30
0.0
 11
9480.79101772293
 21
-1858.629686032487
 31
0.0
  0
LINE
  5
210
330
2
100
AcDbEntity
  8
0
100
AcDbLine
 10
9480.79101772293
 20
-1858.629686032487
 30
0.0
 11
9480.801725257007
 21
-1858.622623638552
 31
0.0
  0
LINE
  5
211
330
2
100
AcDbEntity
  8
0
100
AcDbLine
 10
9480.801725257007
 20
-1858.622623638552
 30
0.0
 11
9480.81248373462
 21
-1858.615628741805
 31
0.0
  0
LINE
  5
212
330
2
100
AcDbEntity
  8
0
100
AcDbLine
 10
9480.81248373462
 20
-1858.615628741805
 30
0.0
 11
9480.823292901003
 21
-1858.608700986384
 31
0.0
  0
LINE
  5
213
330
2
100
AcDbEntity
  8
0
100
AcDbLine
 10
9480.823292901003
 20
-1858.608700986384
 30
0.0
 11
9480.834152501399
 21
-1858.601840016403
 31
0.0
  0
LINE
  5
214
330
2
100
AcDbEntity
  8
0
100
AcDbLine
 10
9480.834152501399
 20
-1858.601840016403
 30
0.0
 11
9480.845062281053
 21
-1858.595045475991
 31
0.0
  0
LINE
  5
215
330
2
100
AcDbEntity
  8
0
100
AcDbLine
 10
9480.845062281053
 20
-1858.595045475991
 30
0.0
 11
9480.856021985202
 21
-1858.588317009282
 31
0.0
  0
LINE
  5
216
330
2
100
AcDbEntity
  8
0
100
AcDbLine
 10
9480.856021985202
 20
-1858.588317009282
 30
0.0
 11
9480.867031359098
 21
-1858.581654260397
 31
0.0
  0
LINE
  5
217
330
2
100
AcDbEntity
  8
0
100
AcDbLine
 10
9480.867031359098
 20
-1858.581654260397
 30
0.0
 11
9480.878090147976
 21
-1858.575056873466
 31
0.0
  0
LINE
  5
218
330
2
100
AcDbEntity
  8
0
100
AcDbLine
 10
9480.878090147976
 20
-1858.575056873466
 30
0.0
 11
9480.889198097079
 21
-1858.568524492617
 31
0.0
  0
LINE
  5
219
330
2
100
AcDbEntity
  8
0
100
AcDbLine
 10
9480.889198097079
 20
-1858.568524492617
 30
0.0
 11
9480.900354951655
 21
-1858.562056761977
 31
0.0
  0
LINE
  5
21A
330
2
100
AcDbEntity
  8
0
100
AcDbLine
 10
9480.900354951655
 20
-1858.562056761977
 30
0.0
 11
9480.911560456942
 21
-1858.555653325668
 31
0.0
  0
LINE
  5
21B
330
2
100
AcDbEntity
  8
0
100
AcDbLine
 10
9480.911560456942
 20
-1858.555653325668
 30
0.0
 11
9480.92281435818
 21
-1858.549313827825
 31
0.0
  0
LINE
  5
21C
330
2
100
AcDbEntity
  8
0
100
AcDbLine
 10
9480.92281435818
 20
-1858.549313827825
 30
0.0
 11
9480.934116400618
 21
-1858.543037912568
 31
0.0
  0
LINE
  5
21D
330
2
100
AcDbEntity
  8
0
100
AcDbLine
 10
9480.934116400618
 20
-1858.543037912568
 30
0.0
 11
9480.945466329492
 21
-1858.53682522403
 31
0.0
  0
LINE
  5
21E
330
2
100
AcDbEntity
  8
0
100
AcDbLine
 10
9480.945466329492
 20
-1858.53682522403
 30
0.0
 11
9480.956863890053
 21
-1858.530675406335
 31
0.0
  0
LINE
  5
21F
330
2
100
AcDbEntity
  8
0
100
AcDbLine
 10
9480.956863890053
 20
-1858.530675406335
 30
0.0
 11
9480.968308827534
 21
-1858.52458810361
 31
0.0
  0
LINE
  5
220
330
2
100
AcDbEntity
  8
0
100
AcDbLine
 10
9480.968308827534
 20
-1858.52458810361
 30
0.0
 11
9480.979800887183
 21
-1858.51856295998
 31
0.0
  0
LINE
  5
221
330
2
100
AcDbEntity
  8
0
100
AcDbLine
 10
9480.979800887183
 20
-1858.51856295998
 30
0.0
 11
9480.991339814245
 21
-1858.512599619578
 31
0.0
  0
LINE
  5
222
330
2
100
AcDbEntity
  8
0
100
AcDbLine
 10
9480.991339814245
 20
-1858.512599619578
 30
0.0
 11
9481.002925353951
 21
-1858.506697726527
 31
0.0
  0
LINE
  5
223
330
2
100
AcDbEntity
  8
0
100
AcDbLine
 10
9481.002925353951
 20
-1858.506697726527
 30
0.0
 11
9481.014557251558
 21
-1858.500856924955
 31
0.0
  0
LINE
  5
224
330
2
100
AcDbEntity
  8
0
100
AcDbLine
 10
9481.014557251558
 20
-1858.500856924955
 30
0.0
 11
9481.026235252301
 21
-1858.495076858991
 31
0.0
  0
LINE
  5
225
330
2
100
AcDbEntity
  8
0
100
AcDbLine
 10
9481.026235252301
 20
-1858.495076858991
 30
0.0
 11
9481.037959101419
 21
-1858.489357172759
 31
0.0
  0
LINE
  5
226
330
2
100
AcDbEntity
  8
0
100
AcDbLine
 10
9481.037959101419
 20
-1858.489357172759
 30
0.0
 11
9481.049728544164
 21
-1858.48369751039
 31
0.0
  0
LINE
  5
227
330
2
100
AcDbEntity
  8
0
100
AcDbLine
 10
9481.049728544164
 20
-1858.48369751039
 30
0.0
 11
9481.06154332577
 21
-1858.478097516005
 31
0.0
  0
LINE
  5
228
330
2
100
AcDbEntity
  8
0
100
AcDbLine
 10
9481.06154332577
 20
-1858.478097516005
 30
0.0
 11
9481.073403191484
 21
-1858.472556833738
 31
0.0
  0
LINE
  5
229
330
2
100
AcDbEntity
  8
0
100
AcDbLine
 10
9481.073403191484
 20
-1858.472556833738
 30
0.0
 11
9481.085307886546
 21
-1858.467075107714
 31
0.0
  0
LINE
  5
22A
330
2
100
AcDbEntity
  8
0
100
AcDbLine
 10
9481.085307886546
 20
-1858.467075107714
 30
0.0
 11
9481.0972571562
 21
-1858.461651982056
 31
0.0
  0
LINE
  5
22B
330
2
100
AcDbEntity
  8
0
100
AcDbLine
 10
9481.0972571562
 20
-1858.461651982056
 30
0.0
 11
9481.109250745689
 21
-1858.456287100896
 31
0.0
  0
LINE
  5
22C
330
2
100
AcDbEntity
  8
0
100
AcDbLine
 10
9481.109250745689
 20
-1858.456287100896
 30
0.0
 11
9481.121288400254
 21
-1858.450980108362
 31
0.0
  0
LINE
  5
22D
330
2
100
AcDbEntity
  8
0
100
AcDbLine
 10
9481.121288400254
 20
-1858.450980108362
 30
0.0
 11
9481.133369865139
 21
-1858.445730648574
 31
0.0
  0
LINE
  5
22E
330
2
100
AcDbEntity
  8
0
100
AcDbLine
 10
9481.133369865139
 20
-1858.445730648574
 30
0.0
 11
9481.145494885586
 21
-1858.440538365667
 31
0.0
  0
LINE
  5
22F
330
2
100
AcDbEntity
  8
0
100
AcDbLine
 10
9481.145494885586
 20
-1858.440538365667
 30
0.0
 11
9481.15766320684
 21
-1858.435402903764
 31
0.0
  0
LINE
  5
230
330
2
100
AcDbEntity
  8
0
100
AcDbLine
 10
9481.15766320684
 20
-1858.435402903764
 30
0.0
 11
9481.169874574137
 21
-1858.430323906992
 31
0.0
  0
LINE
  5
231
330
2
100
AcDbEntity
  8
0
100
AcDbLine
 10
9481.169874574137
 20
-1858.430323906992
 30
0.0
 11
9481.182128732722
 21
-1858.425301019481
 31
0.0
  0
LINE
  5
232
330
2
100
AcDbEntity
  8
0
100
AcDbLine
 10
9481.182128732722
 20
-1858.425301019481
 30
0.0
 11
9481.194425427842
 21
-1858.420333885355
 31
0.0
  0
LINE
  5
233
330
2
100
AcDbEntity
  8
0
100
AcDbLine
 10
9481.194425427842
 20
-1858.420333885355
 30
0.0
 11
9481.206764404737
 21
-1858.415422148744
 31
0.0
  0
LINE
  5
234
330
2
100
AcDbEntity
  8
0
100
AcDbLine
 10
9481.206764404737
 20
-1858.415422148744
 30
0.0
 11
9481.219145408646
 21
-1858.410565453774
 31
0.0
  0
LINE
  5
235
330
2
100
AcDbEntity
  8
0
100
AcDbLine
 10
9481.219145408646
 20
-1858.410565453774
 30
0.0
 11
9481.231568184815
 21
-1858.405763444571
 31
0.0
  0
LINE
  5
236
330
2
100
AcDbEntity
  8
0
100
AcDbLine
 10
9481.231568184815
 20
-1858.405763444571
 30
0.0
 11
9481.244032478484
 21
-1858.401015765263
 31
0.0
  0
LINE
  5
237
330
2
100
AcDbEntity
  8
0
100
AcDbLine
 10
9481.244032478484
 20
-1858.401015765263
 30
0.0
 11
9481.256538034903
 21
-1858.396322059976
 31
0.0
  0
LINE
  5
238
330
2
100
AcDbEntity
  8
0
100
AcDbLine
 10
9481.256538034903
 20
-1858.396322059976
 30
0.0
 11
9481.269084599304
 21
-1858.39168197284
 31
0.0
  0
LINE
  5
239
330
2
100
AcDbEntity
  8
0
100
AcDbLine
 10
9481.269084599304
 20
-1858.39168197284
 30
0.0
 11
9481.281671916937
 21
-1858.387095147984
 31
0.0
  0
LINE
  5
23A
330
2
100
AcDbEntity
  8
0
100
AcDbLine
 10
9481.281671916937
 20
-1858.387095147984
 30
0.0
 11
9481.294299733042
 21
-1858.382561229526
 31
0.0
  0
LINE
  5
23B
330
2
100
AcDbEntity
  8
0
100
AcDbLine
 10
9481.294299733042
 20
-1858.382561229526
 30
0.0
 11
9481.306967792857
 21
-1858.378079861599
 31
0.0
  0
LINE
  5
23C
330
2
100
AcDbEntity
  8
0
100
AcDbLine
 10
9481.306967792857
 20
-1858.378079861599
 30
0.0
 11
9481.31967584163
 21
-1858.373650688332
 31
0.0
  0
LINE
  5
23D
330
2
100
AcDbEntity
  8
0
100
AcDbLine
 10
9481.31967584163
 20
-1858.373650688332
 30
0.0
 11
9481.332423624605
 21
-1858.369273353848
 31
0.0
  0
LINE
  5
23E
330
2
100
AcDbEntity
  8
0
100
AcDbLine
 10
9481.332423624605
 20
-1858.369273353848
 30
0.0
 11
9481.34521088702
 21
-1858.364947502275
 31
0.0
  0
LINE
  5
23F
330
2
100
AcDbEntity
  8
0
100
AcDbLine
 10
9481.34521088702
 20
-1858.364947502275
 30
0.0
 11
9481.358037374119
 21
-1858.360672777748
 31
0.0
  0
LINE
  5
240
330
2
100
AcDbEntity
  8
0
100
AcDbLine
 10
9481.358037374119
 20
-1858.360672777748
 30
0.0
 11
9481.370902831146
 21
-1858.356448824383
 31
0.0
  0
LINE
  5
241
330
2
100
AcDbEntity
  8
0
100
AcDbLine
 10
9481.370902831146
 20
-1858.356448824383
 30
0.0
 11
9481.383807003339
 21
-1858.352275286313
 31
0.0
  0
LINE
  5
242
330
2
100
AcDbEntity
  8
0
100
AcDbLine
 10
9481.383807003339
 20
-1858.352275286313
 30
0.0
 11
9481.396749635953
 21
-1858.348151807659
 31
0.0
  0
LINE
  5
243
330
2
100
AcDbEntity
  8
0
100
AcDbLine
 10
9481.396749635953
 20
-1858.348151807659
 30
0.0
 11
9481.409730474211
 21
-1858.344078032558
 31
0.0
  0
LINE
  5
244
330
2
100
AcDbEntity
  8
0
100
AcDbLine
 10
9481.409730474211
 20
-1858.344078032558
 30
0.0
 11
9481.422749263371
 21
-1858.340053605134
 31
0.0
  0
LINE
  5
245
330
2
100
AcDbEntity
  8
0
100
AcDbLine
 10
9481.422749263371
 20
-1858.340053605134
 30
0.0
 11
9481.435805748672
 21
-1858.336078169508
 31
0.0
  0
LINE
  5
246
330
2
100
AcDbEntity
  8
0
100
AcDbLine
 10
9481.435805748672
 20
-1858.336078169508
 30
0.0
 11
9481.448899675347
 21
-1858.33215136981
 31
0.0
  0
LINE
  5
247
330
2
100
AcDbEntity
  8
0
100
AcDbLine
 10
9481.448899675347
 20
-1858.33215136981
 30
0.0
 11
9481.462030788653
 21
-1858.328272850172
 31
0.0
  0
LINE
  5
248
330
2
100
AcDbEntity
  8
0
100
AcDbLine
 10
9481.462030788653
 20
-1858.328272850172
 30
0.0
 11
9481.475198833825
 21
-1858.324442254714
 31
0.0
  0
LINE
  5
249
330
2
100
AcDbEntity
  8
0
100
AcDbLine
 10
9481.475198833825
 20
-1858.324442254714
 30
0.0
 11
9481.488403556102
 21
-1858.320659227571
 31
0.0
  0
LINE
  5
24A
330
2
100
AcDbEntity
  8
0
100
AcDbLine
 10
9481.488403556102
 20
-1858.320659227571
 30
0.0
 11
9481.501644700736
 21
-1858.316923412865
 31
0.0
  0
LINE
  5
24B
330
2
100
AcDbEntity
  8
0
100
AcDbLine
 10
9481.501644700736
 20
-1858.316923412865
 30
0.0
 11
9481.514922012964
 21
-1858.313234454723
 31
0.0
  0
LINE
  5
24C
330
2
100
AcDbEntity
  8
0
100
AcDbLine
 10
9481.514922012964
 20
-1858.313234454723
 30
0.0
 11
9481.528235238029
 21
-1858.309591997273
 31
0.0
  0
LINE
  5
24D
330
2
100
AcDbEntity
  8
0
100
AcDbLine
 10
9481.528235238029
 20
-1858.309591997273
 30
0.0
 11
9481.541584121169
 21
-1858.305995684641
 31
0.0
  0
LINE
  5
24E
330
2
100
AcDbEntity
  8
0
100
AcDbLine
 10
9481.541584121169
 20
-1858.305995684641
 30
0.0
 11
9481.554968407634
 21
-1858.30244516096
 31
0.0
  0
LINE
  5
24F
330
2
100
AcDbEntity
  8
0
100
AcDbLine
 10
9481.554968407634
 20
-1858.30244516096
 30
0.0
 11
9481.568387842663
 21
-1858.298940070351
 31
0.0
  0
LINE
  5
250
330
2
100
AcDbEntity
  8
0
100
AcDbLine
 10
9481.568387842663
 20
-1858.298940070351
 30
0.0
 11
9481.581842171499
 21
-1858.295480056942
 31
0.0
  0
LINE
  5
251
330
2
100
AcDbEntity
  8
0
100
AcDbLine
 10
9481.581842171499
 20
-1858.295480056942
 30
0.0
 11
9481.595331139384
 21
-1858.292064764857
 31
0.0
  0
LINE
  5
252
330
2
100
AcDbEntity
  8
0
100
AcDbLine
 10
9481.595331139384
 20
-1858.292064764857
 30
0.0
 11
9481.608854491559
 21
-1858.288693838236
 31
0.0
  0
LINE
  5
253
330
2
100
AcDbEntity
  8
0
100
AcDbLine
 10
9481.608854491559
 20
-1858.288693838236
 30
0.0
 11
9481.622411973273
 21
-1858.285366921191
 31
0.0
  0
LINE
  5
254
330
2
100
AcDbEntity
  8
0
100
AcDbLine
 10
9481.622411973273
 20
-1858.285366921191
 30
0.0
 11
9481.636003329759
 21
-1858.282083657854
 31
0.0
  0
LINE
  5
255
330
2
100
AcDbEntity
  8
0
100
AcDbLine
 10
9481.636003329759
 20
-1858.282083657854
 30
0.0
 11
9481.649628306266
 21
-1858.278843692358
 31
0.0
  0
LINE
  5
256
330
2
100
AcDbEntity
  8
0
100
AcDbLine
 10
9481.649628306266
 20
-1858.278843692358
 30
0.0
 11
9481.663286648036
 21
-1858.275646668822
 31
0.0
  0
LINE
  5
257
330
2
100
AcDbEntity
  8
0
100
AcDbLine
 10
9481.663286648036
 20
-1858.275646668822
 30
0.0
 11
9481.67697810031
 21
-1858.272492231379
 31
0.0
  0
LINE
  5
258
330
2
100
AcDbEntity
  8
0
100
AcDbLine
 10
9481.67697810031
 20
-1858.272492231379
 30
0.0
 11
9481.690702408332
 21
-1858.269380024154
 31
0.0
  0
LINE
  5
259
330
2
100
AcDbEntity
  8
0
100
AcDbLine
 10
9481.690702408332
 20
-1858.269380024154
 30
0.0
 11
9481.70445931734
 21
-1858.266309691276
 31
0.0
  0
LINE
  5
25A
330
2
100
AcDbEntity
  8
0
100
AcDbLine
 10
9481.70445931734
 20
-1858.266309691276
 30
0.0
 11
9481.718248572581
 21
-1858.263280876868
 31
0.0
  0
LINE
  5
25B
330
2
100
AcDbEntity
  8
0
100
AcDbLine
 10
9481.718248572581
 20
-1858.263280876868
 30
0.0
 11
9481.732069919294
 21
-1858.260293225059
 31
0.0
  0
LINE
  5
25C
330
2
100
AcDbEntity
  8
0
100
AcDbLine
 10
9481.732069919294
 20
-1858.260293225059
 30
0.0
 11
9481.745923102728
 21
-1858.257346379978
 31
0.0
  0
LINE
  5
25D
330
2
100
AcDbEntity
  8
0
100
AcDbLine
 10
9481.745923102728
 20
-1858.257346379978
 30
0.0
 11
9481.759807868121
 21
-1858.254439985751
 31
0.0
  0
LINE
  5
25E
330
2
100
AcDbEntity
  8
0
100
AcDbLine
 10
9481.759807868121
 20
-1858.254439985751
 30
0.0
 11
9481.773723960714
 21
-1858.251573686503
 31
0.0
  0
LINE
  5
25F
330
2
100
AcDbEntity
  8
0
100
AcDbLine
 10
9481.773723960714
 20
-1858.251573686503
 30
0.0
 11
9481.787671125752
 21
-1858.248747126367
 31
0.0
  0
LINE
  5
260
330
2
100
AcDbEntity
  8
0
100
AcDbLine
 10
9481.787671125752
 20
-1858.248747126367
 30
0.0
 11
9481.801649108476
 21
-1858.245959949461
 31
0.0
  0
LINE
  5
261
330
2
100
AcDbEntity
  8
0
100
AcDbLine
 10
9481.801649108476
 20
-1858.245959949461
 30
0.0
 11
9481.815657654129
 21
-1858.243211799919
 31
0.0
  0
LINE
  5
262
330
2
100
AcDbEntity
  8
0
100
AcDbLine
 10
9481.815657654129
 20
-1858.243211799919
 30
0.0
 11
9481.829696507956
 21
-1858.240502321867
 31
0.0
  0
LINE
  5
263
330
2
100
AcDbEntity
  8
0
100
AcDbLine
 10
9481.829696507956
 20
-1858.240502321867
 30
0.0
 11
9481.843765415197
 21
-1858.237831159429
 31
0.0
  0
LINE
  5
264
330
2
100
AcDbEntity
  8
0
100
AcDbLine
 10
9481.843765415197
 20
-1858.237831159429
 30
0.0
 11
9481.857864121094
 21
-1858.235197956739
 31
0.0
  0
LINE
  5
265
330
2
100
AcDbEntity
  8
0
100
AcDbLine
 10
9481.857864121094
 20
-1858.235197956739
 30
0.0
 11
9481.871992370892
 21
-1858.232602357919
 31
0.0
  0
LINE
  5
266
330
2
100
AcDbEntity
  8
0
100
AcDbLine
 10
9481.871992370892
 20
-1858.232602357919
 30
0.0
 11
9481.886149909827
 21
-1858.230044007098
 31
0.0
  0
LINE
  5
267
330
2
100
AcDbEntity
  8
0
100
AcDbLine
 10
9481.886149909827
 20
-1858.230044007098
 30
0.0
 11
9481.900336483152
 21
-1858.227522548397
 31
0.0
  0
LINE
  5
268
330
2
100
AcDbEntity
  8
0
100
AcDbLine
 10
9481.900336483152
 20
-1858.227522548397
 30
0.0
 11
9481.9145518361
 21
-1858.225037625954
 31
0.0
  0
LINE
  5
269
330
2
100
AcDbEntity
  8
0
100
AcDbLine
 10
9481.9145518361
 20
-1858.225037625954
 30
0.0
 11
9481.928795713921
 21
-1858.222588883887
 31
0.0
  0
LINE
  5
26A
330
2
100
AcDbEntity
  8
0
100
AcDbLine
 10
9481.928795713921
 20
-1858.222588883887
 30
0.0
 11
9481.94306786185
 21
-1858.220175966329
 31
0.0
  0
LINE
  5
26B
330
2
100
AcDbEntity
  8
0
100
AcDbLine
 10
9481.94306786185
 20
-1858.220175966329
 30
0.0
 11
9481.957368025133
 21
-1858.217798517402
 31
0.0
  0
LINE
  5
26C
330
2
100
AcDbEntity
  8
0
100
AcDbLine
 10
9481.957368025133
 20
-1858.217798517402
 30
0.0
 11
9481.971695949017
 21
-1858.215456181238
 31
0.0
  0
LINE
  5
26D
330
2
100
AcDbEntity
  8
0
100
AcDbLine
 10
9481.971695949017
 20
-1858.215456181238
 30
0.0
 11
9481.986051378738
 21
-1858.213148601964
 31
0.0
  0
LINE
  5
26E
330
2
100
AcDbEntity
  8
0
100
AcDbLine
 10
9481.986051378738
 20
-1858.213148601964
 30
0.0
 11
9482.000434059541
 21
-1858.210875423701
 31
0.0
  0
LINE
  5
26F
330
2
100
AcDbEntity
  8
0
100
AcDbLine
 10
9482.000434059541
 20
-1858.210875423701
 30
0.0
 11
9482.014843736669
 21
-1858.208636290583
 31
0.0
  0
LINE
  5
270
330
2
100
AcDbEntity
  8
0
100
AcDbLine
 10
9482.014843736669
 20
-1858.208636290583
 30
0.0
 11
9482.029280155362
 21
-1858.20643084673
 31
0.0
  0
LINE
  5
271
330
2
100
AcDbEntity
  8
0
100
AcDbLine
 10
9482.029280155362
 20
-1858.20643084673
 30
0.0
 11
9482.043743060863
 21
-1858.204258736281
 31
0.0
  0
LINE
  5
272
330
2
100
AcDbEntity
  8
0
100
AcDbLine
 10
9482.043743060863
 20
-1858.204258736281
 30
0.0
 11
9482.05823219842
 21
-1858.202119603353
 31
0.0
  0
LINE
  5
273
330
2
100
AcDbEntity
  8
0
100
AcDbLine
 10
9482.05823219842
 20
-1858.202119603353
 30
0.0
 11
9482.072747313273
 21
-1858.200013092071
 31
0.0
  0
LINE
  5
274
330
2
100
AcDbEntity
  8
0
100
AcDbLine
 10
9482.072747313273
 20
-1858.200013092071
 30
0.0
 11
9482.087288150655
 21
-1858.197938846573
 31
0.0
  0
LINE
  5
275
330
2
100
AcDbEntity
  8
0
100
AcDbLine
 10
9482.087288150655
 20
-1858.197938846573
 30
0.0
 11
9482.101854455825
 21
-1858.19589651098
 31
0.0
  0
LINE
  5
276
330
2
100
AcDbEntity
  8
0
100
AcDbLine
 10
9482.101854455825
 20
-1858.19589651098
 30
0.0
 11
9482.116445974012
 21
-1858.193885729415
 31
0.0
  0
LINE
  5
277
330
2
100
AcDbEntity
  8
0
100
AcDbLine
 10
9482.116445974012
 20
-1858.193885729415
 30
0.0
 11
9482.131062450461
 21
-1858.191906146014
 31
0.0
  0
LINE
  5
278
330
2
100
AcDbEntity
  8
0
100
AcDbLine
 10
9482.131062450461
 20
-1858.191906146014
 30
0.0
 11
9482.14570363042
 21
-1858.189957404902
 31
0.0
  0
LINE
  5
279
330
2
100
AcDbEntity
  8
0
100
AcDbLine
 10
9482.14570363042
 20
-1858.189957404902
 30
0.0
 11
9482.16036925913
 21
-1858.188039150198
 31
0.0
  0
LINE
  5
27A
330
2
100
AcDbEntity
  8
0
100
AcDbLine
 10
9482.16036925913
 20
-1858.188039150198
 30
0.0
 11
9482.175059081829
 21
-1858.186151026035
 31
0.0
  0
LINE
  5
27B
330
2
100
AcDbEntity
  8
0
100
AcDbLine
 10
9482.175059081829
 20
-1858.186151026035
 30
0.0
 11
9482.189772843764
 21
-1858.184292676545
 31
0.0
  0
LINE
  5
27C
330
2
100
AcDbEntity
  8
0
100
AcDbLine
 10
9482.189772843764
 20
-1858.184292676545
 30
0.0
 11
9482.204510290172
 21
-1858.182463745848
 31
0.0
  0
LINE
  5
27D
330
2
100
AcDbEntity
  8
0
100
AcDbLine
 10
9482.204510290172
 20
-1858.182463745848
 30
0.0
 11
9482.219271166306
 21
-1858.180663878069
 31
0.0
  0
LINE
  5
27E
330
2
100
AcDbEntity
  8
0
100
AcDbLine
 10
9482.219271166306
 20
-1858.180663878069
 30
0.0
 11
9482.234055217395
 21
-1858.178892717347
 31
0.0
  0
LINE
  5
27F
330
2
100
AcDbEntity
  8
0
100
AcDbLine
 10
9482.234055217395
 20
-1858.178892717347
 30
0.0
 11
9482.248862188697
 21
-1858.177149907795
 31
0.0
  0
LINE
  5
280
330
2
100
AcDbEntity
  8
0
100
AcDbLine
 10
9482.248862188697
 20
-1858.177149907795
 30
0.0
 11
9482.263691825435
 21
-1858.175435093551
 31
0.0
  0
LINE
  5
281
330
2
100
AcDbEntity
  8
0
100
AcDbLine
 10
9482.263691825435
 20
-1858.175435093551
 30
0.0
 11
9482.278543872871
 21
-1858.173747918736
 31
0.0
  0
LINE
  5
282
330
2
100
AcDbEntity
  8
0
100
AcDbLine
 10
9482.278543872871
 20
-1858.173747918736
 30
0.0
 11
9482.293418076237
 21
-1858.172088027481
 31
0.0
  0
LINE
  5
283
330
2
100
AcDbEntity
  8
0
100
AcDbLine
 10
9482.293418076237
 20
-1858.172088027481
 30
0.0
 11
9482.308314180777
 21
-1858.170455063912
 31
0.0
  0
LINE
  5
284
330
2
100
AcDbEntity
  8
0
100
AcDbLine
 10
9482.308314180777
 20
-1858.170455063912
 30
0.0
 11
9482.323231931728
 21
-1858.168848672154
 31
0.0
  0
LINE
  5
285
330
2
100
AcDbEntity
  8
0
100
AcDbLine
 10
9482.323231931728
 20
-1858.168848672154
 30
0.0
 11
9482.338171074344
 21
-1858.167268496334
 31
0.0
  0
LINE
  5
286
330
2
100
AcDbEntity
  8
0
100
AcDbLine
 10
9482.338171074344
 20
-1858.167268496334
 30
0.0
 11
9482.353131353862
 21
-1858.165714180584
 31
0.0
  0
LINE
  5
287
330
2
100
AcDbEntity
  8
0
100
AcDbLine
 10
9482.353131353862
 20
-1858.165714180584
 30
0.0
 11
9482.368112515523
 21
-1858.164185369023
 31
0.0
  0
LINE
  5
288
330
2
100
AcDbEntity
  8
0
100
AcDbLine
 10
9482.368112515523
 20
-1858.164185369023
 30
0.0
 11
9482.383114304573
 21
-1858.162681705788
 31
0.0
  0
LINE
  5
289
330
2
100
AcDbEntity
  8
0
100
AcDbLine
 10
9482.383114304573
 20
-1858.162681705788
 30
0.0
 11
9482.398136466247
 21
-1858.161202834999
 31
0.0
  0
LINE
  5
28A
330
2
100
AcDbEntity
  8
0
100
AcDbLine
 10
9482.398136466247
 20
-1858.161202834999
 30
0.0
 11
9482.413178745799
 21
-1858.159748400787
 31
0.0
  0
LINE
  5
28B
330
2
100
AcDbEntity
  8
0
100
AcDbLine
 10
9482.413178745799
 20
-1858.159748400787
 30
0.0
 11
9482.428240888465
 21
-1858.158318047273
 31
0.0
  0
LINE
  5
28C
330
2
100
AcDbEntity
  8
0
100
AcDbLine
 10
9482.428240888465
 20
-1858.158318047273
 30
0.0
 11
9482.443322639483
 21
-1858.156911418591
 31
0.0
  0
LINE
  5
28D
330
2
100
AcDbEntity
  8
0
100
AcDbLine
 10
9482.443322639483
 20
-1858.156911418591
 30
0.0
 11
9482.458423744104
 21
-1858.15552815887
 31
0.0
  0
LINE
  5
28E
330
2
100
AcDbEntity
  8
0
100
AcDbLine
 10
9482.458423744104
 20
-1858.15552815887
 30
0.0
 11
9482.473543947566
 21
-1858.154167912231
 31
0.0
  0
LINE
  5
28F
330
2
100
AcDbEntity
  8
0
100
AcDbLine
 10
9482.473543947566
 20
-1858.154167912231
 30
0.0
 11
9482.488682995114
 21
-1858.152830322797
 31
0.0
  0
LINE
  5
290
330
2
100
AcDbEntity
  8
0
100
AcDbLine
 10
9482.488682995114
 20
-1858.152830322797
 30
0.0
 11
9482.50384063199
 21
-1858.151515034707
 31
0.0
  0
LINE
  5
291
330
2
100
AcDbEntity
  8
0
100
AcDbLine
 10
9482.50384063199
 20
-1858.151515034707
 30
0.0
 11
9482.519016603431
 21
-1858.150221692081
 31
0.0
  0
LINE
  5
292
330
2
100
AcDbEntity
  8
0
100
AcDbLine
 10
9482.519016603431
 20
-1858.150221692081
 30
0.0
 11
9482.534210654682
 21
-1858.148949939048
 31
0.0
  0
LINE
  5
293
330
2
100
AcDbEntity
  8
0
100
AcDbLine
 10
9482.534210654682
 20
-1858.148949939048
 30
0.0
 11
9482.549422530992
 21
-1858.147699419737
 31
0.0
  0
LINE
  5
294
330
2
100
AcDbEntity
  8
0
100
AcDbLine
 10
9482.549422530992
 20
-1858.147699419737
 30
0.0
 11
9482.5646519776
 21
-1858.146469778268
 31
0.0
  0
LINE
  5
295
330
2
100
AcDbEntity
  8
0
100
AcDbLine
 10
9482.5646519776
 20
-1858.146469778268
 30
0.0
 11
9482.579898739743
 21
-1858.145260658776
 31
0.0
  0
LINE
  5
296
330
2
100
AcDbEntity
  8
0
100
AcDbLine
 10
9482.579898739743
 20
-1858.145260658776
 30
0.0
 11
9482.595162562672
 21
-1858.144071705385
 31
0.0
  0
LINE
  5
297
330
2
100
AcDbEntity
  8
0
100
AcDbLine
 10
9482.595162562672
 20
-1858.144071705385
 30
0.0
 11
9482.610443191619
 21
-1858.14290256222
 31
0.0
  0
LINE
  5
298
330
2
100
AcDbEntity
  8
0
100
AcDbLine
 10
9482.610443191619
 20
-1858.14290256222
 30
0.0
 11
9482.625740371839
 21
-1858.141752873409
 31
0.0
  0
LINE
  5
299
330
2
100
AcDbEntity
  8
0
100
AcDbLine
 10
9482.625740371839
 20
-1858.141752873409
 30
0.0
 11
9482.641053848569
 21
-1858.140622283085
 31
0.0
  0
LINE
  5
29A
330
2
100
AcDbEntity
  8
0
100
AcDbLine
 10
9482.641053848569
 20
-1858.140622283085
 30
0.0
 11
9482.656383367046
 21
-1858.139510435369
 31
0.0
  0
LINE
  5
29B
330
2
100
AcDbEntity
  8
0
100
AcDbLine
 10
9482.656383367046
 20
-1858.139510435369
 30
0.0
 11
9482.671728672519
 21
-1858.13841697439
 31
0.0
  0
LINE
  5
29C
330
2
100
AcDbEntity
  8
0
100
AcDbLine
 10
9482.671728672519
 20
-1858.13841697439
 30
0.0
 11
9482.687089510227
 21
-1858.137341544272
 31
0.0
  0
LINE
  5
29D
330
2
100
AcDbEntity
  8
0
100
AcDbLine
 10
9482.687089510227
 20
-1858.137341544272
 30
0.0
 11
9482.70246562542
 21
-1858.13628378915
 31
0.0
  0
LINE
  5
29E
330
2
100
AcDbEntity
  8
0
100
AcDbLine
 10
9482.70246562542
 20
-1858.13628378915
 30
0.0
 11
9482.717856763333
 21
-1858.135243353143
 31
0.0
  0
LINE
  5
29F
330
2
100
AcDbEntity
  8
0
100
AcDbLine
 10
9482.717856763333
 20
-1858.135243353143
 30
0.0
 11
9482.733262669208
 21
-1858.134219880383
 31
0.0
  0
LINE
  5
2A0
330
2
100
AcDbEntity
  8
0
100
AcDbLine
 10
9482.733262669208
 20
-1858.134219880383
 30
0.0
 11
9482.748683088292
 21
-1858.133213014997
 31
0.0
  0
LINE
  5
2A1
330
2
100
AcDbEntity
  8
0
100
AcDbLine
 10
9482.748683088292
 20
-1858.133213014997
 30
0.0
 11
9482.764117765825
 21
-1858.132222401106
 31
0.0
  0
LINE
  5
2A2
330
2
100
AcDbEntity
  8
0
100
AcDbLine
 10
9482.764117765825
 20
-1858.132222401106
 30
0.0
 11
9482.779566447048
 21
-1858.131247682846
 31
0.0
  0
LINE
  5
2A3
330
2
100
AcDbEntity
  8
0
100
AcDbLine
 10
9482.779566447048
 20
-1858.131247682846
 30
0.0
 11
9482.795028877204
 21
-1858.130288504337
 31
0.0
  0
LINE
  5
2A4
330
2
100
AcDbEntity
  8
0
100
AcDbLine
 10
9482.795028877204
 20
-1858.130288504337
 30
0.0
 11
9482.810504801545
 21
-1858.129344509711
 31
0.0
  0
LINE
  5
2A5
330
2
100
AcDbEntity
  8
0
100
AcDbLine
 10
9482.810504801545
 20
-1858.129344509711
 30
0.0
 11
9482.825993965297
 21
-1858.128415343093
 31
0.0
  0
LINE
  5
2A6
330
2
100
AcDbEntity
  8
0
100
AcDbLine
 10
9482.825993965297
 20
-1858.128415343093
 30
0.0
 11
9482.841496113712
 21
-1858.12750064861
 31
0.0
  0
LINE
  5
2A7
330
2
100
AcDbEntity
  8
0
100
AcDbLine
 10
9482.841496113712
 20
-1858.12750064861
 30
0.0
 11
9482.857010992033
 21
-1858.126600070391
 31
0.0
  0
LINE
  5
2A8
330
2
100
AcDbEntity
  8
0
100
AcDbLine
 10
9482.857010992033
 20
-1858.126600070391
 30
0.0
 11
9482.872538345501
 21
-1858.125713252557
 31
0.0
  0
LINE
  5
2A9
330
2
100
AcDbEntity
  8
0
100
AcDbLine
 10
9482.872538345501
 20
-1858.125713252557
 30
0.0
 11
9482.888077919358
 21
-1858.124839839245
 31
0.0
  0
LINE
  5
2AA
330
2
100
AcDbEntity
  8
0
100
AcDbLine
 10
9482.888077919358
 20
-1858.124839839245
 30
0.0
 11
9482.903629458848
 21
-1858.123979474578
 31
0.0
  0
LINE
  5
2AB
330
2
100
AcDbEntity
  8
0
100
AcDbLine
 10
9482.903629458848
 20
-1858.123979474578
 30
0.0
 11
9482.919192709211
 21
-1858.123131802677
 31
0.0
  0
LINE
  5
2AC
330
2
100
AcDbEntity
  8
0
100
AcDbLine
 10
9482.919192709211
 20
-1858.123131802677
 30
0.0
 11
9482.934767415692
 21
-1858.122296467678
 31
0.0
  0
LINE
  5
2AD
330
2
100
AcDbEntity
  8
0
100
AcDbLine
 10
9482.934767415692
 20
-1858.122296467678
 30
0.0
 11
9482.950353323531
 21
-1858.121473113704
 31
0.0
  0
LINE
  5
2AE
330
2
100
AcDbEntity
  8
0
100
AcDbLine
 10
9482.950353323531
 20
-1858.121473113704
 30
0.0
 11
9482.965950177975
 21
-1858.120661384884
 31
0.0
  0
LINE
  5
2AF
330
2
100
AcDbEntity
  8
0
100
AcDbLine
 10
9482.965950177975
 20
-1858.120661384884
 30
0.0
 11
9482.981557724261
 21
-1858.11986092534
 31
0.0
  0
LINE
  5
2B0
330
2
100
AcDbEntity
  8
0
100
AcDbLine
 10
9482.981557724261
 20
-1858.11986092534
 30
0.0
 11
9482.997175707636
 21
-1858.119071379202
 31
0.0
  0
LINE
  5
2B1
330
2
100
AcDbEntity
  8
0
100
AcDbLine
 10
9482.997175707636
 20
-1858.119071379202
 30
0.0
 11
9483.012803873336
 21
-1858.118292390601
 31
0.0
  0
LINE
  5
2B2
330
2
100
AcDbEntity
  8
0
100
AcDbLine
 10
9483.012803873336
 20
-1858.118292390601
 30
0.0
 11
9483.028441966613
 21
-1858.117523603665
 31
0.0
  0
LINE
  5
2B3
330
2
100
AcDbEntity
  8
0
100
AcDbLine
 10
9483.028441966613
 20
-1858.117523603665
 30
0.0
 11
9483.0440897327
 21
-1858.116764662511
 31
0.0
  0
LINE
  5
2B4
330
2
100
AcDbEntity
  8
0
100
AcDbLine
 10
9483.0440897327
 20
-1858.116764662511
 30
0.0
 11
9483.059746916849
 21
-1858.116015211275
 31
0.0
  0
LINE
  5
2B5
330
2
100
AcDbEntity
  8
0
100
AcDbLine
 10
9483.059746916849
 20
-1858.116015211275
 30
0.0
 11
9483.075413264293
 21
-1858.11527489408
 31
0.0
  0
LINE
  5
2B6
330
2
100
AcDbEntity
  8
0
100
AcDbLine
 10
9483.075413264293
 20
-1858.11527489408
 30
0.0
 11
9483.091088520275
 21
-1858.114543355055
 31
0.0
  0
LINE
  5
2B7
330
2
100
AcDbEntity
  8
0
100
AcDbLine
 10
9483.091088520275
 20
-1858.114543355055
 30
0.0
 11
9483.106772430048
 21
-1858.11382023833
 31
0.0
  0
LINE
  5
2B8
330
2
100
AcDbEntity
  8
0
100
AcDbLine
 10
9483.106772430048
 20
-1858.11382023833
 30
0.0
 11
9483.122464738846
 21
-1858.113105188029
 31
0.0
  0
LINE
  5
2B9
330
2
100
AcDbEntity
  8
0
100
AcDbLine
 10
9483.122464738846
 20
-1858.113105188029
 30
0.0
 11
9483.138165191915
 21
-1858.112397848276
 31
0.0
  0
LINE
  5
2BA
330
2
100
AcDbEntity
  8
0
100
AcDbLine
 10
9483.138165191915
 20
-1858.112397848276
 30
0.0
 11
9483.153873534494
 21
-1858.111697863202
 31
0.0
  0
LINE
  5
2BB
330
2
100
AcDbEntity
  8
0
100
AcDbLine
 10
9483.153873534494
 20
-1858.111697863202
 30
0.0
 11
9483.169589511829
 21
-1858.111004876933
 31
0.0
  0
LINE
  5
2BC
330
2
100
AcDbEntity
  8
0
100
AcDbLine
 10
9483.169589511829
 20
-1858.111004876933
 30
0.0
 11
9483.185312869158
 21
-1858.1103185336
 31
0.0
  0
LINE
  5
2BD
330
2
100
AcDbEntity
  8
0
100
AcDbLine
 10
9483.185312869158
 20
-1858.1103185336
 30
0.0
 11
9483.201043351728
 21
-1858.109638477326
 31
0.0
  0
LINE
  5
2BE
330
2
100
AcDbEntity
  8
0
100
AcDbLine
 10
9483.201043351728
 20
-1858.109638477326
 30
0.0
 11
9483.216780704781
 21
-1858.108964352235
 31
0.0
  0
LINE
  5
2BF
330
2
100
AcDbEntity
  8
0
100
AcDbLine
 10
9483.216780704781
 20
-1858.108964352235
 30
0.0
 11
9483.232524673557
 21
-1858.108295802463
 31
0.0
  0
LINE
  5
2C0
330
2
100
AcDbEntity
  8
0
100
AcDbLine
 10
9483.232524673557
 20
-1858.108295802463
 30
0.0
 11
9483.248275003298
 21
-1858.107632472129
 31
0.0
  0
LINE
  5
2C1
330
2
100
AcDbEntity
  8
0
100
AcDbLine
 10
9483.248275003298
 20
-1858.107632472129
 30
0.0
 11
9483.264031439253
 21
-1858.106974005364
 31
0.0
  0
LINE
  5
2C2
330
2
100
AcDbEntity
  8
0
100
AcDbLine
 10
9483.264031439253
 20
-1858.106974005364
 30
0.0
 11
9483.279793726657
 21
-1858.106320046296
 31
0.0
  0
LINE
  5
2C3
330
2
100
AcDbEntity
  8
0
100
AcDbLine
 10
9483.279793726657
 20
-1858.106320046296
 30
0.0
 11
9483.295561610754
 21
-1858.105670239049
 31
0.0
  0
LINE
  5
2C4
330
2
100
AcDbEntity
  8
0
100
AcDbLine
 10
9483.295561610754
 20
-1858.105670239049
 30
0.0
 11
9483.311334836788
 21
-1858.105024227752
 31
0.0
  0
LINE
  5
2C5
330
2
100
AcDbEntity
  8
0
100
AcDbLine
 10
9483.311334836788
 20
-1858.105024227752
 30
0.0
 11
9483.327113150004
 21
-1858.104381656533
 31
0.0
  0
LINE
  5
2C6
330
2
100
AcDbEntity
  8
0
100
AcDbLine
 10
9483.327113150004
 20
-1858.104381656533
 30
0.0
 11
9483.342896295642
 21
-1858.103742169515
 31
0.0
  0
LINE
  5
2C7
330
2
100
AcDbEntity
  8
0
100
AcDbLine
 10
9483.342896295642
 20
-1858.103742169515
 30
0.0
 11
9483.358684018943
 21
-1858.103105410831
 31
0.0
  0
LINE
  5
2C8
330
2
100
AcDbEntity
  8
0
100
AcDbLine
 10
9483.358684018943
 20
-1858.103105410831
 30
0.0
 11
9483.374476065154
 21
-1858.102471024605
 31
0.0
  0
LINE
  5
2C9
330
2
100
AcDbEntity
  8
0
100
AcDbLine
 10
9483.374476065154
 20
-1858.102471024605
 30
0.0
 11
9483.39027217951
 21
-1858.101838654966
 31
0.0
  0
LINE
  5
2CA
330
2
100
AcDbEntity
  8
0
100
AcDbLine
 10
9483.39027217951
 20
-1858.101838654966
 30
0.0
 11
9483.406072107261
 21
-1858.101207946038
 31
0.0
  0
LINE
  5
2CB
330
2
100
AcDbEntity
  8
0
100
AcDbLine
 10
9483.406072107261
 20
-1858.101207946038
 30
0.0
 11
9483.421875593643
 21
-1858.100578541951
 31
0.0
  0
LINE
  5
2CC
330
2
100
AcDbEntity
  8
0
100
AcDbLine
 10
9483.421875593643
 20
-1858.100578541951
 30
0.0
 11
9483.437682383906
 21
-1858.099950086827
 31
0.0
  0
LINE
  5
2CD
330
2
100
AcDbEntity
  8
0
100
AcDbLine
 10
9483.437682383906
 20
-1858.099950086827
 30
0.0
 11
9483.453492223283
 21
-1858.099322224803
 31
0.0
  0
LINE
  5
2CE
330
2
100
AcDbEntity
  8
0
100
AcDbLine
 10
9483.453492223283
 20
-1858.099322224803
 30
0.0
 11
9483.469304857026
 21
-1858.098694599997
 31
0.0
  0
LINE
  5
2CF
330
2
100
AcDbEntity
  8
0
100
AcDbLine
 10
9483.469304857026
 20
-1858.098694599997
 30
0.0
 11
9483.485120030373
 21
-1858.098066856539
 31
0.0
  0
LINE
  5
2D0
330
2
100
AcDbEntity
  8
0
100
AcDbLine
 10
9483.485120030373
 20
-1858.098066856539
 30
0.0
 11
9483.500937488569
 21
-1858.09743863856
 31
0.0
  0
LINE
  5
2D1
330
2
100
AcDbEntity
  8
0
100
AcDbLine
 10
9483.500937488569
 20
-1858.09743863856
 30
0.0
 11
9483.516756976847
 21
-1858.096809590181
 31
0.0
  0
LINE
  5
2D2
330
2
100
AcDbEntity
  8
0
100
AcDbLine
 10
9483.516756976847
 20
-1858.096809590181
 30
0.0
 11
9483.532578240463
 21
-1858.096179355532
 31
0.0
  0
LINE
  5
2D3
330
2
100
AcDbEntity
  8
0
100
AcDbLine
 10
9483.532578240463
 20
-1858.096179355532
 30
0.0
 11
9483.548401024654
 21
-1858.095547578741
 31
0.0
  0
LINE
  5
2D4
330
2
100
AcDbEntity
  8
0
100
AcDbLine
 10
9483.548401024654
 20
-1858.095547578741
 30
0.0
 11
9483.564225074658
 21
-1858.094913903933
 31
0.0
  0
LINE
  5
2D5
330
2
100
AcDbEntity
  8
0
100
AcDbLine
 10
9483.564225074658
 20
-1858.094913903933
 30
0.0
 11
9483.580050135726
 21
-1858.094277975237
 31
0.0
  0
LINE
  5
2D6
330
2
100
AcDbEntity
  8
0
100
AcDbLine
 10
9483.580050135726
 20
-1858.094277975237
 30
0.0
 11
9483.595875953096
 21
-1858.093639436782
 31
0.0
  0
LINE
  5
2D7
330
2
100
AcDbEntity
  8
0
100
AcDbLine
 10
9483.595875953096
 20
-1858.093639436782
 30
0.0
 11
9483.611702272005
 21
-1858.092997932689
 31
0.0
  0
LINE
  5
2D8
330
2
100
AcDbEntity
  8
0
100
AcDbLine
 10
9483.611702272005
 20
-1858.092997932689
 30
0.0
 11
9483.627528837704
 21
-1858.092353107087
 31
0.0
  0
LINE
  5
2D9
330
2
100
AcDbEntity
  8
0
100
AcDbLine
 10
9483.627528837704
 20
-1858.092353107087
 30
0.0
 11
9483.643355395432
 21
-1858.091704604107
 31
0.0
  0
LINE
  5
2DA
330
2
100
AcDbEntity
  8
0
100
AcDbLine
 10
9483.643355395432
 20
-1858.091704604107
 30
0.0
 11
9483.659181690432
 21
-1858.091052067877
 31
0.0
  0
LINE
  5
2DB
330
2
100
AcDbEntity
  8
0
100
AcDbLine
 10
9483.659181690432
 20
-1858.091052067877
 30
0.0
 11
9483.675007467946
 21
-1858.09039514252
 31
0.0
  0
LINE
  5
2DC
330
2
100
AcDbEntity
  8
0
100
AcDbLine
 10
9483.675007467946
 20
-1858.09039514252
 30
0.0
 11
9483.690832473218
 21
-1858.089733472159
 31
0.0
  0
LINE
  5
2DD
330
2
100
AcDbEntity
  8
0
100
AcDbLine
 10
9483.690832473218
 20
-1858.089733472159
 30
0.0
 11
9483.706656451488
 21
-1858.089066700933
 31
0.0
  0
LINE
  5
2DE
330
2
100
AcDbEntity
  8
0
100
AcDbLine
 10
9483.706656451488
 20
-1858.089066700933
 30
0.0
 11
9483.722479148001
 21
-1858.088394472961
 31
0.0
  0
LINE
  5
2DF
330
2
100
AcDbEntity
  8
0
100
AcDbLine
 10
9483.722479148001
 20
-1858.088394472961
 30
0.0
 11
9483.738300307996
 21
-1858.087716432372
 31
0.0
  0
LINE
  5
2E0
330
2
100
AcDbEntity
  8
0
100
AcDbLine
 10
9483.738300307996
 20
-1858.087716432372
 30
0.0
 11
9483.754119676722
 21
-1858.087032223291
 31
0.0
  0
LINE
  5
2E1
330
2
100
AcDbEntity
  8
0
100
AcDbLine
 10
9483.754119676722
 20
-1858.087032223291
 30
0.0
 11
9483.769936999417
 21
-1858.086341489848
 31
0.0
  0
LINE
  5
2E2
330
2
100
AcDbEntity
  8
0
100
AcDbLine
 10
9483.769936999417
 20
-1858.086341489848
 30
0.0
 11
9483.785752021322
 21
-1858.085643876169
 31
0.0
  0
LINE
  5
2E3
330
2
100
AcDbEntity
  8
0
100
AcDbLine
 10
9483.785752021322
 20
-1858.085643876169
 30
0.0
 11
9483.801564487679
 21
-1858.084939026383
 31
0.0
  0
LINE
  5
2E4
330
2
100
AcDbEntity
  8
0
100
AcDbLine
 10
9483.801564487679
 20
-1858.084939026383
 30
0.0
 11
9483.817374143738
 21
-1858.084226584615
 31
0.0
  0
LINE
  5
2E5
330
2
100
AcDbEntity
  8
0
100
AcDbLine
 10
9483.817374143738
 20
-1858.084226584615
 30
0.0
 11
9483.833180734732
 21
-1858.083506194991
 31
0.0
  0
LINE
  5
2E6
330
2
100
AcDbEntity
  8
0
100
AcDbLine
 10
9483.833180734732
 20
-1858.083506194991
 30
0.0
 11
9483.848984005913
 21
-1858.082777501639
 31
0.0
  0
LINE
  5
2E7
330
2
100
AcDbEntity
  8
0
100
AcDbLine
 10
9483.848984005913
 20
-1858.082777501639
 30
0.0
 11
9483.864783702513
 21
-1858.082040148693
 31
0.0
  0
LINE
  5
2E8
330
2
100
AcDbEntity
  8
0
100
AcDbLine
 10
9483.864783702513
 20
-1858.082040148693
 30
0.0
 11
9483.880579569785
 21
-1858.081293780269
 31
0.0
  0
LINE
  5
2E9
330
2
100
AcDbEntity
  8
0
100
AcDbLine
 10
9483.880579569785
 20
-1858.081293780269
 30
0.0
 11
9483.896371352965
 21
-1858.0805380405
 31
0.0
  0
LINE
  5
2EA
330
2
100
AcDbEntity
  8
0
100
AcDbLine
 10
9483.896371352965
 20
-1858.0805380405
 30
0.0
 11
9483.912158797293
 21
-1858.07977257351
 31
0.0
  0
LINE
  5
2EB
330
2
100
AcDbEntity
  8
0
100
AcDbLine
 10
9483.912158797293
 20
-1858.07977257351
 30
0.0
 11
9483.927941648017
 21
-1858.078997023433
 31
0.0
  0
LINE
  5
2EC
330
2
100
AcDbEntity
  8
0
100
AcDbLine
 10
9483.927941648017
 20
-1858.078997023433
 30
0.0
 11
9483.943719650381
 21
-1858.078211034386
 31
0.0
  0
LINE
  5
2ED
330
2
100
AcDbEntity
  8
0
100
AcDbLine
 10
9483.943719650381
 20
-1858.078211034386
 30
0.0
 11
9483.959492549621
 21
-1858.077414250507
 31
0.0
  0
LINE
  5
2EE
330
2
100
AcDbEntity
  8
0
100
AcDbLine
 10
9483.959492549621
 20
-1858.077414250507
 30
0.0
 11
9483.975260090984
 21
-1858.076606315917
 31
0.0
  0
LINE
  5
2EF
330
2
100
AcDbEntity
  8
0
100
AcDbLine
 10
9483.975260090984
 20
-1858.076606315917
 30
0.0
 11
9483.991022019713
 21
-1858.075786874746
 31
0.0
  0
LINE
  5
2F0
330
2
100
AcDbEntity
  8
0
100
AcDbLine
 10
9483.991022019713
 20
-1858.075786874746
 30
0.0
 11
9484.006778081043
 21
-1858.074955571115
 31
0.0
  0
LINE
  5
2F1
330
2
100
AcDbEntity
  8
0
100
AcDbLine
 10
9484.006778081043
 20
-1858.074955571115
 30
0.0
 11
9484.022528020231
 21
-1858.074112049158
 31
0.0
  0
LINE
  5
2F2
330
2
100
AcDbEntity
  8
0
100
AcDbLine
 10
9484.022528020231
 20
-1858.074112049158
 30
0.0
 11
9484.038271582509
 21
-1858.073255952997
 31
0.0
  0
LINE
  5
2F3
330
2
100
AcDbEntity
  8
0
100
AcDbLine
 10
9484.038271582509
 20
-1858.073255952997
 30
0.0
 11
9484.054008513117
 21
-1858.072386926764
 31
0.0
  0
LINE
  5
2F4
330
2
100
AcDbEntity
  8
0
100
AcDbLine
 10
9484.054008513117
 20
-1858.072386926764
 30
0.0
 11
9484.069738557304
 21
-1858.071504614585
 31
0.0
  0
LINE
  5
2F5
330
2
100
AcDbEntity
  8
0
100
AcDbLine
 10
9484.069738557304
 20
-1858.071504614585
 30
0.0
 11
9484.085461460312
 21
-1858.070608660582
 31
0.0
  0
LINE
  5
2F6
330
2
100
AcDbEntity
  8
0
100
AcDbLine
 10
9484.085461460312
 20
-1858.070608660582
 30
0.0
 11
9484.101176967381
 21
-1858.069698708888
 31
0.0
  0
LINE
  5
2F7
330
2
100
AcDbEntity
  8
0
100
AcDbLine
 10
9484.101176967381
 20
-1858.069698708888
 30
0.0
 11
9484.116884823754
 21
-1858.06877440363
 31
0.0
  0
LINE
  5
2F8
330
2
100
AcDbEntity
  8
0
100
AcDbLine
 10
9484.116884823754
 20
-1858.06877440363
 30
0.0
 11
9484.132584774675
 21
-1858.067835388931
 31
0.0
  0
LINE
  5
2F9
330
2
100
AcDbEntity
  8
0
100
AcDbLine
 10
9484.132584774675
 20
-1858.067835388931
 30
0.0
 11
9484.148276565383
 21
-1858.066881308921
 31
0.0
  0
LINE
  5
2FA
330
2
100
AcDbEntity
  8
0
100
AcDbLine
 10
9484.148276565383
 20
-1858.066881308921
 30
0.0
 11
9484.163959941126
 21
-1858.065911807731
 31
0.0
  0
LINE
  5
2FB
330
2
100
AcDbEntity
  8
0
100
AcDbLine
 10
9484.163959941126
 20
-1858.065911807731
 30
0.0
 11
9484.179634647139
 21
-1858.064926529477
 31
0.0
  0
LINE
  5
2FC
330
2
100
AcDbEntity
  8
0
100
AcDbLine
 10
9484.179634647139
 20
-1858.064926529477
 30
0.0
 11
9484.195300428671
 21
-1858.063925118302
 31
0.0
  0
LINE
  5
2FD
330
2
100
AcDbEntity
  8
0
100
AcDbLine
 10
9484.195300428671
 20
-1858.063925118302
 30
0.0
 11
9484.210957030965
 21
-1858.062907218315
 31
0.0
  0
LINE
  5
2FE
330
2
100
AcDbEntity
  8
0
100
AcDbLine
 10
9484.210957030965
 20
-1858.062907218315
 30
0.0
 11
9484.22660419926
 21
-1858.061872473656
 31
0.0
  0
LINE
  5
2FF
330
2
100
AcDbEntity
  8
0
100
AcDbLine
 10
9484.22660419926
 20
-1858.061872473656
 30
0.0
 11
9484.242241678796
 21
-1858.060820528451
 31
0.0
  0
LINE
  5
300
330
2
100
AcDbEntity
  8
0
100
AcDbLine
 10
9484.242241678796
 20
-1858.060820528451
 30
0.0
 11
9484.257869214824
 21
-1858.05975102682
 31
0.0
  0
LINE
  5
301
330
2
100
AcDbEntity
  8
0
100
AcDbLine
 10
9484.257869214824
 20
-1858.05975102682
 30
0.0
 11
9484.273486552579
 21
-1858.058663612897
 31
0.0
  0
LINE
  5
302
330
2
100
AcDbEntity
  8
0
100
AcDbLine
 10
9484.273486552579
 20
-1858.058663612897
 30
0.0
 11
9484.289093437306
 21
-1858.057557930806
 31
0.0
  0
LINE
  5
303
330
2
100
AcDbEntity
  8
0
100
AcDbLine
 10
9484.289093437306
 20
-1858.057557930806
 30
0.0
 11
9484.304689614248
 21
-1858.056433624675
 31
0.0
  0
LINE
  5
304
330
2
100
AcDbEntity
  8
0
100
AcDbLine
 10
9484.304689614248
 20
-1858.056433624675
 30
0.0
 11
9484.320274828645
 21
-1858.055290338634
 31
0.0
  0
LINE
  5
305
330
2
100
AcDbEntity
  8
0
100
AcDbLine
 10
9484.320274828645
 20
-1858.055290338634
 30
0.0
 11
9484.335848825743
 21
-1858.054127716808
 31
0.0
  0
LINE
  5
306
330
2
100
AcDbEntity
  8
0
100
AcDbLine
 10
9484.335848825743
 20
-1858.054127716808
 30
0.0
 11
9484.351411350782
 21
-1858.05294540332
 31
0.0
  0
LINE
  5
307
330
2
100
AcDbEntity
  8
0
100
AcDbLine
 10
9484.351411350782
 20
-1858.05294540332
 30
0.0
 11
9484.366962149008
 21
-1858.051743042299
 31
0.0
  0
LINE
  5
308
330
2
100
AcDbEntity
  8
0
100
AcDbLine
 10
9484.366962149008
 20
-1858.051743042299
 30
0.0
 11
9484.382500965658
 21
-1858.05052027788
 31
0.0
  0
LINE
  5
309
330
2
100
AcDbEntity
  8
0
100
AcDbLine
 10
9484.382500965658
 20
-1858.05052027788
 30
0.0
 11
9484.398027545978
 21
-1858.04927675418
 31
0.0
  0
LINE
  5
30A
330
2
100
AcDbEntity
  8
0
100
AcDbLine
 10
9484.398027545978
 20
-1858.04927675418
 30
0.0
 11
9484.413541635213
 21
-1858.04801211533
 31
0.0
  0
LINE
  5
30B
330
2
100
AcDbEntity
  8
0
100
AcDbLine
 10
9484.413541635213
 20
-1858.04801211533
 30
0.0
 11
9484.429042978598
 21
-1858.046726005457
 31
0.0
  0
LINE
  5
30C
330
2
100
AcDbEntity
  8
0
100
AcDbLine
 10
9484.429042978598
 20
-1858.046726005457
 30
0.0
 11
9484.444531321379
 21
-1858.04541806869
 31
0.0
  0
LINE
  5
30D
330
2
100
AcDbEntity
  8
0
100
AcDbLine
 10
9484.444531321379
 20
-1858.04541806869
 30
0.0
 11
9484.460006408804
 21
-1858.044087949151
 31
0.0
  0
LINE
  5
30E
330
2
100
AcDbEntity
  8
0
100
AcDbLine
 10
9484.460006408804
 20
-1858.044087949151
 30
0.0
 11
9484.47546798611
 21
-1858.042735290975
 31
0.0
  0
LINE
  5
30F
330
2
100
AcDbEntity
  8
0
100
AcDbLine
 10
9484.47546798611
 20
-1858.042735290975
 30
0.0
 11
9484.490915798538
 21
-1858.041359738283
 31
0.0
  0
LINE
  5
310
330
2
100
AcDbEntity
  8
0
100
AcDbLine
 10
9484.490915798538
 20
-1858.041359738283
 30
0.0
 11
9484.506349591335
 21
-1858.039960935202
 31
0.0
  0
LINE
  5
311
330
2
100
AcDbEntity
  8
0
100
AcDbLine
 10
9484.506349591335
 20
-1858.039960935202
 30
0.0
 11
9484.521769109745
 21
-1858.038538525863
 31
0.0
  0
LINE
  5
312
330
2
100
AcDbEntity
  8
0
100
AcDbLine
 10
9484.521769109745
 20
-1858.038538525863
 30
0.0
 11
9484.537174098999
 21
-1858.037092154394
 31
0.0
  0
LINE
  5
313
330
2
100
AcDbEntity
  8
0
100
AcDbLine
 10
9484.537174098999
 20
-1858.037092154394
 30
0.0
 11
9484.552564304351
 21
-1858.035621464915
 31
0.0
  0
LINE
  5
314
330
2
100
AcDbEntity
  8
0
100
AcDbLine
 10
9484.552564304351
 20
-1858.035621464915
 30
0.0
 11
9484.567939471039
 21
-1858.034126101563
 31
0.0
  0
LINE
  5
315
330
2
100
AcDbEntity
  8
0
100
AcDbLine
 10
9484.567939471039
 20
-1858.034126101563
 30
0.0
 11
9484.583299344306
 21
-1858.032605708453
 31
0.0
  0
LINE
  5
316
330
2
100
AcDbEntity
  8
0
100
AcDbLine
 10
9484.583299344306
 20
-1858.032605708453
 30
0.0
 11
9484.5986436694
 21
-1858.031059929723
 31
0.0
  0
LINE
  5
317
330
2
100
AcDbEntity
  8
0
100
AcDbLine
 10
9484.5986436694
 20
-1858.031059929723
 30
0.0
 11
9484.613972191558
 21
-1858.029488409495
 31
0.0
  0
LINE
  5
318
330
2
100
AcDbEntity
  8
0
100
AcDbLine
 10
9484.613972191558
 20
-1858.029488409495
 30
0.0
 11
9484.629284656016
 21
-1858.027890791898
 31
0.0
  0
LINE
  5
319
330
2
100
AcDbEntity
  8
0
100
AcDbLine
 10
9484.629284656016
 20
-1858.027890791898
 30
0.0
 11
9484.644580808028
 21
-1858.026266721055
 31
0.0
  0
LINE
  5
31A
330
2
100
AcDbEntity
  8
0
100
AcDbLine
 10
9484.644580808028
 20
-1858.026266721055
 30
0.0
 11
9484.659860392833
 21
-1858.024615841103
 31
0.0
  0
LINE
  5
31B
330
2
100
AcDbEntity
  8
0
100
AcDbLine
 10
9484.659860392833
 20
-1858.024615841103
 30
0.0
 11
9484.675123155668
 21
-1858.022937796155
 31
0.0
  0
LINE
  5
31C
330
2
100
AcDbEntity
  8
0
100
AcDbLine
 10
9484.675123155668
 20
-1858.022937796155
 30
0.0
 11
9484.690368841787
 21
-1858.021232230349
 31
0.0
  0
LINE
  5
31D
330
2
100
AcDbEntity
  8
0
100
AcDbLine
 10
9484.690368841787
 20
-1858.021232230349
 30
0.0
 11
9484.70559719642
 21
-1858.019498787809
 31
0.0
  0
LINE
  5
31E
330
2
100
AcDbEntity
  8
0
100
AcDbLine
 10
9484.70559719642
 20
-1858.019498787809
 30
0.0
 11
9484.720807964816
 21
-1858.017737112663
 31
0.0
  0
LINE
  5
31F
330
2
100
AcDbEntity
  8
0
100
AcDbLine
 10
9484.720807964816
 20
-1858.017737112663
 30
0.0
 11
9484.736000892215
 21
-1858.015946849038
 31
0.0
  0
LINE
  5
320
330
2
100
AcDbEntity
  8
0
100
AcDbLine
 10
9484.736000892215
 20
-1858.015946849038
 30
0.0
 11
9484.751175723863
 21
-1858.014127641058
 31
0.0
  0
LINE
  5
321
330
2
100
AcDbEntity
  8
0
100
AcDbLine
 10
9484.751175723863
 20
-1858.014127641058
 30
0.0
 11
9484.766332204999
 21
-1858.012279132854
 31
0.0
  0
LINE
  5
322
330
2
100
AcDbEntity
  8
0
100
AcDbLine
 10
9484.766332204999
 20
-1858.012279132854
 30
0.0
 11
9484.781470080873
 21
-1858.010400968545
 31
0.0
  0
LINE
  5
323
330
2
100
AcDbEntity
  8
0
100
AcDbLine
 10
9484.781470080873
 20
-1858.010400968545
 30
0.0
 11
9484.796589096712
 21
-1858.008492792272
 31
0.0
  0
LINE
  5
324
330
2
100
AcDbEntity
  8
0
100
AcDbLine
 10
9484.796589096712
 20
-1858.008492792272
 30
0.0
 11
9484.811688997776
 21
-1858.006554248153
 31
0.0
  0
LINE
  5
325
330
2
100
AcDbEntity
  8
0
100
AcDbLine
 10
9484.811688997776
 20
-1858.006554248153
 30
0.0
 11
9484.826769529297
 21
-1858.004584980321
 31
0.0
  0
LINE
  5
326
330
2
100
AcDbEntity
  8
0
100
AcDbLine
 10
9484.826769529297
 20
-1858.004584980321
 30
0.0
 11
9484.841830436517
 21
-1858.002584632894
 31
0.0
  0
LINE
  5
327
330
2
100
AcDbEntity
  8
0
100
AcDbLine
 10
9484.841830436517
 20
-1858.002584632894
 30
0.0
 11
9484.856871464684
 21
-1858.000552850004
 31
0.0
  0
LINE
  5
328
330
2
100
AcDbEntity
  8
0
100
AcDbLine
 10
9484.856871464684
 20
-1858.000552850004
 30
0.0
 11
9484.871892359036
 21
-1857.998489275778
 31
0.0
  0
LINE
  5
329
330
2
100
AcDbEntity
  8
0
100
AcDbLine
 10
9484.871892359036
 20
-1857.998489275778
 30
0.0
 11
9484.886892864821
 21
-1857.996393554349
 31
0.0
  0
LINE
  5
32A
330
2
100
AcDbEntity
  8
0
100
AcDbLine
 10
9484.886892864821
 20
-1857.996393554349
 30
0.0
 11
9484.901872727276
 21
-1857.994265329835
 31
0.0
  0
LINE
  5
32B
330
2
100
AcDbEntity
  8
0
100
AcDbLine
 10
9484.901872727276
 20
-1857.994265329835
 30
0.0
 11
9484.916831691645
 21
-1857.992104246368
 31
0.0
  0
LINE
  5
32C
330
2
100
AcDbEntity
  8
0
100
AcDbLine
 10
9484.916831691645
 20
-1857.992104246368
 30
0.0
 11
9484.93176950317
 21
-1857.989909948075
 31
0.0
  0
LINE
  5
32D
330
2
100
AcDbEntity
  8
0
100
AcDbLine
 10
9484.93176950317
 20
-1857.989909948075
 30
0.0
 11
9484.946685907095
 21
-1857.987682079081
 31
0.0
  0
LINE
  5
32E
330
2
100
AcDbEntity
  8
0
100
AcDbLine
 10
9484.946685907095
 20
-1857.987682079081
 30
0.0
 11
9484.961580648665
 21
-1857.985420283512
 31
0.0
  0
LINE
  5
32F
330
2
100
AcDbEntity
  8
0
100
AcDbLine
 10
9484.961580648665
 20
-1857.985420283512
 30
0.0
 11
9484.976453473114
 21
-1857.983124205501
 31
0.0
  0
LINE
  5
330
330
2
100
AcDbEntity
  8
0
100
AcDbLine
 10
9484.976453473114
 20
-1857.983124205501
 30
0.0
 11
9484.991304125696
 21
-1857.980793489169
 31
0.0
  0
LINE
  5
331
330
2
100
AcDbEntity
  8
0
100
AcDbLine
 10
9484.991304125696
 20
-1857.980793489169
 30
0.0
 11
9485.006132351642
 21
-1857.978427778646
 31
0.0
  0
LINE
  5
332
330
2
100
AcDbEntity
  8
0
100
AcDbLine
 10
9485.006132351642
 20
-1857.978427778646
 30
0.0
 11
9485.020937896205
 21
-1857.976026718061
 31
0.0
  0
LINE
  5
333
330
2
100
AcDbEntity
  8
0
100
AcDbLine
 10
9485.020937896205
 20
-1857.976026718061
 30
0.0
 11
9485.035720504615
 21
-1857.973589951536
 31
0.0
  0
LINE
  5
334
330
2
100
AcDbEntity
  8
0
100
AcDbLine
 10
9485.035720504615
 20
-1857.973589951536
 30
0.0
 11
9485.050479922133
 21
-1857.971117123205
 31
0.0
  0
LINE
  5
335
330
2
100
AcDbEntity
  8
0
100
AcDbLine
 10
9485.050479922133
 20
-1857.971117123205
 30
0.0
 11
9485.06521589398
 21
-1857.968607877192
 31
0.0
  0
LINE
  5
336
330
2
100
AcDbEntity
  8
0
100
AcDbLine
 10
9485.06521589398
 20
-1857.968607877192
 30
0.0
 11
9485.079928165417
 21
-1857.96606185762
 31
0.0
  0
LINE
  5
337
330
2
100
AcDbEntity
  8
0
100
AcDbLine
 10
9485.079928165417
 20
-1857.96606185762
 30
0.0
 11
9485.094616481672
 21
-1857.963478708622
 31
0.0
  0
LINE
  5
338
330
2
100
AcDbEntity
  8
0
100
AcDbLine
 10
9485.094616481672
 20
-1857.963478708622
 30
0.0
 11
9485.109280587998
 21
-1857.960858074322
 31
0.0
  0
LINE
  5
339
330
2
100
AcDbEntity
  8
0
100
AcDbLine
 10
9485.109280587998
 20
-1857.960858074322
 30
0.0
 11
9485.12392022963
 21
-1857.958199598848
 31
0.0
  0
LINE
  5
33A
330
2
100
AcDbEntity
  8
0
100
AcDbLine
 10
9485.12392022963
 20
-1857.958199598848
 30
0.0
 11
9485.138535151818
 21
-1857.955502926328
 31
0.0
  0
LINE
  5
33B
330
2
100
AcDbEntity
  8
0
100
AcDbLine
 10
9485.138535151818
 20
-1857.955502926328
 30
0.0
 11
9485.153125099797
 21
-1857.952767700888
 31
0.0
  0
LINE
  5
33C
330
2
100
AcDbEntity
  8
0
100
AcDbLine
 10
9485.153125099797
 20
-1857.952767700888
 30
0.0
 11
9485.167689818815
 21
-1857.949993566654
 31
0.0
  0
LINE
  5
33D
330
2
100
AcDbEntity
  8
0
100
AcDbLine
 10
9485.167689818815
 20
-1857.949993566654
 30
0.0
 11
9485.182229054114
 21
-1857.947180167754
 31
0.0
  0
LINE
  5
33E
330
2
100
AcDbEntity
  8
0
100
AcDbLine
 10
9485.182229054114
 20
-1857.947180167754
 30
0.0
 11
9485.196742550931
 21
-1857.944327148318
 31
0.0
  0
LINE
  5
33F
330
2
100
AcDbEntity
  8
0
100
AcDbLine
 10
9485.196742550931
 20
-1857.944327148318
 30
0.0
 11
9485.211230054515
 21
-1857.941434152468
 31
0.0
  0
LINE
  5
340
330
2
100
AcDbEntity
  8
0
100
AcDbLine
 10
9485.211230054515
 20
-1857.941434152468
 30
0.0
 11
9485.225691310109
 21
-1857.938500824333
 31
0.0
  0
LINE
  5
341
330
2
100
AcDbEntity
  8
0
100
AcDbLine
 10
9485.225691310109
 20
-1857.938500824333
 30
0.0
 11
9485.240126062945
 21
-1857.935526808047
 31
0.0
  0
LINE
  5
342
330
2
100
AcDbEntity
  8
0
100
AcDbLine
 10
9485.240126062945
 20
-1857.935526808047
 30
0.0
 11
9485.254534058281
 21
-1857.932511747727
 31
0.0
  0
LINE
  5
343
330
2
100
AcDbEntity
  8
0
100
AcDbLine
 10
9485.254534058281
 20
-1857.932511747727
 30
0.0
 11
9485.268915041348
 21
-1857.929455287507
 31
0.0
  0
LINE
  5
344
330
2
100
AcDbEntity
  8
0
100
AcDbLine
 10
9485.268915041348
 20
-1857.929455287507
 30
0.0
 11
9485.28326875739
 21
-1857.926357071512
 31
0.0
  0
LINE
  5
345
330
2
100
AcDbEntity
  8
0
100
AcDbLine
 10
9485.28326875739
 20
-1857.926357071512
 30
0.0
 11
9485.297594951651
 21
-1857.923216743864
 31
0.0
  0
LINE
  5
346
330
2
100
AcDbEntity
  8
0
100
AcDbLine
 10
9485.297594951651
 20
-1857.923216743864
 30
0.0
 11
9485.311893369376
 21
-1857.9200339487
 31
0.0
  0
LINE
  5
347
330
2
100
AcDbEntity
  8
0
100
AcDbLine
 10
9485.311893369376
 20
-1857.9200339487
 30
0.0
 11
9485.326163755805
 21
-1857.916808330141
 31
0.0
  0
LINE
  5
348
330
2
100
AcDbEntity
  8
0
100
AcDbLine
 10
9485.326163755805
 20
-1857.916808330141
 30
0.0
 11
9485.340405856184
 21
-1857.91353953231
 31
0.0
  0
LINE
  5
349
330
2
100
AcDbEntity
  8
0
100
AcDbLine
 10
9485.340405856184
 20
-1857.91353953231
 30
0.0
 11
9485.354619415749
 21
-1857.910227199347
 31
0.0
  0
LINE
  5
34A
330
2
100
AcDbEntity
  8
0
100
AcDbLine
 10
9485.354619415749
 20
-1857.910227199347
 30
0.0
 11
9485.368804179747
 21
-1857.906870975367
 31
0.0
  0
LINE
  5
34B
330
2
100
AcDbEntity
  8
0
100
AcDbLine
 10
9485.368804179747
 20
-1857.906870975367
 30
0.0
 11
9485.382959893421
 21
-1857.903470504501
 31
0.0
  0
LINE
  5
34C
330
2
100
AcDbEntity
  8
0
100
AcDbLine
 10
9485.382959893421
 20
-1857.903470504501
 30
0.0
 11
9485.397086302008
 21
-1857.900025430877
 31
0.0
  0
LINE
  5
34D
330
2
100
AcDbEntity
  8
0
100
AcDbLine
 10
9485.397086302008
 20
-1857.900025430877
 30
0.0
 11
9485.411183150757
 21
-1857.896535398624
 31
0.0
  0
LINE
  5
34E
330
2
100
AcDbEntity
  8
0
100
AcDbLine
 10
9485.411183150757
 20
-1857.896535398624
 30
0.0
 11
9485.425250184908
 21
-1857.893000051866
 31
0.0
  0
LINE
  5
34F
330
2
100
AcDbEntity
  8
0
100
AcDbLine
 10
9485.425250184908
 20
-1857.893000051866
 30
0.0
 11
9485.439287149704
 21
-1857.889419034734
 31
0.0
  0
LINE
  5
350
330
2
100
AcDbEntity
  8
0
100
AcDbLine
 10
9485.439287149704
 20
-1857.889419034734
 30
0.0
 11
9485.453293790383
 21
-1857.88579199135
 31
0.0
  0
LINE
  5
351
330
2
100
AcDbEntity
  8
0
100
AcDbLine
 10
9485.453293790383
 20
-1857.88579199135
 30
0.0
 11
9485.467269852199
 21
-1857.882118565841
 31
0.0
  0
LINE
  5
352
330
2
100
AcDbEntity
  8
0
100
AcDbLine
 10
9485.467269852199
 20
-1857.882118565841
 30
0.0
 11
9485.481215080382
 21
-1857.878398402339
 31
0.0
  0
LINE
  5
353
330
2
100
AcDbEntity
  8
0
100
AcDbLine
 10
9485.481215080382
 20
-1857.878398402339
 30
0.0
 11
9485.495129220179
 21
-1857.874631144969
 31
0.0
  0
LINE
  5
354
330
2
100
AcDbEntity
  8
0
100
AcDbLine
 10
9485.495129220179
 20
-1857.874631144969
 30
0.0
 11
9485.509012016835
 21
-1857.870816437855
 31
0.0
  0
LINE
  5
355
330
2
100
AcDbEntity
  8
0
100
AcDbLine
 10
9485.509012016835
 20
-1857.870816437855
 30
0.0
 11
9485.522863215589
 21
-1857.866953925131
 31
0.0
  0
LINE
  5
356
330
2
100
AcDbEntity
  8
0
100
AcDbLine
 10
9485.522863215589
 20
-1857.866953925131
 30
0.0
 11
9485.536682561685
 21
-1857.86304325092
 31
0.0
  0
LINE
  5
357
330
2
100
AcDbEntity
  8
0
100
AcDbLine
 10
9485.536682561685
 20
-1857.86304325092
 30
0.0
 11
9485.550469800369
 21
-1857.859084059346
 31
0.0
  0
LINE
  5
358
330
2
100
AcDbEntity
  8
0
100
AcDbLine
 10
9485.550469800369
 20
-1857.859084059346
 30
0.0
 11
9485.564224676876
 21
-1857.855075994543
 31
0.0
  0
LINE
  5
359
330
2
100
AcDbEntity
  8
0
100
AcDbLine
 10
9485.564224676876
 20
-1857.855075994543
 30
0.0
 11
9485.577946936452
 21
-1857.851018700632
 31
0.0
  0
LINE
  5
35A
330
2
100
AcDbEntity
  8
0
100
AcDbLine
 10
9485.577946936452
 20
-1857.851018700632
 30
0.0
 11
9485.591636324345
 21
-1857.846911821747
 31
0.0
  0
LINE
  5
35B
330
2
100
AcDbEntity
  8
0
100
AcDbLine
 10
9485.591636324345
 20
-1857.846911821747
 30
0.0
 11
9485.605292585789
 21
-1857.842755002006
 31
0.0
  0
LINE
  5
35C
330
2
100
AcDbEntity
  8
0
100
AcDbLine
 10
9485.605292585789
 20
-1857.842755002006
 30
0.0
 11
9485.618915466028
 21
-1857.838547885542
 31
0.0
  0
LINE
  5
35D
330
2
100
AcDbEntity
  8
0
100
AcDbLine
 10
9485.618915466028
 20
-1857.838547885542
 30
0.0
 11
9485.632504710308
 21
-1857.834290116487
 31
0.0
  0
LINE
  5
35E
330
2
100
AcDbEntity
  8
0
100
AcDbLine
 10
9485.632504710308
 20
-1857.834290116487
 30
0.0
 11
9485.646060063873
 21
-1857.829981338953
 31
0.0
  0
LINE
  5
35F
330
2
100
AcDbEntity
  8
0
100
AcDbLine
 10
9485.646060063873
 20
-1857.829981338953
 30
0.0
 11
9485.659581271958
 21
-1857.825621197084
 31
0.0
  0
LINE
  5
360
330
2
100
AcDbEntity
  8
0
100
AcDbLine
 10
9485.659581271958
 20
-1857.825621197084
 30
0.0
 11
9485.673068079814
 21
-1857.821209334997
 31
0.0
  0
LINE
  5
361
330
2
100
AcDbEntity
  8
0
100
AcDbLine
 10
9485.673068079814
 20
-1857.821209334997
 30
0.0
 11
9485.686520232675
 21
-1857.81674539682
 31
0.0
  0
LINE
  5
362
330
2
100
AcDbEntity
  8
0
100
AcDbLine
 10
9485.686520232675
 20
-1857.81674539682
 30
0.0
 11
9485.699937475793
 21
-1857.812229026684
 31
0.0
  0
LINE
  5
363
330
2
100
AcDbEntity
  8
0
100
AcDbLine
 10
9485.699937475793
 20
-1857.812229026684
 30
0.0
 11
9485.713319554404
 21
-1857.807659868718
 31
0.0
  0
LINE
  5
364
330
2
100
AcDbEntity
  8
0
100
AcDbLine
 10
9485.713319554404
 20
-1857.807659868718
 30
0.0
 11
9485.72666621375
 21
-1857.803037567042
 31
0.0
  0
LINE
  5
365
330
2
100
AcDbEntity
  8
0
100
AcDbLine
 10
9485.72666621375
 20
-1857.803037567042
 30
0.0
 11
9485.739977199077
 21
-1857.798361765781
 31
0.0
  0
LINE
  5
366
330
2
100
AcDbEntity
  8
0
100
AcDbLine
 10
9485.739977199077
 20
-1857.798361765781
 30
0.0
 11
9485.753252255623
 21
-1857.793632109074
 31
0.0
  0
LINE
  5
367
330
2
100
AcDbEntity
  8
0
100
AcDbLine
 10
9485.753252255623
 20
-1857.793632109074
 30
0.0
 11
9485.766491128638
 21
-1857.788848241042
 31
0.0
  0
LINE
  5
368
330
2
100
AcDbEntity
  8
0
100
AcDbLine
 10
9485.766491128638
 20
-1857.788848241042
 30
0.0
 11
9485.779693563356
 21
-1857.784009805808
 31
0.0
  0
LINE
  5
369
330
2
100
AcDbEntity
  8
0
100
AcDbLine
 10
9485.779693563356
 20
-1857.784009805808
 30
0.0
 11
9485.792859305027
 21
-1857.779116447505
 31
0.0
  0
LINE
  5
36A
330
2
100
AcDbEntity
  8
0
100
AcDbLine
 10
9485.792859305027
 20
-1857.779116447505
 30
0.0
 11
9485.805988098887
 21
-1857.774167810261
 31
0.0
  0
LINE
  5
36B
330
2
100
AcDbEntity
  8
0
100
AcDbLine
 10
9485.805988098887
 20
-1857.774167810261
 30
0.0
 11
9485.819079690186
 21
-1857.769163538196
 31
0.0
  0
LINE
  5
36C
330
2
100
AcDbEntity
  8
0
100
AcDbLine
 10
9485.819079690186
 20
-1857.769163538196
 30
0.0
 11
9485.83213382416
 21
-1857.764103275439
 31
0.0
  0
LINE
  5
36D
330
2
100
AcDbEntity
  8
0
100
AcDbLine
 10
9485.83213382416
 20
-1857.764103275439
 30
0.0
 11
9485.845150246053
 21
-1857.758986666129
 31
0.0
  0
LINE
  5
36E
330
2
100
AcDbEntity
  8
0
100
AcDbLine
 10
9485.845150246053
 20
-1857.758986666129
 30
0.0
 11
9485.858128701108
 21
-1857.753813354378
 31
0.0
  0
LINE
  5
36F
330
2
100
AcDbEntity
  8
0
100
AcDbLine
 10
9485.858128701108
 20
-1857.753813354378
 30
0.0
 11
9485.871068934564
 21
-1857.748582984317
 31
0.0
  0
LINE
  5
370
330
2
100
AcDbEntity
  8
0
100
AcDbLine
 10
9485.871068934564
 20
-1857.748582984317
 30
0.0
 11
9485.883970691672
 21
-1857.743295200074
 31
0.0
  0
LINE
  5
371
330
2
100
AcDbEntity
  8
0
100
AcDbLine
 10
9485.883970691672
 20
-1857.743295200074
 30
0.0
 11
9485.896833717664
 21
-1857.737949645783
 31
0.0
  0
LINE
  5
372
330
2
100
AcDbEntity
  8
0
100
AcDbLine
 10
9485.896833717664
 20
-1857.737949645783
 30
0.0
 11
9485.909657757794
 21
-1857.732545965562
 31
0.0
  0
LINE
  5
373
330
2
100
AcDbEntity
  8
0
100
AcDbLine
 10
9485.909657757794
 20
-1857.732545965562
 30
0.0
 11
9485.922442557296
 21
-1857.727083803544
 31
0.0
  0
LINE
  5
374
330
2
100
AcDbEntity
  8
0
100
AcDbLine
 10
9485.922442557296
 20
-1857.727083803544
 30
0.0
 11
9485.935187861416
 21
-1857.72156280385
 31
0.0
  0
LINE
  5
375
330
2
100
AcDbEntity
  8
0
100
AcDbLine
 10
9485.935187861416
 20
-1857.72156280385
 30
0.0
 11
9485.947893415396
 21
-1857.715982610614
 31
0.0
  0
LINE
  5
376
330
2
100
AcDbEntity
  8
0
100
AcDbLine
 10
9485.947893415396
 20
-1857.715982610614
 30
0.0
 11
9485.960558964476
 21
-1857.710342867958
 31
0.0
  0
LINE
  5
377
330
2
100
AcDbEntity
  8
0
100
AcDbLine
 10
9485.960558964476
 20
-1857.710342867958
 30
0.0
 11
9485.9731842539
 21
-1857.704643220011
 31
0.0
  0
LINE
  5
378
330
2
100
AcDbEntity
  8
0
100
AcDbLine
 10
9485.9731842539
 20
-1857.704643220011
 30
0.0
 11
9485.985769028912
 21
-1857.698883310899
 31
0.0
  0
LINE
  5
379
330
2
100
AcDbEntity
  8
0
100
AcDbLine
 10
9485.985769028912
 20
-1857.698883310899
 30
0.0
 11
9485.998313034755
 21
-1857.693062784754
 31
0.0
  0
LINE
  5
37A
330
2
100
AcDbEntity
  8
0
100
AcDbLine
 10
9485.998313034755
 20
-1857.693062784754
 30
0.0
 11
9486.010816016667
 21
-1857.687181285699
 31
0.0
  0
LINE
  5
37B
330
2
100
AcDbEntity
  8
0
100
AcDbLine
 10
9486.010816016667
 20
-1857.687181285699
 30
0.0
 11
9486.023277719899
 21
-1857.681238457859
 31
0.0
  0
LINE
  5
37C
330
2
100
AcDbEntity
  8
0
100
AcDbLine
 10
9486.023277719899
 20
-1857.681238457859
 30
0.0
 11
9486.035697889681
 21
-1857.675233945367
 31
0.0
  0
LINE
  5
37D
330
2
100
AcDbEntity
  8
0
100
AcDbLine
 10
9486.035697889681
 20
-1857.675233945367
 30
0.0
 11
9486.048076271265
 21
-1857.669167392342
 31
0.0
  0
LINE
  5
37E
330
2
100
AcDbEntity
  8
0
100
AcDbLine
 10
9486.048076271265
 20
-1857.669167392342
 30
0.0
 11
9486.060412609893
 21
-1857.663038442919
 31
0.0
  0
LINE
  5
37F
330
2
100
AcDbEntity
  8
0
100
AcDbLine
 10
9486.060412609893
 20
-1857.663038442919
 30
0.0
 11
9486.072706650807
 21
-1857.656846741221
 31
0.0
  0
LINE
  5
380
330
2
100
AcDbEntity
  8
0
100
AcDbLine
 10
9486.072706650807
 20
-1857.656846741221
 30
0.0
 11
9486.084958139242
 21
-1857.650591931378
 31
0.0
  0
LINE
  5
381
330
2
100
AcDbEntity
  8
0
100
AcDbLine
 10
9486.084958139242
 20
-1857.650591931378
 30
0.0
 11
9486.097166820451
 21
-1857.644273657519
 31
0.0
  0
LINE
  5
382
330
2
100
AcDbEntity
  8
0
100
AcDbLine
 10
9486.097166820451
 20
-1857.644273657519
 30
0.0
 11
9486.109332439673
 21
-1857.637891563761
 31
0.0
  0
LINE
  5
383
330
2
100
AcDbEntity
  8
0
100
AcDbLine
 10
9486.109332439673
 20
-1857.637891563761
 30
0.0
 11
9486.121454742145
 21
-1857.631445294239
 31
0.0
  0
LINE
  5
384
330
2
100
AcDbEntity
  8
0
100
AcDbLine
 10
9486.121454742145
 20
-1857.631445294239
 30
0.0
 11
9486.133533473118
 21
-1857.624934493084
 31
0.0
  0
LINE
  5
385
330
2
100
AcDbEntity
  8
0
100
AcDbLine
 10
9486.133533473118
 20
-1857.624934493084
 30
0.0
 11
9486.14556837783
 21
-1857.618358804415
 31
0.0
  0
LINE
  5
386
330
2
100
AcDbEntity
  8
0
100
AcDbLine
 10
9486.14556837783
 20
-1857.618358804415
 30
0.0
 11
9486.157559201521
 21
-1857.611717872358
 31
0.0
  0
LINE
  5
387
330
2
100
AcDbEntity
  8
0
100
AcDbLine
 10
9486.157559201521
 20
-1857.611717872358
 30
0.0
 11
9486.16950568944
 21
-1857.605011341053
 31
0.0
  0
LINE
  5
388
330
2
100
AcDbEntity
  8
0
100
AcDbLine
 10
9486.16950568944
 20
-1857.605011341053
 30
0.0
 11
9486.181407586824
 21
-1857.598238854611
 31
0.0
  0
LINE
  5
389
330
2
100
AcDbEntity
  8
0
100
AcDbLine
 10
9486.181407586824
 20
-1857.598238854611
 30
0.0
 11
9486.193264638918
 21
-1857.591400057172
 31
0.0
  0
LINE
  5
38A
330
2
100
AcDbEntity
  8
0
100
AcDbLine
 10
9486.193264638918
 20
-1857.591400057172
 30
0.0
 11
9486.205076590964
 21
-1857.584494592854
 31
0.0
  0
LINE
  5
38B
330
2
100
AcDbEntity
  8
0
100
AcDbLine
 10
9486.205076590964
 20
-1857.584494592854
 30
0.0
 11
9486.216843188206
 21
-1857.577522105788
 31
0.0
  0
LINE
  5
38C
330
2
100
AcDbEntity
  8
0
100
AcDbLine
 10
9486.216843188206
 20
-1857.577522105788
 30
0.0
 11
9486.228564175885
 21
-1857.570482240102
 31
0.0
  0
LINE
  5
38D
330
2
100
AcDbEntity
  8
0
100
AcDbLine
 10
9486.228564175885
 20
-1857.570482240102
 30
0.0
 11
9486.24023929924
 21
-1857.563374639925
 31
0.0
  0
LINE
  5
38E
330
2
100
AcDbEntity
  8
0
100
AcDbLine
 10
9486.24023929924
 20
-1857.563374639925
 30
0.0
 11
9486.251868303522
 21
-1857.55619894938
 31
0.0
  0
LINE
  5
38F
330
2
100
AcDbEntity
  8
0
100
AcDbLine
 10
9486.251868303522
 20
-1857.55619894938
 30
0.0
 11
9486.263450933964
 21
-1857.548954812591
 31
0.0
  0
LINE
  5
390
330
2
100
AcDbEntity
  8
0
100
AcDbLine
 10
9486.263450933964
 20
-1857.548954812591
 30
0.0
 11
9486.274986935812
 21
-1857.541641873696
 31
0.0
  0
LINE
  5
391
330
2
100
AcDbEntity
  8
0
100
AcDbLine
 10
9486.274986935812
 20
-1857.541641873696
 30
0.0
 11
9486.28647605431
 21
-1857.534259776814
 31
0.0
  0
LINE
  5
392
330
2
100
AcDbEntity
  8
0
100
AcDbLine
 10
9486.28647605431
 20
-1857.534259776814
 30
0.0
 11
9486.297918034706
 21
-1857.526808166076
 31
0.0
  0
LINE
  5
393
330
2
100
AcDbEntity
  8
0
100
AcDbLine
 10
9486.297918034706
 20
-1857.526808166076
 30
0.0
 11
9486.309312622232
 21
-1857.519286685601
 31
0.0
  0
LINE
  5
394
330
2
100
AcDbEntity
  8
0
100
AcDbLine
 10
9486.309312622232
 20
-1857.519286685601
 30
0.0
 11
9486.320659562137
 21
-1857.511694979526
 31
0.0
  0
LINE
  5
395
330
2
100
AcDbEntity
  8
0
100
AcDbLine
 10
9486.320659562137
 20
-1857.511694979526
 30
0.0
 11
9486.331958599659
 21
-1857.504032691977
 31
0.0
  0
LINE
  5
396
330
2
100
AcDbEntity
  8
0
100
AcDbLine
 10
9486.331958599659
 20
-1857.504032691977
 30
0.0
 11
9486.343209480045
 21
-1857.496299467075
 31
0.0
  0
LINE
  5
397
330
2
100
AcDbEntity
  8
0
100
AcDbLine
 10
9486.343209480045
 20
-1857.496299467075
 30
0.0
 11
9486.354411948536
 21
-1857.48849494895
 31
0.0
  0
LINE
  5
398
330
2
100
AcDbEntity
  8
0
100
AcDbLine
 10
9486.354411948536
 20
-1857.48849494895
 30
0.0
 11
9486.365565750373
 21
-1857.480618781734
 31
0.0
  0
LINE
  5
399
330
2
100
AcDbEntity
  8
0
100
AcDbLine
 10
9486.365565750373
 20
-1857.480618781734
 30
0.0
 11
9486.376670630798
 21
-1857.472670609546
 31
0.0
  0
LINE
  5
39A
330
2
100
AcDbEntity
  8
0
100
AcDbLine
 10
9486.376670630798
 20
-1857.472670609546
 30
0.0
 11
9486.387726335058
 21
-1857.464650076519
 31
0.0
  0
LINE
  5
39B
330
2
100
AcDbEntity
  8
0
100
AcDbLine
 10
9486.387726335058
 20
-1857.464650076519
 30
0.0
 11
9486.398732608391
 21
-1857.456556826779
 31
0.0
  0
LINE
  5
39C
330
2
100
AcDbEntity
  8
0
100
AcDbLine
 10
9486.398732608391
 20
-1857.456556826779
 30
0.0
 11
9486.40968919604
 21
-1857.448390504454
 31
0.0
  0
LINE
  5
39D
330
2
100
AcDbEntity
  8
0
100
AcDbLine
 10
9486.40968919604
 20
-1857.448390504454
 30
0.0
 11
9486.420595843252
 21
-1857.440150753667
 31
0.0
  0
LINE
  5
39E
330
2
100
AcDbEntity
  8
0
100
AcDbLine
 10
9486.420595843252
 20
-1857.440150753667
 30
0.0
 11
9486.431452295262
 21
-1857.431837218544
 31
0.0
  0
LINE
  5
39F
330
2
100
AcDbEntity
  8
0
100
AcDbLine
 10
9486.431452295262
 20
-1857.431837218544
 30
0.0
 11
9486.442258297321
 21
-1857.423449543224
 31
0.0
  0
LINE
  5
3A0
330
2
100
AcDbEntity
  8
0
100
AcDbLine
 10
9486.442258297321
 20
-1857.423449543224
 30
0.0
 11
9486.453013594662
 21
-1857.41498737182
 31
0.0
  0
LINE
  5
3A1
330
2
100
AcDbEntity
  8
0
100
AcDbLine
 10
9486.453013594662
 20
-1857.41498737182
 30
0.0
 11
9486.463717932535
 21
-1857.406450348469
 31
0.0
  0
LINE
  5
3A2
330
2
100
AcDbEntity
  8
0
100
AcDbLine
 10
9486.463717932535
 20
-1857.406450348469
 30
0.0
 11
9486.47437105618
 21
-1857.397838117293
 31
0.0
  0
LINE
  5
3A3
330
2
100
AcDbEntity
  8
0
100
AcDbLine
 10
9486.47437105618
 20
-1857.397838117293
 30
0.0
 11
9486.484972710838
 21
-1857.389150322418
 31
0.0
  0
LINE
  5
3A4
330
2
100
AcDbEntity
  8
0
100
AcDbLine
 10
9486.484972710838
 20
-1857.389150322418
 30
0.0
 11
9486.495522641757
 21
-1857.380386607976
 31
0.0
  0
LINE
  5
3A5
330
2
100
AcDbEntity
  8
0
100
AcDbLine
 10
9486.495522641757
 20
-1857.380386607976
 30
0.0
 11
9486.506020594172
 21
-1857.371546618094
 31
0.0
  0
LINE
  5
3A6
330
2
100
AcDbEntity
  8
0
100
AcDbLine
 10
9486.506020594172
 20
-1857.371546618094
 30
0.0
 11
9486.516466313332
 21
-1857.362629996893
 31
0.0
  0
LINE
  5
3A7
330
2
100
AcDbEntity
  8
0
100
AcDbLine
 10
9486.516466313332
 20
-1857.362629996893
 30
0.0
 11
9486.526859544472
 21
-1857.353636388507
 31
0.0
  0
LINE
  5
3A8
330
2
100
AcDbEntity
  8
0
100
AcDbLine
 10
9486.526859544472
 20
-1857.353636388507
 30
0.0
 11
9486.537200032842
 21
-1857.344565437059
 31
0.0
  0
LINE
  5
3A9
330
2
100
AcDbEntity
  8
0
100
AcDbLine
 10
9486.537200032842
 20
-1857.344565437059
 30
0.0
 11
9486.547487523679
 21
-1857.335416786678
 31
0.0
  0
LINE
  5
3AA
330
2
100
AcDbEntity
  8
0
100
AcDbLine
 10
9486.547487523679
 20
-1857.335416786678
 30
0.0
 11
9486.557721762231
 21
-1857.32619008149
 31
0.0
  0
LINE
  5
3AB
330
2
100
AcDbEntity
  8
0
100
AcDbLine
 10
9486.557721762231
 20
-1857.32619008149
 30
0.0
 11
9486.567902493737
 21
-1857.316884965621
 31
0.0
  0
LINE
  5
3AC
330
2
100
AcDbEntity
  8
0
100
AcDbLine
 10
9486.567902493737
 20
-1857.316884965621
 30
0.0
 11
9486.578029463441
 21
-1857.307501083203
 31
0.0
  0
LINE
  5
3AD
330
2
100
AcDbEntity
  8
0
100
AcDbLine
 10
9486.578029463441
 20
-1857.307501083203
 30
0.0
 11
9486.588102416584
 21
-1857.298038078355
 31
0.0
  0
LINE
  5
3AE
330
2
100
AcDbEntity
  8
0
100
AcDbLine
 10
9486.588102416584
 20
-1857.298038078355
 30
0.0
 11
9486.598121098408
 21
-1857.288495595214
 31
0.0
  0
LINE
  5
3AF
330
2
100
AcDbEntity
  8
0
100
AcDbLine
 10
9486.598121098408
 20
-1857.288495595214
 30
0.0
 11
9486.608085254157
 21
-1857.278873277901
 31
0.0
  0
LINE
  5
3B0
330
2
100
AcDbEntity
  8
0
100
AcDbLine
 10
9486.608085254157
 20
-1857.278873277901
 30
0.0
 11
9486.617994629073
 21
-1857.269170770545
 31
0.0
  0
LINE
  5
3B1
330
2
100
AcDbEntity
  8
0
100
AcDbLine
 10
9486.617994629073
 20
-1857.269170770545
 30
0.0
 11
9486.627848968399
 21
-1857.259387717269
 31
0.0
  0
LINE
  5
3B2
330
2
100
AcDbEntity
  8
0
100
AcDbLine
 10
9486.627848968399
 20
-1857.259387717269
 30
0.0
 11
9486.637648017376
 21
-1857.249523762206
 31
0.0
  0
LINE
  5
3B3
330
2
100
AcDbEntity
  8
0
100
AcDbLine
 10
9486.637648017376
 20
-1857.249523762206
 30
0.0
 11
9486.647391521248
 21
-1857.239578549481
 31
0.0
  0
LINE
  5
3B4
330
2
100
AcDbEntity
  8
0
100
AcDbLine
 10
9486.647391521248
 20
-1857.239578549481
 30
0.0
 11
9486.657079225258
 21
-1857.229551723223
 31
0.0
  0
LINE
  5
3B5
330
2
100
AcDbEntity
  8
0
100
AcDbLine
 10
9486.657079225258
 20
-1857.229551723223
 30
0.0
 11
9486.666710874644
 21
-1857.219442927554
 31
0.0
  0
LINE
  5
3B6
330
2
100
AcDbEntity
  8
0
100
AcDbLine
 10
9486.666710874644
 20
-1857.219442927554
 30
0.0
 11
9486.676286214658
 21
-1857.209251806606
 31
0.0
  0
LINE
  5
3B7
330
2
100
AcDbEntity
  8
0
100
AcDbLine
 10
9486.676286214658
 20
-1857.209251806606
 30
0.0
 11
9486.685804990532
 21
-1857.198978004504
 31
0.0
  0
LINE
  5
3B8
330
2
100
AcDbEntity
  8
0
100
AcDbLine
 10
9486.685804990532
 20
-1857.198978004504
 30
0.0
 11
9486.695266947512
 21
-1857.188621165376
 31
0.0
  0
LINE
  5
3B9
330
2
100
AcDbEntity
  8
0
100
AcDbLine
 10
9486.695266947512
 20
-1857.188621165376
 30
0.0
 11
9486.704671830848
 21
-1857.178180933348
 31
0.0
  0
LINE
  5
3BA
330
2
100
AcDbEntity
  8
0
100
AcDbLine
 10
9486.704671830848
 20
-1857.178180933348
 30
0.0
 11
9486.71401938577
 21
-1857.167656952552
 31
0.0
  0
LINE
  5
3BB
330
2
100
AcDbEntity
  8
0
100
AcDbLine
 10
9486.71401938577
 20
-1857.167656952552
 30
0.0
 11
9486.723309357532
 21
-1857.157048867106
 31
0.0
  0
LINE
  5
3BC
330
2
100
AcDbEntity
  8
0
100
AcDbLine
 10
9486.723309357532
 20
-1857.157048867106
 30
0.0
 11
9486.732541491363
 21
-1857.146356321144
 31
0.0
  0
LINE
  5
3BD
330
2
100
AcDbEntity
  8
0
100
AcDbLine
 10
9486.732541491363
 20
-1857.146356321144
 30
0.0
 11
9486.74171553252
 21
-1857.135578958789
 31
0.0
  0
LINE
  5
3BE
330
2
100
AcDbEntity
  8
0
100
AcDbLine
 10
9486.74171553252
 20
-1857.135578958789
 30
0.0
 11
9486.750831226238
 21
-1857.124716424172
 31
0.0
  0
LINE
  5
3BF
330
2
100
AcDbEntity
  8
0
100
AcDbLine
 10
9486.750831226238
 20
-1857.124716424172
 30
0.0
 11
9486.759888317759
 21
-1857.11376836142
 31
0.0
  0
LINE
  5
3C0
330
2
100
AcDbEntity
  8
0
100
AcDbLine
 10
9486.759888317759
 20
-1857.11376836142
 30
0.0
 11
9486.768886552329
 21
-1857.102734414657
 31
0.0
  0
LINE
  5
3C1
330
2
100
AcDbEntity
  8
0
100
AcDbLine
 10
9486.768886552329
 20
-1857.102734414657
 30
0.0
 11
9486.777825675186
 21
-1857.091614228014
 31
0.0
  0
LINE
  5
3C2
330
2
100
AcDbEntity
  8
0
100
AcDbLine
 10
9486.777825675186
 20
-1857.091614228014
 30
0.0
 11
9486.786705431578
 21
-1857.080407445617
 31
0.0
  0
LINE
  5
3C3
330
2
100
AcDbEntity
  8
0
100
AcDbLine
 10
9486.786705431578
 20
-1857.080407445617
 30
0.0
 11
9486.790049882086
 21
-1857.076125047009
 31
0.0
  0
ENDSEC
  0
SECTION
  2
OBJECTS
  0
DICTIONARY
  5
C
330
0
100
AcDbDictionary
281
     1
  3
ACAD_COLOR
350
38
  3
ACAD_GROUP
350
33
  3
ACAD_LAYOUT
350
18
  3
ACAD_MATERIAL
350
E
  3
ACAD_MLEADERSTYLE
350
3F3
  3
ACAD_MLINESTYLE
350
34
  3
ACAD_PLOTSETTINGS
350
35
  3
ACAD_PLOTSTYLENAME
350
B
  3
ACAD_SCALELIST
350
39
  3
ACAD_TABLESTYLE
350
3A
  3
ACAD_VISUALSTYLE
350
2E
  3
ACDB_RECOMPOSE_DATA
350
3D7
  3
AcDbVariableDictionary
350
3C8
  3
DWGPROPS
350
400
  0
DICTIONARY
  5
2F
330
2B
100
AcDbDictionary
280
     1
281
     1
  0
DICTIONARY
  5
21
330
20
100
AcDbDictionary
280
     1
281
     1
  3
ACAD_LAYERSTATES
360
22
  0
DICTIONARY
  5
8
330
7
100
AcDbDictionary
280
     1
281
     1
  3
ADSK_XREC_LAYER_RECONCILED
360
9
  0
DICTIONARY
  5
3
330
2
100
AcDbDictionary
280
     1
281
     1
  3
ACAD_LAYOUTSELFREF
360
4
  3
ACAD_SORTENTS
360
3C4
  0
DICTIONARY
  5
1B
330
1A
100
AcDbDictionary
280
     1
281
     1
  3
ACAD_LAYOUTSELFREF
360
1C
  0
DICTIONARY
  5
406
330
8E
100
AcDbDictionary
280
     1
281
     1
  3
ACAD_MTEXT_RT
360
407
  0
DICTIONARY
  5
88
330
87
100
AcDbDictionary
280
     1
281
     1
  3
ACAD_DIMASSOC
360
89
  0
DICTIONARY
  5
E2
330
E1
100
AcDbDictionary
280
     1
281
     1
  3
ACAD_DIMASSOC
360
E3
  0
DICTIONARY
  5
102
330
101
100
AcDbDictionary
280
     1
281
     1
  3
ACAD_DIMASSOC
360
103
  0
DICTIONARY
  5
119
330
118
100
AcDbDictionary
280
     1
281
     1
  3
ACAD_DIMASSOC
360
11A
  0
DICTIONARY
  5
129
330
128
100
AcDbDictionary
280
     1
281
     1
  3
ACAD_DIMASSOC
360
12A
  0
DICTIONARY
  5
13F
330
13E
100
AcDbDictionary
280
     1
281
     1
  3
ACAD_DIMASSOC
360
140
  0
DICTIONARY
  5
14E
330
14D
100
AcDbDictionary
280
     1
281
     1
  3
ACAD_DIMASSOC
360
14F
  0
DICTIONARY
  5
3FE
330
183
100
AcDbDictionary
280
     1
281
     1
  3
ACAD_MTEXT_2008_RT
360
3FF
  0
DICTIONARY
  5
38
102
{ACAD_REACTORS
330
C
102
}
330
C
100
AcDbDictionary
281
     1
  0
DICTIONARY
  5
33
102
{ACAD_REACTORS
330
C
102
}
330
C
100
AcDbDictionary
281
     1
  0
DICTIONARY
  5
18
102
{ACAD_REACTORS
330
C
102
}
330
C
100
AcDbDictionary
281
     1
  3
Model
350
17
  3
배치1
350
1F
  0
DICTIONARY
  5
E
102
{ACAD_REACTORS
330
C
102
}
330
C
100
AcDbDictionary
281
     1
  3
ByBlock
350
37
  3
ByLayer
350
36
  3
Global
350
D
  0
DICTIONARY
  5
3F3
102
{ACAD_REACTORS
330
C
102
}
330
C
100
AcDbDictionary
281
     1
  3
Standard
350
3F4
  0
DICTIONARY
  5
34
102
{ACAD_REACTORS
330
C
102
}
330
C
100
AcDbDictionary
281
     1
  3
Standard
350
3B
  0
DICTIONARY
  5
35
102
{ACAD_REACTORS
330
C
102
}
330
C
100
AcDbDictionary
281
     1
  0
ACDBDICTIONARYWDFLT
  5
B
102
{ACAD_REACTORS
330
C
102
}
330
C
100
AcDbDictionary
281
     1
  3
Normal
350
A
100
AcDbDictionaryWithDefault
340
A
  0
DICTIONARY
  5
39
102
{ACAD_REACTORS
330
C
102
}
330
C
100
AcDbDictionary
281
     1
  3
A0
350
43
  3
A1
350
44
  3
A2
350
45
  3
A3
350
46
  3
A4
350
47
  3
A5
350
48
  3
A6
350
49
  3
A7
350
4A
  3
A8
350
4B
  3
A9
350
4C
  3
B0
350
4D
  3
B1
350
4E
  3
B2
350
4F
  3
B3
350
50
  3
B4
350
51
  3
B5
350
52
  3
B6
350
53
  3
B7
350
54
  3
B8
350
55
  3
B9
350
56
  3
C0
350
57
  3
C1
350
58
  3
C2
350
59
  3
C3
350
5A
  3
C4
350
5B
  3
C5
350
5C
  3
C6
350
5D
  3
C7
350
5E
  3
C8
350
5F
  3
C9
350
60
  3
D0
350
61
  3
D1
350
62
  3
D2
350
63
  0
DICTIONARY
  5
3A
102
{ACAD_REACTORS
330
C
102
}
330
C
100
AcDbDictionary
281
     1
  3
Standard
350
3C
  0
DICTIONARY
  5
2E
102
{ACAD_REACTORS
330
C
102
}
330
C
100
AcDbDictionary
281
     1
  3
2dWireframe
350
2D
  3
3D Hidden
350
3EB
  3
3dWireframe
350
3F
  3
Basic
350
3EA
  3
Brighten
350
3EE
  3
ColorChange
350
3F2
  3
Conceptual
350
3EC
  3
Dim
350
3ED
  3
Facepattern
350
3F1
  3
Flat
350
3E6
  3
FlatWithEdges
350
3E7
  3
Gouraud
350
3E8
  3
GouraudWithEdges
350
3E9
  3
Linepattern
350
3F0
  3
Realistic
350
3E
  3
Thicken
350
3EF
  0
XRECORD
  5
3D7
102
{ACAD_REACTORS
330
C
102
}
330
C
100
AcDbXrecord
280
     1
 90
        1
330
3C
330
183
  0
DICTIONARY
  5
3C8
102
{ACAD_REACTORS
330
C
102
}
330
C
100
AcDbDictionary
281
     1
  3
CANNOSCALE
350
3CC
  3
CMLEADERSTYLE
350
3CA
  3
CTABLESTYLE
350
3C9
  3
DIMASSOC
350
3D1
  3
HIDETEXT
350
3D0
  3
INDEXCTL
350
3CF
  3
LIGHTINGUNITS
350
3CD
  3
MSLTSCALE
350
3CB
  3
PSOLHEIGHT
350
3FC
  3
PSOLWIDTH
350
3FB
  3
SORTENTS
350
3CE
  0
XRECORD
  5
400
102
{ACAD_REACTORS
330
C
102
}
330
C
100
AcDbXrecord
280
     1
  1
DWGPROPS COOKIE
  2

  3

  4

  6

  7

  8
김성진
  9

300
=
301
=
302
=
303
=
304
=
305
=
306
=
307
=
308
=
309
=
 40
3.487372777777777
 41
2455638.478663565
 42
2455916.470028565
  1

 90
        0
  0
DICTIONARY
  5
22
102
{ACAD_REACTORS
330
21
102
}
330
21
100
AcDbDictionary
281
     1
  0
XRECORD
  5
9
102
{ACAD_REACTORS
330
8
102
}
330
8
100
AcDbXrecord
280
     1
290
     1
  0
XRECORD
  5
4
102
{ACAD_REACTORS
330
3
102
}
330
3
100
AcDbXrecord
280
     1
340
2
  0
SORTENTSTABLE
  5
3C4
102
{ACAD_REACTORS
330
3
102
}
330
3
100
AcDbSortentsTable
330
2
  0
XRECORD
  5
1C
102
{ACAD_REACTORS
330
1B
102
}
330
1B
100
AcDbXrecord
280
     1
340
1A
  0
XRECORD
  5
407
102
{ACAD_REACTORS
330
406
102
}
330
406
100
AcDbXrecord
280
     1
 40
11034.0
  1
\A1;\U+2205104%%P0.5
  0
DIMASSOC
  5
89
102
{ACAD_REACTORS
330
88
102
}
330
88
100
AcDbDimAssoc
330
87
 90
        2
 70
     0
 71
     0
  1
AcDbOsnapPointRef
 72
     3
331
86
 73
     2
 91
        0
 40
0.0
 10
0.0
 20
0.0
 30
0.0
 75
     0
  0
DIMASSOC
  5
E3
102
{ACAD_REACTORS
330
E2
102
}
330
E2
100
AcDbDimAssoc
330
E1
 90
        2
 70
     0
 71
     0
  1
AcDbOsnapPointRef
 72
     1
331
114
 73
     2
 91
        0
 40
1.0
 10
4865.51451084566
 20
-4051.759302602638
 30
0.0
 75
     0
  0
DIMASSOC
  5
103
102
{ACAD_REACTORS
330
102
102
}
330
102
100
AcDbDimAssoc
330
101
 90
        1
 70
     0
 71
     0
  1
AcDbOsnapPointRef
 72
     1
331
127
 73
     2
 91
        0
 40
1.0
 10
4821.01451084566
 20
-4090.358039944168
 30
0.0
 75
     0
  0
DIMASSOC
  5
11A
102
{ACAD_REACTORS
330
119
102
}
330
119
100
AcDbDimAssoc
330
118
 90
        3
 70
     0
 71
     0
  1
AcDbOsnapPointRef
 72
     1
331
137
 73
     2
 91
        0
 40
1.0
 10
4821.01451084566
 20
-4101.358039944167
 30
0.0
 75
     0
  1
AcDbOsnapPointRef
 72
     1
331
127
 73
     2
 91
        0
 40
1.0
 10
4821.01451084566
 20
-4090.358039944168
 30
0.0
 75
     0
  0
DIMASSOC
  5
12A
102
{ACAD_REACTORS
330
129
102
}
330
129
100
AcDbDimAssoc
330
128
 90
        3
 70
     0
 71
     0
  1
AcDbOsnapPointRef
 72
     1
331
127
 73
     2
 91
        0
 40
1.0
 10
4821.01451084566
 20
-4090.358039944168
 30
0.0
 75
     0
  1
AcDbOsnapPointRef
 72
     1
331
116
 73
     2
 91
        0
 40
1.0
 10
4851.01451084566
 20
-4089.358039944166
 30
0.0
 75
     0
  0
DIMASSOC
  5
140
102
{ACAD_REACTORS
330
13F
102
}
330
13F
100
AcDbDimAssoc
330
13E
 90
        3
 70
     0
 71
     0
  1
AcDbOsnapPointRef
 72
     1
331
137
 73
     2
 91
        0
 40
1.0
 10
4821.01451084566
 20
-4101.358039944167
 30
0.0
 75
     0
  1
AcDbOsnapPointRef
 72
     1
331
116
 73
     2
 91
        0
 40
1.0
 10
4851.01451084566
 20
-4089.358039944166
 30
0.0
 75
     0
  0
DIMASSOC
  5
14F
102
{ACAD_REACTORS
330
14E
102
}
330
14E
100
AcDbDimAssoc
330
14D
 90
        3
 70
     0
 71
     0
  1
AcDbOsnapPointRef
 72
    13
331
15D
 73
     2
 91
        0
 40
0.0
 10
4856.01451084566
 20
-4053.858039944167
 30
0.0
 75
     0
  1
AcDbOsnapPointRef
 72
     1
331
15D
 73
     2
 91
        0
 40
1.0
 10
4856.01451084566
 20
-4136.858039944167
 30
0.0
 75
     0
  0
XRECORD
  5
3FF
102
{ACAD_REACTORS
330
3FE
102
}
330
3FE
100
AcDbXrecord
280
     1
 40
54365.0
  1
\pxql;ELECTRO-MAGNETIC BRAKE\PLEAD WIRE 300mm
  0
LAYOUT
  5
17
102
{ACAD_XDICTIONARY
360
401
102
}
102
{ACAD_REACTORS
330
18
102
}
330
18
100
AcDbPlotSettings
  1

  2
none_device
  4
ISO_A4_(210.00_x_297.00_MM)
  6

 40
7.5
 41
20.0
 42
7.5
 43
20.0
 44
210.0
 45
297.0
 46
11.54999923706054
 47
-13.65000009536743
 48
0.0
 49
0.0
140
0.0
141
0.0
142
1.0
143
8.704084754739808
 70
 11952
 72
     1
 73
     0
 74
     0
  7

 75
     0
147
0.1148885871608098
148
0.0
149
0.0
100
AcDbLayout
  1
Model
 70
     1
 71
     0
 10
0.0
 20
0.0
 11
12.0
 21
9.0
 12
0.0
 22
0.0
 32
0.0
 14
0.0
 24
0.0
 34
0.0
 15
0.0
 25
0.0
 35
0.0
146
0.0
 13
0.0
 23
0.0
 33
0.0
 16
1.0
 26
0.0
 36
0.0
 17
0.0
 27
1.0
 37
0.0
 76
     0
330
2
331
2C
1001
ACAD_PSEXT
1000
None
1000
None
1000
Not applicable
1000
The layout will not be plotted unless a new plotter configuration name is selected.
1070
     0
  0
LAYOUT
  5
1F
102
{ACAD_XDICTIONARY
360
403
102
}
102
{ACAD_REACTORS
330
18
102
}
330
18
100
AcDbPlotSettings
  1

  2
C:\Documents and Settings\basas\Application Data\Autodesk\AutoCAD 2005\R16.1\enu\plotters\Default Windows System Printer.pc3
  4

  6

 40
0.0
 41
0.0
 42
0.0
 43
0.0
 44
0.0
 45
0.0
 46
0.0
 47
0.0
 48
0.0
 49
0.0
140
0.0
141
0.0
142
1.0
143
1.0
 70
   688
 72
     0
 73
     0
 74
     5
  7

 75
    16
147
1.0
148
0.0
149
0.0
100
AcDbLayout
  1
배치1
 70
     1
 71
     1
 10
0.0
 20
0.0
 11
12.0
 21
9.0
 12
0.0
 22
0.0
 32
0.0
 14
0.0
 24
0.0
 34
0.0
 15
0.0
 25
0.0
 35
0.0
146
0.0
 13
0.0
 23
0.0
 33
0.0
 16
1.0
 26
0.0
 36
0.0
 17
0.0
 27
1.0
 37
0.0
 76
     0
330
1A
  0
MATERIAL
  5
37
102
{ACAD_XDICTIONARY
360
3DF
102
}
102
{ACAD_REACTORS
330
E
102
}
330
E
100
AcDbMaterial
  1
ByBlock
  0
MATERIAL
  5
36
102
{ACAD_XDICTIONARY
360
3DD
102
}
102
{ACAD_REACTORS
330
E
102
}
330
E
100
AcDbMaterial
  1
ByLayer
  0
MATERIAL
  5
D
102
{ACAD_XDICTIONARY
360
F
102
}
102
{ACAD_REACTORS
330
E
102
}
330
E
100
AcDbMaterial
  1
Global
 43
0.0007999999797903
 43
0.0
 43
0.0
 43
0.0
 43
0.0
 43
0.0007999999797903
 43
0.0
 43
0.0
 43
0.0
 43
0.0
 43
1.0
 43
0.0
 43
0.0
 43
0.0
 43
0.0
 43
1.0
 49
0.0007999999797903
 49
0.0
 49
0.0
 49
0.0
 49
0.0
 49
0.0007999999797903
 49
0.0
 49
0.0
 49
0.0
 49
0.0
 49
1.0
 49
0.0
 49
0.0
 49
0.0
 49
0.0
 49
1.0
142
0.0007999999797903
142
0.0
142
0.0
142
0.0
142
0.0
142
0.0007999999797903
142
0.0
142
0.0
142
0.0
142
0.0
142
1.0
142
0.0
142
0.0
142
0.0
142
0.0
142
1.0
144
0.0007999999797903
144
0.0
144
0.0
144
0.0
144
0.0
144
0.0007999999797903
144
0.0
144
0.0
144
0.0
144
0.0
144
1.0
144
0.0
144
0.0
144
0.0
144
0.0
144
1.0
1001
ACAD
1070
    -1
1070
     3
1070
     0
1000

1071
        0
1070
     0
  0
MLEADERSTYLE
  5
3F4
102
{ACAD_REACTORS
330
3F3
102
}
330
3F3
100
AcDbMLeaderStyle
170
     2
171
     1
172
     0
 90
        2
 40
0.0
 41
0.0
173
     1
 91
-1056964608
340
27
 92
       -2
290
     1
 42
2.0
291
     1
 43
0.36
  3
Standard
 44
4.0
300

342
24
174
     1
178
     6
175
     1
176
     0
 93
-1056964608
 45
4.0
292
     0
297
     0
 46
4.0
 94
-1056964608
 47
1.0
 49
1.0
140
1.0
293
     1
141
0.0
294
     1
177
     0
142
1.0
295
     0
296
     0
143
0.125
1001
ACAD_MLEADERVER
1070
     2
  0
MLINESTYLE
  5
3B
102
{ACAD_REACTORS
330
34
102
}
330
34
100
AcDbMlineStyle
  2
STANDARD
 70
     0
  3

 62
   256
 51
90.0
 52
90.0
 71
     2
 49
0.5
 62
   256
  6
BYLAYER
 49
-0.5
 62
   256
  6
BYLAYER
  0
ACDBPLACEHOLDER
  5
A
102
{ACAD_REACTORS
330
B
102
}
330
B
  0
SCALE
  5
43
102
{ACAD_REACTORS
330
39
102
}
330
39
100
AcDbScale
 70
     0
300
1:1
140
1.0
141
1.0
290
     1
  0
SCALE
  5
44
102
{ACAD_REACTORS
330
39
102
}
330
39
100
AcDbScale
 70
     0
300
1:2
140
1.0
141
2.0
290
     0
  0
SCALE
  5
45
102
{ACAD_REACTORS
330
39
102
}
330
39
100
AcDbScale
 70
     0
300
1:4
140
1.0
141
4.0
290
     0
  0
SCALE
  5
46
102
{ACAD_REACTORS
330
39
102
}
330
39
100
AcDbScale
 70
     0
300
1:5
140
1.0
141
5.0
290
     0
  0
SCALE
  5
47
102
{ACAD_REACTORS
330
39
102
}
330
39
100
AcDbScale
 70
     0
300
1:8
140
1.0
141
8.0
290
     0
  0
SCALE
  5
48
102
{ACAD_REACTORS
330
39
102
}
330
39
100
AcDbScale
 70
     0
300
1:10
140
1.0
141
10.0
290
     0
  0
SCALE
  5
49
102
{ACAD_REACTORS
330
39
102
}
330
39
100
AcDbScale
 70
     0
300
1:16
140
1.0
141
16.0
290
     0
  0
SCALE
  5
4A
102
{ACAD_REACTORS
330
39
102
}
330
39
100
AcDbScale
 70
     0
300
1:20
140
1.0
141
20.0
290
     0
  0
SCALE
  5
4B
102
{ACAD_REACTORS
330
39
102
}
330
39
100
AcDbScale
 70
     0
300
1:30
140
1.0
141
30.0
290
     0
  0
SCALE
  5
4C
102
{ACAD_REACTORS
330
39
102
}
330
39
100
AcDbScale
 70
     0
300
1:40
140
1.0
141
40.0
290
     0
  0
SCALE
  5
4D
102
{ACAD_REACTORS
330
39
102
}
330
39
100
AcDbScale
 70
     0
300
1:50
140
1.0
141
50.0
290
     0
  0
SCALE
  5
4E
102
{ACAD_REACTORS
330
39
102
}
330
39
100
AcDbScale
 70
     0
300
1:100
140
1.0
141
100.0
290
     0
  0
SCALE
  5
4F
102
{ACAD_REACTORS
330
39
102
}
330
39
100
AcDbScale
 70
     0
300
2:1
140
2.0
141
1.0
290
     0
  0
SCALE
  5
50
102
{ACAD_REACTORS
330
39
102
}
330
39
100
AcDbScale
 70
     0
300
4:1
140
4.0
141
1.0
290
     0
  0
SCALE
  5
51
102
{ACAD_REACTORS
330
39
102
}
330
39
100
AcDbScale
 70
     0
300
8:1
140
8.0
141
1.0
290
     0
  0
SCALE
  5
52
102
{ACAD_REACTORS
330
39
102
}
330
39
100
AcDbScale
 70
     0
300
10:1
140
10.0
141
1.0
290
     0
  0
SCALE
  5
53
102
{ACAD_REACTORS
330
39
102
}
330
39
100
AcDbScale
 70
     0
300
100:1
140
100.0
141
1.0
290
     0
  0
SCALE
  5
54
102
{ACAD_REACTORS
330
39
102
}
330
39
100
AcDbScale
 70
     0
300
1/128" = 1'-0"
140
0.0078125
141
12.0
290
     0
  0
SCALE
  5
55
102
{ACAD_REACTORS
330
39
102
}
330
39
100
AcDbScale
 70
     0
300
1/64" = 1'-0"
140
0.015625
141
12.0
290
     0
  0
SCALE
  5
56
102
{ACAD_REACTORS
330
39
102
}
330
39
100
AcDbScale
 70
     0
300
1/32" = 1'-0"
140
0.03125
141
12.0
290
     0
  0
SCALE
  5
57
102
{ACAD_REACTORS
330
39
102
}
330
39
100
AcDbScale
 70
     0
300
1/16" = 1'-0"
140
0.0625
141
12.0
290
     0
  0
SCALE
  5
58
102
{ACAD_REACTORS
330
39
102
}
330
39
100
AcDbScale
 70
     0
300
3/32" = 1'-0"
140
0.09375
141
12.0
290
     0
  0
SCALE
  5
59
102
{ACAD_REACTORS
330
39
102
}
330
39
100
AcDbScale
 70
     0
300
1/8" = 1'-0"
140
0.125
141
12.0
290
     0
  0
SCALE
  5
5A
102
{ACAD_REACTORS
330
39
102
}
330
39
100
AcDbScale
 70
     0
300
3/16" = 1'-0"
140
0.1875
141
12.0
290
     0
  0
SCALE
  5
5B
102
{ACAD_REACTORS
330
39
102
}
330
39
100
AcDbScale
 70
     0
300
1/4" = 1'-0"
140
0.25
141
12.0
290
     0
  0
SCALE
  5
5C
102
{ACAD_REACTORS
330
39
102
}
330
39
100
AcDbScale
 70
     0
300
3/8" = 1'-0"
140
0.375
141
12.0
290
     0
  0
SCALE
  5
5D
102
{ACAD_REACTORS
330
39
102
}
330
39
100
AcDbScale
 70
     0
300
1/2" = 1'-0"
140
0.5
141
12.0
290
     0
  0
SCALE
  5
5E
102
{ACAD_REACTORS
330
39
102
}
330
39
100
AcDbScale
 70
     0
300
3/4" = 1'-0"
140
0.75
141
12.0
290
     0
  0
SCALE
  5
5F
102
{ACAD_REACTORS
330
39
102
}
330
39
100
AcDbScale
 70
     0
300
1" = 1'-0"
140
1.0
141
12.0
290
     0
  0
SCALE
  5
60
102
{ACAD_REACTORS
330
39
102
}
330
39
100
AcDbScale
 70
     0
300
1-1/2" = 1'-0"
140
1.5
141
12.0
290
     0
  0
SCALE
  5
61
102
{ACAD_REACTORS
330
39
102
}
330
39
100
AcDbScale
 70
     0
300
3" = 1'-0"
140
3.0
141
12.0
290
     0
  0
SCALE
  5
62
102
{ACAD_REACTORS
330
39
102
}
330
39
100
AcDbScale
 70
     0
300
6" = 1'-0"
140
6.0
141
12.0
290
     0
  0
SCALE
  5
63
102
{ACAD_REACTORS
330
39
102
}
330
39
100
AcDbScale
 70
     0
300
1'-0" = 1'-0"
140
12.0
141
12.0
290
     0
  0
TABLESTYLE
  5
3C
102
{ACAD_XDICTIONARY
360
3D
102
}
102
{ACAD_REACTORS
330
3A
102
}
330
3A
100
AcDbTableStyle
  3
Standard
 70
     0
 71
     0
 40
1.5
 41
1.5
280
     0
281
     0
  7
Standard
140
4.5
170
     2
 62
     0
 63
     7
283
     0
274
    -2
284
     1
 64
     0
275
    -2
285
     1
 65
     0
276
    -2
286
     1
 66
     0
277
    -2
287
     1
 67
     0
278
    -2
288
     1
 68
     0
279
    -2
289
     1
 69
     0
  7
Standard
140
6.0
170
     5
 62
     0
 63
     7
283
     0
274
    -2
284
     1
 64
     0
275
    -2
285
     1
 65
     0
276
    -2
286
     1
 66
     0
277
    -2
287
     1
 67
     0
278
    -2
288
     1
 68
     0
279
    -2
289
     1
 69
     0
  7
Standard
140
4.5
170
     5
 62
     0
 63
     7
283
     0
274
    -2
284
     1
 64
     0
275
    -2
285
     1
 65
     0
276
    -2
286
     1
 66
     0
277
    -2
287
     1
 67
     0
278
    -2
288
     1
 68
     0
279
    -2
289
     1
 69
     0
  0
VISUALSTYLE
  5
2D
102
{ACAD_REACTORS
330
2E
102
}
330
2E
100
AcDbVisualStyle
  2
2dWireframe
 70
     4
 71
     0
 72
     2
 73
     1
 90
        0
 40
-0.6
 41
-30.0
 62
     5
 63
     7
 74
     1
 91
        4
 64
     7
 65
   257
 75
     1
175
     1
 42
1.0
 92
        0
 66
   257
 43
1.0
 76
     1
 77
     6
 78
     2
 67
     7
 79
     5
170
     0
171
     0
290
     0
174
     0
 93
        1
 44
0.0
173
     0
291
     0
 45
0.0
1001
ACAD
1000
AcDbSavedByObjectVersion
1070
     0
1000
AcDbSavedByObjectVersion
1070
     0
  0
VISUALSTYLE
  5
3EB
102
{ACAD_REACTORS
330
2E
102
}
330
2E
100
AcDbVisualStyle
  2
3D Hidden
 70
     6
 71
     1
 72
     2
 73
     2
 90
        0
 40
-0.6
 41
-30.0
 62
     5
 63
     7
 74
     2
 91
        2
 64
     7
 65
   257
 75
     2
175
     1
 42
40.0
 92
        0
 66
   257
 43
1.0
 76
     1
 77
     6
 78
     2
 67
     7
 79
     3
170
     0
171
     0
290
     0
174
     0
 93
        1
 44
0.0
173
     0
291
     0
 45
0.0
1001
ACAD
1000
AcDbSavedByObjectVersion
1070
     0
  0
VISUALSTYLE
  5
3F
102
{ACAD_REACTORS
330
2E
102
}
330
2E
100
AcDbVisualStyle
  2
3dWireframe
 70
     5
 71
     0
 72
     2
 73
     1
 90
        0
 40
-0.6
 41
-30.0
 62
     5
 63
     7
 74
     1
 91
        4
 64
     7
 65
   257
 75
     1
175
     1
 42
1.0
 92
        0
 66
   257
 43
1.0
 76
     1
 77
     6
 78
     2
 67
     7
 79
     5
170
     0
171
     0
290
     0
174
     0
 93
        1
 44
0.0
173
     0
291
     0
 45
0.0
1001
ACAD
1000
AcDbSavedByObjectVersion
1070
     0
1000
AcDbSavedByObjectVersion
1070
     0
  0
VISUALSTYLE
  5
3EA
102
{ACAD_REACTORS
330
2E
102
}
330
2E
100
AcDbVisualStyle
  2
Basic
 70
     7
 71
     1
 72
     0
 73
     1
 90
        0
 40
-0.6
 41
-30.0
 62
     5
 63
     7
 74
     0
 91
        4
 64
     7
 65
   257
 75
     1
175
     1
 42
1.0
 92
        8
 66
     7
 43
1.0
 76
     1
 77
     6
 78
     2
 67
     7
 79
     5
170
     0
171
     0
290
     0
174
     0
 93
        1
 44
0.0
173
     0
291
     1
 45
0.0
1001
ACAD
1000
AcDbSavedByObjectVersion
1070
     0
  0
VISUALSTYLE
  5
3EE
102
{ACAD_REACTORS
330
2E
102
}
330
2E
100
AcDbVisualStyle
  2
Brighten
 70
    12
 71
     2
 72
     2
 73
     0
 90
        0
 40
-0.6
 41
-30.0
 62
     5
 63
     7
 74
     1
 91
        4
 64
     7
 65
   257
 75
     1
175
     1
 42
1.0
 92
        8
 66
     7
 43
1.0
 76
     1
 77
     6
 78
     2
 67
     7
 79
     5
170
     0
171
     0
290
     0
174
     0
 93
        1
 44
50.0
173
     0
291
     1
 45
0.0
1001
ACAD
1000
AcDbSavedByObjectVersion
1070
     0
  0
VISUALSTYLE
  5
3F2
102
{ACAD_REACTORS
330
2E
102
}
330
2E
100
AcDbVisualStyle
  2
ColorChange
 70
    16
 71
     2
 72
     2
 73
     3
 90
        0
 40
-0.6
 41
-30.0
 62
     5
 63
     8
 74
     1
 91
        4
 64
     7
 65
   257
 75
     1
175
     1
 42
1.0
 92
        8
 66
     8
 43
1.0
 76
     1
 77
     6
 78
     2
 67
     7
 79
     5
170
     0
171
     0
290
     0
174
     0
 93
        1
 44
0.0
173
     0
291
     1
 45
0.0
1001
ACAD
1000
AcDbSavedByObjectVersion
1070
     0
  0
VISUALSTYLE
  5
3EC
102
{ACAD_REACTORS
330
2E
102
}
330
2E
100
AcDbVisualStyle
  2
Conceptual
 70
     9
 71
     3
 72
     2
 73
     0
 90
        0
 40
-0.6
 41
-30.0
 62
     5
 63
     7
 74
     2
 91
        2
 64
     7
 65
   257
 75
     1
175
     1
 42
40.0
 92
        8
 66
     7
 43
1.0
 76
     1
 77
     6
 78
     2
 67
     7
 79
     3
170
     0
171
     0
290
     0
174
     0
 93
        1
 44
0.0
173
     0
291
     0
 45
0.0
1001
ACAD
1000
AcDbSavedByObjectVersion
1070
     0
  0
VISUALSTYLE
  5
3ED
102
{ACAD_REACTORS
330
2E
102
}
330
2E
100
AcDbVisualStyle
  2
Dim
 70
    11
 71
     2
 72
     2
 73
     0
 90
        0
 40
-0.6
 41
-30.0
 62
     5
 63
     7
 74
     1
 91
        4
 64
     7
 65
   257
 75
     1
175
     1
 42
1.0
 92
        8
 66
     7
 43
1.0
 76
     1
 77
     6
 78
     2
 67
     7
 79
     5
170
     0
171
     0
290
     0
174
     0
 93
        1
 44
-50.0
173
     0
291
     1
 45
0.0
1001
ACAD
1000
AcDbSavedByObjectVersion
1070
     0
  0
VISUALSTYLE
  5
3F1
102
{ACAD_REACTORS
330
2E
102
}
330
2E
100
AcDbVisualStyle
  2
Facepattern
 70
    15
 71
     2
 72
     2
 73
     0
 90
        0
 40
-0.6
 41
-30.0
 62
     5
 63
     7
 74
     1
 91
        4
 64
     7
 65
   257
 75
     1
175
     1
 42
1.0
 92
        8
 66
     7
 43
1.0
 76
     1
 77
     6
 78
     2
 67
     7
 79
     5
170
     0
171
     0
290
     0
174
     0
 93
        1
 44
0.0
173
     0
291
     1
 45
0.0
1001
ACAD
1000
AcDbSavedByObjectVersion
1070
     0
  0
VISUALSTYLE
  5
3E6
102
{ACAD_REACTORS
330
2E
102
}
330
2E
100
AcDbVisualStyle
  2
Flat
 70
     0
 71
     2
 72
     1
 73
     1
 90
        2
 40
-0.6
 41
30.0
 62
     5
 63
     7
 74
     0
 91
        4
 64
     7
 65
   257
 75
     1
175
     1
 42
1.0
 92
        8
 66
     7
 43
1.0
 76
     1
 77
     6
 78
     2
 67
     7
 79
     5
170
     0
171
     0
290
     0
174
     0
 93
       13
 44
0.0
173
     0
291
     1
 45
0.0
1001
ACAD
1000
AcDbSavedByObjectVersion
1070
     0
  0
VISUALSTYLE
  5
3E7
102
{ACAD_REACTORS
330
2E
102
}
330
2E
100
AcDbVisualStyle
  2
FlatWithEdges
 70
     1
 71
     2
 72
     1
 73
     1
 90
        2
 40
-0.6
 41
30.0
 62
     5
 63
     7
 74
     1
 91
        4
 64
     7
 65
   257
 75
     1
175
     1
 42
1.0
 92
        0
 66
   257
 43
1.0
 76
     1
 77
     6
 78
     2
 67
     7
 79
     5
170
     0
171
     0
290
     0
174
     0
 93
       13
 44
0.0
173
     0
291
     1
 45
0.0
1001
ACAD
1000
AcDbSavedByObjectVersion
1070
     0
  0
VISUALSTYLE
  5
3E8
102
{ACAD_REACTORS
330
2E
102
}
330
2E
100
AcDbVisualStyle
  2
Gouraud
 70
     2
 71
     2
 72
     2
 73
     1
 90
        2
 40
-0.6
 41
30.0
 62
     5
 63
     7
 74
     0
 91
        4
 64
     7
 65
   257
 75
     1
175
     1
 42
1.0
 92
        0
 66
     7
 43
1.0
 76
     1
 77
     6
 78
     2
 67
     7
 79
     5
170
     0
171
     0
290
     0
174
     0
 93
       13
 44
0.0
173
     0
291
     1
 45
0.0
1001
ACAD
1000
AcDbSavedByObjectVersion
1070
     0
  0
VISUALSTYLE
  5
3E9
102
{ACAD_REACTORS
330
2E
102
}
330
2E
100
AcDbVisualStyle
  2
GouraudWithEdges
 70
     3
 71
     2
 72
     2
 73
     1
 90
        2
 40
-0.6
 41
30.0
 62
     5
 63
     7
 74
     1
 91
        4
 64
     7
 65
   257
 75
     1
175
     1
 42
1.0
 92
        0
 66
   257
 43
1.0
 76
     1
 77
     6
 78
     2
 67
     7
 79
     5
170
     0
171
     0
290
     0
174
     0
 93
       13
 44
0.0
173
     0
291
     1
 45
0.0
1001
ACAD
1000
AcDbSavedByObjectVersion
1070
     0
  0
VISUALSTYLE
  5
3F0
102
{ACAD_REACTORS
330
2E
102
}
330
2E
100
AcDbVisualStyle
  2
Linepattern
 70
    14
 71
     2
 72
     2
 73
     0
 90
        0
 40
-0.6
 41
-30.0
 62
     5
 63
     7
 74
     1
 91
        4
 64
     7
 65
   257
 75
     7
175
     7
 42
1.0
 92
        8
 66
     7
 43
1.0
 76
     1
 77
     6
 78
     2
 67
     7
 79
     5
170
     0
171
     0
290
     0
174
     0
 93
        1
 44
0.0
173
     0
291
     1
 45
0.0
1001
ACAD
1000
AcDbSavedByObjectVersion
1070
     0
  0
VISUALSTYLE
  5
3E
102
{ACAD_REACTORS
330
2E
102
}
330
2E
100
AcDbVisualStyle
  2
Realistic
 70
     8
 71
     2
 72
     2
 73
     1
 90
        0
 40
-0.6
 41
-30.0
 62
     5
 63
     7
 74
     1
 91
        0
 64
     7
 65
   257
 75
     1
175
     1
 42
1.0
 92
        8
 66
     8
 43
1.0
 76
     1
 77
     6
 78
     2
 67
     7
 79
     5
170
     0
171
     0
290
     0
174
     0
 93
       13
 44
0.0
173
     0
291
     0
 45
0.0
1001
ACAD
1000
AcDbSavedByObjectVersion
1070
     0
1000
AcDbSavedByObjectVersion
1070
     0
  0
VISUALSTYLE
  5
3EF
102
{ACAD_REACTORS
330
2E
102
}
330
2E
100
AcDbVisualStyle
  2
Thicken
 70
    13
 71
     2
 72
     2
 73
     0
 90
        0
 40
-0.6
 41
-30.0
 62
     5
 63
     7
 74
     1
 91
        4
 64
     7
 65
   257
 75
     1
175
     1
 42
1.0
 92
       12
 66
     7
 43
1.0
 76
     1
 77
     6
 78
     2
 67
     7
 79
     5
170
     0
171
     0
290
     0
174
     0
 93
        1
 44
0.0
173
     0
291
     1
 45
0.0
1001
ACAD
1000
AcDbSavedByObjectVersion
1070
     0
  0
DICTIONARYVAR
  5
3CC
102
{ACAD_REACTORS
330
3C8
102
}
330
3C8
100
DictionaryVariables
280
     0
  1
1:1
  0
DICTIONARYVAR
  5
3CA
102
{ACAD_REACTORS
330
3C8
102
}
330
3C8
100
DictionaryVariables
280
     0
  1
STANDARD
  0
DICTIONARYVAR
  5
3C9
102
{ACAD_REACTORS
330
3C8
102
}
330
3C8
100
DictionaryVariables
280
     0
  1
STANDARD
  0
DICTIONARYVAR
  5
3D1
102
{ACAD_REACTORS
330
3C8
102
}
330
3C8
100
DictionaryVariables
280
     0
  1
2
  0
DICTIONARYVAR
  5
3D0
102
{ACAD_REACTORS
330
3C8
102
}
330
3C8
100
DictionaryVariables
280
     0
  1
1
  0
DICTIONARYVAR
  5
3CF
102
{ACAD_REACTORS
330
3C8
102
}
330
3C8
100
DictionaryVariables
280
     0
  1
0
  0
DICTIONARYVAR
  5
3CD
102
{ACAD_REACTORS
330
3C8
102
}
330
3C8
100
DictionaryVariables
280
     0
  1
2
  0
DICTIONARYVAR
  5
3CB
102
{ACAD_REACTORS
330
3C8
102
}
330
3C8
100
DictionaryVariables
280
     0
  1
1
  0
DICTIONARYVAR
  5
3FC
102
{ACAD_REACTORS
330
3C8
102
}
330
3C8
100
DictionaryVariables
280
     0
  1
80.000000
  0
DICTIONARYVAR
  5
3FB
102
{ACAD_REACTORS
330
3C8
102
}
330
3C8
100
DictionaryVariables
280
     0
  1
5.000000
  0
DICTIONARYVAR
  5
3CE
102
{ACAD_REACTORS
330
3C8
102
}
330
3C8
100
DictionaryVariables
280
     0
  1
127
  0
DICTIONARY
  5
401
330
17
100
AcDbDictionary
280
     1
281
     1
  3
ACAD_XREC_ROUNDTRIP
360
402
  0
DICTIONARY
  5
403
330
1F
100
AcDbDictionary
280
     1
281
     1
  3
ACAD_XREC_ROUNDTRIP
360
404
  0
DICTIONARY
  5
3DF
330
37
100
AcDbDictionary
280
     1
281
     1
  3
ACAD_XREC_ROUNDTRIP
360
3E0
  0
DICTIONARY
  5
3DD
330
36
100
AcDbDictionary
280
     1
281
     1
  3
ACAD_XREC_ROUNDTRIP
360
3DE
  0
DICTIONARY
  5
F
330
D
100
AcDbDictionary
280
     1
281
     1
  3
ACAD_XREC_ROUNDTRIP
360
3D8
  3
BUMPTILE
360
10
  3
DIFFUSETILE
360
11
  3
OPACITYTILE
360
12
  3
REFLECTIONTILE
360
13
  0
DICTIONARY
  5
3D
330
3C
100
AcDbDictionary
280
     1
281
     1
  3
ACAD_ROUNDTRIP_2008_TABLESTYLE_CELLSTYLEMAP
360
3FD
  3
ACAD_XREC_ROUNDTRIP
360
405
  0
XRECORD
  5
402
102
{ACAD_REACTORS
330
401
102
}
330
401
100
AcDbXrecord
280
     1
102
SHADEPLOT
 70
     0
102
SHADEPLOTRESLEVEL
 70
     2
102
SHADEPLOTCUSTOMDPI
 70
   300
  0
XRECORD
  5
404
102
{ACAD_REACTORS
330
403
102
}
330
403
100
AcDbXrecord
280
     1
102
SHADEPLOT
 70
     0
102
SHADEPLOTRESLEVEL
 70
     2
102
SHADEPLOTCUSTOMDPI
 70
   300
  0
XRECORD
  5
3E0
102
{ACAD_REACTORS
330
3DF
102
}
330
3DF
100
AcDbXrecord
280
     1
102
MATERIAL
148
0.0
149
0.0
149
0.0
 93
        0
 94
      127
282
     0
 72
     1
 77
     1
171
     1
175
     1
179
     1
273
     0
  0
XRECORD
  5
3DE
102
{ACAD_REACTORS
330
3DD
102
}
330
3DD
100
AcDbXrecord
280
     1
102
MATERIAL
148
0.0
149
0.0
149
0.0
 93
        0
 94
      127
282
     0
 72
     1
 77
     1
171
     1
175
     1
179
     1
273
     0
  0
XRECORD
  5
3D8
102
{ACAD_REACTORS
330
F
102
}
330
F
100
AcDbXrecord
280
     1
102
MATERIAL
148
0.0
149
0.0
149
0.0
 93
        0
 94
      127
282
     0
 72
     1
 77
     1
171
     1
175
     1
179
     1
273
     0
  0
XRECORD
  5
10
102
{ACAD_REACTORS
330
F
102
}
330
F
100
AcDbXrecord
280
     1
270
     1
271
     1
  0
XRECORD
  5
11
102
{ACAD_REACTORS
330
F
102
}
330
F
100
AcDbXrecord
280
     1
270
     1
271
     1
  0
XRECORD
  5
12
102
{ACAD_REACTORS
330
F
102
}
330
F
100
AcDbXrecord
280
     1
270
     1
271
     1
  0
XRECORD
  5
13
102
{ACAD_REACTORS
330
F
102
}
330
F
100
AcDbXrecord
280
     1
270
     1
271
     1
  0
CELLSTYLEMAP
  5
3FD
102
{ACAD_REACTORS
330
3D
102
}
330
3D
100
AcDbCellStyleMap
 90
        3
300
CELLSTYLE
  1
TABLEFORMAT_BEGIN
 90
        5
170
     1
 91
        0
 92
    32768
 62
   257
 93
        1
300
CONTENTFORMAT
  1
CONTENTFORMAT_BEGIN
 90
        0
 91
        0
 92
      512
 93
        0
300

 40
0.0
140
1.0
 94
        5
 62
     0
340
24
144
6.0
309
CONTENTFORMAT_END
171
     1
301
MARGIN
  1
CELLMARGIN_BEGIN
 40
1.5
 40
1.5
 40
1.5
 40
1.5
 40
0.18
 40
0.18
309
CELLMARGIN_END
 94
        6
 95
        1
302
GRIDFORMAT
  1
GRIDFORMAT_BEGIN
 90
        0
 91
        1
 62
     0
 92
       -2
340
27
 93
        0
 40
1.125
309
GRIDFORMAT_END
 95
        2
302
GRIDFORMAT
  1
GRIDFORMAT_BEGIN
 90
        0
 91
        1
 62
     0
 92
       -2
340
27
 93
        0
 40
1.125
309
GRIDFORMAT_END
 95
        4
302
GRIDFORMAT
  1
GRIDFORMAT_BEGIN
 90
        0
 91
        1
 62
     0
 92
       -2
340
27
 93
        0
 40
1.125
309
GRIDFORMAT_END
 95
        8
302
GRIDFORMAT
  1
GRIDFORMAT_BEGIN
 90
        0
 91
        1
 62
     0
 92
       -2
340
27
 93
        0
 40
1.125
309
GRIDFORMAT_END
 95
       16
302
GRIDFORMAT
  1
GRIDFORMAT_BEGIN
 90
        0
 91
        1
 62
     0
 92
       -2
340
27
 93
        0
 40
1.125
309
GRIDFORMAT_END
 95
       32
302
GRIDFORMAT
  1
GRIDFORMAT_BEGIN
 90
        0
 91
        1
 62
     0
 92
       -2
340
27
 93
        0
 40
1.125
309
GRIDFORMAT_END
309
TABLEFORMAT_END
  1
CELLSTYLE_BEGIN
 90
        1
 91
        1
300
_TITLE
309
CELLSTYLE_END
300
CELLSTYLE
  1
TABLEFORMAT_BEGIN
 90
        5
170
     1
 91
        0
 92
        0
 62
   257
 93
        1
300
CONTENTFORMAT
  1
CONTENTFORMAT_BEGIN
 90
        0
 91
        0
 92
      512
 93
        0
300

 40
0.0
140
1.0
 94
        5
 62
     0
340
24
144
4.5
309
CONTENTFORMAT_END
171
     1
301
MARGIN
  1
CELLMARGIN_BEGIN
 40
1.5
 40
1.5
 40
1.5
 40
1.5
 40
0.18
 40
0.18
309
CELLMARGIN_END
 94
        6
 95
        1
302
GRIDFORMAT
  1
GRIDFORMAT_BEGIN
 90
        0
 91
        1
 62
     0
 92
       -2
340
27
 93
        0
 40
1.125
309
GRIDFORMAT_END
 95
        2
302
GRIDFORMAT
  1
GRIDFORMAT_BEGIN
 90
        0
 91
        1
 62
     0
 92
       -2
340
27
 93
        0
 40
1.125
309
GRIDFORMAT_END
 95
        4
302
GRIDFORMAT
  1
GRIDFORMAT_BEGIN
 90
        0
 91
        1
 62
     0
 92
       -2
340
27
 93
        0
 40
1.125
309
GRIDFORMAT_END
 95
        8
302
GRIDFORMAT
  1
GRIDFORMAT_BEGIN
 90
        0
 91
        1
 62
     0
 92
       -2
340
27
 93
        0
 40
1.125
309
GRIDFORMAT_END
 95
       16
302
GRIDFORMAT
  1
GRIDFORMAT_BEGIN
 90
        0
 91
        1
 62
     0
 92
       -2
340
27
 93
        0
 40
1.125
309
GRIDFORMAT_END
 95
       32
302
GRIDFORMAT
  1
GRIDFORMAT_BEGIN
 90
        0
 91
        1
 62
     0
 92
       -2
340
27
 93
        0
 40
1.125
309
GRIDFORMAT_END
309
TABLEFORMAT_END
  1
CELLSTYLE_BEGIN
 90
        2
 91
        1
300
_HEADER
309
CELLSTYLE_END
300
CELLSTYLE
  1
TABLEFORMAT_BEGIN
 90
        5
170
     1
 91
        0
 92
        0
 62
   257
 93
        1
300
CONTENTFORMAT
  1
CONTENTFORMAT_BEGIN
 90
        0
 91
        0
 92
      512
 93
        0
300

 40
0.0
140
1.0
 94
        2
 62
     0
340
24
144
4.5
309
CONTENTFORMAT_END
171
     1
301
MARGIN
  1
CELLMARGIN_BEGIN
 40
1.5
 40
1.5
 40
1.5
 40
1.5
 40
0.18
 40
0.18
309
CELLMARGIN_END
 94
        6
 95
        1
302
GRIDFORMAT
  1
GRIDFORMAT_BEGIN
 90
        0
 91
        1
 62
     0
 92
       -2
340
27
 93
        0
 40
1.125
309
GRIDFORMAT_END
 95
        2
302
GRIDFORMAT
  1
GRIDFORMAT_BEGIN
 90
        0
 91
        1
 62
     0
 92
       -2
340
27
 93
        0
 40
1.125
309
GRIDFORMAT_END
 95
        4
302
GRIDFORMAT
  1
GRIDFORMAT_BEGIN
 90
        0
 91
        1
 62
     0
 92
       -2
340
27
 93
        0
 40
1.125
309
GRIDFORMAT_END
 95
        8
302
GRIDFORMAT
  1
GRIDFORMAT_BEGIN
 90
        0
 91
        1
 62
     0
 92
       -2
340
27
 93
        0
 40
1.125
309
GRIDFORMAT_END
 95
       16
302
GRIDFORMAT
  1
GRIDFORMAT_BEGIN
 90
        0
 91
        1
 62
     0
 92
       -2
340
27
 93
        0
 40
1.125
309
GRIDFORMAT_END
 95
       32
302
GRIDFORMAT
  1
GRIDFORMAT_BEGIN
 90
        0
 91
        1
 62
     0
 92
       -2
340
27
 93
        0
 40
1.125
309
GRIDFORMAT_END
309
TABLEFORMAT_END
  1
CELLSTYLE_BEGIN
 90
        3
 91
        2
300
_DATA
309
CELLSTYLE_END
  0
XRECORD
  5
405
102
{ACAD_REACTORS
330
3D
102
}
330
3D
100
AcDbXrecord
280
     1
102
ACAD_ROUNDTRIP_PRE2007_TABLESTYLE
 90
      512
 91
        0
  1

 92
      512
 93
        0
  2

 94
      512
 95
        0
  3

  0
ENDSEC
  0
EOF
