  0
SECTION
  2
HEADER
  9
$ACADVER
  1
AC1015
  9
$ACADMAINTVER
 70
    20
  9
$DWGCODEPAGE
  3
ANSI_949
  9
$INSBASE
 10
0.0
 20
0.0
 30
0.0
  9
$EXTMIN
 10
9426.788662729203
 20
-1462.614422294544
 30
-0.0000091545749633
  9
$EXTMAX
 10
9833.930228999424
 20
-1267.197540847102
 30
0.0000137332594111
  9
$LIMMIN
 10
0.0
 20
0.0
  9
$LIMMAX
 10
420.0
 20
297.0
  9
$ORTHOMODE
 70
     1
  9
$REGENMODE
 70
     1
  9
$FILLMODE
 70
     1
  9
$QTEXTMODE
 70
     0
  9
$MIRRTEXT
 70
     0
  9
$LTSCALE
 40
1.0
  9
$ATTMODE
 70
     1
  9
$TEXTSIZE
 40
2.5
  9
$TRACEWID
 40
1.0
  9
$TEXTSTYLE
  7
Standard
  9
$CLAYER
  8
0
  9
$CELTYPE
  6
ByLayer
  9
$CECOLOR
 62
   256
  9
$CELTSCALE
 40
1.0
  9
$DISPSILH
 70
     0
  9
$DIMSCALE
 40
1.0
  9
$DIMASZ
 40
4.0
  9
$DIMEXO
 40
1.0
  9
$DIMDLI
 40
10.0
  9
$DIMRND
 40
0.0
  9
$DIMDLE
 40
0.0
  9
$DIMEXE
 40
0.6
  9
$DIMTP
 40
0.0
  9
$DIMTM
 40
0.0
  9
$DIMTXT
 40
5.0
  9
$DIMCEN
 40
0.09
  9
$DIMTSZ
 40
0.0
  9
$DIMTOL
 70
     0
  9
$DIMLIM
 70
     0
  9
$DIMTIH
 70
     0
  9
$DIMTOH
 70
     0
  9
$DIMSE1
 70
     0
  9
$DIMSE2
 70
     0
  9
$DIMTAD
 70
     1
  9
$DIMZIN
 70
     8
  9
$DIMBLK
  1

  9
$DIMASO
 70
     1
  9
$DIMSHO
 70
     1
  9
$DIMPOST
  1

  9
$DIMAPOST
  1

  9
$DIMALT
 70
     0
  9
$DIMALTD
 70
     2
  9
$DIMALTF
 40
25.4
  9
$DIMLFAC
 40
1.0
  9
$DIMTOFL
 70
     1
  9
$DIMTVP
 40
0.0
  9
$DIMTIX
 70
     1
  9
$DIMSOXD
 70
     0
  9
$DIMSAH
 70
     0
  9
$DIMBLK1
  1

  9
$DIMBLK2
  1

  9
$DIMSTYLE
  2
STANDARD
  9
$DIMCLRD
 70
   123
  9
$DIMCLRE
 70
   123
  9
$DIMCLRT
 70
     3
  9
$DIMTFAC
 40
1.0
  9
$DIMGAP
 40
1.5
  9
$DIMJUST
 70
     0
  9
$DIMSD1
 70
     0
  9
$DIMSD2
 70
     0
  9
$DIMTOLJ
 70
     1
  9
$DIMTZIN
 70
     0
  9
$DIMALTZ
 70
     0
  9
$DIMALTTZ
 70
     0
  9
$DIMUPT
 70
     1
  9
$DIMDEC
 70
     2
  9
$DIMTDEC
 70
     2
  9
$DIMALTU
 70
     2
  9
$DIMALTTD
 70
     2
  9
$DIMTXSTY
  7
Standard
  9
$DIMAUNIT
 70
     1
  9
$DIMADEC
 70
     1
  9
$DIMALTRND
 40
0.0
  9
$DIMAZIN
 70
     2
  9
$DIMDSEP
 70
    46
  9
$DIMATFIT
 70
     0
  9
$DIMFRAC
 70
     0
  9
$DIMLDRBLK
  1

  9
$DIMLUNIT
 70
     2
  9
$DIMLWD
 70
    -2
  9
$DIMLWE
 70
    -2
  9
$DIMTMOVE
 70
     0
  9
$LUNITS
 70
     2
  9
$LUPREC
 70
     4
  9
$SKETCHINC
 40
1.0
  9
$FILLETRAD
 40
0.0
  9
$AUNITS
 70
     0
  9
$AUPREC
 70
     0
  9
$MENU
  1
.
  9
$ELEVATION
 40
0.0
  9
$PELEVATION
 40
0.0
  9
$THICKNESS
 40
0.0
  9
$LIMCHECK
 70
     0
  9
$CHAMFERA
 40
0.5
  9
$CHAMFERB
 40
0.5
  9
$CHAMFERC
 40
0.0
  9
$CHAMFERD
 40
0.0
  9
$SKPOLY
 70
     0
  9
$TDCREATE
 40
2455638.478663565
  9
$TDUCREATE
 40
2455638.103663565
  9
$TDUPDATE
 40
2455916.469859838
  9
$TDUUPDATE
 40
2455916.094859838
  9
$TDINDWG
 40
3.4866786921
  9
$TDUSRTIMER
 40
3.4866785185
  9
$USRTIMER
 70
     1
  9
$ANGBASE
 50
0.0
  9
$ANGDIR
 70
     0
  9
$PDMODE
 70
     0
  9
$PDSIZE
 40
0.0
  9
$PLINEWID
 40
0.0
  9
$SPLFRAME
 70
     0
  9
$SPLINETYPE
 70
     6
  9
$SPLINESEGS
 70
     8
  9
$HANDSEED
  5
408
  9
$SURFTAB1
 70
     6
  9
$SURFTAB2
 70
     6
  9
$SURFTYPE
 70
     6
  9
$SURFU
 70
     6
  9
$SURFV
 70
     6
  9
$UCSBASE
  2

  9
$UCSNAME
  2

  9
$UCSORG
 10
0.0
 20
0.0
 30
0.0
  9
$UCSXDIR
 10
1.0
 20
0.0
 30
0.0
  9
$UCSYDIR
 10
0.0
 20
1.0
 30
0.0
  9
$UCSORTHOREF
  2

  9
$UCSORTHOVIEW
 70
     0
  9
$UCSORGTOP
 10
0.0
 20
0.0
 30
0.0
  9
$UCSORGBOTTOM
 10
0.0
 20
0.0
 30
0.0
  9
$UCSORGLEFT
 10
0.0
 20
0.0
 30
0.0
  9
$UCSORGRIGHT
 10
0.0
 20
0.0
 30
0.0
  9
$UCSORGFRONT
 10
0.0
 20
0.0
 30
0.0
  9
$UCSORGBACK
 10
0.0
 20
0.0
 30
0.0
  9
$PUCSBASE
  2

  9
$PUCSNAME
  2

  9
$PUCSORG
 10
0.0
 20
0.0
 30
0.0
  9
$PUCSXDIR
 10
1.0
 20
0.0
 30
0.0
  9
$PUCSYDIR
 10
0.0
 20
1.0
 30
0.0
  9
$PUCSORTHOREF
  2

  9
$PUCSORTHOVIEW
 70
     0
  9
$PUCSORGTOP
 10
0.0
 20
0.0
 30
0.0
  9
$PUCSORGBOTTOM
 10
0.0
 20
0.0
 30
0.0
  9
$PUCSORGLEFT
 10
0.0
 20
0.0
 30
0.0
  9
$PUCSORGRIGHT
 10
0.0
 20
0.0
 30
0.0
  9
$PUCSORGFRONT
 10
0.0
 20
0.0
 30
0.0
  9
$PUCSORGBACK
 10
0.0
 20
0.0
 30
0.0
  9
$USERI1
 70
     0
  9
$USERI2
 70
     0
  9
$USERI3
 70
     0
  9
$USERI4
 70
     0
  9
$USERI5
 70
     0
  9
$USERR1
 40
0.0
  9
$USERR2
 40
0.0
  9
$USERR3
 40
0.0
  9
$USERR4
 40
0.0
  9
$USERR5
 40
0.0
  9
$WORLDVIEW
 70
     1
  9
$SHADEDGE
 70
     3
  9
$SHADEDIF
 70
    70
  9
$TILEMODE
 70
     1
  9
$MAXACTVP
 70
    48
  9
$PINSBASE
 10
0.0
 20
0.0
 30
0.0
  9
$PLIMCHECK
 70
     0
  9
$PEXTMIN
 10
0.0
 20
0.0
 30
0.0
  9
$PEXTMAX
 10
0.0
 20
0.0
 30
0.0
  9
$PLIMMIN
 10
0.0
 20
0.0
  9
$PLIMMAX
 10
12.0
 20
9.0
  9
$UNITMODE
 70
     0
  9
$VISRETAIN
 70
     1
  9
$PLINEGEN
 70
     0
  9
$PSLTSCALE
 70
     1
  9
$TREEDEPTH
 70
  3020
  9
$CMLSTYLE
  2
Standard
  9
$CMLJUST
 70
     0
  9
$CMLSCALE
 40
20.0
  9
$PROXYGRAPHICS
 70
     1
  9
$MEASUREMENT
 70
     1
  9
$CELWEIGHT
370
    -1
  9
$ENDCAPS
280
     0
  9
$JOINSTYLE
280
     0
  9
$LWDISPLAY
290
     0
  9
$INSUNITS
 70
     4
  9
$HYPERLINKBASE
  1

  9
$STYLESHEET
  1

  9
$XEDIT
290
     1
  9
$CEPSNTYPE
380
     0
  9
$PSTYLEMODE
290
     1
  9
$FINGERPRINTGUID
  2
{A6C5DC1E-B091-4513-BA7C-EFB99B32DE89}
  9
$VERSIONGUID
  2
{C3544FB1-0553-4807-9BF6-274B70943016}
  9
$EXTNAMES
290
     1
  9
$PSVPSCALE
 40
0.0
  9
$OLESTARTUP
290
     0
  0
ENDSEC
  0
SECTION
  2
CLASSES
  0
CLASS
  1
ACDBDICTIONARYWDFLT
  2
AcDbDictionaryWithDefault
  3
ObjectDBX Classes
 90
        0
280
     0
281
     0
  0
CLASS
  1
ACDBPLACEHOLDER
  2
AcDbPlaceHolder
  3
ObjectDBX Classes
 90
        0
280
     0
281
     0
  0
CLASS
  1
LAYOUT
  2
AcDbLayout
  3
ObjectDBX Classes
 90
        0
280
     0
281
     0
  0
CLASS
  1
DICTIONARYVAR
  2
AcDbDictionaryVar
  3
ObjectDBX Classes
 90
        0
280
     0
281
     0
  0
CLASS
  1
TABLESTYLE
  2
AcDbTableStyle
  3
ObjectDBX Classes
 90
     4095
280
     0
281
     0
  0
CLASS
  1
MATERIAL
  2
AcDbMaterial
  3
ObjectDBX Classes
 90
     1153
280
     0
281
     0
  0
CLASS
  1
VISUALSTYLE
  2
AcDbVisualStyle
  3
ObjectDBX Classes
 90
     4095
280
     0
281
     0
  0
CLASS
  1
SCALE
  2
AcDbScale
  3
ObjectDBX Classes
 90
     1153
280
     0
281
     0
  0
CLASS
  1
MLEADERSTYLE
  2
AcDbMLeaderStyle
  3
ACDB_MLEADERSTYLE_CLASS
 90
     4095
280
     0
281
     0
  0
CLASS
  1
CELLSTYLEMAP
  2
AcDbCellStyleMap
  3
ObjectDBX Classes
 90
     1152
280
     0
281
     0
  0
CLASS
  1
DIMASSOC
  2
AcDbDimAssoc
  3
"AcDbDimAssoc|Product Desc:     AcDim ARX App For Dimension|Company:          Autodesk, Inc.|WEB Address:      www.autodesk.com"
 90
        0
280
     0
281
     0
  0
CLASS
  1
SORTENTSTABLE
  2
AcDbSortentsTable
  3
ObjectDBX Classes
 90
        0
280
     0
281
     0
  0
CLASS
  1
BREAKDATA
  2
AcDbBreakData
  3
ObjectDBX Classes
 90
    33792
280
     0
281
     0
  0
CLASS
  1
EXACXREFPANELOBJECT
  2
ExAcXREFPanelObject
  3
EXAC_ESW
 90
     1025
280
     0
281
     0
  0
CLASS
  1
NPOCOLLECTION
  2
AcDbImpNonPersistentObjectsCollection
  3
ObjectDBX Classes
 90
     1153
280
     0
281
     0
  0
CLASS
  1
SOLID_BACKGROUND
  2
AcDbSolidBackground
  3
SCENEOE
 90
    36863
280
     0
281
     0
  0
ENDSEC
  0
SECTION
  2
TABLES
  0
TABLE
  2
VPORT
  5
2B
102
{ACAD_XDICTIONARY
360
2F
102
}
330
0
100
AcDbSymbolTable
 70
     1
  0
VPORT
  5
2C
330
2B
100
AcDbSymbolTableRecord
100
AcDbViewportTableRecord
  2
*Active
 70
     0
 10
0.0
 20
0.0
 11
1.0
 21
1.0
 12
9630.359445864314
 22
-1364.905981570823
 13
0.0
 23
0.0
 14
10.0
 24
10.0
 15
10.0
 25
10.0
 16
0.0
 26
0.0
 36
1.0
 17
0.0
 27
0.0
 37
0.0
 40
274.0235461888888
 41
1.492874109263657
 42
50.0
 43
0.0
 44
0.0
 50
0.0
 51
0.0
 71
     0
 72
  1000
 73
     1
 74
     3
 75
     0
 76
     0
 77
     0
 78
     0
281
     0
 65
     1
110
0.0
120
0.0
130
0.0
111
1.0
121
0.0
131
0.0
112
0.0
122
1.0
132
0.0
 79
     0
146
0.0
  0
ENDTAB
  0
TABLE
  2
LTYPE
  5
26
330
0
100
AcDbSymbolTable
 70
     2
  0
LTYPE
  5
27
330
26
100
AcDbSymbolTableRecord
100
AcDbLinetypeTableRecord
  2
ByBlock
 70
     0
  3

 72
    65
 73
     0
 40
0.0
  0
LTYPE
  5
28
330
26
100
AcDbSymbolTableRecord
100
AcDbLinetypeTableRecord
  2
ByLayer
 70
     0
  3

 72
    65
 73
     0
 40
0.0
  0
LTYPE
  5
15
330
26
100
AcDbSymbolTableRecord
100
AcDbLinetypeTableRecord
  2
Continuous
 70
     0
  3
Solid line
 72
    65
 73
     0
 40
0.0
  0
LTYPE
  5
77
330
26
100
AcDbSymbolTableRecord
100
AcDbLinetypeTableRecord
  2
CENTER
 70
     0
  3
Center ____ _ ____ _ ____ _ ____ _ ____ _ ____
 72
    65
 73
     4
 40
50.8
 49
31.75
 74
     0
 49
-6.349999999999998
 74
     0
 49
6.349999999999998
 74
     0
 49
-6.349999999999998
 74
     0
  0
ENDTAB
  0
TABLE
  2
LAYER
  5
20
102
{ACAD_XDICTIONARY
360
21
102
}
330
0
100
AcDbSymbolTable
 70
     2
  0
LAYER
  5
7
102
{ACAD_XDICTIONARY
360
8
102
}
330
20
100
AcDbSymbolTableRecord
100
AcDbLayerTableRecord
  2
0
 70
     0
 62
     7
  6
Continuous
370
    -3
390
A
  0
LAYER
  5
72
330
20
100
AcDbSymbolTableRecord
100
AcDbLayerTableRecord
  2
Defpoints
 70
     0
 62
     7
  6
Continuous
290
     0
370
    -3
390
A
  0
ENDTAB
  0
TABLE
  2
STYLE
  5
23
330
0
100
AcDbSymbolTable
 70
     1
  0
STYLE
  5
24
330
23
100
AcDbSymbolTableRecord
100
AcDbTextStyleTableRecord
  2
Standard
 70
     0
 40
0.0
 41
1.0
 50
0.0
 71
     0
 42
2.5
  3
romans.shx
  4
whgtxt.shx
  0
ENDTAB
  0
TABLE
  2
VIEW
  5
29
330
0
100
AcDbSymbolTable
 70
     0
  0
ENDTAB
  0
TABLE
  2
UCS
  5
2A
330
0
100
AcDbSymbolTable
 70
     0
  0
ENDTAB
  0
TABLE
  2
APPID
  5
30
330
0
100
AcDbSymbolTable
 70
     5
  0
APPID
  5
14
330
30
100
AcDbSymbolTableRecord
100
AcDbRegAppTableRecord
  2
ACAD
 70
     0
  0
APPID
  5
19
330
30
100
AcDbSymbolTableRecord
100
AcDbRegAppTableRecord
  2
ACAD_PSEXT
 70
     0
  0
APPID
  5
41
330
30
100
AcDbSymbolTableRecord
100
AcDbRegAppTableRecord
  2
ACAD_DSTYLE_DIMJAG
 70
     0
  0
APPID
  5
42
330
30
100
AcDbSymbolTableRecord
100
AcDbRegAppTableRecord
  2
ACAD_DSTYLE_DIMTALN
 70
     0
  0
APPID
  5
3F5
330
30
100
AcDbSymbolTableRecord
100
AcDbRegAppTableRecord
  2
ACAD_MLEADERVER
 70
     0
  0
ENDTAB
  0
TABLE
  2
DIMSTYLE
  5
31
330
0
100
AcDbSymbolTable
 70
     1
100
AcDbDimStyleTable
 71
     0
  0
DIMSTYLE
105
40
102
{ACAD_REACTORS
330
180
330
17F
330
15F
330
14D
330
13E
330
128
330
118
330
101
330
F2
330
E1
330
CB
330
BB
330
A3
330
68
330
64
102
}
330
31
100
AcDbSymbolTableRecord
100
AcDbDimStyleTableRecord
  2
STANDARD
 70
     0
 41
4.0
 42
1.0
 43
10.0
 44
0.6
 73
     0
 74
     0
 77
     1
 78
     8
 79
     2
140
5.0
147
1.5
172
     1
174
     1
176
   123
177
   123
178
     3
179
     1
271
     2
272
     2
275
     1
288
     1
289
     0
340
24
1001
ACAD_DSTYLE_DIMJAG
1070
   388
1040
1.5
1001
ACAD_DSTYLE_DIMTALN
1070
   392
1070
     0
  0
ENDTAB
  0
TABLE
  2
BLOCK_RECORD
  5
1
330
0
100
AcDbSymbolTable
 70
    12
  0
BLOCK_RECORD
  5
2
102
{ACAD_XDICTIONARY
360
3
102
}
330
1
100
AcDbSymbolTableRecord
100
AcDbBlockTableRecord
  2
*Model_Space
340
17
  0
BLOCK_RECORD
  5
1A
102
{ACAD_XDICTIONARY
360
1B
102
}
330
1
100
AcDbSymbolTableRecord
100
AcDbBlockTableRecord
  2
*Paper_Space
340
1F
  0
BLOCK_RECORD
  5
69
330
1
100
AcDbSymbolTableRecord
100
AcDbBlockTableRecord
  2
*D0
340
0
  0
BLOCK_RECORD
  5
BC
330
1
100
AcDbSymbolTableRecord
100
AcDbBlockTableRecord
  2
*D1
340
0
  0
BLOCK_RECORD
  5
A6
330
1
100
AcDbSymbolTableRecord
100
AcDbBlockTableRecord
  2
*D2
340
0
  0
BLOCK_RECORD
  5
CC
330
1
100
AcDbSymbolTableRecord
100
AcDbBlockTableRecord
  2
*D3
340
0
  0
BLOCK_RECORD
  5
F3
330
1
100
AcDbSymbolTableRecord
100
AcDbBlockTableRecord
  2
*D4
340
0
  0
BLOCK_RECORD
  5
160
330
1
100
AcDbSymbolTableRecord
100
AcDbBlockTableRecord
  2
*D5
340
0
  0
BLOCK_RECORD
  5
E4
330
1
100
AcDbSymbolTableRecord
100
AcDbBlockTableRecord
  2
*D6
340
0
  0
BLOCK_RECORD
  5
104
330
1
100
AcDbSymbolTableRecord
100
AcDbBlockTableRecord
  2
*D7
340
0
  0
BLOCK_RECORD
  5
11B
330
1
100
AcDbSymbolTableRecord
100
AcDbBlockTableRecord
  2
*D8
340
0
  0
BLOCK_RECORD
  5
12B
330
1
100
AcDbSymbolTableRecord
100
AcDbBlockTableRecord
  2
*D9
340
0
  0
BLOCK_RECORD
  5
141
330
1
100
AcDbSymbolTableRecord
100
AcDbBlockTableRecord
  2
*D10
340
0
  0
BLOCK_RECORD
  5
150
330
1
100
AcDbSymbolTableRecord
100
AcDbBlockTableRecord
  2
*D11
340
0
  0
ENDTAB
  0
ENDSEC
  0
SECTION
  2
BLOCKS
  0
BLOCK
  5
6
330
2
100
AcDbEntity
  8
0
100
AcDbBlockBegin
  2
*Model_Space
 70
     0
 10
0.0
 20
0.0
 30
0.0
  3
*Model_Space
  1

  0
ENDBLK
  5
16
330
2
100
AcDbEntity
  8
0
100
AcDbBlockEnd
  0
BLOCK
  5
1D
330
1A
100
AcDbEntity
 67
     1
  8
0
100
AcDbBlockBegin
  2
*Paper_Space
 70
     0
 10
0.0
 20
0.0
 30
0.0
  3
*Paper_Space
  1

  0
ENDBLK
  5
1E
330
1A
100
AcDbEntity
 67
     1
  8
0
100
AcDbBlockEnd
  0
BLOCK
  5
6A
330
69
100
AcDbEntity
  8
0
100
AcDbBlockBegin
  2
*D0
 70
     1
 10
0.0
 20
0.0
 30
0.0
  3
*D0
  1

  0
LINE
  5
6B
330
69
100
AcDbEntity
  8
0
 62
   123
370
    -2
100
AcDbLine
 10
9435.108419647868
 20
-1313.335230696188
 30
0.0
 11
9435.108419647868
 21
-1276.957655129856
 31
0.0
  0
LINE
  5
6C
330
69
100
AcDbEntity
  8
0
 62
   123
370
    -2
100
AcDbLine
 10
9525.108419647869
 20
-1313.335230696188
 30
0.0
 11
9525.108419647869
 21
-1276.957655129856
 31
0.0
  0
LINE
  5
6D
330
69
100
AcDbEntity
  8
0
 62
   123
370
    -2
100
AcDbLine
 10
9439.108419647867
 20
-1277.557655129856
 30
0.0
 11
9521.108419647868
 21
-1277.557655129856
 31
0.0
  0
SOLID
  5
6E
330
69
100
AcDbEntity
  8
0
 62
   123
100
AcDbTrace
 10
9439.108419647867
 20
-1276.890988463189
 30
0.0
 11
9439.108419647867
 21
-1278.224321796523
 31
0.0
 12
9435.108419647868
 22
-1277.557655129856
 32
0.0
 13
9435.108419647868
 23
-1277.557655129856
 33
0.0
  0
SOLID
  5
6F
330
69
100
AcDbEntity
  8
0
 62
   123
100
AcDbTrace
 10
9521.108419647868
 20
-1276.890988463189
 30
0.0
 11
9521.108419647868
 21
-1278.224321796523
 31
0.0
 12
9525.108419647869
 22
-1277.557655129856
 32
0.0
 13
9525.108419647869
 23
-1277.557655129856
 33
0.0
  0
MTEXT
  5
70
330
69
100
AcDbEntity
  8
0
 62
     3
100
AcDbMText
 10
9480.108419647867
 20
-1273.557655129856
 30
0.0
 40
5.0
 41
0.0
 71
     5
 72
     1
  1
\A1;90
 73
     1
 44
1.0
1001
ACAD
1000
MTEXTBEGIN
1070
    73
1070
     1
1070
    44
1040
1.0
1070
    74
1070
     0
1000
MTEXTEND
  0
POINT
  5
71
330
69
100
AcDbEntity
  8
Defpoints
 62
     0
100
AcDbPoint
 10
9435.108419647868
 20
-1314.335230696188
 30
0.0
  0
POINT
  5
73
330
69
100
AcDbEntity
  8
Defpoints
 62
     0
100
AcDbPoint
 10
9525.108419647869
 20
-1314.335230696188
 30
0.0
  0
POINT
  5
74
330
69
100
AcDbEntity
  8
Defpoints
 62
     0
100
AcDbPoint
 10
9525.108419647869
 20
-1277.557655129856
 30
0.0
  0
ENDBLK
  5
75
330
69
100
AcDbEntity
  8
0
100
AcDbBlockEnd
  0
BLOCK
  5
BD
330
BC
100
AcDbEntity
  8
0
100
AcDbBlockBegin
  2
*D1
 70
     1
 10
0.0
 20
0.0
 30
0.0
  3
*D1
  1

  0
LINE
  5
BE
330
BC
100
AcDbEntity
  8
0
 62
   123
 48
0.6
100
AcDbLine
 10
9480.10220197697
 20
-1408.943978580535
 30
0.0
 11
9480.102201976967
 21
-1427.362565974026
 31
0.0
  0
LINE
  5
BF
330
BC
100
AcDbEntity
  8
0
 62
   123
 48
0.6
100
AcDbLine
 10
9499.130822337573
 20
-1400.237668212965
 30
0.0
 11
9508.064700228421
 21
-1421.798765181631
 31
0.0
  0
ARC
  5
C0
330
BC
100
AcDbEntity
  8
0
 62
   123
 48
0.6
100
AcDbCircle
 10
9480.10220197697
 20
-1354.313833816785
 30
0.0
 40
72.44873215724111
100
AcDbArc
 50
273.1637853469866
 51
289.3429715504175
  0
SOLID
  5
C1
330
BC
100
AcDbEntity
  8
0
 62
   123
 48
0.6
100
AcDbTrace
 10
9484.119081352751
 20
-1427.318555654531
 30
0.0
 11
9484.082273715308
 21
-1425.985730468845
 31
0.0
 12
9480.10220197697
 22
-1426.762565974026
 32
0.0
 13
9480.10220197697
 23
-1426.762565974026
 33
0.0
  0
SOLID
  5
C2
330
BC
100
AcDbEntity
  8
0
 62
   123
 48
0.6
100
AcDbTrace
 10
9503.860730913329
 20
-1422.050338328945
 30
0.0
 11
9504.336922080652
 21
-1423.295737762838
 31
0.0
 12
9507.835024798673
 22
-1421.244464543918
 32
0.0
 13
9507.835024798673
 23
-1421.244464543918
 33
0.0
  0
MTEXT
  5
C3
330
BC
100
AcDbEntity
  8
0
 62
     3
 48
0.6
100
AcDbMText
 10
9493.366917990597
 20
-1420.97952013036
 30
0.0
 40
5.0
 41
0.0
 71
     5
 72
     1
  1
\A1;22°30'
 11
0.9807737751869385
 21
0.1951481537334144
 31
0.0
 73
     1
 44
1.0
1001
ACAD
1000
MTEXTBEGIN
1070
    73
1070
     1
1070
    44
1040
1.0
1070
    74
1070
     0
1000
MTEXTEND
  0
POINT
  5
C4
330
BC
100
AcDbEntity
  8
Defpoints
 62
     0
 48
0.6
100
AcDbPoint
 10
9489.561482706852
 20
-1426.142385237964
 30
0.0
  0
POINT
  5
C5
330
BC
100
AcDbEntity
  8
Defpoints
 62
     0
 48
0.6
100
AcDbPoint
 10
9480.10220197697
 20
-1407.943978580535
 30
0.0
  0
POINT
  5
C6
330
BC
100
AcDbEntity
  8
Defpoints
 62
     0
 48
0.6
100
AcDbPoint
 10
9480.10220197697
 20
-1354.313833816783
 30
0.0
  0
POINT
  5
C7
330
BC
100
AcDbEntity
  8
Defpoints
 62
     0
 48
0.6
100
AcDbPoint
 10
9498.74802995466
 20
-1399.313833816776
 30
0.0
  0
POINT
  5
C8
330
BC
100
AcDbEntity
  8
Defpoints
 62
     0
 48
0.6
100
AcDbPoint
 10
9480.102201976972
 20
-1300.68368905303
 30
0.0
  0
ENDBLK
  5
C9
330
BC
100
AcDbEntity
  8
0
100
AcDbBlockEnd
  0
BLOCK
  5
A7
330
A6
100
AcDbEntity
  8
0
100
AcDbBlockBegin
  2
*D2
 70
     1
 10
0.0
 20
0.0
 30
0.0
  3
*D2
  1

  0
LINE
  5
A8
330
A6
100
AcDbEntity
  8
0
 62
   123
100
AcDbLine
 10
9562.956156939046
 20
-1290.882793341301
 30
0.0
 11
9524.57808167477
 21
-1320.256438946838
 31
0.0
  0
LINE
  5
A9
330
A6
100
AcDbEntity
  8
0
 62
   123
100
AcDbLine
 10
9435.63875762096
 20
-1388.32843492795
 30
0.0
 11
9432.462353190468
 21
-1390.759577641561
 31
0.0
  0
MTEXT
  5
AA
102
{ACAD_XDICTIONARY
360
406
102
}
330
A6
100
AcDbEntity
  8
0
 62
     3
100
AcDbMText
 10
9545.248021488299
 20
-1299.399027676271
 30
0.0
 40
5.0
 41
0.0
 71
     5
 72
     1
  1
\A1;\U+2205104%%P0.5
 11
0.7941011076232602
 21
0.6077856784027669
 31
0.0
 73
     1
 44
1.0
1001
ACAD
1000
MTEXTBEGIN
1070
    73
1070
     1
1070
    44
1040
1.0
1070
    74
1070
     0
1000
MTEXTEND
  0
LINE
  5
AB
330
A6
100
AcDbEntity
  8
0
 62
   123
100
AcDbLine
 10
9438.815162051454
 20
-1385.897292214339
 30
0.0
 11
9521.401677244275
 21
-1322.687581660449
 31
0.0
  0
SOLID
  5
AC
330
A6
100
AcDbEntity
  8
0
 62
   123
100
AcDbTrace
 10
9435.23356716869
 20
-1387.799034189535
 30
0.0
 11
9436.043948073228
 21
-1388.857835666366
 31
0.0
 12
9438.815162051454
 22
-1385.897292214339
 32
0.0
 13
9438.815162051454
 23
-1385.897292214339
 33
0.0
  0
SOLID
  5
AD
330
A6
100
AcDbEntity
  8
0
 62
   123
100
AcDbTrace
 10
9524.172891222503
 20
-1319.727038208421
 30
0.0
 11
9524.983272127039
 21
-1320.785839685253
 31
0.0
 12
9521.401677244275
 22
-1322.687581660449
 32
0.0
 13
9521.401677244275
 23
-1322.687581660449
 33
0.0
  0
POINT
  5
AE
330
A6
100
AcDbEntity
  8
Defpoints
 62
     0
100
AcDbPoint
 10
9521.401677244275
 20
-1322.687581660449
 30
0.0
  0
POINT
  5
AF
330
A6
100
AcDbEntity
  8
Defpoints
 62
     0
100
AcDbPoint
 10
9438.815162051454
 20
-1385.897292214339
 30
0.0
  0
ENDBLK
  5
B0
330
A6
100
AcDbEntity
  8
0
100
AcDbBlockEnd
  0
BLOCK
  5
CD
330
CC
100
AcDbEntity
  8
0
100
AcDbBlockBegin
  2
*D3
 70
     1
 10
0.0
 20
0.0
 30
0.0
  3
*D3
  1

  0
LINE
  5
CE
330
CC
100
AcDbEntity
  8
0
 62
   123
370
    -2
100
AcDbLine
 10
9809.865351845083
 20
-1308.112623648425
 30
0.0
 11
9831.35181268163
 21
-1308.112623648425
 31
0.0
  0
LINE
  5
CF
330
CC
100
AcDbEntity
  8
0
 62
   123
370
    -2
100
AcDbLine
 10
9809.865351845083
 20
-1400.112623648429
 30
0.0
 11
9831.35181268163
 21
-1400.112623648429
 31
0.0
  0
LINE
  5
D0
330
CC
100
AcDbEntity
  8
0
 62
   123
370
    -2
100
AcDbLine
 10
9830.751812681626
 20
-1312.112623648425
 30
0.0
 11
9830.751812681626
 21
-1396.112623648429
 31
0.0
  0
SOLID
  5
D1
330
CC
100
AcDbEntity
  8
0
 62
   123
100
AcDbTrace
 10
9830.085146014958
 20
-1312.112623648425
 30
0.0
 11
9831.418479348293
 21
-1312.112623648425
 31
0.0
 12
9830.751812681626
 22
-1308.112623648425
 32
0.0
 13
9830.751812681626
 23
-1308.112623648425
 33
0.0
  0
SOLID
  5
D2
330
CC
100
AcDbEntity
  8
0
 62
   123
100
AcDbTrace
 10
9830.085146014958
 20
-1396.112623648429
 30
0.0
 11
9831.418479348293
 21
-1396.112623648429
 31
0.0
 12
9830.751812681626
 22
-1400.112623648429
 32
0.0
 13
9830.751812681626
 23
-1400.112623648429
 33
0.0
  0
MTEXT
  5
D3
330
CC
100
AcDbEntity
  8
0
 62
     3
100
AcDbMText
 10
9826.751812681628
 20
-1354.112623648425
 30
0.0
 40
5.0
 41
0.0
 71
     5
 72
     1
  1
\A1;92
 11
0.0000000000000001
 21
1.0
 31
0.0
 73
     1
 44
1.0
1001
ACAD
1000
MTEXTBEGIN
1070
    73
1070
     1
1070
    44
1040
1.0
1070
    74
1070
     0
1000
MTEXTEND
  0
POINT
  5
D4
330
CC
100
AcDbEntity
  8
Defpoints
 62
     0
100
AcDbPoint
 10
9808.86535184508
 20
-1308.112623648425
 30
0.0
  0
POINT
  5
D5
330
CC
100
AcDbEntity
  8
Defpoints
 62
     0
100
AcDbPoint
 10
9808.86535184508
 20
-1400.112623648429
 30
0.0
  0
POINT
  5
D6
330
CC
100
AcDbEntity
  8
Defpoints
 62
     0
100
AcDbPoint
 10
9830.751812681626
 20
-1400.112623648429
 30
0.0
  0
ENDBLK
  5
D7
330
CC
100
AcDbEntity
  8
0
100
AcDbBlockEnd
  0
BLOCK
  5
F4
330
F3
100
AcDbEntity
  8
0
100
AcDbBlockBegin
  2
*D4
 70
     1
 10
0.0
 20
0.0
 30
0.0
  3
*D4
  1

  0
LINE
  5
F5
330
F3
100
AcDbEntity
  8
0
 62
   123
370
    -2
100
AcDbLine
 10
9629.866429644433
 20
-1311.792436937392
 30
0.0
 11
9629.866429644433
 21
-1296.497348576839
 31
0.0
  0
LINE
  5
F6
330
F3
100
AcDbEntity
  8
0
 62
   123
370
    -2
100
AcDbLine
 10
9631.866429644434
 20
-1308.292436937392
 30
0.0
 11
9631.866429644434
 21
-1296.497348576839
 31
0.0
  0
LINE
  5
F7
330
F3
100
AcDbEntity
  8
0
 62
   123
370
    -2
100
AcDbLine
 10
9635.866429644433
 20
-1297.097348576839
 30
0.0
 11
9639.866429644435
 21
-1297.097348576839
 31
0.0
  0
LINE
  5
F8
330
F3
100
AcDbEntity
  8
0
 62
   123
370
    -2
100
AcDbLine
 10
9625.866429644434
 20
-1297.097348576839
 30
0.0
 11
9615.533096311096
 21
-1297.097348576839
 31
0.0
  0
LINE
  5
F9
330
F3
100
AcDbEntity
  8
0
 62
   123
370
    -2
100
AcDbLine
 10
9631.866429644434
 20
-1297.097348576839
 30
0.0
 11
9629.866429644433
 21
-1297.097348576839
 31
0.0
  0
SOLID
  5
FA
330
F3
100
AcDbEntity
  8
0
 62
   123
100
AcDbTrace
 10
9635.866429644433
 20
-1296.430681910172
 30
0.0
 11
9635.866429644433
 21
-1297.764015243506
 31
0.0
 12
9631.866429644434
 22
-1297.097348576839
 32
0.0
 13
9631.866429644434
 23
-1297.097348576839
 33
0.0
  0
SOLID
  5
FB
330
F3
100
AcDbEntity
  8
0
 62
   123
100
AcDbTrace
 10
9625.866429644434
 20
-1296.430681910172
 30
0.0
 11
9625.866429644434
 21
-1297.764015243506
 31
0.0
 12
9629.866429644433
 22
-1297.097348576839
 32
0.0
 13
9629.866429644433
 23
-1297.097348576839
 33
0.0
  0
MTEXT
  5
FC
330
F3
100
AcDbEntity
  8
0
 62
     3
100
AcDbMText
 10
9618.699762977763
 20
-1293.097348576839
 30
0.0
 40
5.0
 41
0.0
 71
     5
 72
     1
  1
\A1;2
 73
     1
 44
1.0
1001
ACAD
1000
MTEXTBEGIN
1070
    73
1070
     1
1070
    44
1040
1.0
1070
    74
1070
     0
1000
MTEXTEND
  0
POINT
  5
FD
330
F3
100
AcDbEntity
  8
Defpoints
 62
     0
100
AcDbPoint
 10
9629.866429644433
 20
-1312.792436937392
 30
0.0
  0
POINT
  5
FE
330
F3
100
AcDbEntity
  8
Defpoints
 62
     0
100
AcDbPoint
 10
9631.866429644434
 20
-1309.292436937392
 30
0.0
  0
POINT
  5
FF
330
F3
100
AcDbEntity
  8
Defpoints
 62
     0
100
AcDbPoint
 10
9631.866429644434
 20
-1297.097348576839
 30
0.0
  0
ENDBLK
  5
100
330
F3
100
AcDbEntity
  8
0
100
AcDbBlockEnd
  0
BLOCK
  5
161
330
160
100
AcDbEntity
  8
0
100
AcDbBlockBegin
  2
*D5
 70
     1
 10
0.0
 20
0.0
 30
0.0
  3
*D5
  1

  0
LINE
  5
162
330
160
100
AcDbEntity
  8
0
 62
   123
370
    -2
100
AcDbLine
 10
9631.866429644434
 20
-1308.292436937392
 30
0.0
 11
9631.866429644434
 21
-1273.386369325435
 31
0.0
  0
LINE
  5
163
330
160
100
AcDbEntity
  8
0
 62
   123
370
    -2
100
AcDbLine
 10
9810.86535184508
 20
-1310.112623648425
 30
0.0
 11
9810.86535184508
 21
-1273.386369325435
 31
0.0
  0
LINE
  5
164
330
160
100
AcDbEntity
  8
0
 62
   123
370
    -2
100
AcDbLine
 10
9635.866429644433
 20
-1273.986369325436
 30
0.0
 11
9806.865351845083
 21
-1273.986369325436
 31
0.0
  0
SOLID
  5
165
330
160
100
AcDbEntity
  8
0
 62
   123
100
AcDbTrace
 10
9635.866429644433
 20
-1273.319702658769
 30
0.0
 11
9635.866429644433
 21
-1274.653035992102
 31
0.0
 12
9631.866429644434
 22
-1273.986369325436
 32
0.0
 13
9631.866429644434
 23
-1273.986369325436
 33
0.0
  0
SOLID
  5
166
330
160
100
AcDbEntity
  8
0
 62
   123
100
AcDbTrace
 10
9806.865351845083
 20
-1273.319702658769
 30
0.0
 11
9806.865351845083
 21
-1274.653035992102
 31
0.0
 12
9810.86535184508
 22
-1273.986369325436
 32
0.0
 13
9810.86535184508
 23
-1273.986369325436
 33
0.0
  0
MTEXT
  5
167
330
160
100
AcDbEntity
  8
0
 62
     3
100
AcDbMText
 10
9720.865890744756
 20
-1269.986369325435
 30
0.0
 40
5.0
 41
0.0
 71
     5
 72
     1
  1
\A1;M
 73
     1
 44
1.0
1001
ACAD
1000
MTEXTBEGIN
1070
    73
1070
     1
1070
    44
1040
1.0
1070
    74
1070
     0
1000
MTEXTEND
  0
POINT
  5
168
330
160
100
AcDbEntity
  8
Defpoints
 62
     0
100
AcDbPoint
 10
9631.866429644434
 20
-1309.292436937392
 30
0.0
  0
POINT
  5
169
330
160
100
AcDbEntity
  8
Defpoints
 62
     0
100
AcDbPoint
 10
9810.86535184508
 20
-1311.112623648425
 30
0.0
  0
POINT
  5
16A
330
160
100
AcDbEntity
  8
Defpoints
 62
     0
100
AcDbPoint
 10
9810.86535184508
 20
-1273.986369325436
 30
0.0
  0
ENDBLK
  5
16B
330
160
100
AcDbEntity
  8
0
100
AcDbBlockEnd
  0
BLOCK
  5
E5
330
E4
100
AcDbEntity
  8
0
100
AcDbBlockBegin
  2
*D6
 70
     1
 10
0.0
 20
0.0
 30
0.0
  3
*D6
  1

  0
LINE
  5
E6
330
E4
100
AcDbEntity
  8
0
 62
   123
370
    -2
100
AcDbLine
 10
9631.866429644434
 20
-1308.08410360406
 30
0.0
 11
9631.866429644434
 21
-1286.871136737562
 31
0.0
  0
LINE
  5
E7
330
E4
100
AcDbEntity
  8
0
 62
   123
370
    -2
100
AcDbLine
 10
9639.366429644432
 20
-1309.693699595862
 30
0.0
 11
9639.366429644432
 21
-1286.871136737562
 31
0.0
  0
LINE
  5
E8
330
E4
100
AcDbEntity
  8
0
 62
   123
370
    -2
100
AcDbLine
 10
9627.866429644434
 20
-1287.471136737562
 30
0.0
 11
9623.866429644433
 21
-1287.471136737562
 31
0.0
  0
LINE
  5
E9
330
E4
100
AcDbEntity
  8
0
 62
   123
370
    -2
100
AcDbLine
 10
9643.366429644434
 20
-1287.471136737562
 30
0.0
 11
9660.842620120625
 21
-1287.471136737562
 31
0.0
  0
LINE
  5
EA
330
E4
100
AcDbEntity
  8
0
 62
   123
370
    -2
100
AcDbLine
 10
9631.866429644434
 20
-1287.471136737562
 30
0.0
 11
9639.366429644432
 21
-1287.471136737562
 31
0.0
  0
SOLID
  5
EB
330
E4
100
AcDbEntity
  8
0
 62
   123
100
AcDbTrace
 10
9627.866429644434
 20
-1286.804470070895
 30
0.0
 11
9627.866429644434
 21
-1288.137803404229
 31
0.0
 12
9631.866429644434
 22
-1287.471136737562
 32
0.0
 13
9631.866429644434
 23
-1287.471136737562
 33
0.0
  0
SOLID
  5
EC
330
E4
100
AcDbEntity
  8
0
 62
   123
100
AcDbTrace
 10
9643.366429644434
 20
-1286.804470070895
 30
0.0
 11
9643.366429644434
 21
-1288.137803404229
 31
0.0
 12
9639.366429644432
 22
-1287.471136737562
 32
0.0
 13
9639.366429644432
 23
-1287.471136737562
 33
0.0
  0
MTEXT
  5
ED
330
E4
100
AcDbEntity
  8
0
 62
     3
100
AcDbMText
 10
9654.104524882528
 20
-1283.471136737562
 30
0.0
 40
5.0
 41
0.0
 71
     5
 72
     1
  1
\A1;7.5
 73
     1
 44
1.0
1001
ACAD
1000
MTEXTBEGIN
1070
    73
1070
     1
1070
    44
1040
1.0
1070
    74
1070
     0
1000
MTEXTEND
  0
POINT
  5
EE
330
E4
100
AcDbEntity
  8
Defpoints
 62
     0
100
AcDbPoint
 10
9631.866429644434
 20
-1309.08410360406
 30
0.0
  0
POINT
  5
EF
330
E4
100
AcDbEntity
  8
Defpoints
 62
     0
100
AcDbPoint
 10
9639.366429644432
 20
-1310.693699595862
 30
0.0
  0
POINT
  5
F0
330
E4
100
AcDbEntity
  8
Defpoints
 62
     0
100
AcDbPoint
 10
9639.366429644432
 20
-1287.471136737562
 30
0.0
  0
ENDBLK
  5
F1
330
E4
100
AcDbEntity
  8
0
100
AcDbBlockEnd
  0
BLOCK
  5
105
330
104
100
AcDbEntity
  8
0
100
AcDbBlockBegin
  2
*D7
 70
     1
 10
0.0
 20
0.0
 30
0.0
  3
*D7
  1

  0
LINE
  5
106
330
104
100
AcDbEntity
  8
0
 62
   123
370
    -2
100
AcDbLine
 10
9594.866429644433
 20
-1348.292436937392
 30
0.0
 11
9594.866429644433
 21
-1273.386369325435
 31
0.0
  0
LINE
  5
107
330
104
100
AcDbEntity
  8
0
 62
   123
370
    -2
100
AcDbLine
 10
9631.866429644434
 20
-1308.08410360406
 30
0.0
 11
9631.866429644434
 21
-1273.386369325435
 31
0.0
  0
LINE
  5
108
330
104
100
AcDbEntity
  8
0
 62
   123
370
    -2
100
AcDbLine
 10
9598.866429644433
 20
-1273.986369325436
 30
0.0
 11
9627.866429644434
 21
-1273.986369325436
 31
0.0
  0
SOLID
  5
109
330
104
100
AcDbEntity
  8
0
 62
   123
100
AcDbTrace
 10
9598.866429644433
 20
-1273.319702658769
 30
0.0
 11
9598.866429644433
 21
-1274.653035992102
 31
0.0
 12
9594.866429644433
 22
-1273.986369325436
 32
0.0
 13
9594.866429644433
 23
-1273.986369325436
 33
0.0
  0
SOLID
  5
10A
330
104
100
AcDbEntity
  8
0
 62
   123
100
AcDbTrace
 10
9627.866429644434
 20
-1273.319702658769
 30
0.0
 11
9627.866429644434
 21
-1274.653035992102
 31
0.0
 12
9631.866429644434
 22
-1273.986369325436
 32
0.0
 13
9631.866429644434
 23
-1273.986369325436
 33
0.0
  0
MTEXT
  5
10B
330
104
100
AcDbEntity
  8
0
 62
     3
100
AcDbMText
 10
9615.116429644434
 20
-1269.986369325435
 30
0.0
 40
5.0
 41
0.0
 71
     5
 72
     1
  1
\A1;37
 73
     1
 44
1.0
1001
ACAD
1000
MTEXTBEGIN
1070
    73
1070
     1
1070
    44
1040
1.0
1070
    74
1070
     0
1000
MTEXTEND
  0
POINT
  5
10C
330
104
100
AcDbEntity
  8
Defpoints
 62
     0
100
AcDbPoint
 10
9594.866429644433
 20
-1349.292436937392
 30
0.0
  0
POINT
  5
10D
330
104
100
AcDbEntity
  8
Defpoints
 62
     0
100
AcDbPoint
 10
9631.866429644434
 20
-1309.08410360406
 30
0.0
  0
POINT
  5
10E
330
104
100
AcDbEntity
  8
Defpoints
 62
     0
100
AcDbPoint
 10
9631.866429644434
 20
-1273.986369325436
 30
0.0
  0
ENDBLK
  5
10F
330
104
100
AcDbEntity
  8
0
100
AcDbBlockEnd
  0
BLOCK
  5
11C
330
11B
100
AcDbEntity
  8
0
100
AcDbBlockBegin
  2
*D8
 70
     1
 10
0.0
 20
0.0
 30
0.0
  3
*D8
  1

  0
LINE
  5
11D
330
11B
100
AcDbEntity
  8
0
 62
   123
370
    -2
100
AcDbLine
 10
9593.866429644434
 20
-1360.292436937392
 30
0.0
 11
9581.797948763719
 21
-1360.292436937392
 31
0.0
  0
LINE
  5
11E
330
11B
100
AcDbEntity
  8
0
 62
   123
370
    -2
100
AcDbLine
 10
9593.866429644434
 20
-1349.292436937392
 30
0.0
 11
9581.797948763719
 21
-1349.292436937392
 31
0.0
  0
LINE
  5
11F
330
11B
100
AcDbEntity
  8
0
 62
   123
370
    -2
100
AcDbLine
 10
9582.39794876372
 20
-1356.292436937392
 30
0.0
 11
9582.39794876372
 21
-1353.292436937392
 31
0.0
  0
SOLID
  5
120
330
11B
100
AcDbEntity
  8
0
 62
   123
100
AcDbTrace
 10
9581.731282097054
 20
-1356.292436937392
 30
0.0
 11
9583.064615430386
 21
-1356.292436937392
 31
0.0
 12
9582.39794876372
 22
-1360.292436937392
 32
0.0
 13
9582.39794876372
 23
-1360.292436937392
 33
0.0
  0
SOLID
  5
121
330
11B
100
AcDbEntity
  8
0
 62
   123
100
AcDbTrace
 10
9581.731282097054
 20
-1353.292436937392
 30
0.0
 11
9583.064615430386
 21
-1353.292436937392
 31
0.0
 12
9582.39794876372
 22
-1349.292436937392
 32
0.0
 13
9582.39794876372
 23
-1349.292436937392
 33
0.0
  0
MTEXT
  5
122
330
11B
100
AcDbEntity
  8
0
 62
     3
100
AcDbMText
 10
9578.39794876372
 20
-1354.792436937392
 30
0.0
 40
5.0
 41
0.0
 71
     5
 72
     1
  1
\A1;11
 11
0.0000000000000001
 21
1.0
 31
0.0
 73
     1
 44
1.0
1001
ACAD
1000
MTEXTBEGIN
1070
    73
1070
     1
1070
    44
1040
1.0
1070
    74
1070
     0
1000
MTEXTEND
  0
POINT
  5
123
330
11B
100
AcDbEntity
  8
Defpoints
 62
     0
100
AcDbPoint
 10
9594.866429644433
 20
-1360.292436937392
 30
0.0
  0
POINT
  5
124
330
11B
100
AcDbEntity
  8
Defpoints
 62
     0
100
AcDbPoint
 10
9594.866429644433
 20
-1349.292436937392
 30
0.0
  0
POINT
  5
125
330
11B
100
AcDbEntity
  8
Defpoints
 62
     0
100
AcDbPoint
 10
9582.39794876372
 20
-1349.292436937392
 30
0.0
  0
ENDBLK
  5
126
330
11B
100
AcDbEntity
  8
0
100
AcDbBlockEnd
  0
BLOCK
  5
12C
330
12B
100
AcDbEntity
  8
0
100
AcDbBlockBegin
  2
*D9
 70
     1
 10
0.0
 20
0.0
 30
0.0
  3
*D9
  1

  0
LINE
  5
12D
330
12B
100
AcDbEntity
  8
0
 62
   123
370
    -2
100
AcDbLine
 10
9594.866429644433
 20
-1348.292436937392
 30
0.0
 11
9594.866429644433
 21
-1328.345888680328
 31
0.0
  0
LINE
  5
12E
330
12B
100
AcDbEntity
  8
0
 62
   123
370
    -2
100
AcDbLine
 10
9624.866429644434
 20
-1347.292436937392
 30
0.0
 11
9624.866429644434
 21
-1328.345888680328
 31
0.0
  0
LINE
  5
12F
330
12B
100
AcDbEntity
  8
0
 62
   123
370
    -2
100
AcDbLine
 10
9598.866429644433
 20
-1328.945888680328
 30
0.0
 11
9620.866429644435
 21
-1328.945888680328
 31
0.0
  0
SOLID
  5
130
330
12B
100
AcDbEntity
  8
0
 62
   123
100
AcDbTrace
 10
9598.866429644433
 20
-1328.279222013661
 30
0.0
 11
9598.866429644433
 21
-1329.612555346994
 31
0.0
 12
9594.866429644433
 22
-1328.945888680328
 32
0.0
 13
9594.866429644433
 23
-1328.945888680328
 33
0.0
  0
SOLID
  5
131
330
12B
100
AcDbEntity
  8
0
 62
   123
100
AcDbTrace
 10
9620.866429644435
 20
-1328.279222013661
 30
0.0
 11
9620.866429644435
 21
-1329.612555346994
 31
0.0
 12
9624.866429644434
 22
-1328.945888680328
 32
0.0
 13
9624.866429644434
 23
-1328.945888680328
 33
0.0
  0
MTEXT
  5
132
330
12B
100
AcDbEntity
  8
0
 62
     3
100
AcDbMText
 10
9611.125114008933
 20
-1324.945888680328
 30
0.0
 40
5.0
 41
0.0
 71
     5
 72
     1
  1
\A1;30
 73
     1
 44
1.0
1001
ACAD
1000
MTEXTBEGIN
1070
    73
1070
     1
1070
    44
1040
1.0
1070
    74
1070
     0
1000
MTEXTEND
  0
POINT
  5
133
330
12B
100
AcDbEntity
  8
Defpoints
 62
     0
100
AcDbPoint
 10
9594.866429644433
 20
-1349.292436937392
 30
0.0
  0
POINT
  5
134
330
12B
100
AcDbEntity
  8
Defpoints
 62
     0
100
AcDbPoint
 10
9624.866429644434
 20
-1348.292436937392
 30
0.0
  0
POINT
  5
135
330
12B
100
AcDbEntity
  8
Defpoints
 62
     0
100
AcDbPoint
 10
9624.866429644434
 20
-1328.945888680328
 30
0.0
  0
ENDBLK
  5
136
330
12B
100
AcDbEntity
  8
0
100
AcDbBlockEnd
  0
BLOCK
  5
142
330
141
100
AcDbEntity
  8
0
100
AcDbBlockBegin
  2
*D10
 70
     1
 10
0.0
 20
0.0
 30
0.0
  3
*D10
  1

  0
LINE
  5
143
330
141
100
AcDbEntity
  8
0
 62
   123
370
    -2
100
AcDbLine
 10
9593.866429644434
 20
-1360.292436937392
 30
0.0
 11
9570.929467883011
 21
-1360.292436937392
 31
0.0
  0
LINE
  5
144
330
141
100
AcDbEntity
  8
0
 62
   123
370
    -2
100
AcDbLine
 10
9623.866429644433
 20
-1348.292436937392
 30
0.0
 11
9570.929467883011
 21
-1348.292436937392
 31
0.0
  0
LINE
  5
145
330
141
100
AcDbEntity
  8
0
 62
   123
370
    -2
100
AcDbLine
 10
9571.529467883012
 20
-1356.292436937392
 30
0.0
 11
9571.529467883012
 21
-1352.292436937392
 31
0.0
  0
SOLID
  5
146
330
141
100
AcDbEntity
  8
0
 62
   123
100
AcDbTrace
 10
9570.862801216346
 20
-1356.292436937392
 30
0.0
 11
9572.196134549676
 21
-1356.292436937392
 31
0.0
 12
9571.529467883012
 22
-1360.292436937392
 32
0.0
 13
9571.529467883012
 23
-1360.292436937392
 33
0.0
  0
SOLID
  5
147
330
141
100
AcDbEntity
  8
0
 62
   123
100
AcDbTrace
 10
9570.862801216346
 20
-1352.292436937392
 30
0.0
 11
9572.196134549676
 21
-1352.292436937392
 31
0.0
 12
9571.529467883012
 22
-1348.292436937392
 32
0.0
 13
9571.529467883012
 23
-1348.292436937392
 33
0.0
  0
MTEXT
  5
148
330
141
100
AcDbEntity
  8
0
 62
     3
100
AcDbMText
 10
9565.112551216348
 20
-1354.292436937391
 30
0.0
 40
5.0
 41
0.0
 71
     5
 72
     1
  1
\A1;\A1;{\f??|b0|i0|c0|p49;%%C}12{\f??|b0|i0|c0|p49;\H0.7x;\S+0^ -0.018;\H1.429x;(h}7{\f??|b0|i0|c0|p49;)}
 11
0.0000000000000001
 21
1.0
 31
0.0
 73
     1
 44
1.0
1001
ACAD
1000
MTEXTBEGIN
1070
    73
1070
     1
1070
    44
1040
1.0
1070
    74
1070
     0
1000
MTEXTEND
  0
POINT
  5
149
330
141
100
AcDbEntity
  8
Defpoints
 62
     0
100
AcDbPoint
 10
9594.866429644433
 20
-1360.292436937392
 30
0.0
  0
POINT
  5
14A
330
141
100
AcDbEntity
  8
Defpoints
 62
     0
100
AcDbPoint
 10
9624.866429644434
 20
-1348.292436937392
 30
0.0
  0
POINT
  5
14B
330
141
100
AcDbEntity
  8
Defpoints
 62
     0
100
AcDbPoint
 10
9571.529467883012
 20
-1348.292436937392
 30
0.0
  0
ENDBLK
  5
14C
330
141
100
AcDbEntity
  8
0
100
AcDbBlockEnd
  0
BLOCK
  5
151
330
150
100
AcDbEntity
  8
0
100
AcDbBlockBegin
  2
*D11
 70
     1
 10
0.0
 20
0.0
 30
0.0
  3
*D11
  1

  0
LINE
  5
152
330
150
100
AcDbEntity
  8
0
 62
   123
370
    -2
100
AcDbLine
 10
9628.866429644434
 20
-1312.792436937392
 30
0.0
 11
9554.510376908714
 21
-1312.792436937392
 31
0.0
  0
LINE
  5
153
330
150
100
AcDbEntity
  8
0
 62
   123
370
    -2
100
AcDbLine
 10
9628.866429644434
 20
-1395.792436937392
 30
0.0
 11
9554.510376908714
 21
-1395.792436937392
 31
0.0
  0
LINE
  5
154
330
150
100
AcDbEntity
  8
0
 62
   123
370
    -2
100
AcDbLine
 10
9555.110376908714
 20
-1316.792436937392
 30
0.0
 11
9555.110376908714
 21
-1391.792436937392
 31
0.0
  0
SOLID
  5
155
330
150
100
AcDbEntity
  8
0
 62
   123
100
AcDbTrace
 10
9554.443710242049
 20
-1316.792436937392
 30
0.0
 11
9555.77704357538
 21
-1316.792436937392
 31
0.0
 12
9555.110376908714
 22
-1312.792436937392
 32
0.0
 13
9555.110376908714
 23
-1312.792436937392
 33
0.0
  0
SOLID
  5
156
330
150
100
AcDbEntity
  8
0
 62
   123
100
AcDbTrace
 10
9554.443710242049
 20
-1391.792436937392
 30
0.0
 11
9555.77704357538
 21
-1391.792436937392
 31
0.0
 12
9555.110376908714
 22
-1395.792436937392
 32
0.0
 13
9555.110376908714
 23
-1395.792436937392
 33
0.0
  0
MTEXT
  5
157
330
150
100
AcDbEntity
  8
0
 62
     3
100
AcDbMText
 10
9548.693460242047
 20
-1352.927480304641
 30
0.0
 40
5.0
 41
0.0
 71
     5
 72
     1
  1
\A1;\A1;{\f??|b0|i0|c0|p49;%%C}83{\f??|b0|i0|c0|p49;\H0.7x;\S+0^ -0.035;\H1.429x;(h}7{\f??|b0|i0|c0|p49;)}
 11
0.0000000000000001
 21
1.0
 31
0.0
 73
     1
 44
1.0
1001
ACAD
1000
MTEXTBEGIN
1070
    73
1070
     1
1070
    44
1040
1.0
1070
    74
1070
     0
1000
MTEXTEND
  0
POINT
  5
158
330
150
100
AcDbEntity
  8
Defpoints
 62
     0
100
AcDbPoint
 10
9629.866429644433
 20
-1312.792436937392
 30
0.0
  0
POINT
  5
159
330
150
100
AcDbEntity
  8
Defpoints
 62
     0
100
AcDbPoint
 10
9629.866429644433
 20
-1395.792436937392
 30
0.0
  0
POINT
  5
15A
330
150
100
AcDbEntity
  8
Defpoints
 62
     0
100
AcDbPoint
 10
9555.110376908714
 20
-1395.792436937392
 30
0.0
  0
ENDBLK
  5
15B
330
150
100
AcDbEntity
  8
0
100
AcDbBlockEnd
  0
ENDSEC
  0
SECTION
  2
ENTITIES
  0
LEADER
  5
64
330
2
100
AcDbEntity
  8
0
100
AcDbLeader
  3
STANDARD
 76
     2
 10
9516.902612844296
 20
-1314.373262484585
 30
0.0
 10
9507.112629901362
 20
-1291.915432459251
 30
0.0
1001
ACAD
1000
DSTYLE
1002
{
1070
     5
1000

1002
}
  0
ARC
  5
65
330
2
100
AcDbEntity
  8
0
 48
0.6
100
AcDbCircle
 10
9495.02023362179
 20
-1324.05528702132
 30
0.0
 40
3.067967999999998
100
AcDbArc
 50
63.63432749696078
 51
128.0513255192949
  0
ARC
  5
66
330
2
100
AcDbEntity
  8
0
 48
0.6
100
AcDbCircle
 10
9495.02023362179
 20
-1384.529586853458
 30
0.0
 40
3.067967999999998
100
AcDbArc
 50
231.9486744807051
 51
296.365672503039
  0
MTEXT
  5
67
102
{ACAD_REACTORS
330
64
102
}
330
2
100
AcDbEntity
  8
0
 62
     3
100
AcDbMText
 10
9506.112629901359
 20
-1290.328771513681
 30
0.0
 40
5.0
 41
0.0
 71
     9
 72
     1
  1
4-%%C6.5 hole
 73
     1
 44
1.0
1001
ACAD
1000
MTEXTBEGIN
1070
    73
1070
     1
1070
    44
1040
1.0
1070
    74
1070
     0
1000
MTEXTEND
  0
DIMENSION
  5
68
330
2
100
AcDbEntity
  8
0
100
AcDbDimension
  2
*D0
 10
9525.108419647869
 20
-1277.557655129856
 30
0.0
 11
9480.108419647867
 21
-1277.557655129856
 31
0.0
 70
   128
 71
     5
 42
-1.0
  3
STANDARD
100
AcDbAlignedDimension
 13
9435.108419647868
 23
-1314.335230696188
 33
0.0
 14
9525.108419647869
 24
-1314.335230696188
 34
0.0
100
AcDbRotatedDimension
  0
LINE
  5
76
330
2
100
AcDbEntity
  8
0
  6
CENTER
 62
     1
 48
0.6
100
AcDbLine
 10
9430.855143433465
 20
-1354.292436937392
 30
0.0
 11
9529.361695862265
 21
-1354.292436937392
 31
0.0
  0
CIRCLE
  5
78
330
2
100
AcDbEntity
  8
0
 48
0.6
100
AcDbCircle
 10
9480.108419647867
 20
-1354.292436937392
 30
0.0
 40
43.5
  0
CIRCLE
  5
79
330
2
100
AcDbEntity
  8
0
 48
0.6
100
AcDbCircle
 10
9480.108419647867
 20
-1354.292436937392
 30
0.0
 40
42.00000000000005
  0
CIRCLE
  5
7A
330
2
100
AcDbEntity
  8
0
 48
0.6
100
AcDbCircle
 10
9480.108419647867
 20
-1354.292436937392
 30
0.0
 40
20.0
  0
LINE
  5
7B
330
2
100
AcDbEntity
  8
0
  6
CENTER
 62
     1
 48
0.6
100
AcDbLine
 10
9480.108419647867
 20
-1406.061870983378
 30
0.0
 11
9480.108419647867
 21
-1302.523002891406
 31
0.0
  0
ARC
  5
7C
330
2
100
AcDbEntity
  8
0
 48
0.6
100
AcDbCircle
 10
9449.795805417618
 20
-1369.279715225492
 30
0.0
 40
3.067967999999998
100
AcDbArc
 50
141.9486744805831
 51
206.3656725032693
  0
ARC
  5
7D
330
2
100
AcDbEntity
  8
0
 48
0.6
100
AcDbCircle
 10
9465.045677045585
 20
-1384.529586853458
 30
0.0
 40
3.067967999999998
100
AcDbArc
 50
243.6343274969608
 51
308.051325519295
  0
ARC
  5
7E
330
2
100
AcDbEntity
  8
0
 48
0.6
100
AcDbCircle
 10
9480.03295533369
 20
-1354.292436937392
 30
0.0
 40
36.81561599999999
100
AcDbArc
 50
206.3656725032693
 51
243.6343274969608
  0
ARC
  5
7F
330
2
100
AcDbEntity
  8
0
 48
0.6
100
AcDbCircle
 10
9480.03295533369
 20
-1354.292436937392
 30
0.0
 40
33.74764799999999
100
AcDbArc
 50
252.2801918471401
 51
287.7198081528598
  0
ARC
  5
80
330
2
100
AcDbEntity
  8
0
 48
0.6
100
AcDbCircle
 10
9468.827666293625
 20
-1389.361384440677
 30
0.0
 40
3.067967999999998
100
AcDbArc
 50
72.28019184714011
 51
128.0513255192949
  0
ARC
  5
81
330
2
100
AcDbEntity
  8
0
 48
0.6
100
AcDbCircle
 10
9491.23824437375
 20
-1389.361384440677
 30
0.0
 40
3.067967999999998
100
AcDbArc
 50
51.94867448070505
 51
107.7198081528599
  0
ARC
  5
82
330
2
100
AcDbEntity
  8
0
 48
0.6
100
AcDbCircle
 10
9465.045677045585
 20
-1324.05528702132
 30
0.0
 40
3.067967999999998
100
AcDbArc
 50
51.94867448070505
 51
116.3656725030392
  0
ARC
  5
83
330
2
100
AcDbEntity
  8
0
 48
0.6
100
AcDbCircle
 10
9449.795805417618
 20
-1339.305158649293
 30
0.0
 40
3.067967999999998
100
AcDbArc
 50
153.6343274967306
 51
218.0513255194168
  0
ARC
  5
84
330
2
100
AcDbEntity
  8
0
 48
0.6
100
AcDbCircle
 10
9480.03295533369
 20
-1354.292436937392
 30
0.0
 40
33.74764799999999
100
AcDbArc
 50
162.2801918475231
 51
197.7198081524768
  0
ARC
  5
85
330
2
100
AcDbEntity
  8
0
 48
0.6
100
AcDbCircle
 10
9444.964007830405
 20
-1365.497725977458
 30
0.0
 40
3.067967999999998
100
AcDbArc
 50
321.9486744805832
 51
17.71980815247685
  0
ARC
  5
86
330
2
100
AcDbEntity
  8
0
 48
0.6
100
AcDbCircle
 10
9444.964007830405
 20
-1343.087147897326
 30
0.0
 40
3.067967999999998
100
AcDbArc
 50
342.2801918475228
 51
38.05132551941684
  0
ARC
  5
87
330
2
100
AcDbEntity
  8
0
 48
0.6
100
AcDbCircle
 10
9480.03295533369
 20
-1354.292436937392
 30
0.0
 40
36.81561599999999
100
AcDbArc
 50
116.3656725030392
 51
153.6343274967306
  0
CIRCLE
  5
88
330
2
100
AcDbEntity
  8
0
 48
0.6
100
AcDbCircle
 10
9480.108419647867
 20
-1354.292436937392
 30
0.0
 40
6.0
  0
LINE
  5
89
330
2
100
AcDbEntity
  8
0
 48
0.6
100
AcDbLine
 10
9476.791794857509
 20
-1349.292436937392
 30
0.0
 11
9483.425044438224
 21
-1349.292436937392
 31
0.0
  0
ARC
  5
8A
330
2
100
AcDbEntity
  8
0
 48
0.6
100
AcDbCircle
 10
9480.03295533369
 20
-1354.292436937392
 30
0.0
 40
33.74764799999999
100
AcDbArc
 50
72.28019184714011
 51
107.7198081528599
  0
ARC
  5
8B
330
2
100
AcDbEntity
  8
0
 48
0.6
100
AcDbCircle
 10
9468.827666293625
 20
-1319.223489434107
 30
0.0
 40
3.067967999999998
100
AcDbArc
 50
231.9486744807051
 51
287.7198081528598
  0
ARC
  5
8C
330
2
100
AcDbEntity
  8
0
 48
0.6
100
AcDbCircle
 10
9491.23824437375
 20
-1319.223489434107
 30
0.0
 40
3.067967999999998
100
AcDbArc
 50
252.2801918471401
 51
308.051325519295
  0
LINE
  5
8D
330
2
100
AcDbEntity
  8
0
 62
     3
100
AcDbLine
 10
9470.672165605298
 20
-1275.802599509667
 30
0.0
 11
9474.302165605292
 21
-1275.802599509667
 31
0.0
  0
LINE
  5
8E
330
2
100
AcDbEntity
  8
0
 62
     3
100
AcDbLine
 10
9474.302165605292
 20
-1275.802599509667
 30
0.0
 11
9474.302165605292
 21
-1271.952599509666
 31
0.0
  0
LINE
  5
8F
330
2
100
AcDbEntity
  8
0
 62
     3
100
AcDbLine
 10
9474.302165605292
 20
-1271.952599509666
 30
0.0
 11
9470.672165605298
 21
-1271.952599509666
 31
0.0
  0
LINE
  5
90
330
2
100
AcDbEntity
  8
0
 62
     3
100
AcDbLine
 10
9470.672165605298
 20
-1271.952599509666
 30
0.0
 11
9470.672165605298
 21
-1275.802599509667
 31
0.0
  0
ARC
  5
91
330
2
100
AcDbEntity
  8
0
 48
0.6
100
AcDbCircle
 10
9510.270105249757
 20
-1369.279715225492
 30
0.0
 40
3.067967999999998
100
AcDbArc
 50
333.6343274967307
 51
38.05132551941684
  0
ARC
  5
92
330
2
100
AcDbEntity
  8
0
 48
0.6
100
AcDbCircle
 10
9480.03295533369
 20
-1354.292436937392
 30
0.0
 40
36.81561599999999
100
AcDbArc
 50
296.365672503039
 51
333.6343274967307
  0
ARC
  5
93
330
2
100
AcDbEntity
  8
0
 48
0.6
100
AcDbCircle
 10
9510.270105249757
 20
-1339.305158649293
 30
0.0
 40
3.067967999999998
100
AcDbArc
 50
321.9486744805832
 51
26.36567250326933
  0
ARC
  5
94
330
2
100
AcDbEntity
  8
0
 48
0.6
100
AcDbCircle
 10
9480.03295533369
 20
-1354.292436937392
 30
0.0
 40
33.74764799999999
100
AcDbArc
 50
342.2801918475228
 51
17.71980815247685
  0
ARC
  5
95
330
2
100
AcDbEntity
  8
0
 48
0.6
100
AcDbCircle
 10
9515.101902836976
 20
-1365.497725977458
 30
0.0
 40
3.067967999999998
100
AcDbArc
 50
162.2801918475231
 51
218.0513255194168
  0
ARC
  5
96
330
2
100
AcDbEntity
  8
0
 48
0.6
100
AcDbCircle
 10
9515.101902836976
 20
-1343.087147897326
 30
0.0
 40
3.067967999999998
100
AcDbArc
 50
141.9486744805831
 51
197.7198081524768
  0
ARC
  5
97
330
2
100
AcDbEntity
  8
0
 48
0.6
100
AcDbCircle
 10
9480.03295533369
 20
-1354.292436937392
 30
0.0
 40
36.81561599999999
100
AcDbArc
 50
26.36567250326933
 51
63.63432749696078
  0
LINE
  5
98
330
2
100
AcDbEntity
  8
0
100
AcDbLine
 10
9440.108419647868
 20
-1399.292436937392
 30
0.0
 11
9520.108419647867
 21
-1399.292436937392
 31
0.0
  0
ARC
  5
99
330
2
100
AcDbEntity
  8
0
100
AcDbCircle
 10
9520.108419647867
 20
-1394.292436937392
 30
0.0
 40
5.0
100
AcDbArc
 50
270.0
 51
0.0
  0
LINE
  5
9A
330
2
100
AcDbEntity
  8
0
100
AcDbLine
 10
9525.108419647869
 20
-1394.292436937392
 30
0.0
 11
9525.108419647869
 21
-1314.292436937392
 31
0.0
  0
ARC
  5
9B
330
2
100
AcDbEntity
  8
0
100
AcDbCircle
 10
9520.108419647867
 20
-1314.292436937392
 30
0.0
 40
5.0
100
AcDbArc
 50
0.0
 51
90.0
  0
LINE
  5
9C
330
2
100
AcDbEntity
  8
0
100
AcDbLine
 10
9520.108419647867
 20
-1309.292436937392
 30
0.0
 11
9440.108419647868
 21
-1309.292436937392
 31
0.0
  0
ARC
  5
9D
330
2
100
AcDbEntity
  8
0
100
AcDbCircle
 10
9440.108419647868
 20
-1314.292436937392
 30
0.0
 40
5.0
100
AcDbArc
 50
90.0
 51
180.0
  0
LINE
  5
9E
330
2
100
AcDbEntity
  8
0
100
AcDbLine
 10
9435.108419647868
 20
-1314.292436937392
 30
0.0
 11
9435.108419647868
 21
-1394.292436937392
 31
0.0
  0
ARC
  5
9F
330
2
100
AcDbEntity
  8
0
100
AcDbCircle
 10
9440.108419647868
 20
-1394.292436937392
 30
0.0
 40
5.0
100
AcDbArc
 50
180.0
 51
270.0
  0
CIRCLE
  5
A0
330
2
100
AcDbEntity
  8
0
100
AcDbCircle
 10
9516.877972269567
 20
-1317.522884315693
 30
0.0
 40
3.25
  0
LINE
  5
A1
330
2
100
AcDbEntity
  8
0
  6
CENTER
 62
     1
 48
0.6
100
AcDbLine
 10
9513.165661668336
 20
-1321.235194916922
 30
0.0
 11
9520.590282870797
 21
-1313.810573714463
 31
0.0
  0
ARC
  5
A2
102
{ACAD_REACTORS
330
A5
102
}
330
2
100
AcDbEntity
  8
0
  6
CENTER
 62
     1
 48
0.6
100
AcDbCircle
 10
9480.108419647867
 20
-1354.292436937392
 30
0.0
 40
51.9999999999996
100
AcDbArc
 50
35.90024337538384
 51
54.09975662481239
  0
DIMENSION
  5
A3
102
{ACAD_XDICTIONARY
360
A4
102
}
102
{ACAD_REACTORS
330
A5
102
}
330
2
100
AcDbEntity
  8
0
100
AcDbDimension
  2
*D2
 10
9438.815162051454
 20
-1385.897292214339
 30
0.0
 11
9547.679164201912
 21
-1302.575432106764
 31
0.0
 70
   131
  1
<>%%P0.5
 71
     5
 42
-1.0
  3
STANDARD
100
AcDbDiametricDimension
 15
9521.401677244275
 25
-1322.687581660449
 35
0.0
 40
0.0
1001
ACAD
1000
DSTYLE
1002
{
1070
   287
1070
     4
1070
   287
1070
     4
1070
   287
1070
     4
1070
   287
1070
     4
1070
   287
1070
     4
1070
   287
1070
     4
1070
   279
1070
     1
1070
   289
1070
     3
1002
}
  0
ARC
  5
B1
330
2
100
AcDbEntity
  8
0
  6
CENTER
 62
     1
 48
0.6
100
AcDbCircle
 10
9480.108419647867
 20
-1354.292436937392
 30
0.0
 40
52.0
100
AcDbArc
 50
129.212870277914
 51
140.7871297218453
  0
LINE
  5
B2
330
2
100
AcDbEntity
  8
0
  6
CENTER
 62
     1
 48
0.6
100
AcDbLine
 10
9447.051177627399
 20
-1321.235194916922
 30
0.0
 11
9439.626556424938
 21
-1313.810573714463
 31
0.0
  0
CIRCLE
  5
B3
330
2
100
AcDbEntity
  8
0
100
AcDbCircle
 10
9443.338867026168
 20
-1317.522884315693
 30
0.0
 40
3.25
  0
LINE
  5
B4
330
2
100
AcDbEntity
  8
0
  6
CENTER
 62
     1
 48
0.6
100
AcDbLine
 10
9447.051177627399
 20
-1387.349678957862
 30
0.0
 11
9439.626556424938
 21
-1394.774300160321
 31
0.0
  0
CIRCLE
  5
B5
330
2
100
AcDbEntity
  8
0
100
AcDbCircle
 10
9443.338867026168
 20
-1391.061989559092
 30
0.0
 40
3.25
  0
ARC
  5
B6
330
2
100
AcDbEntity
  8
0
  6
CENTER
 62
     1
 48
0.6
100
AcDbCircle
 10
9480.108419647867
 20
-1354.292436937392
 30
0.0
 40
51.9999999999996
100
AcDbArc
 50
215.9002433753838
 51
234.0997566248124
  0
ARC
  5
B7
330
2
100
AcDbEntity
  8
0
  6
CENTER
 62
     1
 48
0.6
100
AcDbCircle
 10
9480.108419647867
 20
-1354.292436937392
 30
0.0
 40
52.0
100
AcDbArc
 50
309.2128702779141
 51
320.7871297218453
  0
LINE
  5
B8
330
2
100
AcDbEntity
  8
0
  6
CENTER
 62
     1
 48
0.6
100
AcDbLine
 10
9513.165661668336
 20
-1387.349678957862
 30
0.0
 11
9520.590282870797
 21
-1394.774300160321
 31
0.0
  0
CIRCLE
  5
B9
330
2
100
AcDbEntity
  8
0
100
AcDbCircle
 10
9516.877972269567
 20
-1391.061989559092
 30
0.0
 40
3.25
  0
LINE
  5
BA
330
2
100
AcDbEntity
  8
0
  6
CENTER
 62
     1
 48
0.6
100
AcDbLine
 10
9498.74802995466
 20
-1399.292436937378
 30
0.0
 11
9480.108419647859
 21
-1354.292436937385
 31
0.0
  0
DIMENSION
  5
BB
330
2
100
AcDbEntity
  8
0
 48
0.6
100
AcDbDimension
  2
*D1
 10
9480.102201976972
 20
-1300.68368905303
 30
0.0
 11
9493.3669179906
 21
-1420.97952013036
 31
0.0
 70
     2
  1
<>
 71
     5
 42
-1.0
  3
STANDARD
100
AcDb2LineAngularDimension
 13
9480.102201976972
 23
-1354.313833816783
 33
0.0
 14
9498.74802995466
 24
-1399.313833816775
 34
0.0
 15
9480.102201976972
 25
-1407.943978580535
 35
0.0
 16
9489.561482706852
 26
-1426.142385237964
 36
0.0
1001
ACAD
1000
DSTYLE
1002
{
1070
   271
1070
     1
1070
   271
1070
     1
1070
   271
1070
     1
1070
   271
1070
     1
1070
   271
1070
     1
1070
   271
1070
     1
1070
   271
1070
     1
1002
}
  0
LINE
  5
CA
330
2
100
AcDbEntity
  8
0
 62
   123
100
AcDbLine
 10
9507.112629901362
 20
-1291.915432459251
 30
0.0
 11
9461.874879425248
 21
-1291.915432459251
 31
0.0
  0
DIMENSION
  5
CB
330
2
100
AcDbEntity
  8
0
100
AcDbDimension
  2
*D3
 10
9830.751812681626
 20
-1400.112623648429
 30
0.0
 11
9830.751812681626
 21
-1354.112623648425
 31
0.0
 70
   128
 71
     5
 42
-1.0
  3
STANDARD
100
AcDbAlignedDimension
 13
9808.86535184508
 23
-1308.112623648425
 33
0.0
 14
9808.86535184508
 24
-1400.112623648429
 34
0.0
 50
90.0
100
AcDbRotatedDimension
  0
LINE
  5
D8
330
2
100
AcDbEntity
  8
0
  6
CENTER
 62
     1
100
AcDbLine
 10
9818.745707536825
 20
-1354.292436937392
 30
0.0
 11
9587.016433095099
 21
-1354.292436937392
 31
0.0
  0
LINE
  5
D9
330
2
100
AcDbEntity
  8
0
100
AcDbLine
 10
9752.20646435212
 20
-1330.842494696424
 30
0.0
 11
9810.86535184508
 21
-1330.842494696424
 31
0.0
  0
LINE
  5
DA
330
2
100
AcDbEntity
  8
0
100
AcDbLine
 10
9807.86535184508
 20
-1308.112623648425
 30
0.0
 11
9752.20646435212
 21
-1308.112623648429
 31
0.0
  0
ARC
  5
DB
330
2
100
AcDbEntity
  8
0
100
AcDbCircle
 10
9807.86535184508
 20
-1311.112623648425
 30
0.0
 40
3.0
100
AcDbArc
 50
0.0
 51
90.0
  0
LINE
  5
DC
330
2
100
AcDbEntity
  8
0
100
AcDbLine
 10
9807.86535184508
 20
-1400.112623648429
 30
0.0
 11
9752.20646435212
 21
-1400.112623648429
 31
0.0
  0
ARC
  5
DD
330
2
100
AcDbEntity
  8
0
100
AcDbCircle
 10
9807.86535184508
 20
-1397.112623648429
 30
0.0
 40
3.0
100
AcDbArc
 50
270.0
 51
0.0
  0
LINE
  5
DE
330
2
100
AcDbEntity
  8
0
100
AcDbLine
 10
9752.20646435212
 20
-1377.38275260043
 30
0.0
 11
9810.86535184508
 21
-1377.382752600433
 31
0.0
  0
LINE
  5
DF
330
2
100
AcDbEntity
  8
0
100
AcDbLine
 10
9810.86535184508
 20
-1311.112623648425
 30
0.0
 11
9810.86535184508
 21
-1397.112623648429
 31
0.0
  0
LINE
  5
E0
330
2
100
AcDbEntity
  8
0
100
AcDbLine
 10
9752.20646435212
 20
-1308.112623648429
 30
0.0
 11
9752.20646435212
 21
-1400.112623648429
 31
0.0
  0
DIMENSION
  5
E1
102
{ACAD_XDICTIONARY
360
E2
102
}
102
{ACAD_REACTORS
330
E3
102
}
330
2
100
AcDbEntity
  8
0
100
AcDbDimension
  2
*D6
 10
9639.366429644432
 20
-1287.471136737562
 30
0.0
 11
9654.104524882528
 21
-1287.471136737562
 31
0.0
 70
   128
 71
     5
 42
-1.0
  3
STANDARD
100
AcDbAlignedDimension
 13
9631.866429644434
 23
-1309.08410360406
 33
0.0
 14
9639.366429644432
 24
-1310.693699595862
 34
0.0
100
AcDbRotatedDimension
  0
DIMENSION
  5
F2
330
2
100
AcDbEntity
  8
0
100
AcDbDimension
  2
*D4
 10
9631.866429644434
 20
-1297.097348576839
 30
0.0
 11
9618.699762977763
 21
-1297.097348576839
 31
0.0
 70
   128
 71
     5
 42
-1.0
  3
STANDARD
100
AcDbAlignedDimension
 13
9629.866429644433
 23
-1312.792436937392
 33
0.0
 14
9631.866429644434
 24
-1309.292436937392
 34
0.0
100
AcDbRotatedDimension
  0
DIMENSION
  5
101
102
{ACAD_XDICTIONARY
360
102
102
}
102
{ACAD_REACTORS
330
103
102
}
330
2
100
AcDbEntity
  8
0
100
AcDbDimension
  2
*D7
 10
9631.866429644434
 20
-1273.986369325436
 30
0.0
 11
9615.116429644434
 21
-1273.986369325436
 31
0.0
 70
   128
 71
     5
 42
-1.0
  3
STANDARD
100
AcDbAlignedDimension
 13
9594.866429644433
 23
-1349.292436937392
 33
0.0
 14
9631.866429644434
 24
-1309.08410360406
 34
0.0
100
AcDbRotatedDimension
  0
LINE
  5
110
330
2
100
AcDbEntity
  8
0
100
AcDbLine
 10
9639.366429644432
 20
-1318.393699595863
 30
0.0
 11
9639.366429644432
 21
-1310.693699595862
 31
0.0
  0
LINE
  5
111
330
2
100
AcDbEntity
  8
0
100
AcDbLine
 10
9631.866429644434
 20
-1312.792436937392
 30
0.0
 11
9629.866429644433
 21
-1312.792436937392
 31
0.0
  0
LINE
  5
112
330
2
100
AcDbEntity
  8
0
100
AcDbLine
 10
9631.866429644434
 20
-1309.292436937392
 30
0.0
 11
9752.20646435212
 21
-1309.292436937392
 31
0.0
  0
LINE
  5
113
330
2
100
AcDbEntity
  8
0
100
AcDbLine
 10
9638.466429644434
 20
-1318.393699595863
 30
0.0
 11
9639.366429644432
 21
-1318.393699595863
 31
0.0
  0
LINE
  5
114
102
{ACAD_REACTORS
330
E3
102
}
330
2
100
AcDbEntity
  8
0
100
AcDbLine
 10
9638.466429644434
 20
-1310.693699595862
 30
0.0
 11
9639.366429644432
 21
-1310.693699595862
 31
0.0
  0
LINE
  5
115
330
2
100
AcDbEntity
  8
0
100
AcDbLine
 10
9624.866429644434
 20
-1348.292436937392
 30
0.0
 11
9624.866429644434
 21
-1349.292436937392
 31
0.0
  0
LINE
  5
116
102
{ACAD_REACTORS
330
12A
330
140
102
}
330
2
100
AcDbEntity
  8
0
100
AcDbLine
 10
9629.866429644433
 20
-1348.292436937392
 30
0.0
 11
9624.866429644434
 21
-1348.292436937392
 31
0.0
  0
LINE
  5
117
330
2
100
AcDbEntity
  8
0
100
AcDbLine
 10
9594.866429644433
 20
-1349.292436937392
 30
0.0
 11
9594.866429644433
 21
-1360.292436937392
 31
0.0
  0
DIMENSION
  5
118
102
{ACAD_XDICTIONARY
360
119
102
}
102
{ACAD_REACTORS
330
11A
102
}
330
2
100
AcDbEntity
  8
0
100
AcDbDimension
  2
*D8
 10
9582.39794876372
 20
-1349.292436937392
 30
0.0
 11
9582.39794876372
 21
-1354.792436937392
 31
0.0
 70
   128
  1
<>
 71
     5
 42
-1.0
  3
STANDARD
100
AcDbAlignedDimension
 13
9594.866429644433
 23
-1360.292436937392
 33
0.0
 14
9594.866429644433
 24
-1349.292436937392
 34
0.0
 50
90.0
100
AcDbRotatedDimension
  0
LINE
  5
127
102
{ACAD_REACTORS
330
12A
330
11A
330
103
102
}
330
2
100
AcDbEntity
  8
0
100
AcDbLine
 10
9624.866429644434
 20
-1349.292436937392
 30
0.0
 11
9594.866429644433
 21
-1349.292436937392
 31
0.0
  0
DIMENSION
  5
128
102
{ACAD_XDICTIONARY
360
129
102
}
102
{ACAD_REACTORS
330
12A
102
}
330
2
100
AcDbEntity
  8
0
100
AcDbDimension
  2
*D9
 10
9624.866429644434
 20
-1328.945888680328
 30
0.0
 11
9611.125114008933
 21
-1328.945888680328
 31
0.0
 70
   128
 71
     5
 42
-1.0
  3
STANDARD
100
AcDbAlignedDimension
 13
9594.866429644433
 23
-1349.292436937392
 33
0.0
 14
9624.866429644434
 24
-1348.292436937392
 34
0.0
100
AcDbRotatedDimension
  0
LINE
  5
137
102
{ACAD_REACTORS
330
11A
330
140
102
}
330
2
100
AcDbEntity
  8
0
100
AcDbLine
 10
9629.866429644433
 20
-1360.292436937392
 30
0.0
 11
9594.866429644433
 21
-1360.292436937392
 31
0.0
  0
LINE
  5
138
330
2
100
AcDbEntity
  8
0
100
AcDbLine
 10
9638.466429644434
 20
-1390.191174278921
 30
0.0
 11
9639.366429644432
 21
-1390.191174278921
 31
0.0
  0
LINE
  5
139
330
2
100
AcDbEntity
  8
0
100
AcDbLine
 10
9639.366429644432
 20
-1390.191174278921
 30
0.0
 11
9639.366429644432
 21
-1397.891174278922
 31
0.0
  0
LINE
  5
13A
330
2
100
AcDbEntity
  8
0
100
AcDbLine
 10
9631.866429644434
 20
-1399.292436937392
 30
0.0
 11
9647.178448301884
 21
-1399.292436937392
 31
0.0
  0
LINE
  5
13B
330
2
100
AcDbEntity
  8
0
100
AcDbLine
 10
9652.393220557913
 20
-1399.292436937392
 30
0.0
 11
9752.20646435212
 21
-1399.292436937392
 31
0.0
  0
LINE
  5
13C
330
2
100
AcDbEntity
  8
0
100
AcDbLine
 10
9631.866429644434
 20
-1395.792436937392
 30
0.0
 11
9629.866429644433
 21
-1395.792436937392
 31
0.0
  0
LINE
  5
13D
330
2
100
AcDbEntity
  8
0
100
AcDbLine
 10
9638.466429644434
 20
-1397.891174278922
 30
0.0
 11
9639.366429644432
 21
-1397.891174278922
 31
0.0
  0
DIMENSION
  5
13E
102
{ACAD_XDICTIONARY
360
13F
102
}
102
{ACAD_REACTORS
330
140
102
}
330
2
100
AcDbEntity
  8
0
100
AcDbDimension
  2
*D10
 10
9571.529467883012
 20
-1348.292436937392
 30
0.0
 11
9571.529467883012
 21
-1354.292436937391
 31
0.0
 70
   128
  1
\A1;{\f??|b0|i0|c0|p49;%%C}12{\f??|b0|i0|c0|p49;\H0.7x;\S+0^ -0.018;\H1.429x;(h}7{\f??|b0|i0|c0|p49;)}
 71
     5
 42
-1.0
  3
STANDARD
100
AcDbAlignedDimension
 13
9594.866429644433
 23
-1360.292436937392
 33
0.0
 14
9624.866429644434
 24
-1348.292436937392
 34
0.0
 50
90.0
100
AcDbRotatedDimension
  0
DIMENSION
  5
14D
102
{ACAD_XDICTIONARY
360
14E
102
}
102
{ACAD_REACTORS
330
14F
102
}
330
2
100
AcDbEntity
  8
0
100
AcDbDimension
  2
*D11
 10
9555.110376908714
 20
-1395.792436937392
 30
0.0
 11
9555.110376908714
 21
-1352.927480304641
 31
0.0
 70
   128
  1
\A1;{\f??|b0|i0|c0|p49;%%C}<>{\f??|b0|i0|c0|p49;\H0.7x;\S+0^ -0.035;\H1.429x;(h}7{\f??|b0|i0|c0|p49;)}
 71
     5
 42
-1.0
  3
STANDARD
100
AcDbAlignedDimension
 13
9629.866429644433
 23
-1312.792436937392
 33
0.0
 14
9629.866429644433
 24
-1395.792436937392
 34
0.0
 50
90.0
100
AcDbRotatedDimension
  0
LINE
  5
15C
330
2
100
AcDbEntity
  8
0
100
AcDbLine
 10
9631.866429644434
 20
-1309.292436937392
 30
0.0
 11
9631.866429644434
 21
-1399.292436937392
 31
0.0
  0
LINE
  5
15D
102
{ACAD_REACTORS
330
14F
102
}
330
2
100
AcDbEntity
  8
0
100
AcDbLine
 10
9629.866429644433
 20
-1312.792436937392
 30
0.0
 11
9629.866429644433
 21
-1395.792436937392
 31
0.0
  0
LINE
  5
15E
330
2
100
AcDbEntity
  8
0
100
AcDbLine
 10
9638.466429644434
 20
-1309.292436937392
 30
0.0
 11
9638.466429644434
 21
-1399.292436937392
 31
0.0
  0
DIMENSION
  5
15F
330
2
100
AcDbEntity
  8
0
100
AcDbDimension
  2
*D5
 10
9810.86535184508
 20
-1273.986369325436
 30
0.0
 11
9720.865890744756
 21
-1273.986369325436
 31
0.0
 70
   128
  1
M
 71
     5
 42
-1.0
  3
STANDARD
100
AcDbAlignedDimension
 13
9631.866429644434
 23
-1309.292436937392
 33
0.0
 14
9810.86535184508
 24
-1311.112623648425
 34
0.0
100
AcDbRotatedDimension
  0
CIRCLE
  5
16C
330
2
100
AcDbEntity
  8
0
100
AcDbCircle
 10
9757.206464352124
 20
-1354.112623648429
 30
0.0
 40
3.0
  0
ARC
  5
16D
330
2
100
AcDbEntity
  8
0
100
AcDbCircle
 10
9758.170750066406
 20
-1353.148337934142
 30
0.0
 40
0.5357142857142857
100
AcDbArc
 50
180.0
 51
270.0
  0
ARC
  5
16E
330
2
100
AcDbEntity
  8
0
100
AcDbCircle
 10
9756.242178637837
 20
-1353.148337934142
 30
0.0
 40
0.5357142857142857
100
AcDbArc
 50
270.0
 51
0.0
  0
LINE
  5
16F
330
2
100
AcDbEntity
  8
0
100
AcDbLine
 10
9758.170750066406
 20
-1353.684052219856
 30
0.0
 11
9758.920750066408
 21
-1353.684052219856
 31
0.0
  0
ARC
  5
170
330
2
100
AcDbEntity
  8
0
100
AcDbCircle
 10
9758.170750066406
 20
-1355.076909362715
 30
0.0
 40
0.5357142857142857
100
AcDbArc
 50
90.0
 51
180.0
  0
LINE
  5
171
330
2
100
AcDbEntity
  8
0
100
AcDbLine
 10
9758.170750066406
 20
-1354.541195077001
 30
0.0
 11
9758.920750066408
 21
-1354.541195077001
 31
0.0
  0
LINE
  5
172
330
2
100
AcDbEntity
  8
0
100
AcDbLine
 10
9757.635035780696
 20
-1355.826909362715
 30
0.0
 11
9757.635035780696
 21
-1355.076909362715
 31
0.0
  0
LINE
  5
173
330
2
100
AcDbEntity
  8
0
100
AcDbLine
 10
9758.920750066408
 20
-1353.684052219856
 30
0.0
 11
9758.920750066408
 21
-1354.541195077001
 31
0.0
  0
ARC
  5
174
330
2
100
AcDbEntity
  8
0
100
AcDbCircle
 10
9756.242178637837
 20
-1355.076909362715
 30
0.0
 40
0.5357142857142857
100
AcDbArc
 50
0.0
 51
90.0
  0
LINE
  5
175
330
2
100
AcDbEntity
  8
0
100
AcDbLine
 10
9755.492178637837
 20
-1353.684052219856
 30
0.0
 11
9756.242178637837
 21
-1353.684052219856
 31
0.0
  0
LINE
  5
176
330
2
100
AcDbEntity
  8
0
100
AcDbLine
 10
9755.492178637837
 20
-1354.541195077001
 30
0.0
 11
9756.242178637837
 21
-1354.541195077001
 31
0.0
  0
LINE
  5
177
330
2
100
AcDbEntity
  8
0
100
AcDbLine
 10
9755.492178637837
 20
-1353.684052219856
 30
0.0
 11
9755.492178637837
 21
-1354.541195077001
 31
0.0
  0
LINE
  5
178
330
2
100
AcDbEntity
  8
0
100
AcDbLine
 10
9756.777892923549
 20
-1355.826909362715
 30
0.0
 11
9756.777892923549
 21
-1355.076909362715
 31
0.0
  0
LINE
  5
179
330
2
100
AcDbEntity
  8
0
100
AcDbLine
 10
9756.777892923549
 20
-1355.826909362715
 30
0.0
 11
9757.635035780696
 21
-1355.826909362715
 31
0.0
  0
LINE
  5
17A
330
2
100
AcDbEntity
  8
0
100
AcDbLine
 10
9757.635035780696
 20
-1353.148337934142
 30
0.0
 11
9757.635035780696
 21
-1352.398337934142
 31
0.0
  0
LINE
  5
17B
330
2
100
AcDbEntity
  8
0
100
AcDbLine
 10
9756.777892923549
 20
-1353.148337934142
 30
0.0
 11
9756.777892923549
 21
-1352.398337934142
 31
0.0
  0
LINE
  5
17C
330
2
100
AcDbEntity
  8
0
100
AcDbLine
 10
9756.777892923549
 20
-1352.398337934142
 30
0.0
 11
9757.635035780696
 21
-1352.398337934142
 31
0.0
  0
LINE
  5
17D
330
2
100
AcDbEntity
  8
0
 62
   123
 48
0.6
100
AcDbLine
 10
9711.231959543461
 20
-1431.565951471481
 30
0.0
 11
9824.243903626936
 21
-1431.565951471481
 31
0.0
  0
LINE
  5
17E
330
2
100
AcDbEntity
  8
0
 62
   123
100
AcDbLine
 10
9612.939286492952
 20
-1453.449106337126
 30
0.0
 11
9723.37731266678
 21
-1453.449106337126
 31
0.0
  0
LEADER
  5
17F
330
2
100
AcDbEntity
  8
0
 48
0.6
100
AcDbLeader
  3
STANDARD
 76
     2
 10
9724.577937360038
 20
-1394.055551350559
 30
0.0
 10
9711.231959543461
 20
-1431.565951471481
 30
0.0
1001
ACAD
1000
DSTYLE
1002
{
1070
     5
1000

1002
}
  0
LEADER
  5
180
330
2
100
AcDbEntity
  8
0
100
AcDbLeader
  3
STANDARD
 76
     2
 10
9641.440404847445
 20
-1406.488227775322
 30
0.0
 10
9612.939286492952
 20
-1453.449106337126
 30
0.0
1001
ACAD
1000
DSTYLE
1002
{
1070
     5
1000

1002
}
  0
MTEXT
  5
181
330
2
100
AcDbEntity
  8
0
 62
     3
100
AcDbMText
 10
9664.706889891792
 20
-1459.20185923861
 30
0.0
 40
5.0
 41
0.0
 71
     5
 72
     1
  1
UL Style 3271, AWG20
 73
     1
 44
1.0
1001
ACAD
1000
MTEXTBEGIN
1070
    73
1070
     1
1070
    44
1040
1.0
1070
    74
1070
     0
1000
MTEXTEND
  0
MTEXT
  5
182
330
2
100
AcDbEntity
  8
0
 62
     3
100
AcDbMText
 10
9765.049614501847
 20
-1438.307772149977
 30
0.0
 40
5.0
 41
0.0
 71
     5
 72
     1
  1
UL Style 3266 , AWG20
 73
     1
 44
1.0
1001
ACAD
1000
MTEXTBEGIN
1070
    73
1070
     1
1070
    44
1040
1.0
1070
    74
1070
     0
1000
MTEXTEND
  0
MTEXT
  5
183
102
{ACAD_XDICTIONARY
360
3FE
102
}
330
2
100
AcDbEntity
  8
0
 62
     3
100
AcDbMText
 10
9722.559781340708
 20
-1421.639925304129
 30
0.0
 40
5.0
 41
0.0
 71
     5
 72
     1
  1
ELECTRO-MAGNETIC BRAKE\PLEAD WIRE 300mm
 73
     1
 44
1.0
1001
ACAD
1000
MTEXTBEGIN
1070
    73
1070
     1
1070
    44
1040
1.0
1070
    74
1070
     0
1000
MTEXTEND
  0
MTEXT
  5
184
330
2
100
AcDbEntity
  8
0
 62
     3
100
AcDbMText
 10
9672.726319488472
 20
-1448.286024991596
 30
0.0
 40
5.0
 41
0.0
 71
     5
 72
     1
  1
MOTOR LEAD WIRE 300mm
 73
     1
 44
1.0
1001
ACAD
1000
MTEXTBEGIN
1070
    73
1070
     1
1070
    44
1040
1.0
1070
    74
1070
     0
1000
MTEXTEND
  0
LINE
  5
185
330
2
100
AcDbEntity
  8
0
100
AcDbLine
 10
9655.393220557913
 20
-1394.643194775492
 30
0.0
 11
9709.383265861156
 21
-1394.643194775488
 31
0.0
  0
LINE
  5
186
330
2
100
AcDbEntity
  8
0
100
AcDbLine
 10
9655.178153320072
 20
-1389.643194775492
 30
0.0
 11
9709.383265861156
 21
-1389.643194775488
 31
0.0
  0
LINE
  5
187
330
2
100
AcDbEntity
  8
0
100
AcDbLine
 10
9752.207542151474
 20
-1392.055551350559
 30
0.0
 11
9709.383265861156
 21
-1392.055551350559
 31
0.0
  0
LINE
  5
188
330
2
100
AcDbEntity
  8
0
100
AcDbLine
 10
9752.207542151474
 20
-1394.055551350559
 30
0.0
 11
9709.383265861156
 21
-1394.055551350559
 31
0.0
  0
LINE
  5
189
330
2
100
AcDbEntity
  8
0
100
AcDbLine
 10
9752.207542151474
 20
-1390.055551350559
 30
0.0
 11
9709.383265861156
 21
-1390.055551350559
 31
0.0
  0
ARC
  5
18A
330
2
100
AcDbEntity
  8
0
 48
0.6
100
AcDbCircle
 10
19271.56910815731
 20
-1399.317790077626
 30
0.0
 40
9630.131372805323
100
AcDbArc
 50
180.0057987943465
 51
180.0854738431518
  0
ARC
  5
18B
330
2
100
AcDbEntity
  8
0
 48
0.6
100
AcDbCircle
 10
17981.47927724996
 20
-1399.332905704226
 30
0.0
 40
8338.016067540399
100
AcDbArc
 50
180.0065935456831
 51
180.0986155903735
  0
ARC
  5
18C
330
2
100
AcDbEntity
  8
0
 48
0.6
100
AcDbCircle
 10
25624.73389041008
 20
-1397.976190454208
 30
0.0
 40
15979.38658124886
100
AcDbArc
 50
180.008305146539
 51
180.0563220726751
  0
ARC
  5
18D
330
2
100
AcDbEntity
  8
0
 48
0.6
100
AcDbCircle
 10
34204.73640151198
 20
-1394.074217024647
 30
0.0
 40
24557.55850761821
100
AcDbArc
 50
180.0083295739286
 51
180.0457520545317
  0
ARC
  5
18E
330
2
100
AcDbEntity
  8
0
 48
0.6
100
AcDbCircle
 10
9655.178153320072
 20
-1397.643194775488
 30
0.0
 40
8.0
100
AcDbArc
 50
90.0
 51
180.0083295739286
  0
LINE
  5
18F
330
2
100
AcDbEntity
  8
0
100
AcDbLine
 10
9709.383265861156
 20
-1389.643194775488
 30
0.0
 11
9709.383265861156
 21
-1394.643194775488
 31
0.0
  0
LINE
  5
190
330
2
100
AcDbEntity
  8
0
100
AcDbLine
 10
9652.393220557913
 20
-1397.643194775492
 30
0.0
 11
9652.393220557913
 21
-1413.684014592827
 31
0.0
  0
ARC
  5
191
330
2
100
AcDbEntity
  8
0
100
AcDbCircle
 10
9655.393220557913
 20
-1397.643194775492
 30
0.0
 40
3.0
100
AcDbArc
 50
90.0
 51
180.0
  0
LINE
  5
192
330
2
100
AcDbEntity
  8
0
100
AcDbLine
 10
9640.276388266364
 20
-1413.684014592827
 30
0.0
 11
9653.404633669014
 21
-1413.684014592827
 31
0.0
  0
LINE
  5
193
330
2
100
AcDbEntity
  8
0
100
AcDbLine
 10
9640.276388266364
 20
-1413.684014592827
 30
0.0
 11
9640.276388266364
 21
-1435.195884555543
 31
0.0
  0
LINE
  5
194
330
2
100
AcDbEntity
  8
0
100
AcDbLine
 10
9653.404633669014
 20
-1413.684014592827
 30
0.0
 11
9653.404633669014
 21
-1435.110276091038
 31
0.0
  0
SPLINE
  5
195
330
2
100
AcDbEntity
  8
0
100
AcDbSpline
210
0.0
220
0.0
230
1.0
 70
     8
 71
     3
 72
    11
 73
     7
 74
     0
 42
0.0000000001
 43
0.0000000001
 40
0.5894126140828729
 40
0.5894126140828729
 40
0.5894126140828729
 40
0.5894126140828729
 40
3.94622577503947
 40
7.252032053323973
 40
10.09210796370155
 40
13.81861596368982
 40
13.81861596368982
 40
13.81861596368982
 40
13.81861596368982
 10
9640.839626694534
 20
-1436.09546186149
 30
0.0
 10
9641.908757151206
 20
-1436.614544652557
 30
0.0
 10
9644.02876620997
 20
-1437.498031013989
 30
0.0
 10
9647.01444453858
 20
-1435.97595062421
 30
0.0
 10
9649.898710597561
 20
-1433.928928836891
 30
0.0
 10
9652.00732157842
 20
-1435.036832778265
 30
0.0
 10
9653.207134266885
 20
-1435.706927405006
 30
0.0
  0
SPLINE
  5
196
330
2
100
AcDbEntity
  8
0
100
AcDbSpline
210
0.0
220
0.0
230
1.0
 70
     8
 71
     3
 72
     9
 73
     5
 74
     0
 42
0.0000000001
 43
0.0000000001
 40
6.313964801839686
 40
6.313964801839686
 40
6.313964801839686
 40
6.313964801840936
 40
9.154040712218515
 40
11.79142878795785
 40
11.79142878795785
 40
11.79142878795785
 40
11.79142878795785
 10
9647.121586597021
 20
-1435.817469004365
 30
0.0
 10
9647.987917296594
 20
-1436.390049662734
 30
0.0
 10
9649.600771027074
 20
-1437.618988744665
 30
0.0
 10
9651.268868867761
 20
-1436.600549692744
 30
0.0
 10
9652.753754288609
 20
-1436.047353885622
 30
0.0
  0
ARC
  5
197
330
2
100
AcDbEntity
  8
0
100
AcDbCircle
 10
9641.276388266366
 20
-1435.195884555543
 30
0.0
 40
1.0
100
AcDbArc
 50
180.0
 51
244.1025614949296
  0
ARC
  5
198
330
2
100
AcDbEntity
  8
0
100
AcDbCircle
 10
9652.404633669041
 20
-1435.110276091038
 30
0.0
 40
1.0
100
AcDbArc
 50
290.432964352975
 51
0.0
  0
ARC
  5
199
330
2
100
AcDbEntity
  8
0
100
AcDbCircle
 10
9639.366429644432
 20
-1399.792436937392
 30
0.0
 40
0.5
100
AcDbArc
 50
180.0
 51
270.0
  0
LINE
  5
19A
330
2
100
AcDbEntity
  8
0
100
AcDbLine
 10
9638.866429644433
 20
-1399.292436937392
 30
0.0
 11
9638.866429644433
 21
-1399.792436937392
 31
0.0
  0
LINE
  5
19B
330
2
100
AcDbEntity
  8
0
100
AcDbLine
 10
9647.178681151586
 20
-1400.292436937392
 30
0.0
 11
9639.366429644432
 21
-1400.292436937392
 31
0.0
  0
ARC
  5
19C
330
2
100
AcDbEntity
  8
0
 48
0.6
100
AcDbCircle
 10
9598.493149529373
 20
-1345.166162463012
 30
0.0
 40
116.9686661741608
100
AcDbArc
 50
210.156015353598
 51
216.2412691602672
  0
LINE
  5
19D
330
2
100
AcDbEntity
  8
0
100
AcDbLine
 10
9497.354940284797
 20
-1403.926110534486
 30
0.0
 11
9503.847071630337
 21
-1401.035510557756
 31
0.0
  0
ARC
  5
19E
330
2
100
AcDbEntity
  8
0
 48
0.6
100
AcDbCircle
 10
9532.264624495311
 20
-1384.981884288865
 30
0.0
 40
39.155792
100
AcDbArc
 50
201.4369589999695
 51
208.5517089162932
  0
ARC
  5
19F
330
2
100
AcDbEntity
  8
0
 48
0.6
100
AcDbCircle
 10
9464.93233394511
 20
-1412.881135554243
 30
0.0
 40
39.155792
100
AcDbArc
 50
16.65391050760628
 51
20.30648800595334
  0
ARC
  5
1A0
330
2
100
AcDbEntity
  8
0
 48
0.6
100
AcDbCircle
 10
9586.434694313311
 20
-1352.39253013301
 30
0.0
 40
95.84808274048763
100
AcDbArc
 50
210.4975034246528
 51
218.0575295674929
  0
LINE
  5
1A1
330
2
100
AcDbEntity
  8
0
100
AcDbLine
 10
9504.153861471552
 20
-1414.316488530975
 30
0.0
 11
9504.156876886666
 21
-1414.301915116194
 31
0.0
  0
LINE
  5
1A2
330
2
100
AcDbEntity
  8
0
100
AcDbLine
 10
9504.156876886666
 20
-1414.301915116194
 30
0.0
 11
9504.160425337994
 21
-1414.285255427524
 31
0.0
  0
LINE
  5
1A3
330
2
100
AcDbEntity
  8
0
100
AcDbLine
 10
9504.160425337994
 20
-1414.285255427524
 30
0.0
 11
9504.164052756172
 21
-1414.268702382055
 31
0.0
  0
LINE
  5
1A4
330
2
100
AcDbEntity
  8
0
100
AcDbLine
 10
9504.164052756172
 20
-1414.268702382055
 30
0.0
 11
9504.167758886451
 21
-1414.252255623925
 31
0.0
  0
LINE
  5
1A5
330
2
100
AcDbEntity
  8
0
100
AcDbLine
 10
9504.167758886451
 20
-1414.252255623925
 30
0.0
 11
9504.17154347407
 21
-1414.235914797247
 31
0.0
  0
LINE
  5
1A6
330
2
100
AcDbEntity
  8
0
100
AcDbLine
 10
9504.17154347407
 20
-1414.235914797247
 30
0.0
 11
9504.175406264266
 21
-1414.219679546158
 31
0.0
  0
LINE
  5
1A7
330
2
100
AcDbEntity
  8
0
100
AcDbLine
 10
9504.175406264266
 20
-1414.219679546158
 30
0.0
 11
9504.17934700229
 21
-1414.203549514784
 31
0.0
  0
LINE
  5
1A8
330
2
100
AcDbEntity
  8
0
100
AcDbLine
 10
9504.17934700229
 20
-1414.203549514784
 30
0.0
 11
9504.183365433382
 21
-1414.187524347247
 31
0.0
  0
LINE
  5
1A9
330
2
100
AcDbEntity
  8
0
100
AcDbLine
 10
9504.183365433382
 20
-1414.187524347247
 30
0.0
 11
9504.187461302782
 21
-1414.171603687676
 31
0.0
  0
LINE
  5
1AA
330
2
100
AcDbEntity
  8
0
100
AcDbLine
 10
9504.187461302782
 20
-1414.171603687676
 30
0.0
 11
9504.191634355732
 21
-1414.155787180203
 31
0.0
  0
LINE
  5
1AB
330
2
100
AcDbEntity
  8
0
100
AcDbLine
 10
9504.191634355732
 20
-1414.155787180203
 30
0.0
 11
9504.195884337478
 21
-1414.140074468954
 31
0.0
  0
LINE
  5
1AC
330
2
100
AcDbEntity
  8
0
100
AcDbLine
 10
9504.195884337478
 20
-1414.140074468954
 30
0.0
 11
9504.200210993259
 21
-1414.124465198046
 31
0.0
  0
LINE
  5
1AD
330
2
100
AcDbEntity
  8
0
100
AcDbLine
 10
9504.200210993259
 20
-1414.124465198046
 30
0.0
 11
9504.204614068319
 21
-1414.108959011618
 31
0.0
  0
LINE
  5
1AE
330
2
100
AcDbEntity
  8
0
100
AcDbLine
 10
9504.204614068319
 20
-1414.108959011618
 30
0.0
 11
9504.209093307904
 21
-1414.093555553795
 31
0.0
  0
LINE
  5
1AF
330
2
100
AcDbEntity
  8
0
100
AcDbLine
 10
9504.209093307904
 20
-1414.093555553795
 30
0.0
 11
9504.21364845725
 21
-1414.0782544687
 31
0.0
  0
LINE
  5
1B0
330
2
100
AcDbEntity
  8
0
100
AcDbLine
 10
9504.21364845725
 20
-1414.0782544687
 30
0.0
 11
9504.218279261605
 21
-1414.063055400461
 31
0.0
  0
LINE
  5
1B1
330
2
100
AcDbEntity
  8
0
100
AcDbLine
 10
9504.218279261605
 20
-1414.063055400461
 30
0.0
 11
9504.222985466205
 21
-1414.047957993212
 31
0.0
  0
LINE
  5
1B2
330
2
100
AcDbEntity
  8
0
100
AcDbLine
 10
9504.222985466205
 20
-1414.047957993212
 30
0.0
 11
9504.227766816301
 21
-1414.03296189107
 31
0.0
  0
LINE
  5
1B3
330
2
100
AcDbEntity
  8
0
100
AcDbLine
 10
9504.227766816301
 20
-1414.03296189107
 30
0.0
 11
9504.232623057127
 21
-1414.018066738166
 31
0.0
  0
LINE
  5
1B4
330
2
100
AcDbEntity
  8
0
100
AcDbLine
 10
9504.232623057127
 20
-1414.018066738166
 30
0.0
 11
9504.237553933936
 21
-1414.003272178635
 31
0.0
  0
LINE
  5
1B5
330
2
100
AcDbEntity
  8
0
100
AcDbLine
 10
9504.237553933936
 20
-1414.003272178635
 30
0.0
 11
9504.242559191959
 21
-1413.988577856589
 31
0.0
  0
LINE
  5
1B6
330
2
100
AcDbEntity
  8
0
100
AcDbLine
 10
9504.242559191959
 20
-1413.988577856589
 30
0.0
 11
9504.247638576446
 21
-1413.973983416167
 31
0.0
  0
LINE
  5
1B7
330
2
100
AcDbEntity
  8
0
100
AcDbLine
 10
9504.247638576446
 20
-1413.973983416167
 30
0.0
 11
9504.252791832636
 21
-1413.95948850149
 31
0.0
  0
LINE
  5
1B8
330
2
100
AcDbEntity
  8
0
100
AcDbLine
 10
9504.252791832636
 20
-1413.95948850149
 30
0.0
 11
9504.258018705774
 21
-1413.945092756688
 31
0.0
  0
LINE
  5
1B9
330
2
100
AcDbEntity
  8
0
100
AcDbLine
 10
9504.258018705774
 20
-1413.945092756688
 30
0.0
 11
9504.263318941099
 21
-1413.930795825891
 31
0.0
  0
LINE
  5
1BA
330
2
100
AcDbEntity
  8
0
100
AcDbLine
 10
9504.263318941099
 20
-1413.930795825891
 30
0.0
 11
9504.26869228386
 21
-1413.916597353223
 31
0.0
  0
LINE
  5
1BB
330
2
100
AcDbEntity
  8
0
100
AcDbLine
 10
9504.26869228386
 20
-1413.916597353223
 30
0.0
 11
9504.274138479292
 21
-1413.902496982807
 31
0.0
  0
LINE
  5
1BC
330
2
100
AcDbEntity
  8
0
100
AcDbLine
 10
9504.274138479292
 20
-1413.902496982807
 30
0.0
 11
9504.27965727264
 21
-1413.888494358777
 31
0.0
  0
LINE
  5
1BD
330
2
100
AcDbEntity
  8
0
100
AcDbLine
 10
9504.27965727264
 20
-1413.888494358777
 30
0.0
 11
9504.285248409152
 21
-1413.874589125256
 31
0.0
  0
LINE
  5
1BE
330
2
100
AcDbEntity
  8
0
100
AcDbLine
 10
9504.285248409152
 20
-1413.874589125256
 30
0.0
 11
9504.290911634059
 21
-1413.860780926371
 31
0.0
  0
LINE
  5
1BF
330
2
100
AcDbEntity
  8
0
100
AcDbLine
 10
9504.290911634059
 20
-1413.860780926371
 30
0.0
 11
9504.296646692614
 21
-1413.84706940625
 31
0.0
  0
LINE
  5
1C0
330
2
100
AcDbEntity
  8
0
100
AcDbLine
 10
9504.296646692614
 20
-1413.84706940625
 30
0.0
 11
9504.302453330053
 21
-1413.833454209024
 31
0.0
  0
LINE
  5
1C1
330
2
100
AcDbEntity
  8
0
100
AcDbLine
 10
9504.302453330053
 20
-1413.833454209024
 30
0.0
 11
9504.308331291626
 21
-1413.819934978817
 31
0.0
  0
LINE
  5
1C2
330
2
100
AcDbEntity
  8
0
100
AcDbLine
 10
9504.308331291626
 20
-1413.819934978817
 30
0.0
 11
9504.314280322569
 21
-1413.806511359756
 31
0.0
  0
LINE
  5
1C3
330
2
100
AcDbEntity
  8
0
100
AcDbLine
 10
9504.314280322569
 20
-1413.806511359756
 30
0.0
 11
9504.320300168123
 21
-1413.793182995964
 31
0.0
  0
LINE
  5
1C4
330
2
100
AcDbEntity
  8
0
100
AcDbLine
 10
9504.320300168123
 20
-1413.793182995964
 30
0.0
 11
9504.326390573536
 21
-1413.779949531579
 31
0.0
  0
LINE
  5
1C5
330
2
100
AcDbEntity
  8
0
100
AcDbLine
 10
9504.326390573536
 20
-1413.779949531579
 30
0.0
 11
9504.332551284049
 21
-1413.766810610717
 31
0.0
  0
LINE
  5
1C6
330
2
100
AcDbEntity
  8
0
100
AcDbLine
 10
9504.332551284049
 20
-1413.766810610717
 30
0.0
 11
9504.338782044902
 21
-1413.753765877508
 31
0.0
  0
LINE
  5
1C7
330
2
100
AcDbEntity
  8
0
100
AcDbLine
 10
9504.338782044902
 20
-1413.753765877508
 30
0.0
 11
9504.345082601339
 21
-1413.740814976082
 31
0.0
  0
LINE
  5
1C8
330
2
100
AcDbEntity
  8
0
100
AcDbLine
 10
9504.345082601339
 20
-1413.740814976082
 30
0.0
 11
9504.351452698605
 21
-1413.727957550568
 31
0.0
  0
LINE
  5
1C9
330
2
100
AcDbEntity
  8
0
100
AcDbLine
 10
9504.351452698605
 20
-1413.727957550568
 30
0.0
 11
9504.357892081939
 21
-1413.715193245088
 31
0.0
  0
LINE
  5
1CA
330
2
100
AcDbEntity
  8
0
100
AcDbLine
 10
9504.357892081939
 20
-1413.715193245088
 30
0.0
 11
9504.364400496584
 21
-1413.702521703771
 31
0.0
  0
LINE
  5
1CB
330
2
100
AcDbEntity
  8
0
100
AcDbLine
 10
9504.364400496584
 20
-1413.702521703771
 30
0.0
 11
9504.370977687786
 21
-1413.689942570746
 31
0.0
  0
LINE
  5
1CC
330
2
100
AcDbEntity
  8
0
100
AcDbLine
 10
9504.370977687786
 20
-1413.689942570746
 30
0.0
 11
9504.377623400783
 21
-1413.677455490136
 31
0.0
  0
LINE
  5
1CD
330
2
100
AcDbEntity
  8
0
100
AcDbLine
 10
9504.377623400783
 20
-1413.677455490136
 30
0.0
 11
9504.384337380818
 21
-1413.665060106069
 31
0.0
  0
LINE
  5
1CE
330
2
100
AcDbEntity
  8
0
100
AcDbLine
 10
9504.384337380818
 20
-1413.665060106069
 30
0.0
 11
9504.391119373137
 21
-1413.652756062679
 31
0.0
  0
LINE
  5
1CF
330
2
100
AcDbEntity
  8
0
100
AcDbLine
 10
9504.391119373137
 20
-1413.652756062679
 30
0.0
 11
9504.397969122978
 21
-1413.640543004084
 31
0.0
  0
LINE
  5
1D0
330
2
100
AcDbEntity
  8
0
100
AcDbLine
 10
9504.397969122978
 20
-1413.640543004084
 30
0.0
 11
9504.404886375589
 21
-1413.628420574417
 31
0.0
  0
LINE
  5
1D1
330
2
100
AcDbEntity
  8
0
100
AcDbLine
 10
9504.404886375589
 20
-1413.628420574417
 30
0.0
 11
9504.411870876204
 21
-1413.616388417803
 31
0.0
  0
LINE
  5
1D2
330
2
100
AcDbEntity
  8
0
100
AcDbLine
 10
9504.411870876204
 20
-1413.616388417803
 30
0.0
 11
9504.418922370074
 21
-1413.604446178369
 31
0.0
  0
LINE
  5
1D3
330
2
100
AcDbEntity
  8
0
100
AcDbLine
 10
9504.418922370074
 20
-1413.604446178369
 30
0.0
 11
9504.426040602441
 21
-1413.592593500239
 31
0.0
  0
LINE
  5
1D4
330
2
100
AcDbEntity
  8
0
100
AcDbLine
 10
9504.426040602441
 20
-1413.592593500239
 30
0.0
 11
9504.433225318541
 21
-1413.58083002755
 31
0.0
  0
LINE
  5
1D5
330
2
100
AcDbEntity
  8
0
100
AcDbLine
 10
9504.433225318541
 20
-1413.58083002755
 30
0.0
 11
9504.440476263621
 21
-1413.569155404418
 31
0.0
  0
LINE
  5
1D6
330
2
100
AcDbEntity
  8
0
100
AcDbLine
 10
9504.440476263621
 20
-1413.569155404418
 30
0.0
 11
9504.44779318292
 21
-1413.557569274978
 31
0.0
  0
LINE
  5
1D7
330
2
100
AcDbEntity
  8
0
100
AcDbLine
 10
9504.44779318292
 20
-1413.557569274978
 30
0.0
 11
9504.455175821686
 21
-1413.546071283353
 31
0.0
  0
LINE
  5
1D8
330
2
100
AcDbEntity
  8
0
100
AcDbLine
 10
9504.455175821686
 20
-1413.546071283353
 30
0.0
 11
9504.462623925155
 21
-1413.534661073672
 31
0.0
  0
LINE
  5
1D9
330
2
100
AcDbEntity
  8
0
100
AcDbLine
 10
9504.462623925155
 20
-1413.534661073672
 30
0.0
 11
9504.470137238579
 21
-1413.52333829006
 31
0.0
  0
LINE
  5
1DA
330
2
100
AcDbEntity
  8
0
100
AcDbLine
 10
9504.470137238579
 20
-1413.52333829006
 30
0.0
 11
9504.477715507194
 21
-1413.512102576647
 31
0.0
  0
LINE
  5
1DB
330
2
100
AcDbEntity
  8
0
100
AcDbLine
 10
9504.477715507194
 20
-1413.512102576647
 30
0.0
 11
9504.485358476241
 21
-1413.500953577554
 31
0.0
  0
LINE
  5
1DC
330
2
100
AcDbEntity
  8
0
100
AcDbLine
 10
9504.485358476241
 20
-1413.500953577554
 30
0.0
 11
9504.493065890969
 21
-1413.48989093692
 31
0.0
  0
LINE
  5
1DD
330
2
100
AcDbEntity
  8
0
100
AcDbLine
 10
9504.493065890969
 20
-1413.48989093692
 30
0.0
 11
9504.500837496607
 21
-1413.47891429886
 31
0.0
  0
LINE
  5
1DE
330
2
100
AcDbEntity
  8
0
100
AcDbLine
 10
9504.500837496607
 20
-1413.47891429886
 30
0.0
 11
9504.508673038415
 21
-1413.468023307506
 31
0.0
  0
LINE
  5
1DF
330
2
100
AcDbEntity
  8
0
100
AcDbLine
 10
9504.508673038415
 20
-1413.468023307506
 30
0.0
 11
9504.516572261625
 21
-1413.45721760699
 31
0.0
  0
LINE
  5
1E0
330
2
100
AcDbEntity
  8
0
100
AcDbLine
 10
9504.516572261625
 20
-1413.45721760699
 30
0.0
 11
9504.52453491148
 21
-1413.446496841433
 31
0.0
  0
LINE
  5
1E1
330
2
100
AcDbEntity
  8
0
100
AcDbLine
 10
9504.52453491148
 20
-1413.446496841433
 30
0.0
 11
9504.532560733228
 21
-1413.435860654959
 31
0.0
  0
LINE
  5
1E2
330
2
100
AcDbEntity
  8
0
100
AcDbLine
 10
9504.532560733228
 20
-1413.435860654959
 30
0.0
 11
9504.540649472104
 21
-1413.425308691703
 31
0.0
  0
LINE
  5
1E3
330
2
100
AcDbEntity
  8
0
100
AcDbLine
 10
9504.540649472104
 20
-1413.425308691703
 30
0.0
 11
9504.548800873356
 21
-1413.41484059579
 31
0.0
  0
LINE
  5
1E4
330
2
100
AcDbEntity
  8
0
100
AcDbLine
 10
9504.548800873356
 20
-1413.41484059579
 30
0.0
 11
9504.557014682225
 21
-1413.404456011345
 31
0.0
  0
LINE
  5
1E5
330
2
100
AcDbEntity
  8
0
100
AcDbLine
 10
9504.557014682225
 20
-1413.404456011345
 30
0.0
 11
9504.565290643951
 21
-1413.394154582494
 31
0.0
  0
LINE
  5
1E6
330
2
100
AcDbEntity
  8
0
100
AcDbLine
 10
9504.565290643951
 20
-1413.394154582494
 30
0.0
 11
9504.573628503782
 21
-1413.383935953368
 31
0.0
  0
LINE
  5
1E7
330
2
100
AcDbEntity
  8
0
100
AcDbLine
 10
9504.573628503782
 20
-1413.383935953368
 30
0.0
 11
9504.582028006955
 21
-1413.373799768092
 31
0.0
  0
LINE
  5
1E8
330
2
100
AcDbEntity
  8
0
100
AcDbLine
 10
9504.582028006955
 20
-1413.373799768092
 30
0.0
 11
9504.590488898715
 21
-1413.363745670796
 31
0.0
  0
LINE
  5
1E9
330
2
100
AcDbEntity
  8
0
100
AcDbLine
 10
9504.590488898715
 20
-1413.363745670796
 30
0.0
 11
9504.599010924305
 21
-1413.353773305601
 31
0.0
  0
LINE
  5
1EA
330
2
100
AcDbEntity
  8
0
100
AcDbLine
 10
9504.599010924305
 20
-1413.353773305601
 30
0.0
 11
9504.60759382897
 21
-1413.343882316637
 31
0.0
  0
LINE
  5
1EB
330
2
100
AcDbEntity
  8
0
100
AcDbLine
 10
9504.60759382897
 20
-1413.343882316637
 30
0.0
 11
9504.616237357945
 21
-1413.334072348037
 31
0.0
  0
LINE
  5
1EC
330
2
100
AcDbEntity
  8
0
100
AcDbLine
 10
9504.616237357945
 20
-1413.334072348037
 30
0.0
 11
9504.624941256471
 21
-1413.324343043919
 31
0.0
  0
LINE
  5
1ED
330
2
100
AcDbEntity
  8
0
100
AcDbLine
 10
9504.624941256471
 20
-1413.324343043919
 30
0.0
 11
9504.633705269803
 21
-1413.314694048416
 31
0.0
  0
LINE
  5
1EE
330
2
100
AcDbEntity
  8
0
100
AcDbLine
 10
9504.633705269803
 20
-1413.314694048416
 30
0.0
 11
9504.642529143181
 21
-1413.305125005653
 31
0.0
  0
LINE
  5
1EF
330
2
100
AcDbEntity
  8
0
100
AcDbLine
 10
9504.642529143181
 20
-1413.305125005653
 30
0.0
 11
9504.651412621836
 21
-1413.295635559761
 31
0.0
  0
LINE
  5
1F0
330
2
100
AcDbEntity
  8
0
100
AcDbLine
 10
9504.651412621836
 20
-1413.295635559761
 30
0.0
 11
9504.660355451022
 21
-1413.28622535486
 31
0.0
  0
LINE
  5
1F1
330
2
100
AcDbEntity
  8
0
100
AcDbLine
 10
9504.660355451022
 20
-1413.28622535486
 30
0.0
 11
9504.669357375977
 21
-1413.276894035081
 31
0.0
  0
LINE
  5
1F2
330
2
100
AcDbEntity
  8
0
100
AcDbLine
 10
9504.669357375977
 20
-1413.276894035081
 30
0.0
 11
9504.67841814194
 21
-1413.267641244552
 31
0.0
  0
LINE
  5
1F3
330
2
100
AcDbEntity
  8
0
100
AcDbLine
 10
9504.67841814194
 20
-1413.267641244552
 30
0.0
 11
9504.687537494161
 21
-1413.258466627399
 31
0.0
  0
LINE
  5
1F4
330
2
100
AcDbEntity
  8
0
100
AcDbLine
 10
9504.687537494161
 20
-1413.258466627399
 30
0.0
 11
9504.696715177876
 21
-1413.249369827751
 31
0.0
  0
LINE
  5
1F5
330
2
100
AcDbEntity
  8
0
100
AcDbLine
 10
9504.696715177876
 20
-1413.249369827751
 30
0.0
 11
9504.705950938333
 21
-1413.240350489731
 31
0.0
  0
LINE
  5
1F6
330
2
100
AcDbEntity
  8
0
100
AcDbLine
 10
9504.705950938333
 20
-1413.240350489731
 30
0.0
 11
9504.71524452077
 21
-1413.231408257468
 31
0.0
  0
LINE
  5
1F7
330
2
100
AcDbEntity
  8
0
100
AcDbLine
 10
9504.71524452077
 20
-1413.231408257468
 30
0.0
 11
9504.724595670431
 21
-1413.222542775094
 31
0.0
  0
LINE
  5
1F8
330
2
100
AcDbEntity
  8
0
100
AcDbLine
 10
9504.724595670431
 20
-1413.222542775094
 30
0.0
 11
9504.734004132561
 21
-1413.213753686728
 31
0.0
  0
LINE
  5
1F9
330
2
100
AcDbEntity
  8
0
100
AcDbLine
 10
9504.734004132561
 20
-1413.213753686728
 30
0.0
 11
9504.743469652398
 21
-1413.205040636502
 31
0.0
  0
LINE
  5
1FA
330
2
100
AcDbEntity
  8
0
100
AcDbLine
 10
9504.743469652398
 20
-1413.205040636502
 30
0.0
 11
9504.752991975186
 21
-1413.196403268544
 31
0.0
  0
LINE
  5
1FB
330
2
100
AcDbEntity
  8
0
100
AcDbLine
 10
9504.752991975186
 20
-1413.196403268544
 30
0.0
 11
9504.762570846171
 21
-1413.187841226977
 31
0.0
  0
LINE
  5
1FC
330
2
100
AcDbEntity
  8
0
100
AcDbLine
 10
9504.762570846171
 20
-1413.187841226977
 30
0.0
 11
9504.77220601059
 21
-1413.179354155932
 31
0.0
  0
LINE
  5
1FD
330
2
100
AcDbEntity
  8
0
100
AcDbLine
 10
9504.77220601059
 20
-1413.179354155932
 30
0.0
 11
9504.781897213693
 21
-1413.170941699534
 31
0.0
  0
LINE
  5
1FE
330
2
100
AcDbEntity
  8
0
100
AcDbLine
 10
9504.781897213693
 20
-1413.170941699534
 30
0.0
 11
9504.791644200713
 21
-1413.162603501908
 31
0.0
  0
LINE
  5
1FF
330
2
100
AcDbEntity
  8
0
100
AcDbLine
 10
9504.791644200713
 20
-1413.162603501908
 30
0.0
 11
9504.8014467169
 21
-1413.154339207192
 31
0.0
  0
LINE
  5
200
330
2
100
AcDbEntity
  8
0
100
AcDbLine
 10
9504.8014467169
 20
-1413.154339207192
 30
0.0
 11
9504.811304507491
 21
-1413.146148459499
 31
0.0
  0
LINE
  5
201
330
2
100
AcDbEntity
  8
0
100
AcDbLine
 10
9504.811304507491
 20
-1413.146148459499
 30
0.0
 11
9504.821217317733
 21
-1413.138030902964
 31
0.0
  0
LINE
  5
202
330
2
100
AcDbEntity
  8
0
100
AcDbLine
 10
9504.821217317733
 20
-1413.138030902964
 30
0.0
 11
9504.831184892866
 21
-1413.129986181711
 31
0.0
  0
LINE
  5
203
330
2
100
AcDbEntity
  8
0
100
AcDbLine
 10
9504.831184892866
 20
-1413.129986181711
 30
0.0
 11
9504.841206978133
 21
-1413.122013939866
 31
0.0
  0
LINE
  5
204
330
2
100
AcDbEntity
  8
0
100
AcDbLine
 10
9504.841206978133
 20
-1413.122013939866
 30
0.0
 11
9504.85128331878
 21
-1413.114113821562
 31
0.0
  0
LINE
  5
205
330
2
100
AcDbEntity
  8
0
100
AcDbLine
 10
9504.85128331878
 20
-1413.114113821562
 30
0.0
 11
9504.861413660044
 21
-1413.106285470924
 31
0.0
  0
LINE
  5
206
330
2
100
AcDbEntity
  8
0
100
AcDbLine
 10
9504.861413660044
 20
-1413.106285470924
 30
0.0
 11
9504.871597747166
 21
-1413.098528532076
 31
0.0
  0
LINE
  5
207
330
2
100
AcDbEntity
  8
0
100
AcDbLine
 10
9504.871597747166
 20
-1413.098528532076
 30
0.0
 11
9504.881835325397
 21
-1413.090842649149
 31
0.0
  0
LINE
  5
208
330
2
100
AcDbEntity
  8
0
100
AcDbLine
 10
9504.881835325397
 20
-1413.090842649149
 30
0.0
 11
9504.892126139976
 21
-1413.083227466269
 31
0.0
  0
LINE
  5
209
330
2
100
AcDbEntity
  8
0
100
AcDbLine
 10
9504.892126139976
 20
-1413.083227466269
 30
0.0
 11
9504.902469936144
 21
-1413.075682627559
 31
0.0
  0
LINE
  5
20A
330
2
100
AcDbEntity
  8
0
100
AcDbLine
 10
9504.902469936144
 20
-1413.075682627559
 30
0.0
 11
9504.912866459141
 21
-1413.06820777715
 31
0.0
  0
LINE
  5
20B
330
2
100
AcDbEntity
  8
0
100
AcDbLine
 10
9504.912866459141
 20
-1413.06820777715
 30
0.0
 11
9504.923315454211
 21
-1413.060802559169
 31
0.0
  0
LINE
  5
20C
330
2
100
AcDbEntity
  8
0
100
AcDbLine
 10
9504.923315454211
 20
-1413.060802559169
 30
0.0
 11
9504.933816666598
 21
-1413.053466617742
 31
0.0
  0
LINE
  5
20D
330
2
100
AcDbEntity
  8
0
100
AcDbLine
 10
9504.933816666598
 20
-1413.053466617742
 30
0.0
 11
9504.944369841547
 21
-1413.046199597001
 31
0.0
  0
LINE
  5
20E
330
2
100
AcDbEntity
  8
0
100
AcDbLine
 10
9504.944369841547
 20
-1413.046199597001
 30
0.0
 11
9504.954974724297
 21
-1413.039001141065
 31
0.0
  0
LINE
  5
20F
330
2
100
AcDbEntity
  8
0
100
AcDbLine
 10
9504.954974724297
 20
-1413.039001141065
 30
0.0
 11
9504.965631060091
 21
-1413.03187089407
 31
0.0
  0
LINE
  5
210
330
2
100
AcDbEntity
  8
0
100
AcDbLine
 10
9504.965631060091
 20
-1413.03187089407
 30
0.0
 11
9504.976338594172
 21
-1413.024808500134
 31
0.0
  0
LINE
  5
211
330
2
100
AcDbEntity
  8
0
100
AcDbLine
 10
9504.976338594172
 20
-1413.024808500134
 30
0.0
 11
9504.987097071781
 21
-1413.017813603388
 31
0.0
  0
LINE
  5
212
330
2
100
AcDbEntity
  8
0
100
AcDbLine
 10
9504.987097071781
 20
-1413.017813603388
 30
0.0
 11
9504.997906238164
 21
-1413.010885847966
 31
0.0
  0
LINE
  5
213
330
2
100
AcDbEntity
  8
0
100
AcDbLine
 10
9504.997906238164
 20
-1413.010885847966
 30
0.0
 11
9505.00876583856
 21
-1413.004024877985
 31
0.0
  0
LINE
  5
214
330
2
100
AcDbEntity
  8
0
100
AcDbLine
 10
9505.00876583856
 20
-1413.004024877985
 30
0.0
 11
9505.019675618212
 21
-1412.997230337573
 31
0.0
  0
LINE
  5
215
330
2
100
AcDbEntity
  8
0
100
AcDbLine
 10
9505.019675618212
 20
-1412.997230337573
 30
0.0
 11
9505.030635322365
 21
-1412.990501870864
 31
0.0
  0
LINE
  5
216
330
2
100
AcDbEntity
  8
0
100
AcDbLine
 10
9505.030635322365
 20
-1412.990501870864
 30
0.0
 11
9505.041644696259
 21
-1412.983839121979
 31
0.0
  0
LINE
  5
217
330
2
100
AcDbEntity
  8
0
100
AcDbLine
 10
9505.041644696259
 20
-1412.983839121979
 30
0.0
 11
9505.052703485135
 21
-1412.977241735048
 31
0.0
  0
LINE
  5
218
330
2
100
AcDbEntity
  8
0
100
AcDbLine
 10
9505.052703485135
 20
-1412.977241735048
 30
0.0
 11
9505.063811434242
 21
-1412.970709354199
 31
0.0
  0
LINE
  5
219
330
2
100
AcDbEntity
  8
0
100
AcDbLine
 10
9505.063811434242
 20
-1412.970709354199
 30
0.0
 11
9505.074968288816
 21
-1412.964241623559
 31
0.0
  0
LINE
  5
21A
330
2
100
AcDbEntity
  8
0
100
AcDbLine
 10
9505.074968288816
 20
-1412.964241623559
 30
0.0
 11
9505.086173794103
 21
-1412.95783818725
 31
0.0
  0
LINE
  5
21B
330
2
100
AcDbEntity
  8
0
100
AcDbLine
 10
9505.086173794103
 20
-1412.95783818725
 30
0.0
 11
9505.097427695345
 21
-1412.951498689407
 31
0.0
  0
LINE
  5
21C
330
2
100
AcDbEntity
  8
0
100
AcDbLine
 10
9505.097427695345
 20
-1412.951498689407
 30
0.0
 11
9505.108729737781
 21
-1412.94522277415
 31
0.0
  0
LINE
  5
21D
330
2
100
AcDbEntity
  8
0
100
AcDbLine
 10
9505.108729737781
 20
-1412.94522277415
 30
0.0
 11
9505.120079666657
 21
-1412.939010085612
 31
0.0
  0
LINE
  5
21E
330
2
100
AcDbEntity
  8
0
100
AcDbLine
 10
9505.120079666657
 20
-1412.939010085612
 30
0.0
 11
9505.131477227214
 21
-1412.932860267917
 31
0.0
  0
LINE
  5
21F
330
2
100
AcDbEntity
  8
0
100
AcDbLine
 10
9505.131477227214
 20
-1412.932860267917
 30
0.0
 11
9505.142922164695
 21
-1412.926772965192
 31
0.0
  0
LINE
  5
220
330
2
100
AcDbEntity
  8
0
100
AcDbLine
 10
9505.142922164695
 20
-1412.926772965192
 30
0.0
 11
9505.154414224346
 21
-1412.920747821562
 31
0.0
  0
LINE
  5
221
330
2
100
AcDbEntity
  8
0
100
AcDbLine
 10
9505.154414224346
 20
-1412.920747821562
 30
0.0
 11
9505.165953151403
 21
-1412.91478448116
 31
0.0
  0
LINE
  5
222
330
2
100
AcDbEntity
  8
0
100
AcDbLine
 10
9505.165953151403
 20
-1412.91478448116
 30
0.0
 11
9505.177538691116
 21
-1412.908882588109
 31
0.0
  0
LINE
  5
223
330
2
100
AcDbEntity
  8
0
100
AcDbLine
 10
9505.177538691116
 20
-1412.908882588109
 30
0.0
 11
9505.189170588719
 21
-1412.903041786537
 31
0.0
  0
LINE
  5
224
330
2
100
AcDbEntity
  8
0
100
AcDbLine
 10
9505.189170588719
 20
-1412.903041786537
 30
0.0
 11
9505.200848589458
 21
-1412.897261720574
 31
0.0
  0
LINE
  5
225
330
2
100
AcDbEntity
  8
0
100
AcDbLine
 10
9505.200848589458
 20
-1412.897261720574
 30
0.0
 11
9505.212572438585
 21
-1412.891542034341
 31
0.0
  0
LINE
  5
226
330
2
100
AcDbEntity
  8
0
100
AcDbLine
 10
9505.212572438585
 20
-1412.891542034341
 30
0.0
 11
9505.224341881325
 21
-1412.885882371972
 31
0.0
  0
LINE
  5
227
330
2
100
AcDbEntity
  8
0
100
AcDbLine
 10
9505.224341881325
 20
-1412.885882371972
 30
0.0
 11
9505.236156662931
 21
-1412.880282377589
 31
0.0
  0
LINE
  5
228
330
2
100
AcDbEntity
  8
0
100
AcDbLine
 10
9505.236156662931
 20
-1412.880282377589
 30
0.0
 11
9505.248016528645
 21
-1412.87474169532
 31
0.0
  0
LINE
  5
229
330
2
100
AcDbEntity
  8
0
100
AcDbLine
 10
9505.248016528645
 20
-1412.87474169532
 30
0.0
 11
9505.259921223709
 21
-1412.869259969296
 31
0.0
  0
LINE
  5
22A
330
2
100
AcDbEntity
  8
0
100
AcDbLine
 10
9505.259921223709
 20
-1412.869259969296
 30
0.0
 11
9505.271870493361
 21
-1412.863836843638
 31
0.0
  0
LINE
  5
22B
330
2
100
AcDbEntity
  8
0
100
AcDbLine
 10
9505.271870493361
 20
-1412.863836843638
 30
0.0
 11
9505.283864082853
 21
-1412.858471962479
 31
0.0
  0
LINE
  5
22C
330
2
100
AcDbEntity
  8
0
100
AcDbLine
 10
9505.283864082853
 20
-1412.858471962479
 30
0.0
 11
9505.295901737417
 21
-1412.853164969944
 31
0.0
  0
LINE
  5
22D
330
2
100
AcDbEntity
  8
0
100
AcDbLine
 10
9505.295901737417
 20
-1412.853164969944
 30
0.0
 11
9505.3079832023
 21
-1412.847915510156
 31
0.0
  0
LINE
  5
22E
330
2
100
AcDbEntity
  8
0
100
AcDbLine
 10
9505.3079832023
 20
-1412.847915510156
 30
0.0
 11
9505.320108222747
 21
-1412.842723227249
 31
0.0
  0
LINE
  5
22F
330
2
100
AcDbEntity
  8
0
100
AcDbLine
 10
9505.320108222747
 20
-1412.842723227249
 30
0.0
 11
9505.332276544001
 21
-1412.837587765346
 31
0.0
  0
LINE
  5
230
330
2
100
AcDbEntity
  8
0
100
AcDbLine
 10
9505.332276544001
 20
-1412.837587765346
 30
0.0
 11
9505.344487911298
 21
-1412.832508768574
 31
0.0
  0
LINE
  5
231
330
2
100
AcDbEntity
  8
0
100
AcDbLine
 10
9505.344487911298
 20
-1412.832508768574
 30
0.0
 11
9505.356742069883
 21
-1412.827485881063
 31
0.0
  0
LINE
  5
232
330
2
100
AcDbEntity
  8
0
100
AcDbLine
 10
9505.356742069883
 20
-1412.827485881063
 30
0.0
 11
9505.369038765003
 21
-1412.822518746937
 31
0.0
  0
LINE
  5
233
330
2
100
AcDbEntity
  8
0
100
AcDbLine
 10
9505.369038765003
 20
-1412.822518746937
 30
0.0
 11
9505.381377741896
 21
-1412.817607010326
 31
0.0
  0
LINE
  5
234
330
2
100
AcDbEntity
  8
0
100
AcDbLine
 10
9505.381377741896
 20
-1412.817607010326
 30
0.0
 11
9505.393758745809
 21
-1412.812750315356
 31
0.0
  0
LINE
  5
235
330
2
100
AcDbEntity
  8
0
100
AcDbLine
 10
9505.393758745809
 20
-1412.812750315356
 30
0.0
 11
9505.406181521975
 21
-1412.807948306153
 31
0.0
  0
LINE
  5
236
330
2
100
AcDbEntity
  8
0
100
AcDbLine
 10
9505.406181521975
 20
-1412.807948306153
 30
0.0
 11
9505.418645815648
 21
-1412.803200626845
 31
0.0
  0
LINE
  5
237
330
2
100
AcDbEntity
  8
0
100
AcDbLine
 10
9505.418645815648
 20
-1412.803200626845
 30
0.0
 11
9505.431151372064
 21
-1412.798506921558
 31
0.0
  0
LINE
  5
238
330
2
100
AcDbEntity
  8
0
100
AcDbLine
 10
9505.431151372064
 20
-1412.798506921558
 30
0.0
 11
9505.443697936463
 21
-1412.793866834422
 31
0.0
  0
LINE
  5
239
330
2
100
AcDbEntity
  8
0
100
AcDbLine
 10
9505.443697936463
 20
-1412.793866834422
 30
0.0
 11
9505.456285254096
 21
-1412.789280009566
 31
0.0
  0
LINE
  5
23A
330
2
100
AcDbEntity
  8
0
100
AcDbLine
 10
9505.456285254096
 20
-1412.789280009566
 30
0.0
 11
9505.468913070201
 21
-1412.784746091108
 31
0.0
  0
LINE
  5
23B
330
2
100
AcDbEntity
  8
0
100
AcDbLine
 10
9505.468913070201
 20
-1412.784746091108
 30
0.0
 11
9505.481581130018
 21
-1412.780264723181
 31
0.0
  0
LINE
  5
23C
330
2
100
AcDbEntity
  8
0
100
AcDbLine
 10
9505.481581130018
 20
-1412.780264723181
 30
0.0
 11
9505.494289178793
 21
-1412.775835549915
 31
0.0
  0
LINE
  5
23D
330
2
100
AcDbEntity
  8
0
100
AcDbLine
 10
9505.494289178793
 20
-1412.775835549915
 30
0.0
 11
9505.507036961766
 21
-1412.77145821543
 31
0.0
  0
LINE
  5
23E
330
2
100
AcDbEntity
  8
0
100
AcDbLine
 10
9505.507036961766
 20
-1412.77145821543
 30
0.0
 11
9505.51982422418
 21
-1412.767132363858
 31
0.0
  0
LINE
  5
23F
330
2
100
AcDbEntity
  8
0
100
AcDbLine
 10
9505.51982422418
 20
-1412.767132363858
 30
0.0
 11
9505.532650711279
 21
-1412.76285763933
 31
0.0
  0
LINE
  5
240
330
2
100
AcDbEntity
  8
0
100
AcDbLine
 10
9505.532650711279
 20
-1412.76285763933
 30
0.0
 11
9505.545516168307
 21
-1412.758633685965
 31
0.0
  0
LINE
  5
241
330
2
100
AcDbEntity
  8
0
100
AcDbLine
 10
9505.545516168307
 20
-1412.758633685965
 30
0.0
 11
9505.558420340504
 21
-1412.754460147896
 31
0.0
  0
LINE
  5
242
330
2
100
AcDbEntity
  8
0
100
AcDbLine
 10
9505.558420340504
 20
-1412.754460147896
 30
0.0
 11
9505.571362973112
 21
-1412.750336669241
 31
0.0
  0
LINE
  5
243
330
2
100
AcDbEntity
  8
0
100
AcDbLine
 10
9505.571362973112
 20
-1412.750336669241
 30
0.0
 11
9505.584343811376
 21
-1412.74626289414
 31
0.0
  0
LINE
  5
244
330
2
100
AcDbEntity
  8
0
100
AcDbLine
 10
9505.584343811376
 20
-1412.74626289414
 30
0.0
 11
9505.597362600532
 21
-1412.742238466716
 31
0.0
  0
LINE
  5
245
330
2
100
AcDbEntity
  8
0
100
AcDbLine
 10
9505.597362600532
 20
-1412.742238466716
 30
0.0
 11
9505.610419085833
 21
-1412.738263031091
 31
0.0
  0
LINE
  5
246
330
2
100
AcDbEntity
  8
0
100
AcDbLine
 10
9505.610419085833
 20
-1412.738263031091
 30
0.0
 11
9505.623513012512
 21
-1412.734336231392
 31
0.0
  0
LINE
  5
247
330
2
100
AcDbEntity
  8
0
100
AcDbLine
 10
9505.623513012512
 20
-1412.734336231392
 30
0.0
 11
9505.636644125816
 21
-1412.730457711755
 31
0.0
  0
LINE
  5
248
330
2
100
AcDbEntity
  8
0
100
AcDbLine
 10
9505.636644125816
 20
-1412.730457711755
 30
0.0
 11
9505.649812170986
 21
-1412.726627116296
 31
0.0
  0
LINE
  5
249
330
2
100
AcDbEntity
  8
0
100
AcDbLine
 10
9505.649812170986
 20
-1412.726627116296
 30
0.0
 11
9505.663016893263
 21
-1412.722844089153
 31
0.0
  0
LINE
  5
24A
330
2
100
AcDbEntity
  8
0
100
AcDbLine
 10
9505.663016893263
 20
-1412.722844089153
 30
0.0
 11
9505.676258037899
 21
-1412.719108274448
 31
0.0
  0
LINE
  5
24B
330
2
100
AcDbEntity
  8
0
100
AcDbLine
 10
9505.676258037899
 20
-1412.719108274448
 30
0.0
 11
9505.689535350127
 21
-1412.715419316305
 31
0.0
  0
LINE
  5
24C
330
2
100
AcDbEntity
  8
0
100
AcDbLine
 10
9505.689535350127
 20
-1412.715419316305
 30
0.0
 11
9505.702848575188
 21
-1412.711776858855
 31
0.0
  0
LINE
  5
24D
330
2
100
AcDbEntity
  8
0
100
AcDbLine
 10
9505.702848575188
 20
-1412.711776858855
 30
0.0
 11
9505.716197458331
 21
-1412.708180546223
 31
0.0
  0
LINE
  5
24E
330
2
100
AcDbEntity
  8
0
100
AcDbLine
 10
9505.716197458331
 20
-1412.708180546223
 30
0.0
 11
9505.729581744796
 21
-1412.704630022542
 31
0.0
  0
LINE
  5
24F
330
2
100
AcDbEntity
  8
0
100
AcDbLine
 10
9505.729581744796
 20
-1412.704630022542
 30
0.0
 11
9505.743001179826
 21
-1412.701124931934
 31
0.0
  0
LINE
  5
250
330
2
100
AcDbEntity
  8
0
100
AcDbLine
 10
9505.743001179826
 20
-1412.701124931934
 30
0.0
 11
9505.756455508659
 21
-1412.697664918525
 31
0.0
  0
LINE
  5
251
330
2
100
AcDbEntity
  8
0
100
AcDbLine
 10
9505.756455508659
 20
-1412.697664918525
 30
0.0
 11
9505.769944476545
 21
-1412.694249626439
 31
0.0
  0
LINE
  5
252
330
2
100
AcDbEntity
  8
0
100
AcDbLine
 10
9505.769944476545
 20
-1412.694249626439
 30
0.0
 11
9505.783467828722
 21
-1412.690878699818
 31
0.0
  0
LINE
  5
253
330
2
100
AcDbEntity
  8
0
100
AcDbLine
 10
9505.783467828722
 20
-1412.690878699818
 30
0.0
 11
9505.797025310434
 21
-1412.687551782773
 31
0.0
  0
LINE
  5
254
330
2
100
AcDbEntity
  8
0
100
AcDbLine
 10
9505.797025310434
 20
-1412.687551782773
 30
0.0
 11
9505.810616666922
 21
-1412.684268519436
 31
0.0
  0
LINE
  5
255
330
2
100
AcDbEntity
  8
0
100
AcDbLine
 10
9505.810616666922
 20
-1412.684268519436
 30
0.0
 11
9505.824241643429
 21
-1412.68102855394
 31
0.0
  0
LINE
  5
256
330
2
100
AcDbEntity
  8
0
100
AcDbLine
 10
9505.824241643429
 20
-1412.68102855394
 30
0.0
 11
9505.837899985198
 21
-1412.677831530405
 31
0.0
  0
LINE
  5
257
330
2
100
AcDbEntity
  8
0
100
AcDbLine
 10
9505.837899985198
 20
-1412.677831530405
 30
0.0
 11
9505.851591437471
 21
-1412.674677092961
 31
0.0
  0
LINE
  5
258
330
2
100
AcDbEntity
  8
0
100
AcDbLine
 10
9505.851591437471
 20
-1412.674677092961
 30
0.0
 11
9505.865315745493
 21
-1412.671564885736
 31
0.0
  0
LINE
  5
259
330
2
100
AcDbEntity
  8
0
100
AcDbLine
 10
9505.865315745493
 20
-1412.671564885736
 30
0.0
 11
9505.879072654499
 21
-1412.668494552859
 31
0.0
  0
LINE
  5
25A
330
2
100
AcDbEntity
  8
0
100
AcDbLine
 10
9505.879072654499
 20
-1412.668494552859
 30
0.0
 11
9505.892861909742
 21
-1412.665465738451
 31
0.0
  0
LINE
  5
25B
330
2
100
AcDbEntity
  8
0
100
AcDbLine
 10
9505.892861909742
 20
-1412.665465738451
 30
0.0
 11
9505.906683256457
 21
-1412.662478086641
 31
0.0
  0
LINE
  5
25C
330
2
100
AcDbEntity
  8
0
100
AcDbLine
 10
9505.906683256457
 20
-1412.662478086641
 30
0.0
 11
9505.920536439887
 21
-1412.65953124156
 31
0.0
  0
LINE
  5
25D
330
2
100
AcDbEntity
  8
0
100
AcDbLine
 10
9505.920536439887
 20
-1412.65953124156
 30
0.0
 11
9505.934421205282
 21
-1412.656624847333
 31
0.0
  0
LINE
  5
25E
330
2
100
AcDbEntity
  8
0
100
AcDbLine
 10
9505.934421205282
 20
-1412.656624847333
 30
0.0
 11
9505.948337297876
 21
-1412.653758548085
 31
0.0
  0
LINE
  5
25F
330
2
100
AcDbEntity
  8
0
100
AcDbLine
 10
9505.948337297876
 20
-1412.653758548085
 30
0.0
 11
9505.962284462915
 21
-1412.650931987949
 31
0.0
  0
LINE
  5
260
330
2
100
AcDbEntity
  8
0
100
AcDbLine
 10
9505.962284462915
 20
-1412.650931987949
 30
0.0
 11
9505.976262445638
 21
-1412.648144811044
 31
0.0
  0
LINE
  5
261
330
2
100
AcDbEntity
  8
0
100
AcDbLine
 10
9505.976262445638
 20
-1412.648144811044
 30
0.0
 11
9505.990270991292
 21
-1412.645396661502
 31
0.0
  0
LINE
  5
262
330
2
100
AcDbEntity
  8
0
100
AcDbLine
 10
9505.990270991292
 20
-1412.645396661502
 30
0.0
 11
9506.004309845119
 21
-1412.642687183449
 31
0.0
  0
LINE
  5
263
330
2
100
AcDbEntity
  8
0
100
AcDbLine
 10
9506.004309845119
 20
-1412.642687183449
 30
0.0
 11
9506.018378752358
 21
-1412.640016021011
 31
0.0
  0
LINE
  5
264
330
2
100
AcDbEntity
  8
0
100
AcDbLine
 10
9506.018378752358
 20
-1412.640016021011
 30
0.0
 11
9506.032477458255
 21
-1412.637382818322
 31
0.0
  0
LINE
  5
265
330
2
100
AcDbEntity
  8
0
100
AcDbLine
 10
9506.032477458255
 20
-1412.637382818322
 30
0.0
 11
9506.046605708052
 21
-1412.634787219501
 31
0.0
  0
LINE
  5
266
330
2
100
AcDbEntity
  8
0
100
AcDbLine
 10
9506.046605708052
 20
-1412.634787219501
 30
0.0
 11
9506.06076324699
 21
-1412.63222886868
 31
0.0
  0
LINE
  5
267
330
2
100
AcDbEntity
  8
0
100
AcDbLine
 10
9506.06076324699
 20
-1412.63222886868
 30
0.0
 11
9506.074949820314
 21
-1412.629707409979
 31
0.0
  0
LINE
  5
268
330
2
100
AcDbEntity
  8
0
100
AcDbLine
 10
9506.074949820314
 20
-1412.629707409979
 30
0.0
 11
9506.089165173262
 21
-1412.627222487537
 31
0.0
  0
LINE
  5
269
330
2
100
AcDbEntity
  8
0
100
AcDbLine
 10
9506.089165173262
 20
-1412.627222487537
 30
0.0
 11
9506.103409051082
 21
-1412.62477374547
 31
0.0
  0
LINE
  5
26A
330
2
100
AcDbEntity
  8
0
100
AcDbLine
 10
9506.103409051082
 20
-1412.62477374547
 30
0.0
 11
9506.117681199013
 21
-1412.622360827912
 31
0.0
  0
LINE
  5
26B
330
2
100
AcDbEntity
  8
0
100
AcDbLine
 10
9506.117681199013
 20
-1412.622360827912
 30
0.0
 11
9506.131981362296
 21
-1412.619983378984
 31
0.0
  0
LINE
  5
26C
330
2
100
AcDbEntity
  8
0
100
AcDbLine
 10
9506.131981362296
 20
-1412.619983378984
 30
0.0
 11
9506.146309286178
 21
-1412.617641042821
 31
0.0
  0
LINE
  5
26D
330
2
100
AcDbEntity
  8
0
100
AcDbLine
 10
9506.146309286178
 20
-1412.617641042821
 30
0.0
 11
9506.160664715901
 21
-1412.615333463546
 31
0.0
  0
LINE
  5
26E
330
2
100
AcDbEntity
  8
0
100
AcDbLine
 10
9506.160664715901
 20
-1412.615333463546
 30
0.0
 11
9506.175047396702
 21
-1412.613060285284
 31
0.0
  0
LINE
  5
26F
330
2
100
AcDbEntity
  8
0
100
AcDbLine
 10
9506.175047396702
 20
-1412.613060285284
 30
0.0
 11
9506.18945707383
 21
-1412.610821152165
 31
0.0
  0
LINE
  5
270
330
2
100
AcDbEntity
  8
0
100
AcDbLine
 10
9506.18945707383
 20
-1412.610821152165
 30
0.0
 11
9506.203893492523
 21
-1412.608615708313
 31
0.0
  0
LINE
  5
271
330
2
100
AcDbEntity
  8
0
100
AcDbLine
 10
9506.203893492523
 20
-1412.608615708313
 30
0.0
 11
9506.218356398028
 21
-1412.606443597863
 31
0.0
  0
LINE
  5
272
330
2
100
AcDbEntity
  8
0
100
AcDbLine
 10
9506.218356398028
 20
-1412.606443597863
 30
0.0
 11
9506.232845535583
 21
-1412.604304464935
 31
0.0
  0
LINE
  5
273
330
2
100
AcDbEntity
  8
0
100
AcDbLine
 10
9506.232845535583
 20
-1412.604304464935
 30
0.0
 11
9506.247360650432
 21
-1412.602197953654
 31
0.0
  0
LINE
  5
274
330
2
100
AcDbEntity
  8
0
100
AcDbLine
 10
9506.247360650432
 20
-1412.602197953654
 30
0.0
 11
9506.261901487818
 21
-1412.600123708156
 31
0.0
  0
LINE
  5
275
330
2
100
AcDbEntity
  8
0
100
AcDbLine
 10
9506.261901487818
 20
-1412.600123708156
 30
0.0
 11
9506.276467792984
 21
-1412.598081372563
 31
0.0
  0
LINE
  5
276
330
2
100
AcDbEntity
  8
0
100
AcDbLine
 10
9506.276467792984
 20
-1412.598081372563
 30
0.0
 11
9506.291059311172
 21
-1412.596070590997
 31
0.0
  0
LINE
  5
277
330
2
100
AcDbEntity
  8
0
100
AcDbLine
 10
9506.291059311172
 20
-1412.596070590997
 30
0.0
 11
9506.305675787624
 21
-1412.594091007596
 31
0.0
  0
LINE
  5
278
330
2
100
AcDbEntity
  8
0
100
AcDbLine
 10
9506.305675787624
 20
-1412.594091007596
 30
0.0
 11
9506.320316967579
 21
-1412.592142266484
 31
0.0
  0
LINE
  5
279
330
2
100
AcDbEntity
  8
0
100
AcDbLine
 10
9506.320316967579
 20
-1412.592142266484
 30
0.0
 11
9506.334982596293
 21
-1412.59022401178
 31
0.0
  0
LINE
  5
27A
330
2
100
AcDbEntity
  8
0
100
AcDbLine
 10
9506.334982596293
 20
-1412.59022401178
 30
0.0
 11
9506.349672418989
 21
-1412.588335887617
 31
0.0
  0
LINE
  5
27B
330
2
100
AcDbEntity
  8
0
100
AcDbLine
 10
9506.349672418989
 20
-1412.588335887617
 30
0.0
 11
9506.364386180925
 21
-1412.586477538128
 31
0.0
  0
LINE
  5
27C
330
2
100
AcDbEntity
  8
0
100
AcDbLine
 10
9506.364386180925
 20
-1412.586477538128
 30
0.0
 11
9506.379123627338
 21
-1412.584648607431
 31
0.0
  0
LINE
  5
27D
330
2
100
AcDbEntity
  8
0
100
AcDbLine
 10
9506.379123627338
 20
-1412.584648607431
 30
0.0
 11
9506.393884503468
 21
-1412.582848739651
 31
0.0
  0
LINE
  5
27E
330
2
100
AcDbEntity
  8
0
100
AcDbLine
 10
9506.393884503468
 20
-1412.582848739651
 30
0.0
 11
9506.408668554561
 21
-1412.58107757893
 31
0.0
  0
LINE
  5
27F
330
2
100
AcDbEntity
  8
0
100
AcDbLine
 10
9506.408668554561
 20
-1412.58107757893
 30
0.0
 11
9506.423475525854
 21
-1412.579334769377
 31
0.0
  0
LINE
  5
280
330
2
100
AcDbEntity
  8
0
100
AcDbLine
 10
9506.423475525854
 20
-1412.579334769377
 30
0.0
 11
9506.438305162602
 21
-1412.577619955134
 31
0.0
  0
LINE
  5
281
330
2
100
AcDbEntity
  8
0
100
AcDbLine
 10
9506.438305162602
 20
-1412.577619955134
 30
0.0
 11
9506.453157210032
 21
-1412.575932780318
 31
0.0
  0
LINE
  5
282
330
2
100
AcDbEntity
  8
0
100
AcDbLine
 10
9506.453157210032
 20
-1412.575932780318
 30
0.0
 11
9506.468031413396
 21
-1412.574272889063
 31
0.0
  0
LINE
  5
283
330
2
100
AcDbEntity
  8
0
100
AcDbLine
 10
9506.468031413396
 20
-1412.574272889063
 30
0.0
 11
9506.482927517936
 21
-1412.572639925494
 31
0.0
  0
LINE
  5
284
330
2
100
AcDbEntity
  8
0
100
AcDbLine
 10
9506.482927517936
 20
-1412.572639925494
 30
0.0
 11
9506.497845268892
 21
-1412.571033533736
 31
0.0
  0
LINE
  5
285
330
2
100
AcDbEntity
  8
0
100
AcDbLine
 10
9506.497845268892
 20
-1412.571033533736
 30
0.0
 11
9506.512784411507
 21
-1412.569453357916
 31
0.0
  0
LINE
  5
286
330
2
100
AcDbEntity
  8
0
100
AcDbLine
 10
9506.512784411507
 20
-1412.569453357916
 30
0.0
 11
9506.527744691025
 21
-1412.567899042167
 31
0.0
  0
LINE
  5
287
330
2
100
AcDbEntity
  8
0
100
AcDbLine
 10
9506.527744691025
 20
-1412.567899042167
 30
0.0
 11
9506.542725852686
 21
-1412.566370230606
 31
0.0
  0
LINE
  5
288
330
2
100
AcDbEntity
  8
0
100
AcDbLine
 10
9506.542725852686
 20
-1412.566370230606
 30
0.0
 11
9506.557727641732
 21
-1412.56486656737
 31
0.0
  0
LINE
  5
289
330
2
100
AcDbEntity
  8
0
100
AcDbLine
 10
9506.557727641732
 20
-1412.56486656737
 30
0.0
 11
9506.572749803412
 21
-1412.563387696581
 31
0.0
  0
LINE
  5
28A
330
2
100
AcDbEntity
  8
0
100
AcDbLine
 10
9506.572749803412
 20
-1412.563387696581
 30
0.0
 11
9506.587792082958
 21
-1412.561933262369
 31
0.0
  0
LINE
  5
28B
330
2
100
AcDbEntity
  8
0
100
AcDbLine
 10
9506.587792082958
 20
-1412.561933262369
 30
0.0
 11
9506.602854225626
 21
-1412.560502908856
 31
0.0
  0
LINE
  5
28C
330
2
100
AcDbEntity
  8
0
100
AcDbLine
 10
9506.602854225626
 20
-1412.560502908856
 30
0.0
 11
9506.617935976647
 21
-1412.559096280174
 31
0.0
  0
LINE
  5
28D
330
2
100
AcDbEntity
  8
0
100
AcDbLine
 10
9506.617935976647
 20
-1412.559096280174
 30
0.0
 11
9506.633037081266
 21
-1412.557713020452
 31
0.0
  0
LINE
  5
28E
330
2
100
AcDbEntity
  8
0
100
AcDbLine
 10
9506.633037081266
 20
-1412.557713020452
 30
0.0
 11
9506.648157284727
 21
-1412.556352773813
 31
0.0
  0
LINE
  5
28F
330
2
100
AcDbEntity
  8
0
100
AcDbLine
 10
9506.648157284727
 20
-1412.556352773813
 30
0.0
 11
9506.663296332275
 21
-1412.555015184379
 31
0.0
  0
LINE
  5
290
330
2
100
AcDbEntity
  8
0
100
AcDbLine
 10
9506.663296332275
 20
-1412.555015184379
 30
0.0
 11
9506.678453969147
 21
-1412.55369989629
 31
0.0
  0
LINE
  5
291
330
2
100
AcDbEntity
  8
0
100
AcDbLine
 10
9506.678453969147
 20
-1412.55369989629
 30
0.0
 11
9506.693629940592
 21
-1412.552406553664
 31
0.0
  0
LINE
  5
292
330
2
100
AcDbEntity
  8
0
100
AcDbLine
 10
9506.693629940592
 20
-1412.552406553664
 30
0.0
 11
9506.708823991845
 21
-1412.55113480063
 31
0.0
  0
LINE
  5
293
330
2
100
AcDbEntity
  8
0
100
AcDbLine
 10
9506.708823991845
 20
-1412.55113480063
 30
0.0
 11
9506.724035868154
 21
-1412.549884281319
 31
0.0
  0
LINE
  5
294
330
2
100
AcDbEntity
  8
0
100
AcDbLine
 10
9506.724035868154
 20
-1412.549884281319
 30
0.0
 11
9506.739265314761
 21
-1412.548654639851
 31
0.0
  0
LINE
  5
295
330
2
100
AcDbEntity
  8
0
100
AcDbLine
 10
9506.739265314761
 20
-1412.548654639851
 30
0.0
 11
9506.754512076907
 21
-1412.547445520359
 31
0.0
  0
LINE
  5
296
330
2
100
AcDbEntity
  8
0
100
AcDbLine
 10
9506.754512076907
 20
-1412.547445520359
 30
0.0
 11
9506.769775899831
 21
-1412.546256566967
 31
0.0
  0
LINE
  5
297
330
2
100
AcDbEntity
  8
0
100
AcDbLine
 10
9506.769775899831
 20
-1412.546256566967
 30
0.0
 11
9506.785056528782
 21
-1412.545087423802
 31
0.0
  0
LINE
  5
298
330
2
100
AcDbEntity
  8
0
100
AcDbLine
 10
9506.785056528782
 20
-1412.545087423802
 30
0.0
 11
9506.800353709001
 21
-1412.543937734991
 31
0.0
  0
LINE
  5
299
330
2
100
AcDbEntity
  8
0
100
AcDbLine
 10
9506.800353709001
 20
-1412.543937734991
 30
0.0
 11
9506.815667185732
 21
-1412.542807144667
 31
0.0
  0
LINE
  5
29A
330
2
100
AcDbEntity
  8
0
100
AcDbLine
 10
9506.815667185732
 20
-1412.542807144667
 30
0.0
 11
9506.830996704207
 21
-1412.541695296951
 31
0.0
  0
LINE
  5
29B
330
2
100
AcDbEntity
  8
0
100
AcDbLine
 10
9506.830996704207
 20
-1412.541695296951
 30
0.0
 11
9506.846342009682
 21
-1412.540601835973
 31
0.0
  0
LINE
  5
29C
330
2
100
AcDbEntity
  8
0
100
AcDbLine
 10
9506.846342009682
 20
-1412.540601835973
 30
0.0
 11
9506.861702847393
 21
-1412.539526405854
 31
0.0
  0
LINE
  5
29D
330
2
100
AcDbEntity
  8
0
100
AcDbLine
 10
9506.861702847393
 20
-1412.539526405854
 30
0.0
 11
9506.877078962581
 21
-1412.538468650732
 31
0.0
  0
LINE
  5
29E
330
2
100
AcDbEntity
  8
0
100
AcDbLine
 10
9506.877078962581
 20
-1412.538468650732
 30
0.0
 11
9506.892470100494
 21
-1412.537428214725
 31
0.0
  0
LINE
  5
29F
330
2
100
AcDbEntity
  8
0
100
AcDbLine
 10
9506.892470100494
 20
-1412.537428214725
 30
0.0
 11
9506.907876006367
 21
-1412.536404741965
 31
0.0
  0
LINE
  5
2A0
330
2
100
AcDbEntity
  8
0
100
AcDbLine
 10
9506.907876006367
 20
-1412.536404741965
 30
0.0
 11
9506.923296425451
 21
-1412.535397876579
 31
0.0
  0
LINE
  5
2A1
330
2
100
AcDbEntity
  8
0
100
AcDbLine
 10
9506.923296425451
 20
-1412.535397876579
 30
0.0
 11
9506.938731102984
 21
-1412.534407262688
 31
0.0
  0
LINE
  5
2A2
330
2
100
AcDbEntity
  8
0
100
AcDbLine
 10
9506.938731102984
 20
-1412.534407262688
 30
0.0
 11
9506.954179784209
 21
-1412.533432544428
 31
0.0
  0
LINE
  5
2A3
330
2
100
AcDbEntity
  8
0
100
AcDbLine
 10
9506.954179784209
 20
-1412.533432544428
 30
0.0
 11
9506.969642214368
 21
-1412.532473365919
 31
0.0
  0
LINE
  5
2A4
330
2
100
AcDbEntity
  8
0
100
AcDbLine
 10
9506.969642214368
 20
-1412.532473365919
 30
0.0
 11
9506.985118138704
 21
-1412.531529371293
 31
0.0
  0
LINE
  5
2A5
330
2
100
AcDbEntity
  8
0
100
AcDbLine
 10
9506.985118138704
 20
-1412.531529371293
 30
0.0
 11
9507.000607302458
 21
-1412.530600204676
 31
0.0
  0
LINE
  5
2A6
330
2
100
AcDbEntity
  8
0
100
AcDbLine
 10
9507.000607302458
 20
-1412.530600204676
 30
0.0
 11
9507.016109450876
 21
-1412.529685510192
 31
0.0
  0
LINE
  5
2A7
330
2
100
AcDbEntity
  8
0
100
AcDbLine
 10
9507.016109450876
 20
-1412.529685510192
 30
0.0
 11
9507.031624329197
 21
-1412.528784931973
 31
0.0
  0
LINE
  5
2A8
330
2
100
AcDbEntity
  8
0
100
AcDbLine
 10
9507.031624329197
 20
-1412.528784931973
 30
0.0
 11
9507.047151682664
 21
-1412.527898114139
 31
0.0
  0
LINE
  5
2A9
330
2
100
AcDbEntity
  8
0
100
AcDbLine
 10
9507.047151682664
 20
-1412.527898114139
 30
0.0
 11
9507.062691256519
 21
-1412.527024700828
 31
0.0
  0
LINE
  5
2AA
330
2
100
AcDbEntity
  8
0
100
AcDbLine
 10
9507.062691256519
 20
-1412.527024700828
 30
0.0
 11
9507.07824279601
 21
-1412.52616433616
 31
0.0
  0
LINE
  5
2AB
330
2
100
AcDbEntity
  8
0
100
AcDbLine
 10
9507.07824279601
 20
-1412.52616433616
 30
0.0
 11
9507.093806046375
 21
-1412.525316664259
 31
0.0
  0
LINE
  5
2AC
330
2
100
AcDbEntity
  8
0
100
AcDbLine
 10
9507.093806046375
 20
-1412.525316664259
 30
0.0
 11
9507.109380752854
 21
-1412.52448132926
 31
0.0
  0
LINE
  5
2AD
330
2
100
AcDbEntity
  8
0
100
AcDbLine
 10
9507.109380752854
 20
-1412.52448132926
 30
0.0
 11
9507.124966660695
 21
-1412.523657975286
 31
0.0
  0
LINE
  5
2AE
330
2
100
AcDbEntity
  8
0
100
AcDbLine
 10
9507.124966660695
 20
-1412.523657975286
 30
0.0
 11
9507.140563515134
 21
-1412.522846246466
 31
0.0
  0
LINE
  5
2AF
330
2
100
AcDbEntity
  8
0
100
AcDbLine
 10
9507.140563515134
 20
-1412.522846246466
 30
0.0
 11
9507.156171061422
 21
-1412.522045786923
 31
0.0
  0
LINE
  5
2B0
330
2
100
AcDbEntity
  8
0
100
AcDbLine
 10
9507.156171061422
 20
-1412.522045786923
 30
0.0
 11
9507.171789044797
 21
-1412.521256240784
 31
0.0
  0
LINE
  5
2B1
330
2
100
AcDbEntity
  8
0
100
AcDbLine
 10
9507.171789044797
 20
-1412.521256240784
 30
0.0
 11
9507.1874172105
 21
-1412.520477252184
 31
0.0
  0
LINE
  5
2B2
330
2
100
AcDbEntity
  8
0
100
AcDbLine
 10
9507.1874172105
 20
-1412.520477252184
 30
0.0
 11
9507.203055303774
 21
-1412.519708465247
 31
0.0
  0
LINE
  5
2B3
330
2
100
AcDbEntity
  8
0
100
AcDbLine
 10
9507.203055303774
 20
-1412.519708465247
 30
0.0
 11
9507.218703069858
 21
-1412.518949524093
 31
0.0
  0
LINE
  5
2B4
330
2
100
AcDbEntity
  8
0
100
AcDbLine
 10
9507.218703069858
 20
-1412.518949524093
 30
0.0
 11
9507.234360254008
 21
-1412.518200072857
 31
0.0
  0
LINE
  5
2B5
330
2
100
AcDbEntity
  8
0
100
AcDbLine
 10
9507.234360254008
 20
-1412.518200072857
 30
0.0
 11
9507.250026601452
 21
-1412.517459755663
 31
0.0
  0
LINE
  5
2B6
330
2
100
AcDbEntity
  8
0
100
AcDbLine
 10
9507.250026601452
 20
-1412.517459755663
 30
0.0
 11
9507.265701857438
 21
-1412.516728216638
 31
0.0
  0
LINE
  5
2B7
330
2
100
AcDbEntity
  8
0
100
AcDbLine
 10
9507.265701857438
 20
-1412.516728216638
 30
0.0
 11
9507.28138576721
 21
-1412.516005099912
 31
0.0
  0
LINE
  5
2B8
330
2
100
AcDbEntity
  8
0
100
AcDbLine
 10
9507.28138576721
 20
-1412.516005099912
 30
0.0
 11
9507.297078076009
 21
-1412.515290049612
 31
0.0
  0
LINE
  5
2B9
330
2
100
AcDbEntity
  8
0
100
AcDbLine
 10
9507.297078076009
 20
-1412.515290049612
 30
0.0
 11
9507.312778529076
 21
-1412.514582709858
 31
0.0
  0
LINE
  5
2BA
330
2
100
AcDbEntity
  8
0
100
AcDbLine
 10
9507.312778529076
 20
-1412.514582709858
 30
0.0
 11
9507.328486871656
 21
-1412.513882724784
 31
0.0
  0
LINE
  5
2BB
330
2
100
AcDbEntity
  8
0
100
AcDbLine
 10
9507.328486871656
 20
-1412.513882724784
 30
0.0
 11
9507.344202848988
 21
-1412.513189738515
 31
0.0
  0
LINE
  5
2BC
330
2
100
AcDbEntity
  8
0
100
AcDbLine
 10
9507.344202848988
 20
-1412.513189738515
 30
0.0
 11
9507.359926206319
 21
-1412.512503395182
 31
0.0
  0
LINE
  5
2BD
330
2
100
AcDbEntity
  8
0
100
AcDbLine
 10
9507.359926206319
 20
-1412.512503395182
 30
0.0
 11
9507.375656688891
 21
-1412.511823338909
 31
0.0
  0
LINE
  5
2BE
330
2
100
AcDbEntity
  8
0
100
AcDbLine
 10
9507.375656688891
 20
-1412.511823338909
 30
0.0
 11
9507.39139404194
 21
-1412.511149213818
 31
0.0
  0
LINE
  5
2BF
330
2
100
AcDbEntity
  8
0
100
AcDbLine
 10
9507.39139404194
 20
-1412.511149213818
 30
0.0
 11
9507.407138010718
 21
-1412.510480664046
 31
0.0
  0
LINE
  5
2C0
330
2
100
AcDbEntity
  8
0
100
AcDbLine
 10
9507.407138010718
 20
-1412.510480664046
 30
0.0
 11
9507.42288834046
 21
-1412.509817333711
 31
0.0
  0
LINE
  5
2C1
330
2
100
AcDbEntity
  8
0
100
AcDbLine
 10
9507.42288834046
 20
-1412.509817333711
 30
0.0
 11
9507.438644776414
 21
-1412.509158866947
 31
0.0
  0
LINE
  5
2C2
330
2
100
AcDbEntity
  8
0
100
AcDbLine
 10
9507.438644776414
 20
-1412.509158866947
 30
0.0
 11
9507.454407063816
 21
-1412.508504907878
 31
0.0
  0
LINE
  5
2C3
330
2
100
AcDbEntity
  8
0
100
AcDbLine
 10
9507.454407063816
 20
-1412.508504907878
 30
0.0
 11
9507.470174947917
 21
-1412.507855100631
 31
0.0
  0
LINE
  5
2C4
330
2
100
AcDbEntity
  8
0
100
AcDbLine
 10
9507.470174947917
 20
-1412.507855100631
 30
0.0
 11
9507.485948173949
 21
-1412.507209089335
 31
0.0
  0
LINE
  5
2C5
330
2
100
AcDbEntity
  8
0
100
AcDbLine
 10
9507.485948173949
 20
-1412.507209089335
 30
0.0
 11
9507.501726487168
 21
-1412.506566518115
 31
0.0
  0
LINE
  5
2C6
330
2
100
AcDbEntity
  8
0
100
AcDbLine
 10
9507.501726487168
 20
-1412.506566518115
 30
0.0
 11
9507.517509632803
 21
-1412.505927031097
 31
0.0
  0
LINE
  5
2C7
330
2
100
AcDbEntity
  8
0
100
AcDbLine
 10
9507.517509632803
 20
-1412.505927031097
 30
0.0
 11
9507.533297356106
 21
-1412.505290272414
 31
0.0
  0
LINE
  5
2C8
330
2
100
AcDbEntity
  8
0
100
AcDbLine
 10
9507.533297356106
 20
-1412.505290272414
 30
0.0
 11
9507.549089402315
 21
-1412.504655886188
 31
0.0
  0
LINE
  5
2C9
330
2
100
AcDbEntity
  8
0
100
AcDbLine
 10
9507.549089402315
 20
-1412.504655886188
 30
0.0
 11
9507.56488551667
 21
-1412.504023516548
 31
0.0
  0
LINE
  5
2CA
330
2
100
AcDbEntity
  8
0
100
AcDbLine
 10
9507.56488551667
 20
-1412.504023516548
 30
0.0
 11
9507.580685444422
 21
-1412.50339280762
 31
0.0
  0
LINE
  5
2CB
330
2
100
AcDbEntity
  8
0
100
AcDbLine
 10
9507.580685444422
 20
-1412.50339280762
 30
0.0
 11
9507.596488930806
 21
-1412.502763403533
 31
0.0
  0
LINE
  5
2CC
330
2
100
AcDbEntity
  8
0
100
AcDbLine
 10
9507.596488930806
 20
-1412.502763403533
 30
0.0
 11
9507.612295721068
 21
-1412.50213494841
 31
0.0
  0
LINE
  5
2CD
330
2
100
AcDbEntity
  8
0
100
AcDbLine
 10
9507.612295721068
 20
-1412.50213494841
 30
0.0
 11
9507.628105560447
 21
-1412.501507086386
 31
0.0
  0
LINE
  5
2CE
330
2
100
AcDbEntity
  8
0
100
AcDbLine
 10
9507.628105560447
 20
-1412.501507086386
 30
0.0
 11
9507.643918194188
 21
-1412.50087946158
 31
0.0
  0
LINE
  5
2CF
330
2
100
AcDbEntity
  8
0
100
AcDbLine
 10
9507.643918194188
 20
-1412.50087946158
 30
0.0
 11
9507.659733367535
 21
-1412.500251718121
 31
0.0
  0
LINE
  5
2D0
330
2
100
AcDbEntity
  8
0
100
AcDbLine
 10
9507.659733367535
 20
-1412.500251718121
 30
0.0
 11
9507.675550825728
 21
-1412.499623500143
 31
0.0
  0
LINE
  5
2D1
330
2
100
AcDbEntity
  8
0
100
AcDbLine
 10
9507.675550825728
 20
-1412.499623500143
 30
0.0
 11
9507.691370314011
 21
-1412.498994451763
 31
0.0
  0
LINE
  5
2D2
330
2
100
AcDbEntity
  8
0
100
AcDbLine
 10
9507.691370314011
 20
-1412.498994451763
 30
0.0
 11
9507.707191577628
 21
-1412.498364217115
 31
0.0
  0
LINE
  5
2D3
330
2
100
AcDbEntity
  8
0
100
AcDbLine
 10
9507.707191577628
 20
-1412.498364217115
 30
0.0
 11
9507.723014361816
 21
-1412.497732440324
 31
0.0
  0
LINE
  5
2D4
330
2
100
AcDbEntity
  8
0
100
AcDbLine
 10
9507.723014361816
 20
-1412.497732440324
 30
0.0
 11
9507.738838411823
 21
-1412.497098765515
 31
0.0
  0
LINE
  5
2D5
330
2
100
AcDbEntity
  8
0
100
AcDbLine
 10
9507.738838411823
 20
-1412.497098765515
 30
0.0
 11
9507.754663472887
 21
-1412.496462836819
 31
0.0
  0
LINE
  5
2D6
330
2
100
AcDbEntity
  8
0
100
AcDbLine
 10
9507.754663472887
 20
-1412.496462836819
 30
0.0
 11
9507.770489290257
 21
-1412.495824298364
 31
0.0
  0
LINE
  5
2D7
330
2
100
AcDbEntity
  8
0
100
AcDbLine
 10
9507.770489290257
 20
-1412.495824298364
 30
0.0
 11
9507.786315609166
 21
-1412.495182794272
 31
0.0
  0
LINE
  5
2D8
330
2
100
AcDbEntity
  8
0
100
AcDbLine
 10
9507.786315609166
 20
-1412.495182794272
 30
0.0
 11
9507.802142174865
 21
-1412.49453796867
 31
0.0
  0
LINE
  5
2D9
330
2
100
AcDbEntity
  8
0
100
AcDbLine
 10
9507.802142174865
 20
-1412.49453796867
 30
0.0
 11
9507.817968732592
 21
-1412.493889465689
 31
0.0
  0
LINE
  5
2DA
330
2
100
AcDbEntity
  8
0
100
AcDbLine
 10
9507.817968732592
 20
-1412.493889465689
 30
0.0
 11
9507.833795027591
 21
-1412.493236929459
 31
0.0
  0
LINE
  5
2DB
330
2
100
AcDbEntity
  8
0
100
AcDbLine
 10
9507.833795027591
 20
-1412.493236929459
 30
0.0
 11
9507.849620805108
 21
-1412.492580004103
 31
0.0
  0
LINE
  5
2DC
330
2
100
AcDbEntity
  8
0
100
AcDbLine
 10
9507.849620805108
 20
-1412.492580004103
 30
0.0
 11
9507.865445810379
 21
-1412.491918333742
 31
0.0
  0
LINE
  5
2DD
330
2
100
AcDbEntity
  8
0
100
AcDbLine
 10
9507.865445810379
 20
-1412.491918333742
 30
0.0
 11
9507.881269788653
 21
-1412.491251562516
 31
0.0
  0
LINE
  5
2DE
330
2
100
AcDbEntity
  8
0
100
AcDbLine
 10
9507.881269788653
 20
-1412.491251562516
 30
0.0
 11
9507.897092485162
 21
-1412.490579334543
 31
0.0
  0
LINE
  5
2DF
330
2
100
AcDbEntity
  8
0
100
AcDbLine
 10
9507.897092485162
 20
-1412.490579334543
 30
0.0
 11
9507.91291364516
 21
-1412.489901293954
 31
0.0
  0
LINE
  5
2E0
330
2
100
AcDbEntity
  8
0
100
AcDbLine
 10
9507.91291364516
 20
-1412.489901293954
 30
0.0
 11
9507.928733013885
 21
-1412.489217084873
 31
0.0
  0
LINE
  5
2E1
330
2
100
AcDbEntity
  8
0
100
AcDbLine
 10
9507.928733013885
 20
-1412.489217084873
 30
0.0
 11
9507.94455033658
 21
-1412.488526351431
 31
0.0
  0
LINE
  5
2E2
330
2
100
AcDbEntity
  8
0
100
AcDbLine
 10
9507.94455033658
 20
-1412.488526351431
 30
0.0
 11
9507.960365358483
 21
-1412.487828737751
 31
0.0
  0
LINE
  5
2E3
330
2
100
AcDbEntity
  8
0
100
AcDbLine
 10
9507.960365358483
 20
-1412.487828737751
 30
0.0
 11
9507.976177824842
 21
-1412.487123887965
 31
0.0
  0
LINE
  5
2E4
330
2
100
AcDbEntity
  8
0
100
AcDbLine
 10
9507.976177824842
 20
-1412.487123887965
 30
0.0
 11
9507.991987480897
 21
-1412.486411446197
 31
0.0
  0
LINE
  5
2E5
330
2
100
AcDbEntity
  8
0
100
AcDbLine
 10
9507.991987480897
 20
-1412.486411446197
 30
0.0
 11
9508.007794071897
 21
-1412.485691056573
 31
0.0
  0
LINE
  5
2E6
330
2
100
AcDbEntity
  8
0
100
AcDbLine
 10
9508.007794071897
 20
-1412.485691056573
 30
0.0
 11
9508.023597343074
 21
-1412.484962363223
 31
0.0
  0
LINE
  5
2E7
330
2
100
AcDbEntity
  8
0
100
AcDbLine
 10
9508.023597343074
 20
-1412.484962363223
 30
0.0
 11
9508.039397039674
 21
-1412.484225010275
 31
0.0
  0
LINE
  5
2E8
330
2
100
AcDbEntity
  8
0
100
AcDbLine
 10
9508.039397039674
 20
-1412.484225010275
 30
0.0
 11
9508.055192906944
 21
-1412.483478641852
 31
0.0
  0
LINE
  5
2E9
330
2
100
AcDbEntity
  8
0
100
AcDbLine
 10
9508.055192906944
 20
-1412.483478641852
 30
0.0
 11
9508.070984690125
 21
-1412.482722902082
 31
0.0
  0
LINE
  5
2EA
330
2
100
AcDbEntity
  8
0
100
AcDbLine
 10
9508.070984690125
 20
-1412.482722902082
 30
0.0
 11
9508.086772134452
 21
-1412.481957435091
 31
0.0
  0
LINE
  5
2EB
330
2
100
AcDbEntity
  8
0
100
AcDbLine
 10
9508.086772134452
 20
-1412.481957435091
 30
0.0
 11
9508.102554985178
 21
-1412.481181885015
 31
0.0
  0
LINE
  5
2EC
330
2
100
AcDbEntity
  8
0
100
AcDbLine
 10
9508.102554985178
 20
-1412.481181885015
 30
0.0
 11
9508.118332987541
 21
-1412.480395895968
 31
0.0
  0
LINE
  5
2ED
330
2
100
AcDbEntity
  8
0
100
AcDbLine
 10
9508.118332987541
 20
-1412.480395895968
 30
0.0
 11
9508.134105886782
 21
-1412.479599112089
 31
0.0
  0
LINE
  5
2EE
330
2
100
AcDbEntity
  8
0
100
AcDbLine
 10
9508.134105886782
 20
-1412.479599112089
 30
0.0
 11
9508.149873428148
 21
-1412.478791177499
 31
0.0
  0
LINE
  5
2EF
330
2
100
AcDbEntity
  8
0
100
AcDbLine
 10
9508.149873428148
 20
-1412.478791177499
 30
0.0
 11
9508.165635356874
 21
-1412.477971736328
 31
0.0
  0
LINE
  5
2F0
330
2
100
AcDbEntity
  8
0
100
AcDbLine
 10
9508.165635356874
 20
-1412.477971736328
 30
0.0
 11
9508.181391418208
 21
-1412.477140432698
 31
0.0
  0
LINE
  5
2F1
330
2
100
AcDbEntity
  8
0
100
AcDbLine
 10
9508.181391418208
 20
-1412.477140432698
 30
0.0
 11
9508.197141357392
 21
-1412.476296910741
 31
0.0
  0
LINE
  5
2F2
330
2
100
AcDbEntity
  8
0
100
AcDbLine
 10
9508.197141357392
 20
-1412.476296910741
 30
0.0
 11
9508.21288491967
 21
-1412.475440814579
 31
0.0
  0
LINE
  5
2F3
330
2
100
AcDbEntity
  8
0
100
AcDbLine
 10
9508.21288491967
 20
-1412.475440814579
 30
0.0
 11
9508.22862185028
 21
-1412.474571788346
 31
0.0
  0
LINE
  5
2F4
330
2
100
AcDbEntity
  8
0
100
AcDbLine
 10
9508.22862185028
 20
-1412.474571788346
 30
0.0
 11
9508.244351894466
 21
-1412.473689476167
 31
0.0
  0
LINE
  5
2F5
330
2
100
AcDbEntity
  8
0
100
AcDbLine
 10
9508.244351894466
 20
-1412.473689476167
 30
0.0
 11
9508.260074797474
 21
-1412.472793522165
 31
0.0
  0
LINE
  5
2F6
330
2
100
AcDbEntity
  8
0
100
AcDbLine
 10
9508.260074797474
 20
-1412.472793522165
 30
0.0
 11
9508.275790304542
 21
-1412.471883570471
 31
0.0
  0
LINE
  5
2F7
330
2
100
AcDbEntity
  8
0
100
AcDbLine
 10
9508.275790304542
 20
-1412.471883570471
 30
0.0
 11
9508.291498160916
 21
-1412.470959265212
 31
0.0
  0
LINE
  5
2F8
330
2
100
AcDbEntity
  8
0
100
AcDbLine
 10
9508.291498160916
 20
-1412.470959265212
 30
0.0
 11
9508.307198111834
 21
-1412.470020250513
 31
0.0
  0
LINE
  5
2F9
330
2
100
AcDbEntity
  8
0
100
AcDbLine
 10
9508.307198111834
 20
-1412.470020250513
 30
0.0
 11
9508.322889902544
 21
-1412.469066170504
 31
0.0
  0
LINE
  5
2FA
330
2
100
AcDbEntity
  8
0
100
AcDbLine
 10
9508.322889902544
 20
-1412.469066170504
 30
0.0
 11
9508.338573278285
 21
-1412.468096669313
 31
0.0
  0
LINE
  5
2FB
330
2
100
AcDbEntity
  8
0
100
AcDbLine
 10
9508.338573278285
 20
-1412.468096669313
 30
0.0
 11
9508.354247984302
 21
-1412.46711139106
 31
0.0
  0
LINE
  5
2FC
330
2
100
AcDbEntity
  8
0
100
AcDbLine
 10
9508.354247984302
 20
-1412.46711139106
 30
0.0
 11
9508.369913765838
 21
-1412.466109979884
 31
0.0
  0
LINE
  5
2FD
330
2
100
AcDbEntity
  8
0
100
AcDbLine
 10
9508.369913765838
 20
-1412.466109979884
 30
0.0
 11
9508.385570368128
 21
-1412.465092079897
 31
0.0
  0
LINE
  5
2FE
330
2
100
AcDbEntity
  8
0
100
AcDbLine
 10
9508.385570368128
 20
-1412.465092079897
 30
0.0
 11
9508.401217536421
 21
-1412.464057335238
 31
0.0
  0
LINE
  5
2FF
330
2
100
AcDbEntity
  8
0
100
AcDbLine
 10
9508.401217536421
 20
-1412.464057335238
 30
0.0
 11
9508.416855015957
 21
-1412.463005390034
 31
0.0
  0
LINE
  5
300
330
2
100
AcDbEntity
  8
0
100
AcDbLine
 10
9508.416855015957
 20
-1412.463005390034
 30
0.0
 11
9508.432482551986
 21
-1412.461935888402
 31
0.0
  0
LINE
  5
301
330
2
100
AcDbEntity
  8
0
100
AcDbLine
 10
9508.432482551986
 20
-1412.461935888402
 30
0.0
 11
9508.448099889742
 21
-1412.46084847448
 31
0.0
  0
LINE
  5
302
330
2
100
AcDbEntity
  8
0
100
AcDbLine
 10
9508.448099889742
 20
-1412.46084847448
 30
0.0
 11
9508.463706774469
 21
-1412.459742792388
 31
0.0
  0
LINE
  5
303
330
2
100
AcDbEntity
  8
0
100
AcDbLine
 10
9508.463706774469
 20
-1412.459742792388
 30
0.0
 11
9508.47930295141
 21
-1412.458618486257
 31
0.0
  0
LINE
  5
304
330
2
100
AcDbEntity
  8
0
100
AcDbLine
 10
9508.47930295141
 20
-1412.458618486257
 30
0.0
 11
9508.494888165808
 21
-1412.457475200216
 31
0.0
  0
LINE
  5
305
330
2
100
AcDbEntity
  8
0
100
AcDbLine
 10
9508.494888165808
 20
-1412.457475200216
 30
0.0
 11
9508.510462162908
 21
-1412.456312578391
 31
0.0
  0
LINE
  5
306
330
2
100
AcDbEntity
  8
0
100
AcDbLine
 10
9508.510462162908
 20
-1412.456312578391
 30
0.0
 11
9508.526024687943
 21
-1412.455130264902
 31
0.0
  0
LINE
  5
307
330
2
100
AcDbEntity
  8
0
100
AcDbLine
 10
9508.526024687943
 20
-1412.455130264902
 30
0.0
 11
9508.541575486168
 21
-1412.453927903881
 31
0.0
  0
LINE
  5
308
330
2
100
AcDbEntity
  8
0
100
AcDbLine
 10
9508.541575486168
 20
-1412.453927903881
 30
0.0
 11
9508.557114302819
 21
-1412.452705139463
 31
0.0
  0
LINE
  5
309
330
2
100
AcDbEntity
  8
0
100
AcDbLine
 10
9508.557114302819
 20
-1412.452705139463
 30
0.0
 11
9508.572640883141
 21
-1412.451461615762
 31
0.0
  0
LINE
  5
30A
330
2
100
AcDbEntity
  8
0
100
AcDbLine
 10
9508.572640883141
 20
-1412.451461615762
 30
0.0
 11
9508.588154972372
 21
-1412.450196976912
 31
0.0
  0
LINE
  5
30B
330
2
100
AcDbEntity
  8
0
100
AcDbLine
 10
9508.588154972372
 20
-1412.450196976912
 30
0.0
 11
9508.603656315761
 21
-1412.44891086704
 31
0.0
  0
LINE
  5
30C
330
2
100
AcDbEntity
  8
0
100
AcDbLine
 10
9508.603656315761
 20
-1412.44891086704
 30
0.0
 11
9508.619144658542
 21
-1412.447602930272
 31
0.0
  0
LINE
  5
30D
330
2
100
AcDbEntity
  8
0
100
AcDbLine
 10
9508.619144658542
 20
-1412.447602930272
 30
0.0
 11
9508.634619745967
 21
-1412.446272810733
 31
0.0
  0
LINE
  5
30E
330
2
100
AcDbEntity
  8
0
100
AcDbLine
 10
9508.634619745967
 20
-1412.446272810733
 30
0.0
 11
9508.650081323272
 21
-1412.444920152558
 31
0.0
  0
LINE
  5
30F
330
2
100
AcDbEntity
  8
0
100
AcDbLine
 10
9508.650081323272
 20
-1412.444920152558
 30
0.0
 11
9508.665529135701
 21
-1412.443544599865
 31
0.0
  0
LINE
  5
310
330
2
100
AcDbEntity
  8
0
100
AcDbLine
 10
9508.665529135701
 20
-1412.443544599865
 30
0.0
 11
9508.680962928496
 21
-1412.442145796785
 31
0.0
  0
LINE
  5
311
330
2
100
AcDbEntity
  8
0
100
AcDbLine
 10
9508.680962928496
 20
-1412.442145796785
 30
0.0
 11
9508.696382446904
 21
-1412.440723387445
 31
0.0
  0
LINE
  5
312
330
2
100
AcDbEntity
  8
0
100
AcDbLine
 10
9508.696382446904
 20
-1412.440723387445
 30
0.0
 11
9508.71178743616
 21
-1412.439277015977
 31
0.0
  0
LINE
  5
313
330
2
100
AcDbEntity
  8
0
100
AcDbLine
 10
9508.71178743616
 20
-1412.439277015977
 30
0.0
 11
9508.727177641516
 21
-1412.437806326497
 31
0.0
  0
LINE
  5
314
330
2
100
AcDbEntity
  8
0
100
AcDbLine
 10
9508.727177641516
 20
-1412.437806326497
 30
0.0
 11
9508.742552808202
 21
-1412.436310963146
 31
0.0
  0
LINE
  5
315
330
2
100
AcDbEntity
  8
0
100
AcDbLine
 10
9508.742552808202
 20
-1412.436310963146
 30
0.0
 11
9508.757912681469
 21
-1412.434790570035
 31
0.0
  0
LINE
  5
316
330
2
100
AcDbEntity
  8
0
100
AcDbLine
 10
9508.757912681469
 20
-1412.434790570035
 30
0.0
 11
9508.773257006565
 21
-1412.433244791305
 31
0.0
  0
LINE
  5
317
330
2
100
AcDbEntity
  8
0
100
AcDbLine
 10
9508.773257006565
 20
-1412.433244791305
 30
0.0
 11
9508.788585528716
 21
-1412.431673271077
 31
0.0
  0
LINE
  5
318
330
2
100
AcDbEntity
  8
0
100
AcDbLine
 10
9508.788585528716
 20
-1412.431673271077
 30
0.0
 11
9508.80389799318
 21
-1412.43007565348
 31
0.0
  0
LINE
  5
319
330
2
100
AcDbEntity
  8
0
100
AcDbLine
 10
9508.80389799318
 20
-1412.43007565348
 30
0.0
 11
9508.819194145187
 21
-1412.428451582638
 31
0.0
  0
LINE
  5
31A
330
2
100
AcDbEntity
  8
0
100
AcDbLine
 10
9508.819194145187
 20
-1412.428451582638
 30
0.0
 11
9508.834473729995
 21
-1412.426800702685
 31
0.0
  0
LINE
  5
31B
330
2
100
AcDbEntity
  8
0
100
AcDbLine
 10
9508.834473729995
 20
-1412.426800702685
 30
0.0
 11
9508.849736492832
 21
-1412.425122657737
 31
0.0
  0
LINE
  5
31C
330
2
100
AcDbEntity
  8
0
100
AcDbLine
 10
9508.849736492832
 20
-1412.425122657737
 30
0.0
 11
9508.864982178947
 21
-1412.423417091931
 31
0.0
  0
LINE
  5
31D
330
2
100
AcDbEntity
  8
0
100
AcDbLine
 10
9508.864982178947
 20
-1412.423417091931
 30
0.0
 11
9508.880210533581
 21
-1412.421683649392
 31
0.0
  0
LINE
  5
31E
330
2
100
AcDbEntity
  8
0
100
AcDbLine
 10
9508.880210533581
 20
-1412.421683649392
 30
0.0
 11
9508.895421301977
 21
-1412.419921974245
 31
0.0
  0
LINE
  5
31F
330
2
100
AcDbEntity
  8
0
100
AcDbLine
 10
9508.895421301977
 20
-1412.419921974245
 30
0.0
 11
9508.910614229376
 21
-1412.41813171062
 31
0.0
  0
LINE
  5
320
330
2
100
AcDbEntity
  8
0
100
AcDbLine
 10
9508.910614229376
 20
-1412.41813171062
 30
0.0
 11
9508.925789061024
 21
-1412.41631250264
 31
0.0
  0
LINE
  5
321
330
2
100
AcDbEntity
  8
0
100
AcDbLine
 10
9508.925789061024
 20
-1412.41631250264
 30
0.0
 11
9508.940945542162
 21
-1412.414463994436
 31
0.0
  0
LINE
  5
322
330
2
100
AcDbEntity
  8
0
100
AcDbLine
 10
9508.940945542162
 20
-1412.414463994436
 30
0.0
 11
9508.956083418032
 21
-1412.412585830128
 31
0.0
  0
LINE
  5
323
330
2
100
AcDbEntity
  8
0
100
AcDbLine
 10
9508.956083418032
 20
-1412.412585830128
 30
0.0
 11
9508.971202433874
 21
-1412.410677653855
 31
0.0
  0
LINE
  5
324
330
2
100
AcDbEntity
  8
0
100
AcDbLine
 10
9508.971202433874
 20
-1412.410677653855
 30
0.0
 11
9508.986302334937
 21
-1412.408739109736
 31
0.0
  0
LINE
  5
325
330
2
100
AcDbEntity
  8
0
100
AcDbLine
 10
9508.986302334937
 20
-1412.408739109736
 30
0.0
 11
9509.001382866456
 21
-1412.406769841903
 31
0.0
  0
LINE
  5
326
330
2
100
AcDbEntity
  8
0
100
AcDbLine
 10
9509.001382866456
 20
-1412.406769841903
 30
0.0
 11
9509.016443773679
 21
-1412.404769494476
 31
0.0
  0
LINE
  5
327
330
2
100
AcDbEntity
  8
0
100
AcDbLine
 10
9509.016443773679
 20
-1412.404769494476
 30
0.0
 11
9509.031484801845
 21
-1412.402737711586
 31
0.0
  0
LINE
  5
328
330
2
100
AcDbEntity
  8
0
100
AcDbLine
 10
9509.031484801845
 20
-1412.402737711586
 30
0.0
 11
9509.046505696201
 21
-1412.400674137361
 31
0.0
  0
LINE
  5
329
330
2
100
AcDbEntity
  8
0
100
AcDbLine
 10
9509.046505696201
 20
-1412.400674137361
 30
0.0
 11
9509.06150620198
 21
-1412.398578415931
 31
0.0
  0
LINE
  5
32A
330
2
100
AcDbEntity
  8
0
100
AcDbLine
 10
9509.06150620198
 20
-1412.398578415931
 30
0.0
 11
9509.076486064435
 21
-1412.396450191417
 31
0.0
  0
LINE
  5
32B
330
2
100
AcDbEntity
  8
0
100
AcDbLine
 10
9509.076486064435
 20
-1412.396450191417
 30
0.0
 11
9509.091445028806
 21
-1412.394289107951
 31
0.0
  0
LINE
  5
32C
330
2
100
AcDbEntity
  8
0
100
AcDbLine
 10
9509.091445028806
 20
-1412.394289107951
 30
0.0
 11
9509.106382840331
 21
-1412.392094809657
 31
0.0
  0
LINE
  5
32D
330
2
100
AcDbEntity
  8
0
100
AcDbLine
 10
9509.106382840331
 20
-1412.392094809657
 30
0.0
 11
9509.121299244258
 21
-1412.389866940664
 31
0.0
  0
LINE
  5
32E
330
2
100
AcDbEntity
  8
0
100
AcDbLine
 10
9509.121299244258
 20
-1412.389866940664
 30
0.0
 11
9509.136193985828
 21
-1412.387605145094
 31
0.0
  0
LINE
  5
32F
330
2
100
AcDbEntity
  8
0
100
AcDbLine
 10
9509.136193985828
 20
-1412.387605145094
 30
0.0
 11
9509.151066810277
 21
-1412.385309067083
 31
0.0
  0
LINE
  5
330
330
2
100
AcDbEntity
  8
0
100
AcDbLine
 10
9509.151066810277
 20
-1412.385309067083
 30
0.0
 11
9509.165917462857
 21
-1412.382978350751
 31
0.0
  0
LINE
  5
331
330
2
100
AcDbEntity
  8
0
100
AcDbLine
 10
9509.165917462857
 20
-1412.382978350751
 30
0.0
 11
9509.180745688803
 21
-1412.380612640228
 31
0.0
  0
LINE
  5
332
330
2
100
AcDbEntity
  8
0
100
AcDbLine
 10
9509.180745688803
 20
-1412.380612640228
 30
0.0
 11
9509.195551233364
 21
-1412.378211579643
 31
0.0
  0
LINE
  5
333
330
2
100
AcDbEntity
  8
0
100
AcDbLine
 10
9509.195551233364
 20
-1412.378211579643
 30
0.0
 11
9509.21033384178
 21
-1412.375774813118
 31
0.0
  0
LINE
  5
334
330
2
100
AcDbEntity
  8
0
100
AcDbLine
 10
9509.21033384178
 20
-1412.375774813118
 30
0.0
 11
9509.225093259294
 21
-1412.373301984787
 31
0.0
  0
LINE
  5
335
330
2
100
AcDbEntity
  8
0
100
AcDbLine
 10
9509.225093259294
 20
-1412.373301984787
 30
0.0
 11
9509.239829231145
 21
-1412.370792738774
 31
0.0
  0
LINE
  5
336
330
2
100
AcDbEntity
  8
0
100
AcDbLine
 10
9509.239829231145
 20
-1412.370792738774
 30
0.0
 11
9509.254541502576
 21
-1412.368246719202
 31
0.0
  0
LINE
  5
337
330
2
100
AcDbEntity
  8
0
100
AcDbLine
 10
9509.254541502576
 20
-1412.368246719202
 30
0.0
 11
9509.269229818832
 21
-1412.365663570204
 31
0.0
  0
LINE
  5
338
330
2
100
AcDbEntity
  8
0
100
AcDbLine
 10
9509.269229818832
 20
-1412.365663570204
 30
0.0
 11
9509.283893925159
 21
-1412.363042935905
 31
0.0
  0
LINE
  5
339
330
2
100
AcDbEntity
  8
0
100
AcDbLine
 10
9509.283893925159
 20
-1412.363042935905
 30
0.0
 11
9509.298533566793
 21
-1412.36038446043
 31
0.0
  0
LINE
  5
33A
330
2
100
AcDbEntity
  8
0
100
AcDbLine
 10
9509.298533566793
 20
-1412.36038446043
 30
0.0
 11
9509.313148488979
 21
-1412.35768778791
 31
0.0
  0
LINE
  5
33B
330
2
100
AcDbEntity
  8
0
100
AcDbLine
 10
9509.313148488979
 20
-1412.35768778791
 30
0.0
 11
9509.32773843696
 21
-1412.35495256247
 31
0.0
  0
LINE
  5
33C
330
2
100
AcDbEntity
  8
0
100
AcDbLine
 10
9509.32773843696
 20
-1412.35495256247
 30
0.0
 11
9509.342303155978
 21
-1412.352178428236
 31
0.0
  0
LINE
  5
33D
330
2
100
AcDbEntity
  8
0
100
AcDbLine
 10
9509.342303155978
 20
-1412.352178428236
 30
0.0
 11
9509.356842391275
 21
-1412.349365029336
 31
0.0
  0
LINE
  5
33E
330
2
100
AcDbEntity
  8
0
100
AcDbLine
 10
9509.356842391275
 20
-1412.349365029336
 30
0.0
 11
9509.371355888092
 21
-1412.3465120099
 31
0.0
  0
LINE
  5
33F
330
2
100
AcDbEntity
  8
0
100
AcDbLine
 10
9509.371355888092
 20
-1412.3465120099
 30
0.0
 11
9509.38584339168
 21
-1412.34361901405
 31
0.0
  0
LINE
  5
340
330
2
100
AcDbEntity
  8
0
100
AcDbLine
 10
9509.38584339168
 20
-1412.34361901405
 30
0.0
 11
9509.400304647268
 21
-1412.340685685916
 31
0.0
  0
LINE
  5
341
330
2
100
AcDbEntity
  8
0
100
AcDbLine
 10
9509.400304647268
 20
-1412.340685685916
 30
0.0
 11
9509.414739400106
 21
-1412.337711669629
 31
0.0
  0
LINE
  5
342
330
2
100
AcDbEntity
  8
0
100
AcDbLine
 10
9509.414739400106
 20
-1412.337711669629
 30
0.0
 11
9509.429147395442
 21
-1412.33469660931
 31
0.0
  0
LINE
  5
343
330
2
100
AcDbEntity
  8
0
100
AcDbLine
 10
9509.429147395442
 20
-1412.33469660931
 30
0.0
 11
9509.443528378508
 21
-1412.331640149089
 31
0.0
  0
LINE
  5
344
330
2
100
AcDbEntity
  8
0
100
AcDbLine
 10
9509.443528378508
 20
-1412.331640149089
 30
0.0
 11
9509.457882094551
 21
-1412.328541933094
 31
0.0
  0
LINE
  5
345
330
2
100
AcDbEntity
  8
0
100
AcDbLine
 10
9509.457882094551
 20
-1412.328541933094
 30
0.0
 11
9509.472208288812
 21
-1412.325401605446
 31
0.0
  0
LINE
  5
346
330
2
100
AcDbEntity
  8
0
100
AcDbLine
 10
9509.472208288812
 20
-1412.325401605446
 30
0.0
 11
9509.486506706538
 21
-1412.322218810282
 31
0.0
  0
LINE
  5
347
330
2
100
AcDbEntity
  8
0
100
AcDbLine
 10
9509.486506706538
 20
-1412.322218810282
 30
0.0
 11
9509.500777092968
 21
-1412.318993191723
 31
0.0
  0
LINE
  5
348
330
2
100
AcDbEntity
  8
0
100
AcDbLine
 10
9509.500777092968
 20
-1412.318993191723
 30
0.0
 11
9509.515019193344
 21
-1412.315724393892
 31
0.0
  0
LINE
  5
349
330
2
100
AcDbEntity
  8
0
100
AcDbLine
 10
9509.515019193344
 20
-1412.315724393892
 30
0.0
 11
9509.529232752914
 21
-1412.312412060929
 31
0.0
  0
LINE
  5
34A
330
2
100
AcDbEntity
  8
0
100
AcDbLine
 10
9509.529232752914
 20
-1412.312412060929
 30
0.0
 11
9509.543417516908
 21
-1412.309055836949
 31
0.0
  0
LINE
  5
34B
330
2
100
AcDbEntity
  8
0
100
AcDbLine
 10
9509.543417516908
 20
-1412.309055836949
 30
0.0
 11
9509.55757323058
 21
-1412.305655366084
 31
0.0
  0
LINE
  5
34C
330
2
100
AcDbEntity
  8
0
100
AcDbLine
 10
9509.55757323058
 20
-1412.305655366084
 30
0.0
 11
9509.57169963917
 21
-1412.30221029246
 31
0.0
  0
LINE
  5
34D
330
2
100
AcDbEntity
  8
0
100
AcDbLine
 10
9509.57169963917
 20
-1412.30221029246
 30
0.0
 11
9509.58579648792
 21
-1412.298720260206
 31
0.0
  0
LINE
  5
34E
330
2
100
AcDbEntity
  8
0
100
AcDbLine
 10
9509.58579648792
 20
-1412.298720260206
 30
0.0
 11
9509.599863522067
 21
-1412.295184913449
 31
0.0
  0
LINE
  5
34F
330
2
100
AcDbEntity
  8
0
100
AcDbLine
 10
9509.599863522067
 20
-1412.295184913449
 30
0.0
 11
9509.613900486867
 21
-1412.291603896317
 31
0.0
  0
LINE
  5
350
330
2
100
AcDbEntity
  8
0
100
AcDbLine
 10
9509.613900486867
 20
-1412.291603896317
 30
0.0
 11
9509.627907127548
 21
-1412.287976852932
 31
0.0
  0
LINE
  5
351
330
2
100
AcDbEntity
  8
0
100
AcDbLine
 10
9509.627907127548
 20
-1412.287976852932
 30
0.0
 11
9509.641883189358
 21
-1412.284303427424
 31
0.0
  0
LINE
  5
352
330
2
100
AcDbEntity
  8
0
100
AcDbLine
 10
9509.641883189358
 20
-1412.284303427424
 30
0.0
 11
9509.655828417541
 21
-1412.280583263922
 31
0.0
  0
LINE
  5
353
330
2
100
AcDbEntity
  8
0
100
AcDbLine
 10
9509.655828417541
 20
-1412.280583263922
 30
0.0
 11
9509.669742557342
 21
-1412.276816006551
 31
0.0
  0
LINE
  5
354
330
2
100
AcDbEntity
  8
0
100
AcDbLine
 10
9509.669742557342
 20
-1412.276816006551
 30
0.0
 11
9509.683625353998
 21
-1412.273001299437
 31
0.0
  0
LINE
  5
355
330
2
100
AcDbEntity
  8
0
100
AcDbLine
 10
9509.683625353998
 20
-1412.273001299437
 30
0.0
 11
9509.69747655275
 21
-1412.269138786714
 31
0.0
  0
LINE
  5
356
330
2
100
AcDbEntity
  8
0
100
AcDbLine
 10
9509.69747655275
 20
-1412.269138786714
 30
0.0
 11
9509.711295898847
 21
-1412.265228112502
 31
0.0
  0
LINE
  5
357
330
2
100
AcDbEntity
  8
0
100
AcDbLine
 10
9509.711295898847
 20
-1412.265228112502
 30
0.0
 11
9509.72508313753
 21
-1412.261268920928
 31
0.0
  0
LINE
  5
358
330
2
100
AcDbEntity
  8
0
100
AcDbLine
 10
9509.72508313753
 20
-1412.261268920928
 30
0.0
 11
9509.73883801404
 21
-1412.257260856125
 31
0.0
  0
LINE
  5
359
330
2
100
AcDbEntity
  8
0
100
AcDbLine
 10
9509.73883801404
 20
-1412.257260856125
 30
0.0
 11
9509.752560273616
 21
-1412.253203562215
 31
0.0
  0
LINE
  5
35A
330
2
100
AcDbEntity
  8
0
100
AcDbLine
 10
9509.752560273616
 20
-1412.253203562215
 30
0.0
 11
9509.766249661502
 21
-1412.249096683329
 31
0.0
  0
LINE
  5
35B
330
2
100
AcDbEntity
  8
0
100
AcDbLine
 10
9509.766249661502
 20
-1412.249096683329
 30
0.0
 11
9509.779905922947
 21
-1412.244939863588
 31
0.0
  0
LINE
  5
35C
330
2
100
AcDbEntity
  8
0
100
AcDbLine
 10
9509.779905922947
 20
-1412.244939863588
 30
0.0
 11
9509.793528803188
 21
-1412.240732747124
 31
0.0
  0
LINE
  5
35D
330
2
100
AcDbEntity
  8
0
100
AcDbLine
 10
9509.793528803188
 20
-1412.240732747124
 30
0.0
 11
9509.80711804747
 21
-1412.236474978069
 31
0.0
  0
LINE
  5
35E
330
2
100
AcDbEntity
  8
0
100
AcDbLine
 10
9509.80711804747
 20
-1412.236474978069
 30
0.0
 11
9509.82067340103
 21
-1412.232166200535
 31
0.0
  0
LINE
  5
35F
330
2
100
AcDbEntity
  8
0
100
AcDbLine
 10
9509.82067340103
 20
-1412.232166200535
 30
0.0
 11
9509.834194609121
 21
-1412.227806058666
 31
0.0
  0
LINE
  5
360
330
2
100
AcDbEntity
  8
0
100
AcDbLine
 10
9509.834194609121
 20
-1412.227806058666
 30
0.0
 11
9509.847681416976
 21
-1412.22339419658
 31
0.0
  0
LINE
  5
361
330
2
100
AcDbEntity
  8
0
100
AcDbLine
 10
9509.847681416976
 20
-1412.22339419658
 30
0.0
 11
9509.86113356984
 21
-1412.218930258402
 31
0.0
  0
LINE
  5
362
330
2
100
AcDbEntity
  8
0
100
AcDbLine
 10
9509.86113356984
 20
-1412.218930258402
 30
0.0
 11
9509.874550812954
 21
-1412.214413888266
 31
0.0
  0
LINE
  5
363
330
2
100
AcDbEntity
  8
0
100
AcDbLine
 10
9509.874550812954
 20
-1412.214413888266
 30
0.0
 11
9509.887932891563
 21
-1412.209844730301
 31
0.0
  0
LINE
  5
364
330
2
100
AcDbEntity
  8
0
100
AcDbLine
 10
9509.887932891563
 20
-1412.209844730301
 30
0.0
 11
9509.901279550911
 21
-1412.205222428625
 31
0.0
  0
LINE
  5
365
330
2
100
AcDbEntity
  8
0
100
AcDbLine
 10
9509.901279550911
 20
-1412.205222428625
 30
0.0
 11
9509.914590536238
 21
-1412.200546627363
 31
0.0
  0
LINE
  5
366
330
2
100
AcDbEntity
  8
0
100
AcDbLine
 10
9509.914590536238
 20
-1412.200546627363
 30
0.0
 11
9509.927865592786
 21
-1412.195816970657
 31
0.0
  0
LINE
  5
367
330
2
100
AcDbEntity
  8
0
100
AcDbLine
 10
9509.927865592786
 20
-1412.195816970657
 30
0.0
 11
9509.9411044658
 21
-1412.191033102624
 31
0.0
  0
LINE
  5
368
330
2
100
AcDbEntity
  8
0
100
AcDbLine
 10
9509.9411044658
 20
-1412.191033102624
 30
0.0
 11
9509.954306900519
 21
-1412.18619466739
 31
0.0
  0
LINE
  5
369
330
2
100
AcDbEntity
  8
0
100
AcDbLine
 10
9509.954306900519
 20
-1412.18619466739
 30
0.0
 11
9509.967472642186
 21
-1412.181301309088
 31
0.0
  0
LINE
  5
36A
330
2
100
AcDbEntity
  8
0
100
AcDbLine
 10
9509.967472642186
 20
-1412.181301309088
 30
0.0
 11
9509.980601436053
 21
-1412.176352671843
 31
0.0
  0
LINE
  5
36B
330
2
100
AcDbEntity
  8
0
100
AcDbLine
 10
9509.980601436053
 20
-1412.176352671843
 30
0.0
 11
9509.993693027347
 21
-1412.171348399778
 31
0.0
  0
LINE
  5
36C
330
2
100
AcDbEntity
  8
0
100
AcDbLine
 10
9509.993693027347
 20
-1412.171348399778
 30
0.0
 11
9510.00674716132
 21
-1412.166288137022
 31
0.0
  0
LINE
  5
36D
330
2
100
AcDbEntity
  8
0
100
AcDbLine
 10
9510.00674716132
 20
-1412.166288137022
 30
0.0
 11
9510.019763583214
 21
-1412.161171527711
 31
0.0
  0
LINE
  5
36E
330
2
100
AcDbEntity
  8
0
100
AcDbLine
 10
9510.019763583214
 20
-1412.161171527711
 30
0.0
 11
9510.032742038267
 21
-1412.155998215961
 31
0.0
  0
LINE
  5
36F
330
2
100
AcDbEntity
  8
0
100
AcDbLine
 10
9510.032742038267
 20
-1412.155998215961
 30
0.0
 11
9510.045682271726
 21
-1412.150767845899
 31
0.0
  0
LINE
  5
370
330
2
100
AcDbEntity
  8
0
100
AcDbLine
 10
9510.045682271726
 20
-1412.150767845899
 30
0.0
 11
9510.058584028831
 21
-1412.145480061657
 31
0.0
  0
LINE
  5
371
330
2
100
AcDbEntity
  8
0
100
AcDbLine
 10
9510.058584028831
 20
-1412.145480061657
 30
0.0
 11
9510.071447054828
 21
-1412.140134507366
 31
0.0
  0
LINE
  5
372
330
2
100
AcDbEntity
  8
0
100
AcDbLine
 10
9510.071447054828
 20
-1412.140134507366
 30
0.0
 11
9510.084271094957
 21
-1412.134730827144
 31
0.0
  0
LINE
  5
373
330
2
100
AcDbEntity
  8
0
100
AcDbLine
 10
9510.084271094957
 20
-1412.134730827144
 30
0.0
 11
9510.09705589446
 21
-1412.129268665126
 31
0.0
  0
LINE
  5
374
330
2
100
AcDbEntity
  8
0
100
AcDbLine
 10
9510.09705589446
 20
-1412.129268665126
 30
0.0
 11
9510.109801198579
 21
-1412.123747665432
 31
0.0
  0
LINE
  5
375
330
2
100
AcDbEntity
  8
0
100
AcDbLine
 10
9510.109801198579
 20
-1412.123747665432
 30
0.0
 11
9510.122506752557
 21
-1412.118167472196
 31
0.0
  0
LINE
  5
376
330
2
100
AcDbEntity
  8
0
100
AcDbLine
 10
9510.122506752557
 20
-1412.118167472196
 30
0.0
 11
9510.135172301636
 21
-1412.11252772954
 31
0.0
  0
LINE
  5
377
330
2
100
AcDbEntity
  8
0
100
AcDbLine
 10
9510.135172301636
 20
-1412.11252772954
 30
0.0
 11
9510.147797591065
 21
-1412.106828081594
 31
0.0
  0
LINE
  5
378
330
2
100
AcDbEntity
  8
0
100
AcDbLine
 10
9510.147797591065
 20
-1412.106828081594
 30
0.0
 11
9510.160382366075
 21
-1412.101068172481
 31
0.0
  0
LINE
  5
379
330
2
100
AcDbEntity
  8
0
100
AcDbLine
 10
9510.160382366075
 20
-1412.101068172481
 30
0.0
 11
9510.172926371918
 21
-1412.095247646336
 31
0.0
  0
LINE
  5
37A
330
2
100
AcDbEntity
  8
0
100
AcDbLine
 10
9510.172926371918
 20
-1412.095247646336
 30
0.0
 11
9510.18542935383
 21
-1412.089366147281
 31
0.0
  0
LINE
  5
37B
330
2
100
AcDbEntity
  8
0
100
AcDbLine
 10
9510.18542935383
 20
-1412.089366147281
 30
0.0
 11
9510.197891057059
 21
-1412.083423319441
 31
0.0
  0
LINE
  5
37C
330
2
100
AcDbEntity
  8
0
100
AcDbLine
 10
9510.197891057059
 20
-1412.083423319441
 30
0.0
 11
9510.210311226845
 21
-1412.077418806949
 31
0.0
  0
LINE
  5
37D
330
2
100
AcDbEntity
  8
0
100
AcDbLine
 10
9510.210311226845
 20
-1412.077418806949
 30
0.0
 11
9510.222689608429
 21
-1412.071352253924
 31
0.0
  0
LINE
  5
37E
330
2
100
AcDbEntity
  8
0
100
AcDbLine
 10
9510.222689608429
 20
-1412.071352253924
 30
0.0
 11
9510.235025947055
 21
-1412.065223304501
 31
0.0
  0
LINE
  5
37F
330
2
100
AcDbEntity
  8
0
100
AcDbLine
 10
9510.235025947055
 20
-1412.065223304501
 30
0.0
 11
9510.247319987968
 21
-1412.059031602804
 31
0.0
  0
LINE
  5
380
330
2
100
AcDbEntity
  8
0
100
AcDbLine
 10
9510.247319987968
 20
-1412.059031602804
 30
0.0
 11
9510.259571476403
 21
-1412.052776792961
 31
0.0
  0
LINE
  5
381
330
2
100
AcDbEntity
  8
0
100
AcDbLine
 10
9510.259571476403
 20
-1412.052776792961
 30
0.0
 11
9510.271780157614
 21
-1412.046458519101
 31
0.0
  0
LINE
  5
382
330
2
100
AcDbEntity
  8
0
100
AcDbLine
 10
9510.271780157614
 20
-1412.046458519101
 30
0.0
 11
9510.283945776834
 21
-1412.040076425344
 31
0.0
  0
LINE
  5
383
330
2
100
AcDbEntity
  8
0
100
AcDbLine
 10
9510.283945776834
 20
-1412.040076425344
 30
0.0
 11
9510.296068079307
 21
-1412.033630155821
 31
0.0
  0
LINE
  5
384
330
2
100
AcDbEntity
  8
0
100
AcDbLine
 10
9510.296068079307
 20
-1412.033630155821
 30
0.0
 11
9510.308146810279
 21
-1412.027119354666
 31
0.0
  0
LINE
  5
385
330
2
100
AcDbEntity
  8
0
100
AcDbLine
 10
9510.308146810279
 20
-1412.027119354666
 30
0.0
 11
9510.320181714991
 21
-1412.020543665997
 31
0.0
  0
LINE
  5
386
330
2
100
AcDbEntity
  8
0
100
AcDbLine
 10
9510.320181714991
 20
-1412.020543665997
 30
0.0
 11
9510.332172538685
 21
-1412.01390273394
 31
0.0
  0
LINE
  5
387
330
2
100
AcDbEntity
  8
0
100
AcDbLine
 10
9510.332172538685
 20
-1412.01390273394
 30
0.0
 11
9510.344119026601
 21
-1412.007196202635
 31
0.0
  0
LINE
  5
388
330
2
100
AcDbEntity
  8
0
100
AcDbLine
 10
9510.344119026601
 20
-1412.007196202635
 30
0.0
 11
9510.356020923984
 21
-1412.000423716193
 31
0.0
  0
LINE
  5
389
330
2
100
AcDbEntity
  8
0
100
AcDbLine
 10
9510.356020923984
 20
-1412.000423716193
 30
0.0
 11
9510.367877976081
 21
-1411.993584918754
 31
0.0
  0
LINE
  5
38A
330
2
100
AcDbEntity
  8
0
100
AcDbLine
 10
9510.367877976081
 20
-1411.993584918754
 30
0.0
 11
9510.379689928127
 21
-1411.986679454437
 31
0.0
  0
LINE
  5
38B
330
2
100
AcDbEntity
  8
0
100
AcDbLine
 10
9510.379689928127
 20
-1411.986679454437
 30
0.0
 11
9510.391456525367
 21
-1411.97970696737
 31
0.0
  0
LINE
  5
38C
330
2
100
AcDbEntity
  8
0
100
AcDbLine
 10
9510.391456525367
 20
-1411.97970696737
 30
0.0
 11
9510.403177513046
 21
-1411.972667101684
 31
0.0
  0
LINE
  5
38D
330
2
100
AcDbEntity
  8
0
100
AcDbLine
 10
9510.403177513046
 20
-1411.972667101684
 30
0.0
 11
9510.414852636401
 21
-1411.965559501507
 31
0.0
  0
LINE
  5
38E
330
2
100
AcDbEntity
  8
0
100
AcDbLine
 10
9510.414852636401
 20
-1411.965559501507
 30
0.0
 11
9510.42648164068
 21
-1411.958383810962
 31
0.0
  0
LINE
  5
38F
330
2
100
AcDbEntity
  8
0
100
AcDbLine
 10
9510.42648164068
 20
-1411.958383810962
 30
0.0
 11
9510.438064271124
 21
-1411.951139674174
 31
0.0
  0
LINE
  5
390
330
2
100
AcDbEntity
  8
0
100
AcDbLine
 10
9510.438064271124
 20
-1411.951139674174
 30
0.0
 11
9510.449600272975
 21
-1411.943826735279
 31
0.0
  0
LINE
  5
391
330
2
100
AcDbEntity
  8
0
100
AcDbLine
 10
9510.449600272975
 20
-1411.943826735279
 30
0.0
 11
9510.461089391474
 21
-1411.936444638396
 31
0.0
  0
LINE
  5
392
330
2
100
AcDbEntity
  8
0
100
AcDbLine
 10
9510.461089391474
 20
-1411.936444638396
 30
0.0
 11
9510.472531371869
 21
-1411.928993027658
 31
0.0
  0
LINE
  5
393
330
2
100
AcDbEntity
  8
0
100
AcDbLine
 10
9510.472531371869
 20
-1411.928993027658
 30
0.0
 11
9510.483925959396
 21
-1411.921471547184
 31
0.0
  0
LINE
  5
394
330
2
100
AcDbEntity
  8
0
100
AcDbLine
 10
9510.483925959396
 20
-1411.921471547184
 30
0.0
 11
9510.495272899298
 21
-1411.913879841109
 31
0.0
  0
LINE
  5
395
330
2
100
AcDbEntity
  8
0
100
AcDbLine
 10
9510.495272899298
 20
-1411.913879841109
 30
0.0
 11
9510.50657193682
 21
-1411.906217553559
 31
0.0
  0
LINE
  5
396
330
2
100
AcDbEntity
  8
0
100
AcDbLine
 10
9510.50657193682
 20
-1411.906217553559
 30
0.0
 11
9510.517822817206
 21
-1411.898484328657
 31
0.0
  0
LINE
  5
397
330
2
100
AcDbEntity
  8
0
100
AcDbLine
 10
9510.517822817206
 20
-1411.898484328657
 30
0.0
 11
9510.529025285697
 21
-1411.890679810532
 31
0.0
  0
LINE
  5
398
330
2
100
AcDbEntity
  8
0
100
AcDbLine
 10
9510.529025285697
 20
-1411.890679810532
 30
0.0
 11
9510.540179087534
 21
-1411.882803643316
 31
0.0
  0
LINE
  5
399
330
2
100
AcDbEntity
  8
0
100
AcDbLine
 10
9510.540179087534
 20
-1411.882803643316
 30
0.0
 11
9510.551283967959
 21
-1411.874855471127
 31
0.0
  0
LINE
  5
39A
330
2
100
AcDbEntity
  8
0
100
AcDbLine
 10
9510.551283967959
 20
-1411.874855471127
 30
0.0
 11
9510.562339672215
 21
-1411.866834938101
 31
0.0
  0
LINE
  5
39B
330
2
100
AcDbEntity
  8
0
100
AcDbLine
 10
9510.562339672215
 20
-1411.866834938101
 30
0.0
 11
9510.573345945552
 21
-1411.858741688361
 31
0.0
  0
LINE
  5
39C
330
2
100
AcDbEntity
  8
0
100
AcDbLine
 10
9510.573345945552
 20
-1411.858741688361
 30
0.0
 11
9510.584302533199
 21
-1411.850575366037
 31
0.0
  0
LINE
  5
39D
330
2
100
AcDbEntity
  8
0
100
AcDbLine
 10
9510.584302533199
 20
-1411.850575366037
 30
0.0
 11
9510.595209180413
 21
-1411.84233561525
 31
0.0
  0
LINE
  5
39E
330
2
100
AcDbEntity
  8
0
100
AcDbLine
 10
9510.595209180413
 20
-1411.84233561525
 30
0.0
 11
9510.606065632424
 21
-1411.834022080127
 31
0.0
  0
LINE
  5
39F
330
2
100
AcDbEntity
  8
0
100
AcDbLine
 10
9510.606065632424
 20
-1411.834022080127
 30
0.0
 11
9510.61687163448
 21
-1411.825634404807
 31
0.0
  0
LINE
  5
3A0
330
2
100
AcDbEntity
  8
0
100
AcDbLine
 10
9510.61687163448
 20
-1411.825634404807
 30
0.0
 11
9510.627626931825
 21
-1411.817172233402
 31
0.0
  0
LINE
  5
3A1
330
2
100
AcDbEntity
  8
0
100
AcDbLine
 10
9510.627626931825
 20
-1411.817172233402
 30
0.0
 11
9510.638331269696
 21
-1411.808635210052
 31
0.0
  0
LINE
  5
3A2
330
2
100
AcDbEntity
  8
0
100
AcDbLine
 10
9510.638331269696
 20
-1411.808635210052
 30
0.0
 11
9510.648984393339
 21
-1411.800022978875
 31
0.0
  0
LINE
  5
3A3
330
2
100
AcDbEntity
  8
0
100
AcDbLine
 10
9510.648984393339
 20
-1411.800022978875
 30
0.0
 11
9510.659586048001
 21
-1411.791335184001
 31
0.0
  0
LINE
  5
3A4
330
2
100
AcDbEntity
  8
0
100
AcDbLine
 10
9510.659586048001
 20
-1411.791335184001
 30
0.0
 11
9510.670135978918
 21
-1411.782571469558
 31
0.0
  0
LINE
  5
3A5
330
2
100
AcDbEntity
  8
0
100
AcDbLine
 10
9510.670135978918
 20
-1411.782571469558
 30
0.0
 11
9510.680633931334
 21
-1411.773731479677
 31
0.0
  0
LINE
  5
3A6
330
2
100
AcDbEntity
  8
0
100
AcDbLine
 10
9510.680633931334
 20
-1411.773731479677
 30
0.0
 11
9510.69107965049
 21
-1411.764814858475
 31
0.0
  0
LINE
  5
3A7
330
2
100
AcDbEntity
  8
0
100
AcDbLine
 10
9510.69107965049
 20
-1411.764814858475
 30
0.0
 11
9510.701472881633
 21
-1411.755821250089
 31
0.0
  0
LINE
  5
3A8
330
2
100
AcDbEntity
  8
0
100
AcDbLine
 10
9510.701472881633
 20
-1411.755821250089
 30
0.0
 11
9510.711813370004
 21
-1411.746750298641
 31
0.0
  0
LINE
  5
3A9
330
2
100
AcDbEntity
  8
0
100
AcDbLine
 10
9510.711813370004
 20
-1411.746750298641
 30
0.0
 11
9510.722100860844
 21
-1411.73760164826
 31
0.0
  0
LINE
  5
3AA
330
2
100
AcDbEntity
  8
0
100
AcDbLine
 10
9510.722100860844
 20
-1411.73760164826
 30
0.0
 11
9510.732335099394
 21
-1411.728374943073
 31
0.0
  0
LINE
  5
3AB
330
2
100
AcDbEntity
  8
0
100
AcDbLine
 10
9510.732335099394
 20
-1411.728374943073
 30
0.0
 11
9510.7425158309
 21
-1411.719069827204
 31
0.0
  0
LINE
  5
3AC
330
2
100
AcDbEntity
  8
0
100
AcDbLine
 10
9510.7425158309
 20
-1411.719069827204
 30
0.0
 11
9510.752642800602
 21
-1411.709685944786
 31
0.0
  0
LINE
  5
3AD
330
2
100
AcDbEntity
  8
0
100
AcDbLine
 10
9510.752642800602
 20
-1411.709685944786
 30
0.0
 11
9510.762715753745
 21
-1411.700222939938
 31
0.0
  0
LINE
  5
3AE
330
2
100
AcDbEntity
  8
0
100
AcDbLine
 10
9510.762715753745
 20
-1411.700222939938
 30
0.0
 11
9510.772734435567
 21
-1411.690680456796
 31
0.0
  0
LINE
  5
3AF
330
2
100
AcDbEntity
  8
0
100
AcDbLine
 10
9510.772734435567
 20
-1411.690680456796
 30
0.0
 11
9510.782698591318
 21
-1411.681058139483
 31
0.0
  0
LINE
  5
3B0
330
2
100
AcDbEntity
  8
0
100
AcDbLine
 10
9510.782698591318
 20
-1411.681058139483
 30
0.0
 11
9510.792607966234
 21
-1411.671355632127
 31
0.0
  0
LINE
  5
3B1
330
2
100
AcDbEntity
  8
0
100
AcDbLine
 10
9510.792607966234
 20
-1411.671355632127
 30
0.0
 11
9510.80246230556
 21
-1411.661572578852
 31
0.0
  0
LINE
  5
3B2
330
2
100
AcDbEntity
  8
0
100
AcDbLine
 10
9510.80246230556
 20
-1411.661572578852
 30
0.0
 11
9510.812261354535
 21
-1411.651708623788
 31
0.0
  0
LINE
  5
3B3
330
2
100
AcDbEntity
  8
0
100
AcDbLine
 10
9510.812261354535
 20
-1411.651708623788
 30
0.0
 11
9510.822004858409
 21
-1411.641763411063
 31
0.0
  0
LINE
  5
3B4
330
2
100
AcDbEntity
  8
0
100
AcDbLine
 10
9510.822004858409
 20
-1411.641763411063
 30
0.0
 11
9510.831692562415
 21
-1411.631736584805
 31
0.0
  0
LINE
  5
3B5
330
2
100
AcDbEntity
  8
0
100
AcDbLine
 10
9510.831692562415
 20
-1411.631736584805
 30
0.0
 11
9510.841324211808
 21
-1411.621627789137
 31
0.0
  0
LINE
  5
3B6
330
2
100
AcDbEntity
  8
0
100
AcDbLine
 10
9510.841324211808
 20
-1411.621627789137
 30
0.0
 11
9510.850899551821
 21
-1411.611436668188
 31
0.0
  0
LINE
  5
3B7
330
2
100
AcDbEntity
  8
0
100
AcDbLine
 10
9510.850899551821
 20
-1411.611436668188
 30
0.0
 11
9510.860418327691
 21
-1411.601162866086
 31
0.0
  0
LINE
  5
3B8
330
2
100
AcDbEntity
  8
0
100
AcDbLine
 10
9510.860418327691
 20
-1411.601162866086
 30
0.0
 11
9510.869880284676
 21
-1411.590806026959
 31
0.0
  0
LINE
  5
3B9
330
2
100
AcDbEntity
  8
0
100
AcDbLine
 10
9510.869880284676
 20
-1411.590806026959
 30
0.0
 11
9510.879285168007
 21
-1411.58036579493
 31
0.0
  0
LINE
  5
3BA
330
2
100
AcDbEntity
  8
0
100
AcDbLine
 10
9510.879285168007
 20
-1411.58036579493
 30
0.0
 11
9510.888632722933
 21
-1411.569841814134
 31
0.0
  0
LINE
  5
3BB
330
2
100
AcDbEntity
  8
0
100
AcDbLine
 10
9510.888632722933
 20
-1411.569841814134
 30
0.0
 11
9510.897922694693
 21
-1411.559233728688
 31
0.0
  0
LINE
  5
3BC
330
2
100
AcDbEntity
  8
0
100
AcDbLine
 10
9510.897922694693
 20
-1411.559233728688
 30
0.0
 11
9510.907154828528
 21
-1411.548541182726
 31
0.0
  0
LINE
  5
3BD
330
2
100
AcDbEntity
  8
0
100
AcDbLine
 10
9510.907154828528
 20
-1411.548541182726
 30
0.0
 11
9510.916328869681
 21
-1411.537763820373
 31
0.0
  0
LINE
  5
3BE
330
2
100
AcDbEntity
  8
0
100
AcDbLine
 10
9510.916328869681
 20
-1411.537763820373
 30
0.0
 11
9510.925444563399
 21
-1411.526901285754
 31
0.0
  0
LINE
  5
3BF
330
2
100
AcDbEntity
  8
0
100
AcDbLine
 10
9510.925444563399
 20
-1411.526901285754
 30
0.0
 11
9510.93450165492
 21
-1411.515953223004
 31
0.0
  0
LINE
  5
3C0
330
2
100
AcDbEntity
  8
0
100
AcDbLine
 10
9510.93450165492
 20
-1411.515953223004
 30
0.0
 11
9510.94349988949
 21
-1411.504919276239
 31
0.0
  0
LINE
  5
3C1
330
2
100
AcDbEntity
  8
0
100
AcDbLine
 10
9510.94349988949
 20
-1411.504919276239
 30
0.0
 11
9510.952439012347
 21
-1411.493799089597
 31
0.0
  0
LINE
  5
3C2
330
2
100
AcDbEntity
  8
0
100
AcDbLine
 10
9510.952439012347
 20
-1411.493799089597
 30
0.0
 11
9510.961318768741
 21
-1411.4825923072
 31
0.0
  0
LINE
  5
3C3
330
2
100
AcDbEntity
  8
0
100
AcDbLine
 10
9510.961318768741
 20
-1411.4825923072
 30
0.0
 11
9510.964663219249
 21
-1411.478309908592
 31
0.0
  0
ENDSEC
  0
SECTION
  2
OBJECTS
  0
DICTIONARY
  5
C
330
0
100
AcDbDictionary
281
     1
  3
ACAD_COLOR
350
38
  3
ACAD_GROUP
350
33
  3
ACAD_LAYOUT
350
18
  3
ACAD_MATERIAL
350
E
  3
ACAD_MLEADERSTYLE
350
3F3
  3
ACAD_MLINESTYLE
350
34
  3
ACAD_PLOTSETTINGS
350
35
  3
ACAD_PLOTSTYLENAME
350
B
  3
ACAD_SCALELIST
350
39
  3
ACAD_TABLESTYLE
350
3A
  3
ACAD_VISUALSTYLE
350
2E
  3
ACDB_RECOMPOSE_DATA
350
3D7
  3
AcDbVariableDictionary
350
3C8
  3
DWGPROPS
350
400
  0
DICTIONARY
  5
2F
330
2B
100
AcDbDictionary
280
     1
281
     1
  0
DICTIONARY
  5
21
330
20
100
AcDbDictionary
280
     1
281
     1
  3
ACAD_LAYERSTATES
360
22
  0
DICTIONARY
  5
8
330
7
100
AcDbDictionary
280
     1
281
     1
  3
ADSK_XREC_LAYER_RECONCILED
360
9
  0
DICTIONARY
  5
3
330
2
100
AcDbDictionary
280
     1
281
     1
  3
ACAD_LAYOUTSELFREF
360
4
  3
ACAD_SORTENTS
360
3C4
  0
DICTIONARY
  5
1B
330
1A
100
AcDbDictionary
280
     1
281
     1
  3
ACAD_LAYOUTSELFREF
360
1C
  0
DICTIONARY
  5
406
330
AA
100
AcDbDictionary
280
     1
281
     1
  3
ACAD_MTEXT_RT
360
407
  0
DICTIONARY
  5
A4
330
A3
100
AcDbDictionary
280
     1
281
     1
  3
ACAD_DIMASSOC
360
A5
  0
DICTIONARY
  5
E2
330
E1
100
AcDbDictionary
280
     1
281
     1
  3
ACAD_DIMASSOC
360
E3
  0
DICTIONARY
  5
102
330
101
100
AcDbDictionary
280
     1
281
     1
  3
ACAD_DIMASSOC
360
103
  0
DICTIONARY
  5
119
330
118
100
AcDbDictionary
280
     1
281
     1
  3
ACAD_DIMASSOC
360
11A
  0
DICTIONARY
  5
129
330
128
100
AcDbDictionary
280
     1
281
     1
  3
ACAD_DIMASSOC
360
12A
  0
DICTIONARY
  5
13F
330
13E
100
AcDbDictionary
280
     1
281
     1
  3
ACAD_DIMASSOC
360
140
  0
DICTIONARY
  5
14E
330
14D
100
AcDbDictionary
280
     1
281
     1
  3
ACAD_DIMASSOC
360
14F
  0
DICTIONARY
  5
3FE
330
183
100
AcDbDictionary
280
     1
281
     1
  3
ACAD_MTEXT_2008_RT
360
3FF
  0
DICTIONARY
  5
38
102
{ACAD_REACTORS
330
C
102
}
330
C
100
AcDbDictionary
281
     1
  0
DICTIONARY
  5
33
102
{ACAD_REACTORS
330
C
102
}
330
C
100
AcDbDictionary
281
     1
  0
DICTIONARY
  5
18
102
{ACAD_REACTORS
330
C
102
}
330
C
100
AcDbDictionary
281
     1
  3
Model
350
17
  3
배치1
350
1F
  0
DICTIONARY
  5
E
102
{ACAD_REACTORS
330
C
102
}
330
C
100
AcDbDictionary
281
     1
  3
ByBlock
350
37
  3
ByLayer
350
36
  3
Global
350
D
  0
DICTIONARY
  5
3F3
102
{ACAD_REACTORS
330
C
102
}
330
C
100
AcDbDictionary
281
     1
  3
Standard
350
3F4
  0
DICTIONARY
  5
34
102
{ACAD_REACTORS
330
C
102
}
330
C
100
AcDbDictionary
281
     1
  3
Standard
350
3B
  0
DICTIONARY
  5
35
102
{ACAD_REACTORS
330
C
102
}
330
C
100
AcDbDictionary
281
     1
  0
ACDBDICTIONARYWDFLT
  5
B
102
{ACAD_REACTORS
330
C
102
}
330
C
100
AcDbDictionary
281
     1
  3
Normal
350
A
100
AcDbDictionaryWithDefault
340
A
  0
DICTIONARY
  5
39
102
{ACAD_REACTORS
330
C
102
}
330
C
100
AcDbDictionary
281
     1
  3
A0
350
43
  3
A1
350
44
  3
A2
350
45
  3
A3
350
46
  3
A4
350
47
  3
A5
350
48
  3
A6
350
49
  3
A7
350
4A
  3
A8
350
4B
  3
A9
350
4C
  3
B0
350
4D
  3
B1
350
4E
  3
B2
350
4F
  3
B3
350
50
  3
B4
350
51
  3
B5
350
52
  3
B6
350
53
  3
B7
350
54
  3
B8
350
55
  3
B9
350
56
  3
C0
350
57
  3
C1
350
58
  3
C2
350
59
  3
C3
350
5A
  3
C4
350
5B
  3
C5
350
5C
  3
C6
350
5D
  3
C7
350
5E
  3
C8
350
5F
  3
C9
350
60
  3
D0
350
61
  3
D1
350
62
  3
D2
350
63
  0
DICTIONARY
  5
3A
102
{ACAD_REACTORS
330
C
102
}
330
C
100
AcDbDictionary
281
     1
  3
Standard
350
3C
  0
DICTIONARY
  5
2E
102
{ACAD_REACTORS
330
C
102
}
330
C
100
AcDbDictionary
281
     1
  3
2dWireframe
350
2D
  3
3D Hidden
350
3EB
  3
3dWireframe
350
3F
  3
Basic
350
3EA
  3
Brighten
350
3EE
  3
ColorChange
350
3F2
  3
Conceptual
350
3EC
  3
Dim
350
3ED
  3
Facepattern
350
3F1
  3
Flat
350
3E6
  3
FlatWithEdges
350
3E7
  3
Gouraud
350
3E8
  3
GouraudWithEdges
350
3E9
  3
Linepattern
350
3F0
  3
Realistic
350
3E
  3
Thicken
350
3EF
  0
XRECORD
  5
3D7
102
{ACAD_REACTORS
330
C
102
}
330
C
100
AcDbXrecord
280
     1
 90
        1
330
3C
330
183
  0
DICTIONARY
  5
3C8
102
{ACAD_REACTORS
330
C
102
}
330
C
100
AcDbDictionary
281
     1
  3
CANNOSCALE
350
3CC
  3
CMLEADERSTYLE
350
3CA
  3
CTABLESTYLE
350
3C9
  3
DIMASSOC
350
3D1
  3
HIDETEXT
350
3D0
  3
INDEXCTL
350
3CF
  3
LIGHTINGUNITS
350
3CD
  3
MSLTSCALE
350
3CB
  3
PSOLHEIGHT
350
3FC
  3
PSOLWIDTH
350
3FB
  3
SORTENTS
350
3CE
  0
XRECORD
  5
400
102
{ACAD_REACTORS
330
C
102
}
330
C
100
AcDbXrecord
280
     1
  1
DWGPROPS COOKIE
  2

  3

  4

  6

  7

  8
김성진
  9

300
=
301
=
302
=
303
=
304
=
305
=
306
=
307
=
308
=
309
=
 40
3.486678692129629
 41
2455638.478663565
 42
2455916.469859838
  1

 90
        0
  0
DICTIONARY
  5
22
102
{ACAD_REACTORS
330
21
102
}
330
21
100
AcDbDictionary
281
     1
  0
XRECORD
  5
9
102
{ACAD_REACTORS
330
8
102
}
330
8
100
AcDbXrecord
280
     1
290
     1
  0
XRECORD
  5
4
102
{ACAD_REACTORS
330
3
102
}
330
3
100
AcDbXrecord
280
     1
340
2
  0
SORTENTSTABLE
  5
3C4
102
{ACAD_REACTORS
330
3
102
}
330
3
100
AcDbSortentsTable
330
2
  0
XRECORD
  5
1C
102
{ACAD_REACTORS
330
1B
102
}
330
1B
100
AcDbXrecord
280
     1
340
1A
  0
XRECORD
  5
407
102
{ACAD_REACTORS
330
406
102
}
330
406
100
AcDbXrecord
280
     1
 40
11034.0
  1
\A1;\U+2205104%%P0.5
  0
DIMASSOC
  5
A5
102
{ACAD_REACTORS
330
A4
102
}
330
A4
100
AcDbDimAssoc
330
A3
 90
        2
 70
     0
 71
     0
  1
AcDbOsnapPointRef
 72
     3
331
A2
 73
     2
 91
        0
 40
0.0
 10
0.0
 20
0.0
 30
0.0
 75
     0
  0
DIMASSOC
  5
E3
102
{ACAD_REACTORS
330
E2
102
}
330
E2
100
AcDbDimAssoc
330
E1
 90
        2
 70
     0
 71
     0
  1
AcDbOsnapPointRef
 72
     1
331
114
 73
     2
 91
        0
 40
1.0
 10
4865.51451084566
 20
-4051.759302602638
 30
0.0
 75
     0
  0
DIMASSOC
  5
103
102
{ACAD_REACTORS
330
102
102
}
330
102
100
AcDbDimAssoc
330
101
 90
        1
 70
     0
 71
     0
  1
AcDbOsnapPointRef
 72
     1
331
127
 73
     2
 91
        0
 40
1.0
 10
4821.01451084566
 20
-4090.358039944168
 30
0.0
 75
     0
  0
DIMASSOC
  5
11A
102
{ACAD_REACTORS
330
119
102
}
330
119
100
AcDbDimAssoc
330
118
 90
        3
 70
     0
 71
     0
  1
AcDbOsnapPointRef
 72
     1
331
137
 73
     2
 91
        0
 40
1.0
 10
4821.01451084566
 20
-4101.358039944167
 30
0.0
 75
     0
  1
AcDbOsnapPointRef
 72
     1
331
127
 73
     2
 91
        0
 40
1.0
 10
4821.01451084566
 20
-4090.358039944168
 30
0.0
 75
     0
  0
DIMASSOC
  5
12A
102
{ACAD_REACTORS
330
129
102
}
330
129
100
AcDbDimAssoc
330
128
 90
        3
 70
     0
 71
     0
  1
AcDbOsnapPointRef
 72
     1
331
127
 73
     2
 91
        0
 40
1.0
 10
4821.01451084566
 20
-4090.358039944168
 30
0.0
 75
     0
  1
AcDbOsnapPointRef
 72
     1
331
116
 73
     2
 91
        0
 40
1.0
 10
4851.01451084566
 20
-4089.358039944166
 30
0.0
 75
     0
  0
DIMASSOC
  5
140
102
{ACAD_REACTORS
330
13F
102
}
330
13F
100
AcDbDimAssoc
330
13E
 90
        3
 70
     0
 71
     0
  1
AcDbOsnapPointRef
 72
     1
331
137
 73
     2
 91
        0
 40
1.0
 10
4821.01451084566
 20
-4101.358039944167
 30
0.0
 75
     0
  1
AcDbOsnapPointRef
 72
     1
331
116
 73
     2
 91
        0
 40
1.0
 10
4851.01451084566
 20
-4089.358039944166
 30
0.0
 75
     0
  0
DIMASSOC
  5
14F
102
{ACAD_REACTORS
330
14E
102
}
330
14E
100
AcDbDimAssoc
330
14D
 90
        3
 70
     0
 71
     0
  1
AcDbOsnapPointRef
 72
    13
331
15D
 73
     2
 91
        0
 40
0.0
 10
4856.01451084566
 20
-4053.858039944167
 30
0.0
 75
     0
  1
AcDbOsnapPointRef
 72
     1
331
15D
 73
     2
 91
        0
 40
1.0
 10
4856.01451084566
 20
-4136.858039944167
 30
0.0
 75
     0
  0
XRECORD
  5
3FF
102
{ACAD_REACTORS
330
3FE
102
}
330
3FE
100
AcDbXrecord
280
     1
 40
54365.0
  1
\pxql;ELECTRO-MAGNETIC BRAKE\PLEAD WIRE 300mm
  0
LAYOUT
  5
17
102
{ACAD_XDICTIONARY
360
401
102
}
102
{ACAD_REACTORS
330
18
102
}
330
18
100
AcDbPlotSettings
  1

  2
none_device
  4
ISO_A4_(210.00_x_297.00_MM)
  6

 40
7.5
 41
20.0
 42
7.5
 43
20.0
 44
210.0
 45
297.0
 46
11.54999923706054
 47
-13.65000009536743
 48
0.0
 49
0.0
140
0.0
141
0.0
142
1.0
143
8.704084754739808
 70
 11952
 72
     1
 73
     0
 74
     0
  7

 75
     0
147
0.1148885871608098
148
0.0
149
0.0
100
AcDbLayout
  1
Model
 70
     1
 71
     0
 10
0.0
 20
0.0
 11
12.0
 21
9.0
 12
0.0
 22
0.0
 32
0.0
 14
0.0
 24
0.0
 34
0.0
 15
0.0
 25
0.0
 35
0.0
146
0.0
 13
0.0
 23
0.0
 33
0.0
 16
1.0
 26
0.0
 36
0.0
 17
0.0
 27
1.0
 37
0.0
 76
     0
330
2
331
2C
1001
ACAD_PSEXT
1000
None
1000
None
1000
Not applicable
1000
The layout will not be plotted unless a new plotter configuration name is selected.
1070
     0
  0
LAYOUT
  5
1F
102
{ACAD_XDICTIONARY
360
403
102
}
102
{ACAD_REACTORS
330
18
102
}
330
18
100
AcDbPlotSettings
  1

  2
C:\Documents and Settings\basas\Application Data\Autodesk\AutoCAD 2005\R16.1\enu\plotters\Default Windows System Printer.pc3
  4

  6

 40
0.0
 41
0.0
 42
0.0
 43
0.0
 44
0.0
 45
0.0
 46
0.0
 47
0.0
 48
0.0
 49
0.0
140
0.0
141
0.0
142
1.0
143
1.0
 70
   688
 72
     0
 73
     0
 74
     5
  7

 75
    16
147
1.0
148
0.0
149
0.0
100
AcDbLayout
  1
배치1
 70
     1
 71
     1
 10
0.0
 20
0.0
 11
12.0
 21
9.0
 12
0.0
 22
0.0
 32
0.0
 14
0.0
 24
0.0
 34
0.0
 15
0.0
 25
0.0
 35
0.0
146
0.0
 13
0.0
 23
0.0
 33
0.0
 16
1.0
 26
0.0
 36
0.0
 17
0.0
 27
1.0
 37
0.0
 76
     0
330
1A
  0
MATERIAL
  5
37
102
{ACAD_XDICTIONARY
360
3DF
102
}
102
{ACAD_REACTORS
330
E
102
}
330
E
100
AcDbMaterial
  1
ByBlock
  0
MATERIAL
  5
36
102
{ACAD_XDICTIONARY
360
3DD
102
}
102
{ACAD_REACTORS
330
E
102
}
330
E
100
AcDbMaterial
  1
ByLayer
  0
MATERIAL
  5
D
102
{ACAD_XDICTIONARY
360
F
102
}
102
{ACAD_REACTORS
330
E
102
}
330
E
100
AcDbMaterial
  1
Global
 43
0.0007999999797903
 43
0.0
 43
0.0
 43
0.0
 43
0.0
 43
0.0007999999797903
 43
0.0
 43
0.0
 43
0.0
 43
0.0
 43
1.0
 43
0.0
 43
0.0
 43
0.0
 43
0.0
 43
1.0
 49
0.0007999999797903
 49
0.0
 49
0.0
 49
0.0
 49
0.0
 49
0.0007999999797903
 49
0.0
 49
0.0
 49
0.0
 49
0.0
 49
1.0
 49
0.0
 49
0.0
 49
0.0
 49
0.0
 49
1.0
142
0.0007999999797903
142
0.0
142
0.0
142
0.0
142
0.0
142
0.0007999999797903
142
0.0
142
0.0
142
0.0
142
0.0
142
1.0
142
0.0
142
0.0
142
0.0
142
0.0
142
1.0
144
0.0007999999797903
144
0.0
144
0.0
144
0.0
144
0.0
144
0.0007999999797903
144
0.0
144
0.0
144
0.0
144
0.0
144
1.0
144
0.0
144
0.0
144
0.0
144
0.0
144
1.0
1001
ACAD
1070
    -1
1070
     3
1070
     0
1000

1071
        0
1070
     0
  0
MLEADERSTYLE
  5
3F4
102
{ACAD_REACTORS
330
3F3
102
}
330
3F3
100
AcDbMLeaderStyle
170
     2
171
     1
172
     0
 90
        2
 40
0.0
 41
0.0
173
     1
 91
-1056964608
340
27
 92
       -2
290
     1
 42
2.0
291
     1
 43
0.36
  3
Standard
 44
4.0
300

342
24
174
     1
178
     6
175
     1
176
     0
 93
-1056964608
 45
4.0
292
     0
297
     0
 46
4.0
 94
-1056964608
 47
1.0
 49
1.0
140
1.0
293
     1
141
0.0
294
     1
177
     0
142
1.0
295
     0
296
     0
143
0.125
1001
ACAD_MLEADERVER
1070
     2
  0
MLINESTYLE
  5
3B
102
{ACAD_REACTORS
330
34
102
}
330
34
100
AcDbMlineStyle
  2
STANDARD
 70
     0
  3

 62
   256
 51
90.0
 52
90.0
 71
     2
 49
0.5
 62
   256
  6
BYLAYER
 49
-0.5
 62
   256
  6
BYLAYER
  0
ACDBPLACEHOLDER
  5
A
102
{ACAD_REACTORS
330
B
102
}
330
B
  0
SCALE
  5
43
102
{ACAD_REACTORS
330
39
102
}
330
39
100
AcDbScale
 70
     0
300
1:1
140
1.0
141
1.0
290
     1
  0
SCALE
  5
44
102
{ACAD_REACTORS
330
39
102
}
330
39
100
AcDbScale
 70
     0
300
1:2
140
1.0
141
2.0
290
     0
  0
SCALE
  5
45
102
{ACAD_REACTORS
330
39
102
}
330
39
100
AcDbScale
 70
     0
300
1:4
140
1.0
141
4.0
290
     0
  0
SCALE
  5
46
102
{ACAD_REACTORS
330
39
102
}
330
39
100
AcDbScale
 70
     0
300
1:5
140
1.0
141
5.0
290
     0
  0
SCALE
  5
47
102
{ACAD_REACTORS
330
39
102
}
330
39
100
AcDbScale
 70
     0
300
1:8
140
1.0
141
8.0
290
     0
  0
SCALE
  5
48
102
{ACAD_REACTORS
330
39
102
}
330
39
100
AcDbScale
 70
     0
300
1:10
140
1.0
141
10.0
290
     0
  0
SCALE
  5
49
102
{ACAD_REACTORS
330
39
102
}
330
39
100
AcDbScale
 70
     0
300
1:16
140
1.0
141
16.0
290
     0
  0
SCALE
  5
4A
102
{ACAD_REACTORS
330
39
102
}
330
39
100
AcDbScale
 70
     0
300
1:20
140
1.0
141
20.0
290
     0
  0
SCALE
  5
4B
102
{ACAD_REACTORS
330
39
102
}
330
39
100
AcDbScale
 70
     0
300
1:30
140
1.0
141
30.0
290
     0
  0
SCALE
  5
4C
102
{ACAD_REACTORS
330
39
102
}
330
39
100
AcDbScale
 70
     0
300
1:40
140
1.0
141
40.0
290
     0
  0
SCALE
  5
4D
102
{ACAD_REACTORS
330
39
102
}
330
39
100
AcDbScale
 70
     0
300
1:50
140
1.0
141
50.0
290
     0
  0
SCALE
  5
4E
102
{ACAD_REACTORS
330
39
102
}
330
39
100
AcDbScale
 70
     0
300
1:100
140
1.0
141
100.0
290
     0
  0
SCALE
  5
4F
102
{ACAD_REACTORS
330
39
102
}
330
39
100
AcDbScale
 70
     0
300
2:1
140
2.0
141
1.0
290
     0
  0
SCALE
  5
50
102
{ACAD_REACTORS
330
39
102
}
330
39
100
AcDbScale
 70
     0
300
4:1
140
4.0
141
1.0
290
     0
  0
SCALE
  5
51
102
{ACAD_REACTORS
330
39
102
}
330
39
100
AcDbScale
 70
     0
300
8:1
140
8.0
141
1.0
290
     0
  0
SCALE
  5
52
102
{ACAD_REACTORS
330
39
102
}
330
39
100
AcDbScale
 70
     0
300
10:1
140
10.0
141
1.0
290
     0
  0
SCALE
  5
53
102
{ACAD_REACTORS
330
39
102
}
330
39
100
AcDbScale
 70
     0
300
100:1
140
100.0
141
1.0
290
     0
  0
SCALE
  5
54
102
{ACAD_REACTORS
330
39
102
}
330
39
100
AcDbScale
 70
     0
300
1/128" = 1'-0"
140
0.0078125
141
12.0
290
     0
  0
SCALE
  5
55
102
{ACAD_REACTORS
330
39
102
}
330
39
100
AcDbScale
 70
     0
300
1/64" = 1'-0"
140
0.015625
141
12.0
290
     0
  0
SCALE
  5
56
102
{ACAD_REACTORS
330
39
102
}
330
39
100
AcDbScale
 70
     0
300
1/32" = 1'-0"
140
0.03125
141
12.0
290
     0
  0
SCALE
  5
57
102
{ACAD_REACTORS
330
39
102
}
330
39
100
AcDbScale
 70
     0
300
1/16" = 1'-0"
140
0.0625
141
12.0
290
     0
  0
SCALE
  5
58
102
{ACAD_REACTORS
330
39
102
}
330
39
100
AcDbScale
 70
     0
300
3/32" = 1'-0"
140
0.09375
141
12.0
290
     0
  0
SCALE
  5
59
102
{ACAD_REACTORS
330
39
102
}
330
39
100
AcDbScale
 70
     0
300
1/8" = 1'-0"
140
0.125
141
12.0
290
     0
  0
SCALE
  5
5A
102
{ACAD_REACTORS
330
39
102
}
330
39
100
AcDbScale
 70
     0
300
3/16" = 1'-0"
140
0.1875
141
12.0
290
     0
  0
SCALE
  5
5B
102
{ACAD_REACTORS
330
39
102
}
330
39
100
AcDbScale
 70
     0
300
1/4" = 1'-0"
140
0.25
141
12.0
290
     0
  0
SCALE
  5
5C
102
{ACAD_REACTORS
330
39
102
}
330
39
100
AcDbScale
 70
     0
300
3/8" = 1'-0"
140
0.375
141
12.0
290
     0
  0
SCALE
  5
5D
102
{ACAD_REACTORS
330
39
102
}
330
39
100
AcDbScale
 70
     0
300
1/2" = 1'-0"
140
0.5
141
12.0
290
     0
  0
SCALE
  5
5E
102
{ACAD_REACTORS
330
39
102
}
330
39
100
AcDbScale
 70
     0
300
3/4" = 1'-0"
140
0.75
141
12.0
290
     0
  0
SCALE
  5
5F
102
{ACAD_REACTORS
330
39
102
}
330
39
100
AcDbScale
 70
     0
300
1" = 1'-0"
140
1.0
141
12.0
290
     0
  0
SCALE
  5
60
102
{ACAD_REACTORS
330
39
102
}
330
39
100
AcDbScale
 70
     0
300
1-1/2" = 1'-0"
140
1.5
141
12.0
290
     0
  0
SCALE
  5
61
102
{ACAD_REACTORS
330
39
102
}
330
39
100
AcDbScale
 70
     0
300
3" = 1'-0"
140
3.0
141
12.0
290
     0
  0
SCALE
  5
62
102
{ACAD_REACTORS
330
39
102
}
330
39
100
AcDbScale
 70
     0
300
6" = 1'-0"
140
6.0
141
12.0
290
     0
  0
SCALE
  5
63
102
{ACAD_REACTORS
330
39
102
}
330
39
100
AcDbScale
 70
     0
300
1'-0" = 1'-0"
140
12.0
141
12.0
290
     0
  0
TABLESTYLE
  5
3C
102
{ACAD_XDICTIONARY
360
3D
102
}
102
{ACAD_REACTORS
330
3A
102
}
330
3A
100
AcDbTableStyle
  3
Standard
 70
     0
 71
     0
 40
1.5
 41
1.5
280
     0
281
     0
  7
Standard
140
4.5
170
     2
 62
     0
 63
     7
283
     0
274
    -2
284
     1
 64
     0
275
    -2
285
     1
 65
     0
276
    -2
286
     1
 66
     0
277
    -2
287
     1
 67
     0
278
    -2
288
     1
 68
     0
279
    -2
289
     1
 69
     0
  7
Standard
140
6.0
170
     5
 62
     0
 63
     7
283
     0
274
    -2
284
     1
 64
     0
275
    -2
285
     1
 65
     0
276
    -2
286
     1
 66
     0
277
    -2
287
     1
 67
     0
278
    -2
288
     1
 68
     0
279
    -2
289
     1
 69
     0
  7
Standard
140
4.5
170
     5
 62
     0
 63
     7
283
     0
274
    -2
284
     1
 64
     0
275
    -2
285
     1
 65
     0
276
    -2
286
     1
 66
     0
277
    -2
287
     1
 67
     0
278
    -2
288
     1
 68
     0
279
    -2
289
     1
 69
     0
  0
VISUALSTYLE
  5
2D
102
{ACAD_REACTORS
330
2E
102
}
330
2E
100
AcDbVisualStyle
  2
2dWireframe
 70
     4
 71
     0
 72
     2
 73
     1
 90
        0
 40
-0.6
 41
-30.0
 62
     5
 63
     7
 74
     1
 91
        4
 64
     7
 65
   257
 75
     1
175
     1
 42
1.0
 92
        0
 66
   257
 43
1.0
 76
     1
 77
     6
 78
     2
 67
     7
 79
     5
170
     0
171
     0
290
     0
174
     0
 93
        1
 44
0.0
173
     0
291
     0
 45
0.0
1001
ACAD
1000
AcDbSavedByObjectVersion
1070
     0
1000
AcDbSavedByObjectVersion
1070
     0
  0
VISUALSTYLE
  5
3EB
102
{ACAD_REACTORS
330
2E
102
}
330
2E
100
AcDbVisualStyle
  2
3D Hidden
 70
     6
 71
     1
 72
     2
 73
     2
 90
        0
 40
-0.6
 41
-30.0
 62
     5
 63
     7
 74
     2
 91
        2
 64
     7
 65
   257
 75
     2
175
     1
 42
40.0
 92
        0
 66
   257
 43
1.0
 76
     1
 77
     6
 78
     2
 67
     7
 79
     3
170
     0
171
     0
290
     0
174
     0
 93
        1
 44
0.0
173
     0
291
     0
 45
0.0
1001
ACAD
1000
AcDbSavedByObjectVersion
1070
     0
  0
VISUALSTYLE
  5
3F
102
{ACAD_REACTORS
330
2E
102
}
330
2E
100
AcDbVisualStyle
  2
3dWireframe
 70
     5
 71
     0
 72
     2
 73
     1
 90
        0
 40
-0.6
 41
-30.0
 62
     5
 63
     7
 74
     1
 91
        4
 64
     7
 65
   257
 75
     1
175
     1
 42
1.0
 92
        0
 66
   257
 43
1.0
 76
     1
 77
     6
 78
     2
 67
     7
 79
     5
170
     0
171
     0
290
     0
174
     0
 93
        1
 44
0.0
173
     0
291
     0
 45
0.0
1001
ACAD
1000
AcDbSavedByObjectVersion
1070
     0
1000
AcDbSavedByObjectVersion
1070
     0
  0
VISUALSTYLE
  5
3EA
102
{ACAD_REACTORS
330
2E
102
}
330
2E
100
AcDbVisualStyle
  2
Basic
 70
     7
 71
     1
 72
     0
 73
     1
 90
        0
 40
-0.6
 41
-30.0
 62
     5
 63
     7
 74
     0
 91
        4
 64
     7
 65
   257
 75
     1
175
     1
 42
1.0
 92
        8
 66
     7
 43
1.0
 76
     1
 77
     6
 78
     2
 67
     7
 79
     5
170
     0
171
     0
290
     0
174
     0
 93
        1
 44
0.0
173
     0
291
     1
 45
0.0
1001
ACAD
1000
AcDbSavedByObjectVersion
1070
     0
  0
VISUALSTYLE
  5
3EE
102
{ACAD_REACTORS
330
2E
102
}
330
2E
100
AcDbVisualStyle
  2
Brighten
 70
    12
 71
     2
 72
     2
 73
     0
 90
        0
 40
-0.6
 41
-30.0
 62
     5
 63
     7
 74
     1
 91
        4
 64
     7
 65
   257
 75
     1
175
     1
 42
1.0
 92
        8
 66
     7
 43
1.0
 76
     1
 77
     6
 78
     2
 67
     7
 79
     5
170
     0
171
     0
290
     0
174
     0
 93
        1
 44
50.0
173
     0
291
     1
 45
0.0
1001
ACAD
1000
AcDbSavedByObjectVersion
1070
     0
  0
VISUALSTYLE
  5
3F2
102
{ACAD_REACTORS
330
2E
102
}
330
2E
100
AcDbVisualStyle
  2
ColorChange
 70
    16
 71
     2
 72
     2
 73
     3
 90
        0
 40
-0.6
 41
-30.0
 62
     5
 63
     8
 74
     1
 91
        4
 64
     7
 65
   257
 75
     1
175
     1
 42
1.0
 92
        8
 66
     8
 43
1.0
 76
     1
 77
     6
 78
     2
 67
     7
 79
     5
170
     0
171
     0
290
     0
174
     0
 93
        1
 44
0.0
173
     0
291
     1
 45
0.0
1001
ACAD
1000
AcDbSavedByObjectVersion
1070
     0
  0
VISUALSTYLE
  5
3EC
102
{ACAD_REACTORS
330
2E
102
}
330
2E
100
AcDbVisualStyle
  2
Conceptual
 70
     9
 71
     3
 72
     2
 73
     0
 90
        0
 40
-0.6
 41
-30.0
 62
     5
 63
     7
 74
     2
 91
        2
 64
     7
 65
   257
 75
     1
175
     1
 42
40.0
 92
        8
 66
     7
 43
1.0
 76
     1
 77
     6
 78
     2
 67
     7
 79
     3
170
     0
171
     0
290
     0
174
     0
 93
        1
 44
0.0
173
     0
291
     0
 45
0.0
1001
ACAD
1000
AcDbSavedByObjectVersion
1070
     0
  0
VISUALSTYLE
  5
3ED
102
{ACAD_REACTORS
330
2E
102
}
330
2E
100
AcDbVisualStyle
  2
Dim
 70
    11
 71
     2
 72
     2
 73
     0
 90
        0
 40
-0.6
 41
-30.0
 62
     5
 63
     7
 74
     1
 91
        4
 64
     7
 65
   257
 75
     1
175
     1
 42
1.0
 92
        8
 66
     7
 43
1.0
 76
     1
 77
     6
 78
     2
 67
     7
 79
     5
170
     0
171
     0
290
     0
174
     0
 93
        1
 44
-50.0
173
     0
291
     1
 45
0.0
1001
ACAD
1000
AcDbSavedByObjectVersion
1070
     0
  0
VISUALSTYLE
  5
3F1
102
{ACAD_REACTORS
330
2E
102
}
330
2E
100
AcDbVisualStyle
  2
Facepattern
 70
    15
 71
     2
 72
     2
 73
     0
 90
        0
 40
-0.6
 41
-30.0
 62
     5
 63
     7
 74
     1
 91
        4
 64
     7
 65
   257
 75
     1
175
     1
 42
1.0
 92
        8
 66
     7
 43
1.0
 76
     1
 77
     6
 78
     2
 67
     7
 79
     5
170
     0
171
     0
290
     0
174
     0
 93
        1
 44
0.0
173
     0
291
     1
 45
0.0
1001
ACAD
1000
AcDbSavedByObjectVersion
1070
     0
  0
VISUALSTYLE
  5
3E6
102
{ACAD_REACTORS
330
2E
102
}
330
2E
100
AcDbVisualStyle
  2
Flat
 70
     0
 71
     2
 72
     1
 73
     1
 90
        2
 40
-0.6
 41
30.0
 62
     5
 63
     7
 74
     0
 91
        4
 64
     7
 65
   257
 75
     1
175
     1
 42
1.0
 92
        8
 66
     7
 43
1.0
 76
     1
 77
     6
 78
     2
 67
     7
 79
     5
170
     0
171
     0
290
     0
174
     0
 93
       13
 44
0.0
173
     0
291
     1
 45
0.0
1001
ACAD
1000
AcDbSavedByObjectVersion
1070
     0
  0
VISUALSTYLE
  5
3E7
102
{ACAD_REACTORS
330
2E
102
}
330
2E
100
AcDbVisualStyle
  2
FlatWithEdges
 70
     1
 71
     2
 72
     1
 73
     1
 90
        2
 40
-0.6
 41
30.0
 62
     5
 63
     7
 74
     1
 91
        4
 64
     7
 65
   257
 75
     1
175
     1
 42
1.0
 92
        0
 66
   257
 43
1.0
 76
     1
 77
     6
 78
     2
 67
     7
 79
     5
170
     0
171
     0
290
     0
174
     0
 93
       13
 44
0.0
173
     0
291
     1
 45
0.0
1001
ACAD
1000
AcDbSavedByObjectVersion
1070
     0
  0
VISUALSTYLE
  5
3E8
102
{ACAD_REACTORS
330
2E
102
}
330
2E
100
AcDbVisualStyle
  2
Gouraud
 70
     2
 71
     2
 72
     2
 73
     1
 90
        2
 40
-0.6
 41
30.0
 62
     5
 63
     7
 74
     0
 91
        4
 64
     7
 65
   257
 75
     1
175
     1
 42
1.0
 92
        0
 66
     7
 43
1.0
 76
     1
 77
     6
 78
     2
 67
     7
 79
     5
170
     0
171
     0
290
     0
174
     0
 93
       13
 44
0.0
173
     0
291
     1
 45
0.0
1001
ACAD
1000
AcDbSavedByObjectVersion
1070
     0
  0
VISUALSTYLE
  5
3E9
102
{ACAD_REACTORS
330
2E
102
}
330
2E
100
AcDbVisualStyle
  2
GouraudWithEdges
 70
     3
 71
     2
 72
     2
 73
     1
 90
        2
 40
-0.6
 41
30.0
 62
     5
 63
     7
 74
     1
 91
        4
 64
     7
 65
   257
 75
     1
175
     1
 42
1.0
 92
        0
 66
   257
 43
1.0
 76
     1
 77
     6
 78
     2
 67
     7
 79
     5
170
     0
171
     0
290
     0
174
     0
 93
       13
 44
0.0
173
     0
291
     1
 45
0.0
1001
ACAD
1000
AcDbSavedByObjectVersion
1070
     0
  0
VISUALSTYLE
  5
3F0
102
{ACAD_REACTORS
330
2E
102
}
330
2E
100
AcDbVisualStyle
  2
Linepattern
 70
    14
 71
     2
 72
     2
 73
     0
 90
        0
 40
-0.6
 41
-30.0
 62
     5
 63
     7
 74
     1
 91
        4
 64
     7
 65
   257
 75
     7
175
     7
 42
1.0
 92
        8
 66
     7
 43
1.0
 76
     1
 77
     6
 78
     2
 67
     7
 79
     5
170
     0
171
     0
290
     0
174
     0
 93
        1
 44
0.0
173
     0
291
     1
 45
0.0
1001
ACAD
1000
AcDbSavedByObjectVersion
1070
     0
  0
VISUALSTYLE
  5
3E
102
{ACAD_REACTORS
330
2E
102
}
330
2E
100
AcDbVisualStyle
  2
Realistic
 70
     8
 71
     2
 72
     2
 73
     1
 90
        0
 40
-0.6
 41
-30.0
 62
     5
 63
     7
 74
     1
 91
        0
 64
     7
 65
   257
 75
     1
175
     1
 42
1.0
 92
        8
 66
     8
 43
1.0
 76
     1
 77
     6
 78
     2
 67
     7
 79
     5
170
     0
171
     0
290
     0
174
     0
 93
       13
 44
0.0
173
     0
291
     0
 45
0.0
1001
ACAD
1000
AcDbSavedByObjectVersion
1070
     0
1000
AcDbSavedByObjectVersion
1070
     0
  0
VISUALSTYLE
  5
3EF
102
{ACAD_REACTORS
330
2E
102
}
330
2E
100
AcDbVisualStyle
  2
Thicken
 70
    13
 71
     2
 72
     2
 73
     0
 90
        0
 40
-0.6
 41
-30.0
 62
     5
 63
     7
 74
     1
 91
        4
 64
     7
 65
   257
 75
     1
175
     1
 42
1.0
 92
       12
 66
     7
 43
1.0
 76
     1
 77
     6
 78
     2
 67
     7
 79
     5
170
     0
171
     0
290
     0
174
     0
 93
        1
 44
0.0
173
     0
291
     1
 45
0.0
1001
ACAD
1000
AcDbSavedByObjectVersion
1070
     0
  0
DICTIONARYVAR
  5
3CC
102
{ACAD_REACTORS
330
3C8
102
}
330
3C8
100
DictionaryVariables
280
     0
  1
1:1
  0
DICTIONARYVAR
  5
3CA
102
{ACAD_REACTORS
330
3C8
102
}
330
3C8
100
DictionaryVariables
280
     0
  1
STANDARD
  0
DICTIONARYVAR
  5
3C9
102
{ACAD_REACTORS
330
3C8
102
}
330
3C8
100
DictionaryVariables
280
     0
  1
STANDARD
  0
DICTIONARYVAR
  5
3D1
102
{ACAD_REACTORS
330
3C8
102
}
330
3C8
100
DictionaryVariables
280
     0
  1
2
  0
DICTIONARYVAR
  5
3D0
102
{ACAD_REACTORS
330
3C8
102
}
330
3C8
100
DictionaryVariables
280
     0
  1
1
  0
DICTIONARYVAR
  5
3CF
102
{ACAD_REACTORS
330
3C8
102
}
330
3C8
100
DictionaryVariables
280
     0
  1
0
  0
DICTIONARYVAR
  5
3CD
102
{ACAD_REACTORS
330
3C8
102
}
330
3C8
100
DictionaryVariables
280
     0
  1
2
  0
DICTIONARYVAR
  5
3CB
102
{ACAD_REACTORS
330
3C8
102
}
330
3C8
100
DictionaryVariables
280
     0
  1
1
  0
DICTIONARYVAR
  5
3FC
102
{ACAD_REACTORS
330
3C8
102
}
330
3C8
100
DictionaryVariables
280
     0
  1
80.000000
  0
DICTIONARYVAR
  5
3FB
102
{ACAD_REACTORS
330
3C8
102
}
330
3C8
100
DictionaryVariables
280
     0
  1
5.000000
  0
DICTIONARYVAR
  5
3CE
102
{ACAD_REACTORS
330
3C8
102
}
330
3C8
100
DictionaryVariables
280
     0
  1
127
  0
DICTIONARY
  5
401
330
17
100
AcDbDictionary
280
     1
281
     1
  3
ACAD_XREC_ROUNDTRIP
360
402
  0
DICTIONARY
  5
403
330
1F
100
AcDbDictionary
280
     1
281
     1
  3
ACAD_XREC_ROUNDTRIP
360
404
  0
DICTIONARY
  5
3DF
330
37
100
AcDbDictionary
280
     1
281
     1
  3
ACAD_XREC_ROUNDTRIP
360
3E0
  0
DICTIONARY
  5
3DD
330
36
100
AcDbDictionary
280
     1
281
     1
  3
ACAD_XREC_ROUNDTRIP
360
3DE
  0
DICTIONARY
  5
F
330
D
100
AcDbDictionary
280
     1
281
     1
  3
ACAD_XREC_ROUNDTRIP
360
3D8
  3
BUMPTILE
360
10
  3
DIFFUSETILE
360
11
  3
OPACITYTILE
360
12
  3
REFLECTIONTILE
360
13
  0
DICTIONARY
  5
3D
330
3C
100
AcDbDictionary
280
     1
281
     1
  3
ACAD_ROUNDTRIP_2008_TABLESTYLE_CELLSTYLEMAP
360
3FD
  3
ACAD_XREC_ROUNDTRIP
360
405
  0
XRECORD
  5
402
102
{ACAD_REACTORS
330
401
102
}
330
401
100
AcDbXrecord
280
     1
102
SHADEPLOT
 70
     0
102
SHADEPLOTRESLEVEL
 70
     2
102
SHADEPLOTCUSTOMDPI
 70
   300
  0
XRECORD
  5
404
102
{ACAD_REACTORS
330
403
102
}
330
403
100
AcDbXrecord
280
     1
102
SHADEPLOT
 70
     0
102
SHADEPLOTRESLEVEL
 70
     2
102
SHADEPLOTCUSTOMDPI
 70
   300
  0
XRECORD
  5
3E0
102
{ACAD_REACTORS
330
3DF
102
}
330
3DF
100
AcDbXrecord
280
     1
102
MATERIAL
148
0.0
149
0.0
149
0.0
 93
        0
 94
      127
282
     0
 72
     1
 77
     1
171
     1
175
     1
179
     1
273
     0
  0
XRECORD
  5
3DE
102
{ACAD_REACTORS
330
3DD
102
}
330
3DD
100
AcDbXrecord
280
     1
102
MATERIAL
148
0.0
149
0.0
149
0.0
 93
        0
 94
      127
282
     0
 72
     1
 77
     1
171
     1
175
     1
179
     1
273
     0
  0
XRECORD
  5
3D8
102
{ACAD_REACTORS
330
F
102
}
330
F
100
AcDbXrecord
280
     1
102
MATERIAL
148
0.0
149
0.0
149
0.0
 93
        0
 94
      127
282
     0
 72
     1
 77
     1
171
     1
175
     1
179
     1
273
     0
  0
XRECORD
  5
10
102
{ACAD_REACTORS
330
F
102
}
330
F
100
AcDbXrecord
280
     1
270
     1
271
     1
  0
XRECORD
  5
11
102
{ACAD_REACTORS
330
F
102
}
330
F
100
AcDbXrecord
280
     1
270
     1
271
     1
  0
XRECORD
  5
12
102
{ACAD_REACTORS
330
F
102
}
330
F
100
AcDbXrecord
280
     1
270
     1
271
     1
  0
XRECORD
  5
13
102
{ACAD_REACTORS
330
F
102
}
330
F
100
AcDbXrecord
280
     1
270
     1
271
     1
  0
CELLSTYLEMAP
  5
3FD
102
{ACAD_REACTORS
330
3D
102
}
330
3D
100
AcDbCellStyleMap
 90
        3
300
CELLSTYLE
  1
TABLEFORMAT_BEGIN
 90
        5
170
     1
 91
        0
 92
    32768
 62
   257
 93
        1
300
CONTENTFORMAT
  1
CONTENTFORMAT_BEGIN
 90
        0
 91
        0
 92
      512
 93
        0
300

 40
0.0
140
1.0
 94
        5
 62
     0
340
24
144
6.0
309
CONTENTFORMAT_END
171
     1
301
MARGIN
  1
CELLMARGIN_BEGIN
 40
1.5
 40
1.5
 40
1.5
 40
1.5
 40
0.18
 40
0.18
309
CELLMARGIN_END
 94
        6
 95
        1
302
GRIDFORMAT
  1
GRIDFORMAT_BEGIN
 90
        0
 91
        1
 62
     0
 92
       -2
340
27
 93
        0
 40
1.125
309
GRIDFORMAT_END
 95
        2
302
GRIDFORMAT
  1
GRIDFORMAT_BEGIN
 90
        0
 91
        1
 62
     0
 92
       -2
340
27
 93
        0
 40
1.125
309
GRIDFORMAT_END
 95
        4
302
GRIDFORMAT
  1
GRIDFORMAT_BEGIN
 90
        0
 91
        1
 62
     0
 92
       -2
340
27
 93
        0
 40
1.125
309
GRIDFORMAT_END
 95
        8
302
GRIDFORMAT
  1
GRIDFORMAT_BEGIN
 90
        0
 91
        1
 62
     0
 92
       -2
340
27
 93
        0
 40
1.125
309
GRIDFORMAT_END
 95
       16
302
GRIDFORMAT
  1
GRIDFORMAT_BEGIN
 90
        0
 91
        1
 62
     0
 92
       -2
340
27
 93
        0
 40
1.125
309
GRIDFORMAT_END
 95
       32
302
GRIDFORMAT
  1
GRIDFORMAT_BEGIN
 90
        0
 91
        1
 62
     0
 92
       -2
340
27
 93
        0
 40
1.125
309
GRIDFORMAT_END
309
TABLEFORMAT_END
  1
CELLSTYLE_BEGIN
 90
        1
 91
        1
300
_TITLE
309
CELLSTYLE_END
300
CELLSTYLE
  1
TABLEFORMAT_BEGIN
 90
        5
170
     1
 91
        0
 92
        0
 62
   257
 93
        1
300
CONTENTFORMAT
  1
CONTENTFORMAT_BEGIN
 90
        0
 91
        0
 92
      512
 93
        0
300

 40
0.0
140
1.0
 94
        5
 62
     0
340
24
144
4.5
309
CONTENTFORMAT_END
171
     1
301
MARGIN
  1
CELLMARGIN_BEGIN
 40
1.5
 40
1.5
 40
1.5
 40
1.5
 40
0.18
 40
0.18
309
CELLMARGIN_END
 94
        6
 95
        1
302
GRIDFORMAT
  1
GRIDFORMAT_BEGIN
 90
        0
 91
        1
 62
     0
 92
       -2
340
27
 93
        0
 40
1.125
309
GRIDFORMAT_END
 95
        2
302
GRIDFORMAT
  1
GRIDFORMAT_BEGIN
 90
        0
 91
        1
 62
     0
 92
       -2
340
27
 93
        0
 40
1.125
309
GRIDFORMAT_END
 95
        4
302
GRIDFORMAT
  1
GRIDFORMAT_BEGIN
 90
        0
 91
        1
 62
     0
 92
       -2
340
27
 93
        0
 40
1.125
309
GRIDFORMAT_END
 95
        8
302
GRIDFORMAT
  1
GRIDFORMAT_BEGIN
 90
        0
 91
        1
 62
     0
 92
       -2
340
27
 93
        0
 40
1.125
309
GRIDFORMAT_END
 95
       16
302
GRIDFORMAT
  1
GRIDFORMAT_BEGIN
 90
        0
 91
        1
 62
     0
 92
       -2
340
27
 93
        0
 40
1.125
309
GRIDFORMAT_END
 95
       32
302
GRIDFORMAT
  1
GRIDFORMAT_BEGIN
 90
        0
 91
        1
 62
     0
 92
       -2
340
27
 93
        0
 40
1.125
309
GRIDFORMAT_END
309
TABLEFORMAT_END
  1
CELLSTYLE_BEGIN
 90
        2
 91
        1
300
_HEADER
309
CELLSTYLE_END
300
CELLSTYLE
  1
TABLEFORMAT_BEGIN
 90
        5
170
     1
 91
        0
 92
        0
 62
   257
 93
        1
300
CONTENTFORMAT
  1
CONTENTFORMAT_BEGIN
 90
        0
 91
        0
 92
      512
 93
        0
300

 40
0.0
140
1.0
 94
        2
 62
     0
340
24
144
4.5
309
CONTENTFORMAT_END
171
     1
301
MARGIN
  1
CELLMARGIN_BEGIN
 40
1.5
 40
1.5
 40
1.5
 40
1.5
 40
0.18
 40
0.18
309
CELLMARGIN_END
 94
        6
 95
        1
302
GRIDFORMAT
  1
GRIDFORMAT_BEGIN
 90
        0
 91
        1
 62
     0
 92
       -2
340
27
 93
        0
 40
1.125
309
GRIDFORMAT_END
 95
        2
302
GRIDFORMAT
  1
GRIDFORMAT_BEGIN
 90
        0
 91
        1
 62
     0
 92
       -2
340
27
 93
        0
 40
1.125
309
GRIDFORMAT_END
 95
        4
302
GRIDFORMAT
  1
GRIDFORMAT_BEGIN
 90
        0
 91
        1
 62
     0
 92
       -2
340
27
 93
        0
 40
1.125
309
GRIDFORMAT_END
 95
        8
302
GRIDFORMAT
  1
GRIDFORMAT_BEGIN
 90
        0
 91
        1
 62
     0
 92
       -2
340
27
 93
        0
 40
1.125
309
GRIDFORMAT_END
 95
       16
302
GRIDFORMAT
  1
GRIDFORMAT_BEGIN
 90
        0
 91
        1
 62
     0
 92
       -2
340
27
 93
        0
 40
1.125
309
GRIDFORMAT_END
 95
       32
302
GRIDFORMAT
  1
GRIDFORMAT_BEGIN
 90
        0
 91
        1
 62
     0
 92
       -2
340
27
 93
        0
 40
1.125
309
GRIDFORMAT_END
309
TABLEFORMAT_END
  1
CELLSTYLE_BEGIN
 90
        3
 91
        2
300
_DATA
309
CELLSTYLE_END
  0
XRECORD
  5
405
102
{ACAD_REACTORS
330
3D
102
}
330
3D
100
AcDbXrecord
280
     1
102
ACAD_ROUNDTRIP_PRE2007_TABLESTYLE
 90
      512
 91
        0
  1

 92
      512
 93
        0
  2

 94
      512
 95
        0
  3

  0
ENDSEC
  0
EOF
