  0
SECTION
  2
HEADER
  9
$ACADVER
  1
AC1015
  9
$ACADMAINTVER
 70
    20
  9
$DWGCODEPAGE
  3
ANSI_949
  9
$INSBASE
 10
0.0
 20
0.0
 30
0.0
  9
$EXTMIN
 10
9426.788662729203
 20
-862.4779871433766
 30
-0.0000091545749633
  9
$EXTMAX
 10
9833.930228999424
 20
-668.4158154818288
 30
0.0000137332594111
  9
$LIMMIN
 10
0.0
 20
0.0
  9
$LIMMAX
 10
420.0
 20
297.0
  9
$ORTHOMODE
 70
     1
  9
$REGENMODE
 70
     1
  9
$FILLMODE
 70
     1
  9
$QTEXTMODE
 70
     0
  9
$MIRRTEXT
 70
     0
  9
$LTSCALE
 40
1.0
  9
$ATTMODE
 70
     1
  9
$TEXTSIZE
 40
2.5
  9
$TRACEWID
 40
1.0
  9
$TEXTSTYLE
  7
Standard
  9
$CLAYER
  8
0
  9
$CELTYPE
  6
ByLayer
  9
$CECOLOR
 62
   256
  9
$CELTSCALE
 40
1.0
  9
$DISPSILH
 70
     0
  9
$DIMSCALE
 40
1.0
  9
$DIMASZ
 40
4.0
  9
$DIMEXO
 40
1.0
  9
$DIMDLI
 40
10.0
  9
$DIMRND
 40
0.0
  9
$DIMDLE
 40
0.0
  9
$DIMEXE
 40
0.6
  9
$DIMTP
 40
0.0
  9
$DIMTM
 40
0.0
  9
$DIMTXT
 40
5.0
  9
$DIMCEN
 40
0.09
  9
$DIMTSZ
 40
0.0
  9
$DIMTOL
 70
     0
  9
$DIMLIM
 70
     0
  9
$DIMTIH
 70
     0
  9
$DIMTOH
 70
     0
  9
$DIMSE1
 70
     0
  9
$DIMSE2
 70
     0
  9
$DIMTAD
 70
     1
  9
$DIMZIN
 70
     8
  9
$DIMBLK
  1

  9
$DIMASO
 70
     1
  9
$DIMSHO
 70
     1
  9
$DIMPOST
  1

  9
$DIMAPOST
  1

  9
$DIMALT
 70
     0
  9
$DIMALTD
 70
     2
  9
$DIMALTF
 40
25.4
  9
$DIMLFAC
 40
1.0
  9
$DIMTOFL
 70
     1
  9
$DIMTVP
 40
0.0
  9
$DIMTIX
 70
     1
  9
$DIMSOXD
 70
     0
  9
$DIMSAH
 70
     0
  9
$DIMBLK1
  1

  9
$DIMBLK2
  1

  9
$DIMSTYLE
  2
STANDARD
  9
$DIMCLRD
 70
   123
  9
$DIMCLRE
 70
   123
  9
$DIMCLRT
 70
     3
  9
$DIMTFAC
 40
1.0
  9
$DIMGAP
 40
1.5
  9
$DIMJUST
 70
     0
  9
$DIMSD1
 70
     0
  9
$DIMSD2
 70
     0
  9
$DIMTOLJ
 70
     1
  9
$DIMTZIN
 70
     0
  9
$DIMALTZ
 70
     0
  9
$DIMALTTZ
 70
     0
  9
$DIMUPT
 70
     1
  9
$DIMDEC
 70
     2
  9
$DIMTDEC
 70
     2
  9
$DIMALTU
 70
     2
  9
$DIMALTTD
 70
     2
  9
$DIMTXSTY
  7
Standard
  9
$DIMAUNIT
 70
     1
  9
$DIMADEC
 70
     1
  9
$DIMALTRND
 40
0.0
  9
$DIMAZIN
 70
     2
  9
$DIMDSEP
 70
    46
  9
$DIMATFIT
 70
     0
  9
$DIMFRAC
 70
     0
  9
$DIMLDRBLK
  1

  9
$DIMLUNIT
 70
     2
  9
$DIMLWD
 70
    -2
  9
$DIMLWE
 70
    -2
  9
$DIMTMOVE
 70
     0
  9
$LUNITS
 70
     2
  9
$LUPREC
 70
     4
  9
$SKETCHINC
 40
1.0
  9
$FILLETRAD
 40
0.0
  9
$AUNITS
 70
     0
  9
$AUPREC
 70
     0
  9
$MENU
  1
.
  9
$ELEVATION
 40
0.0
  9
$PELEVATION
 40
0.0
  9
$THICKNESS
 40
0.0
  9
$LIMCHECK
 70
     0
  9
$CHAMFERA
 40
0.5
  9
$CHAMFERB
 40
0.5
  9
$CHAMFERC
 40
0.0
  9
$CHAMFERD
 40
0.0
  9
$SKPOLY
 70
     0
  9
$TDCREATE
 40
2455638.478663565
  9
$TDUCREATE
 40
2455638.103663565
  9
$TDUPDATE
 40
2455916.469698530
  9
$TDUUPDATE
 40
2455916.094698531
  9
$TDINDWG
 40
3.4863867940
  9
$TDUSRTIMER
 40
3.4863867940
  9
$USRTIMER
 70
     1
  9
$ANGBASE
 50
0.0
  9
$ANGDIR
 70
     0
  9
$PDMODE
 70
     0
  9
$PDSIZE
 40
0.0
  9
$PLINEWID
 40
0.0
  9
$SPLFRAME
 70
     0
  9
$SPLINETYPE
 70
     6
  9
$SPLINESEGS
 70
     8
  9
$HANDSEED
  5
408
  9
$SURFTAB1
 70
     6
  9
$SURFTAB2
 70
     6
  9
$SURFTYPE
 70
     6
  9
$SURFU
 70
     6
  9
$SURFV
 70
     6
  9
$UCSBASE
  2

  9
$UCSNAME
  2

  9
$UCSORG
 10
0.0
 20
0.0
 30
0.0
  9
$UCSXDIR
 10
1.0
 20
0.0
 30
0.0
  9
$UCSYDIR
 10
0.0
 20
1.0
 30
0.0
  9
$UCSORTHOREF
  2

  9
$UCSORTHOVIEW
 70
     0
  9
$UCSORGTOP
 10
0.0
 20
0.0
 30
0.0
  9
$UCSORGBOTTOM
 10
0.0
 20
0.0
 30
0.0
  9
$UCSORGLEFT
 10
0.0
 20
0.0
 30
0.0
  9
$UCSORGRIGHT
 10
0.0
 20
0.0
 30
0.0
  9
$UCSORGFRONT
 10
0.0
 20
0.0
 30
0.0
  9
$UCSORGBACK
 10
0.0
 20
0.0
 30
0.0
  9
$PUCSBASE
  2

  9
$PUCSNAME
  2

  9
$PUCSORG
 10
0.0
 20
0.0
 30
0.0
  9
$PUCSXDIR
 10
1.0
 20
0.0
 30
0.0
  9
$PUCSYDIR
 10
0.0
 20
1.0
 30
0.0
  9
$PUCSORTHOREF
  2

  9
$PUCSORTHOVIEW
 70
     0
  9
$PUCSORGTOP
 10
0.0
 20
0.0
 30
0.0
  9
$PUCSORGBOTTOM
 10
0.0
 20
0.0
 30
0.0
  9
$PUCSORGLEFT
 10
0.0
 20
0.0
 30
0.0
  9
$PUCSORGRIGHT
 10
0.0
 20
0.0
 30
0.0
  9
$PUCSORGFRONT
 10
0.0
 20
0.0
 30
0.0
  9
$PUCSORGBACK
 10
0.0
 20
0.0
 30
0.0
  9
$USERI1
 70
     0
  9
$USERI2
 70
     0
  9
$USERI3
 70
     0
  9
$USERI4
 70
     0
  9
$USERI5
 70
     0
  9
$USERR1
 40
0.0
  9
$USERR2
 40
0.0
  9
$USERR3
 40
0.0
  9
$USERR4
 40
0.0
  9
$USERR5
 40
0.0
  9
$WORLDVIEW
 70
     1
  9
$SHADEDGE
 70
     3
  9
$SHADEDIF
 70
    70
  9
$TILEMODE
 70
     1
  9
$MAXACTVP
 70
    48
  9
$PINSBASE
 10
0.0
 20
0.0
 30
0.0
  9
$PLIMCHECK
 70
     0
  9
$PEXTMIN
 10
0.0
 20
0.0
 30
0.0
  9
$PEXTMAX
 10
0.0
 20
0.0
 30
0.0
  9
$PLIMMIN
 10
0.0
 20
0.0
  9
$PLIMMAX
 10
12.0
 20
9.0
  9
$UNITMODE
 70
     0
  9
$VISRETAIN
 70
     1
  9
$PLINEGEN
 70
     0
  9
$PSLTSCALE
 70
     1
  9
$TREEDEPTH
 70
  3020
  9
$CMLSTYLE
  2
Standard
  9
$CMLJUST
 70
     0
  9
$CMLSCALE
 40
20.0
  9
$PROXYGRAPHICS
 70
     1
  9
$MEASUREMENT
 70
     1
  9
$CELWEIGHT
370
    -1
  9
$ENDCAPS
280
     0
  9
$JOINSTYLE
280
     0
  9
$LWDISPLAY
290
     0
  9
$INSUNITS
 70
     4
  9
$HYPERLINKBASE
  1

  9
$STYLESHEET
  1

  9
$XEDIT
290
     1
  9
$CEPSNTYPE
380
     0
  9
$PSTYLEMODE
290
     1
  9
$FINGERPRINTGUID
  2
{3AFACAA6-117D-4B37-9B6F-825A4A0DB061}
  9
$VERSIONGUID
  2
{8E754280-E472-4A36-924C-0D67540BDF53}
  9
$EXTNAMES
290
     1
  9
$PSVPSCALE
 40
0.0
  9
$OLESTARTUP
290
     0
  0
ENDSEC
  0
SECTION
  2
CLASSES
  0
CLASS
  1
ACDBDICTIONARYWDFLT
  2
AcDbDictionaryWithDefault
  3
ObjectDBX Classes
 90
        0
280
     0
281
     0
  0
CLASS
  1
ACDBPLACEHOLDER
  2
AcDbPlaceHolder
  3
ObjectDBX Classes
 90
        0
280
     0
281
     0
  0
CLASS
  1
LAYOUT
  2
AcDbLayout
  3
ObjectDBX Classes
 90
        0
280
     0
281
     0
  0
CLASS
  1
DICTIONARYVAR
  2
AcDbDictionaryVar
  3
ObjectDBX Classes
 90
        0
280
     0
281
     0
  0
CLASS
  1
TABLESTYLE
  2
AcDbTableStyle
  3
ObjectDBX Classes
 90
     4095
280
     0
281
     0
  0
CLASS
  1
MATERIAL
  2
AcDbMaterial
  3
ObjectDBX Classes
 90
     1153
280
     0
281
     0
  0
CLASS
  1
VISUALSTYLE
  2
AcDbVisualStyle
  3
ObjectDBX Classes
 90
     4095
280
     0
281
     0
  0
CLASS
  1
SCALE
  2
AcDbScale
  3
ObjectDBX Classes
 90
     1153
280
     0
281
     0
  0
CLASS
  1
MLEADERSTYLE
  2
AcDbMLeaderStyle
  3
ACDB_MLEADERSTYLE_CLASS
 90
     4095
280
     0
281
     0
  0
CLASS
  1
CELLSTYLEMAP
  2
AcDbCellStyleMap
  3
ObjectDBX Classes
 90
     1152
280
     0
281
     0
  0
CLASS
  1
DIMASSOC
  2
AcDbDimAssoc
  3
"AcDbDimAssoc|Product Desc:     AcDim ARX App For Dimension|Company:          Autodesk, Inc.|WEB Address:      www.autodesk.com"
 90
        0
280
     0
281
     0
  0
CLASS
  1
SORTENTSTABLE
  2
AcDbSortentsTable
  3
ObjectDBX Classes
 90
        0
280
     0
281
     0
  0
CLASS
  1
BREAKDATA
  2
AcDbBreakData
  3
ObjectDBX Classes
 90
    33792
280
     0
281
     0
  0
CLASS
  1
EXACXREFPANELOBJECT
  2
ExAcXREFPanelObject
  3
EXAC_ESW
 90
     1025
280
     0
281
     0
  0
CLASS
  1
NPOCOLLECTION
  2
AcDbImpNonPersistentObjectsCollection
  3
ObjectDBX Classes
 90
     1153
280
     0
281
     0
  0
CLASS
  1
SOLID_BACKGROUND
  2
AcDbSolidBackground
  3
SCENEOE
 90
    36863
280
     0
281
     0
  0
ENDSEC
  0
SECTION
  2
TABLES
  0
TABLE
  2
VPORT
  5
2B
102
{ACAD_XDICTIONARY
360
2F
102
}
330
0
100
AcDbSymbolTable
 70
     1
  0
VPORT
  5
2C
330
2B
100
AcDbSymbolTableRecord
100
AcDbViewportTableRecord
  2
*Active
 70
     0
 10
0.0
 20
0.0
 11
1.0
 21
1.0
 12
9630.359445864314
 22
-765.4469013126027
 13
0.0
 23
0.0
 14
10.0
 24
10.0
 15
10.0
 25
10.0
 16
0.0
 26
0.0
 36
1.0
 17
0.0
 27
0.0
 37
0.0
 40
274.0235461888888
 41
1.492874109263657
 42
50.0
 43
0.0
 44
0.0
 50
0.0
 51
0.0
 71
     0
 72
  1000
 73
     1
 74
     3
 75
     0
 76
     0
 77
     0
 78
     0
281
     0
 65
     1
110
0.0
120
0.0
130
0.0
111
1.0
121
0.0
131
0.0
112
0.0
122
1.0
132
0.0
 79
     0
146
0.0
  0
ENDTAB
  0
TABLE
  2
LTYPE
  5
26
330
0
100
AcDbSymbolTable
 70
     2
  0
LTYPE
  5
27
330
26
100
AcDbSymbolTableRecord
100
AcDbLinetypeTableRecord
  2
ByBlock
 70
     0
  3

 72
    65
 73
     0
 40
0.0
  0
LTYPE
  5
28
330
26
100
AcDbSymbolTableRecord
100
AcDbLinetypeTableRecord
  2
ByLayer
 70
     0
  3

 72
    65
 73
     0
 40
0.0
  0
LTYPE
  5
15
330
26
100
AcDbSymbolTableRecord
100
AcDbLinetypeTableRecord
  2
Continuous
 70
     0
  3
Solid line
 72
    65
 73
     0
 40
0.0
  0
LTYPE
  5
77
330
26
100
AcDbSymbolTableRecord
100
AcDbLinetypeTableRecord
  2
CENTER
 70
     0
  3
Center ____ _ ____ _ ____ _ ____ _ ____ _ ____
 72
    65
 73
     4
 40
50.8
 49
31.75
 74
     0
 49
-6.349999999999998
 74
     0
 49
6.349999999999998
 74
     0
 49
-6.349999999999998
 74
     0
  0
ENDTAB
  0
TABLE
  2
LAYER
  5
20
102
{ACAD_XDICTIONARY
360
21
102
}
330
0
100
AcDbSymbolTable
 70
     2
  0
LAYER
  5
7
102
{ACAD_XDICTIONARY
360
8
102
}
330
20
100
AcDbSymbolTableRecord
100
AcDbLayerTableRecord
  2
0
 70
     0
 62
     7
  6
Continuous
370
    -3
390
A
  0
LAYER
  5
72
330
20
100
AcDbSymbolTableRecord
100
AcDbLayerTableRecord
  2
Defpoints
 70
     0
 62
     7
  6
Continuous
290
     0
370
    -3
390
A
  0
ENDTAB
  0
TABLE
  2
STYLE
  5
23
330
0
100
AcDbSymbolTable
 70
     1
  0
STYLE
  5
24
330
23
100
AcDbSymbolTableRecord
100
AcDbTextStyleTableRecord
  2
Standard
 70
     0
 40
0.0
 41
1.0
 50
0.0
 71
     0
 42
2.5
  3
romans.shx
  4
whgtxt.shx
  0
ENDTAB
  0
TABLE
  2
VIEW
  5
29
330
0
100
AcDbSymbolTable
 70
     0
  0
ENDTAB
  0
TABLE
  2
UCS
  5
2A
330
0
100
AcDbSymbolTable
 70
     0
  0
ENDTAB
  0
TABLE
  2
APPID
  5
30
330
0
100
AcDbSymbolTable
 70
     5
  0
APPID
  5
14
330
30
100
AcDbSymbolTableRecord
100
AcDbRegAppTableRecord
  2
ACAD
 70
     0
  0
APPID
  5
19
330
30
100
AcDbSymbolTableRecord
100
AcDbRegAppTableRecord
  2
ACAD_PSEXT
 70
     0
  0
APPID
  5
41
330
30
100
AcDbSymbolTableRecord
100
AcDbRegAppTableRecord
  2
ACAD_DSTYLE_DIMJAG
 70
     0
  0
APPID
  5
42
330
30
100
AcDbSymbolTableRecord
100
AcDbRegAppTableRecord
  2
ACAD_DSTYLE_DIMTALN
 70
     0
  0
APPID
  5
3F5
330
30
100
AcDbSymbolTableRecord
100
AcDbRegAppTableRecord
  2
ACAD_MLEADERVER
 70
     0
  0
ENDTAB
  0
TABLE
  2
DIMSTYLE
  5
31
330
0
100
AcDbSymbolTable
 70
     1
100
AcDbDimStyleTable
 71
     0
  0
DIMSTYLE
105
40
102
{ACAD_REACTORS
330
180
330
17F
330
15F
330
14D
330
13E
330
128
330
118
330
101
330
F2
330
E1
330
CB
330
BB
330
A3
330
68
330
64
102
}
330
31
100
AcDbSymbolTableRecord
100
AcDbDimStyleTableRecord
  2
STANDARD
 70
     0
 41
4.0
 42
1.0
 43
10.0
 44
0.6
 73
     0
 74
     0
 77
     1
 78
     8
 79
     2
140
5.0
147
1.5
172
     1
174
     1
176
   123
177
   123
178
     3
179
     1
271
     2
272
     2
275
     1
288
     1
289
     0
340
24
1001
ACAD_DSTYLE_DIMJAG
1070
   388
1040
1.5
1001
ACAD_DSTYLE_DIMTALN
1070
   392
1070
     0
  0
ENDTAB
  0
TABLE
  2
BLOCK_RECORD
  5
1
330
0
100
AcDbSymbolTable
 70
    12
  0
BLOCK_RECORD
  5
2
102
{ACAD_XDICTIONARY
360
3
102
}
330
1
100
AcDbSymbolTableRecord
100
AcDbBlockTableRecord
  2
*Model_Space
340
17
  0
BLOCK_RECORD
  5
1A
102
{ACAD_XDICTIONARY
360
1B
102
}
330
1
100
AcDbSymbolTableRecord
100
AcDbBlockTableRecord
  2
*Paper_Space
340
1F
  0
BLOCK_RECORD
  5
69
330
1
100
AcDbSymbolTableRecord
100
AcDbBlockTableRecord
  2
*D0
340
0
  0
BLOCK_RECORD
  5
BC
330
1
100
AcDbSymbolTableRecord
100
AcDbBlockTableRecord
  2
*D1
340
0
  0
BLOCK_RECORD
  5
A6
330
1
100
AcDbSymbolTableRecord
100
AcDbBlockTableRecord
  2
*D2
340
0
  0
BLOCK_RECORD
  5
CC
330
1
100
AcDbSymbolTableRecord
100
AcDbBlockTableRecord
  2
*D3
340
0
  0
BLOCK_RECORD
  5
F3
330
1
100
AcDbSymbolTableRecord
100
AcDbBlockTableRecord
  2
*D4
340
0
  0
BLOCK_RECORD
  5
160
330
1
100
AcDbSymbolTableRecord
100
AcDbBlockTableRecord
  2
*D5
340
0
  0
BLOCK_RECORD
  5
E4
330
1
100
AcDbSymbolTableRecord
100
AcDbBlockTableRecord
  2
*D6
340
0
  0
BLOCK_RECORD
  5
104
330
1
100
AcDbSymbolTableRecord
100
AcDbBlockTableRecord
  2
*D7
340
0
  0
BLOCK_RECORD
  5
11B
330
1
100
AcDbSymbolTableRecord
100
AcDbBlockTableRecord
  2
*D8
340
0
  0
BLOCK_RECORD
  5
12B
330
1
100
AcDbSymbolTableRecord
100
AcDbBlockTableRecord
  2
*D9
340
0
  0
BLOCK_RECORD
  5
141
330
1
100
AcDbSymbolTableRecord
100
AcDbBlockTableRecord
  2
*D10
340
0
  0
BLOCK_RECORD
  5
150
330
1
100
AcDbSymbolTableRecord
100
AcDbBlockTableRecord
  2
*D11
340
0
  0
ENDTAB
  0
ENDSEC
  0
SECTION
  2
BLOCKS
  0
BLOCK
  5
6
330
2
100
AcDbEntity
  8
0
100
AcDbBlockBegin
  2
*Model_Space
 70
     0
 10
0.0
 20
0.0
 30
0.0
  3
*Model_Space
  1

  0
ENDBLK
  5
16
330
2
100
AcDbEntity
  8
0
100
AcDbBlockEnd
  0
BLOCK
  5
1D
330
1A
100
AcDbEntity
 67
     1
  8
0
100
AcDbBlockBegin
  2
*Paper_Space
 70
     0
 10
0.0
 20
0.0
 30
0.0
  3
*Paper_Space
  1

  0
ENDBLK
  5
1E
330
1A
100
AcDbEntity
 67
     1
  8
0
100
AcDbBlockEnd
  0
BLOCK
  5
6A
330
69
100
AcDbEntity
  8
0
100
AcDbBlockBegin
  2
*D0
 70
     1
 10
0.0
 20
0.0
 30
0.0
  3
*D0
  1

  0
LINE
  5
6B
330
69
100
AcDbEntity
  8
0
 62
   123
370
    -2
100
AcDbLine
 10
9435.108419647868
 20
-713.3352306961877
 30
0.0
 11
9435.108419647868
 21
-674.6181358827492
 31
0.0
  0
LINE
  5
6C
330
69
100
AcDbEntity
  8
0
 62
   123
370
    -2
100
AcDbLine
 10
9525.108419647869
 20
-713.3352306961877
 30
0.0
 11
9525.108419647869
 21
-674.6181358827492
 31
0.0
  0
LINE
  5
6D
330
69
100
AcDbEntity
  8
0
 62
   123
370
    -2
100
AcDbLine
 10
9439.108419647867
 20
-675.2181358827492
 30
0.0
 11
9521.108419647868
 21
-675.2181358827492
 31
0.0
  0
SOLID
  5
6E
330
69
100
AcDbEntity
  8
0
 62
   123
100
AcDbTrace
 10
9439.108419647867
 20
-674.5514692160826
 30
0.0
 11
9439.108419647867
 21
-675.8848025494159
 31
0.0
 12
9435.108419647868
 22
-675.2181358827492
 32
0.0
 13
9435.108419647868
 23
-675.2181358827492
 33
0.0
  0
SOLID
  5
6F
330
69
100
AcDbEntity
  8
0
 62
   123
100
AcDbTrace
 10
9521.108419647868
 20
-674.5514692160826
 30
0.0
 11
9521.108419647868
 21
-675.8848025494159
 31
0.0
 12
9525.108419647869
 22
-675.2181358827492
 32
0.0
 13
9525.108419647869
 23
-675.2181358827492
 33
0.0
  0
MTEXT
  5
70
330
69
100
AcDbEntity
  8
0
 62
     3
100
AcDbMText
 10
9480.108419647867
 20
-671.2181358827493
 30
0.0
 40
5.0
 41
0.0
 71
     5
 72
     1
  1
\A1;90
 73
     1
 44
1.0
1001
ACAD
1000
MTEXTBEGIN
1070
    73
1070
     1
1070
    44
1040
1.0
1070
    74
1070
     0
1000
MTEXTEND
  0
POINT
  5
71
330
69
100
AcDbEntity
  8
Defpoints
 62
     0
100
AcDbPoint
 10
9435.108419647868
 20
-714.3352306961879
 30
0.0
  0
POINT
  5
73
330
69
100
AcDbEntity
  8
Defpoints
 62
     0
100
AcDbPoint
 10
9525.108419647869
 20
-714.3352306961879
 30
0.0
  0
POINT
  5
74
330
69
100
AcDbEntity
  8
Defpoints
 62
     0
100
AcDbPoint
 10
9525.108419647869
 20
-675.2181358827492
 30
0.0
  0
ENDBLK
  5
75
330
69
100
AcDbEntity
  8
0
100
AcDbBlockEnd
  0
BLOCK
  5
BD
330
BC
100
AcDbEntity
  8
0
100
AcDbBlockBegin
  2
*D1
 70
     1
 10
0.0
 20
0.0
 30
0.0
  3
*D1
  1

  0
LINE
  5
BE
330
BC
100
AcDbEntity
  8
0
 62
   123
 48
0.6
100
AcDbLine
 10
9480.10220197697
 20
-808.9439785805351
 30
0.0
 11
9480.10220197697
 21
-827.3625659740272
 31
0.0
  0
LINE
  5
BF
330
BC
100
AcDbEntity
  8
0
 62
   123
 48
0.6
100
AcDbLine
 10
9499.130822337573
 20
-800.2376682129645
 30
0.0
 11
9508.064700228421
 21
-821.7987651816336
 31
0.0
  0
ARC
  5
C0
330
BC
100
AcDbEntity
  8
0
 62
   123
 48
0.6
100
AcDbCircle
 10
9480.102201976972
 20
-754.3138338167805
 30
0.0
 40
72.44873215724668
100
AcDbArc
 50
273.1637853469864
 51
289.3429715504147
  0
SOLID
  5
C1
330
BC
100
AcDbEntity
  8
0
 62
   123
 48
0.6
100
AcDbTrace
 10
9484.119081352757
 20
-827.3185556545334
 30
0.0
 11
9484.082273715308
 21
-825.985730468845
 31
0.0
 12
9480.10220197697
 22
-826.7625659740271
 32
0.0
 13
9480.10220197697
 23
-826.7625659740271
 33
0.0
  0
SOLID
  5
C2
330
BC
100
AcDbEntity
  8
0
 62
   123
 48
0.6
100
AcDbTrace
 10
9503.860730913332
 20
-822.0503383289473
 30
0.0
 11
9504.336922080657
 21
-823.2957377628403
 31
0.0
 12
9507.835024798669
 22
-821.2444645439203
 32
0.0
 13
9507.835024798669
 23
-821.2444645439203
 33
0.0
  0
MTEXT
  5
C3
330
BC
100
AcDbEntity
  8
0
 62
     3
 48
0.6
100
AcDbMText
 10
9493.366917990597
 20
-820.9795201303611
 30
0.0
 40
5.0
 41
0.0
 71
     5
 72
     1
  1
\A1;22°30'
 11
0.9807737751869385
 21
0.1951481537334144
 31
0.0
 73
     1
 44
1.0
1001
ACAD
1000
MTEXTBEGIN
1070
    73
1070
     1
1070
    44
1040
1.0
1070
    74
1070
     0
1000
MTEXTEND
  0
POINT
  5
C4
330
BC
100
AcDbEntity
  8
Defpoints
 62
     0
 48
0.6
100
AcDbPoint
 10
9489.561482706852
 20
-826.1423852379657
 30
0.0
  0
POINT
  5
C5
330
BC
100
AcDbEntity
  8
Defpoints
 62
     0
 48
0.6
100
AcDbPoint
 10
9480.10220197697
 20
-807.9439785805355
 30
0.0
  0
POINT
  5
C6
330
BC
100
AcDbEntity
  8
Defpoints
 62
     0
 48
0.6
100
AcDbPoint
 10
9480.102201976972
 20
-754.3138338167826
 30
0.0
  0
POINT
  5
C7
330
BC
100
AcDbEntity
  8
Defpoints
 62
     0
 48
0.6
100
AcDbPoint
 10
9498.74802995466
 20
-799.3138338167755
 30
0.0
  0
POINT
  5
C8
330
BC
100
AcDbEntity
  8
Defpoints
 62
     0
 48
0.6
100
AcDbPoint
 10
9480.10220197697
 20
-700.6836890530305
 30
0.0
  0
ENDBLK
  5
C9
330
BC
100
AcDbEntity
  8
0
100
AcDbBlockEnd
  0
BLOCK
  5
A7
330
A6
100
AcDbEntity
  8
0
100
AcDbBlockBegin
  2
*D2
 70
     1
 10
0.0
 20
0.0
 30
0.0
  3
*D2
  1

  0
LINE
  5
A8
330
A6
100
AcDbEntity
  8
0
 62
   123
100
AcDbLine
 10
9566.662752602553
 20
-687.1801933938114
 30
0.0
 11
9524.363581971021
 21
-719.9779996295883
 31
0.0
  0
LINE
  5
A9
330
A6
100
AcDbEntity
  8
0
 62
   123
100
AcDbLine
 10
9435.853257324705
 20
-788.6068742452017
 30
0.0
 11
9432.692174301619
 21
-791.0579054814734
 31
0.0
  0
MTEXT
  5
AA
102
{ACAD_XDICTIONARY
360
406
102
}
330
A6
100
AcDbEntity
  8
0
 62
     3
100
AcDbMText
 10
9549.008417302879
 20
-695.8074034594647
 30
0.0
 40
5.0
 41
0.0
 71
     5
 72
     1
  1
\A1;\U+2205104%%P0.5
 11
0.7902707557706278
 21
0.6127578090679227
 31
0.0
 73
     1
 44
1.0
1001
ACAD
1000
MTEXTBEGIN
1070
    73
1070
     1
1070
    44
1040
1.0
1070
    74
1070
     0
1000
MTEXTEND
  0
LINE
  5
AB
330
A6
100
AcDbEntity
  8
0
 62
   123
100
AcDbLine
 10
9439.014340347785
 20
-786.1558430089297
 30
0.0
 11
9521.202498947941
 21
-722.4290308658601
 31
0.0
  0
SOLID
  5
AC
330
A6
100
AcDbEntity
  8
0
 62
   123
100
AcDbTrace
 10
9435.444752118655
 20
-788.0800270746878
 30
0.0
 11
9436.261762530749
 21
-789.1337214157156
 31
0.0
 12
9439.014340347785
 22
-786.1558430089297
 32
0.0
 13
9439.014340347785
 23
-786.1558430089297
 33
0.0
  0
SOLID
  5
AD
330
A6
100
AcDbEntity
  8
0
 62
   123
100
AcDbTrace
 10
9523.955076764975
 20
-719.4511524590742
 30
0.0
 11
9524.772087177067
 21
-720.5048468001022
 31
0.0
 12
9521.202498947941
 22
-722.4290308658601
 32
0.0
 13
9521.202498947941
 23
-722.4290308658601
 33
0.0
  0
POINT
  5
AE
330
A6
100
AcDbEntity
  8
Defpoints
 62
     0
100
AcDbPoint
 10
9521.202498947941
 20
-722.4290308658601
 30
0.0
  0
POINT
  5
AF
330
A6
100
AcDbEntity
  8
Defpoints
 62
     0
100
AcDbPoint
 10
9439.014340347785
 20
-786.1558430089297
 30
0.0
  0
ENDBLK
  5
B0
330
A6
100
AcDbEntity
  8
0
100
AcDbBlockEnd
  0
BLOCK
  5
CD
330
CC
100
AcDbEntity
  8
0
100
AcDbBlockBegin
  2
*D3
 70
     1
 10
0.0
 20
0.0
 30
0.0
  3
*D3
  1

  0
LINE
  5
CE
330
CC
100
AcDbEntity
  8
0
 62
   123
370
    -2
100
AcDbLine
 10
9809.865351845083
 20
-708.1126236484251
 30
0.0
 11
9831.35181268163
 21
-708.1126236484251
 31
0.0
  0
LINE
  5
CF
330
CC
100
AcDbEntity
  8
0
 62
   123
370
    -2
100
AcDbLine
 10
9809.865351845083
 20
-800.1126236484287
 30
0.0
 11
9831.35181268163
 21
-800.1126236484287
 31
0.0
  0
LINE
  5
D0
330
CC
100
AcDbEntity
  8
0
 62
   123
370
    -2
100
AcDbLine
 10
9830.751812681626
 20
-712.1126236484251
 30
0.0
 11
9830.751812681626
 21
-796.1126236484288
 31
0.0
  0
SOLID
  5
D1
330
CC
100
AcDbEntity
  8
0
 62
   123
100
AcDbTrace
 10
9830.085146014958
 20
-712.1126236484251
 30
0.0
 11
9831.418479348293
 21
-712.1126236484251
 31
0.0
 12
9830.751812681626
 22
-708.1126236484251
 32
0.0
 13
9830.751812681626
 23
-708.1126236484251
 33
0.0
  0
SOLID
  5
D2
330
CC
100
AcDbEntity
  8
0
 62
   123
100
AcDbTrace
 10
9830.085146014958
 20
-796.1126236484288
 30
0.0
 11
9831.418479348293
 21
-796.1126236484288
 31
0.0
 12
9830.751812681626
 22
-800.1126236484287
 32
0.0
 13
9830.751812681626
 23
-800.1126236484287
 33
0.0
  0
MTEXT
  5
D3
330
CC
100
AcDbEntity
  8
0
 62
     3
100
AcDbMText
 10
9826.751812681628
 20
-754.1126236484251
 30
0.0
 40
5.0
 41
0.0
 71
     5
 72
     1
  1
\A1;92
 11
0.0000000000000001
 21
1.0
 31
0.0
 73
     1
 44
1.0
1001
ACAD
1000
MTEXTBEGIN
1070
    73
1070
     1
1070
    44
1040
1.0
1070
    74
1070
     0
1000
MTEXTEND
  0
POINT
  5
D4
330
CC
100
AcDbEntity
  8
Defpoints
 62
     0
100
AcDbPoint
 10
9808.86535184508
 20
-708.1126236484251
 30
0.0
  0
POINT
  5
D5
330
CC
100
AcDbEntity
  8
Defpoints
 62
     0
100
AcDbPoint
 10
9808.86535184508
 20
-800.1126236484287
 30
0.0
  0
POINT
  5
D6
330
CC
100
AcDbEntity
  8
Defpoints
 62
     0
100
AcDbPoint
 10
9830.751812681626
 20
-800.1126236484287
 30
0.0
  0
ENDBLK
  5
D7
330
CC
100
AcDbEntity
  8
0
100
AcDbBlockEnd
  0
BLOCK
  5
F4
330
F3
100
AcDbEntity
  8
0
100
AcDbBlockBegin
  2
*D4
 70
     1
 10
0.0
 20
0.0
 30
0.0
  3
*D4
  1

  0
LINE
  5
F5
330
F3
100
AcDbEntity
  8
0
 62
   123
370
    -2
100
AcDbLine
 10
9629.866429644433
 20
-711.7924369373922
 30
0.0
 11
9629.866429644433
 21
-698.9542000130279
 31
0.0
  0
LINE
  5
F6
330
F3
100
AcDbEntity
  8
0
 62
   123
370
    -2
100
AcDbLine
 10
9631.866429644434
 20
-708.2924369373922
 30
0.0
 11
9631.866429644434
 21
-698.9542000130279
 31
0.0
  0
LINE
  5
F7
330
F3
100
AcDbEntity
  8
0
 62
   123
370
    -2
100
AcDbLine
 10
9635.866429644433
 20
-699.5542000130281
 30
0.0
 11
9639.866429644435
 21
-699.5542000130281
 31
0.0
  0
LINE
  5
F8
330
F3
100
AcDbEntity
  8
0
 62
   123
370
    -2
100
AcDbLine
 10
9625.866429644434
 20
-699.5542000130281
 30
0.0
 11
9615.533096311096
 21
-699.5542000130281
 31
0.0
  0
LINE
  5
F9
330
F3
100
AcDbEntity
  8
0
 62
   123
370
    -2
100
AcDbLine
 10
9631.866429644434
 20
-699.5542000130281
 30
0.0
 11
9629.866429644433
 21
-699.5542000130281
 31
0.0
  0
SOLID
  5
FA
330
F3
100
AcDbEntity
  8
0
 62
   123
100
AcDbTrace
 10
9635.866429644433
 20
-698.8875333463616
 30
0.0
 11
9635.866429644433
 21
-700.2208666796946
 31
0.0
 12
9631.866429644434
 22
-699.5542000130281
 32
0.0
 13
9631.866429644434
 23
-699.5542000130281
 33
0.0
  0
SOLID
  5
FB
330
F3
100
AcDbEntity
  8
0
 62
   123
100
AcDbTrace
 10
9625.866429644434
 20
-698.8875333463616
 30
0.0
 11
9625.866429644434
 21
-700.2208666796946
 31
0.0
 12
9629.866429644433
 22
-699.5542000130281
 32
0.0
 13
9629.866429644433
 23
-699.5542000130281
 33
0.0
  0
MTEXT
  5
FC
330
F3
100
AcDbEntity
  8
0
 62
     3
100
AcDbMText
 10
9618.699762977763
 20
-695.5542000130281
 30
0.0
 40
5.0
 41
0.0
 71
     5
 72
     1
  1
\A1;2
 73
     1
 44
1.0
1001
ACAD
1000
MTEXTBEGIN
1070
    73
1070
     1
1070
    44
1040
1.0
1070
    74
1070
     0
1000
MTEXTEND
  0
POINT
  5
FD
330
F3
100
AcDbEntity
  8
Defpoints
 62
     0
100
AcDbPoint
 10
9629.866429644433
 20
-712.7924369373922
 30
0.0
  0
POINT
  5
FE
330
F3
100
AcDbEntity
  8
Defpoints
 62
     0
100
AcDbPoint
 10
9631.866429644434
 20
-709.2924369373922
 30
0.0
  0
POINT
  5
FF
330
F3
100
AcDbEntity
  8
Defpoints
 62
     0
100
AcDbPoint
 10
9631.866429644434
 20
-699.5542000130281
 30
0.0
  0
ENDBLK
  5
100
330
F3
100
AcDbEntity
  8
0
100
AcDbBlockEnd
  0
BLOCK
  5
161
330
160
100
AcDbEntity
  8
0
100
AcDbBlockBegin
  2
*D5
 70
     1
 10
0.0
 20
0.0
 30
0.0
  3
*D5
  1

  0
LINE
  5
162
330
160
100
AcDbEntity
  8
0
 62
   123
370
    -2
100
AcDbLine
 10
9631.866429644434
 20
-708.2924369373922
 30
0.0
 11
9631.866429644434
 21
-676.2588186484612
 31
0.0
  0
LINE
  5
163
330
160
100
AcDbEntity
  8
0
 62
   123
370
    -2
100
AcDbLine
 10
9810.86535184508
 20
-710.1126236484251
 30
0.0
 11
9810.86535184508
 21
-676.2588186484612
 31
0.0
  0
LINE
  5
164
330
160
100
AcDbEntity
  8
0
 62
   123
370
    -2
100
AcDbLine
 10
9635.866429644433
 20
-676.8588186484612
 30
0.0
 11
9806.865351845083
 21
-676.8588186484612
 31
0.0
  0
SOLID
  5
165
330
160
100
AcDbEntity
  8
0
 62
   123
100
AcDbTrace
 10
9635.866429644433
 20
-676.1921519817946
 30
0.0
 11
9635.866429644433
 21
-677.5254853151277
 31
0.0
 12
9631.866429644434
 22
-676.8588186484612
 32
0.0
 13
9631.866429644434
 23
-676.8588186484612
 33
0.0
  0
SOLID
  5
166
330
160
100
AcDbEntity
  8
0
 62
   123
100
AcDbTrace
 10
9806.865351845083
 20
-676.1921519817946
 30
0.0
 11
9806.865351845083
 21
-677.5254853151277
 31
0.0
 12
9810.86535184508
 22
-676.8588186484612
 32
0.0
 13
9810.86535184508
 23
-676.8588186484612
 33
0.0
  0
MTEXT
  5
167
330
160
100
AcDbEntity
  8
0
 62
     3
100
AcDbMText
 10
9720.865890744756
 20
-672.8588186484612
 30
0.0
 40
5.0
 41
0.0
 71
     5
 72
     1
  1
\A1;M
 73
     1
 44
1.0
1001
ACAD
1000
MTEXTBEGIN
1070
    73
1070
     1
1070
    44
1040
1.0
1070
    74
1070
     0
1000
MTEXTEND
  0
POINT
  5
168
330
160
100
AcDbEntity
  8
Defpoints
 62
     0
100
AcDbPoint
 10
9631.866429644434
 20
-709.2924369373922
 30
0.0
  0
POINT
  5
169
330
160
100
AcDbEntity
  8
Defpoints
 62
     0
100
AcDbPoint
 10
9810.86535184508
 20
-711.1126236484251
 30
0.0
  0
POINT
  5
16A
330
160
100
AcDbEntity
  8
Defpoints
 62
     0
100
AcDbPoint
 10
9810.86535184508
 20
-676.8588186484612
 30
0.0
  0
ENDBLK
  5
16B
330
160
100
AcDbEntity
  8
0
100
AcDbBlockEnd
  0
BLOCK
  5
E5
330
E4
100
AcDbEntity
  8
0
100
AcDbBlockBegin
  2
*D6
 70
     1
 10
0.0
 20
0.0
 30
0.0
  3
*D6
  1

  0
LINE
  5
E6
330
E4
100
AcDbEntity
  8
0
 62
   123
370
    -2
100
AcDbLine
 10
9631.866429644434
 20
-708.08410360406
 30
0.0
 11
9631.866429644434
 21
-688.7627588614326
 31
0.0
  0
LINE
  5
E7
330
E4
100
AcDbEntity
  8
0
 62
   123
370
    -2
100
AcDbLine
 10
9639.366429644432
 20
-709.693699595862
 30
0.0
 11
9639.366429644432
 21
-688.7627588614326
 31
0.0
  0
LINE
  5
E8
330
E4
100
AcDbEntity
  8
0
 62
   123
370
    -2
100
AcDbLine
 10
9627.866429644434
 20
-689.3627588614326
 30
0.0
 11
9623.866429644433
 21
-689.3627588614326
 31
0.0
  0
LINE
  5
E9
330
E4
100
AcDbEntity
  8
0
 62
   123
370
    -2
100
AcDbLine
 10
9643.366429644434
 20
-689.3627588614326
 30
0.0
 11
9660.842620120625
 21
-689.3627588614326
 31
0.0
  0
LINE
  5
EA
330
E4
100
AcDbEntity
  8
0
 62
   123
370
    -2
100
AcDbLine
 10
9631.866429644434
 20
-689.3627588614326
 30
0.0
 11
9639.366429644432
 21
-689.3627588614326
 31
0.0
  0
SOLID
  5
EB
330
E4
100
AcDbEntity
  8
0
 62
   123
100
AcDbTrace
 10
9627.866429644434
 20
-688.6960921947659
 30
0.0
 11
9627.866429644434
 21
-690.0294255280991
 31
0.0
 12
9631.866429644434
 22
-689.3627588614326
 32
0.0
 13
9631.866429644434
 23
-689.3627588614326
 33
0.0
  0
SOLID
  5
EC
330
E4
100
AcDbEntity
  8
0
 62
   123
100
AcDbTrace
 10
9643.366429644434
 20
-688.6960921947659
 30
0.0
 11
9643.366429644434
 21
-690.0294255280991
 31
0.0
 12
9639.366429644432
 22
-689.3627588614326
 32
0.0
 13
9639.366429644432
 23
-689.3627588614326
 33
0.0
  0
MTEXT
  5
ED
330
E4
100
AcDbEntity
  8
0
 62
     3
100
AcDbMText
 10
9654.104524882528
 20
-685.3627588614326
 30
0.0
 40
5.0
 41
0.0
 71
     5
 72
     1
  1
\A1;7.5
 73
     1
 44
1.0
1001
ACAD
1000
MTEXTBEGIN
1070
    73
1070
     1
1070
    44
1040
1.0
1070
    74
1070
     0
1000
MTEXTEND
  0
POINT
  5
EE
330
E4
100
AcDbEntity
  8
Defpoints
 62
     0
100
AcDbPoint
 10
9631.866429644434
 20
-709.08410360406
 30
0.0
  0
POINT
  5
EF
330
E4
100
AcDbEntity
  8
Defpoints
 62
     0
100
AcDbPoint
 10
9639.366429644432
 20
-710.6936995958623
 30
0.0
  0
POINT
  5
F0
330
E4
100
AcDbEntity
  8
Defpoints
 62
     0
100
AcDbPoint
 10
9639.366429644432
 20
-689.3627588614326
 30
0.0
  0
ENDBLK
  5
F1
330
E4
100
AcDbEntity
  8
0
100
AcDbBlockEnd
  0
BLOCK
  5
105
330
104
100
AcDbEntity
  8
0
100
AcDbBlockBegin
  2
*D7
 70
     1
 10
0.0
 20
0.0
 30
0.0
  3
*D7
  1

  0
LINE
  5
106
330
104
100
AcDbEntity
  8
0
 62
   123
370
    -2
100
AcDbLine
 10
9594.866429644433
 20
-748.2924369373923
 30
0.0
 11
9594.866429644433
 21
-676.2588186484612
 31
0.0
  0
LINE
  5
107
330
104
100
AcDbEntity
  8
0
 62
   123
370
    -2
100
AcDbLine
 10
9631.866429644434
 20
-708.08410360406
 30
0.0
 11
9631.866429644434
 21
-676.2588186484612
 31
0.0
  0
LINE
  5
108
330
104
100
AcDbEntity
  8
0
 62
   123
370
    -2
100
AcDbLine
 10
9598.866429644433
 20
-676.8588186484612
 30
0.0
 11
9627.866429644434
 21
-676.8588186484612
 31
0.0
  0
SOLID
  5
109
330
104
100
AcDbEntity
  8
0
 62
   123
100
AcDbTrace
 10
9598.866429644433
 20
-676.1921519817946
 30
0.0
 11
9598.866429644433
 21
-677.5254853151277
 31
0.0
 12
9594.866429644433
 22
-676.8588186484612
 32
0.0
 13
9594.866429644433
 23
-676.8588186484612
 33
0.0
  0
SOLID
  5
10A
330
104
100
AcDbEntity
  8
0
 62
   123
100
AcDbTrace
 10
9627.866429644434
 20
-676.1921519817946
 30
0.0
 11
9627.866429644434
 21
-677.5254853151277
 31
0.0
 12
9631.866429644434
 22
-676.8588186484612
 32
0.0
 13
9631.866429644434
 23
-676.8588186484612
 33
0.0
  0
MTEXT
  5
10B
330
104
100
AcDbEntity
  8
0
 62
     3
100
AcDbMText
 10
9615.116429644434
 20
-672.8588186484612
 30
0.0
 40
5.0
 41
0.0
 71
     5
 72
     1
  1
\A1;37
 73
     1
 44
1.0
1001
ACAD
1000
MTEXTBEGIN
1070
    73
1070
     1
1070
    44
1040
1.0
1070
    74
1070
     0
1000
MTEXTEND
  0
POINT
  5
10C
330
104
100
AcDbEntity
  8
Defpoints
 62
     0
100
AcDbPoint
 10
9594.866429644433
 20
-749.2924369373922
 30
0.0
  0
POINT
  5
10D
330
104
100
AcDbEntity
  8
Defpoints
 62
     0
100
AcDbPoint
 10
9631.866429644434
 20
-709.08410360406
 30
0.0
  0
POINT
  5
10E
330
104
100
AcDbEntity
  8
Defpoints
 62
     0
100
AcDbPoint
 10
9631.866429644434
 20
-676.8588186484612
 30
0.0
  0
ENDBLK
  5
10F
330
104
100
AcDbEntity
  8
0
100
AcDbBlockEnd
  0
BLOCK
  5
11C
330
11B
100
AcDbEntity
  8
0
100
AcDbBlockBegin
  2
*D8
 70
     1
 10
0.0
 20
0.0
 30
0.0
  3
*D8
  1

  0
LINE
  5
11D
330
11B
100
AcDbEntity
  8
0
 62
   123
370
    -2
100
AcDbLine
 10
9593.866429644434
 20
-760.2924369373923
 30
0.0
 11
9581.797948763719
 21
-760.2924369373923
 31
0.0
  0
LINE
  5
11E
330
11B
100
AcDbEntity
  8
0
 62
   123
370
    -2
100
AcDbLine
 10
9593.866429644434
 20
-749.2924369373922
 30
0.0
 11
9581.797948763719
 21
-749.2924369373922
 31
0.0
  0
LINE
  5
11F
330
11B
100
AcDbEntity
  8
0
 62
   123
370
    -2
100
AcDbLine
 10
9582.39794876372
 20
-756.2924369373923
 30
0.0
 11
9582.39794876372
 21
-753.2924369373922
 31
0.0
  0
SOLID
  5
120
330
11B
100
AcDbEntity
  8
0
 62
   123
100
AcDbTrace
 10
9581.731282097054
 20
-756.2924369373923
 30
0.0
 11
9583.064615430386
 21
-756.2924369373923
 31
0.0
 12
9582.39794876372
 22
-760.2924369373923
 32
0.0
 13
9582.39794876372
 23
-760.2924369373923
 33
0.0
  0
SOLID
  5
121
330
11B
100
AcDbEntity
  8
0
 62
   123
100
AcDbTrace
 10
9581.731282097054
 20
-753.2924369373922
 30
0.0
 11
9583.064615430386
 21
-753.2924369373922
 31
0.0
 12
9582.39794876372
 22
-749.2924369373922
 32
0.0
 13
9582.39794876372
 23
-749.2924369373922
 33
0.0
  0
MTEXT
  5
122
330
11B
100
AcDbEntity
  8
0
 62
     3
100
AcDbMText
 10
9578.39794876372
 20
-754.7924369373922
 30
0.0
 40
5.0
 41
0.0
 71
     5
 72
     1
  1
\A1;11
 11
0.0000000000000001
 21
1.0
 31
0.0
 73
     1
 44
1.0
1001
ACAD
1000
MTEXTBEGIN
1070
    73
1070
     1
1070
    44
1040
1.0
1070
    74
1070
     0
1000
MTEXTEND
  0
POINT
  5
123
330
11B
100
AcDbEntity
  8
Defpoints
 62
     0
100
AcDbPoint
 10
9594.866429644433
 20
-760.2924369373923
 30
0.0
  0
POINT
  5
124
330
11B
100
AcDbEntity
  8
Defpoints
 62
     0
100
AcDbPoint
 10
9594.866429644433
 20
-749.2924369373922
 30
0.0
  0
POINT
  5
125
330
11B
100
AcDbEntity
  8
Defpoints
 62
     0
100
AcDbPoint
 10
9582.39794876372
 20
-749.2924369373922
 30
0.0
  0
ENDBLK
  5
126
330
11B
100
AcDbEntity
  8
0
100
AcDbBlockEnd
  0
BLOCK
  5
12C
330
12B
100
AcDbEntity
  8
0
100
AcDbBlockBegin
  2
*D9
 70
     1
 10
0.0
 20
0.0
 30
0.0
  3
*D9
  1

  0
LINE
  5
12D
330
12B
100
AcDbEntity
  8
0
 62
   123
370
    -2
100
AcDbLine
 10
9594.866429644433
 20
-748.2924369373923
 30
0.0
 11
9594.866429644433
 21
-723.0951804500513
 31
0.0
  0
LINE
  5
12E
330
12B
100
AcDbEntity
  8
0
 62
   123
370
    -2
100
AcDbLine
 10
9624.866429644434
 20
-747.2924369373922
 30
0.0
 11
9624.866429644434
 21
-723.0951804500513
 31
0.0
  0
LINE
  5
12F
330
12B
100
AcDbEntity
  8
0
 62
   123
370
    -2
100
AcDbLine
 10
9598.866429644433
 20
-723.6951804500512
 30
0.0
 11
9620.866429644435
 21
-723.6951804500512
 31
0.0
  0
SOLID
  5
130
330
12B
100
AcDbEntity
  8
0
 62
   123
100
AcDbTrace
 10
9598.866429644433
 20
-723.0285137833845
 30
0.0
 11
9598.866429644433
 21
-724.3618471167178
 31
0.0
 12
9594.866429644433
 22
-723.6951804500512
 32
0.0
 13
9594.866429644433
 23
-723.6951804500512
 33
0.0
  0
SOLID
  5
131
330
12B
100
AcDbEntity
  8
0
 62
   123
100
AcDbTrace
 10
9620.866429644435
 20
-723.0285137833845
 30
0.0
 11
9620.866429644435
 21
-724.3618471167178
 31
0.0
 12
9624.866429644434
 22
-723.6951804500512
 32
0.0
 13
9624.866429644434
 23
-723.6951804500512
 33
0.0
  0
MTEXT
  5
132
330
12B
100
AcDbEntity
  8
0
 62
     3
100
AcDbMText
 10
9611.125114008933
 20
-719.6951804500512
 30
0.0
 40
5.0
 41
0.0
 71
     5
 72
     1
  1
\A1;30
 73
     1
 44
1.0
1001
ACAD
1000
MTEXTBEGIN
1070
    73
1070
     1
1070
    44
1040
1.0
1070
    74
1070
     0
1000
MTEXTEND
  0
POINT
  5
133
330
12B
100
AcDbEntity
  8
Defpoints
 62
     0
100
AcDbPoint
 10
9594.866429644433
 20
-749.2924369373922
 30
0.0
  0
POINT
  5
134
330
12B
100
AcDbEntity
  8
Defpoints
 62
     0
100
AcDbPoint
 10
9624.866429644434
 20
-748.2924369373923
 30
0.0
  0
POINT
  5
135
330
12B
100
AcDbEntity
  8
Defpoints
 62
     0
100
AcDbPoint
 10
9624.866429644434
 20
-723.6951804500512
 30
0.0
  0
ENDBLK
  5
136
330
12B
100
AcDbEntity
  8
0
100
AcDbBlockEnd
  0
BLOCK
  5
142
330
141
100
AcDbEntity
  8
0
100
AcDbBlockBegin
  2
*D10
 70
     1
 10
0.0
 20
0.0
 30
0.0
  3
*D10
  1

  0
LINE
  5
143
330
141
100
AcDbEntity
  8
0
 62
   123
370
    -2
100
AcDbLine
 10
9593.866429644434
 20
-760.2924369373923
 30
0.0
 11
9570.929467883011
 21
-760.2924369373923
 31
0.0
  0
LINE
  5
144
330
141
100
AcDbEntity
  8
0
 62
   123
370
    -2
100
AcDbLine
 10
9623.866429644433
 20
-748.2924369373923
 30
0.0
 11
9570.929467883011
 21
-748.2924369373923
 31
0.0
  0
LINE
  5
145
330
141
100
AcDbEntity
  8
0
 62
   123
370
    -2
100
AcDbLine
 10
9571.529467883012
 20
-756.2924369373923
 30
0.0
 11
9571.529467883012
 21
-752.2924369373923
 31
0.0
  0
SOLID
  5
146
330
141
100
AcDbEntity
  8
0
 62
   123
100
AcDbTrace
 10
9570.862801216346
 20
-756.2924369373923
 30
0.0
 11
9572.196134549676
 21
-756.2924369373923
 31
0.0
 12
9571.529467883012
 22
-760.2924369373923
 32
0.0
 13
9571.529467883012
 23
-760.2924369373923
 33
0.0
  0
SOLID
  5
147
330
141
100
AcDbEntity
  8
0
 62
   123
100
AcDbTrace
 10
9570.862801216346
 20
-752.2924369373923
 30
0.0
 11
9572.196134549676
 21
-752.2924369373923
 31
0.0
 12
9571.529467883012
 22
-748.2924369373923
 32
0.0
 13
9571.529467883012
 23
-748.2924369373923
 33
0.0
  0
MTEXT
  5
148
330
141
100
AcDbEntity
  8
0
 62
     3
100
AcDbMText
 10
9565.112551216348
 20
-754.2924369373905
 30
0.0
 40
5.0
 41
0.0
 71
     5
 72
     1
  1
\A1;\A1;{\f??|b0|i0|c0|p49;%%C}12{\f??|b0|i0|c0|p49;\H0.7x;\S+0^ -0.018;\H1.429x;(h}7{\f??|b0|i0|c0|p49;)}
 11
0.0000000000000001
 21
1.0
 31
0.0
 73
     1
 44
1.0
1001
ACAD
1000
MTEXTBEGIN
1070
    73
1070
     1
1070
    44
1040
1.0
1070
    74
1070
     0
1000
MTEXTEND
  0
POINT
  5
149
330
141
100
AcDbEntity
  8
Defpoints
 62
     0
100
AcDbPoint
 10
9594.866429644433
 20
-760.2924369373923
 30
0.0
  0
POINT
  5
14A
330
141
100
AcDbEntity
  8
Defpoints
 62
     0
100
AcDbPoint
 10
9624.866429644434
 20
-748.2924369373923
 30
0.0
  0
POINT
  5
14B
330
141
100
AcDbEntity
  8
Defpoints
 62
     0
100
AcDbPoint
 10
9571.529467883012
 20
-748.2924369373923
 30
0.0
  0
ENDBLK
  5
14C
330
141
100
AcDbEntity
  8
0
100
AcDbBlockEnd
  0
BLOCK
  5
151
330
150
100
AcDbEntity
  8
0
100
AcDbBlockBegin
  2
*D11
 70
     1
 10
0.0
 20
0.0
 30
0.0
  3
*D11
  1

  0
LINE
  5
152
330
150
100
AcDbEntity
  8
0
 62
   123
370
    -2
100
AcDbLine
 10
9628.866429644434
 20
-712.7924369373922
 30
0.0
 11
9555.534864654893
 21
-712.7924369373922
 31
0.0
  0
LINE
  5
153
330
150
100
AcDbEntity
  8
0
 62
   123
370
    -2
100
AcDbLine
 10
9628.866429644434
 20
-795.7924369373922
 30
0.0
 11
9555.534864654893
 21
-795.7924369373922
 31
0.0
  0
LINE
  5
154
330
150
100
AcDbEntity
  8
0
 62
   123
370
    -2
100
AcDbLine
 10
9556.134864654897
 20
-716.7924369373922
 30
0.0
 11
9556.134864654897
 21
-791.7924369373922
 31
0.0
  0
SOLID
  5
155
330
150
100
AcDbEntity
  8
0
 62
   123
100
AcDbTrace
 10
9555.468197988231
 20
-716.7924369373922
 30
0.0
 11
9556.801531321562
 21
-716.7924369373922
 31
0.0
 12
9556.134864654897
 22
-712.7924369373922
 32
0.0
 13
9556.134864654897
 23
-712.7924369373922
 33
0.0
  0
SOLID
  5
156
330
150
100
AcDbEntity
  8
0
 62
   123
100
AcDbTrace
 10
9555.468197988231
 20
-791.7924369373922
 30
0.0
 11
9556.801531321562
 21
-791.7924369373922
 31
0.0
 12
9556.134864654897
 22
-795.7924369373922
 32
0.0
 13
9556.134864654897
 23
-795.7924369373922
 33
0.0
  0
MTEXT
  5
157
330
150
100
AcDbEntity
  8
0
 62
     3
100
AcDbMText
 10
9549.717947988227
 20
-752.9274803046408
 30
0.0
 40
5.0
 41
0.0
 71
     5
 72
     1
  1
\A1;\A1;{\f??|b0|i0|c0|p49;%%C}83{\f??|b0|i0|c0|p49;\H0.7x;\S+0^ -0.035;\H1.429x;(h}7{\f??|b0|i0|c0|p49;)}
 11
0.0000000000000001
 21
1.0
 31
0.0
 73
     1
 44
1.0
1001
ACAD
1000
MTEXTBEGIN
1070
    73
1070
     1
1070
    44
1040
1.0
1070
    74
1070
     0
1000
MTEXTEND
  0
POINT
  5
158
330
150
100
AcDbEntity
  8
Defpoints
 62
     0
100
AcDbPoint
 10
9629.866429644433
 20
-712.7924369373922
 30
0.0
  0
POINT
  5
159
330
150
100
AcDbEntity
  8
Defpoints
 62
     0
100
AcDbPoint
 10
9629.866429644433
 20
-795.7924369373922
 30
0.0
  0
POINT
  5
15A
330
150
100
AcDbEntity
  8
Defpoints
 62
     0
100
AcDbPoint
 10
9556.134864654897
 20
-795.7924369373922
 30
0.0
  0
ENDBLK
  5
15B
330
150
100
AcDbEntity
  8
0
100
AcDbBlockEnd
  0
ENDSEC
  0
SECTION
  2
ENTITIES
  0
LEADER
  5
64
330
2
100
AcDbEntity
  8
0
100
AcDbLeader
  3
STANDARD
 76
     2
 10
9516.902612844296
 20
-714.3732624845852
 30
0.0
 10
9507.112629901362
 20
-688.2069634585623
 30
0.0
1001
ACAD
1000
DSTYLE
1002
{
1070
     5
1000

1002
}
  0
ARC
  5
65
330
2
100
AcDbEntity
  8
0
 48
0.6
100
AcDbCircle
 10
9495.02023362179
 20
-724.0552870213194
 30
0.0
 40
3.067967999999998
100
AcDbArc
 50
63.63432749696089
 51
128.0513255192952
  0
ARC
  5
66
330
2
100
AcDbEntity
  8
0
 48
0.6
100
AcDbCircle
 10
9495.02023362179
 20
-784.5295868534576
 30
0.0
 40
3.067967999999998
100
AcDbArc
 50
231.9486744807048
 51
296.3656725030391
  0
MTEXT
  5
67
102
{ACAD_REACTORS
330
64
102
}
330
2
100
AcDbEntity
  8
0
 62
     3
100
AcDbMText
 10
9506.112629901359
 20
-687.2069634585622
 30
0.0
 40
5.0
 41
0.0
 71
     9
 72
     1
  1
4-%%C6.5 hole
 73
     1
 44
1.0
1001
ACAD
1000
MTEXTBEGIN
1070
    73
1070
     1
1070
    44
1040
1.0
1070
    74
1070
     0
1000
MTEXTEND
  0
DIMENSION
  5
68
330
2
100
AcDbEntity
  8
0
100
AcDbDimension
  2
*D0
 10
9525.108419647869
 20
-675.2181358827492
 30
0.0
 11
9480.108419647867
 21
-675.2181358827492
 31
0.0
 70
   128
 71
     5
 42
-1.0
  3
STANDARD
100
AcDbAlignedDimension
 13
9435.108419647868
 23
-714.3352306961879
 33
0.0
 14
9525.108419647869
 24
-714.3352306961879
 34
0.0
100
AcDbRotatedDimension
  0
LINE
  5
76
330
2
100
AcDbEntity
  8
0
  6
CENTER
 62
     1
 48
0.6
100
AcDbLine
 10
9430.855143433465
 20
-754.2924369373922
 30
0.0
 11
9529.361695862265
 21
-754.2924369373922
 31
0.0
  0
CIRCLE
  5
78
330
2
100
AcDbEntity
  8
0
 48
0.6
100
AcDbCircle
 10
9480.108419647867
 20
-754.2924369373922
 30
0.0
 40
43.5
  0
CIRCLE
  5
79
330
2
100
AcDbEntity
  8
0
 48
0.6
100
AcDbCircle
 10
9480.108419647867
 20
-754.2924369373922
 30
0.0
 40
42.00000000000005
  0
CIRCLE
  5
7A
330
2
100
AcDbEntity
  8
0
 48
0.6
100
AcDbCircle
 10
9480.108419647867
 20
-754.2924369373922
 30
0.0
 40
20.0
  0
LINE
  5
7B
330
2
100
AcDbEntity
  8
0
  6
CENTER
 62
     1
 48
0.6
100
AcDbLine
 10
9480.108419647867
 20
-806.0618709833779
 30
0.0
 11
9480.108419647867
 21
-702.5230028914066
 31
0.0
  0
ARC
  5
7C
330
2
100
AcDbEntity
  8
0
 48
0.6
100
AcDbCircle
 10
9449.795805417618
 20
-769.2797152254915
 30
0.0
 40
3.067967999999998
100
AcDbArc
 50
141.9486744805824
 51
206.3656725032692
  0
ARC
  5
7D
330
2
100
AcDbEntity
  8
0
 48
0.6
100
AcDbCircle
 10
9465.045677045585
 20
-784.5295868534576
 30
0.0
 40
3.067967999999998
100
AcDbArc
 50
243.6343274969609
 51
308.0513255192952
  0
ARC
  5
7E
330
2
100
AcDbEntity
  8
0
 48
0.6
100
AcDbCircle
 10
9480.03295533369
 20
-754.2924369373922
 30
0.0
 40
36.81561599999999
100
AcDbArc
 50
206.3656725032692
 51
243.6343274969609
  0
ARC
  5
7F
330
2
100
AcDbEntity
  8
0
 48
0.6
100
AcDbCircle
 10
9480.03295533369
 20
-754.2924369373922
 30
0.0
 40
33.74764799999999
100
AcDbArc
 50
252.2801918471402
 51
287.7198081528598
  0
ARC
  5
80
330
2
100
AcDbEntity
  8
0
 48
0.6
100
AcDbCircle
 10
9468.827666293625
 20
-789.3613844406772
 30
0.0
 40
3.067967999999998
100
AcDbArc
 50
72.28019184714018
 51
128.0513255192952
  0
ARC
  5
81
330
2
100
AcDbEntity
  8
0
 48
0.6
100
AcDbCircle
 10
9491.23824437375
 20
-789.3613844406772
 30
0.0
 40
3.067967999999998
100
AcDbArc
 50
51.94867448070478
 51
107.7198081528598
  0
ARC
  5
82
330
2
100
AcDbEntity
  8
0
 48
0.6
100
AcDbCircle
 10
9465.045677045585
 20
-724.0552870213194
 30
0.0
 40
3.067967999999998
100
AcDbArc
 50
51.94867448070478
 51
116.3656725030391
  0
ARC
  5
83
330
2
100
AcDbEntity
  8
0
 48
0.6
100
AcDbCircle
 10
9449.795805417618
 20
-739.3051586492929
 30
0.0
 40
3.067967999999998
100
AcDbArc
 50
153.6343274967307
 51
218.0513255194175
  0
ARC
  5
84
330
2
100
AcDbEntity
  8
0
 48
0.6
100
AcDbCircle
 10
9480.03295533369
 20
-754.2924369373922
 30
0.0
 40
33.74764799999999
100
AcDbArc
 50
162.2801918475229
 51
197.719808152477
  0
ARC
  5
85
330
2
100
AcDbEntity
  8
0
 48
0.6
100
AcDbCircle
 10
9444.964007830405
 20
-765.4977259774588
 30
0.0
 40
3.067967999999998
100
AcDbArc
 50
321.9486744805824
 51
17.71980815247704
  0
ARC
  5
86
330
2
100
AcDbEntity
  8
0
 48
0.6
100
AcDbCircle
 10
9444.964007830405
 20
-743.0871478973259
 30
0.0
 40
3.067967999999998
100
AcDbArc
 50
342.280191847523
 51
38.05132551941755
  0
ARC
  5
87
330
2
100
AcDbEntity
  8
0
 48
0.6
100
AcDbCircle
 10
9480.03295533369
 20
-754.2924369373922
 30
0.0
 40
36.81561599999999
100
AcDbArc
 50
116.3656725030391
 51
153.6343274967307
  0
CIRCLE
  5
88
330
2
100
AcDbEntity
  8
0
 48
0.6
100
AcDbCircle
 10
9480.108419647867
 20
-754.2924369373922
 30
0.0
 40
6.0
  0
LINE
  5
89
330
2
100
AcDbEntity
  8
0
 48
0.6
100
AcDbLine
 10
9476.791794857509
 20
-749.2924369373922
 30
0.0
 11
9483.425044438224
 21
-749.2924369373922
 31
0.0
  0
ARC
  5
8A
330
2
100
AcDbEntity
  8
0
 48
0.6
100
AcDbCircle
 10
9480.03295533369
 20
-754.2924369373922
 30
0.0
 40
33.74764799999999
100
AcDbArc
 50
72.28019184714018
 51
107.7198081528598
  0
ARC
  5
8B
330
2
100
AcDbEntity
  8
0
 48
0.6
100
AcDbCircle
 10
9468.827666293625
 20
-719.2234894341072
 30
0.0
 40
3.067967999999998
100
AcDbArc
 50
231.9486744807048
 51
287.7198081528598
  0
ARC
  5
8C
330
2
100
AcDbEntity
  8
0
 48
0.6
100
AcDbCircle
 10
9491.23824437375
 20
-719.2234894341072
 30
0.0
 40
3.067967999999998
100
AcDbArc
 50
252.2801918471402
 51
308.0513255192952
  0
LINE
  5
8D
330
2
100
AcDbEntity
  8
0
 62
     3
100
AcDbLine
 10
9470.747819718438
 20
-673.3487166297837
 30
0.0
 11
9474.377819718437
 21
-673.3487166297837
 31
0.0
  0
LINE
  5
8E
330
2
100
AcDbEntity
  8
0
 62
     3
100
AcDbLine
 10
9474.377819718437
 20
-673.3487166297837
 30
0.0
 11
9474.377819718437
 21
-669.4987166297837
 31
0.0
  0
LINE
  5
8F
330
2
100
AcDbEntity
  8
0
 62
     3
100
AcDbLine
 10
9474.377819718437
 20
-669.4987166297837
 30
0.0
 11
9470.747819718438
 21
-669.4987166297837
 31
0.0
  0
LINE
  5
90
330
2
100
AcDbEntity
  8
0
 62
     3
100
AcDbLine
 10
9470.747819718438
 20
-669.4987166297837
 30
0.0
 11
9470.747819718438
 21
-673.3487166297837
 31
0.0
  0
ARC
  5
91
330
2
100
AcDbEntity
  8
0
 48
0.6
100
AcDbCircle
 10
9510.270105249757
 20
-769.2797152254915
 30
0.0
 40
3.067967999999998
100
AcDbArc
 50
333.6343274967307
 51
38.05132551941755
  0
ARC
  5
92
330
2
100
AcDbEntity
  8
0
 48
0.6
100
AcDbCircle
 10
9480.03295533369
 20
-754.2924369373922
 30
0.0
 40
36.81561599999999
100
AcDbArc
 50
296.3656725030391
 51
333.6343274967307
  0
ARC
  5
93
330
2
100
AcDbEntity
  8
0
 48
0.6
100
AcDbCircle
 10
9510.270105249757
 20
-739.3051586492929
 30
0.0
 40
3.067967999999998
100
AcDbArc
 50
321.9486744805824
 51
26.36567250326927
  0
ARC
  5
94
330
2
100
AcDbEntity
  8
0
 48
0.6
100
AcDbCircle
 10
9480.03295533369
 20
-754.2924369373922
 30
0.0
 40
33.74764799999999
100
AcDbArc
 50
342.280191847523
 51
17.71980815247704
  0
ARC
  5
95
330
2
100
AcDbEntity
  8
0
 48
0.6
100
AcDbCircle
 10
9515.101902836976
 20
-765.4977259774588
 30
0.0
 40
3.067967999999998
100
AcDbArc
 50
162.2801918475229
 51
218.0513255194175
  0
ARC
  5
96
330
2
100
AcDbEntity
  8
0
 48
0.6
100
AcDbCircle
 10
9515.101902836976
 20
-743.0871478973259
 30
0.0
 40
3.067967999999998
100
AcDbArc
 50
141.9486744805824
 51
197.719808152477
  0
ARC
  5
97
330
2
100
AcDbEntity
  8
0
 48
0.6
100
AcDbCircle
 10
9480.03295533369
 20
-754.2924369373922
 30
0.0
 40
36.81561599999999
100
AcDbArc
 50
26.36567250326927
 51
63.63432749696089
  0
LINE
  5
98
330
2
100
AcDbEntity
  8
0
100
AcDbLine
 10
9440.108419647868
 20
-799.2924369373922
 30
0.0
 11
9520.108419647867
 21
-799.2924369373922
 31
0.0
  0
ARC
  5
99
330
2
100
AcDbEntity
  8
0
100
AcDbCircle
 10
9520.108419647867
 20
-794.2924369373923
 30
0.0
 40
5.0
100
AcDbArc
 50
270.0
 51
0.0
  0
LINE
  5
9A
330
2
100
AcDbEntity
  8
0
100
AcDbLine
 10
9525.108419647869
 20
-794.2924369373923
 30
0.0
 11
9525.108419647869
 21
-714.2924369373922
 31
0.0
  0
ARC
  5
9B
330
2
100
AcDbEntity
  8
0
100
AcDbCircle
 10
9520.108419647867
 20
-714.2924369373922
 30
0.0
 40
5.0
100
AcDbArc
 50
0.0
 51
90.0
  0
LINE
  5
9C
330
2
100
AcDbEntity
  8
0
100
AcDbLine
 10
9520.108419647867
 20
-709.2924369373922
 30
0.0
 11
9440.108419647868
 21
-709.2924369373922
 31
0.0
  0
ARC
  5
9D
330
2
100
AcDbEntity
  8
0
100
AcDbCircle
 10
9440.108419647868
 20
-714.2924369373922
 30
0.0
 40
5.0
100
AcDbArc
 50
90.0
 51
180.0
  0
LINE
  5
9E
330
2
100
AcDbEntity
  8
0
100
AcDbLine
 10
9435.108419647868
 20
-714.2924369373922
 30
0.0
 11
9435.108419647868
 21
-794.2924369373923
 31
0.0
  0
ARC
  5
9F
330
2
100
AcDbEntity
  8
0
100
AcDbCircle
 10
9440.108419647868
 20
-794.2924369373923
 30
0.0
 40
5.0
100
AcDbArc
 50
180.0
 51
270.0
  0
CIRCLE
  5
A0
330
2
100
AcDbEntity
  8
0
100
AcDbCircle
 10
9516.877972269567
 20
-717.5228843156927
 30
0.0
 40
3.25
  0
LINE
  5
A1
330
2
100
AcDbEntity
  8
0
  6
CENTER
 62
     1
 48
0.6
100
AcDbLine
 10
9513.165661668336
 20
-721.2351949169223
 30
0.0
 11
9520.590282870797
 21
-713.8105737144631
 31
0.0
  0
ARC
  5
A2
102
{ACAD_REACTORS
330
A5
102
}
330
2
100
AcDbEntity
  8
0
  6
CENTER
 62
     1
 48
0.6
100
AcDbCircle
 10
9480.108419647867
 20
-754.2924369373922
 30
0.0
 40
51.9999999999996
100
AcDbArc
 50
35.90024337538392
 51
54.09975662481201
  0
DIMENSION
  5
A3
102
{ACAD_XDICTIONARY
360
A4
102
}
102
{ACAD_REACTORS
330
A5
102
}
330
2
100
AcDbEntity
  8
0
100
AcDbDimension
  2
*D2
 10
9439.014340347785
 20
-786.1558430089297
 30
0.0
 11
9551.459448539151
 21
-698.9684864825467
 31
0.0
 70
   131
  1
<>%%P0.5
 71
     5
 42
-1.0
  3
STANDARD
100
AcDbDiametricDimension
 15
9521.202498947941
 25
-722.4290308658601
 35
0.0
 40
0.0
1001
ACAD
1000
DSTYLE
1002
{
1070
   287
1070
     4
1070
   287
1070
     4
1070
   287
1070
     4
1070
   287
1070
     4
1070
   287
1070
     4
1070
   287
1070
     4
1070
   279
1070
     1
1070
   289
1070
     3
1002
}
  0
ARC
  5
B1
330
2
100
AcDbEntity
  8
0
  6
CENTER
 62
     1
 48
0.6
100
AcDbCircle
 10
9480.108419647867
 20
-754.2924369373922
 30
0.0
 40
52.0
100
AcDbArc
 50
129.2128702779146
 51
140.7871297218453
  0
LINE
  5
B2
330
2
100
AcDbEntity
  8
0
  6
CENTER
 62
     1
 48
0.6
100
AcDbLine
 10
9447.051177627399
 20
-721.2351949169223
 30
0.0
 11
9439.626556424938
 21
-713.8105737144631
 31
0.0
  0
CIRCLE
  5
B3
330
2
100
AcDbEntity
  8
0
100
AcDbCircle
 10
9443.338867026168
 20
-717.5228843156927
 30
0.0
 40
3.25
  0
LINE
  5
B4
330
2
100
AcDbEntity
  8
0
  6
CENTER
 62
     1
 48
0.6
100
AcDbLine
 10
9447.051177627399
 20
-787.3496789578621
 30
0.0
 11
9439.626556424938
 21
-794.7743001603212
 31
0.0
  0
CIRCLE
  5
B5
330
2
100
AcDbEntity
  8
0
100
AcDbCircle
 10
9443.338867026168
 20
-791.0619895590916
 30
0.0
 40
3.25
  0
ARC
  5
B6
330
2
100
AcDbEntity
  8
0
  6
CENTER
 62
     1
 48
0.6
100
AcDbCircle
 10
9480.108419647867
 20
-754.2924369373922
 30
0.0
 40
51.9999999999996
100
AcDbArc
 50
215.9002433753839
 51
234.099756624812
  0
ARC
  5
B7
330
2
100
AcDbEntity
  8
0
  6
CENTER
 62
     1
 48
0.6
100
AcDbCircle
 10
9480.108419647867
 20
-754.2924369373922
 30
0.0
 40
52.0
100
AcDbArc
 50
309.2128702779147
 51
320.7871297218452
  0
LINE
  5
B8
330
2
100
AcDbEntity
  8
0
  6
CENTER
 62
     1
 48
0.6
100
AcDbLine
 10
9513.165661668336
 20
-787.3496789578621
 30
0.0
 11
9520.590282870797
 21
-794.7743001603212
 31
0.0
  0
CIRCLE
  5
B9
330
2
100
AcDbEntity
  8
0
100
AcDbCircle
 10
9516.877972269567
 20
-791.0619895590916
 30
0.0
 40
3.25
  0
LINE
  5
BA
330
2
100
AcDbEntity
  8
0
  6
CENTER
 62
     1
 48
0.6
100
AcDbLine
 10
9498.74802995466
 20
-799.2924369373778
 30
0.0
 11
9480.108419647859
 21
-754.2924369373849
 31
0.0
  0
DIMENSION
  5
BB
330
2
100
AcDbEntity
  8
0
 48
0.6
100
AcDbDimension
  2
*D1
 10
9480.102201976972
 20
-700.6836890530301
 30
0.0
 11
9493.3669179906
 21
-820.9795201303611
 31
0.0
 70
     2
  1
<>
 71
     5
 42
-1.0
  3
STANDARD
100
AcDb2LineAngularDimension
 13
9480.102201976972
 23
-754.3138338167826
 33
0.0
 14
9498.74802995466
 24
-799.3138338167755
 34
0.0
 15
9480.102201976972
 25
-807.9439785805352
 35
0.0
 16
9489.561482706852
 26
-826.1423852379657
 36
0.0
1001
ACAD
1000
DSTYLE
1002
{
1070
   271
1070
     1
1070
   271
1070
     1
1070
   271
1070
     1
1070
   271
1070
     1
1070
   271
1070
     1
1070
   271
1070
     1
1070
   271
1070
     1
1002
}
  0
LINE
  5
CA
330
2
100
AcDbEntity
  8
0
 62
   123
100
AcDbLine
 10
9507.112629901362
 20
-688.2069634585623
 30
0.0
 11
9460.519538966996
 21
-688.2069634585623
 31
0.0
  0
DIMENSION
  5
CB
330
2
100
AcDbEntity
  8
0
100
AcDbDimension
  2
*D3
 10
9830.751812681626
 20
-800.1126236484287
 30
0.0
 11
9830.751812681626
 21
-754.1126236484251
 31
0.0
 70
   128
 71
     5
 42
-1.0
  3
STANDARD
100
AcDbAlignedDimension
 13
9808.86535184508
 23
-708.1126236484251
 33
0.0
 14
9808.86535184508
 24
-800.1126236484287
 34
0.0
 50
90.0
100
AcDbRotatedDimension
  0
LINE
  5
D8
330
2
100
AcDbEntity
  8
0
  6
CENTER
 62
     1
100
AcDbLine
 10
9818.745707536825
 20
-754.2924369373922
 30
0.0
 11
9587.016433095099
 21
-754.2924369373922
 31
0.0
  0
LINE
  5
D9
330
2
100
AcDbEntity
  8
0
100
AcDbLine
 10
9752.20646435212
 20
-730.842494696424
 30
0.0
 11
9810.86535184508
 21
-730.842494696424
 31
0.0
  0
LINE
  5
DA
330
2
100
AcDbEntity
  8
0
100
AcDbLine
 10
9807.86535184508
 20
-708.1126236484251
 30
0.0
 11
9752.20646435212
 21
-708.1126236484287
 31
0.0
  0
ARC
  5
DB
330
2
100
AcDbEntity
  8
0
100
AcDbCircle
 10
9807.86535184508
 20
-711.1126236484251
 30
0.0
 40
3.0
100
AcDbArc
 50
0.0
 51
90.0
  0
LINE
  5
DC
330
2
100
AcDbEntity
  8
0
100
AcDbLine
 10
9807.86535184508
 20
-800.1126236484287
 30
0.0
 11
9752.20646435212
 21
-800.1126236484287
 31
0.0
  0
ARC
  5
DD
330
2
100
AcDbEntity
  8
0
100
AcDbCircle
 10
9807.86535184508
 20
-797.1126236484288
 30
0.0
 40
3.0
100
AcDbArc
 50
270.0
 51
0.0
  0
LINE
  5
DE
330
2
100
AcDbEntity
  8
0
100
AcDbLine
 10
9752.20646435212
 20
-777.3827526004297
 30
0.0
 11
9810.86535184508
 21
-777.3827526004334
 31
0.0
  0
LINE
  5
DF
330
2
100
AcDbEntity
  8
0
100
AcDbLine
 10
9810.86535184508
 20
-711.1126236484251
 30
0.0
 11
9810.86535184508
 21
-797.1126236484288
 31
0.0
  0
LINE
  5
E0
330
2
100
AcDbEntity
  8
0
100
AcDbLine
 10
9752.20646435212
 20
-708.1126236484287
 30
0.0
 11
9752.20646435212
 21
-800.1126236484287
 31
0.0
  0
DIMENSION
  5
E1
102
{ACAD_XDICTIONARY
360
E2
102
}
102
{ACAD_REACTORS
330
E3
102
}
330
2
100
AcDbEntity
  8
0
100
AcDbDimension
  2
*D6
 10
9639.366429644432
 20
-689.3627588614326
 30
0.0
 11
9654.104524882528
 21
-689.3627588614326
 31
0.0
 70
   128
 71
     5
 42
-1.0
  3
STANDARD
100
AcDbAlignedDimension
 13
9631.866429644434
 23
-709.08410360406
 33
0.0
 14
9639.366429644432
 24
-710.6936995958623
 34
0.0
100
AcDbRotatedDimension
  0
DIMENSION
  5
F2
330
2
100
AcDbEntity
  8
0
100
AcDbDimension
  2
*D4
 10
9631.866429644434
 20
-699.5542000130281
 30
0.0
 11
9618.699762977763
 21
-699.5542000130281
 31
0.0
 70
   128
 71
     5
 42
-1.0
  3
STANDARD
100
AcDbAlignedDimension
 13
9629.866429644433
 23
-712.7924369373922
 33
0.0
 14
9631.866429644434
 24
-709.2924369373922
 34
0.0
100
AcDbRotatedDimension
  0
DIMENSION
  5
101
102
{ACAD_XDICTIONARY
360
102
102
}
102
{ACAD_REACTORS
330
103
102
}
330
2
100
AcDbEntity
  8
0
100
AcDbDimension
  2
*D7
 10
9631.866429644434
 20
-676.8588186484612
 30
0.0
 11
9615.116429644434
 21
-676.8588186484612
 31
0.0
 70
   128
 71
     5
 42
-1.0
  3
STANDARD
100
AcDbAlignedDimension
 13
9594.866429644433
 23
-749.2924369373922
 33
0.0
 14
9631.866429644434
 24
-709.08410360406
 34
0.0
100
AcDbRotatedDimension
  0
LINE
  5
110
330
2
100
AcDbEntity
  8
0
100
AcDbLine
 10
9639.366429644432
 20
-718.3936995958629
 30
0.0
 11
9639.366429644432
 21
-710.6936995958623
 31
0.0
  0
LINE
  5
111
330
2
100
AcDbEntity
  8
0
100
AcDbLine
 10
9631.866429644434
 20
-712.7924369373922
 30
0.0
 11
9629.866429644433
 21
-712.7924369373922
 31
0.0
  0
LINE
  5
112
330
2
100
AcDbEntity
  8
0
100
AcDbLine
 10
9631.866429644434
 20
-709.2924369373922
 30
0.0
 11
9752.20646435212
 21
-709.2924369373922
 31
0.0
  0
LINE
  5
113
330
2
100
AcDbEntity
  8
0
100
AcDbLine
 10
9638.466429644434
 20
-718.3936995958629
 30
0.0
 11
9639.366429644432
 21
-718.3936995958629
 31
0.0
  0
LINE
  5
114
102
{ACAD_REACTORS
330
E3
102
}
330
2
100
AcDbEntity
  8
0
100
AcDbLine
 10
9638.466429644434
 20
-710.6936995958623
 30
0.0
 11
9639.366429644432
 21
-710.6936995958623
 31
0.0
  0
LINE
  5
115
330
2
100
AcDbEntity
  8
0
100
AcDbLine
 10
9624.866429644434
 20
-748.2924369373923
 30
0.0
 11
9624.866429644434
 21
-749.2924369373922
 31
0.0
  0
LINE
  5
116
102
{ACAD_REACTORS
330
12A
330
140
102
}
330
2
100
AcDbEntity
  8
0
100
AcDbLine
 10
9629.866429644433
 20
-748.2924369373923
 30
0.0
 11
9624.866429644434
 21
-748.2924369373923
 31
0.0
  0
LINE
  5
117
330
2
100
AcDbEntity
  8
0
100
AcDbLine
 10
9594.866429644433
 20
-749.2924369373922
 30
0.0
 11
9594.866429644433
 21
-760.2924369373923
 31
0.0
  0
DIMENSION
  5
118
102
{ACAD_XDICTIONARY
360
119
102
}
102
{ACAD_REACTORS
330
11A
102
}
330
2
100
AcDbEntity
  8
0
100
AcDbDimension
  2
*D8
 10
9582.39794876372
 20
-749.2924369373922
 30
0.0
 11
9582.39794876372
 21
-754.7924369373922
 31
0.0
 70
   128
  1
<>
 71
     5
 42
-1.0
  3
STANDARD
100
AcDbAlignedDimension
 13
9594.866429644433
 23
-760.2924369373923
 33
0.0
 14
9594.866429644433
 24
-749.2924369373922
 34
0.0
 50
90.0
100
AcDbRotatedDimension
  0
LINE
  5
127
102
{ACAD_REACTORS
330
12A
330
11A
330
103
102
}
330
2
100
AcDbEntity
  8
0
100
AcDbLine
 10
9624.866429644434
 20
-749.2924369373922
 30
0.0
 11
9594.866429644433
 21
-749.2924369373922
 31
0.0
  0
DIMENSION
  5
128
102
{ACAD_XDICTIONARY
360
129
102
}
102
{ACAD_REACTORS
330
12A
102
}
330
2
100
AcDbEntity
  8
0
100
AcDbDimension
  2
*D9
 10
9624.866429644434
 20
-723.6951804500512
 30
0.0
 11
9611.125114008933
 21
-723.6951804500512
 31
0.0
 70
   128
 71
     5
 42
-1.0
  3
STANDARD
100
AcDbAlignedDimension
 13
9594.866429644433
 23
-749.2924369373922
 33
0.0
 14
9624.866429644434
 24
-748.2924369373923
 34
0.0
100
AcDbRotatedDimension
  0
LINE
  5
137
102
{ACAD_REACTORS
330
11A
330
140
102
}
330
2
100
AcDbEntity
  8
0
100
AcDbLine
 10
9629.866429644433
 20
-760.2924369373923
 30
0.0
 11
9594.866429644433
 21
-760.2924369373923
 31
0.0
  0
LINE
  5
138
330
2
100
AcDbEntity
  8
0
100
AcDbLine
 10
9638.466429644434
 20
-790.1911742789216
 30
0.0
 11
9639.366429644432
 21
-790.1911742789216
 31
0.0
  0
LINE
  5
139
330
2
100
AcDbEntity
  8
0
100
AcDbLine
 10
9639.366429644432
 20
-790.1911742789216
 30
0.0
 11
9639.366429644432
 21
-797.8911742789222
 31
0.0
  0
LINE
  5
13A
330
2
100
AcDbEntity
  8
0
100
AcDbLine
 10
9631.866429644434
 20
-799.2924369373922
 30
0.0
 11
9647.178448301884
 21
-799.2924369373922
 31
0.0
  0
LINE
  5
13B
330
2
100
AcDbEntity
  8
0
100
AcDbLine
 10
9652.393220557913
 20
-799.2924369373922
 30
0.0
 11
9752.20646435212
 21
-799.2924369373922
 31
0.0
  0
LINE
  5
13C
330
2
100
AcDbEntity
  8
0
100
AcDbLine
 10
9631.866429644434
 20
-795.7924369373922
 30
0.0
 11
9629.866429644433
 21
-795.7924369373922
 31
0.0
  0
LINE
  5
13D
330
2
100
AcDbEntity
  8
0
100
AcDbLine
 10
9638.466429644434
 20
-797.8911742789222
 30
0.0
 11
9639.366429644432
 21
-797.8911742789222
 31
0.0
  0
DIMENSION
  5
13E
102
{ACAD_XDICTIONARY
360
13F
102
}
102
{ACAD_REACTORS
330
140
102
}
330
2
100
AcDbEntity
  8
0
100
AcDbDimension
  2
*D10
 10
9571.529467883012
 20
-748.2924369373923
 30
0.0
 11
9571.529467883012
 21
-754.2924369373905
 31
0.0
 70
   128
  1
\A1;{\f??|b0|i0|c0|p49;%%C}12{\f??|b0|i0|c0|p49;\H0.7x;\S+0^ -0.018;\H1.429x;(h}7{\f??|b0|i0|c0|p49;)}
 71
     5
 42
-1.0
  3
STANDARD
100
AcDbAlignedDimension
 13
9594.866429644433
 23
-760.2924369373923
 33
0.0
 14
9624.866429644434
 24
-748.2924369373923
 34
0.0
 50
90.0
100
AcDbRotatedDimension
  0
DIMENSION
  5
14D
102
{ACAD_XDICTIONARY
360
14E
102
}
102
{ACAD_REACTORS
330
14F
102
}
330
2
100
AcDbEntity
  8
0
100
AcDbDimension
  2
*D11
 10
9556.134864654897
 20
-795.7924369373922
 30
0.0
 11
9556.134864654897
 21
-752.9274803046408
 31
0.0
 70
   128
  1
\A1;{\f??|b0|i0|c0|p49;%%C}<>{\f??|b0|i0|c0|p49;\H0.7x;\S+0^ -0.035;\H1.429x;(h}7{\f??|b0|i0|c0|p49;)}
 71
     5
 42
-1.0
  3
STANDARD
100
AcDbAlignedDimension
 13
9629.866429644433
 23
-712.7924369373922
 33
0.0
 14
9629.866429644433
 24
-795.7924369373922
 34
0.0
 50
90.0
100
AcDbRotatedDimension
  0
LINE
  5
15C
330
2
100
AcDbEntity
  8
0
100
AcDbLine
 10
9631.866429644434
 20
-709.2924369373922
 30
0.0
 11
9631.866429644434
 21
-799.2924369373922
 31
0.0
  0
LINE
  5
15D
102
{ACAD_REACTORS
330
14F
102
}
330
2
100
AcDbEntity
  8
0
100
AcDbLine
 10
9629.866429644433
 20
-712.7924369373922
 30
0.0
 11
9629.866429644433
 21
-795.7924369373922
 31
0.0
  0
LINE
  5
15E
330
2
100
AcDbEntity
  8
0
100
AcDbLine
 10
9638.466429644434
 20
-709.2924369373922
 30
0.0
 11
9638.466429644434
 21
-799.2924369373922
 31
0.0
  0
DIMENSION
  5
15F
330
2
100
AcDbEntity
  8
0
100
AcDbDimension
  2
*D5
 10
9810.86535184508
 20
-676.8588186484612
 30
0.0
 11
9720.865890744756
 21
-676.8588186484612
 31
0.0
 70
   128
  1
M
 71
     5
 42
-1.0
  3
STANDARD
100
AcDbAlignedDimension
 13
9631.866429644434
 23
-709.2924369373922
 33
0.0
 14
9810.86535184508
 24
-711.1126236484251
 34
0.0
100
AcDbRotatedDimension
  0
CIRCLE
  5
16C
330
2
100
AcDbEntity
  8
0
100
AcDbCircle
 10
9757.206464352124
 20
-754.1126236484288
 30
0.0
 40
3.0
  0
ARC
  5
16D
330
2
100
AcDbEntity
  8
0
100
AcDbCircle
 10
9758.170750066406
 20
-753.1483379341424
 30
0.0
 40
0.5357142857142857
100
AcDbArc
 50
180.0
 51
270.0
  0
ARC
  5
16E
330
2
100
AcDbEntity
  8
0
100
AcDbCircle
 10
9756.242178637837
 20
-753.1483379341424
 30
0.0
 40
0.5357142857142857
100
AcDbArc
 50
270.0
 51
0.0
  0
LINE
  5
16F
330
2
100
AcDbEntity
  8
0
100
AcDbLine
 10
9758.170750066406
 20
-753.6840522198563
 30
0.0
 11
9758.920750066408
 21
-753.6840522198563
 31
0.0
  0
ARC
  5
170
330
2
100
AcDbEntity
  8
0
100
AcDbCircle
 10
9758.170750066406
 20
-755.076909362715
 30
0.0
 40
0.5357142857142857
100
AcDbArc
 50
90.0
 51
180.0
  0
LINE
  5
171
330
2
100
AcDbEntity
  8
0
100
AcDbLine
 10
9758.170750066406
 20
-754.5411950770011
 30
0.0
 11
9758.920750066408
 21
-754.5411950770011
 31
0.0
  0
LINE
  5
172
330
2
100
AcDbEntity
  8
0
100
AcDbLine
 10
9757.635035780696
 20
-755.826909362715
 30
0.0
 11
9757.635035780696
 21
-755.076909362715
 31
0.0
  0
LINE
  5
173
330
2
100
AcDbEntity
  8
0
100
AcDbLine
 10
9758.920750066408
 20
-753.6840522198563
 30
0.0
 11
9758.920750066408
 21
-754.5411950770011
 31
0.0
  0
ARC
  5
174
330
2
100
AcDbEntity
  8
0
100
AcDbCircle
 10
9756.242178637837
 20
-755.076909362715
 30
0.0
 40
0.5357142857142857
100
AcDbArc
 50
0.0
 51
90.0
  0
LINE
  5
175
330
2
100
AcDbEntity
  8
0
100
AcDbLine
 10
9755.492178637837
 20
-753.6840522198563
 30
0.0
 11
9756.242178637837
 21
-753.6840522198563
 31
0.0
  0
LINE
  5
176
330
2
100
AcDbEntity
  8
0
100
AcDbLine
 10
9755.492178637837
 20
-754.5411950770011
 30
0.0
 11
9756.242178637837
 21
-754.5411950770011
 31
0.0
  0
LINE
  5
177
330
2
100
AcDbEntity
  8
0
100
AcDbLine
 10
9755.492178637837
 20
-753.6840522198563
 30
0.0
 11
9755.492178637837
 21
-754.5411950770011
 31
0.0
  0
LINE
  5
178
330
2
100
AcDbEntity
  8
0
100
AcDbLine
 10
9756.777892923549
 20
-755.826909362715
 30
0.0
 11
9756.777892923549
 21
-755.076909362715
 31
0.0
  0
LINE
  5
179
330
2
100
AcDbEntity
  8
0
100
AcDbLine
 10
9756.777892923549
 20
-755.826909362715
 30
0.0
 11
9757.635035780696
 21
-755.826909362715
 31
0.0
  0
LINE
  5
17A
330
2
100
AcDbEntity
  8
0
100
AcDbLine
 10
9757.635035780696
 20
-753.1483379341424
 30
0.0
 11
9757.635035780696
 21
-752.3983379341424
 31
0.0
  0
LINE
  5
17B
330
2
100
AcDbEntity
  8
0
100
AcDbLine
 10
9756.777892923549
 20
-753.1483379341424
 30
0.0
 11
9756.777892923549
 21
-752.3983379341424
 31
0.0
  0
LINE
  5
17C
330
2
100
AcDbEntity
  8
0
100
AcDbLine
 10
9756.777892923549
 20
-752.3983379341424
 30
0.0
 11
9757.635035780696
 21
-752.3983379341424
 31
0.0
  0
LINE
  5
17D
330
2
100
AcDbEntity
  8
0
 62
   123
 48
0.6
100
AcDbLine
 10
9711.231959543461
 20
-831.5659514714807
 30
0.0
 11
9825.038331384988
 21
-831.5659514714807
 31
0.0
  0
LINE
  5
17E
330
2
100
AcDbEntity
  8
0
 62
   123
100
AcDbLine
 10
9612.939286492952
 20
-853.4491063371261
 30
0.0
 11
9723.964674521486
 21
-853.4491063371261
 31
0.0
  0
LEADER
  5
17F
330
2
100
AcDbEntity
  8
0
 48
0.6
100
AcDbLeader
  3
STANDARD
 76
     2
 10
9724.577937360038
 20
-794.0555513505587
 30
0.0
 10
9711.231959543461
 20
-831.5659514714807
 30
0.0
1001
ACAD
1000
DSTYLE
1002
{
1070
     5
1000

1002
}
  0
LEADER
  5
180
330
2
100
AcDbEntity
  8
0
100
AcDbLeader
  3
STANDARD
 76
     2
 10
9641.440404847445
 20
-806.4882277753222
 30
0.0
 10
9612.939286492952
 20
-853.4491063371261
 30
0.0
1001
ACAD
1000
DSTYLE
1002
{
1070
     5
1000

1002
}
  0
MTEXT
  5
181
330
2
100
AcDbEntity
  8
0
 62
     3
100
AcDbMText
 10
9664.801249037626
 20
-859.0285697625896
 30
0.0
 40
5.0
 41
0.0
 71
     5
 72
     1
  1
UL Style 3271, AWG20
 73
     1
 44
1.0
1001
ACAD
1000
MTEXTBEGIN
1070
    73
1070
     1
1070
    44
1040
1.0
1070
    74
1070
     0
1000
MTEXTEND
  0
MTEXT
  5
182
330
2
100
AcDbEntity
  8
0
 62
     3
100
AcDbMText
 10
9764.271270689107
 20
-837.4448870374816
 30
0.0
 40
5.0
 41
0.0
 71
     5
 72
     1
  1
UL Style 3266 , AWG20
 73
     1
 44
1.0
1001
ACAD
1000
MTEXTBEGIN
1070
    73
1070
     1
1070
    44
1040
1.0
1070
    74
1070
     0
1000
MTEXTEND
  0
MTEXT
  5
183
102
{ACAD_XDICTIONARY
360
3FE
102
}
330
2
100
AcDbEntity
  8
0
 62
     3
100
AcDbMText
 10
9722.559781340708
 20
-820.6510991891683
 30
0.0
 40
5.0
 41
0.0
 71
     5
 72
     1
  1
ELECTRO-MAGNETIC BRAKE\PLEAD WIRE 300mm
 73
     1
 44
1.0
1001
ACAD
1000
MTEXTBEGIN
1070
    73
1070
     1
1070
    44
1040
1.0
1070
    74
1070
     0
1000
MTEXTEND
  0
MTEXT
  5
184
330
2
100
AcDbEntity
  8
0
 62
     3
100
AcDbMText
 10
9672.944346302685
 20
-847.9415982429037
 30
0.0
 40
5.0
 41
0.0
 71
     5
 72
     1
  1
MOTOR LEAD WIRE 300mm
 73
     1
 44
1.0
1001
ACAD
1000
MTEXTBEGIN
1070
    73
1070
     1
1070
    44
1040
1.0
1070
    74
1070
     0
1000
MTEXTEND
  0
LINE
  5
185
330
2
100
AcDbEntity
  8
0
100
AcDbLine
 10
9655.393220557913
 20
-794.6431947754917
 30
0.0
 11
9709.383265861156
 21
-794.6431947754883
 31
0.0
  0
LINE
  5
186
330
2
100
AcDbEntity
  8
0
100
AcDbLine
 10
9655.178153320072
 20
-789.6431947754917
 30
0.0
 11
9709.383265861156
 21
-789.6431947754881
 31
0.0
  0
LINE
  5
187
330
2
100
AcDbEntity
  8
0
100
AcDbLine
 10
9752.207542151474
 20
-792.0555513505587
 30
0.0
 11
9709.383265861156
 21
-792.0555513505587
 31
0.0
  0
LINE
  5
188
330
2
100
AcDbEntity
  8
0
100
AcDbLine
 10
9752.207542151474
 20
-794.0555513505587
 30
0.0
 11
9709.383265861156
 21
-794.0555513505587
 31
0.0
  0
LINE
  5
189
330
2
100
AcDbEntity
  8
0
100
AcDbLine
 10
9752.207542151474
 20
-790.0555513505588
 30
0.0
 11
9709.383265861156
 21
-790.0555513505588
 31
0.0
  0
ARC
  5
18A
330
2
100
AcDbEntity
  8
0
 48
0.6
100
AcDbCircle
 10
19271.56910815731
 20
-799.3177900776262
 30
0.0
 40
9630.131372805323
100
AcDbArc
 50
180.0057987943465
 51
180.0854738431518
  0
ARC
  5
18B
330
2
100
AcDbEntity
  8
0
 48
0.6
100
AcDbCircle
 10
17981.47927724996
 20
-799.3329057042265
 30
0.0
 40
8338.016067540399
100
AcDbArc
 50
180.0065935456831
 51
180.0986155903735
  0
ARC
  5
18C
330
2
100
AcDbEntity
  8
0
 48
0.6
100
AcDbCircle
 10
25624.73389041008
 20
-797.9761904542082
 30
0.0
 40
15979.38658124886
100
AcDbArc
 50
180.008305146539
 51
180.0563220726751
  0
ARC
  5
18D
330
2
100
AcDbEntity
  8
0
 48
0.6
100
AcDbCircle
 10
34204.73640151198
 20
-794.0742170246466
 30
0.0
 40
24557.55850761821
100
AcDbArc
 50
180.0083295739286
 51
180.0457520545317
  0
ARC
  5
18E
330
2
100
AcDbEntity
  8
0
 48
0.6
100
AcDbCircle
 10
9655.178153320072
 20
-797.6431947754881
 30
0.0
 40
8.0
100
AcDbArc
 50
90.0
 51
180.0083295739286
  0
LINE
  5
18F
330
2
100
AcDbEntity
  8
0
100
AcDbLine
 10
9709.383265861156
 20
-789.6431947754881
 30
0.0
 11
9709.383265861156
 21
-794.6431947754883
 31
0.0
  0
LINE
  5
190
330
2
100
AcDbEntity
  8
0
100
AcDbLine
 10
9652.393220557913
 20
-797.6431947754917
 30
0.0
 11
9652.393220557913
 21
-813.6840145928271
 31
0.0
  0
ARC
  5
191
330
2
100
AcDbEntity
  8
0
100
AcDbCircle
 10
9655.393220557913
 20
-797.6431947754917
 30
0.0
 40
3.0
100
AcDbArc
 50
90.0
 51
180.0
  0
LINE
  5
192
330
2
100
AcDbEntity
  8
0
100
AcDbLine
 10
9640.276388266364
 20
-813.6840145928271
 30
0.0
 11
9653.404633669014
 21
-813.6840145928271
 31
0.0
  0
LINE
  5
193
330
2
100
AcDbEntity
  8
0
100
AcDbLine
 10
9640.276388266364
 20
-813.6840145928271
 30
0.0
 11
9640.276388266364
 21
-835.1958845555436
 31
0.0
  0
LINE
  5
194
330
2
100
AcDbEntity
  8
0
100
AcDbLine
 10
9653.404633669014
 20
-813.6840145928271
 30
0.0
 11
9653.404633669014
 21
-835.110276091038
 31
0.0
  0
SPLINE
  5
195
330
2
100
AcDbEntity
  8
0
100
AcDbSpline
210
0.0
220
0.0
230
1.0
 70
     8
 71
     3
 72
    11
 73
     7
 74
     0
 42
0.0000000001
 43
0.0000000001
 40
0.5894126140828729
 40
0.5894126140828729
 40
0.5894126140828729
 40
0.5894126140828729
 40
3.94622577503947
 40
7.252032053323973
 40
10.09210796370155
 40
13.81861596368982
 40
13.81861596368982
 40
13.81861596368982
 40
13.81861596368982
 10
9640.839626694534
 20
-836.0954618614906
 30
0.0
 10
9641.908757151206
 20
-836.6145446525569
 30
0.0
 10
9644.02876620997
 20
-837.4980310139887
 30
0.0
 10
9647.01444453858
 20
-835.9759506242099
 30
0.0
 10
9649.898710597561
 20
-833.928928836891
 30
0.0
 10
9652.00732157842
 20
-835.0368327782652
 30
0.0
 10
9653.207134266885
 20
-835.7069274050061
 30
0.0
  0
SPLINE
  5
196
330
2
100
AcDbEntity
  8
0
100
AcDbSpline
210
0.0
220
0.0
230
1.0
 70
     8
 71
     3
 72
     9
 73
     5
 74
     0
 42
0.0000000001
 43
0.0000000001
 40
6.313964801839686
 40
6.313964801839686
 40
6.313964801839686
 40
6.313964801840936
 40
9.154040712218515
 40
11.79142878795785
 40
11.79142878795785
 40
11.79142878795785
 40
11.79142878795785
 10
9647.121586597021
 20
-835.8174690043652
 30
0.0
 10
9647.987917296594
 20
-836.3900496627339
 30
0.0
 10
9649.600771027074
 20
-837.6189887446653
 30
0.0
 10
9651.268868867761
 20
-836.6005496927446
 30
0.0
 10
9652.753754288609
 20
-836.0473538856222
 30
0.0
  0
ARC
  5
197
330
2
100
AcDbEntity
  8
0
100
AcDbCircle
 10
9641.276388266366
 20
-835.1958845555436
 30
0.0
 40
1.0
100
AcDbArc
 50
180.0
 51
244.1025614949325
  0
ARC
  5
198
330
2
100
AcDbEntity
  8
0
100
AcDbCircle
 10
9652.404633669041
 20
-835.110276091038
 30
0.0
 40
1.0
100
AcDbArc
 50
290.432964352975
 51
0.0
  0
ARC
  5
199
330
2
100
AcDbEntity
  8
0
100
AcDbCircle
 10
9639.366429644432
 20
-799.7924369373922
 30
0.0
 40
0.5
100
AcDbArc
 50
180.0
 51
270.0
  0
LINE
  5
19A
330
2
100
AcDbEntity
  8
0
100
AcDbLine
 10
9638.866429644433
 20
-799.2924369373922
 30
0.0
 11
9638.866429644433
 21
-799.7924369373922
 31
0.0
  0
LINE
  5
19B
330
2
100
AcDbEntity
  8
0
100
AcDbLine
 10
9647.178681151586
 20
-800.2924369373923
 30
0.0
 11
9639.366429644432
 21
-800.2924369373923
 31
0.0
  0
ARC
  5
19C
330
2
100
AcDbEntity
  8
0
 48
0.6
100
AcDbCircle
 10
9598.493149529366
 20
-745.1661624629942
 30
0.0
 40
116.9686661741608
100
AcDbArc
 50
210.1560153535982
 51
216.2412691602674
  0
LINE
  5
19D
330
2
100
AcDbEntity
  8
0
100
AcDbLine
 10
9497.354940284788
 20
-803.9261105344685
 30
0.0
 11
9503.84707163033
 21
-801.0355105577382
 31
0.0
  0
ARC
  5
19E
330
2
100
AcDbEntity
  8
0
 48
0.6
100
AcDbCircle
 10
9532.264624495306
 20
-784.9818842888472
 30
0.0
 40
39.155792
100
AcDbArc
 50
201.4369589999693
 51
208.5517089162931
  0
ARC
  5
19F
330
2
100
AcDbEntity
  8
0
 48
0.6
100
AcDbCircle
 10
9464.9323339451
 20
-812.8811355542257
 30
0.0
 40
39.155792
100
AcDbArc
 50
16.65391050760614
 51
20.3064880059532
  0
ARC
  5
1A0
330
2
100
AcDbEntity
  8
0
 48
0.6
100
AcDbCircle
 10
9586.434694313304
 20
-752.3925301329927
 30
0.0
 40
95.84808274048763
100
AcDbArc
 50
210.4975034246526
 51
218.0575295674929
  0
LINE
  5
1A1
330
2
100
AcDbEntity
  8
0
100
AcDbLine
 10
9504.153861471545
 20
-814.3164885309579
 30
0.0
 11
9504.156876886659
 21
-814.3019151161769
 31
0.0
  0
LINE
  5
1A2
330
2
100
AcDbEntity
  8
0
100
AcDbLine
 10
9504.156876886659
 20
-814.3019151161769
 30
0.0
 11
9504.160425337989
 21
-814.2852554275068
 31
0.0
  0
LINE
  5
1A3
330
2
100
AcDbEntity
  8
0
100
AcDbLine
 10
9504.160425337989
 20
-814.2852554275068
 30
0.0
 11
9504.164052756165
 21
-814.268702382038
 31
0.0
  0
LINE
  5
1A4
330
2
100
AcDbEntity
  8
0
100
AcDbLine
 10
9504.164052756165
 20
-814.268702382038
 30
0.0
 11
9504.167758886444
 21
-814.2522556239073
 31
0.0
  0
LINE
  5
1A5
330
2
100
AcDbEntity
  8
0
100
AcDbLine
 10
9504.167758886444
 20
-814.2522556239073
 30
0.0
 11
9504.171543474063
 21
-814.2359147972292
 31
0.0
  0
LINE
  5
1A6
330
2
100
AcDbEntity
  8
0
100
AcDbLine
 10
9504.171543474063
 20
-814.2359147972292
 30
0.0
 11
9504.175406264259
 21
-814.2196795461405
 31
0.0
  0
LINE
  5
1A7
330
2
100
AcDbEntity
  8
0
100
AcDbLine
 10
9504.175406264259
 20
-814.2196795461405
 30
0.0
 11
9504.179347002283
 21
-814.2035495147665
 31
0.0
  0
LINE
  5
1A8
330
2
100
AcDbEntity
  8
0
100
AcDbLine
 10
9504.179347002283
 20
-814.2035495147665
 30
0.0
 11
9504.183365433377
 21
-814.1875243472295
 31
0.0
  0
LINE
  5
1A9
330
2
100
AcDbEntity
  8
0
100
AcDbLine
 10
9504.183365433377
 20
-814.1875243472295
 30
0.0
 11
9504.187461302775
 21
-814.1716036876587
 31
0.0
  0
LINE
  5
1AA
330
2
100
AcDbEntity
  8
0
100
AcDbLine
 10
9504.187461302775
 20
-814.1716036876587
 30
0.0
 11
9504.191634355725
 21
-814.155787180187
 31
0.0
  0
LINE
  5
1AB
330
2
100
AcDbEntity
  8
0
100
AcDbLine
 10
9504.191634355725
 20
-814.155787180187
 30
0.0
 11
9504.19588433747
 21
-814.1400744689363
 31
0.0
  0
LINE
  5
1AC
330
2
100
AcDbEntity
  8
0
100
AcDbLine
 10
9504.19588433747
 20
-814.1400744689363
 30
0.0
 11
9504.200210993252
 21
-814.1244651980287
 31
0.0
  0
LINE
  5
1AD
330
2
100
AcDbEntity
  8
0
100
AcDbLine
 10
9504.200210993252
 20
-814.1244651980287
 30
0.0
 11
9504.204614068312
 21
-814.1089590116006
 31
0.0
  0
LINE
  5
1AE
330
2
100
AcDbEntity
  8
0
100
AcDbLine
 10
9504.204614068312
 20
-814.1089590116006
 30
0.0
 11
9504.209093307897
 21
-814.093555553778
 31
0.0
  0
LINE
  5
1AF
330
2
100
AcDbEntity
  8
0
100
AcDbLine
 10
9504.209093307897
 20
-814.093555553778
 30
0.0
 11
9504.213648457243
 21
-814.0782544686825
 31
0.0
  0
LINE
  5
1B0
330
2
100
AcDbEntity
  8
0
100
AcDbLine
 10
9504.213648457243
 20
-814.0782544686825
 30
0.0
 11
9504.218279261598
 21
-814.0630554004438
 31
0.0
  0
LINE
  5
1B1
330
2
100
AcDbEntity
  8
0
100
AcDbLine
 10
9504.218279261598
 20
-814.0630554004438
 30
0.0
 11
9504.222985466197
 21
-814.0479579931943
 31
0.0
  0
LINE
  5
1B2
330
2
100
AcDbEntity
  8
0
100
AcDbLine
 10
9504.222985466197
 20
-814.0479579931943
 30
0.0
 11
9504.227766816294
 21
-814.0329618910525
 31
0.0
  0
LINE
  5
1B3
330
2
100
AcDbEntity
  8
0
100
AcDbLine
 10
9504.227766816294
 20
-814.0329618910525
 30
0.0
 11
9504.232623057122
 21
-814.0180667381482
 31
0.0
  0
LINE
  5
1B4
330
2
100
AcDbEntity
  8
0
100
AcDbLine
 10
9504.232623057122
 20
-814.0180667381482
 30
0.0
 11
9504.237553933929
 21
-814.0032721786173
 31
0.0
  0
LINE
  5
1B5
330
2
100
AcDbEntity
  8
0
100
AcDbLine
 10
9504.237553933929
 20
-814.0032721786173
 30
0.0
 11
9504.242559191952
 21
-813.9885778565711
 31
0.0
  0
LINE
  5
1B6
330
2
100
AcDbEntity
  8
0
100
AcDbLine
 10
9504.242559191952
 20
-813.9885778565711
 30
0.0
 11
9504.24763857644
 21
-813.9739834161501
 31
0.0
  0
LINE
  5
1B7
330
2
100
AcDbEntity
  8
0
100
AcDbLine
 10
9504.24763857644
 20
-813.9739834161501
 30
0.0
 11
9504.252791832628
 21
-813.9594885014721
 31
0.0
  0
LINE
  5
1B8
330
2
100
AcDbEntity
  8
0
100
AcDbLine
 10
9504.252791832628
 20
-813.9594885014721
 30
0.0
 11
9504.258018705767
 21
-813.9450927566704
 31
0.0
  0
LINE
  5
1B9
330
2
100
AcDbEntity
  8
0
100
AcDbLine
 10
9504.258018705767
 20
-813.9450927566704
 30
0.0
 11
9504.263318941092
 21
-813.9307958258742
 31
0.0
  0
LINE
  5
1BA
330
2
100
AcDbEntity
  8
0
100
AcDbLine
 10
9504.263318941092
 20
-813.9307958258742
 30
0.0
 11
9504.268692283853
 21
-813.9165973532053
 31
0.0
  0
LINE
  5
1BB
330
2
100
AcDbEntity
  8
0
100
AcDbLine
 10
9504.268692283853
 20
-813.9165973532053
 30
0.0
 11
9504.274138479283
 21
-813.9024969827897
 31
0.0
  0
LINE
  5
1BC
330
2
100
AcDbEntity
  8
0
100
AcDbLine
 10
9504.274138479283
 20
-813.9024969827897
 30
0.0
 11
9504.279657272631
 21
-813.8884943587598
 31
0.0
  0
LINE
  5
1BD
330
2
100
AcDbEntity
  8
0
100
AcDbLine
 10
9504.279657272631
 20
-813.8884943587598
 30
0.0
 11
9504.285248409145
 21
-813.8745891252384
 31
0.0
  0
LINE
  5
1BE
330
2
100
AcDbEntity
  8
0
100
AcDbLine
 10
9504.285248409145
 20
-813.8745891252384
 30
0.0
 11
9504.290911634051
 21
-813.8607809263541
 31
0.0
  0
LINE
  5
1BF
330
2
100
AcDbEntity
  8
0
100
AcDbLine
 10
9504.290911634051
 20
-813.8607809263541
 30
0.0
 11
9504.296646692608
 21
-813.8470694062323
 31
0.0
  0
LINE
  5
1C0
330
2
100
AcDbEntity
  8
0
100
AcDbLine
 10
9504.296646692608
 20
-813.8470694062323
 30
0.0
 11
9504.302453330046
 21
-813.8334542090069
 31
0.0
  0
LINE
  5
1C1
330
2
100
AcDbEntity
  8
0
100
AcDbLine
 10
9504.302453330046
 20
-813.8334542090069
 30
0.0
 11
9504.308331291621
 21
-813.8199349787992
 31
0.0
  0
LINE
  5
1C2
330
2
100
AcDbEntity
  8
0
100
AcDbLine
 10
9504.308331291621
 20
-813.8199349787992
 30
0.0
 11
9504.31428032256
 21
-813.8065113597386
 31
0.0
  0
LINE
  5
1C3
330
2
100
AcDbEntity
  8
0
100
AcDbLine
 10
9504.31428032256
 20
-813.8065113597386
 30
0.0
 11
9504.320300168116
 21
-813.793182995947
 31
0.0
  0
LINE
  5
1C4
330
2
100
AcDbEntity
  8
0
100
AcDbLine
 10
9504.320300168116
 20
-813.793182995947
 30
0.0
 11
9504.326390573528
 21
-813.7799495315611
 31
0.0
  0
LINE
  5
1C5
330
2
100
AcDbEntity
  8
0
100
AcDbLine
 10
9504.326390573528
 20
-813.7799495315611
 30
0.0
 11
9504.332551284042
 21
-813.7668106106993
 31
0.0
  0
LINE
  5
1C6
330
2
100
AcDbEntity
  8
0
100
AcDbLine
 10
9504.332551284042
 20
-813.7668106106993
 30
0.0
 11
9504.338782044897
 21
-813.7537658774906
 31
0.0
  0
LINE
  5
1C7
330
2
100
AcDbEntity
  8
0
100
AcDbLine
 10
9504.338782044897
 20
-813.7537658774906
 30
0.0
 11
9504.345082601334
 21
-813.7408149760647
 31
0.0
  0
LINE
  5
1C8
330
2
100
AcDbEntity
  8
0
100
AcDbLine
 10
9504.345082601334
 20
-813.7408149760647
 30
0.0
 11
9504.351452698598
 21
-813.7279575505509
 31
0.0
  0
LINE
  5
1C9
330
2
100
AcDbEntity
  8
0
100
AcDbLine
 10
9504.351452698598
 20
-813.7279575505509
 30
0.0
 11
9504.357892081932
 21
-813.7151932450706
 31
0.0
  0
LINE
  5
1CA
330
2
100
AcDbEntity
  8
0
100
AcDbLine
 10
9504.357892081932
 20
-813.7151932450706
 30
0.0
 11
9504.364400496575
 21
-813.7025217037535
 31
0.0
  0
LINE
  5
1CB
330
2
100
AcDbEntity
  8
0
100
AcDbLine
 10
9504.364400496575
 20
-813.7025217037535
 30
0.0
 11
9504.370977687781
 21
-813.6899425707287
 31
0.0
  0
LINE
  5
1CC
330
2
100
AcDbEntity
  8
0
100
AcDbLine
 10
9504.370977687781
 20
-813.6899425707287
 30
0.0
 11
9504.377623400776
 21
-813.6774554901185
 31
0.0
  0
LINE
  5
1CD
330
2
100
AcDbEntity
  8
0
100
AcDbLine
 10
9504.377623400776
 20
-813.6774554901185
 30
0.0
 11
9504.384337380813
 21
-813.6650601060519
 31
0.0
  0
LINE
  5
1CE
330
2
100
AcDbEntity
  8
0
100
AcDbLine
 10
9504.384337380813
 20
-813.6650601060519
 30
0.0
 11
9504.39111937313
 21
-813.6527560626618
 31
0.0
  0
LINE
  5
1CF
330
2
100
AcDbEntity
  8
0
100
AcDbLine
 10
9504.39111937313
 20
-813.6527560626618
 30
0.0
 11
9504.397969122972
 21
-813.6405430040667
 31
0.0
  0
LINE
  5
1D0
330
2
100
AcDbEntity
  8
0
100
AcDbLine
 10
9504.397969122972
 20
-813.6405430040667
 30
0.0
 11
9504.40488637558
 21
-813.6284205743995
 31
0.0
  0
LINE
  5
1D1
330
2
100
AcDbEntity
  8
0
100
AcDbLine
 10
9504.40488637558
 20
-813.6284205743995
 30
0.0
 11
9504.411870876198
 21
-813.6163884177857
 31
0.0
  0
LINE
  5
1D2
330
2
100
AcDbEntity
  8
0
100
AcDbLine
 10
9504.411870876198
 20
-813.6163884177857
 30
0.0
 11
9504.418922370069
 21
-813.6044461783512
 31
0.0
  0
LINE
  5
1D3
330
2
100
AcDbEntity
  8
0
100
AcDbLine
 10
9504.418922370069
 20
-813.6044461783512
 30
0.0
 11
9504.426040602432
 21
-813.5925935002214
 31
0.0
  0
LINE
  5
1D4
330
2
100
AcDbEntity
  8
0
100
AcDbLine
 10
9504.426040602432
 20
-813.5925935002214
 30
0.0
 11
9504.433225318532
 21
-813.580830027533
 31
0.0
  0
LINE
  5
1D5
330
2
100
AcDbEntity
  8
0
100
AcDbLine
 10
9504.433225318532
 20
-813.580830027533
 30
0.0
 11
9504.440476263612
 21
-813.5691554044006
 31
0.0
  0
LINE
  5
1D6
330
2
100
AcDbEntity
  8
0
100
AcDbLine
 10
9504.440476263612
 20
-813.5691554044006
 30
0.0
 11
9504.447793182913
 21
-813.5575692749608
 31
0.0
  0
LINE
  5
1D7
330
2
100
AcDbEntity
  8
0
100
AcDbLine
 10
9504.447793182913
 20
-813.5575692749608
 30
0.0
 11
9504.45517582168
 21
-813.5460712833355
 31
0.0
  0
LINE
  5
1D8
330
2
100
AcDbEntity
  8
0
100
AcDbLine
 10
9504.45517582168
 20
-813.5460712833355
 30
0.0
 11
9504.462623925148
 21
-813.5346610736542
 31
0.0
  0
LINE
  5
1D9
330
2
100
AcDbEntity
  8
0
100
AcDbLine
 10
9504.462623925148
 20
-813.5346610736542
 30
0.0
 11
9504.470137238572
 21
-813.5233382900421
 31
0.0
  0
LINE
  5
1DA
330
2
100
AcDbEntity
  8
0
100
AcDbLine
 10
9504.470137238572
 20
-813.5233382900421
 30
0.0
 11
9504.477715507183
 21
-813.5121025766292
 31
0.0
  0
LINE
  5
1DB
330
2
100
AcDbEntity
  8
0
100
AcDbLine
 10
9504.477715507183
 20
-813.5121025766292
 30
0.0
 11
9504.485358476236
 21
-813.5009535775369
 31
0.0
  0
LINE
  5
1DC
330
2
100
AcDbEntity
  8
0
100
AcDbLine
 10
9504.485358476236
 20
-813.5009535775369
 30
0.0
 11
9504.49306589096
 21
-813.4898909369022
 31
0.0
  0
LINE
  5
1DD
330
2
100
AcDbEntity
  8
0
100
AcDbLine
 10
9504.49306589096
 20
-813.4898909369022
 30
0.0
 11
9504.500837496602
 21
-813.4789142988429
 31
0.0
  0
LINE
  5
1DE
330
2
100
AcDbEntity
  8
0
100
AcDbLine
 10
9504.500837496602
 20
-813.4789142988429
 30
0.0
 11
9504.508673038408
 21
-813.4680233074885
 31
0.0
  0
LINE
  5
1DF
330
2
100
AcDbEntity
  8
0
100
AcDbLine
 10
9504.508673038408
 20
-813.4680233074885
 30
0.0
 11
9504.516572261616
 21
-813.4572176069722
 31
0.0
  0
LINE
  5
1E0
330
2
100
AcDbEntity
  8
0
100
AcDbLine
 10
9504.516572261616
 20
-813.4572176069722
 30
0.0
 11
9504.524534911473
 21
-813.4464968414159
 31
0.0
  0
LINE
  5
1E1
330
2
100
AcDbEntity
  8
0
100
AcDbLine
 10
9504.524534911473
 20
-813.4464968414159
 30
0.0
 11
9504.53256073322
 21
-813.4358606549412
 31
0.0
  0
LINE
  5
1E2
330
2
100
AcDbEntity
  8
0
100
AcDbLine
 10
9504.53256073322
 20
-813.4358606549412
 30
0.0
 11
9504.540649472096
 21
-813.4253086916851
 31
0.0
  0
LINE
  5
1E3
330
2
100
AcDbEntity
  8
0
100
AcDbLine
 10
9504.540649472096
 20
-813.4253086916851
 30
0.0
 11
9504.548800873349
 21
-813.4148405957731
 31
0.0
  0
LINE
  5
1E4
330
2
100
AcDbEntity
  8
0
100
AcDbLine
 10
9504.548800873349
 20
-813.4148405957731
 30
0.0
 11
9504.557014682218
 21
-813.404456011327
 31
0.0
  0
LINE
  5
1E5
330
2
100
AcDbEntity
  8
0
100
AcDbLine
 10
9504.557014682218
 20
-813.404456011327
 30
0.0
 11
9504.565290643943
 21
-813.3941545824765
 31
0.0
  0
LINE
  5
1E6
330
2
100
AcDbEntity
  8
0
100
AcDbLine
 10
9504.565290643943
 20
-813.3941545824765
 30
0.0
 11
9504.573628503775
 21
-813.3839359533503
 31
0.0
  0
LINE
  5
1E7
330
2
100
AcDbEntity
  8
0
100
AcDbLine
 10
9504.573628503775
 20
-813.3839359533503
 30
0.0
 11
9504.582028006948
 21
-813.3737997680746
 31
0.0
  0
LINE
  5
1E8
330
2
100
AcDbEntity
  8
0
100
AcDbLine
 10
9504.582028006948
 20
-813.3737997680746
 30
0.0
 11
9504.590488898708
 21
-813.3637456707784
 31
0.0
  0
LINE
  5
1E9
330
2
100
AcDbEntity
  8
0
100
AcDbLine
 10
9504.590488898708
 20
-813.3637456707784
 30
0.0
 11
9504.599010924298
 21
-813.3537733055836
 31
0.0
  0
LINE
  5
1EA
330
2
100
AcDbEntity
  8
0
100
AcDbLine
 10
9504.599010924298
 20
-813.3537733055836
 30
0.0
 11
9504.607593828961
 21
-813.3438823166196
 31
0.0
  0
LINE
  5
1EB
330
2
100
AcDbEntity
  8
0
100
AcDbLine
 10
9504.607593828961
 20
-813.3438823166196
 30
0.0
 11
9504.616237357934
 21
-813.3340723480197
 31
0.0
  0
LINE
  5
1EC
330
2
100
AcDbEntity
  8
0
100
AcDbLine
 10
9504.616237357934
 20
-813.3340723480197
 30
0.0
 11
9504.624941256466
 21
-813.3243430439016
 31
0.0
  0
LINE
  5
1ED
330
2
100
AcDbEntity
  8
0
100
AcDbLine
 10
9504.624941256466
 20
-813.3243430439016
 30
0.0
 11
9504.633705269798
 21
-813.3146940483984
 31
0.0
  0
LINE
  5
1EE
330
2
100
AcDbEntity
  8
0
100
AcDbLine
 10
9504.633705269798
 20
-813.3146940483984
 30
0.0
 11
9504.642529143174
 21
-813.3051250056359
 31
0.0
  0
LINE
  5
1EF
330
2
100
AcDbEntity
  8
0
100
AcDbLine
 10
9504.642529143174
 20
-813.3051250056359
 30
0.0
 11
9504.65141262183
 21
-813.2956355597434
 31
0.0
  0
LINE
  5
1F0
330
2
100
AcDbEntity
  8
0
100
AcDbLine
 10
9504.65141262183
 20
-813.2956355597434
 30
0.0
 11
9504.660355451015
 21
-813.2862253548427
 31
0.0
  0
LINE
  5
1F1
330
2
100
AcDbEntity
  8
0
100
AcDbLine
 10
9504.660355451015
 20
-813.2862253548427
 30
0.0
 11
9504.669357375968
 21
-813.2768940350633
 31
0.0
  0
LINE
  5
1F2
330
2
100
AcDbEntity
  8
0
100
AcDbLine
 10
9504.669357375968
 20
-813.2768940350633
 30
0.0
 11
9504.678418141931
 21
-813.2676412445343
 31
0.0
  0
LINE
  5
1F3
330
2
100
AcDbEntity
  8
0
100
AcDbLine
 10
9504.678418141931
 20
-813.2676412445343
 30
0.0
 11
9504.687537494154
 21
-813.2584666273814
 31
0.0
  0
LINE
  5
1F4
330
2
100
AcDbEntity
  8
0
100
AcDbLine
 10
9504.687537494154
 20
-813.2584666273814
 30
0.0
 11
9504.696715177869
 21
-813.249369827734
 31
0.0
  0
LINE
  5
1F5
330
2
100
AcDbEntity
  8
0
100
AcDbLine
 10
9504.696715177869
 20
-813.249369827734
 30
0.0
 11
9504.705950938328
 21
-813.2403504897137
 31
0.0
  0
LINE
  5
1F6
330
2
100
AcDbEntity
  8
0
100
AcDbLine
 10
9504.705950938328
 20
-813.2403504897137
 30
0.0
 11
9504.715244520765
 21
-813.2314082574502
 31
0.0
  0
LINE
  5
1F7
330
2
100
AcDbEntity
  8
0
100
AcDbLine
 10
9504.715244520765
 20
-813.2314082574502
 30
0.0
 11
9504.724595670422
 21
-813.2225427750764
 31
0.0
  0
LINE
  5
1F8
330
2
100
AcDbEntity
  8
0
100
AcDbLine
 10
9504.724595670422
 20
-813.2225427750764
 30
0.0
 11
9504.734004132554
 21
-813.2137536867102
 31
0.0
  0
LINE
  5
1F9
330
2
100
AcDbEntity
  8
0
100
AcDbLine
 10
9504.734004132554
 20
-813.2137536867102
 30
0.0
 11
9504.743469652392
 21
-813.205040636485
 31
0.0
  0
LINE
  5
1FA
330
2
100
AcDbEntity
  8
0
100
AcDbLine
 10
9504.743469652392
 20
-813.205040636485
 30
0.0
 11
9504.752991975179
 21
-813.1964032685262
 31
0.0
  0
LINE
  5
1FB
330
2
100
AcDbEntity
  8
0
100
AcDbLine
 10
9504.752991975179
 20
-813.1964032685262
 30
0.0
 11
9504.762570846164
 21
-813.1878412269596
 31
0.0
  0
LINE
  5
1FC
330
2
100
AcDbEntity
  8
0
100
AcDbLine
 10
9504.762570846164
 20
-813.1878412269596
 30
0.0
 11
9504.772206010583
 21
-813.1793541559146
 31
0.0
  0
LINE
  5
1FD
330
2
100
AcDbEntity
  8
0
100
AcDbLine
 10
9504.772206010583
 20
-813.1793541559146
 30
0.0
 11
9504.781897213685
 21
-813.1709416995162
 31
0.0
  0
LINE
  5
1FE
330
2
100
AcDbEntity
  8
0
100
AcDbLine
 10
9504.781897213685
 20
-813.1709416995162
 30
0.0
 11
9504.791644200706
 21
-813.1626035018907
 31
0.0
  0
LINE
  5
1FF
330
2
100
AcDbEntity
  8
0
100
AcDbLine
 10
9504.791644200706
 20
-813.1626035018907
 30
0.0
 11
9504.801446716893
 21
-813.1543392071744
 31
0.0
  0
LINE
  5
200
330
2
100
AcDbEntity
  8
0
100
AcDbLine
 10
9504.801446716893
 20
-813.1543392071744
 30
0.0
 11
9504.811304507484
 21
-813.1461484594817
 31
0.0
  0
LINE
  5
201
330
2
100
AcDbEntity
  8
0
100
AcDbLine
 10
9504.811304507484
 20
-813.1461484594817
 30
0.0
 11
9504.821217317724
 21
-813.1380309029463
 31
0.0
  0
LINE
  5
202
330
2
100
AcDbEntity
  8
0
100
AcDbLine
 10
9504.821217317724
 20
-813.1380309029463
 30
0.0
 11
9504.831184892861
 21
-813.1299861816932
 31
0.0
  0
LINE
  5
203
330
2
100
AcDbEntity
  8
0
100
AcDbLine
 10
9504.831184892861
 20
-813.1299861816932
 30
0.0
 11
9504.841206978127
 21
-813.1220139398482
 31
0.0
  0
LINE
  5
204
330
2
100
AcDbEntity
  8
0
100
AcDbLine
 10
9504.841206978127
 20
-813.1220139398482
 30
0.0
 11
9504.851283318773
 21
-813.1141138215442
 31
0.0
  0
LINE
  5
205
330
2
100
AcDbEntity
  8
0
100
AcDbLine
 10
9504.851283318773
 20
-813.1141138215442
 30
0.0
 11
9504.861413660036
 21
-813.1062854709071
 31
0.0
  0
LINE
  5
206
330
2
100
AcDbEntity
  8
0
100
AcDbLine
 10
9504.861413660036
 20
-813.1062854709071
 30
0.0
 11
9504.871597747159
 21
-813.0985285320585
 31
0.0
  0
LINE
  5
207
330
2
100
AcDbEntity
  8
0
100
AcDbLine
 10
9504.871597747159
 20
-813.0985285320585
 30
0.0
 11
9504.88183532539
 21
-813.0908426491313
 31
0.0
  0
LINE
  5
208
330
2
100
AcDbEntity
  8
0
100
AcDbLine
 10
9504.88183532539
 20
-813.0908426491313
 30
0.0
 11
9504.892126139969
 21
-813.0832274662516
 31
0.0
  0
LINE
  5
209
330
2
100
AcDbEntity
  8
0
100
AcDbLine
 10
9504.892126139969
 20
-813.0832274662516
 30
0.0
 11
9504.902469936132
 21
-813.075682627541
 31
0.0
  0
LINE
  5
20A
330
2
100
AcDbEntity
  8
0
100
AcDbLine
 10
9504.902469936132
 20
-813.075682627541
 30
0.0
 11
9504.912866459132
 21
-813.0682077771325
 31
0.0
  0
LINE
  5
20B
330
2
100
AcDbEntity
  8
0
100
AcDbLine
 10
9504.912866459132
 20
-813.0682077771325
 30
0.0
 11
9504.923315454204
 21
-813.0608025591516
 31
0.0
  0
LINE
  5
20C
330
2
100
AcDbEntity
  8
0
100
AcDbLine
 10
9504.923315454204
 20
-813.0608025591516
 30
0.0
 11
9504.933816666591
 21
-813.0534666177243
 31
0.0
  0
LINE
  5
20D
330
2
100
AcDbEntity
  8
0
100
AcDbLine
 10
9504.933816666591
 20
-813.0534666177243
 30
0.0
 11
9504.94436984154
 21
-813.0461995969833
 31
0.0
  0
LINE
  5
20E
330
2
100
AcDbEntity
  8
0
100
AcDbLine
 10
9504.94436984154
 20
-813.0461995969833
 30
0.0
 11
9504.95497472429
 21
-813.0390011410472
 31
0.0
  0
LINE
  5
20F
330
2
100
AcDbEntity
  8
0
100
AcDbLine
 10
9504.95497472429
 20
-813.0390011410472
 30
0.0
 11
9504.965631060084
 21
-813.0318708940521
 31
0.0
  0
LINE
  5
210
330
2
100
AcDbEntity
  8
0
100
AcDbLine
 10
9504.965631060084
 20
-813.0318708940521
 30
0.0
 11
9504.976338594165
 21
-813.0248085001166
 31
0.0
  0
LINE
  5
211
330
2
100
AcDbEntity
  8
0
100
AcDbLine
 10
9504.976338594165
 20
-813.0248085001166
 30
0.0
 11
9504.987097071774
 21
-813.01781360337
 31
0.0
  0
LINE
  5
212
330
2
100
AcDbEntity
  8
0
100
AcDbLine
 10
9504.987097071774
 20
-813.01781360337
 30
0.0
 11
9504.997906238155
 21
-813.0108858479488
 31
0.0
  0
LINE
  5
213
330
2
100
AcDbEntity
  8
0
100
AcDbLine
 10
9504.997906238155
 20
-813.0108858479488
 30
0.0
 11
9505.008765838553
 21
-813.0040248779677
 31
0.0
  0
LINE
  5
214
330
2
100
AcDbEntity
  8
0
100
AcDbLine
 10
9505.008765838553
 20
-813.0040248779677
 30
0.0
 11
9505.019675618205
 21
-812.9972303375561
 31
0.0
  0
LINE
  5
215
330
2
100
AcDbEntity
  8
0
100
AcDbLine
 10
9505.019675618205
 20
-812.9972303375561
 30
0.0
 11
9505.030635322357
 21
-812.9905018708466
 31
0.0
  0
LINE
  5
216
330
2
100
AcDbEntity
  8
0
100
AcDbLine
 10
9505.030635322357
 20
-812.9905018708466
 30
0.0
 11
9505.041644696252
 21
-812.9838391219617
 31
0.0
  0
LINE
  5
217
330
2
100
AcDbEntity
  8
0
100
AcDbLine
 10
9505.041644696252
 20
-812.9838391219617
 30
0.0
 11
9505.05270348513
 21
-812.9772417350304
 31
0.0
  0
LINE
  5
218
330
2
100
AcDbEntity
  8
0
100
AcDbLine
 10
9505.05270348513
 20
-812.9772417350304
 30
0.0
 11
9505.063811434236
 21
-812.9707093541819
 31
0.0
  0
LINE
  5
219
330
2
100
AcDbEntity
  8
0
100
AcDbLine
 10
9505.063811434236
 20
-812.9707093541819
 30
0.0
 11
9505.074968288809
 21
-812.9642416235418
 31
0.0
  0
LINE
  5
21A
330
2
100
AcDbEntity
  8
0
100
AcDbLine
 10
9505.074968288809
 20
-812.9642416235418
 30
0.0
 11
9505.086173794095
 21
-812.9578381872324
 31
0.0
  0
LINE
  5
21B
330
2
100
AcDbEntity
  8
0
100
AcDbLine
 10
9505.086173794095
 20
-812.9578381872324
 30
0.0
 11
9505.097427695337
 21
-812.95149868939
 31
0.0
  0
LINE
  5
21C
330
2
100
AcDbEntity
  8
0
100
AcDbLine
 10
9505.097427695337
 20
-812.95149868939
 30
0.0
 11
9505.108729737774
 21
-812.945222774133
 31
0.0
  0
LINE
  5
21D
330
2
100
AcDbEntity
  8
0
100
AcDbLine
 10
9505.108729737774
 20
-812.945222774133
 30
0.0
 11
9505.120079666648
 21
-812.9390100855943
 31
0.0
  0
LINE
  5
21E
330
2
100
AcDbEntity
  8
0
100
AcDbLine
 10
9505.120079666648
 20
-812.9390100855943
 30
0.0
 11
9505.131477227209
 21
-812.9328602678997
 31
0.0
  0
LINE
  5
21F
330
2
100
AcDbEntity
  8
0
100
AcDbLine
 10
9505.131477227209
 20
-812.9328602678997
 30
0.0
 11
9505.142922164687
 21
-812.9267729651747
 31
0.0
  0
LINE
  5
220
330
2
100
AcDbEntity
  8
0
100
AcDbLine
 10
9505.142922164687
 20
-812.9267729651747
 30
0.0
 11
9505.154414224341
 21
-812.9207478215446
 31
0.0
  0
LINE
  5
221
330
2
100
AcDbEntity
  8
0
100
AcDbLine
 10
9505.154414224341
 20
-812.9207478215446
 30
0.0
 11
9505.165953151395
 21
-812.9147844811432
 31
0.0
  0
LINE
  5
222
330
2
100
AcDbEntity
  8
0
100
AcDbLine
 10
9505.165953151395
 20
-812.9147844811432
 30
0.0
 11
9505.177538691109
 21
-812.9088825880916
 31
0.0
  0
LINE
  5
223
330
2
100
AcDbEntity
  8
0
100
AcDbLine
 10
9505.177538691109
 20
-812.9088825880916
 30
0.0
 11
9505.189170588712
 21
-812.9030417865196
 31
0.0
  0
LINE
  5
224
330
2
100
AcDbEntity
  8
0
100
AcDbLine
 10
9505.189170588712
 20
-812.9030417865196
 30
0.0
 11
9505.200848589451
 21
-812.8972617205564
 31
0.0
  0
LINE
  5
225
330
2
100
AcDbEntity
  8
0
100
AcDbLine
 10
9505.200848589451
 20
-812.8972617205564
 30
0.0
 11
9505.212572438574
 21
-812.8915420343236
 31
0.0
  0
LINE
  5
226
330
2
100
AcDbEntity
  8
0
100
AcDbLine
 10
9505.212572438574
 20
-812.8915420343236
 30
0.0
 11
9505.224341881318
 21
-812.8858823719546
 31
0.0
  0
LINE
  5
227
330
2
100
AcDbEntity
  8
0
100
AcDbLine
 10
9505.224341881318
 20
-812.8858823719546
 30
0.0
 11
9505.236156662924
 21
-812.8802823775712
 31
0.0
  0
LINE
  5
228
330
2
100
AcDbEntity
  8
0
100
AcDbLine
 10
9505.236156662924
 20
-812.8802823775712
 30
0.0
 11
9505.248016528637
 21
-812.8747416953029
 31
0.0
  0
LINE
  5
229
330
2
100
AcDbEntity
  8
0
100
AcDbLine
 10
9505.248016528637
 20
-812.8747416953029
 30
0.0
 11
9505.2599212237
 21
-812.8692599692785
 31
0.0
  0
LINE
  5
22A
330
2
100
AcDbEntity
  8
0
100
AcDbLine
 10
9505.2599212237
 20
-812.8692599692785
 30
0.0
 11
9505.271870493354
 21
-812.8638368436202
 31
0.0
  0
LINE
  5
22B
330
2
100
AcDbEntity
  8
0
100
AcDbLine
 10
9505.271870493354
 20
-812.8638368436202
 30
0.0
 11
9505.283864082841
 21
-812.8584719624614
 31
0.0
  0
LINE
  5
22C
330
2
100
AcDbEntity
  8
0
100
AcDbLine
 10
9505.283864082841
 20
-812.8584719624614
 30
0.0
 11
9505.29590173741
 21
-812.8531649699271
 31
0.0
  0
LINE
  5
22D
330
2
100
AcDbEntity
  8
0
100
AcDbLine
 10
9505.29590173741
 20
-812.8531649699271
 30
0.0
 11
9505.307983202294
 21
-812.8479155101395
 31
0.0
  0
LINE
  5
22E
330
2
100
AcDbEntity
  8
0
100
AcDbLine
 10
9505.307983202294
 20
-812.8479155101395
 30
0.0
 11
9505.32010822274
 21
-812.8427232272313
 31
0.0
  0
LINE
  5
22F
330
2
100
AcDbEntity
  8
0
100
AcDbLine
 10
9505.32010822274
 20
-812.8427232272313
 30
0.0
 11
9505.332276543992
 21
-812.8375877653287
 31
0.0
  0
LINE
  5
230
330
2
100
AcDbEntity
  8
0
100
AcDbLine
 10
9505.332276543992
 20
-812.8375877653287
 30
0.0
 11
9505.34448791129
 21
-812.8325087685571
 31
0.0
  0
LINE
  5
231
330
2
100
AcDbEntity
  8
0
100
AcDbLine
 10
9505.34448791129
 20
-812.8325087685571
 30
0.0
 11
9505.356742069874
 21
-812.8274858810453
 31
0.0
  0
LINE
  5
232
330
2
100
AcDbEntity
  8
0
100
AcDbLine
 10
9505.356742069874
 20
-812.8274858810453
 30
0.0
 11
9505.369038764996
 21
-812.8225187469197
 31
0.0
  0
LINE
  5
233
330
2
100
AcDbEntity
  8
0
100
AcDbLine
 10
9505.369038764996
 20
-812.8225187469197
 30
0.0
 11
9505.381377741889
 21
-812.8176070103091
 31
0.0
  0
LINE
  5
234
330
2
100
AcDbEntity
  8
0
100
AcDbLine
 10
9505.381377741889
 20
-812.8176070103091
 30
0.0
 11
9505.393758745801
 21
-812.812750315339
 31
0.0
  0
LINE
  5
235
330
2
100
AcDbEntity
  8
0
100
AcDbLine
 10
9505.393758745801
 20
-812.812750315339
 30
0.0
 11
9505.406181521967
 21
-812.8079483061355
 31
0.0
  0
LINE
  5
236
330
2
100
AcDbEntity
  8
0
100
AcDbLine
 10
9505.406181521967
 20
-812.8079483061355
 30
0.0
 11
9505.418645815641
 21
-812.8032006268277
 31
0.0
  0
LINE
  5
237
330
2
100
AcDbEntity
  8
0
100
AcDbLine
 10
9505.418645815641
 20
-812.8032006268277
 30
0.0
 11
9505.431151372055
 21
-812.7985069215409
 31
0.0
  0
LINE
  5
238
330
2
100
AcDbEntity
  8
0
100
AcDbLine
 10
9505.431151372055
 20
-812.7985069215409
 30
0.0
 11
9505.443697936458
 21
-812.793866834405
 31
0.0
  0
LINE
  5
239
330
2
100
AcDbEntity
  8
0
100
AcDbLine
 10
9505.443697936458
 20
-812.793866834405
 30
0.0
 11
9505.456285254089
 21
-812.7892800095487
 31
0.0
  0
LINE
  5
23A
330
2
100
AcDbEntity
  8
0
100
AcDbLine
 10
9505.456285254089
 20
-812.7892800095487
 30
0.0
 11
9505.468913070194
 21
-812.7847460910906
 31
0.0
  0
LINE
  5
23B
330
2
100
AcDbEntity
  8
0
100
AcDbLine
 10
9505.468913070194
 20
-812.7847460910906
 30
0.0
 11
9505.481581130013
 21
-812.7802647231638
 31
0.0
  0
LINE
  5
23C
330
2
100
AcDbEntity
  8
0
100
AcDbLine
 10
9505.481581130013
 20
-812.7802647231638
 30
0.0
 11
9505.494289178784
 21
-812.7758355498974
 31
0.0
  0
LINE
  5
23D
330
2
100
AcDbEntity
  8
0
100
AcDbLine
 10
9505.494289178784
 20
-812.7758355498974
 30
0.0
 11
9505.507036961761
 21
-812.771458215413
 31
0.0
  0
LINE
  5
23E
330
2
100
AcDbEntity
  8
0
100
AcDbLine
 10
9505.507036961761
 20
-812.771458215413
 30
0.0
 11
9505.519824224172
 21
-812.7671323638406
 31
0.0
  0
LINE
  5
23F
330
2
100
AcDbEntity
  8
0
100
AcDbLine
 10
9505.519824224172
 20
-812.7671323638406
 30
0.0
 11
9505.532650711272
 21
-812.7628576393126
 31
0.0
  0
LINE
  5
240
330
2
100
AcDbEntity
  8
0
100
AcDbLine
 10
9505.532650711272
 20
-812.7628576393126
 30
0.0
 11
9505.5455161683
 21
-812.7586336859476
 31
0.0
  0
LINE
  5
241
330
2
100
AcDbEntity
  8
0
100
AcDbLine
 10
9505.5455161683
 20
-812.7586336859476
 30
0.0
 11
9505.558420340497
 21
-812.7544601478785
 31
0.0
  0
LINE
  5
242
330
2
100
AcDbEntity
  8
0
100
AcDbLine
 10
9505.558420340497
 20
-812.7544601478785
 30
0.0
 11
9505.571362973103
 21
-812.7503366692232
 31
0.0
  0
LINE
  5
243
330
2
100
AcDbEntity
  8
0
100
AcDbLine
 10
9505.571362973103
 20
-812.7503366692232
 30
0.0
 11
9505.584343811369
 21
-812.7462628941229
 31
0.0
  0
LINE
  5
244
330
2
100
AcDbEntity
  8
0
100
AcDbLine
 10
9505.584343811369
 20
-812.7462628941229
 30
0.0
 11
9505.597362600523
 21
-812.7422384666989
 31
0.0
  0
LINE
  5
245
330
2
100
AcDbEntity
  8
0
100
AcDbLine
 10
9505.597362600523
 20
-812.7422384666989
 30
0.0
 11
9505.610419085824
 21
-812.738263031073
 31
0.0
  0
LINE
  5
246
330
2
100
AcDbEntity
  8
0
100
AcDbLine
 10
9505.610419085824
 20
-812.738263031073
 30
0.0
 11
9505.623513012505
 21
-812.734336231375
 31
0.0
  0
LINE
  5
247
330
2
100
AcDbEntity
  8
0
100
AcDbLine
 10
9505.623513012505
 20
-812.734336231375
 30
0.0
 11
9505.636644125809
 21
-812.7304577117373
 31
0.0
  0
LINE
  5
248
330
2
100
AcDbEntity
  8
0
100
AcDbLine
 10
9505.636644125809
 20
-812.7304577117373
 30
0.0
 11
9505.649812170981
 21
-812.7266271162786
 31
0.0
  0
LINE
  5
249
330
2
100
AcDbEntity
  8
0
100
AcDbLine
 10
9505.649812170981
 20
-812.7266271162786
 30
0.0
 11
9505.663016893258
 21
-812.7228440891357
 31
0.0
  0
LINE
  5
24A
330
2
100
AcDbEntity
  8
0
100
AcDbLine
 10
9505.663016893258
 20
-812.7228440891357
 30
0.0
 11
9505.676258037892
 21
-812.71910827443
 31
0.0
  0
LINE
  5
24B
330
2
100
AcDbEntity
  8
0
100
AcDbLine
 10
9505.676258037892
 20
-812.71910827443
 30
0.0
 11
9505.68953535012
 21
-812.7154193162876
 31
0.0
  0
LINE
  5
24C
330
2
100
AcDbEntity
  8
0
100
AcDbLine
 10
9505.68953535012
 20
-812.7154193162876
 30
0.0
 11
9505.702848575181
 21
-812.7117768588377
 31
0.0
  0
LINE
  5
24D
330
2
100
AcDbEntity
  8
0
100
AcDbLine
 10
9505.702848575181
 20
-812.7117768588377
 30
0.0
 11
9505.716197458324
 21
-812.7081805462058
 31
0.0
  0
LINE
  5
24E
330
2
100
AcDbEntity
  8
0
100
AcDbLine
 10
9505.716197458324
 20
-812.7081805462058
 30
0.0
 11
9505.729581744787
 21
-812.7046300225247
 31
0.0
  0
LINE
  5
24F
330
2
100
AcDbEntity
  8
0
100
AcDbLine
 10
9505.729581744787
 20
-812.7046300225247
 30
0.0
 11
9505.743001179821
 21
-812.7011249319165
 31
0.0
  0
LINE
  5
250
330
2
100
AcDbEntity
  8
0
100
AcDbLine
 10
9505.743001179821
 20
-812.7011249319165
 30
0.0
 11
9505.756455508654
 21
-812.6976649185071
 31
0.0
  0
LINE
  5
251
330
2
100
AcDbEntity
  8
0
100
AcDbLine
 10
9505.756455508654
 20
-812.6976649185071
 30
0.0
 11
9505.769944476538
 21
-812.6942496264216
 31
0.0
  0
LINE
  5
252
330
2
100
AcDbEntity
  8
0
100
AcDbLine
 10
9505.769944476538
 20
-812.6942496264216
 30
0.0
 11
9505.783467828717
 21
-812.690878699801
 31
0.0
  0
LINE
  5
253
330
2
100
AcDbEntity
  8
0
100
AcDbLine
 10
9505.783467828717
 20
-812.690878699801
 30
0.0
 11
9505.797025310426
 21
-812.6875517827555
 31
0.0
  0
LINE
  5
254
330
2
100
AcDbEntity
  8
0
100
AcDbLine
 10
9505.797025310426
 20
-812.6875517827555
 30
0.0
 11
9505.810616666916
 21
-812.6842685194187
 31
0.0
  0
LINE
  5
255
330
2
100
AcDbEntity
  8
0
100
AcDbLine
 10
9505.810616666916
 20
-812.6842685194187
 30
0.0
 11
9505.824241643422
 21
-812.6810285539232
 31
0.0
  0
LINE
  5
256
330
2
100
AcDbEntity
  8
0
100
AcDbLine
 10
9505.824241643422
 20
-812.6810285539232
 30
0.0
 11
9505.837899985193
 21
-812.6778315303873
 31
0.0
  0
LINE
  5
257
330
2
100
AcDbEntity
  8
0
100
AcDbLine
 10
9505.837899985193
 20
-812.6778315303873
 30
0.0
 11
9505.851591437464
 21
-812.674677092944
 31
0.0
  0
LINE
  5
258
330
2
100
AcDbEntity
  8
0
100
AcDbLine
 10
9505.851591437464
 20
-812.674677092944
 30
0.0
 11
9505.865315745483
 21
-812.6715648857187
 31
0.0
  0
LINE
  5
259
330
2
100
AcDbEntity
  8
0
100
AcDbLine
 10
9505.865315745483
 20
-812.6715648857187
 30
0.0
 11
9505.879072654494
 21
-812.6684945528412
 31
0.0
  0
LINE
  5
25A
330
2
100
AcDbEntity
  8
0
100
AcDbLine
 10
9505.879072654494
 20
-812.6684945528412
 30
0.0
 11
9505.892861909737
 21
-812.6654657384332
 31
0.0
  0
LINE
  5
25B
330
2
100
AcDbEntity
  8
0
100
AcDbLine
 10
9505.892861909737
 20
-812.6654657384332
 30
0.0
 11
9505.906683256451
 21
-812.662478086624
 31
0.0
  0
LINE
  5
25C
330
2
100
AcDbEntity
  8
0
100
AcDbLine
 10
9505.906683256451
 20
-812.662478086624
 30
0.0
 11
9505.920536439882
 21
-812.6595312415428
 31
0.0
  0
LINE
  5
25D
330
2
100
AcDbEntity
  8
0
100
AcDbLine
 10
9505.920536439882
 20
-812.6595312415428
 30
0.0
 11
9505.934421205273
 21
-812.6566248473155
 31
0.0
  0
LINE
  5
25E
330
2
100
AcDbEntity
  8
0
100
AcDbLine
 10
9505.934421205273
 20
-812.6566248473155
 30
0.0
 11
9505.948337297866
 21
-812.6537585480672
 31
0.0
  0
LINE
  5
25F
330
2
100
AcDbEntity
  8
0
100
AcDbLine
 10
9505.948337297866
 20
-812.6537585480672
 30
0.0
 11
9505.962284462906
 21
-812.6509319879314
 31
0.0
  0
LINE
  5
260
330
2
100
AcDbEntity
  8
0
100
AcDbLine
 10
9505.962284462906
 20
-812.6509319879314
 30
0.0
 11
9505.976262445633
 21
-812.6481448110261
 31
0.0
  0
LINE
  5
261
330
2
100
AcDbEntity
  8
0
100
AcDbLine
 10
9505.976262445633
 20
-812.6481448110261
 30
0.0
 11
9505.990270991285
 21
-812.6453966614842
 31
0.0
  0
LINE
  5
262
330
2
100
AcDbEntity
  8
0
100
AcDbLine
 10
9505.990270991285
 20
-812.6453966614842
 30
0.0
 11
9506.004309845112
 21
-812.6426871834317
 31
0.0
  0
LINE
  5
263
330
2
100
AcDbEntity
  8
0
100
AcDbLine
 10
9506.004309845112
 20
-812.6426871834317
 30
0.0
 11
9506.018378752353
 21
-812.6400160209941
 31
0.0
  0
LINE
  5
264
330
2
100
AcDbEntity
  8
0
100
AcDbLine
 10
9506.018378752353
 20
-812.6400160209941
 30
0.0
 11
9506.032477458248
 21
-812.6373828183041
 31
0.0
  0
LINE
  5
265
330
2
100
AcDbEntity
  8
0
100
AcDbLine
 10
9506.032477458248
 20
-812.6373828183041
 30
0.0
 11
9506.046605708045
 21
-812.6347872194838
 31
0.0
  0
LINE
  5
266
330
2
100
AcDbEntity
  8
0
100
AcDbLine
 10
9506.046605708045
 20
-812.6347872194838
 30
0.0
 11
9506.060763246983
 21
-812.6322288686624
 31
0.0
  0
LINE
  5
267
330
2
100
AcDbEntity
  8
0
100
AcDbLine
 10
9506.060763246983
 20
-812.6322288686624
 30
0.0
 11
9506.074949820307
 21
-812.6297074099621
 31
0.0
  0
LINE
  5
268
330
2
100
AcDbEntity
  8
0
100
AcDbLine
 10
9506.074949820307
 20
-812.6297074099621
 30
0.0
 11
9506.089165173255
 21
-812.6272224875192
 31
0.0
  0
LINE
  5
269
330
2
100
AcDbEntity
  8
0
100
AcDbLine
 10
9506.089165173255
 20
-812.6272224875192
 30
0.0
 11
9506.103409051075
 21
-812.6247737454521
 31
0.0
  0
LINE
  5
26A
330
2
100
AcDbEntity
  8
0
100
AcDbLine
 10
9506.103409051075
 20
-812.6247737454521
 30
0.0
 11
9506.117681199006
 21
-812.6223608278943
 31
0.0
  0
LINE
  5
26B
330
2
100
AcDbEntity
  8
0
100
AcDbLine
 10
9506.117681199006
 20
-812.6223608278943
 30
0.0
 11
9506.131981362287
 21
-812.6199833789668
 31
0.0
  0
LINE
  5
26C
330
2
100
AcDbEntity
  8
0
100
AcDbLine
 10
9506.131981362287
 20
-812.6199833789668
 30
0.0
 11
9506.146309286172
 21
-812.6176410428032
 31
0.0
  0
LINE
  5
26D
330
2
100
AcDbEntity
  8
0
100
AcDbLine
 10
9506.146309286172
 20
-812.6176410428032
 30
0.0
 11
9506.16066471589
 21
-812.6153334635292
 31
0.0
  0
LINE
  5
26E
330
2
100
AcDbEntity
  8
0
100
AcDbLine
 10
9506.16066471589
 20
-812.6153334635292
 30
0.0
 11
9506.175047396695
 21
-812.6130602852661
 31
0.0
  0
LINE
  5
26F
330
2
100
AcDbEntity
  8
0
100
AcDbLine
 10
9506.175047396695
 20
-812.6130602852661
 30
0.0
 11
9506.189457073821
 21
-812.6108211521476
 31
0.0
  0
LINE
  5
270
330
2
100
AcDbEntity
  8
0
100
AcDbLine
 10
9506.189457073821
 20
-812.6108211521476
 30
0.0
 11
9506.203893492516
 21
-812.6086157082955
 31
0.0
  0
LINE
  5
271
330
2
100
AcDbEntity
  8
0
100
AcDbLine
 10
9506.203893492516
 20
-812.6086157082955
 30
0.0
 11
9506.21835639802
 21
-812.6064435978459
 31
0.0
  0
LINE
  5
272
330
2
100
AcDbEntity
  8
0
100
AcDbLine
 10
9506.21835639802
 20
-812.6064435978459
 30
0.0
 11
9506.232845535576
 21
-812.6043044649177
 31
0.0
  0
LINE
  5
273
330
2
100
AcDbEntity
  8
0
100
AcDbLine
 10
9506.232845535576
 20
-812.6043044649177
 30
0.0
 11
9506.247360650423
 21
-812.6021979536362
 31
0.0
  0
LINE
  5
274
330
2
100
AcDbEntity
  8
0
100
AcDbLine
 10
9506.247360650423
 20
-812.6021979536362
 30
0.0
 11
9506.261901487809
 21
-812.6001237081382
 31
0.0
  0
LINE
  5
275
330
2
100
AcDbEntity
  8
0
100
AcDbLine
 10
9506.261901487809
 20
-812.6001237081382
 30
0.0
 11
9506.276467792975
 21
-812.5980813725455
 31
0.0
  0
LINE
  5
276
330
2
100
AcDbEntity
  8
0
100
AcDbLine
 10
9506.276467792975
 20
-812.5980813725455
 30
0.0
 11
9506.291059311164
 21
-812.5960705909799
 31
0.0
  0
LINE
  5
277
330
2
100
AcDbEntity
  8
0
100
AcDbLine
 10
9506.291059311164
 20
-812.5960705909799
 30
0.0
 11
9506.305675787617
 21
-812.5940910075787
 31
0.0
  0
LINE
  5
278
330
2
100
AcDbEntity
  8
0
100
AcDbLine
 10
9506.305675787617
 20
-812.5940910075787
 30
0.0
 11
9506.320316967574
 21
-812.5921422664667
 31
0.0
  0
LINE
  5
279
330
2
100
AcDbEntity
  8
0
100
AcDbLine
 10
9506.320316967574
 20
-812.5921422664667
 30
0.0
 11
9506.334982596284
 21
-812.590224011763
 31
0.0
  0
LINE
  5
27A
330
2
100
AcDbEntity
  8
0
100
AcDbLine
 10
9506.334982596284
 20
-812.590224011763
 30
0.0
 11
9506.349672418982
 21
-812.5883358875999
 31
0.0
  0
LINE
  5
27B
330
2
100
AcDbEntity
  8
0
100
AcDbLine
 10
9506.349672418982
 20
-812.5883358875999
 30
0.0
 11
9506.364386180916
 21
-812.5864775381105
 31
0.0
  0
LINE
  5
27C
330
2
100
AcDbEntity
  8
0
100
AcDbLine
 10
9506.364386180916
 20
-812.5864775381105
 30
0.0
 11
9506.379123627329
 21
-812.5846486074133
 31
0.0
  0
LINE
  5
27D
330
2
100
AcDbEntity
  8
0
100
AcDbLine
 10
9506.379123627329
 20
-812.5846486074133
 30
0.0
 11
9506.393884503459
 21
-812.5828487396336
 31
0.0
  0
LINE
  5
27E
330
2
100
AcDbEntity
  8
0
100
AcDbLine
 10
9506.393884503459
 20
-812.5828487396336
 30
0.0
 11
9506.408668554552
 21
-812.5810775789121
 31
0.0
  0
LINE
  5
27F
330
2
100
AcDbEntity
  8
0
100
AcDbLine
 10
9506.408668554552
 20
-812.5810775789121
 30
0.0
 11
9506.423475525847
 21
-812.5793347693598
 31
0.0
  0
LINE
  5
280
330
2
100
AcDbEntity
  8
0
100
AcDbLine
 10
9506.423475525847
 20
-812.5793347693598
 30
0.0
 11
9506.438305162593
 21
-812.5776199551165
 31
0.0
  0
LINE
  5
281
330
2
100
AcDbEntity
  8
0
100
AcDbLine
 10
9506.438305162593
 20
-812.5776199551165
 30
0.0
 11
9506.453157210026
 21
-812.5759327803006
 31
0.0
  0
LINE
  5
282
330
2
100
AcDbEntity
  8
0
100
AcDbLine
 10
9506.453157210026
 20
-812.5759327803006
 30
0.0
 11
9506.468031413389
 21
-812.5742728890454
 31
0.0
  0
LINE
  5
283
330
2
100
AcDbEntity
  8
0
100
AcDbLine
 10
9506.468031413389
 20
-812.5742728890454
 30
0.0
 11
9506.482927517929
 21
-812.5726399254762
 31
0.0
  0
LINE
  5
284
330
2
100
AcDbEntity
  8
0
100
AcDbLine
 10
9506.482927517929
 20
-812.5726399254762
 30
0.0
 11
9506.497845268885
 21
-812.5710335337187
 31
0.0
  0
LINE
  5
285
330
2
100
AcDbEntity
  8
0
100
AcDbLine
 10
9506.497845268885
 20
-812.5710335337187
 30
0.0
 11
9506.5127844115
 21
-812.569453357899
 31
0.0
  0
LINE
  5
286
330
2
100
AcDbEntity
  8
0
100
AcDbLine
 10
9506.5127844115
 20
-812.569453357899
 30
0.0
 11
9506.527744691018
 21
-812.5678990421491
 31
0.0
  0
LINE
  5
287
330
2
100
AcDbEntity
  8
0
100
AcDbLine
 10
9506.527744691018
 20
-812.5678990421491
 30
0.0
 11
9506.542725852678
 21
-812.5663702305882
 31
0.0
  0
LINE
  5
288
330
2
100
AcDbEntity
  8
0
100
AcDbLine
 10
9506.542725852678
 20
-812.5663702305882
 30
0.0
 11
9506.557727641725
 21
-812.5648665673523
 31
0.0
  0
LINE
  5
289
330
2
100
AcDbEntity
  8
0
100
AcDbLine
 10
9506.557727641725
 20
-812.5648665673523
 30
0.0
 11
9506.572749803405
 21
-812.563387696564
 31
0.0
  0
LINE
  5
28A
330
2
100
AcDbEntity
  8
0
100
AcDbLine
 10
9506.572749803405
 20
-812.563387696564
 30
0.0
 11
9506.587792082951
 21
-812.5619332623516
 31
0.0
  0
LINE
  5
28B
330
2
100
AcDbEntity
  8
0
100
AcDbLine
 10
9506.587792082951
 20
-812.5619332623516
 30
0.0
 11
9506.60285422562
 21
-812.5605029088381
 31
0.0
  0
LINE
  5
28C
330
2
100
AcDbEntity
  8
0
100
AcDbLine
 10
9506.60285422562
 20
-812.5605029088381
 30
0.0
 11
9506.61793597664
 21
-812.559096280156
 31
0.0
  0
LINE
  5
28D
330
2
100
AcDbEntity
  8
0
100
AcDbLine
 10
9506.61793597664
 20
-812.559096280156
 30
0.0
 11
9506.633037081259
 21
-812.5577130204344
 31
0.0
  0
LINE
  5
28E
330
2
100
AcDbEntity
  8
0
100
AcDbLine
 10
9506.633037081259
 20
-812.5577130204344
 30
0.0
 11
9506.64815728472
 21
-812.5563527737959
 31
0.0
  0
LINE
  5
28F
330
2
100
AcDbEntity
  8
0
100
AcDbLine
 10
9506.64815728472
 20
-812.5563527737959
 30
0.0
 11
9506.663296332268
 21
-812.5550151843617
 31
0.0
  0
LINE
  5
290
330
2
100
AcDbEntity
  8
0
100
AcDbLine
 10
9506.663296332268
 20
-812.5550151843617
 30
0.0
 11
9506.678453969142
 21
-812.5536998962726
 31
0.0
  0
LINE
  5
291
330
2
100
AcDbEntity
  8
0
100
AcDbLine
 10
9506.678453969142
 20
-812.5536998962726
 30
0.0
 11
9506.693629940583
 21
-812.5524065536465
 31
0.0
  0
LINE
  5
292
330
2
100
AcDbEntity
  8
0
100
AcDbLine
 10
9506.693629940583
 20
-812.5524065536465
 30
0.0
 11
9506.708823991838
 21
-812.551134800613
 31
0.0
  0
LINE
  5
293
330
2
100
AcDbEntity
  8
0
100
AcDbLine
 10
9506.708823991838
 20
-812.551134800613
 30
0.0
 11
9506.724035868149
 21
-812.5498842813012
 31
0.0
  0
LINE
  5
294
330
2
100
AcDbEntity
  8
0
100
AcDbLine
 10
9506.724035868149
 20
-812.5498842813012
 30
0.0
 11
9506.739265314752
 21
-812.5486546398331
 31
0.0
  0
LINE
  5
295
330
2
100
AcDbEntity
  8
0
100
AcDbLine
 10
9506.739265314752
 20
-812.5486546398331
 30
0.0
 11
9506.754512076895
 21
-812.547445520342
 31
0.0
  0
LINE
  5
296
330
2
100
AcDbEntity
  8
0
100
AcDbLine
 10
9506.754512076895
 20
-812.547445520342
 30
0.0
 11
9506.769775899824
 21
-812.5462565669494
 31
0.0
  0
LINE
  5
297
330
2
100
AcDbEntity
  8
0
100
AcDbLine
 10
9506.769775899824
 20
-812.5462565669494
 30
0.0
 11
9506.785056528775
 21
-812.5450874237849
 31
0.0
  0
LINE
  5
298
330
2
100
AcDbEntity
  8
0
100
AcDbLine
 10
9506.785056528775
 20
-812.5450874237849
 30
0.0
 11
9506.800353708994
 21
-812.5439377349739
 31
0.0
  0
LINE
  5
299
330
2
100
AcDbEntity
  8
0
100
AcDbLine
 10
9506.800353708994
 20
-812.5439377349739
 30
0.0
 11
9506.815667185719
 21
-812.5428071446494
 31
0.0
  0
LINE
  5
29A
330
2
100
AcDbEntity
  8
0
100
AcDbLine
 10
9506.815667185719
 20
-812.5428071446494
 30
0.0
 11
9506.8309967042
 21
-812.5416952969334
 31
0.0
  0
LINE
  5
29B
330
2
100
AcDbEntity
  8
0
100
AcDbLine
 10
9506.8309967042
 20
-812.5416952969334
 30
0.0
 11
9506.846342009676
 21
-812.5406018359552
 31
0.0
  0
LINE
  5
29C
330
2
100
AcDbEntity
  8
0
100
AcDbLine
 10
9506.846342009676
 20
-812.5406018359552
 30
0.0
 11
9506.861702847384
 21
-812.5395264058369
 31
0.0
  0
LINE
  5
29D
330
2
100
AcDbEntity
  8
0
100
AcDbLine
 10
9506.861702847384
 20
-812.5395264058369
 30
0.0
 11
9506.877078962574
 21
-812.538468650715
 31
0.0
  0
LINE
  5
29E
330
2
100
AcDbEntity
  8
0
100
AcDbLine
 10
9506.877078962574
 20
-812.538468650715
 30
0.0
 11
9506.892470100488
 21
-812.5374282147076
 31
0.0
  0
LINE
  5
29F
330
2
100
AcDbEntity
  8
0
100
AcDbLine
 10
9506.892470100488
 20
-812.5374282147076
 30
0.0
 11
9506.907876006362
 21
-812.5364047419479
 31
0.0
  0
LINE
  5
2A0
330
2
100
AcDbEntity
  8
0
100
AcDbLine
 10
9506.907876006362
 20
-812.5364047419479
 30
0.0
 11
9506.923296425446
 21
-812.5353978765614
 31
0.0
  0
LINE
  5
2A1
330
2
100
AcDbEntity
  8
0
100
AcDbLine
 10
9506.923296425446
 20
-812.5353978765614
 30
0.0
 11
9506.938731102977
 21
-812.5344072626702
 31
0.0
  0
LINE
  5
2A2
330
2
100
AcDbEntity
  8
0
100
AcDbLine
 10
9506.938731102977
 20
-812.5344072626702
 30
0.0
 11
9506.9541797842
 21
-812.5334325444109
 31
0.0
  0
LINE
  5
2A3
330
2
100
AcDbEntity
  8
0
100
AcDbLine
 10
9506.9541797842
 20
-812.5334325444109
 30
0.0
 11
9506.969642214361
 21
-812.5324733659017
 31
0.0
  0
LINE
  5
2A4
330
2
100
AcDbEntity
  8
0
100
AcDbLine
 10
9506.969642214361
 20
-812.5324733659017
 30
0.0
 11
9506.985118138697
 21
-812.5315293712755
 31
0.0
  0
LINE
  5
2A5
330
2
100
AcDbEntity
  8
0
100
AcDbLine
 10
9506.985118138697
 20
-812.5315293712755
 30
0.0
 11
9507.000607302448
 21
-812.5306002046581
 31
0.0
  0
LINE
  5
2A6
330
2
100
AcDbEntity
  8
0
100
AcDbLine
 10
9507.000607302448
 20
-812.5306002046581
 30
0.0
 11
9507.016109450868
 21
-812.5296855101751
 31
0.0
  0
LINE
  5
2A7
330
2
100
AcDbEntity
  8
0
100
AcDbLine
 10
9507.016109450868
 20
-812.5296855101751
 30
0.0
 11
9507.031624329192
 21
-812.5287849319557
 31
0.0
  0
LINE
  5
2A8
330
2
100
AcDbEntity
  8
0
100
AcDbLine
 10
9507.031624329192
 20
-812.5287849319557
 30
0.0
 11
9507.047151682657
 21
-812.5278981141217
 31
0.0
  0
LINE
  5
2A9
330
2
100
AcDbEntity
  8
0
100
AcDbLine
 10
9507.047151682657
 20
-812.5278981141217
 30
0.0
 11
9507.062691256512
 21
-812.5270247008101
 31
0.0
  0
LINE
  5
2AA
330
2
100
AcDbEntity
  8
0
100
AcDbLine
 10
9507.062691256512
 20
-812.5270247008101
 30
0.0
 11
9507.078242796003
 21
-812.5261643361428
 31
0.0
  0
LINE
  5
2AB
330
2
100
AcDbEntity
  8
0
100
AcDbLine
 10
9507.078242796003
 20
-812.5261643361428
 30
0.0
 11
9507.093806046368
 21
-812.5253166642414
 31
0.0
  0
LINE
  5
2AC
330
2
100
AcDbEntity
  8
0
100
AcDbLine
 10
9507.093806046368
 20
-812.5253166642414
 30
0.0
 11
9507.109380752849
 21
-812.5244813292427
 31
0.0
  0
LINE
  5
2AD
330
2
100
AcDbEntity
  8
0
100
AcDbLine
 10
9507.109380752849
 20
-812.5244813292427
 30
0.0
 11
9507.124966660688
 21
-812.5236579752691
 31
0.0
  0
LINE
  5
2AE
330
2
100
AcDbEntity
  8
0
100
AcDbLine
 10
9507.124966660688
 20
-812.5236579752691
 30
0.0
 11
9507.140563515127
 21
-812.5228462464493
 31
0.0
  0
LINE
  5
2AF
330
2
100
AcDbEntity
  8
0
100
AcDbLine
 10
9507.140563515127
 20
-812.5228462464493
 30
0.0
 11
9507.156171061417
 21
-812.5220457869055
 31
0.0
  0
LINE
  5
2B0
330
2
100
AcDbEntity
  8
0
100
AcDbLine
 10
9507.156171061417
 20
-812.5220457869055
 30
0.0
 11
9507.171789044788
 21
-812.5212562407668
 31
0.0
  0
LINE
  5
2B1
330
2
100
AcDbEntity
  8
0
100
AcDbLine
 10
9507.171789044788
 20
-812.5212562407668
 30
0.0
 11
9507.187417210493
 21
-812.5204772521666
 31
0.0
  0
LINE
  5
2B2
330
2
100
AcDbEntity
  8
0
100
AcDbLine
 10
9507.187417210493
 20
-812.5204772521666
 30
0.0
 11
9507.203055303767
 21
-812.5197084652299
 31
0.0
  0
LINE
  5
2B3
330
2
100
AcDbEntity
  8
0
100
AcDbLine
 10
9507.203055303767
 20
-812.5197084652299
 30
0.0
 11
9507.218703069851
 21
-812.5189495240757
 31
0.0
  0
LINE
  5
2B4
330
2
100
AcDbEntity
  8
0
100
AcDbLine
 10
9507.218703069851
 20
-812.5189495240757
 30
0.0
 11
9507.234360254001
 21
-812.5182000728401
 31
0.0
  0
LINE
  5
2B5
330
2
100
AcDbEntity
  8
0
100
AcDbLine
 10
9507.234360254001
 20
-812.5182000728401
 30
0.0
 11
9507.250026601445
 21
-812.5174597556451
 31
0.0
  0
LINE
  5
2B6
330
2
100
AcDbEntity
  8
0
100
AcDbLine
 10
9507.250026601445
 20
-812.5174597556451
 30
0.0
 11
9507.265701857432
 21
-812.5167282166202
 31
0.0
  0
LINE
  5
2B7
330
2
100
AcDbEntity
  8
0
100
AcDbLine
 10
9507.265701857432
 20
-812.5167282166202
 30
0.0
 11
9507.281385767205
 21
-812.5160050998948
 31
0.0
  0
LINE
  5
2B8
330
2
100
AcDbEntity
  8
0
100
AcDbLine
 10
9507.281385767205
 20
-812.5160050998948
 30
0.0
 11
9507.297078076
 21
-812.515290049594
 31
0.0
  0
LINE
  5
2B9
330
2
100
AcDbEntity
  8
0
100
AcDbLine
 10
9507.297078076
 20
-812.515290049594
 30
0.0
 11
9507.312778529069
 21
-812.5145827098403
 31
0.0
  0
LINE
  5
2BA
330
2
100
AcDbEntity
  8
0
100
AcDbLine
 10
9507.312778529069
 20
-812.5145827098403
 30
0.0
 11
9507.328486871648
 21
-812.5138827247665
 31
0.0
  0
LINE
  5
2BB
330
2
100
AcDbEntity
  8
0
100
AcDbLine
 10
9507.328486871648
 20
-812.5138827247665
 30
0.0
 11
9507.34420284898
 21
-812.5131897384981
 31
0.0
  0
LINE
  5
2BC
330
2
100
AcDbEntity
  8
0
100
AcDbLine
 10
9507.34420284898
 20
-812.5131897384981
 30
0.0
 11
9507.359926206312
 21
-812.5125033951642
 31
0.0
  0
LINE
  5
2BD
330
2
100
AcDbEntity
  8
0
100
AcDbLine
 10
9507.359926206312
 20
-812.5125033951642
 30
0.0
 11
9507.375656688884
 21
-812.5118233388914
 31
0.0
  0
LINE
  5
2BE
330
2
100
AcDbEntity
  8
0
100
AcDbLine
 10
9507.375656688884
 20
-812.5118233388914
 30
0.0
 11
9507.391394041931
 21
-812.5111492138001
 31
0.0
  0
LINE
  5
2BF
330
2
100
AcDbEntity
  8
0
100
AcDbLine
 10
9507.391394041931
 20
-812.5111492138001
 30
0.0
 11
9507.407138010712
 21
-812.5104806640283
 31
0.0
  0
LINE
  5
2C0
330
2
100
AcDbEntity
  8
0
100
AcDbLine
 10
9507.407138010712
 20
-812.5104806640283
 30
0.0
 11
9507.422888340453
 21
-812.5098173336937
 31
0.0
  0
LINE
  5
2C1
330
2
100
AcDbEntity
  8
0
100
AcDbLine
 10
9507.422888340453
 20
-812.5098173336937
 30
0.0
 11
9507.438644776406
 21
-812.5091588669292
 31
0.0
  0
LINE
  5
2C2
330
2
100
AcDbEntity
  8
0
100
AcDbLine
 10
9507.438644776406
 20
-812.5091588669292
 30
0.0
 11
9507.454407063809
 21
-812.5085049078606
 31
0.0
  0
LINE
  5
2C3
330
2
100
AcDbEntity
  8
0
100
AcDbLine
 10
9507.454407063809
 20
-812.5085049078606
 30
0.0
 11
9507.47017494791
 21
-812.5078551006136
 31
0.0
  0
LINE
  5
2C4
330
2
100
AcDbEntity
  8
0
100
AcDbLine
 10
9507.47017494791
 20
-812.5078551006136
 30
0.0
 11
9507.485948173943
 21
-812.5072090893173
 31
0.0
  0
LINE
  5
2C5
330
2
100
AcDbEntity
  8
0
100
AcDbLine
 10
9507.485948173943
 20
-812.5072090893173
 30
0.0
 11
9507.501726487159
 21
-812.5065665180972
 31
0.0
  0
LINE
  5
2C6
330
2
100
AcDbEntity
  8
0
100
AcDbLine
 10
9507.501726487159
 20
-812.5065665180972
 30
0.0
 11
9507.517509632796
 21
-812.5059270310794
 31
0.0
  0
LINE
  5
2C7
330
2
100
AcDbEntity
  8
0
100
AcDbLine
 10
9507.517509632796
 20
-812.5059270310794
 30
0.0
 11
9507.533297356095
 21
-812.5052902723965
 31
0.0
  0
LINE
  5
2C8
330
2
100
AcDbEntity
  8
0
100
AcDbLine
 10
9507.533297356095
 20
-812.5052902723965
 30
0.0
 11
9507.549089402306
 21
-812.5046558861702
 31
0.0
  0
LINE
  5
2C9
330
2
100
AcDbEntity
  8
0
100
AcDbLine
 10
9507.549089402306
 20
-812.5046558861702
 30
0.0
 11
9507.564885516663
 21
-812.5040235165306
 31
0.0
  0
LINE
  5
2CA
330
2
100
AcDbEntity
  8
0
100
AcDbLine
 10
9507.564885516663
 20
-812.5040235165306
 30
0.0
 11
9507.580685444414
 21
-812.5033928076026
 31
0.0
  0
LINE
  5
2CB
330
2
100
AcDbEntity
  8
0
100
AcDbLine
 10
9507.580685444414
 20
-812.5033928076026
 30
0.0
 11
9507.596488930799
 21
-812.5027634035159
 31
0.0
  0
LINE
  5
2CC
330
2
100
AcDbEntity
  8
0
100
AcDbLine
 10
9507.596488930799
 20
-812.5027634035159
 30
0.0
 11
9507.612295721058
 21
-812.5021349483921
 31
0.0
  0
LINE
  5
2CD
330
2
100
AcDbEntity
  8
0
100
AcDbLine
 10
9507.612295721058
 20
-812.5021349483921
 30
0.0
 11
9507.62810556044
 21
-812.5015070863682
 31
0.0
  0
LINE
  5
2CE
330
2
100
AcDbEntity
  8
0
100
AcDbLine
 10
9507.62810556044
 20
-812.5015070863682
 30
0.0
 11
9507.643918194181
 21
-812.5008794615624
 31
0.0
  0
LINE
  5
2CF
330
2
100
AcDbEntity
  8
0
100
AcDbLine
 10
9507.643918194181
 20
-812.5008794615624
 30
0.0
 11
9507.659733367528
 21
-812.5002517181037
 31
0.0
  0
LINE
  5
2D0
330
2
100
AcDbEntity
  8
0
100
AcDbLine
 10
9507.659733367528
 20
-812.5002517181037
 30
0.0
 11
9507.675550825721
 21
-812.4996235001253
 31
0.0
  0
LINE
  5
2D1
330
2
100
AcDbEntity
  8
0
100
AcDbLine
 10
9507.675550825721
 20
-812.4996235001253
 30
0.0
 11
9507.691370314004
 21
-812.4989944517455
 31
0.0
  0
LINE
  5
2D2
330
2
100
AcDbEntity
  8
0
100
AcDbLine
 10
9507.691370314004
 20
-812.4989944517455
 30
0.0
 11
9507.707191577621
 21
-812.4983642170972
 31
0.0
  0
LINE
  5
2D3
330
2
100
AcDbEntity
  8
0
100
AcDbLine
 10
9507.707191577621
 20
-812.4983642170972
 30
0.0
 11
9507.723014361806
 21
-812.4977324403062
 31
0.0
  0
LINE
  5
2D4
330
2
100
AcDbEntity
  8
0
100
AcDbLine
 10
9507.723014361806
 20
-812.4977324403062
 30
0.0
 11
9507.738838411816
 21
-812.4970987654979
 31
0.0
  0
LINE
  5
2D5
330
2
100
AcDbEntity
  8
0
100
AcDbLine
 10
9507.738838411816
 20
-812.4970987654979
 30
0.0
 11
9507.754663472878
 21
-812.4964628368015
 31
0.0
  0
LINE
  5
2D6
330
2
100
AcDbEntity
  8
0
100
AcDbLine
 10
9507.754663472878
 20
-812.4964628368015
 30
0.0
 11
9507.770489290248
 21
-812.4958242983465
 31
0.0
  0
LINE
  5
2D7
330
2
100
AcDbEntity
  8
0
100
AcDbLine
 10
9507.770489290248
 20
-812.4958242983465
 30
0.0
 11
9507.786315609161
 21
-812.4951827942549
 31
0.0
  0
LINE
  5
2D8
330
2
100
AcDbEntity
  8
0
100
AcDbLine
 10
9507.786315609161
 20
-812.4951827942549
 30
0.0
 11
9507.802142174858
 21
-812.4945379686524
 31
0.0
  0
LINE
  5
2D9
330
2
100
AcDbEntity
  8
0
100
AcDbLine
 10
9507.802142174858
 20
-812.4945379686524
 30
0.0
 11
9507.817968732585
 21
-812.4938894656716
 31
0.0
  0
LINE
  5
2DA
330
2
100
AcDbEntity
  8
0
100
AcDbLine
 10
9507.817968732585
 20
-812.4938894656716
 30
0.0
 11
9507.833795027584
 21
-812.493236929442
 31
0.0
  0
LINE
  5
2DB
330
2
100
AcDbEntity
  8
0
100
AcDbLine
 10
9507.833795027584
 20
-812.493236929442
 30
0.0
 11
9507.849620805101
 21
-812.4925800040855
 31
0.0
  0
LINE
  5
2DC
330
2
100
AcDbEntity
  8
0
100
AcDbLine
 10
9507.849620805101
 20
-812.4925800040855
 30
0.0
 11
9507.865445810372
 21
-812.4919183337242
 31
0.0
  0
LINE
  5
2DD
330
2
100
AcDbEntity
  8
0
100
AcDbLine
 10
9507.865445810372
 20
-812.4919183337242
 30
0.0
 11
9507.881269788642
 21
-812.4912515624982
 31
0.0
  0
LINE
  5
2DE
330
2
100
AcDbEntity
  8
0
100
AcDbLine
 10
9507.881269788642
 20
-812.4912515624982
 30
0.0
 11
9507.897092485157
 21
-812.4905793345259
 31
0.0
  0
LINE
  5
2DF
330
2
100
AcDbEntity
  8
0
100
AcDbLine
 10
9507.897092485157
 20
-812.4905793345259
 30
0.0
 11
9507.912913645153
 21
-812.4899012939367
 31
0.0
  0
LINE
  5
2E0
330
2
100
AcDbEntity
  8
0
100
AcDbLine
 10
9507.912913645153
 20
-812.4899012939367
 30
0.0
 11
9507.928733013875
 21
-812.4892170848561
 31
0.0
  0
LINE
  5
2E1
330
2
100
AcDbEntity
  8
0
100
AcDbLine
 10
9507.928733013875
 20
-812.4892170848561
 30
0.0
 11
9507.944550336572
 21
-812.4885263514132
 31
0.0
  0
LINE
  5
2E2
330
2
100
AcDbEntity
  8
0
100
AcDbLine
 10
9507.944550336572
 20
-812.4885263514132
 30
0.0
 11
9507.960365358476
 21
-812.4878287377342
 31
0.0
  0
LINE
  5
2E3
330
2
100
AcDbEntity
  8
0
100
AcDbLine
 10
9507.960365358476
 20
-812.4878287377342
 30
0.0
 11
9507.976177824835
 21
-812.4871238879476
 31
0.0
  0
LINE
  5
2E4
330
2
100
AcDbEntity
  8
0
100
AcDbLine
 10
9507.976177824835
 20
-812.4871238879476
 30
0.0
 11
9507.99198748089
 21
-812.4864114461797
 31
0.0
  0
LINE
  5
2E5
330
2
100
AcDbEntity
  8
0
100
AcDbLine
 10
9507.99198748089
 20
-812.4864114461797
 30
0.0
 11
9508.00779407189
 21
-812.4856910565558
 31
0.0
  0
LINE
  5
2E6
330
2
100
AcDbEntity
  8
0
100
AcDbLine
 10
9508.00779407189
 20
-812.4856910565558
 30
0.0
 11
9508.023597343068
 21
-812.4849623632051
 31
0.0
  0
LINE
  5
2E7
330
2
100
AcDbEntity
  8
0
100
AcDbLine
 10
9508.023597343068
 20
-812.4849623632051
 30
0.0
 11
9508.039397039667
 21
-812.4842250102574
 31
0.0
  0
LINE
  5
2E8
330
2
100
AcDbEntity
  8
0
100
AcDbLine
 10
9508.039397039667
 20
-812.4842250102574
 30
0.0
 11
9508.055192906935
 21
-812.4834786418341
 31
0.0
  0
LINE
  5
2E9
330
2
100
AcDbEntity
  8
0
100
AcDbLine
 10
9508.055192906935
 20
-812.4834786418341
 30
0.0
 11
9508.070984690116
 21
-812.4827229020647
 31
0.0
  0
LINE
  5
2EA
330
2
100
AcDbEntity
  8
0
100
AcDbLine
 10
9508.070984690116
 20
-812.4827229020647
 30
0.0
 11
9508.086772134445
 21
-812.4819574350746
 31
0.0
  0
LINE
  5
2EB
330
2
100
AcDbEntity
  8
0
100
AcDbLine
 10
9508.086772134445
 20
-812.4819574350746
 30
0.0
 11
9508.102554985173
 21
-812.4811818849975
 31
0.0
  0
LINE
  5
2EC
330
2
100
AcDbEntity
  8
0
100
AcDbLine
 10
9508.102554985173
 20
-812.4811818849975
 30
0.0
 11
9508.118332987534
 21
-812.4803958959509
 31
0.0
  0
LINE
  5
2ED
330
2
100
AcDbEntity
  8
0
100
AcDbLine
 10
9508.118332987534
 20
-812.4803958959509
 30
0.0
 11
9508.134105886773
 21
-812.4795991120716
 31
0.0
  0
LINE
  5
2EE
330
2
100
AcDbEntity
  8
0
100
AcDbLine
 10
9508.134105886773
 20
-812.4795991120716
 30
0.0
 11
9508.149873428139
 21
-812.478791177482
 31
0.0
  0
LINE
  5
2EF
330
2
100
AcDbEntity
  8
0
100
AcDbLine
 10
9508.149873428139
 20
-812.478791177482
 30
0.0
 11
9508.165635356867
 21
-812.4779717363107
 31
0.0
  0
LINE
  5
2F0
330
2
100
AcDbEntity
  8
0
100
AcDbLine
 10
9508.165635356867
 20
-812.4779717363107
 30
0.0
 11
9508.181391418201
 21
-812.4771404326802
 31
0.0
  0
LINE
  5
2F1
330
2
100
AcDbEntity
  8
0
100
AcDbLine
 10
9508.181391418201
 20
-812.4771404326802
 30
0.0
 11
9508.197141357385
 21
-812.4762969107232
 31
0.0
  0
LINE
  5
2F2
330
2
100
AcDbEntity
  8
0
100
AcDbLine
 10
9508.197141357385
 20
-812.4762969107232
 30
0.0
 11
9508.212884919664
 21
-812.4754408145618
 31
0.0
  0
LINE
  5
2F3
330
2
100
AcDbEntity
  8
0
100
AcDbLine
 10
9508.212884919664
 20
-812.4754408145618
 30
0.0
 11
9508.228621850273
 21
-812.4745717883287
 31
0.0
  0
LINE
  5
2F4
330
2
100
AcDbEntity
  8
0
100
AcDbLine
 10
9508.228621850273
 20
-812.4745717883287
 30
0.0
 11
9508.244351894459
 21
-812.4736894761499
 31
0.0
  0
LINE
  5
2F5
330
2
100
AcDbEntity
  8
0
100
AcDbLine
 10
9508.244351894459
 20
-812.4736894761499
 30
0.0
 11
9508.260074797467
 21
-812.472793522147
 31
0.0
  0
LINE
  5
2F6
330
2
100
AcDbEntity
  8
0
100
AcDbLine
 10
9508.260074797467
 20
-812.472793522147
 30
0.0
 11
9508.275790304535
 21
-812.4718835704532
 31
0.0
  0
LINE
  5
2F7
330
2
100
AcDbEntity
  8
0
100
AcDbLine
 10
9508.275790304535
 20
-812.4718835704532
 30
0.0
 11
9508.291498160907
 21
-812.4709592651942
 31
0.0
  0
LINE
  5
2F8
330
2
100
AcDbEntity
  8
0
100
AcDbLine
 10
9508.291498160907
 20
-812.4709592651942
 30
0.0
 11
9508.307198111827
 21
-812.4700202504955
 31
0.0
  0
LINE
  5
2F9
330
2
100
AcDbEntity
  8
0
100
AcDbLine
 10
9508.307198111827
 20
-812.4700202504955
 30
0.0
 11
9508.322889902535
 21
-812.4690661704862
 31
0.0
  0
LINE
  5
2FA
330
2
100
AcDbEntity
  8
0
100
AcDbLine
 10
9508.322889902535
 20
-812.4690661704862
 30
0.0
 11
9508.338573278278
 21
-812.4680966692958
 31
0.0
  0
LINE
  5
2FB
330
2
100
AcDbEntity
  8
0
100
AcDbLine
 10
9508.338573278278
 20
-812.4680966692958
 30
0.0
 11
9508.354247984296
 21
-812.4671113910427
 31
0.0
  0
LINE
  5
2FC
330
2
100
AcDbEntity
  8
0
100
AcDbLine
 10
9508.354247984296
 20
-812.4671113910427
 30
0.0
 11
9508.369913765829
 21
-812.4661099798668
 31
0.0
  0
LINE
  5
2FD
330
2
100
AcDbEntity
  8
0
100
AcDbLine
 10
9508.369913765829
 20
-812.4661099798668
 30
0.0
 11
9508.385570368121
 21
-812.4650920798794
 31
0.0
  0
LINE
  5
2FE
330
2
100
AcDbEntity
  8
0
100
AcDbLine
 10
9508.385570368121
 20
-812.4650920798794
 30
0.0
 11
9508.401217536414
 21
-812.4640573352207
 31
0.0
  0
LINE
  5
2FF
330
2
100
AcDbEntity
  8
0
100
AcDbLine
 10
9508.401217536414
 20
-812.4640573352207
 30
0.0
 11
9508.416855015951
 21
-812.4630053900162
 31
0.0
  0
LINE
  5
300
330
2
100
AcDbEntity
  8
0
100
AcDbLine
 10
9508.416855015951
 20
-812.4630053900162
 30
0.0
 11
9508.432482551979
 21
-812.4619358883846
 31
0.0
  0
LINE
  5
301
330
2
100
AcDbEntity
  8
0
100
AcDbLine
 10
9508.432482551979
 20
-812.4619358883846
 30
0.0
 11
9508.448099889731
 21
-812.4608484744621
 31
0.0
  0
LINE
  5
302
330
2
100
AcDbEntity
  8
0
100
AcDbLine
 10
9508.448099889731
 20
-812.4608484744621
 30
0.0
 11
9508.463706774461
 21
-812.4597427923708
 31
0.0
  0
LINE
  5
303
330
2
100
AcDbEntity
  8
0
100
AcDbLine
 10
9508.463706774461
 20
-812.4597427923708
 30
0.0
 11
9508.479302951402
 21
-812.4586184862401
 31
0.0
  0
LINE
  5
304
330
2
100
AcDbEntity
  8
0
100
AcDbLine
 10
9508.479302951402
 20
-812.4586184862401
 30
0.0
 11
9508.494888165801
 21
-812.4574752001988
 31
0.0
  0
LINE
  5
305
330
2
100
AcDbEntity
  8
0
100
AcDbLine
 10
9508.494888165801
 20
-812.4574752001988
 30
0.0
 11
9508.510462162901
 21
-812.4563125783733
 31
0.0
  0
LINE
  5
306
330
2
100
AcDbEntity
  8
0
100
AcDbLine
 10
9508.510462162901
 20
-812.4563125783733
 30
0.0
 11
9508.526024687936
 21
-812.4551302648852
 31
0.0
  0
LINE
  5
307
330
2
100
AcDbEntity
  8
0
100
AcDbLine
 10
9508.526024687936
 20
-812.4551302648852
 30
0.0
 11
9508.541575486159
 21
-812.4539279038637
 31
0.0
  0
LINE
  5
308
330
2
100
AcDbEntity
  8
0
100
AcDbLine
 10
9508.541575486159
 20
-812.4539279038637
 30
0.0
 11
9508.557114302812
 21
-812.4527051394451
 31
0.0
  0
LINE
  5
309
330
2
100
AcDbEntity
  8
0
100
AcDbLine
 10
9508.557114302812
 20
-812.4527051394451
 30
0.0
 11
9508.572640883132
 21
-812.4514616157448
 31
0.0
  0
LINE
  5
30A
330
2
100
AcDbEntity
  8
0
100
AcDbLine
 10
9508.572640883132
 20
-812.4514616157448
 30
0.0
 11
9508.588154972365
 21
-812.4501969768953
 31
0.0
  0
LINE
  5
30B
330
2
100
AcDbEntity
  8
0
100
AcDbLine
 10
9508.588154972365
 20
-812.4501969768953
 30
0.0
 11
9508.603656315752
 21
-812.4489108670223
 31
0.0
  0
LINE
  5
30C
330
2
100
AcDbEntity
  8
0
100
AcDbLine
 10
9508.603656315752
 20
-812.4489108670223
 30
0.0
 11
9508.619144658537
 21
-812.4476029302551
 31
0.0
  0
LINE
  5
30D
330
2
100
AcDbEntity
  8
0
100
AcDbLine
 10
9508.619144658537
 20
-812.4476029302551
 30
0.0
 11
9508.63461974596
 21
-812.4462728107156
 31
0.0
  0
LINE
  5
30E
330
2
100
AcDbEntity
  8
0
100
AcDbLine
 10
9508.63461974596
 20
-812.4462728107156
 30
0.0
 11
9508.650081323263
 21
-812.4449201525404
 31
0.0
  0
LINE
  5
30F
330
2
100
AcDbEntity
  8
0
100
AcDbLine
 10
9508.650081323263
 20
-812.4449201525404
 30
0.0
 11
9508.665529135695
 21
-812.4435445998479
 31
0.0
  0
LINE
  5
310
330
2
100
AcDbEntity
  8
0
100
AcDbLine
 10
9508.665529135695
 20
-812.4435445998479
 30
0.0
 11
9508.680962928487
 21
-812.4421457967674
 31
0.0
  0
LINE
  5
311
330
2
100
AcDbEntity
  8
0
100
AcDbLine
 10
9508.680962928487
 20
-812.4421457967674
 30
0.0
 11
9508.696382446895
 21
-812.4407233874281
 31
0.0
  0
LINE
  5
312
330
2
100
AcDbEntity
  8
0
100
AcDbLine
 10
9508.696382446895
 20
-812.4407233874281
 30
0.0
 11
9508.711787436153
 21
-812.4392770159593
 31
0.0
  0
LINE
  5
313
330
2
100
AcDbEntity
  8
0
100
AcDbLine
 10
9508.711787436153
 20
-812.4392770159593
 30
0.0
 11
9508.727177641503
 21
-812.4378063264792
 31
0.0
  0
LINE
  5
314
330
2
100
AcDbEntity
  8
0
100
AcDbLine
 10
9508.727177641503
 20
-812.4378063264792
 30
0.0
 11
9508.742552808197
 21
-812.4363109631286
 31
0.0
  0
LINE
  5
315
330
2
100
AcDbEntity
  8
0
100
AcDbLine
 10
9508.742552808197
 20
-812.4363109631286
 30
0.0
 11
9508.757912681463
 21
-812.4347905700178
 31
0.0
  0
LINE
  5
316
330
2
100
AcDbEntity
  8
0
100
AcDbLine
 10
9508.757912681463
 20
-812.4347905700178
 30
0.0
 11
9508.773257006554
 21
-812.4332447912875
 31
0.0
  0
LINE
  5
317
330
2
100
AcDbEntity
  8
0
100
AcDbLine
 10
9508.773257006554
 20
-812.4332447912875
 30
0.0
 11
9508.78858552871
 21
-812.4316732710592
 31
0.0
  0
LINE
  5
318
330
2
100
AcDbEntity
  8
0
100
AcDbLine
 10
9508.78858552871
 20
-812.4316732710592
 30
0.0
 11
9508.803897993173
 21
-812.430075653463
 31
0.0
  0
LINE
  5
319
330
2
100
AcDbEntity
  8
0
100
AcDbLine
 10
9508.803897993173
 20
-812.430075653463
 30
0.0
 11
9508.819194145182
 21
-812.4284515826202
 31
0.0
  0
LINE
  5
31A
330
2
100
AcDbEntity
  8
0
100
AcDbLine
 10
9508.819194145182
 20
-812.4284515826202
 30
0.0
 11
9508.834473729988
 21
-812.4268007026676
 31
0.0
  0
LINE
  5
31B
330
2
100
AcDbEntity
  8
0
100
AcDbLine
 10
9508.834473729988
 20
-812.4268007026676
 30
0.0
 11
9508.849736492825
 21
-812.4251226577197
 31
0.0
  0
LINE
  5
31C
330
2
100
AcDbEntity
  8
0
100
AcDbLine
 10
9508.849736492825
 20
-812.4251226577197
 30
0.0
 11
9508.864982178939
 21
-812.4234170919132
 31
0.0
  0
LINE
  5
31D
330
2
100
AcDbEntity
  8
0
100
AcDbLine
 10
9508.864982178939
 20
-812.4234170919132
 30
0.0
 11
9508.880210533574
 21
-812.4216836493742
 31
0.0
  0
LINE
  5
31E
330
2
100
AcDbEntity
  8
0
100
AcDbLine
 10
9508.880210533574
 20
-812.4216836493742
 30
0.0
 11
9508.89542130197
 21
-812.4199219742276
 31
0.0
  0
LINE
  5
31F
330
2
100
AcDbEntity
  8
0
100
AcDbLine
 10
9508.89542130197
 20
-812.4199219742276
 30
0.0
 11
9508.910614229373
 21
-812.4181317106032
 31
0.0
  0
LINE
  5
320
330
2
100
AcDbEntity
  8
0
100
AcDbLine
 10
9508.910614229373
 20
-812.4181317106032
 30
0.0
 11
9508.925789061018
 21
-812.4163125026225
 31
0.0
  0
LINE
  5
321
330
2
100
AcDbEntity
  8
0
100
AcDbLine
 10
9508.925789061018
 20
-812.4163125026225
 30
0.0
 11
9508.940945542155
 21
-812.4144639944187
 31
0.0
  0
LINE
  5
322
330
2
100
AcDbEntity
  8
0
100
AcDbLine
 10
9508.940945542155
 20
-812.4144639944187
 30
0.0
 11
9508.956083418024
 21
-812.4125858301102
 31
0.0
  0
LINE
  5
323
330
2
100
AcDbEntity
  8
0
100
AcDbLine
 10
9508.956083418024
 20
-812.4125858301102
 30
0.0
 11
9508.971202433867
 21
-812.4106776538374
 31
0.0
  0
LINE
  5
324
330
2
100
AcDbEntity
  8
0
100
AcDbLine
 10
9508.971202433867
 20
-812.4106776538374
 30
0.0
 11
9508.98630233493
 21
-812.4087391097184
 31
0.0
  0
LINE
  5
325
330
2
100
AcDbEntity
  8
0
100
AcDbLine
 10
9508.98630233493
 20
-812.4087391097184
 30
0.0
 11
9509.001382866447
 21
-812.4067698418857
 31
0.0
  0
LINE
  5
326
330
2
100
AcDbEntity
  8
0
100
AcDbLine
 10
9509.001382866447
 20
-812.4067698418857
 30
0.0
 11
9509.016443773672
 21
-812.4047694944582
 31
0.0
  0
LINE
  5
327
330
2
100
AcDbEntity
  8
0
100
AcDbLine
 10
9509.016443773672
 20
-812.4047694944582
 30
0.0
 11
9509.031484801836
 21
-812.4027377115689
 31
0.0
  0
LINE
  5
328
330
2
100
AcDbEntity
  8
0
100
AcDbLine
 10
9509.031484801836
 20
-812.4027377115689
 30
0.0
 11
9509.046505696192
 21
-812.4006741373431
 31
0.0
  0
LINE
  5
329
330
2
100
AcDbEntity
  8
0
100
AcDbLine
 10
9509.046505696192
 20
-812.4006741373431
 30
0.0
 11
9509.061506201971
 21
-812.398578415914
 31
0.0
  0
LINE
  5
32A
330
2
100
AcDbEntity
  8
0
100
AcDbLine
 10
9509.061506201971
 20
-812.398578415914
 30
0.0
 11
9509.076486064428
 21
-812.3964501913997
 31
0.0
  0
LINE
  5
32B
330
2
100
AcDbEntity
  8
0
100
AcDbLine
 10
9509.076486064428
 20
-812.3964501913997
 30
0.0
 11
9509.091445028799
 21
-812.3942891079332
 31
0.0
  0
LINE
  5
32C
330
2
100
AcDbEntity
  8
0
100
AcDbLine
 10
9509.091445028799
 20
-812.3942891079332
 30
0.0
 11
9509.106382840323
 21
-812.3920948096401
 31
0.0
  0
LINE
  5
32D
330
2
100
AcDbEntity
  8
0
100
AcDbLine
 10
9509.106382840323
 20
-812.3920948096401
 30
0.0
 11
9509.121299244252
 21
-812.3898669406463
 31
0.0
  0
LINE
  5
32E
330
2
100
AcDbEntity
  8
0
100
AcDbLine
 10
9509.121299244252
 20
-812.3898669406463
 30
0.0
 11
9509.136193985815
 21
-812.3876051450769
 31
0.0
  0
LINE
  5
32F
330
2
100
AcDbEntity
  8
0
100
AcDbLine
 10
9509.136193985815
 20
-812.3876051450769
 30
0.0
 11
9509.15106681027
 21
-812.3853090670655
 31
0.0
  0
LINE
  5
330
330
2
100
AcDbEntity
  8
0
100
AcDbLine
 10
9509.15106681027
 20
-812.3853090670655
 30
0.0
 11
9509.165917462851
 21
-812.3829783507336
 31
0.0
  0
LINE
  5
331
330
2
100
AcDbEntity
  8
0
100
AcDbLine
 10
9509.165917462851
 20
-812.3829783507336
 30
0.0
 11
9509.180745688796
 21
-812.3806126402104
 31
0.0
  0
LINE
  5
332
330
2
100
AcDbEntity
  8
0
100
AcDbLine
 10
9509.180745688796
 20
-812.3806126402104
 30
0.0
 11
9509.195551233355
 21
-812.3782115796256
 31
0.0
  0
LINE
  5
333
330
2
100
AcDbEntity
  8
0
100
AcDbLine
 10
9509.195551233355
 20
-812.3782115796256
 30
0.0
 11
9509.210333841773
 21
-812.375774813101
 31
0.0
  0
LINE
  5
334
330
2
100
AcDbEntity
  8
0
100
AcDbLine
 10
9509.210333841773
 20
-812.375774813101
 30
0.0
 11
9509.225093259283
 21
-812.3733019847696
 31
0.0
  0
LINE
  5
335
330
2
100
AcDbEntity
  8
0
100
AcDbLine
 10
9509.225093259283
 20
-812.3733019847696
 30
0.0
 11
9509.239829231137
 21
-812.3707927387567
 31
0.0
  0
LINE
  5
336
330
2
100
AcDbEntity
  8
0
100
AcDbLine
 10
9509.239829231137
 20
-812.3707927387567
 30
0.0
 11
9509.254541502569
 21
-812.3682467191848
 31
0.0
  0
LINE
  5
337
330
2
100
AcDbEntity
  8
0
100
AcDbLine
 10
9509.254541502569
 20
-812.3682467191848
 30
0.0
 11
9509.269229818825
 21
-812.3656635701863
 31
0.0
  0
LINE
  5
338
330
2
100
AcDbEntity
  8
0
100
AcDbLine
 10
9509.269229818825
 20
-812.3656635701863
 30
0.0
 11
9509.283893925152
 21
-812.3630429358872
 31
0.0
  0
LINE
  5
339
330
2
100
AcDbEntity
  8
0
100
AcDbLine
 10
9509.283893925152
 20
-812.3630429358872
 30
0.0
 11
9509.298533566786
 21
-812.3603844604129
 31
0.0
  0
LINE
  5
33A
330
2
100
AcDbEntity
  8
0
100
AcDbLine
 10
9509.298533566786
 20
-812.3603844604129
 30
0.0
 11
9509.313148488972
 21
-812.3576877878932
 31
0.0
  0
LINE
  5
33B
330
2
100
AcDbEntity
  8
0
100
AcDbLine
 10
9509.313148488972
 20
-812.3576877878932
 30
0.0
 11
9509.327738436953
 21
-812.3549525624531
 31
0.0
  0
LINE
  5
33C
330
2
100
AcDbEntity
  8
0
100
AcDbLine
 10
9509.327738436953
 20
-812.3549525624531
 30
0.0
 11
9509.342303155973
 21
-812.3521784282184
 31
0.0
  0
LINE
  5
33D
330
2
100
AcDbEntity
  8
0
100
AcDbLine
 10
9509.342303155973
 20
-812.3521784282184
 30
0.0
 11
9509.356842391268
 21
-812.3493650293184
 31
0.0
  0
LINE
  5
33E
330
2
100
AcDbEntity
  8
0
100
AcDbLine
 10
9509.356842391268
 20
-812.3493650293184
 30
0.0
 11
9509.371355888086
 21
-812.3465120098826
 31
0.0
  0
LINE
  5
33F
330
2
100
AcDbEntity
  8
0
100
AcDbLine
 10
9509.371355888086
 20
-812.3465120098826
 30
0.0
 11
9509.385843391672
 21
-812.3436190140326
 31
0.0
  0
LINE
  5
340
330
2
100
AcDbEntity
  8
0
100
AcDbLine
 10
9509.385843391672
 20
-812.3436190140326
 30
0.0
 11
9509.400304647259
 21
-812.3406856858983
 31
0.0
  0
LINE
  5
341
330
2
100
AcDbEntity
  8
0
100
AcDbLine
 10
9509.400304647259
 20
-812.3406856858983
 30
0.0
 11
9509.414739400099
 21
-812.3377116696119
 31
0.0
  0
LINE
  5
342
330
2
100
AcDbEntity
  8
0
100
AcDbLine
 10
9509.414739400099
 20
-812.3377116696119
 30
0.0
 11
9509.429147395437
 21
-812.3346966092922
 31
0.0
  0
LINE
  5
343
330
2
100
AcDbEntity
  8
0
100
AcDbLine
 10
9509.429147395437
 20
-812.3346966092922
 30
0.0
 11
9509.443528378501
 21
-812.331640149072
 31
0.0
  0
LINE
  5
344
330
2
100
AcDbEntity
  8
0
100
AcDbLine
 10
9509.443528378501
 20
-812.331640149072
 30
0.0
 11
9509.457882094542
 21
-812.3285419330766
 31
0.0
  0
LINE
  5
345
330
2
100
AcDbEntity
  8
0
100
AcDbLine
 10
9509.457882094542
 20
-812.3285419330766
 30
0.0
 11
9509.472208288803
 21
-812.3254016054287
 31
0.0
  0
LINE
  5
346
330
2
100
AcDbEntity
  8
0
100
AcDbLine
 10
9509.472208288803
 20
-812.3254016054287
 30
0.0
 11
9509.486506706531
 21
-812.3222188102644
 31
0.0
  0
LINE
  5
347
330
2
100
AcDbEntity
  8
0
100
AcDbLine
 10
9509.486506706531
 20
-812.3222188102644
 30
0.0
 11
9509.500777092961
 21
-812.3189931917059
 31
0.0
  0
LINE
  5
348
330
2
100
AcDbEntity
  8
0
100
AcDbLine
 10
9509.500777092961
 20
-812.3189931917059
 30
0.0
 11
9509.515019193335
 21
-812.3157243938747
 31
0.0
  0
LINE
  5
349
330
2
100
AcDbEntity
  8
0
100
AcDbLine
 10
9509.515019193335
 20
-812.3157243938747
 30
0.0
 11
9509.529232752903
 21
-812.3124120609116
 31
0.0
  0
LINE
  5
34A
330
2
100
AcDbEntity
  8
0
100
AcDbLine
 10
9509.529232752903
 20
-812.3124120609116
 30
0.0
 11
9509.5434175169
 21
-812.3090558369312
 31
0.0
  0
LINE
  5
34B
330
2
100
AcDbEntity
  8
0
100
AcDbLine
 10
9509.5434175169
 20
-812.3090558369312
 30
0.0
 11
9509.557573230573
 21
-812.3056553660662
 31
0.0
  0
LINE
  5
34C
330
2
100
AcDbEntity
  8
0
100
AcDbLine
 10
9509.557573230573
 20
-812.3056553660662
 30
0.0
 11
9509.57169963916
 21
-812.3022102924423
 31
0.0
  0
LINE
  5
34D
330
2
100
AcDbEntity
  8
0
100
AcDbLine
 10
9509.57169963916
 20
-812.3022102924423
 30
0.0
 11
9509.585796487913
 21
-812.2987202601889
 31
0.0
  0
LINE
  5
34E
330
2
100
AcDbEntity
  8
0
100
AcDbLine
 10
9509.585796487913
 20
-812.2987202601889
 30
0.0
 11
9509.599863522062
 21
-812.2951849134315
 31
0.0
  0
LINE
  5
34F
330
2
100
AcDbEntity
  8
0
100
AcDbLine
 10
9509.599863522062
 20
-812.2951849134315
 30
0.0
 11
9509.61390048686
 21
-812.2916038962994
 31
0.0
  0
LINE
  5
350
330
2
100
AcDbEntity
  8
0
100
AcDbLine
 10
9509.61390048686
 20
-812.2916038962994
 30
0.0
 11
9509.627907127541
 21
-812.2879768529147
 31
0.0
  0
LINE
  5
351
330
2
100
AcDbEntity
  8
0
100
AcDbLine
 10
9509.627907127541
 20
-812.2879768529147
 30
0.0
 11
9509.641883189351
 21
-812.2843034274065
 31
0.0
  0
LINE
  5
352
330
2
100
AcDbEntity
  8
0
100
AcDbLine
 10
9509.641883189351
 20
-812.2843034274065
 30
0.0
 11
9509.655828417535
 21
-812.2805832639041
 31
0.0
  0
LINE
  5
353
330
2
100
AcDbEntity
  8
0
100
AcDbLine
 10
9509.655828417535
 20
-812.2805832639041
 30
0.0
 11
9509.669742557337
 21
-812.2768160065334
 31
0.0
  0
LINE
  5
354
330
2
100
AcDbEntity
  8
0
100
AcDbLine
 10
9509.669742557337
 20
-812.2768160065334
 30
0.0
 11
9509.683625353988
 21
-812.2730012994196
 31
0.0
  0
LINE
  5
355
330
2
100
AcDbEntity
  8
0
100
AcDbLine
 10
9509.683625353988
 20
-812.2730012994196
 30
0.0
 11
9509.697476552744
 21
-812.2691387866961
 31
0.0
  0
LINE
  5
356
330
2
100
AcDbEntity
  8
0
100
AcDbLine
 10
9509.697476552744
 20
-812.2691387866961
 30
0.0
 11
9509.71129589884
 21
-812.2652281124846
 31
0.0
  0
LINE
  5
357
330
2
100
AcDbEntity
  8
0
100
AcDbLine
 10
9509.71129589884
 20
-812.2652281124846
 30
0.0
 11
9509.725083137524
 21
-812.2612689209109
 31
0.0
  0
LINE
  5
358
330
2
100
AcDbEntity
  8
0
100
AcDbLine
 10
9509.725083137524
 20
-812.2612689209109
 30
0.0
 11
9509.738838014033
 21
-812.2572608561076
 31
0.0
  0
LINE
  5
359
330
2
100
AcDbEntity
  8
0
100
AcDbLine
 10
9509.738838014033
 20
-812.2572608561076
 30
0.0
 11
9509.752560273609
 21
-812.2532035621969
 31
0.0
  0
LINE
  5
35A
330
2
100
AcDbEntity
  8
0
100
AcDbLine
 10
9509.752560273609
 20
-812.2532035621969
 30
0.0
 11
9509.766249661495
 21
-812.2490966833121
 31
0.0
  0
LINE
  5
35B
330
2
100
AcDbEntity
  8
0
100
AcDbLine
 10
9509.766249661495
 20
-812.2490966833121
 30
0.0
 11
9509.77990592294
 21
-812.2449398635707
 31
0.0
  0
LINE
  5
35C
330
2
100
AcDbEntity
  8
0
100
AcDbLine
 10
9509.77990592294
 20
-812.2449398635707
 30
0.0
 11
9509.793528803182
 21
-812.2407327471062
 31
0.0
  0
LINE
  5
35D
330
2
100
AcDbEntity
  8
0
100
AcDbLine
 10
9509.793528803182
 20
-812.2407327471062
 30
0.0
 11
9509.807118047467
 21
-812.2364749780517
 31
0.0
  0
LINE
  5
35E
330
2
100
AcDbEntity
  8
0
100
AcDbLine
 10
9509.807118047467
 20
-812.2364749780517
 30
0.0
 11
9509.820673401026
 21
-812.2321662005179
 31
0.0
  0
LINE
  5
35F
330
2
100
AcDbEntity
  8
0
100
AcDbLine
 10
9509.820673401026
 20
-812.2321662005179
 30
0.0
 11
9509.834194609114
 21
-812.2278060586486
 31
0.0
  0
LINE
  5
360
330
2
100
AcDbEntity
  8
0
100
AcDbLine
 10
9509.834194609114
 20
-812.2278060586486
 30
0.0
 11
9509.847681416969
 21
-812.2233941965621
 31
0.0
  0
LINE
  5
361
330
2
100
AcDbEntity
  8
0
100
AcDbLine
 10
9509.847681416969
 20
-812.2233941965621
 30
0.0
 11
9509.861133569833
 21
-812.2189302583846
 31
0.0
  0
LINE
  5
362
330
2
100
AcDbEntity
  8
0
100
AcDbLine
 10
9509.861133569833
 20
-812.2189302583846
 30
0.0
 11
9509.874550812948
 21
-812.2144138882486
 31
0.0
  0
LINE
  5
363
330
2
100
AcDbEntity
  8
0
100
AcDbLine
 10
9509.874550812948
 20
-812.2144138882486
 30
0.0
 11
9509.887932891556
 21
-812.2098447302832
 31
0.0
  0
LINE
  5
364
330
2
100
AcDbEntity
  8
0
100
AcDbLine
 10
9509.887932891556
 20
-812.2098447302832
 30
0.0
 11
9509.901279550904
 21
-812.2052224286072
 31
0.0
  0
LINE
  5
365
330
2
100
AcDbEntity
  8
0
100
AcDbLine
 10
9509.901279550904
 20
-812.2052224286072
 30
0.0
 11
9509.914590536231
 21
-812.2005466273456
 31
0.0
  0
LINE
  5
366
330
2
100
AcDbEntity
  8
0
100
AcDbLine
 10
9509.914590536231
 20
-812.2005466273456
 30
0.0
 11
9509.927865592779
 21
-812.1958169706395
 31
0.0
  0
LINE
  5
367
330
2
100
AcDbEntity
  8
0
100
AcDbLine
 10
9509.927865592779
 20
-812.1958169706395
 30
0.0
 11
9509.941104465791
 21
-812.1910331026063
 31
0.0
  0
LINE
  5
368
330
2
100
AcDbEntity
  8
0
100
AcDbLine
 10
9509.941104465791
 20
-812.1910331026063
 30
0.0
 11
9509.954306900512
 21
-812.1861946673725
 31
0.0
  0
LINE
  5
369
330
2
100
AcDbEntity
  8
0
100
AcDbLine
 10
9509.954306900512
 20
-812.1861946673725
 30
0.0
 11
9509.967472642182
 21
-812.1813013090704
 31
0.0
  0
LINE
  5
36A
330
2
100
AcDbEntity
  8
0
100
AcDbLine
 10
9509.967472642182
 20
-812.1813013090704
 30
0.0
 11
9509.980601436044
 21
-812.1763526718257
 31
0.0
  0
LINE
  5
36B
330
2
100
AcDbEntity
  8
0
100
AcDbLine
 10
9509.980601436044
 20
-812.1763526718257
 30
0.0
 11
9509.99369302734
 21
-812.1713483997607
 31
0.0
  0
LINE
  5
36C
330
2
100
AcDbEntity
  8
0
100
AcDbLine
 10
9509.99369302734
 20
-812.1713483997607
 30
0.0
 11
9510.006747161313
 21
-812.1662881370047
 31
0.0
  0
LINE
  5
36D
330
2
100
AcDbEntity
  8
0
100
AcDbLine
 10
9510.006747161313
 20
-812.1662881370047
 30
0.0
 11
9510.019763583208
 21
-812.1611715276939
 31
0.0
  0
LINE
  5
36E
330
2
100
AcDbEntity
  8
0
100
AcDbLine
 10
9510.019763583208
 20
-812.1611715276939
 30
0.0
 11
9510.03274203826
 21
-812.1559982159434
 31
0.0
  0
LINE
  5
36F
330
2
100
AcDbEntity
  8
0
100
AcDbLine
 10
9510.03274203826
 20
-812.1559982159434
 30
0.0
 11
9510.045682271721
 21
-812.150767845882
 31
0.0
  0
LINE
  5
370
330
2
100
AcDbEntity
  8
0
100
AcDbLine
 10
9510.045682271721
 20
-812.150767845882
 30
0.0
 11
9510.058584028826
 21
-812.1454800616392
 31
0.0
  0
LINE
  5
371
330
2
100
AcDbEntity
  8
0
100
AcDbLine
 10
9510.058584028826
 20
-812.1454800616392
 30
0.0
 11
9510.071447054821
 21
-812.1401345073481
 31
0.0
  0
LINE
  5
372
330
2
100
AcDbEntity
  8
0
100
AcDbLine
 10
9510.071447054821
 20
-812.1401345073481
 30
0.0
 11
9510.08427109495
 21
-812.1347308271268
 31
0.0
  0
LINE
  5
373
330
2
100
AcDbEntity
  8
0
100
AcDbLine
 10
9510.08427109495
 20
-812.1347308271268
 30
0.0
 11
9510.097055894453
 21
-812.1292686651086
 31
0.0
  0
LINE
  5
374
330
2
100
AcDbEntity
  8
0
100
AcDbLine
 10
9510.097055894453
 20
-812.1292686651086
 30
0.0
 11
9510.109801198572
 21
-812.1237476654151
 31
0.0
  0
LINE
  5
375
330
2
100
AcDbEntity
  8
0
100
AcDbLine
 10
9510.109801198572
 20
-812.1237476654151
 30
0.0
 11
9510.12250675255
 21
-812.1181674721793
 31
0.0
  0
LINE
  5
376
330
2
100
AcDbEntity
  8
0
100
AcDbLine
 10
9510.12250675255
 20
-812.1181674721793
 30
0.0
 11
9510.13517230163
 21
-812.1125277295231
 31
0.0
  0
LINE
  5
377
330
2
100
AcDbEntity
  8
0
100
AcDbLine
 10
9510.13517230163
 20
-812.1125277295231
 30
0.0
 11
9510.147797591057
 21
-812.1068280815761
 31
0.0
  0
LINE
  5
378
330
2
100
AcDbEntity
  8
0
100
AcDbLine
 10
9510.147797591057
 20
-812.1068280815761
 30
0.0
 11
9510.160382366068
 21
-812.1010681724637
 31
0.0
  0
LINE
  5
379
330
2
100
AcDbEntity
  8
0
100
AcDbLine
 10
9510.160382366068
 20
-812.1010681724637
 30
0.0
 11
9510.172926371907
 21
-812.0952476463187
 31
0.0
  0
LINE
  5
37A
330
2
100
AcDbEntity
  8
0
100
AcDbLine
 10
9510.172926371907
 20
-812.0952476463187
 30
0.0
 11
9510.185429353823
 21
-812.0893661472639
 31
0.0
  0
LINE
  5
37B
330
2
100
AcDbEntity
  8
0
100
AcDbLine
 10
9510.185429353823
 20
-812.0893661472639
 30
0.0
 11
9510.197891057051
 21
-812.0834233194237
 31
0.0
  0
LINE
  5
37C
330
2
100
AcDbEntity
  8
0
100
AcDbLine
 10
9510.197891057051
 20
-812.0834233194237
 30
0.0
 11
9510.210311226837
 21
-812.0774188069317
 31
0.0
  0
LINE
  5
37D
330
2
100
AcDbEntity
  8
0
100
AcDbLine
 10
9510.210311226837
 20
-812.0774188069317
 30
0.0
 11
9510.222689608422
 21
-812.0713522539062
 31
0.0
  0
LINE
  5
37E
330
2
100
AcDbEntity
  8
0
100
AcDbLine
 10
9510.222689608422
 20
-812.0713522539062
 30
0.0
 11
9510.23502594705
 21
-812.0652233044838
 31
0.0
  0
LINE
  5
37F
330
2
100
AcDbEntity
  8
0
100
AcDbLine
 10
9510.23502594705
 20
-812.0652233044838
 30
0.0
 11
9510.247319987961
 21
-812.0590316027866
 31
0.0
  0
LINE
  5
380
330
2
100
AcDbEntity
  8
0
100
AcDbLine
 10
9510.247319987961
 20
-812.0590316027866
 30
0.0
 11
9510.259571476398
 21
-812.0527767929434
 31
0.0
  0
LINE
  5
381
330
2
100
AcDbEntity
  8
0
100
AcDbLine
 10
9510.259571476398
 20
-812.0527767929434
 30
0.0
 11
9510.271780157607
 21
-812.0464585190839
 31
0.0
  0
LINE
  5
382
330
2
100
AcDbEntity
  8
0
100
AcDbLine
 10
9510.271780157607
 20
-812.0464585190839
 30
0.0
 11
9510.283945776825
 21
-812.0400764253261
 31
0.0
  0
LINE
  5
383
330
2
100
AcDbEntity
  8
0
100
AcDbLine
 10
9510.283945776825
 20
-812.0400764253261
 30
0.0
 11
9510.2960680793
 21
-812.0336301558037
 31
0.0
  0
LINE
  5
384
330
2
100
AcDbEntity
  8
0
100
AcDbLine
 10
9510.2960680793
 20
-812.0336301558037
 30
0.0
 11
9510.308146810272
 21
-812.0271193546486
 31
0.0
  0
LINE
  5
385
330
2
100
AcDbEntity
  8
0
100
AcDbLine
 10
9510.308146810272
 20
-812.0271193546486
 30
0.0
 11
9510.320181714984
 21
-812.0205436659798
 31
0.0
  0
LINE
  5
386
330
2
100
AcDbEntity
  8
0
100
AcDbLine
 10
9510.320181714984
 20
-812.0205436659798
 30
0.0
 11
9510.332172538676
 21
-812.0139027339227
 31
0.0
  0
LINE
  5
387
330
2
100
AcDbEntity
  8
0
100
AcDbLine
 10
9510.332172538676
 20
-812.0139027339227
 30
0.0
 11
9510.344119026591
 21
-812.0071962026178
 31
0.0
  0
LINE
  5
388
330
2
100
AcDbEntity
  8
0
100
AcDbLine
 10
9510.344119026591
 20
-812.0071962026178
 30
0.0
 11
9510.356020923978
 21
-812.0004237161756
 31
0.0
  0
LINE
  5
389
330
2
100
AcDbEntity
  8
0
100
AcDbLine
 10
9510.356020923978
 20
-812.0004237161756
 30
0.0
 11
9510.367877976072
 21
-811.9935849187367
 31
0.0
  0
LINE
  5
38A
330
2
100
AcDbEntity
  8
0
100
AcDbLine
 10
9510.367877976072
 20
-811.9935849187367
 30
0.0
 11
9510.37968992812
 21
-811.9866794544195
 31
0.0
  0
LINE
  5
38B
330
2
100
AcDbEntity
  8
0
100
AcDbLine
 10
9510.37968992812
 20
-811.9866794544195
 30
0.0
 11
9510.391456525359
 21
-811.9797069673532
 31
0.0
  0
LINE
  5
38C
330
2
100
AcDbEntity
  8
0
100
AcDbLine
 10
9510.391456525359
 20
-811.9797069673532
 30
0.0
 11
9510.403177513035
 21
-811.9726671016668
 31
0.0
  0
LINE
  5
38D
330
2
100
AcDbEntity
  8
0
100
AcDbLine
 10
9510.403177513035
 20
-811.9726671016668
 30
0.0
 11
9510.414852636392
 21
-811.9655595014901
 31
0.0
  0
LINE
  5
38E
330
2
100
AcDbEntity
  8
0
100
AcDbLine
 10
9510.414852636392
 20
-811.9655595014901
 30
0.0
 11
9510.426481640674
 21
-811.9583838109448
 31
0.0
  0
LINE
  5
38F
330
2
100
AcDbEntity
  8
0
100
AcDbLine
 10
9510.426481640674
 20
-811.9583838109448
 30
0.0
 11
9510.438064271115
 21
-811.9511396741561
 31
0.0
  0
LINE
  5
390
330
2
100
AcDbEntity
  8
0
100
AcDbLine
 10
9510.438064271115
 20
-811.9511396741561
 30
0.0
 11
9510.449600272966
 21
-811.9438267352617
 31
0.0
  0
LINE
  5
391
330
2
100
AcDbEntity
  8
0
100
AcDbLine
 10
9510.449600272966
 20
-811.9438267352617
 30
0.0
 11
9510.461089391467
 21
-811.9364446383787
 31
0.0
  0
LINE
  5
392
330
2
100
AcDbEntity
  8
0
100
AcDbLine
 10
9510.461089391467
 20
-811.9364446383787
 30
0.0
 11
9510.472531371862
 21
-811.9289930276407
 31
0.0
  0
LINE
  5
393
330
2
100
AcDbEntity
  8
0
100
AcDbLine
 10
9510.472531371862
 20
-811.9289930276407
 30
0.0
 11
9510.483925959386
 21
-811.9214715471661
 31
0.0
  0
LINE
  5
394
330
2
100
AcDbEntity
  8
0
100
AcDbLine
 10
9510.483925959386
 20
-811.9214715471661
 30
0.0
 11
9510.495272899289
 21
-811.9138798410913
 31
0.0
  0
LINE
  5
395
330
2
100
AcDbEntity
  8
0
100
AcDbLine
 10
9510.495272899289
 20
-811.9138798410913
 30
0.0
 11
9510.506571936813
 21
-811.9062175535416
 31
0.0
  0
LINE
  5
396
330
2
100
AcDbEntity
  8
0
100
AcDbLine
 10
9510.506571936813
 20
-811.9062175535416
 30
0.0
 11
9510.517822817199
 21
-811.8984843286396
 31
0.0
  0
LINE
  5
397
330
2
100
AcDbEntity
  8
0
100
AcDbLine
 10
9510.517822817199
 20
-811.8984843286396
 30
0.0
 11
9510.529025285689
 21
-811.8906798105145
 31
0.0
  0
LINE
  5
398
330
2
100
AcDbEntity
  8
0
100
AcDbLine
 10
9510.529025285689
 20
-811.8906798105145
 30
0.0
 11
9510.540179087527
 21
-811.8828036432987
 31
0.0
  0
LINE
  5
399
330
2
100
AcDbEntity
  8
0
100
AcDbLine
 10
9510.540179087527
 20
-811.8828036432987
 30
0.0
 11
9510.551283967952
 21
-811.874855471111
 31
0.0
  0
LINE
  5
39A
330
2
100
AcDbEntity
  8
0
100
AcDbLine
 10
9510.551283967952
 20
-811.874855471111
 30
0.0
 11
9510.56233967221
 21
-811.8668349380842
 31
0.0
  0
LINE
  5
39B
330
2
100
AcDbEntity
  8
0
100
AcDbLine
 10
9510.56233967221
 20
-811.8668349380842
 30
0.0
 11
9510.573345945546
 21
-811.8587416883437
 31
0.0
  0
LINE
  5
39C
330
2
100
AcDbEntity
  8
0
100
AcDbLine
 10
9510.573345945546
 20
-811.8587416883437
 30
0.0
 11
9510.584302533194
 21
-811.8505753660192
 31
0.0
  0
LINE
  5
39D
330
2
100
AcDbEntity
  8
0
100
AcDbLine
 10
9510.584302533194
 20
-811.8505753660192
 30
0.0
 11
9510.595209180404
 21
-811.8423356152325
 31
0.0
  0
LINE
  5
39E
330
2
100
AcDbEntity
  8
0
100
AcDbLine
 10
9510.595209180404
 20
-811.8423356152325
 30
0.0
 11
9510.606065632416
 21
-811.8340220801092
 31
0.0
  0
LINE
  5
39F
330
2
100
AcDbEntity
  8
0
100
AcDbLine
 10
9510.606065632416
 20
-811.8340220801092
 30
0.0
 11
9510.616871634471
 21
-811.8256344047894
 31
0.0
  0
LINE
  5
3A0
330
2
100
AcDbEntity
  8
0
100
AcDbLine
 10
9510.616871634471
 20
-811.8256344047894
 30
0.0
 11
9510.627626931817
 21
-811.8171722333846
 31
0.0
  0
LINE
  5
3A1
330
2
100
AcDbEntity
  8
0
100
AcDbLine
 10
9510.627626931817
 20
-811.8171722333846
 30
0.0
 11
9510.638331269687
 21
-811.8086352100345
 31
0.0
  0
LINE
  5
3A2
330
2
100
AcDbEntity
  8
0
100
AcDbLine
 10
9510.638331269687
 20
-811.8086352100345
 30
0.0
 11
9510.648984393334
 21
-811.8000229788576
 31
0.0
  0
LINE
  5
3A3
330
2
100
AcDbEntity
  8
0
100
AcDbLine
 10
9510.648984393334
 20
-811.8000229788576
 30
0.0
 11
9510.659586047994
 21
-811.7913351839833
 31
0.0
  0
LINE
  5
3A4
330
2
100
AcDbEntity
  8
0
100
AcDbLine
 10
9510.659586047994
 20
-811.7913351839833
 30
0.0
 11
9510.67013597891
 21
-811.782571469541
 31
0.0
  0
LINE
  5
3A5
330
2
100
AcDbEntity
  8
0
100
AcDbLine
 10
9510.67013597891
 20
-811.782571469541
 30
0.0
 11
9510.680633931327
 21
-811.7737314796594
 31
0.0
  0
LINE
  5
3A6
330
2
100
AcDbEntity
  8
0
100
AcDbLine
 10
9510.680633931327
 20
-811.7737314796594
 30
0.0
 11
9510.691079650483
 21
-811.7648148584576
 31
0.0
  0
LINE
  5
3A7
330
2
100
AcDbEntity
  8
0
100
AcDbLine
 10
9510.691079650483
 20
-811.7648148584576
 30
0.0
 11
9510.701472881626
 21
-811.7558212500716
 31
0.0
  0
LINE
  5
3A8
330
2
100
AcDbEntity
  8
0
100
AcDbLine
 10
9510.701472881626
 20
-811.7558212500716
 30
0.0
 11
9510.711813369997
 21
-811.7467502986238
 31
0.0
  0
LINE
  5
3A9
330
2
100
AcDbEntity
  8
0
100
AcDbLine
 10
9510.711813369997
 20
-811.7467502986238
 30
0.0
 11
9510.722100860837
 21
-811.7376016482431
 31
0.0
  0
LINE
  5
3AA
330
2
100
AcDbEntity
  8
0
100
AcDbLine
 10
9510.722100860837
 20
-811.7376016482431
 30
0.0
 11
9510.732335099389
 21
-811.7283749430553
 31
0.0
  0
LINE
  5
3AB
330
2
100
AcDbEntity
  8
0
100
AcDbLine
 10
9510.732335099389
 20
-811.7283749430553
 30
0.0
 11
9510.742515830893
 21
-811.719069827186
 31
0.0
  0
LINE
  5
3AC
330
2
100
AcDbEntity
  8
0
100
AcDbLine
 10
9510.742515830893
 20
-811.719069827186
 30
0.0
 11
9510.752642800595
 21
-811.7096859447682
 31
0.0
  0
LINE
  5
3AD
330
2
100
AcDbEntity
  8
0
100
AcDbLine
 10
9510.752642800595
 20
-811.7096859447682
 30
0.0
 11
9510.762715753738
 21
-811.7002229399203
 31
0.0
  0
LINE
  5
3AE
330
2
100
AcDbEntity
  8
0
100
AcDbLine
 10
9510.762715753738
 20
-811.7002229399203
 30
0.0
 11
9510.77273443556
 21
-811.6906804567786
 31
0.0
  0
LINE
  5
3AF
330
2
100
AcDbEntity
  8
0
100
AcDbLine
 10
9510.77273443556
 20
-811.6906804567786
 30
0.0
 11
9510.782698591311
 21
-811.6810581394656
 31
0.0
  0
LINE
  5
3B0
330
2
100
AcDbEntity
  8
0
100
AcDbLine
 10
9510.782698591311
 20
-811.6810581394656
 30
0.0
 11
9510.792607966228
 21
-811.6713556321101
 31
0.0
  0
LINE
  5
3B1
330
2
100
AcDbEntity
  8
0
100
AcDbLine
 10
9510.792607966228
 20
-811.6713556321101
 30
0.0
 11
9510.802462305552
 21
-811.6615725788342
 31
0.0
  0
LINE
  5
3B2
330
2
100
AcDbEntity
  8
0
100
AcDbLine
 10
9510.802462305552
 20
-811.6615725788342
 30
0.0
 11
9510.812261354528
 21
-811.6517086237708
 31
0.0
  0
LINE
  5
3B3
330
2
100
AcDbEntity
  8
0
100
AcDbLine
 10
9510.812261354528
 20
-811.6517086237708
 30
0.0
 11
9510.822004858402
 21
-811.6417634110456
 31
0.0
  0
LINE
  5
3B4
330
2
100
AcDbEntity
  8
0
100
AcDbLine
 10
9510.822004858402
 20
-811.6417634110456
 30
0.0
 11
9510.83169256241
 21
-811.631736584788
 31
0.0
  0
LINE
  5
3B5
330
2
100
AcDbEntity
  8
0
100
AcDbLine
 10
9510.83169256241
 20
-811.631736584788
 30
0.0
 11
9510.841324211801
 21
-811.6216277891199
 31
0.0
  0
LINE
  5
3B6
330
2
100
AcDbEntity
  8
0
100
AcDbLine
 10
9510.841324211801
 20
-811.6216277891199
 30
0.0
 11
9510.850899551812
 21
-811.6114366681705
 31
0.0
  0
LINE
  5
3B7
330
2
100
AcDbEntity
  8
0
100
AcDbLine
 10
9510.850899551812
 20
-811.6114366681705
 30
0.0
 11
9510.860418327686
 21
-811.601162866069
 31
0.0
  0
LINE
  5
3B8
330
2
100
AcDbEntity
  8
0
100
AcDbLine
 10
9510.860418327686
 20
-811.601162866069
 30
0.0
 11
9510.869880284669
 21
-811.5908060269411
 31
0.0
  0
LINE
  5
3B9
330
2
100
AcDbEntity
  8
0
100
AcDbLine
 10
9510.869880284669
 20
-811.5908060269411
 30
0.0
 11
9510.879285168
 21
-811.5803657949127
 31
0.0
  0
LINE
  5
3BA
330
2
100
AcDbEntity
  8
0
100
AcDbLine
 10
9510.879285168
 20
-811.5803657949127
 30
0.0
 11
9510.888632722922
 21
-811.5698418141162
 31
0.0
  0
LINE
  5
3BB
330
2
100
AcDbEntity
  8
0
100
AcDbLine
 10
9510.888632722922
 20
-811.5698418141162
 30
0.0
 11
9510.897922694686
 21
-811.5592337286708
 31
0.0
  0
LINE
  5
3BC
330
2
100
AcDbEntity
  8
0
100
AcDbLine
 10
9510.897922694686
 20
-811.5592337286708
 30
0.0
 11
9510.907154828521
 21
-811.5485411827084
 31
0.0
  0
LINE
  5
3BD
330
2
100
AcDbEntity
  8
0
100
AcDbLine
 10
9510.907154828521
 20
-811.5485411827084
 30
0.0
 11
9510.916328869674
 21
-811.5377638203554
 31
0.0
  0
LINE
  5
3BE
330
2
100
AcDbEntity
  8
0
100
AcDbLine
 10
9510.916328869674
 20
-811.5377638203554
 30
0.0
 11
9510.925444563392
 21
-811.5269012857368
 31
0.0
  0
LINE
  5
3BF
330
2
100
AcDbEntity
  8
0
100
AcDbLine
 10
9510.925444563392
 20
-811.5269012857368
 30
0.0
 11
9510.934501654913
 21
-811.5159532229863
 31
0.0
  0
LINE
  5
3C0
330
2
100
AcDbEntity
  8
0
100
AcDbLine
 10
9510.934501654913
 20
-811.5159532229863
 30
0.0
 11
9510.943499889483
 21
-811.5049192762217
 31
0.0
  0
LINE
  5
3C1
330
2
100
AcDbEntity
  8
0
100
AcDbLine
 10
9510.943499889483
 20
-811.5049192762217
 30
0.0
 11
9510.95243901234
 21
-811.4937990895796
 31
0.0
  0
LINE
  5
3C2
330
2
100
AcDbEntity
  8
0
100
AcDbLine
 10
9510.95243901234
 20
-811.4937990895796
 30
0.0
 11
9510.961318768732
 21
-811.4825923071821
 31
0.0
  0
LINE
  5
3C3
330
2
100
AcDbEntity
  8
0
100
AcDbLine
 10
9510.961318768732
 20
-811.4825923071821
 30
0.0
 11
9510.964663219242
 21
-811.4783099085743
 31
0.0
  0
ENDSEC
  0
SECTION
  2
OBJECTS
  0
DICTIONARY
  5
C
330
0
100
AcDbDictionary
281
     1
  3
ACAD_COLOR
350
38
  3
ACAD_GROUP
350
33
  3
ACAD_LAYOUT
350
18
  3
ACAD_MATERIAL
350
E
  3
ACAD_MLEADERSTYLE
350
3F3
  3
ACAD_MLINESTYLE
350
34
  3
ACAD_PLOTSETTINGS
350
35
  3
ACAD_PLOTSTYLENAME
350
B
  3
ACAD_SCALELIST
350
39
  3
ACAD_TABLESTYLE
350
3A
  3
ACAD_VISUALSTYLE
350
2E
  3
ACDB_RECOMPOSE_DATA
350
3D7
  3
AcDbVariableDictionary
350
3C8
  3
DWGPROPS
350
400
  0
DICTIONARY
  5
2F
330
2B
100
AcDbDictionary
280
     1
281
     1
  0
DICTIONARY
  5
21
330
20
100
AcDbDictionary
280
     1
281
     1
  3
ACAD_LAYERSTATES
360
22
  0
DICTIONARY
  5
8
330
7
100
AcDbDictionary
280
     1
281
     1
  3
ADSK_XREC_LAYER_RECONCILED
360
9
  0
DICTIONARY
  5
3
330
2
100
AcDbDictionary
280
     1
281
     1
  3
ACAD_LAYOUTSELFREF
360
4
  3
ACAD_SORTENTS
360
3C4
  0
DICTIONARY
  5
1B
330
1A
100
AcDbDictionary
280
     1
281
     1
  3
ACAD_LAYOUTSELFREF
360
1C
  0
DICTIONARY
  5
406
330
AA
100
AcDbDictionary
280
     1
281
     1
  3
ACAD_MTEXT_RT
360
407
  0
DICTIONARY
  5
A4
330
A3
100
AcDbDictionary
280
     1
281
     1
  3
ACAD_DIMASSOC
360
A5
  0
DICTIONARY
  5
E2
330
E1
100
AcDbDictionary
280
     1
281
     1
  3
ACAD_DIMASSOC
360
E3
  0
DICTIONARY
  5
102
330
101
100
AcDbDictionary
280
     1
281
     1
  3
ACAD_DIMASSOC
360
103
  0
DICTIONARY
  5
119
330
118
100
AcDbDictionary
280
     1
281
     1
  3
ACAD_DIMASSOC
360
11A
  0
DICTIONARY
  5
129
330
128
100
AcDbDictionary
280
     1
281
     1
  3
ACAD_DIMASSOC
360
12A
  0
DICTIONARY
  5
13F
330
13E
100
AcDbDictionary
280
     1
281
     1
  3
ACAD_DIMASSOC
360
140
  0
DICTIONARY
  5
14E
330
14D
100
AcDbDictionary
280
     1
281
     1
  3
ACAD_DIMASSOC
360
14F
  0
DICTIONARY
  5
3FE
330
183
100
AcDbDictionary
280
     1
281
     1
  3
ACAD_MTEXT_2008_RT
360
3FF
  0
DICTIONARY
  5
38
102
{ACAD_REACTORS
330
C
102
}
330
C
100
AcDbDictionary
281
     1
  0
DICTIONARY
  5
33
102
{ACAD_REACTORS
330
C
102
}
330
C
100
AcDbDictionary
281
     1
  0
DICTIONARY
  5
18
102
{ACAD_REACTORS
330
C
102
}
330
C
100
AcDbDictionary
281
     1
  3
Model
350
17
  3
배치1
350
1F
  0
DICTIONARY
  5
E
102
{ACAD_REACTORS
330
C
102
}
330
C
100
AcDbDictionary
281
     1
  3
ByBlock
350
37
  3
ByLayer
350
36
  3
Global
350
D
  0
DICTIONARY
  5
3F3
102
{ACAD_REACTORS
330
C
102
}
330
C
100
AcDbDictionary
281
     1
  3
Standard
350
3F4
  0
DICTIONARY
  5
34
102
{ACAD_REACTORS
330
C
102
}
330
C
100
AcDbDictionary
281
     1
  3
Standard
350
3B
  0
DICTIONARY
  5
35
102
{ACAD_REACTORS
330
C
102
}
330
C
100
AcDbDictionary
281
     1
  0
ACDBDICTIONARYWDFLT
  5
B
102
{ACAD_REACTORS
330
C
102
}
330
C
100
AcDbDictionary
281
     1
  3
Normal
350
A
100
AcDbDictionaryWithDefault
340
A
  0
DICTIONARY
  5
39
102
{ACAD_REACTORS
330
C
102
}
330
C
100
AcDbDictionary
281
     1
  3
A0
350
43
  3
A1
350
44
  3
A2
350
45
  3
A3
350
46
  3
A4
350
47
  3
A5
350
48
  3
A6
350
49
  3
A7
350
4A
  3
A8
350
4B
  3
A9
350
4C
  3
B0
350
4D
  3
B1
350
4E
  3
B2
350
4F
  3
B3
350
50
  3
B4
350
51
  3
B5
350
52
  3
B6
350
53
  3
B7
350
54
  3
B8
350
55
  3
B9
350
56
  3
C0
350
57
  3
C1
350
58
  3
C2
350
59
  3
C3
350
5A
  3
C4
350
5B
  3
C5
350
5C
  3
C6
350
5D
  3
C7
350
5E
  3
C8
350
5F
  3
C9
350
60
  3
D0
350
61
  3
D1
350
62
  3
D2
350
63
  0
DICTIONARY
  5
3A
102
{ACAD_REACTORS
330
C
102
}
330
C
100
AcDbDictionary
281
     1
  3
Standard
350
3C
  0
DICTIONARY
  5
2E
102
{ACAD_REACTORS
330
C
102
}
330
C
100
AcDbDictionary
281
     1
  3
2dWireframe
350
2D
  3
3D Hidden
350
3EB
  3
3dWireframe
350
3F
  3
Basic
350
3EA
  3
Brighten
350
3EE
  3
ColorChange
350
3F2
  3
Conceptual
350
3EC
  3
Dim
350
3ED
  3
Facepattern
350
3F1
  3
Flat
350
3E6
  3
FlatWithEdges
350
3E7
  3
Gouraud
350
3E8
  3
GouraudWithEdges
350
3E9
  3
Linepattern
350
3F0
  3
Realistic
350
3E
  3
Thicken
350
3EF
  0
XRECORD
  5
3D7
102
{ACAD_REACTORS
330
C
102
}
330
C
100
AcDbXrecord
280
     1
 90
        1
330
3C
330
183
  0
DICTIONARY
  5
3C8
102
{ACAD_REACTORS
330
C
102
}
330
C
100
AcDbDictionary
281
     1
  3
CANNOSCALE
350
3CC
  3
CMLEADERSTYLE
350
3CA
  3
CTABLESTYLE
350
3C9
  3
DIMASSOC
350
3D1
  3
HIDETEXT
350
3D0
  3
INDEXCTL
350
3CF
  3
LIGHTINGUNITS
350
3CD
  3
MSLTSCALE
350
3CB
  3
PSOLHEIGHT
350
3FC
  3
PSOLWIDTH
350
3FB
  3
SORTENTS
350
3CE
  0
XRECORD
  5
400
102
{ACAD_REACTORS
330
C
102
}
330
C
100
AcDbXrecord
280
     1
  1
DWGPROPS COOKIE
  2

  3

  4

  6

  7

  8
김성진
  9

300
=
301
=
302
=
303
=
304
=
305
=
306
=
307
=
308
=
309
=
 40
3.48638662037037
 41
2455638.478663565
 42
2455916.46969853
  1

 90
        0
  0
DICTIONARY
  5
22
102
{ACAD_REACTORS
330
21
102
}
330
21
100
AcDbDictionary
281
     1
  0
XRECORD
  5
9
102
{ACAD_REACTORS
330
8
102
}
330
8
100
AcDbXrecord
280
     1
290
     1
  0
XRECORD
  5
4
102
{ACAD_REACTORS
330
3
102
}
330
3
100
AcDbXrecord
280
     1
340
2
  0
SORTENTSTABLE
  5
3C4
102
{ACAD_REACTORS
330
3
102
}
330
3
100
AcDbSortentsTable
330
2
  0
XRECORD
  5
1C
102
{ACAD_REACTORS
330
1B
102
}
330
1B
100
AcDbXrecord
280
     1
340
1A
  0
XRECORD
  5
407
102
{ACAD_REACTORS
330
406
102
}
330
406
100
AcDbXrecord
280
     1
 40
11034.0
  1
\A1;\U+2205104%%P0.5
  0
DIMASSOC
  5
A5
102
{ACAD_REACTORS
330
A4
102
}
330
A4
100
AcDbDimAssoc
330
A3
 90
        2
 70
     0
 71
     0
  1
AcDbOsnapPointRef
 72
     3
331
A2
 73
     2
 91
        0
 40
0.0
 10
0.0
 20
0.0
 30
0.0
 75
     0
  0
DIMASSOC
  5
E3
102
{ACAD_REACTORS
330
E2
102
}
330
E2
100
AcDbDimAssoc
330
E1
 90
        2
 70
     0
 71
     0
  1
AcDbOsnapPointRef
 72
     1
331
114
 73
     2
 91
        0
 40
1.0
 10
4865.51451084566
 20
-4051.759302602638
 30
0.0
 75
     0
  0
DIMASSOC
  5
103
102
{ACAD_REACTORS
330
102
102
}
330
102
100
AcDbDimAssoc
330
101
 90
        1
 70
     0
 71
     0
  1
AcDbOsnapPointRef
 72
     1
331
127
 73
     2
 91
        0
 40
1.0
 10
4821.01451084566
 20
-4090.358039944168
 30
0.0
 75
     0
  0
DIMASSOC
  5
11A
102
{ACAD_REACTORS
330
119
102
}
330
119
100
AcDbDimAssoc
330
118
 90
        3
 70
     0
 71
     0
  1
AcDbOsnapPointRef
 72
     1
331
137
 73
     2
 91
        0
 40
1.0
 10
4821.01451084566
 20
-4101.358039944167
 30
0.0
 75
     0
  1
AcDbOsnapPointRef
 72
     1
331
127
 73
     2
 91
        0
 40
1.0
 10
4821.01451084566
 20
-4090.358039944168
 30
0.0
 75
     0
  0
DIMASSOC
  5
12A
102
{ACAD_REACTORS
330
129
102
}
330
129
100
AcDbDimAssoc
330
128
 90
        3
 70
     0
 71
     0
  1
AcDbOsnapPointRef
 72
     1
331
127
 73
     2
 91
        0
 40
1.0
 10
4821.01451084566
 20
-4090.358039944168
 30
0.0
 75
     0
  1
AcDbOsnapPointRef
 72
     1
331
116
 73
     2
 91
        0
 40
1.0
 10
4851.01451084566
 20
-4089.358039944166
 30
0.0
 75
     0
  0
DIMASSOC
  5
140
102
{ACAD_REACTORS
330
13F
102
}
330
13F
100
AcDbDimAssoc
330
13E
 90
        3
 70
     0
 71
     0
  1
AcDbOsnapPointRef
 72
     1
331
137
 73
     2
 91
        0
 40
1.0
 10
4821.01451084566
 20
-4101.358039944167
 30
0.0
 75
     0
  1
AcDbOsnapPointRef
 72
     1
331
116
 73
     2
 91
        0
 40
1.0
 10
4851.01451084566
 20
-4089.358039944166
 30
0.0
 75
     0
  0
DIMASSOC
  5
14F
102
{ACAD_REACTORS
330
14E
102
}
330
14E
100
AcDbDimAssoc
330
14D
 90
        3
 70
     0
 71
     0
  1
AcDbOsnapPointRef
 72
    13
331
15D
 73
     2
 91
        0
 40
0.0
 10
4856.01451084566
 20
-4053.858039944167
 30
0.0
 75
     0
  1
AcDbOsnapPointRef
 72
     1
331
15D
 73
     2
 91
        0
 40
1.0
 10
4856.01451084566
 20
-4136.858039944167
 30
0.0
 75
     0
  0
XRECORD
  5
3FF
102
{ACAD_REACTORS
330
3FE
102
}
330
3FE
100
AcDbXrecord
280
     1
 40
54365.0
  1
\pxql;ELECTRO-MAGNETIC BRAKE\PLEAD WIRE 300mm
  0
LAYOUT
  5
17
102
{ACAD_XDICTIONARY
360
401
102
}
102
{ACAD_REACTORS
330
18
102
}
330
18
100
AcDbPlotSettings
  1

  2
none_device
  4
ISO_A4_(210.00_x_297.00_MM)
  6

 40
7.5
 41
20.0
 42
7.5
 43
20.0
 44
210.0
 45
297.0
 46
11.54999923706054
 47
-13.65000009536743
 48
0.0
 49
0.0
140
0.0
141
0.0
142
1.0
143
8.704084754739808
 70
 11952
 72
     1
 73
     0
 74
     0
  7

 75
     0
147
0.1148885871608098
148
0.0
149
0.0
100
AcDbLayout
  1
Model
 70
     1
 71
     0
 10
0.0
 20
0.0
 11
12.0
 21
9.0
 12
0.0
 22
0.0
 32
0.0
 14
0.0
 24
0.0
 34
0.0
 15
0.0
 25
0.0
 35
0.0
146
0.0
 13
0.0
 23
0.0
 33
0.0
 16
1.0
 26
0.0
 36
0.0
 17
0.0
 27
1.0
 37
0.0
 76
     0
330
2
331
2C
1001
ACAD_PSEXT
1000
None
1000
None
1000
Not applicable
1000
The layout will not be plotted unless a new plotter configuration name is selected.
1070
     0
  0
LAYOUT
  5
1F
102
{ACAD_XDICTIONARY
360
403
102
}
102
{ACAD_REACTORS
330
18
102
}
330
18
100
AcDbPlotSettings
  1

  2
C:\Documents and Settings\basas\Application Data\Autodesk\AutoCAD 2005\R16.1\enu\plotters\Default Windows System Printer.pc3
  4

  6

 40
0.0
 41
0.0
 42
0.0
 43
0.0
 44
0.0
 45
0.0
 46
0.0
 47
0.0
 48
0.0
 49
0.0
140
0.0
141
0.0
142
1.0
143
1.0
 70
   688
 72
     0
 73
     0
 74
     5
  7

 75
    16
147
1.0
148
0.0
149
0.0
100
AcDbLayout
  1
배치1
 70
     1
 71
     1
 10
0.0
 20
0.0
 11
12.0
 21
9.0
 12
0.0
 22
0.0
 32
0.0
 14
0.0
 24
0.0
 34
0.0
 15
0.0
 25
0.0
 35
0.0
146
0.0
 13
0.0
 23
0.0
 33
0.0
 16
1.0
 26
0.0
 36
0.0
 17
0.0
 27
1.0
 37
0.0
 76
     0
330
1A
  0
MATERIAL
  5
37
102
{ACAD_XDICTIONARY
360
3DF
102
}
102
{ACAD_REACTORS
330
E
102
}
330
E
100
AcDbMaterial
  1
ByBlock
  0
MATERIAL
  5
36
102
{ACAD_XDICTIONARY
360
3DD
102
}
102
{ACAD_REACTORS
330
E
102
}
330
E
100
AcDbMaterial
  1
ByLayer
  0
MATERIAL
  5
D
102
{ACAD_XDICTIONARY
360
F
102
}
102
{ACAD_REACTORS
330
E
102
}
330
E
100
AcDbMaterial
  1
Global
 43
0.0007999999797903
 43
0.0
 43
0.0
 43
0.0
 43
0.0
 43
0.0007999999797903
 43
0.0
 43
0.0
 43
0.0
 43
0.0
 43
1.0
 43
0.0
 43
0.0
 43
0.0
 43
0.0
 43
1.0
 49
0.0007999999797903
 49
0.0
 49
0.0
 49
0.0
 49
0.0
 49
0.0007999999797903
 49
0.0
 49
0.0
 49
0.0
 49
0.0
 49
1.0
 49
0.0
 49
0.0
 49
0.0
 49
0.0
 49
1.0
142
0.0007999999797903
142
0.0
142
0.0
142
0.0
142
0.0
142
0.0007999999797903
142
0.0
142
0.0
142
0.0
142
0.0
142
1.0
142
0.0
142
0.0
142
0.0
142
0.0
142
1.0
144
0.0007999999797903
144
0.0
144
0.0
144
0.0
144
0.0
144
0.0007999999797903
144
0.0
144
0.0
144
0.0
144
0.0
144
1.0
144
0.0
144
0.0
144
0.0
144
0.0
144
1.0
1001
ACAD
1070
    -1
1070
     3
1070
     0
1000

1071
        0
1070
     0
  0
MLEADERSTYLE
  5
3F4
102
{ACAD_REACTORS
330
3F3
102
}
330
3F3
100
AcDbMLeaderStyle
170
     2
171
     1
172
     0
 90
        2
 40
0.0
 41
0.0
173
     1
 91
-1056964608
340
27
 92
       -2
290
     1
 42
2.0
291
     1
 43
0.36
  3
Standard
 44
4.0
300

342
24
174
     1
178
     6
175
     1
176
     0
 93
-1056964608
 45
4.0
292
     0
297
     0
 46
4.0
 94
-1056964608
 47
1.0
 49
1.0
140
1.0
293
     1
141
0.0
294
     1
177
     0
142
1.0
295
     0
296
     0
143
0.125
1001
ACAD_MLEADERVER
1070
     2
  0
MLINESTYLE
  5
3B
102
{ACAD_REACTORS
330
34
102
}
330
34
100
AcDbMlineStyle
  2
STANDARD
 70
     0
  3

 62
   256
 51
90.0
 52
90.0
 71
     2
 49
0.5
 62
   256
  6
BYLAYER
 49
-0.5
 62
   256
  6
BYLAYER
  0
ACDBPLACEHOLDER
  5
A
102
{ACAD_REACTORS
330
B
102
}
330
B
  0
SCALE
  5
43
102
{ACAD_REACTORS
330
39
102
}
330
39
100
AcDbScale
 70
     0
300
1:1
140
1.0
141
1.0
290
     1
  0
SCALE
  5
44
102
{ACAD_REACTORS
330
39
102
}
330
39
100
AcDbScale
 70
     0
300
1:2
140
1.0
141
2.0
290
     0
  0
SCALE
  5
45
102
{ACAD_REACTORS
330
39
102
}
330
39
100
AcDbScale
 70
     0
300
1:4
140
1.0
141
4.0
290
     0
  0
SCALE
  5
46
102
{ACAD_REACTORS
330
39
102
}
330
39
100
AcDbScale
 70
     0
300
1:5
140
1.0
141
5.0
290
     0
  0
SCALE
  5
47
102
{ACAD_REACTORS
330
39
102
}
330
39
100
AcDbScale
 70
     0
300
1:8
140
1.0
141
8.0
290
     0
  0
SCALE
  5
48
102
{ACAD_REACTORS
330
39
102
}
330
39
100
AcDbScale
 70
     0
300
1:10
140
1.0
141
10.0
290
     0
  0
SCALE
  5
49
102
{ACAD_REACTORS
330
39
102
}
330
39
100
AcDbScale
 70
     0
300
1:16
140
1.0
141
16.0
290
     0
  0
SCALE
  5
4A
102
{ACAD_REACTORS
330
39
102
}
330
39
100
AcDbScale
 70
     0
300
1:20
140
1.0
141
20.0
290
     0
  0
SCALE
  5
4B
102
{ACAD_REACTORS
330
39
102
}
330
39
100
AcDbScale
 70
     0
300
1:30
140
1.0
141
30.0
290
     0
  0
SCALE
  5
4C
102
{ACAD_REACTORS
330
39
102
}
330
39
100
AcDbScale
 70
     0
300
1:40
140
1.0
141
40.0
290
     0
  0
SCALE
  5
4D
102
{ACAD_REACTORS
330
39
102
}
330
39
100
AcDbScale
 70
     0
300
1:50
140
1.0
141
50.0
290
     0
  0
SCALE
  5
4E
102
{ACAD_REACTORS
330
39
102
}
330
39
100
AcDbScale
 70
     0
300
1:100
140
1.0
141
100.0
290
     0
  0
SCALE
  5
4F
102
{ACAD_REACTORS
330
39
102
}
330
39
100
AcDbScale
 70
     0
300
2:1
140
2.0
141
1.0
290
     0
  0
SCALE
  5
50
102
{ACAD_REACTORS
330
39
102
}
330
39
100
AcDbScale
 70
     0
300
4:1
140
4.0
141
1.0
290
     0
  0
SCALE
  5
51
102
{ACAD_REACTORS
330
39
102
}
330
39
100
AcDbScale
 70
     0
300
8:1
140
8.0
141
1.0
290
     0
  0
SCALE
  5
52
102
{ACAD_REACTORS
330
39
102
}
330
39
100
AcDbScale
 70
     0
300
10:1
140
10.0
141
1.0
290
     0
  0
SCALE
  5
53
102
{ACAD_REACTORS
330
39
102
}
330
39
100
AcDbScale
 70
     0
300
100:1
140
100.0
141
1.0
290
     0
  0
SCALE
  5
54
102
{ACAD_REACTORS
330
39
102
}
330
39
100
AcDbScale
 70
     0
300
1/128" = 1'-0"
140
0.0078125
141
12.0
290
     0
  0
SCALE
  5
55
102
{ACAD_REACTORS
330
39
102
}
330
39
100
AcDbScale
 70
     0
300
1/64" = 1'-0"
140
0.015625
141
12.0
290
     0
  0
SCALE
  5
56
102
{ACAD_REACTORS
330
39
102
}
330
39
100
AcDbScale
 70
     0
300
1/32" = 1'-0"
140
0.03125
141
12.0
290
     0
  0
SCALE
  5
57
102
{ACAD_REACTORS
330
39
102
}
330
39
100
AcDbScale
 70
     0
300
1/16" = 1'-0"
140
0.0625
141
12.0
290
     0
  0
SCALE
  5
58
102
{ACAD_REACTORS
330
39
102
}
330
39
100
AcDbScale
 70
     0
300
3/32" = 1'-0"
140
0.09375
141
12.0
290
     0
  0
SCALE
  5
59
102
{ACAD_REACTORS
330
39
102
}
330
39
100
AcDbScale
 70
     0
300
1/8" = 1'-0"
140
0.125
141
12.0
290
     0
  0
SCALE
  5
5A
102
{ACAD_REACTORS
330
39
102
}
330
39
100
AcDbScale
 70
     0
300
3/16" = 1'-0"
140
0.1875
141
12.0
290
     0
  0
SCALE
  5
5B
102
{ACAD_REACTORS
330
39
102
}
330
39
100
AcDbScale
 70
     0
300
1/4" = 1'-0"
140
0.25
141
12.0
290
     0
  0
SCALE
  5
5C
102
{ACAD_REACTORS
330
39
102
}
330
39
100
AcDbScale
 70
     0
300
3/8" = 1'-0"
140
0.375
141
12.0
290
     0
  0
SCALE
  5
5D
102
{ACAD_REACTORS
330
39
102
}
330
39
100
AcDbScale
 70
     0
300
1/2" = 1'-0"
140
0.5
141
12.0
290
     0
  0
SCALE
  5
5E
102
{ACAD_REACTORS
330
39
102
}
330
39
100
AcDbScale
 70
     0
300
3/4" = 1'-0"
140
0.75
141
12.0
290
     0
  0
SCALE
  5
5F
102
{ACAD_REACTORS
330
39
102
}
330
39
100
AcDbScale
 70
     0
300
1" = 1'-0"
140
1.0
141
12.0
290
     0
  0
SCALE
  5
60
102
{ACAD_REACTORS
330
39
102
}
330
39
100
AcDbScale
 70
     0
300
1-1/2" = 1'-0"
140
1.5
141
12.0
290
     0
  0
SCALE
  5
61
102
{ACAD_REACTORS
330
39
102
}
330
39
100
AcDbScale
 70
     0
300
3" = 1'-0"
140
3.0
141
12.0
290
     0
  0
SCALE
  5
62
102
{ACAD_REACTORS
330
39
102
}
330
39
100
AcDbScale
 70
     0
300
6" = 1'-0"
140
6.0
141
12.0
290
     0
  0
SCALE
  5
63
102
{ACAD_REACTORS
330
39
102
}
330
39
100
AcDbScale
 70
     0
300
1'-0" = 1'-0"
140
12.0
141
12.0
290
     0
  0
TABLESTYLE
  5
3C
102
{ACAD_XDICTIONARY
360
3D
102
}
102
{ACAD_REACTORS
330
3A
102
}
330
3A
100
AcDbTableStyle
  3
Standard
 70
     0
 71
     0
 40
1.5
 41
1.5
280
     0
281
     0
  7
Standard
140
4.5
170
     2
 62
     0
 63
     7
283
     0
274
    -2
284
     1
 64
     0
275
    -2
285
     1
 65
     0
276
    -2
286
     1
 66
     0
277
    -2
287
     1
 67
     0
278
    -2
288
     1
 68
     0
279
    -2
289
     1
 69
     0
  7
Standard
140
6.0
170
     5
 62
     0
 63
     7
283
     0
274
    -2
284
     1
 64
     0
275
    -2
285
     1
 65
     0
276
    -2
286
     1
 66
     0
277
    -2
287
     1
 67
     0
278
    -2
288
     1
 68
     0
279
    -2
289
     1
 69
     0
  7
Standard
140
4.5
170
     5
 62
     0
 63
     7
283
     0
274
    -2
284
     1
 64
     0
275
    -2
285
     1
 65
     0
276
    -2
286
     1
 66
     0
277
    -2
287
     1
 67
     0
278
    -2
288
     1
 68
     0
279
    -2
289
     1
 69
     0
  0
VISUALSTYLE
  5
2D
102
{ACAD_REACTORS
330
2E
102
}
330
2E
100
AcDbVisualStyle
  2
2dWireframe
 70
     4
 71
     0
 72
     2
 73
     1
 90
        0
 40
-0.6
 41
-30.0
 62
     5
 63
     7
 74
     1
 91
        4
 64
     7
 65
   257
 75
     1
175
     1
 42
1.0
 92
        0
 66
   257
 43
1.0
 76
     1
 77
     6
 78
     2
 67
     7
 79
     5
170
     0
171
     0
290
     0
174
     0
 93
        1
 44
0.0
173
     0
291
     0
 45
0.0
1001
ACAD
1000
AcDbSavedByObjectVersion
1070
     0
1000
AcDbSavedByObjectVersion
1070
     0
  0
VISUALSTYLE
  5
3EB
102
{ACAD_REACTORS
330
2E
102
}
330
2E
100
AcDbVisualStyle
  2
3D Hidden
 70
     6
 71
     1
 72
     2
 73
     2
 90
        0
 40
-0.6
 41
-30.0
 62
     5
 63
     7
 74
     2
 91
        2
 64
     7
 65
   257
 75
     2
175
     1
 42
40.0
 92
        0
 66
   257
 43
1.0
 76
     1
 77
     6
 78
     2
 67
     7
 79
     3
170
     0
171
     0
290
     0
174
     0
 93
        1
 44
0.0
173
     0
291
     0
 45
0.0
1001
ACAD
1000
AcDbSavedByObjectVersion
1070
     0
  0
VISUALSTYLE
  5
3F
102
{ACAD_REACTORS
330
2E
102
}
330
2E
100
AcDbVisualStyle
  2
3dWireframe
 70
     5
 71
     0
 72
     2
 73
     1
 90
        0
 40
-0.6
 41
-30.0
 62
     5
 63
     7
 74
     1
 91
        4
 64
     7
 65
   257
 75
     1
175
     1
 42
1.0
 92
        0
 66
   257
 43
1.0
 76
     1
 77
     6
 78
     2
 67
     7
 79
     5
170
     0
171
     0
290
     0
174
     0
 93
        1
 44
0.0
173
     0
291
     0
 45
0.0
1001
ACAD
1000
AcDbSavedByObjectVersion
1070
     0
1000
AcDbSavedByObjectVersion
1070
     0
  0
VISUALSTYLE
  5
3EA
102
{ACAD_REACTORS
330
2E
102
}
330
2E
100
AcDbVisualStyle
  2
Basic
 70
     7
 71
     1
 72
     0
 73
     1
 90
        0
 40
-0.6
 41
-30.0
 62
     5
 63
     7
 74
     0
 91
        4
 64
     7
 65
   257
 75
     1
175
     1
 42
1.0
 92
        8
 66
     7
 43
1.0
 76
     1
 77
     6
 78
     2
 67
     7
 79
     5
170
     0
171
     0
290
     0
174
     0
 93
        1
 44
0.0
173
     0
291
     1
 45
0.0
1001
ACAD
1000
AcDbSavedByObjectVersion
1070
     0
  0
VISUALSTYLE
  5
3EE
102
{ACAD_REACTORS
330
2E
102
}
330
2E
100
AcDbVisualStyle
  2
Brighten
 70
    12
 71
     2
 72
     2
 73
     0
 90
        0
 40
-0.6
 41
-30.0
 62
     5
 63
     7
 74
     1
 91
        4
 64
     7
 65
   257
 75
     1
175
     1
 42
1.0
 92
        8
 66
     7
 43
1.0
 76
     1
 77
     6
 78
     2
 67
     7
 79
     5
170
     0
171
     0
290
     0
174
     0
 93
        1
 44
50.0
173
     0
291
     1
 45
0.0
1001
ACAD
1000
AcDbSavedByObjectVersion
1070
     0
  0
VISUALSTYLE
  5
3F2
102
{ACAD_REACTORS
330
2E
102
}
330
2E
100
AcDbVisualStyle
  2
ColorChange
 70
    16
 71
     2
 72
     2
 73
     3
 90
        0
 40
-0.6
 41
-30.0
 62
     5
 63
     8
 74
     1
 91
        4
 64
     7
 65
   257
 75
     1
175
     1
 42
1.0
 92
        8
 66
     8
 43
1.0
 76
     1
 77
     6
 78
     2
 67
     7
 79
     5
170
     0
171
     0
290
     0
174
     0
 93
        1
 44
0.0
173
     0
291
     1
 45
0.0
1001
ACAD
1000
AcDbSavedByObjectVersion
1070
     0
  0
VISUALSTYLE
  5
3EC
102
{ACAD_REACTORS
330
2E
102
}
330
2E
100
AcDbVisualStyle
  2
Conceptual
 70
     9
 71
     3
 72
     2
 73
     0
 90
        0
 40
-0.6
 41
-30.0
 62
     5
 63
     7
 74
     2
 91
        2
 64
     7
 65
   257
 75
     1
175
     1
 42
40.0
 92
        8
 66
     7
 43
1.0
 76
     1
 77
     6
 78
     2
 67
     7
 79
     3
170
     0
171
     0
290
     0
174
     0
 93
        1
 44
0.0
173
     0
291
     0
 45
0.0
1001
ACAD
1000
AcDbSavedByObjectVersion
1070
     0
  0
VISUALSTYLE
  5
3ED
102
{ACAD_REACTORS
330
2E
102
}
330
2E
100
AcDbVisualStyle
  2
Dim
 70
    11
 71
     2
 72
     2
 73
     0
 90
        0
 40
-0.6
 41
-30.0
 62
     5
 63
     7
 74
     1
 91
        4
 64
     7
 65
   257
 75
     1
175
     1
 42
1.0
 92
        8
 66
     7
 43
1.0
 76
     1
 77
     6
 78
     2
 67
     7
 79
     5
170
     0
171
     0
290
     0
174
     0
 93
        1
 44
-50.0
173
     0
291
     1
 45
0.0
1001
ACAD
1000
AcDbSavedByObjectVersion
1070
     0
  0
VISUALSTYLE
  5
3F1
102
{ACAD_REACTORS
330
2E
102
}
330
2E
100
AcDbVisualStyle
  2
Facepattern
 70
    15
 71
     2
 72
     2
 73
     0
 90
        0
 40
-0.6
 41
-30.0
 62
     5
 63
     7
 74
     1
 91
        4
 64
     7
 65
   257
 75
     1
175
     1
 42
1.0
 92
        8
 66
     7
 43
1.0
 76
     1
 77
     6
 78
     2
 67
     7
 79
     5
170
     0
171
     0
290
     0
174
     0
 93
        1
 44
0.0
173
     0
291
     1
 45
0.0
1001
ACAD
1000
AcDbSavedByObjectVersion
1070
     0
  0
VISUALSTYLE
  5
3E6
102
{ACAD_REACTORS
330
2E
102
}
330
2E
100
AcDbVisualStyle
  2
Flat
 70
     0
 71
     2
 72
     1
 73
     1
 90
        2
 40
-0.6
 41
30.0
 62
     5
 63
     7
 74
     0
 91
        4
 64
     7
 65
   257
 75
     1
175
     1
 42
1.0
 92
        8
 66
     7
 43
1.0
 76
     1
 77
     6
 78
     2
 67
     7
 79
     5
170
     0
171
     0
290
     0
174
     0
 93
       13
 44
0.0
173
     0
291
     1
 45
0.0
1001
ACAD
1000
AcDbSavedByObjectVersion
1070
     0
  0
VISUALSTYLE
  5
3E7
102
{ACAD_REACTORS
330
2E
102
}
330
2E
100
AcDbVisualStyle
  2
FlatWithEdges
 70
     1
 71
     2
 72
     1
 73
     1
 90
        2
 40
-0.6
 41
30.0
 62
     5
 63
     7
 74
     1
 91
        4
 64
     7
 65
   257
 75
     1
175
     1
 42
1.0
 92
        0
 66
   257
 43
1.0
 76
     1
 77
     6
 78
     2
 67
     7
 79
     5
170
     0
171
     0
290
     0
174
     0
 93
       13
 44
0.0
173
     0
291
     1
 45
0.0
1001
ACAD
1000
AcDbSavedByObjectVersion
1070
     0
  0
VISUALSTYLE
  5
3E8
102
{ACAD_REACTORS
330
2E
102
}
330
2E
100
AcDbVisualStyle
  2
Gouraud
 70
     2
 71
     2
 72
     2
 73
     1
 90
        2
 40
-0.6
 41
30.0
 62
     5
 63
     7
 74
     0
 91
        4
 64
     7
 65
   257
 75
     1
175
     1
 42
1.0
 92
        0
 66
     7
 43
1.0
 76
     1
 77
     6
 78
     2
 67
     7
 79
     5
170
     0
171
     0
290
     0
174
     0
 93
       13
 44
0.0
173
     0
291
     1
 45
0.0
1001
ACAD
1000
AcDbSavedByObjectVersion
1070
     0
  0
VISUALSTYLE
  5
3E9
102
{ACAD_REACTORS
330
2E
102
}
330
2E
100
AcDbVisualStyle
  2
GouraudWithEdges
 70
     3
 71
     2
 72
     2
 73
     1
 90
        2
 40
-0.6
 41
30.0
 62
     5
 63
     7
 74
     1
 91
        4
 64
     7
 65
   257
 75
     1
175
     1
 42
1.0
 92
        0
 66
   257
 43
1.0
 76
     1
 77
     6
 78
     2
 67
     7
 79
     5
170
     0
171
     0
290
     0
174
     0
 93
       13
 44
0.0
173
     0
291
     1
 45
0.0
1001
ACAD
1000
AcDbSavedByObjectVersion
1070
     0
  0
VISUALSTYLE
  5
3F0
102
{ACAD_REACTORS
330
2E
102
}
330
2E
100
AcDbVisualStyle
  2
Linepattern
 70
    14
 71
     2
 72
     2
 73
     0
 90
        0
 40
-0.6
 41
-30.0
 62
     5
 63
     7
 74
     1
 91
        4
 64
     7
 65
   257
 75
     7
175
     7
 42
1.0
 92
        8
 66
     7
 43
1.0
 76
     1
 77
     6
 78
     2
 67
     7
 79
     5
170
     0
171
     0
290
     0
174
     0
 93
        1
 44
0.0
173
     0
291
     1
 45
0.0
1001
ACAD
1000
AcDbSavedByObjectVersion
1070
     0
  0
VISUALSTYLE
  5
3E
102
{ACAD_REACTORS
330
2E
102
}
330
2E
100
AcDbVisualStyle
  2
Realistic
 70
     8
 71
     2
 72
     2
 73
     1
 90
        0
 40
-0.6
 41
-30.0
 62
     5
 63
     7
 74
     1
 91
        0
 64
     7
 65
   257
 75
     1
175
     1
 42
1.0
 92
        8
 66
     8
 43
1.0
 76
     1
 77
     6
 78
     2
 67
     7
 79
     5
170
     0
171
     0
290
     0
174
     0
 93
       13
 44
0.0
173
     0
291
     0
 45
0.0
1001
ACAD
1000
AcDbSavedByObjectVersion
1070
     0
1000
AcDbSavedByObjectVersion
1070
     0
  0
VISUALSTYLE
  5
3EF
102
{ACAD_REACTORS
330
2E
102
}
330
2E
100
AcDbVisualStyle
  2
Thicken
 70
    13
 71
     2
 72
     2
 73
     0
 90
        0
 40
-0.6
 41
-30.0
 62
     5
 63
     7
 74
     1
 91
        4
 64
     7
 65
   257
 75
     1
175
     1
 42
1.0
 92
       12
 66
     7
 43
1.0
 76
     1
 77
     6
 78
     2
 67
     7
 79
     5
170
     0
171
     0
290
     0
174
     0
 93
        1
 44
0.0
173
     0
291
     1
 45
0.0
1001
ACAD
1000
AcDbSavedByObjectVersion
1070
     0
  0
DICTIONARYVAR
  5
3CC
102
{ACAD_REACTORS
330
3C8
102
}
330
3C8
100
DictionaryVariables
280
     0
  1
1:1
  0
DICTIONARYVAR
  5
3CA
102
{ACAD_REACTORS
330
3C8
102
}
330
3C8
100
DictionaryVariables
280
     0
  1
STANDARD
  0
DICTIONARYVAR
  5
3C9
102
{ACAD_REACTORS
330
3C8
102
}
330
3C8
100
DictionaryVariables
280
     0
  1
STANDARD
  0
DICTIONARYVAR
  5
3D1
102
{ACAD_REACTORS
330
3C8
102
}
330
3C8
100
DictionaryVariables
280
     0
  1
2
  0
DICTIONARYVAR
  5
3D0
102
{ACAD_REACTORS
330
3C8
102
}
330
3C8
100
DictionaryVariables
280
     0
  1
1
  0
DICTIONARYVAR
  5
3CF
102
{ACAD_REACTORS
330
3C8
102
}
330
3C8
100
DictionaryVariables
280
     0
  1
0
  0
DICTIONARYVAR
  5
3CD
102
{ACAD_REACTORS
330
3C8
102
}
330
3C8
100
DictionaryVariables
280
     0
  1
2
  0
DICTIONARYVAR
  5
3CB
102
{ACAD_REACTORS
330
3C8
102
}
330
3C8
100
DictionaryVariables
280
     0
  1
1
  0
DICTIONARYVAR
  5
3FC
102
{ACAD_REACTORS
330
3C8
102
}
330
3C8
100
DictionaryVariables
280
     0
  1
80.000000
  0
DICTIONARYVAR
  5
3FB
102
{ACAD_REACTORS
330
3C8
102
}
330
3C8
100
DictionaryVariables
280
     0
  1
5.000000
  0
DICTIONARYVAR
  5
3CE
102
{ACAD_REACTORS
330
3C8
102
}
330
3C8
100
DictionaryVariables
280
     0
  1
127
  0
DICTIONARY
  5
401
330
17
100
AcDbDictionary
280
     1
281
     1
  3
ACAD_XREC_ROUNDTRIP
360
402
  0
DICTIONARY
  5
403
330
1F
100
AcDbDictionary
280
     1
281
     1
  3
ACAD_XREC_ROUNDTRIP
360
404
  0
DICTIONARY
  5
3DF
330
37
100
AcDbDictionary
280
     1
281
     1
  3
ACAD_XREC_ROUNDTRIP
360
3E0
  0
DICTIONARY
  5
3DD
330
36
100
AcDbDictionary
280
     1
281
     1
  3
ACAD_XREC_ROUNDTRIP
360
3DE
  0
DICTIONARY
  5
F
330
D
100
AcDbDictionary
280
     1
281
     1
  3
ACAD_XREC_ROUNDTRIP
360
3D8
  3
BUMPTILE
360
10
  3
DIFFUSETILE
360
11
  3
OPACITYTILE
360
12
  3
REFLECTIONTILE
360
13
  0
DICTIONARY
  5
3D
330
3C
100
AcDbDictionary
280
     1
281
     1
  3
ACAD_ROUNDTRIP_2008_TABLESTYLE_CELLSTYLEMAP
360
3FD
  3
ACAD_XREC_ROUNDTRIP
360
405
  0
XRECORD
  5
402
102
{ACAD_REACTORS
330
401
102
}
330
401
100
AcDbXrecord
280
     1
102
SHADEPLOT
 70
     0
102
SHADEPLOTRESLEVEL
 70
     2
102
SHADEPLOTCUSTOMDPI
 70
   300
  0
XRECORD
  5
404
102
{ACAD_REACTORS
330
403
102
}
330
403
100
AcDbXrecord
280
     1
102
SHADEPLOT
 70
     0
102
SHADEPLOTRESLEVEL
 70
     2
102
SHADEPLOTCUSTOMDPI
 70
   300
  0
XRECORD
  5
3E0
102
{ACAD_REACTORS
330
3DF
102
}
330
3DF
100
AcDbXrecord
280
     1
102
MATERIAL
148
0.0
149
0.0
149
0.0
 93
        0
 94
      127
282
     0
 72
     1
 77
     1
171
     1
175
     1
179
     1
273
     0
  0
XRECORD
  5
3DE
102
{ACAD_REACTORS
330
3DD
102
}
330
3DD
100
AcDbXrecord
280
     1
102
MATERIAL
148
0.0
149
0.0
149
0.0
 93
        0
 94
      127
282
     0
 72
     1
 77
     1
171
     1
175
     1
179
     1
273
     0
  0
XRECORD
  5
3D8
102
{ACAD_REACTORS
330
F
102
}
330
F
100
AcDbXrecord
280
     1
102
MATERIAL
148
0.0
149
0.0
149
0.0
 93
        0
 94
      127
282
     0
 72
     1
 77
     1
171
     1
175
     1
179
     1
273
     0
  0
XRECORD
  5
10
102
{ACAD_REACTORS
330
F
102
}
330
F
100
AcDbXrecord
280
     1
270
     1
271
     1
  0
XRECORD
  5
11
102
{ACAD_REACTORS
330
F
102
}
330
F
100
AcDbXrecord
280
     1
270
     1
271
     1
  0
XRECORD
  5
12
102
{ACAD_REACTORS
330
F
102
}
330
F
100
AcDbXrecord
280
     1
270
     1
271
     1
  0
XRECORD
  5
13
102
{ACAD_REACTORS
330
F
102
}
330
F
100
AcDbXrecord
280
     1
270
     1
271
     1
  0
CELLSTYLEMAP
  5
3FD
102
{ACAD_REACTORS
330
3D
102
}
330
3D
100
AcDbCellStyleMap
 90
        3
300
CELLSTYLE
  1
TABLEFORMAT_BEGIN
 90
        5
170
     1
 91
        0
 92
    32768
 62
   257
 93
        1
300
CONTENTFORMAT
  1
CONTENTFORMAT_BEGIN
 90
        0
 91
        0
 92
      512
 93
        0
300

 40
0.0
140
1.0
 94
        5
 62
     0
340
24
144
6.0
309
CONTENTFORMAT_END
171
     1
301
MARGIN
  1
CELLMARGIN_BEGIN
 40
1.5
 40
1.5
 40
1.5
 40
1.5
 40
0.18
 40
0.18
309
CELLMARGIN_END
 94
        6
 95
        1
302
GRIDFORMAT
  1
GRIDFORMAT_BEGIN
 90
        0
 91
        1
 62
     0
 92
       -2
340
27
 93
        0
 40
1.125
309
GRIDFORMAT_END
 95
        2
302
GRIDFORMAT
  1
GRIDFORMAT_BEGIN
 90
        0
 91
        1
 62
     0
 92
       -2
340
27
 93
        0
 40
1.125
309
GRIDFORMAT_END
 95
        4
302
GRIDFORMAT
  1
GRIDFORMAT_BEGIN
 90
        0
 91
        1
 62
     0
 92
       -2
340
27
 93
        0
 40
1.125
309
GRIDFORMAT_END
 95
        8
302
GRIDFORMAT
  1
GRIDFORMAT_BEGIN
 90
        0
 91
        1
 62
     0
 92
       -2
340
27
 93
        0
 40
1.125
309
GRIDFORMAT_END
 95
       16
302
GRIDFORMAT
  1
GRIDFORMAT_BEGIN
 90
        0
 91
        1
 62
     0
 92
       -2
340
27
 93
        0
 40
1.125
309
GRIDFORMAT_END
 95
       32
302
GRIDFORMAT
  1
GRIDFORMAT_BEGIN
 90
        0
 91
        1
 62
     0
 92
       -2
340
27
 93
        0
 40
1.125
309
GRIDFORMAT_END
309
TABLEFORMAT_END
  1
CELLSTYLE_BEGIN
 90
        1
 91
        1
300
_TITLE
309
CELLSTYLE_END
300
CELLSTYLE
  1
TABLEFORMAT_BEGIN
 90
        5
170
     1
 91
        0
 92
        0
 62
   257
 93
        1
300
CONTENTFORMAT
  1
CONTENTFORMAT_BEGIN
 90
        0
 91
        0
 92
      512
 93
        0
300

 40
0.0
140
1.0
 94
        5
 62
     0
340
24
144
4.5
309
CONTENTFORMAT_END
171
     1
301
MARGIN
  1
CELLMARGIN_BEGIN
 40
1.5
 40
1.5
 40
1.5
 40
1.5
 40
0.18
 40
0.18
309
CELLMARGIN_END
 94
        6
 95
        1
302
GRIDFORMAT
  1
GRIDFORMAT_BEGIN
 90
        0
 91
        1
 62
     0
 92
       -2
340
27
 93
        0
 40
1.125
309
GRIDFORMAT_END
 95
        2
302
GRIDFORMAT
  1
GRIDFORMAT_BEGIN
 90
        0
 91
        1
 62
     0
 92
       -2
340
27
 93
        0
 40
1.125
309
GRIDFORMAT_END
 95
        4
302
GRIDFORMAT
  1
GRIDFORMAT_BEGIN
 90
        0
 91
        1
 62
     0
 92
       -2
340
27
 93
        0
 40
1.125
309
GRIDFORMAT_END
 95
        8
302
GRIDFORMAT
  1
GRIDFORMAT_BEGIN
 90
        0
 91
        1
 62
     0
 92
       -2
340
27
 93
        0
 40
1.125
309
GRIDFORMAT_END
 95
       16
302
GRIDFORMAT
  1
GRIDFORMAT_BEGIN
 90
        0
 91
        1
 62
     0
 92
       -2
340
27
 93
        0
 40
1.125
309
GRIDFORMAT_END
 95
       32
302
GRIDFORMAT
  1
GRIDFORMAT_BEGIN
 90
        0
 91
        1
 62
     0
 92
       -2
340
27
 93
        0
 40
1.125
309
GRIDFORMAT_END
309
TABLEFORMAT_END
  1
CELLSTYLE_BEGIN
 90
        2
 91
        1
300
_HEADER
309
CELLSTYLE_END
300
CELLSTYLE
  1
TABLEFORMAT_BEGIN
 90
        5
170
     1
 91
        0
 92
        0
 62
   257
 93
        1
300
CONTENTFORMAT
  1
CONTENTFORMAT_BEGIN
 90
        0
 91
        0
 92
      512
 93
        0
300

 40
0.0
140
1.0
 94
        2
 62
     0
340
24
144
4.5
309
CONTENTFORMAT_END
171
     1
301
MARGIN
  1
CELLMARGIN_BEGIN
 40
1.5
 40
1.5
 40
1.5
 40
1.5
 40
0.18
 40
0.18
309
CELLMARGIN_END
 94
        6
 95
        1
302
GRIDFORMAT
  1
GRIDFORMAT_BEGIN
 90
        0
 91
        1
 62
     0
 92
       -2
340
27
 93
        0
 40
1.125
309
GRIDFORMAT_END
 95
        2
302
GRIDFORMAT
  1
GRIDFORMAT_BEGIN
 90
        0
 91
        1
 62
     0
 92
       -2
340
27
 93
        0
 40
1.125
309
GRIDFORMAT_END
 95
        4
302
GRIDFORMAT
  1
GRIDFORMAT_BEGIN
 90
        0
 91
        1
 62
     0
 92
       -2
340
27
 93
        0
 40
1.125
309
GRIDFORMAT_END
 95
        8
302
GRIDFORMAT
  1
GRIDFORMAT_BEGIN
 90
        0
 91
        1
 62
     0
 92
       -2
340
27
 93
        0
 40
1.125
309
GRIDFORMAT_END
 95
       16
302
GRIDFORMAT
  1
GRIDFORMAT_BEGIN
 90
        0
 91
        1
 62
     0
 92
       -2
340
27
 93
        0
 40
1.125
309
GRIDFORMAT_END
 95
       32
302
GRIDFORMAT
  1
GRIDFORMAT_BEGIN
 90
        0
 91
        1
 62
     0
 92
       -2
340
27
 93
        0
 40
1.125
309
GRIDFORMAT_END
309
TABLEFORMAT_END
  1
CELLSTYLE_BEGIN
 90
        3
 91
        2
300
_DATA
309
CELLSTYLE_END
  0
XRECORD
  5
405
102
{ACAD_REACTORS
330
3D
102
}
330
3D
100
AcDbXrecord
280
     1
102
ACAD_ROUNDTRIP_PRE2007_TABLESTYLE
 90
      512
 91
        0
  1

 92
      512
 93
        0
  2

 94
      512
 95
        0
  3

  0
ENDSEC
  0
EOF
