  0
SECTION
  2
HEADER
  9
$ACADVER
  1
AC1014
  9
$ACADMAINTVER
 70
     9
  9
$DWGCODEPAGE
  3
ANSI_949
  9
$INSBASE
 10
0.0
 20
0.0
 30
0.0
  9
$EXTMIN
 10
-4.726491482069832
 20
1.692491906149371
 30
-0.0015258207003583
  9
$EXTMAX
 10
337.5004816754481
 20
314.3192774614726
 30
0.0000000349246037
  9
$LIMMIN
 10
0.0
 20
0.0
  9
$LIMMAX
 10
100.0
 20
50.0
  9
$ORTHOMODE
 70
     1
  9
$REGENMODE
 70
     1
  9
$FILLMODE
 70
     1
  9
$QTEXTMODE
 70
     0
  9
$MIRRTEXT
 70
     0
  9
$DRAGMODE
 70
     2
  9
$LTSCALE
 40
0.5
  9
$OSMODE
 70
   567
  9
$ATTMODE
 70
     1
  9
$TEXTSIZE
 40
5.777225951253058
  9
$TRACEWID
 40
1.0
  9
$TEXTSTYLE
  7
STANDARD
  9
$CLAYER
  8
0
  9
$CELTYPE
  6
BYLAYER
  9
$CECOLOR
 62
   256
  9
$CELTSCALE
 40
1.0
  9
$DELOBJ
 70
     1
  9
$DISPSILH
 70
     0
  9
$DIMSCALE
 40
1.0
  9
$DIMASZ
 40
3.5
  9
$DIMEXO
 40
1.0
  9
$DIMDLI
 40
10.0
  9
$DIMRND
 40
0.0
  9
$DIMDLE
 40
0.0
  9
$DIMEXE
 40
0.6
  9
$DIMTP
 40
0.0
  9
$DIMTM
 40
0.0
  9
$DIMTXT
 40
3.0
  9
$DIMCEN
 40
0.09
  9
$DIMTSZ
 40
0.0
  9
$DIMTOL
 70
     0
  9
$DIMLIM
 70
     0
  9
$DIMTIH
 70
     0
  9
$DIMTOH
 70
     0
  9
$DIMSE1
 70
     0
  9
$DIMSE2
 70
     0
  9
$DIMTAD
 70
     1
  9
$DIMZIN
 70
     8
  9
$DIMBLK
  1

  9
$DIMASO
 70
     1
  9
$DIMSHO
 70
     1
  9
$DIMPOST
  1

  9
$DIMAPOST
  1

  9
$DIMALT
 70
     0
  9
$DIMALTD
 70
     2
  9
$DIMALTF
 40
25.4
  9
$DIMLFAC
 40
1.0
  9
$DIMTOFL
 70
     1
  9
$DIMTVP
 40
0.0
  9
$DIMTIX
 70
     1
  9
$DIMSOXD
 70
     0
  9
$DIMSAH
 70
     0
  9
$DIMBLK1
  1

  9
$DIMBLK2
  1

  9
$DIMSTYLE
  2
STANDARD
  9
$DIMCLRD
 70
   123
  9
$DIMCLRE
 70
   123
  9
$DIMCLRT
 70
     3
  9
$DIMTFAC
 40
1.0
  9
$DIMGAP
 40
1.0
  9
$DIMJUST
 70
     0
  9
$DIMSD1
 70
     0
  9
$DIMSD2
 70
     0
  9
$DIMTOLJ
 70
     1
  9
$DIMTZIN
 70
     0
  9
$DIMALTZ
 70
     0
  9
$DIMALTTZ
 70
     0
  9
$DIMFIT
 70
     0
  9
$DIMUPT
 70
     1
  9
$DIMUNIT
 70
     2
  9
$DIMDEC
 70
     2
  9
$DIMTDEC
 70
     2
  9
$DIMALTU
 70
     2
  9
$DIMALTTD
 70
     2
  9
$DIMTXSTY
  7
STANDARD
  9
$DIMAUNIT
 70
     1
  9
$LUNITS
 70
     2
  9
$LUPREC
 70
     4
  9
$SKETCHINC
 40
1.0
  9
$FILLETRAD
 40
6.0
  9
$AUNITS
 70
     0
  9
$AUPREC
 70
     0
  9
$MENU
  1
.
  9
$ELEVATION
 40
0.0
  9
$PELEVATION
 40
0.0
  9
$THICKNESS
 40
0.0
  9
$LIMCHECK
 70
     0
  9
$BLIPMODE
 70
     1
  9
$CHAMFERA
 40
1.0
  9
$CHAMFERB
 40
1.0
  9
$CHAMFERC
 40
20.0
  9
$CHAMFERD
 40
0.0
  9
$SKPOLY
 70
     0
  9
$TDCREATE
 40
2452839.586179271
  9
$TDUPDATE
 40
2453377.779533044
  9
$TDINDWG
 40
9.8522746181
  9
$TDUSRTIMER
 40
9.8522746181
  9
$USRTIMER
 70
     1
  9
$ANGBASE
 50
0.0
  9
$ANGDIR
 70
     0
  9
$PDMODE
 70
     0
  9
$PDSIZE
 40
0.0
  9
$PLINEWID
 40
0.0
  9
$COORDS
 70
     2
  9
$SPLFRAME
 70
     0
  9
$SPLINETYPE
 70
     6
  9
$SPLINESEGS
 70
   800
  9
$ATTDIA
 70
     0
  9
$ATTREQ
 70
     1
  9
$HANDLING
 70
 22529
  9
$HANDSEED
  5
3AC
  9
$SURFTAB1
 70
     6
  9
$SURFTAB2
 70
     6
  9
$SURFTYPE
 70
     6
  9
$SURFU
 70
     6
  9
$SURFV
 70
     6
  9
$UCSNAME
  2

  9
$UCSORG
 10
0.0
 20
0.0
 30
0.0
  9
$UCSXDIR
 10
1.0
 20
0.0
 30
0.0
  9
$UCSYDIR
 10
0.0
 20
1.0
 30
0.0
  9
$PUCSNAME
  2

  9
$PUCSORG
 10
0.0
 20
0.0
 30
0.0
  9
$PUCSXDIR
 10
1.0
 20
0.0
 30
0.0
  9
$PUCSYDIR
 10
0.0
 20
1.0
 30
0.0
  9
$USERI1
 70
     0
  9
$USERI2
 70
     0
  9
$USERI3
 70
     0
  9
$USERI4
 70
     0
  9
$USERI5
 70
     0
  9
$USERR1
 40
0.0
  9
$USERR2
 40
0.0
  9
$USERR3
 40
0.0
  9
$USERR4
 40
0.0
  9
$USERR5
 40
0.0
  9
$WORLDVIEW
 70
     1
  9
$SHADEDGE
 70
     3
  9
$SHADEDIF
 70
    70
  9
$TILEMODE
 70
     1
  9
$MAXACTVP
 70
    48
  9
$PINSBASE
 10
0.0
 20
0.0
 30
0.0
  9
$PLIMCHECK
 70
     0
  9
$PEXTMIN
 10
0.0
 20
0.0
 30
0.0
  9
$PEXTMAX
 10
0.0
 20
0.0
 30
0.0
  9
$PLIMMIN
 10
0.0
 20
0.0
  9
$PLIMMAX
 10
12.0
 20
9.0
  9
$UNITMODE
 70
     0
  9
$VISRETAIN
 70
     1
  9
$PLINEGEN
 70
     0
  9
$PSLTSCALE
 70
     1
  9
$TREEDEPTH
 70
  3020
  9
$PICKSTYLE
 70
     0
  9
$CMLSTYLE
  2
STANDARD
  9
$CMLJUST
 70
     0
  9
$CMLSCALE
 40
20.0
  9
$PROXYGRAPHICS
 70
     1
  9
$MEASUREMENT
 70
     1
  0
ENDSEC
  0
SECTION
  2
CLASSES
  0
CLASS
  1
ACDBDICTIONARYWDFLT
  2
AcDbDictionaryWithDefault
  3
AutoCAD 2000
 90
        0
280
     0
281
     0
  0
CLASS
  1
ACDBPLACEHOLDER
  2
AcDbPlaceHolder
  3
AutoCAD 2000
 90
        0
280
     0
281
     0
  0
CLASS
  1
LAYOUT
  2
AcDbLayout
  3
AutoCAD 2000
 90
        0
280
     0
281
     0
  0
CLASS
  1
DICTIONARYVAR
  2
AcDbDictionaryVar
  3
AutoCAD 2000
 90
        0
280
     0
281
     0
  0
CLASS
  1
DIMASSOC
  2
AcDbDimAssoc
  3
"AcDbDimAssoc|Product Desc:     AcDim ARX App For Dimension|Company:          Autodesk, Inc.|WEB Address:      www.autodesk.com"
 90
        0
280
     0
281
     0
  0
CLASS
  1
LONG_TRANSACTION
  2
AcDbLongTransaction
  3
AutoCAD 2000
 90
        0
280
     0
281
     0
  0
CLASS
  1
LWPOLYLINE
  2
AcDbPolyline
  3
AutoCAD 2000
 90
        0
280
     0
281
     1
  0
CLASS
  1
HATCH
  2
AcDbHatch
  3
AutoCAD 2000
 90
        0
280
     0
281
     1
  0
CLASS
  1
XRECORD
  2
AcDbXrecord
  3
AutoCAD 2000
 90
        0
280
     0
281
     0
  0
CLASS
  1
LONG_TRANSACTION
  2
AcDbLongTransaction
  3
AutoCAD 2000
 90
        0
280
     0
281
     0
  0
CLASS
  1
LWPOLYLINE
  2
AcDbPolyline
  3
AutoCAD 2000
 90
        0
280
     0
281
     1
  0
CLASS
  1
HATCH
  2
AcDbHatch
  3
AutoCAD 2000
 90
        0
280
     0
281
     1
  0
CLASS
  1
XRECORD
  2
AcDbXrecord
  3
AutoCAD 2000
 90
        0
280
     0
281
     0
  0
CLASS
  1
LONG_TRANSACTION
  2
AcDbLongTransaction
  3
AutoCAD 2000
 90
        0
280
     0
281
     0
  0
CLASS
  1
LWPOLYLINE
  2
AcDbPolyline
  3
AutoCAD 2000
 90
        0
280
     0
281
     1
  0
CLASS
  1
HATCH
  2
AcDbHatch
  3
AutoCAD 2000
 90
        0
280
     0
281
     1
  0
CLASS
  1
XRECORD
  2
AcDbXrecord
  3
AutoCAD 2000
 90
        0
280
     0
281
     0
  0
CLASS
  1
LONG_TRANSACTION
  2
AcDbLongTransaction
  3
AutoCAD 2000
 90
        0
280
     0
281
     0
  0
CLASS
  1
LWPOLYLINE
  2
AcDbPolyline
  3
AutoCAD 2000
 90
        0
280
     0
281
     1
  0
CLASS
  1
HATCH
  2
AcDbHatch
  3
AutoCAD 2000
 90
        0
280
     0
281
     1
  0
CLASS
  1
XRECORD
  2
AcDbXrecord
  3
AutoCAD 2000
 90
        0
280
     0
281
     0
  0
CLASS
  1
LONG_TRANSACTION
  2
AcDbLongTransaction
  3
AutoCAD 2000
 90
        0
280
     0
281
     0
  0
CLASS
  1
LWPOLYLINE
  2
AcDbPolyline
  3
AutoCAD 2000
 90
        0
280
     0
281
     1
  0
CLASS
  1
HATCH
  2
AcDbHatch
  3
AutoCAD 2000
 90
        0
280
     0
281
     1
  0
CLASS
  1
XRECORD
  2
AcDbXrecord
  3
AutoCAD 2000
 90
        0
280
     0
281
     0
  0
CLASS
  1
LONG_TRANSACTION
  2
AcDbLongTransaction
  3
AutoCAD 2000
 90
        0
280
     0
281
     0
  0
CLASS
  1
LWPOLYLINE
  2
AcDbPolyline
  3
AutoCAD 2000
 90
        0
280
     0
281
     1
  0
CLASS
  1
HATCH
  2
AcDbHatch
  3
AutoCAD 2000
 90
        0
280
     0
281
     1
  0
CLASS
  1
XRECORD
  2
AcDbXrecord
  3
AutoCAD 2000
 90
        0
280
     0
281
     0
  0
CLASS
  1
LONG_TRANSACTION
  2
AcDbLongTransaction
  3
AutoCAD 2000
 90
        0
280
     0
281
     0
  0
CLASS
  1
LWPOLYLINE
  2
AcDbPolyline
  3
AutoCAD 2000
 90
        0
280
     0
281
     1
  0
CLASS
  1
HATCH
  2
AcDbHatch
  3
AutoCAD 2000
 90
        0
280
     0
281
     1
  0
CLASS
  1
XRECORD
  2
AcDbXrecord
  3
AutoCAD 2000
 90
        0
280
     0
281
     0
  0
CLASS
  1
LONG_TRANSACTION
  2
AcDbLongTransaction
  3
AutoCAD 2000
 90
        0
280
     0
281
     0
  0
CLASS
  1
LWPOLYLINE
  2
AcDbPolyline
  3
AutoCAD 2000
 90
        0
280
     0
281
     1
  0
CLASS
  1
HATCH
  2
AcDbHatch
  3
AutoCAD 2000
 90
        0
280
     0
281
     1
  0
CLASS
  1
XRECORD
  2
AcDbXrecord
  3
AutoCAD 2000
 90
        0
280
     0
281
     0
  0
CLASS
  1
LONG_TRANSACTION
  2
AcDbLongTransaction
  3
AutoCAD 2000
 90
        0
280
     0
281
     0
  0
CLASS
  1
LWPOLYLINE
  2
AcDbPolyline
  3
AutoCAD 2000
 90
        0
280
     0
281
     1
  0
CLASS
  1
HATCH
  2
AcDbHatch
  3
AutoCAD 2000
 90
        0
280
     0
281
     1
  0
CLASS
  1
XRECORD
  2
AcDbXrecord
  3
AutoCAD 2000
 90
        0
280
     0
281
     0
  0
CLASS
  1
LONG_TRANSACTION
  2
AcDbLongTransaction
  3
AutoCAD 2000
 90
        0
280
     0
281
     0
  0
CLASS
  1
LWPOLYLINE
  2
AcDbPolyline
  3
AutoCAD 2000
 90
        0
280
     0
281
     1
  0
CLASS
  1
HATCH
  2
AcDbHatch
  3
AutoCAD 2000
 90
        0
280
     0
281
     1
  0
CLASS
  1
XRECORD
  2
AcDbXrecord
  3
AutoCAD 2000
 90
        0
280
     0
281
     0
  0
CLASS
  1
LONG_TRANSACTION
  2
AcDbLongTransaction
  3
AutoCAD 2000
 90
        0
280
     0
281
     0
  0
CLASS
  1
LWPOLYLINE
  2
AcDbPolyline
  3
AutoCAD 2000
 90
        0
280
     0
281
     1
  0
CLASS
  1
HATCH
  2
AcDbHatch
  3
AutoCAD 2000
 90
        0
280
     0
281
     1
  0
CLASS
  1
XRECORD
  2
AcDbXrecord
  3
AutoCAD 2000
 90
        0
280
     0
281
     0
  0
CLASS
  1
LONG_TRANSACTION
  2
AcDbLongTransaction
  3
AutoCAD 2000
 90
        0
280
     0
281
     0
  0
CLASS
  1
LWPOLYLINE
  2
AcDbPolyline
  3
AutoCAD 2000
 90
        0
280
     0
281
     1
  0
CLASS
  1
HATCH
  2
AcDbHatch
  3
AutoCAD 2000
 90
        0
280
     0
281
     1
  0
CLASS
  1
XRECORD
  2
AcDbXrecord
  3
AutoCAD 2000
 90
        0
280
     0
281
     0
  0
CLASS
  1
LONG_TRANSACTION
  2
AcDbLongTransaction
  3
AutoCAD 2000
 90
        0
280
     0
281
     0
  0
CLASS
  1
LWPOLYLINE
  2
AcDbPolyline
  3
AutoCAD 2000
 90
        0
280
     0
281
     1
  0
CLASS
  1
HATCH
  2
AcDbHatch
  3
AutoCAD 2000
 90
        0
280
     0
281
     1
  0
CLASS
  1
XRECORD
  2
AcDbXrecord
  3
AutoCAD 2000
 90
        0
280
     0
281
     0
  0
CLASS
  1
LONG_TRANSACTION
  2
AcDbLongTransaction
  3
AutoCAD 2000
 90
        0
280
     0
281
     0
  0
CLASS
  1
LWPOLYLINE
  2
AcDbPolyline
  3
AutoCAD 2000
 90
        0
280
     0
281
     1
  0
CLASS
  1
HATCH
  2
AcDbHatch
  3
AutoCAD 2000
 90
        0
280
     0
281
     1
  0
CLASS
  1
XRECORD
  2
AcDbXrecord
  3
AutoCAD 2000
 90
        0
280
     0
281
     0
  0
CLASS
  1
LONG_TRANSACTION
  2
AcDbLongTransaction
  3
AutoCAD 2000
 90
        0
280
     0
281
     0
  0
CLASS
  1
LWPOLYLINE
  2
AcDbPolyline
  3
AutoCAD 2000
 90
        0
280
     0
281
     1
  0
CLASS
  1
HATCH
  2
AcDbHatch
  3
AutoCAD 2000
 90
        0
280
     0
281
     1
  0
CLASS
  1
XRECORD
  2
AcDbXrecord
  3
AutoCAD 2000
 90
        0
280
     0
281
     0
  0
CLASS
  1
LONG_TRANSACTION
  2
AcDbLongTransaction
  3
AutoCAD 2000
 90
        0
280
     0
281
     0
  0
CLASS
  1
LWPOLYLINE
  2
AcDbPolyline
  3
AutoCAD 2000
 90
        0
280
     0
281
     1
  0
CLASS
  1
HATCH
  2
AcDbHatch
  3
AutoCAD 2000
 90
        0
280
     0
281
     1
  0
CLASS
  1
XRECORD
  2
AcDbXrecord
  3
AutoCAD 2000
 90
        0
280
     0
281
     0
  0
CLASS
  1
LONG_TRANSACTION
  2
AcDbLongTransaction
  3
AutoCAD 2000
 90
        0
280
     0
281
     0
  0
CLASS
  1
LWPOLYLINE
  2
AcDbPolyline
  3
AutoCAD 2000
 90
        0
280
     0
281
     1
  0
CLASS
  1
HATCH
  2
AcDbHatch
  3
AutoCAD 2000
 90
        0
280
     0
281
     1
  0
CLASS
  1
XRECORD
  2
AcDbXrecord
  3
AutoCAD 2000
 90
        0
280
     0
281
     0
  0
CLASS
  1
LONG_TRANSACTION
  2
AcDbLongTransaction
  3
AutoCAD 2000
 90
        0
280
     0
281
     0
  0
CLASS
  1
LWPOLYLINE
  2
AcDbPolyline
  3
AutoCAD 2000
 90
        0
280
     0
281
     1
  0
CLASS
  1
HATCH
  2
AcDbHatch
  3
AutoCAD 2000
 90
        0
280
     0
281
     1
  0
CLASS
  1
XRECORD
  2
AcDbXrecord
  3
AutoCAD 2000
 90
        0
280
     0
281
     0
  0
CLASS
  1
LONG_TRANSACTION
  2
AcDbLongTransaction
  3
AutoCAD 2000
 90
        0
280
     0
281
     0
  0
CLASS
  1
LWPOLYLINE
  2
AcDbPolyline
  3
AutoCAD 2000
 90
        0
280
     0
281
     1
  0
CLASS
  1
HATCH
  2
AcDbHatch
  3
AutoCAD 2000
 90
        0
280
     0
281
     1
  0
CLASS
  1
XRECORD
  2
AcDbXrecord
  3
AutoCAD 2000
 90
        0
280
     0
281
     0
  0
CLASS
  1
LONG_TRANSACTION
  2
AcDbLongTransaction
  3
AutoCAD 2000
 90
        0
280
     0
281
     0
  0
CLASS
  1
LWPOLYLINE
  2
AcDbPolyline
  3
AutoCAD 2000
 90
        0
280
     0
281
     1
  0
CLASS
  1
HATCH
  2
AcDbHatch
  3
AutoCAD 2000
 90
        0
280
     0
281
     1
  0
CLASS
  1
XRECORD
  2
AcDbXrecord
  3
AutoCAD 2000
 90
        0
280
     0
281
     0
  0
CLASS
  1
LONG_TRANSACTION
  2
AcDbLongTransaction
  3
AutoCAD 2000
 90
        0
280
     0
281
     0
  0
CLASS
  1
LWPOLYLINE
  2
AcDbPolyline
  3
AutoCAD 2000
 90
        0
280
     0
281
     1
  0
CLASS
  1
HATCH
  2
AcDbHatch
  3
AutoCAD 2000
 90
        0
280
     0
281
     1
  0
CLASS
  1
XRECORD
  2
AcDbXrecord
  3
AutoCAD 2000
 90
        0
280
     0
281
     0
  0
CLASS
  1
LONG_TRANSACTION
  2
AcDbLongTransaction
  3
AutoCAD 2000
 90
        0
280
     0
281
     0
  0
CLASS
  1
LWPOLYLINE
  2
AcDbPolyline
  3
AutoCAD 2000
 90
        0
280
     0
281
     1
  0
CLASS
  1
HATCH
  2
AcDbHatch
  3
AutoCAD 2000
 90
        0
280
     0
281
     1
  0
CLASS
  1
XRECORD
  2
AcDbXrecord
  3
AutoCAD 2000
 90
        0
280
     0
281
     0
  0
CLASS
  1
LONG_TRANSACTION
  2
AcDbLongTransaction
  3
AutoCAD 2000
 90
        0
280
     0
281
     0
  0
CLASS
  1
LWPOLYLINE
  2
AcDbPolyline
  3
AutoCAD 2000
 90
        0
280
     0
281
     1
  0
CLASS
  1
HATCH
  2
AcDbHatch
  3
AutoCAD 2000
 90
        0
280
     0
281
     1
  0
CLASS
  1
XRECORD
  2
AcDbXrecord
  3
AutoCAD 2000
 90
        0
280
     0
281
     0
  0
CLASS
  1
LONG_TRANSACTION
  2
AcDbLongTransaction
  3
AutoCAD 2000
 90
        0
280
     0
281
     0
  0
CLASS
  1
LWPOLYLINE
  2
AcDbPolyline
  3
AutoCAD 2000
 90
        0
280
     0
281
     1
  0
CLASS
  1
HATCH
  2
AcDbHatch
  3
AutoCAD 2000
 90
        0
280
     0
281
     1
  0
CLASS
  1
XRECORD
  2
AcDbXrecord
  3
AutoCAD 2000
 90
        0
280
     0
281
     0
  0
CLASS
  1
LONG_TRANSACTION
  2
AcDbLongTransaction
  3
AutoCAD 2000
 90
        0
280
     0
281
     0
  0
CLASS
  1
LWPOLYLINE
  2
AcDbPolyline
  3
AutoCAD 2000
 90
        0
280
     0
281
     1
  0
CLASS
  1
HATCH
  2
AcDbHatch
  3
AutoCAD 2000
 90
        0
280
     0
281
     1
  0
CLASS
  1
XRECORD
  2
AcDbXrecord
  3
AutoCAD 2000
 90
        0
280
     0
281
     0
  0
CLASS
  1
LONG_TRANSACTION
  2
AcDbLongTransaction
  3
AutoCAD 2000
 90
        0
280
     0
281
     0
  0
CLASS
  1
LWPOLYLINE
  2
AcDbPolyline
  3
AutoCAD 2000
 90
        0
280
     0
281
     1
  0
CLASS
  1
HATCH
  2
AcDbHatch
  3
AutoCAD 2000
 90
        0
280
     0
281
     1
  0
CLASS
  1
XRECORD
  2
AcDbXrecord
  3
AutoCAD 2000
 90
        0
280
     0
281
     0
  0
CLASS
  1
LONG_TRANSACTION
  2
AcDbLongTransaction
  3
AutoCAD 2000
 90
        0
280
     0
281
     0
  0
CLASS
  1
LWPOLYLINE
  2
AcDbPolyline
  3
AutoCAD 2000
 90
        0
280
     0
281
     1
  0
CLASS
  1
HATCH
  2
AcDbHatch
  3
AutoCAD 2000
 90
        0
280
     0
281
     1
  0
CLASS
  1
XRECORD
  2
AcDbXrecord
  3
AutoCAD 2000
 90
        0
280
     0
281
     0
  0
CLASS
  1
LONG_TRANSACTION
  2
AcDbLongTransaction
  3
AutoCAD 2000
 90
        0
280
     0
281
     0
  0
CLASS
  1
LWPOLYLINE
  2
AcDbPolyline
  3
AutoCAD 2000
 90
        0
280
     0
281
     1
  0
CLASS
  1
HATCH
  2
AcDbHatch
  3
AutoCAD 2000
 90
        0
280
     0
281
     1
  0
CLASS
  1
XRECORD
  2
AcDbXrecord
  3
AutoCAD 2000
 90
        0
280
     0
281
     0
  0
CLASS
  1
LONG_TRANSACTION
  2
AcDbLongTransaction
  3
AutoCAD 2000
 90
        0
280
     0
281
     0
  0
CLASS
  1
LWPOLYLINE
  2
AcDbPolyline
  3
AutoCAD 2000
 90
        0
280
     0
281
     1
  0
CLASS
  1
HATCH
  2
AcDbHatch
  3
AutoCAD 2000
 90
        0
280
     0
281
     1
  0
CLASS
  1
XRECORD
  2
AcDbXrecord
  3
AutoCAD 2000
 90
        0
280
     0
281
     0
  0
CLASS
  1
LONG_TRANSACTION
  2
AcDbLongTransaction
  3
AutoCAD 2000
 90
        0
280
     0
281
     0
  0
CLASS
  1
LWPOLYLINE
  2
AcDbPolyline
  3
AutoCAD 2000
 90
        0
280
     0
281
     1
  0
CLASS
  1
HATCH
  2
AcDbHatch
  3
AutoCAD 2000
 90
        0
280
     0
281
     1
  0
CLASS
  1
XRECORD
  2
AcDbXrecord
  3
AutoCAD 2000
 90
        0
280
     0
281
     0
  0
CLASS
  1
LONG_TRANSACTION
  2
AcDbLongTransaction
  3
AutoCAD 2000
 90
        0
280
     0
281
     0
  0
CLASS
  1
LWPOLYLINE
  2
AcDbPolyline
  3
AutoCAD 2000
 90
        0
280
     0
281
     1
  0
CLASS
  1
HATCH
  2
AcDbHatch
  3
AutoCAD 2000
 90
        0
280
     0
281
     1
  0
CLASS
  1
XRECORD
  2
AcDbXrecord
  3
AutoCAD 2000
 90
        0
280
     0
281
     0
  0
CLASS
  1
LONG_TRANSACTION
  2
AcDbLongTransaction
  3
AutoCAD 2000
 90
        0
280
     0
281
     0
  0
CLASS
  1
LWPOLYLINE
  2
AcDbPolyline
  3
AutoCAD 2000
 90
        0
280
     0
281
     1
  0
CLASS
  1
HATCH
  2
AcDbHatch
  3
AutoCAD 2000
 90
        0
280
     0
281
     1
  0
CLASS
  1
XRECORD
  2
AcDbXrecord
  3
AutoCAD 2000
 90
        0
280
     0
281
     0
  0
CLASS
  1
LONG_TRANSACTION
  2
AcDbLongTransaction
  3
AutoCAD 2000
 90
        0
280
     0
281
     0
  0
CLASS
  1
LWPOLYLINE
  2
AcDbPolyline
  3
AutoCAD 2000
 90
        0
280
     0
281
     1
  0
CLASS
  1
HATCH
  2
AcDbHatch
  3
AutoCAD 2000
 90
        0
280
     0
281
     1
  0
CLASS
  1
XRECORD
  2
AcDbXrecord
  3
AutoCAD 2000
 90
        0
280
     0
281
     0
  0
CLASS
  1
LONG_TRANSACTION
  2
AcDbLongTransaction
  3
AutoCAD 2000
 90
        0
280
     0
281
     0
  0
CLASS
  1
LWPOLYLINE
  2
AcDbPolyline
  3
AutoCAD 2000
 90
        0
280
     0
281
     1
  0
CLASS
  1
HATCH
  2
AcDbHatch
  3
AutoCAD 2000
 90
        0
280
     0
281
     1
  0
CLASS
  1
XRECORD
  2
AcDbXrecord
  3
AutoCAD 2000
 90
        0
280
     0
281
     0
  0
CLASS
  1
LONG_TRANSACTION
  2
AcDbLongTransaction
  3
AutoCAD 2000
 90
        0
280
     0
281
     0
  0
CLASS
  1
LWPOLYLINE
  2
AcDbPolyline
  3
AutoCAD 2000
 90
        0
280
     0
281
     1
  0
CLASS
  1
HATCH
  2
AcDbHatch
  3
AutoCAD 2000
 90
        0
280
     0
281
     1
  0
CLASS
  1
XRECORD
  2
AcDbXrecord
  3
AutoCAD 2000
 90
        0
280
     0
281
     0
  0
CLASS
  1
LONG_TRANSACTION
  2
AcDbLongTransaction
  3
AutoCAD 2000
 90
        0
280
     0
281
     0
  0
CLASS
  1
LWPOLYLINE
  2
AcDbPolyline
  3
AutoCAD 2000
 90
        0
280
     0
281
     1
  0
CLASS
  1
HATCH
  2
AcDbHatch
  3
AutoCAD 2000
 90
        0
280
     0
281
     1
  0
CLASS
  1
XRECORD
  2
AcDbXrecord
  3
AutoCAD 2000
 90
        0
280
     0
281
     0
  0
CLASS
  1
LONG_TRANSACTION
  2
AcDbLongTransaction
  3
AutoCAD 2000
 90
        0
280
     0
281
     0
  0
CLASS
  1
LWPOLYLINE
  2
AcDbPolyline
  3
AutoCAD 2000
 90
        0
280
     0
281
     1
  0
CLASS
  1
HATCH
  2
AcDbHatch
  3
AutoCAD 2000
 90
        0
280
     0
281
     1
  0
CLASS
  1
XRECORD
  2
AcDbXrecord
  3
AutoCAD 2000
 90
        0
280
     0
281
     0
  0
CLASS
  1
LONG_TRANSACTION
  2
AcDbLongTransaction
  3
AutoCAD 2000
 90
        0
280
     0
281
     0
  0
CLASS
  1
LWPOLYLINE
  2
AcDbPolyline
  3
AutoCAD 2000
 90
        0
280
     0
281
     1
  0
CLASS
  1
HATCH
  2
AcDbHatch
  3
AutoCAD 2000
 90
        0
280
     0
281
     1
  0
CLASS
  1
XRECORD
  2
AcDbXrecord
  3
AutoCAD 2000
 90
        0
280
     0
281
     0
  0
CLASS
  1
LONG_TRANSACTION
  2
AcDbLongTransaction
  3
AutoCAD 2000
 90
        0
280
     0
281
     0
  0
CLASS
  1
LWPOLYLINE
  2
AcDbPolyline
  3
AutoCAD 2000
 90
        0
280
     0
281
     1
  0
CLASS
  1
HATCH
  2
AcDbHatch
  3
AutoCAD 2000
 90
        0
280
     0
281
     1
  0
CLASS
  1
XRECORD
  2
AcDbXrecord
  3
AutoCAD 2000
 90
        0
280
     0
281
     0
  0
CLASS
  1
LONG_TRANSACTION
  2
AcDbLongTransaction
  3
AutoCAD 2000
 90
        0
280
     0
281
     0
  0
CLASS
  1
LWPOLYLINE
  2
AcDbPolyline
  3
AutoCAD 2000
 90
        0
280
     0
281
     1
  0
CLASS
  1
HATCH
  2
AcDbHatch
  3
AutoCAD 2000
 90
        0
280
     0
281
     1
  0
CLASS
  1
XRECORD
  2
AcDbXrecord
  3
AutoCAD 2000
 90
        0
280
     0
281
     0
  0
CLASS
  1
LONG_TRANSACTION
  2
AcDbLongTransaction
  3
AutoCAD 2000
 90
        0
280
     0
281
     0
  0
CLASS
  1
LWPOLYLINE
  2
AcDbPolyline
  3
AutoCAD 2000
 90
        0
280
     0
281
     1
  0
CLASS
  1
HATCH
  2
AcDbHatch
  3
AutoCAD 2000
 90
        0
280
     0
281
     1
  0
CLASS
  1
XRECORD
  2
AcDbXrecord
  3
AutoCAD 2000
 90
        0
280
     0
281
     0
  0
CLASS
  1
LONG_TRANSACTION
  2
AcDbLongTransaction
  3
AutoCAD 2000
 90
        0
280
     0
281
     0
  0
CLASS
  1
LWPOLYLINE
  2
AcDbPolyline
  3
AutoCAD 2000
 90
        0
280
     0
281
     1
  0
CLASS
  1
HATCH
  2
AcDbHatch
  3
AutoCAD 2000
 90
        0
280
     0
281
     1
  0
CLASS
  1
XRECORD
  2
AcDbXrecord
  3
AutoCAD 2000
 90
        0
280
     0
281
     0
  0
CLASS
  1
LONG_TRANSACTION
  2
AcDbLongTransaction
  3
AutoCAD 2000
 90
        0
280
     0
281
     0
  0
CLASS
  1
LWPOLYLINE
  2
AcDbPolyline
  3
AutoCAD 2000
 90
        0
280
     0
281
     1
  0
CLASS
  1
HATCH
  2
AcDbHatch
  3
AutoCAD 2000
 90
        0
280
     0
281
     1
  0
CLASS
  1
XRECORD
  2
AcDbXrecord
  3
AutoCAD 2000
 90
        0
280
     0
281
     0
  0
CLASS
  1
LONG_TRANSACTION
  2
AcDbLongTransaction
  3
AutoCAD 2000
 90
        0
280
     0
281
     0
  0
CLASS
  1
LWPOLYLINE
  2
AcDbPolyline
  3
AutoCAD 2000
 90
        0
280
     0
281
     1
  0
CLASS
  1
HATCH
  2
AcDbHatch
  3
AutoCAD 2000
 90
        0
280
     0
281
     1
  0
CLASS
  1
XRECORD
  2
AcDbXrecord
  3
AutoCAD 2000
 90
        0
280
     0
281
     0
  0
CLASS
  1
LONG_TRANSACTION
  2
AcDbLongTransaction
  3
AutoCAD 2000
 90
        0
280
     0
281
     0
  0
CLASS
  1
LWPOLYLINE
  2
AcDbPolyline
  3
AutoCAD 2000
 90
        0
280
     0
281
     1
  0
CLASS
  1
HATCH
  2
AcDbHatch
  3
AutoCAD 2000
 90
        0
280
     0
281
     1
  0
CLASS
  1
XRECORD
  2
AcDbXrecord
  3
AutoCAD 2000
 90
        0
280
     0
281
     0
  0
CLASS
  1
LONG_TRANSACTION
  2
AcDbLongTransaction
  3
AutoCAD 2000
 90
        0
280
     0
281
     0
  0
CLASS
  1
LWPOLYLINE
  2
AcDbPolyline
  3
AutoCAD 2000
 90
        0
280
     0
281
     1
  0
CLASS
  1
HATCH
  2
AcDbHatch
  3
AutoCAD 2000
 90
        0
280
     0
281
     1
  0
CLASS
  1
XRECORD
  2
AcDbXrecord
  3
AutoCAD 2000
 90
        0
280
     0
281
     0
  0
CLASS
  1
LONG_TRANSACTION
  2
AcDbLongTransaction
  3
AutoCAD 2000
 90
        0
280
     0
281
     0
  0
CLASS
  1
LWPOLYLINE
  2
AcDbPolyline
  3
AutoCAD 2000
 90
        0
280
     0
281
     1
  0
CLASS
  1
HATCH
  2
AcDbHatch
  3
AutoCAD 2000
 90
        0
280
     0
281
     1
  0
CLASS
  1
XRECORD
  2
AcDbXrecord
  3
AutoCAD 2000
 90
        0
280
     0
281
     0
  0
CLASS
  1
LONG_TRANSACTION
  2
AcDbLongTransaction
  3
AutoCAD 2000
 90
        0
280
     0
281
     0
  0
CLASS
  1
LWPOLYLINE
  2
AcDbPolyline
  3
AutoCAD 2000
 90
        0
280
     0
281
     1
  0
CLASS
  1
HATCH
  2
AcDbHatch
  3
AutoCAD 2000
 90
        0
280
     0
281
     1
  0
CLASS
  1
XRECORD
  2
AcDbXrecord
  3
AutoCAD 2000
 90
        0
280
     0
281
     0
  0
CLASS
  1
LONG_TRANSACTION
  2
AcDbLongTransaction
  3
AutoCAD 2000
 90
        0
280
     0
281
     0
  0
CLASS
  1
LWPOLYLINE
  2
AcDbPolyline
  3
AutoCAD 2000
 90
        0
280
     0
281
     1
  0
CLASS
  1
HATCH
  2
AcDbHatch
  3
AutoCAD 2000
 90
        0
280
     0
281
     1
  0
CLASS
  1
XRECORD
  2
AcDbXrecord
  3
AutoCAD 2000
 90
        0
280
     0
281
     0
  0
CLASS
  1
LONG_TRANSACTION
  2
AcDbLongTransaction
  3
AutoCAD 2000
 90
        0
280
     0
281
     0
  0
CLASS
  1
LWPOLYLINE
  2
AcDbPolyline
  3
AutoCAD 2000
 90
        0
280
     0
281
     1
  0
CLASS
  1
HATCH
  2
AcDbHatch
  3
AutoCAD 2000
 90
        0
280
     0
281
     1
  0
CLASS
  1
XRECORD
  2
AcDbXrecord
  3
AutoCAD 2000
 90
        0
280
     0
281
     0
  0
CLASS
  1
LONG_TRANSACTION
  2
AcDbLongTransaction
  3
AutoCAD 2000
 90
        0
280
     0
281
     0
  0
CLASS
  1
LWPOLYLINE
  2
AcDbPolyline
  3
AutoCAD 2000
 90
        0
280
     0
281
     1
  0
CLASS
  1
HATCH
  2
AcDbHatch
  3
AutoCAD 2000
 90
        0
280
     0
281
     1
  0
CLASS
  1
XRECORD
  2
AcDbXrecord
  3
AutoCAD 2000
 90
        0
280
     0
281
     0
  0
CLASS
  1
LONG_TRANSACTION
  2
AcDbLongTransaction
  3
AutoCAD 2000
 90
        0
280
     0
281
     0
  0
CLASS
  1
LWPOLYLINE
  2
AcDbPolyline
  3
AutoCAD 2000
 90
        0
280
     0
281
     1
  0
CLASS
  1
HATCH
  2
AcDbHatch
  3
AutoCAD 2000
 90
        0
280
     0
281
     1
  0
CLASS
  1
XRECORD
  2
AcDbXrecord
  3
AutoCAD 2000
 90
        0
280
     0
281
     0
  0
CLASS
  1
LONG_TRANSACTION
  2
AcDbLongTransaction
  3
AutoCAD 2000
 90
        0
280
     0
281
     0
  0
CLASS
  1
LWPOLYLINE
  2
AcDbPolyline
  3
AutoCAD 2000
 90
        0
280
     0
281
     1
  0
CLASS
  1
HATCH
  2
AcDbHatch
  3
AutoCAD 2000
 90
        0
280
     0
281
     1
  0
CLASS
  1
XRECORD
  2
AcDbXrecord
  3
AutoCAD 2000
 90
        0
280
     0
281
     0
  0
CLASS
  1
LONG_TRANSACTION
  2
AcDbLongTransaction
  3
AutoCAD 2000
 90
        0
280
     0
281
     0
  0
CLASS
  1
LWPOLYLINE
  2
AcDbPolyline
  3
AutoCAD 2000
 90
        0
280
     0
281
     1
  0
CLASS
  1
HATCH
  2
AcDbHatch
  3
AutoCAD 2000
 90
        0
280
     0
281
     1
  0
CLASS
  1
XRECORD
  2
AcDbXrecord
  3
AutoCAD 2000
 90
        0
280
     0
281
     0
  0
CLASS
  1
LONG_TRANSACTION
  2
AcDbLongTransaction
  3
AutoCAD 2000
 90
        0
280
     0
281
     0
  0
CLASS
  1
LWPOLYLINE
  2
AcDbPolyline
  3
AutoCAD 2000
 90
        0
280
     0
281
     1
  0
CLASS
  1
HATCH
  2
AcDbHatch
  3
AutoCAD 2000
 90
        0
280
     0
281
     1
  0
CLASS
  1
XRECORD
  2
AcDbXrecord
  3
AutoCAD 2000
 90
        0
280
     0
281
     0
  0
CLASS
  1
LONG_TRANSACTION
  2
AcDbLongTransaction
  3
AutoCAD 2000
 90
        0
280
     0
281
     0
  0
CLASS
  1
LWPOLYLINE
  2
AcDbPolyline
  3
AutoCAD 2000
 90
        0
280
     0
281
     1
  0
CLASS
  1
HATCH
  2
AcDbHatch
  3
AutoCAD 2000
 90
        0
280
     0
281
     1
  0
CLASS
  1
XRECORD
  2
AcDbXrecord
  3
AutoCAD 2000
 90
        0
280
     0
281
     0
  0
CLASS
  1
LONG_TRANSACTION
  2
AcDbLongTransaction
  3
AutoCAD 2000
 90
        0
280
     0
281
     0
  0
CLASS
  1
LWPOLYLINE
  2
AcDbPolyline
  3
AutoCAD 2000
 90
        0
280
     0
281
     1
  0
CLASS
  1
HATCH
  2
AcDbHatch
  3
AutoCAD 2000
 90
        0
280
     0
281
     1
  0
CLASS
  1
XRECORD
  2
AcDbXrecord
  3
AutoCAD 2000
 90
        0
280
     0
281
     0
  0
CLASS
  1
LONG_TRANSACTION
  2
AcDbLongTransaction
  3
AutoCAD 2000
 90
        0
280
     0
281
     0
  0
CLASS
  1
LWPOLYLINE
  2
AcDbPolyline
  3
AutoCAD 2000
 90
        0
280
     0
281
     1
  0
CLASS
  1
HATCH
  2
AcDbHatch
  3
AutoCAD 2000
 90
        0
280
     0
281
     1
  0
CLASS
  1
XRECORD
  2
AcDbXrecord
  3
AutoCAD 2000
 90
        0
280
     0
281
     0
  0
CLASS
  1
LONG_TRANSACTION
  2
AcDbLongTransaction
  3
AutoCAD 2000
 90
        0
280
     0
281
     0
  0
CLASS
  1
LWPOLYLINE
  2
AcDbPolyline
  3
AutoCAD 2000
 90
        0
280
     0
281
     1
  0
CLASS
  1
HATCH
  2
AcDbHatch
  3
AutoCAD 2000
 90
        0
280
     0
281
     1
  0
CLASS
  1
XRECORD
  2
AcDbXrecord
  3
AutoCAD 2000
 90
        0
280
     0
281
     0
  0
CLASS
  1
LONG_TRANSACTION
  2
AcDbLongTransaction
  3
AutoCAD 2000
 90
        0
280
     0
281
     0
  0
CLASS
  1
LWPOLYLINE
  2
AcDbPolyline
  3
AutoCAD 2000
 90
        0
280
     0
281
     1
  0
CLASS
  1
HATCH
  2
AcDbHatch
  3
AutoCAD 2000
 90
        0
280
     0
281
     1
  0
CLASS
  1
XRECORD
  2
AcDbXrecord
  3
AutoCAD 2000
 90
        0
280
     0
281
     0
  0
CLASS
  1
LONG_TRANSACTION
  2
AcDbLongTransaction
  3
AutoCAD 2000
 90
        0
280
     0
281
     0
  0
CLASS
  1
LWPOLYLINE
  2
AcDbPolyline
  3
AutoCAD 2000
 90
        0
280
     0
281
     1
  0
CLASS
  1
HATCH
  2
AcDbHatch
  3
AutoCAD 2000
 90
        0
280
     0
281
     1
  0
CLASS
  1
XRECORD
  2
AcDbXrecord
  3
AutoCAD 2000
 90
        0
280
     0
281
     0
  0
CLASS
  1
LONG_TRANSACTION
  2
AcDbLongTransaction
  3
AutoCAD 2000
 90
        0
280
     0
281
     0
  0
CLASS
  1
LWPOLYLINE
  2
AcDbPolyline
  3
AutoCAD 2000
 90
        0
280
     0
281
     1
  0
CLASS
  1
HATCH
  2
AcDbHatch
  3
AutoCAD 2000
 90
        0
280
     0
281
     1
  0
CLASS
  1
XRECORD
  2
AcDbXrecord
  3
AutoCAD 2000
 90
        0
280
     0
281
     0
  0
CLASS
  1
LONG_TRANSACTION
  2
AcDbLongTransaction
  3
AutoCAD 2000
 90
        0
280
     0
281
     0
  0
CLASS
  1
LWPOLYLINE
  2
AcDbPolyline
  3
AutoCAD 2000
 90
        0
280
     0
281
     1
  0
CLASS
  1
HATCH
  2
AcDbHatch
  3
AutoCAD 2000
 90
        0
280
     0
281
     1
  0
CLASS
  1
XRECORD
  2
AcDbXrecord
  3
AutoCAD 2000
 90
        0
280
     0
281
     0
  0
CLASS
  1
LONG_TRANSACTION
  2
AcDbLongTransaction
  3
AutoCAD 2000
 90
        0
280
     0
281
     0
  0
CLASS
  1
LWPOLYLINE
  2
AcDbPolyline
  3
AutoCAD 2000
 90
        0
280
     0
281
     1
  0
CLASS
  1
HATCH
  2
AcDbHatch
  3
AutoCAD 2000
 90
        0
280
     0
281
     1
  0
CLASS
  1
XRECORD
  2
AcDbXrecord
  3
AutoCAD 2000
 90
        0
280
     0
281
     0
  0
CLASS
  1
LONG_TRANSACTION
  2
AcDbLongTransaction
  3
AutoCAD 2000
 90
        0
280
     0
281
     0
  0
CLASS
  1
LWPOLYLINE
  2
AcDbPolyline
  3
AutoCAD 2000
 90
        0
280
     0
281
     1
  0
CLASS
  1
HATCH
  2
AcDbHatch
  3
AutoCAD 2000
 90
        0
280
     0
281
     1
  0
CLASS
  1
XRECORD
  2
AcDbXrecord
  3
AutoCAD 2000
 90
        0
280
     0
281
     0
  0
CLASS
  1
LONG_TRANSACTION
  2
AcDbLongTransaction
  3
AutoCAD 2000
 90
        0
280
     0
281
     0
  0
CLASS
  1
LWPOLYLINE
  2
AcDbPolyline
  3
AutoCAD 2000
 90
        0
280
     0
281
     1
  0
CLASS
  1
HATCH
  2
AcDbHatch
  3
AutoCAD 2000
 90
        0
280
     0
281
     1
  0
CLASS
  1
XRECORD
  2
AcDbXrecord
  3
AutoCAD 2000
 90
        0
280
     0
281
     0
  0
CLASS
  1
LONG_TRANSACTION
  2
AcDbLongTransaction
  3
AutoCAD 2000
 90
        0
280
     0
281
     0
  0
CLASS
  1
LWPOLYLINE
  2
AcDbPolyline
  3
AutoCAD 2000
 90
        0
280
     0
281
     1
  0
CLASS
  1
HATCH
  2
AcDbHatch
  3
AutoCAD 2000
 90
        0
280
     0
281
     1
  0
CLASS
  1
XRECORD
  2
AcDbXrecord
  3
AutoCAD 2000
 90
        0
280
     0
281
     0
  0
CLASS
  1
LONG_TRANSACTION
  2
AcDbLongTransaction
  3
AutoCAD 2000
 90
        0
280
     0
281
     0
  0
CLASS
  1
LWPOLYLINE
  2
AcDbPolyline
  3
AutoCAD 2000
 90
        0
280
     0
281
     1
  0
CLASS
  1
HATCH
  2
AcDbHatch
  3
AutoCAD 2000
 90
        0
280
     0
281
     1
  0
CLASS
  1
XRECORD
  2
AcDbXrecord
  3
AutoCAD 2000
 90
        0
280
     0
281
     0
  0
CLASS
  1
LONG_TRANSACTION
  2
AcDbLongTransaction
  3
AutoCAD 2000
 90
        0
280
     0
281
     0
  0
CLASS
  1
LWPOLYLINE
  2
AcDbPolyline
  3
AutoCAD 2000
 90
        0
280
     0
281
     1
  0
CLASS
  1
HATCH
  2
AcDbHatch
  3
AutoCAD 2000
 90
        0
280
     0
281
     1
  0
CLASS
  1
XRECORD
  2
AcDbXrecord
  3
AutoCAD 2000
 90
        0
280
     0
281
     0
  0
CLASS
  1
LONG_TRANSACTION
  2
AcDbLongTransaction
  3
AutoCAD 2000
 90
        0
280
     0
281
     0
  0
CLASS
  1
LWPOLYLINE
  2
AcDbPolyline
  3
AutoCAD 2000
 90
        0
280
     0
281
     1
  0
CLASS
  1
HATCH
  2
AcDbHatch
  3
AutoCAD 2000
 90
        0
280
     0
281
     1
  0
CLASS
  1
XRECORD
  2
AcDbXrecord
  3
AutoCAD 2000
 90
        0
280
     0
281
     0
  0
CLASS
  1
LONG_TRANSACTION
  2
AcDbLongTransaction
  3
AutoCAD 2000
 90
        0
280
     0
281
     0
  0
CLASS
  1
LWPOLYLINE
  2
AcDbPolyline
  3
AutoCAD 2000
 90
        0
280
     0
281
     1
  0
CLASS
  1
HATCH
  2
AcDbHatch
  3
AutoCAD 2000
 90
        0
280
     0
281
     1
  0
CLASS
  1
XRECORD
  2
AcDbXrecord
  3
AutoCAD 2000
 90
        0
280
     0
281
     0
  0
CLASS
  1
LONG_TRANSACTION
  2
AcDbLongTransaction
  3
AutoCAD 2000
 90
        0
280
     0
281
     0
  0
CLASS
  1
LWPOLYLINE
  2
AcDbPolyline
  3
AutoCAD 2000
 90
        0
280
     0
281
     1
  0
CLASS
  1
HATCH
  2
AcDbHatch
  3
AutoCAD 2000
 90
        0
280
     0
281
     1
  0
CLASS
  1
XRECORD
  2
AcDbXrecord
  3
AutoCAD 2000
 90
        0
280
     0
281
     0
  0
CLASS
  1
LONG_TRANSACTION
  2
AcDbLongTransaction
  3
AutoCAD 2000
 90
        0
280
     0
281
     0
  0
CLASS
  1
LWPOLYLINE
  2
AcDbPolyline
  3
AutoCAD 2000
 90
        0
280
     0
281
     1
  0
CLASS
  1
HATCH
  2
AcDbHatch
  3
AutoCAD 2000
 90
        0
280
     0
281
     1
  0
CLASS
  1
XRECORD
  2
AcDbXrecord
  3
AutoCAD 2000
 90
        0
280
     0
281
     0
  0
CLASS
  1
LONG_TRANSACTION
  2
AcDbLongTransaction
  3
AutoCAD 2000
 90
        0
280
     0
281
     0
  0
CLASS
  1
LWPOLYLINE
  2
AcDbPolyline
  3
AutoCAD 2000
 90
        0
280
     0
281
     1
  0
CLASS
  1
HATCH
  2
AcDbHatch
  3
AutoCAD 2000
 90
        0
280
     0
281
     1
  0
CLASS
  1
XRECORD
  2
AcDbXrecord
  3
AutoCAD 2000
 90
        0
280
     0
281
     0
  0
CLASS
  1
LONG_TRANSACTION
  2
AcDbLongTransaction
  3
AutoCAD 2000
 90
        0
280
     0
281
     0
  0
CLASS
  1
LWPOLYLINE
  2
AcDbPolyline
  3
AutoCAD 2000
 90
        0
280
     0
281
     1
  0
CLASS
  1
HATCH
  2
AcDbHatch
  3
AutoCAD 2000
 90
        0
280
     0
281
     1
  0
CLASS
  1
XRECORD
  2
AcDbXrecord
  3
AutoCAD 2000
 90
        0
280
     0
281
     0
  0
CLASS
  1
LONG_TRANSACTION
  2
AcDbLongTransaction
  3
AutoCAD 2000
 90
        0
280
     0
281
     0
  0
CLASS
  1
LWPOLYLINE
  2
AcDbPolyline
  3
AutoCAD 2000
 90
        0
280
     0
281
     1
  0
CLASS
  1
HATCH
  2
AcDbHatch
  3
AutoCAD 2000
 90
        0
280
     0
281
     1
  0
CLASS
  1
XRECORD
  2
AcDbXrecord
  3
AutoCAD 2000
 90
        0
280
     0
281
     0
  0
CLASS
  1
LONG_TRANSACTION
  2
AcDbLongTransaction
  3
AutoCAD 2000
 90
        0
280
     0
281
     0
  0
CLASS
  1
LWPOLYLINE
  2
AcDbPolyline
  3
AutoCAD 2000
 90
        0
280
     0
281
     1
  0
CLASS
  1
HATCH
  2
AcDbHatch
  3
AutoCAD 2000
 90
        0
280
     0
281
     1
  0
CLASS
  1
XRECORD
  2
AcDbXrecord
  3
AutoCAD 2000
 90
        0
280
     0
281
     0
  0
CLASS
  1
LONG_TRANSACTION
  2
AcDbLongTransaction
  3
AutoCAD 2000
 90
        0
280
     0
281
     0
  0
CLASS
  1
LWPOLYLINE
  2
AcDbPolyline
  3
AutoCAD 2000
 90
        0
280
     0
281
     1
  0
CLASS
  1
HATCH
  2
AcDbHatch
  3
AutoCAD 2000
 90
        0
280
     0
281
     1
  0
CLASS
  1
XRECORD
  2
AcDbXrecord
  3
AutoCAD 2000
 90
        0
280
     0
281
     0
  0
CLASS
  1
LONG_TRANSACTION
  2
AcDbLongTransaction
  3
AutoCAD 2000
 90
        0
280
     0
281
     0
  0
CLASS
  1
LWPOLYLINE
  2
AcDbPolyline
  3
AutoCAD 2000
 90
        0
280
     0
281
     1
  0
CLASS
  1
HATCH
  2
AcDbHatch
  3
AutoCAD 2000
 90
        0
280
     0
281
     1
  0
CLASS
  1
XRECORD
  2
AcDbXrecord
  3
AutoCAD 2000
 90
        0
280
     0
281
     0
  0
CLASS
  1
LONG_TRANSACTION
  2
AcDbLongTransaction
  3
AutoCAD 2000
 90
        0
280
     0
281
     0
  0
CLASS
  1
LWPOLYLINE
  2
AcDbPolyline
  3
AutoCAD 2000
 90
        0
280
     0
281
     1
  0
CLASS
  1
HATCH
  2
AcDbHatch
  3
AutoCAD 2000
 90
        0
280
     0
281
     1
  0
CLASS
  1
XRECORD
  2
AcDbXrecord
  3
AutoCAD 2000
 90
        0
280
     0
281
     0
  0
CLASS
  1
LONG_TRANSACTION
  2
AcDbLongTransaction
  3
AutoCAD 2000
 90
        0
280
     0
281
     0
  0
CLASS
  1
LWPOLYLINE
  2
AcDbPolyline
  3
AutoCAD 2000
 90
        0
280
     0
281
     1
  0
CLASS
  1
HATCH
  2
AcDbHatch
  3
AutoCAD 2000
 90
        0
280
     0
281
     1
  0
CLASS
  1
XRECORD
  2
AcDbXrecord
  3
AutoCAD 2000
 90
        0
280
     0
281
     0
  0
CLASS
  1
LONG_TRANSACTION
  2
AcDbLongTransaction
  3
AutoCAD 2000
 90
        0
280
     0
281
     0
  0
CLASS
  1
LWPOLYLINE
  2
AcDbPolyline
  3
AutoCAD 2000
 90
        0
280
     0
281
     1
  0
CLASS
  1
HATCH
  2
AcDbHatch
  3
AutoCAD 2000
 90
        0
280
     0
281
     1
  0
CLASS
  1
XRECORD
  2
AcDbXrecord
  3
AutoCAD 2000
 90
        0
280
     0
281
     0
  0
CLASS
  1
LONG_TRANSACTION
  2
AcDbLongTransaction
  3
AutoCAD 2000
 90
        0
280
     0
281
     0
  0
CLASS
  1
LWPOLYLINE
  2
AcDbPolyline
  3
AutoCAD 2000
 90
        0
280
     0
281
     1
  0
CLASS
  1
HATCH
  2
AcDbHatch
  3
AutoCAD 2000
 90
        0
280
     0
281
     1
  0
CLASS
  1
XRECORD
  2
AcDbXrecord
  3
AutoCAD 2000
 90
        0
280
     0
281
     0
  0
CLASS
  1
LONG_TRANSACTION
  2
AcDbLongTransaction
  3
AutoCAD 2000
 90
        0
280
     0
281
     0
  0
CLASS
  1
LWPOLYLINE
  2
AcDbPolyline
  3
AutoCAD 2000
 90
        0
280
     0
281
     1
  0
CLASS
  1
HATCH
  2
AcDbHatch
  3
AutoCAD 2000
 90
        0
280
     0
281
     1
  0
CLASS
  1
XRECORD
  2
AcDbXrecord
  3
AutoCAD 2000
 90
        0
280
     0
281
     0
  0
CLASS
  1
LONG_TRANSACTION
  2
AcDbLongTransaction
  3
AutoCAD 2000
 90
        0
280
     0
281
     0
  0
CLASS
  1
LWPOLYLINE
  2
AcDbPolyline
  3
AutoCAD 2000
 90
        0
280
     0
281
     1
  0
CLASS
  1
HATCH
  2
AcDbHatch
  3
AutoCAD 2000
 90
        0
280
     0
281
     1
  0
CLASS
  1
XRECORD
  2
AcDbXrecord
  3
AutoCAD 2000
 90
        0
280
     0
281
     0
  0
CLASS
  1
LONG_TRANSACTION
  2
AcDbLongTransaction
  3
AutoCAD 2000
 90
        0
280
     0
281
     0
  0
CLASS
  1
LWPOLYLINE
  2
AcDbPolyline
  3
AutoCAD 2000
 90
        0
280
     0
281
     1
  0
CLASS
  1
HATCH
  2
AcDbHatch
  3
AutoCAD 2000
 90
        0
280
     0
281
     1
  0
CLASS
  1
XRECORD
  2
AcDbXrecord
  3
AutoCAD 2000
 90
        0
280
     0
281
     0
  0
CLASS
  1
LONG_TRANSACTION
  2
AcDbLongTransaction
  3
AutoCAD 2000
 90
        0
280
     0
281
     0
  0
CLASS
  1
LWPOLYLINE
  2
AcDbPolyline
  3
AutoCAD 2000
 90
        0
280
     0
281
     1
  0
CLASS
  1
HATCH
  2
AcDbHatch
  3
AutoCAD 2000
 90
        0
280
     0
281
     1
  0
CLASS
  1
XRECORD
  2
AcDbXrecord
  3
AutoCAD 2000
 90
        0
280
     0
281
     0
  0
CLASS
  1
LONG_TRANSACTION
  2
AcDbLongTransaction
  3
AutoCAD 2000
 90
        0
280
     0
281
     0
  0
CLASS
  1
LWPOLYLINE
  2
AcDbPolyline
  3
AutoCAD 2000
 90
        0
280
     0
281
     1
  0
CLASS
  1
HATCH
  2
AcDbHatch
  3
AutoCAD 2000
 90
        0
280
     0
281
     1
  0
CLASS
  1
XRECORD
  2
AcDbXrecord
  3
AutoCAD 2000
 90
        0
280
     0
281
     0
  0
CLASS
  1
LONG_TRANSACTION
  2
AcDbLongTransaction
  3
AutoCAD 2000
 90
        0
280
     0
281
     0
  0
CLASS
  1
LWPOLYLINE
  2
AcDbPolyline
  3
AutoCAD 2000
 90
        0
280
     0
281
     1
  0
CLASS
  1
HATCH
  2
AcDbHatch
  3
AutoCAD 2000
 90
        0
280
     0
281
     1
  0
CLASS
  1
XRECORD
  2
AcDbXrecord
  3
AutoCAD 2000
 90
        0
280
     0
281
     0
  0
CLASS
  1
LONG_TRANSACTION
  2
AcDbLongTransaction
  3
AutoCAD 2000
 90
        0
280
     0
281
     0
  0
CLASS
  1
LWPOLYLINE
  2
AcDbPolyline
  3
AutoCAD 2000
 90
        0
280
     0
281
     1
  0
CLASS
  1
HATCH
  2
AcDbHatch
  3
AutoCAD 2000
 90
        0
280
     0
281
     1
  0
CLASS
  1
XRECORD
  2
AcDbXrecord
  3
AutoCAD 2000
 90
        0
280
     0
281
     0
  0
CLASS
  1
LONG_TRANSACTION
  2
AcDbLongTransaction
  3
AutoCAD 2000
 90
        0
280
     0
281
     0
  0
CLASS
  1
LWPOLYLINE
  2
AcDbPolyline
  3
AutoCAD 2000
 90
        0
280
     0
281
     1
  0
CLASS
  1
HATCH
  2
AcDbHatch
  3
AutoCAD 2000
 90
        0
280
     0
281
     1
  0
CLASS
  1
XRECORD
  2
AcDbXrecord
  3
AutoCAD 2000
 90
        0
280
     0
281
     0
  0
CLASS
  1
LONG_TRANSACTION
  2
AcDbLongTransaction
  3
AutoCAD 2000
 90
        0
280
     0
281
     0
  0
CLASS
  1
LWPOLYLINE
  2
AcDbPolyline
  3
AutoCAD 2000
 90
        0
280
     0
281
     1
  0
CLASS
  1
HATCH
  2
AcDbHatch
  3
AutoCAD 2000
 90
        0
280
     0
281
     1
  0
CLASS
  1
XRECORD
  2
AcDbXrecord
  3
AutoCAD 2000
 90
        0
280
     0
281
     0
  0
CLASS
  1
LONG_TRANSACTION
  2
AcDbLongTransaction
  3
AutoCAD 2000
 90
        0
280
     0
281
     0
  0
CLASS
  1
LWPOLYLINE
  2
AcDbPolyline
  3
AutoCAD 2000
 90
        0
280
     0
281
     1
  0
CLASS
  1
HATCH
  2
AcDbHatch
  3
AutoCAD 2000
 90
        0
280
     0
281
     1
  0
CLASS
  1
XRECORD
  2
AcDbXrecord
  3
AutoCAD 2000
 90
        0
280
     0
281
     0
  0
CLASS
  1
LONG_TRANSACTION
  2
AcDbLongTransaction
  3
AutoCAD 2000
 90
        0
280
     0
281
     0
  0
CLASS
  1
LWPOLYLINE
  2
AcDbPolyline
  3
AutoCAD 2000
 90
        0
280
     0
281
     1
  0
CLASS
  1
HATCH
  2
AcDbHatch
  3
AutoCAD 2000
 90
        0
280
     0
281
     1
  0
CLASS
  1
XRECORD
  2
AcDbXrecord
  3
AutoCAD 2000
 90
        0
280
     0
281
     0
  0
ENDSEC
  0
SECTION
  2
TABLES
  0
TABLE
  2
VPORT
  5
1E
330
0
100
AcDbSymbolTable
 70
     3
  0
VPORT
  5
388
330
1E
100
AcDbSymbolTableRecord
100
AcDbViewportTableRecord
  2
*ACTIVE
 70
     0
 10
0.0
 20
0.0
 11
1.0
 21
1.0
 12
166.3869950966891
 22
158.005884683811
 13
0.0
 23
0.0
 14
10.0
 24
10.0
 15
10.0
 25
10.0
 16
0.0
 26
0.0
 36
1.0
 17
0.0
 27
0.0
 37
0.0
 40
314.998164459662
 41
1.549367088607595
 42
50.0
 43
0.0
 44
0.0
 50
0.0
 51
0.0
 71
     0
 72
 10000
 73
     1
 74
     3
 75
     0
 76
     0
 77
     0
 78
     1
  0
ENDTAB
  0
TABLE
  2
LTYPE
  5
19
330
0
100
AcDbSymbolTable
 70
     3
  0
LTYPE
  5
1A
330
19
100
AcDbSymbolTableRecord
100
AcDbLinetypeTableRecord
  2
BYBLOCK
 70
     0
  3

 72
    65
 73
     0
 40
0.0
  0
LTYPE
  5
1B
330
19
100
AcDbSymbolTableRecord
100
AcDbLinetypeTableRecord
  2
BYLAYER
 70
     0
  3

 72
    65
 73
     0
 40
0.0
  0
LTYPE
  5
9
330
19
100
AcDbSymbolTableRecord
100
AcDbLinetypeTableRecord
  2
CONTINUOUS
 70
     0
  3
Solid line
 72
    65
 73
     0
 40
0.0
  0
LTYPE
  5
2D
330
19
100
AcDbSymbolTableRecord
100
AcDbLinetypeTableRecord
  2
CENTER
 70
     0
  3
Center ____ _ ____ _ ____ _ ____ _ ____ _ ____
 72
    65
 73
     4
 40
50.8
 49
31.75
 74
     0
 49
-6.349999999999999
 74
     0
 49
6.349999999999999
 74
     0
 49
-6.349999999999999
 74
     0
  0
LTYPE
  5
8B
330
19
100
AcDbSymbolTableRecord
100
AcDbLinetypeTableRecord
  2
ACAD_ISO02W100
 70
     0
  3
ISO dash __ __ __ __ __ __ __ __ __ __ __ __ __
 72
    65
 73
     2
 40
15.0
 49
12.0
 74
     0
 49
-3.0
 74
     0
  0
ENDTAB
  0
TABLE
  2
LAYER
  5
12
102
{ACAD_XDICTIONARY
360
13
102
}
330
0
100
AcDbSymbolTable
 70
     4
  0
LAYER
  5
5
330
12
100
AcDbSymbolTableRecord
100
AcDbLayerTableRecord
  2
0
 70
     0
 62
     7
  6
CONTINUOUS
  0
LAYER
  5
3A
330
12
100
AcDbSymbolTableRecord
100
AcDbLayerTableRecord
  2
DEFPOINTS
 70
     0
 62
     7
  6
CONTINUOUS
  0
LAYER
  5
2C
330
12
100
AcDbSymbolTableRecord
100
AcDbLayerTableRecord
  2
CEN
 70
     0
 62
     1
  6
CENTER
  0
LAYER
  5
8A
330
12
100
AcDbSymbolTableRecord
100
AcDbLayerTableRecord
  2
HI
 70
     0
 62
     4
  6
ACAD_ISO02W100
  0
ENDTAB
  0
TABLE
  2
STYLE
  5
16
330
0
100
AcDbSymbolTable
 70
     1
  0
STYLE
  5
17
330
16
100
AcDbSymbolTableRecord
100
AcDbTextStyleTableRecord
  2
STANDARD
 70
     0
 40
0.0
 41
1.0
 50
0.0
 71
     0
 42
5.777225951253058
  3
romans.shx
  4
whgtxt.shx
  0
ENDTAB
  0
TABLE
  2
VIEW
  5
1C
330
0
100
AcDbSymbolTable
 70
     0
  0
ENDTAB
  0
TABLE
  2
UCS
  5
1D
330
0
100
AcDbSymbolTable
 70
     0
  0
ENDTAB
  0
TABLE
  2
APPID
  5
20
330
0
100
AcDbSymbolTable
 70
     1
  0
APPID
  5
21
330
20
100
AcDbSymbolTableRecord
100
AcDbRegAppTableRecord
  2
ACAD
 70
     0
  0
ENDTAB
  0
TABLE
  2
DIMSTYLE
  5
22
330
0
100
AcDbSymbolTable
 70
     1
  0
DIMSTYLE
105
23
102
{ACAD_REACTORS
330
31
330
1CE
330
8F
330
48
330
59
330
6A
330
7A
330
A2
330
B0
330
D3
330
E5
330
F8
330
118
330
12E
330
140
330
155
330
16F
330
186
330
20A
330
198
330
1A7
330
1BE
330
1E4
330
1F0
102
}
330
22
100
AcDbSymbolTableRecord
100
AcDbDimStyleTableRecord
  2
STANDARD
 70
     0
  3

  4

  5

  6

  7

 40
1.0
 41
3.5
 42
1.0
 43
10.0
 44
0.6
 45
0.0
 46
0.0
 47
0.0
 48
0.0
140
3.0
141
0.09
142
0.0
143
25.4
144
1.0
145
0.0
146
1.0
147
1.0
 71
     0
 72
     0
 73
     0
 74
     0
 75
     0
 76
     0
 77
     1
 78
     8
170
     0
171
     2
172
     1
173
     0
174
     1
175
     0
176
   123
177
   123
178
     3
270
     2
271
     2
272
     2
273
     2
274
     2
340
17
275
     1
280
     0
281
     0
282
     0
283
     1
284
     0
285
     0
286
     0
287
     0
288
     1
  0
ENDTAB
  0
TABLE
  2
BLOCK_RECORD
  5
1
330
0
100
AcDbSymbolTable
 70
    48
  0
BLOCK_RECORD
  5
2
102
{ACAD_XDICTIONARY
360
3
102
}
330
1
100
AcDbSymbolTableRecord
100
AcDbBlockTableRecord
  2
*MODEL_SPACE
  0
BLOCK_RECORD
  5
D
102
{ACAD_XDICTIONARY
360
E
102
}
330
1
100
AcDbSymbolTableRecord
100
AcDbBlockTableRecord
  2
*PAPER_SPACE
  0
BLOCK_RECORD
  5
32
330
1
100
AcDbSymbolTableRecord
100
AcDbBlockTableRecord
  2
*D0
  0
BLOCK_RECORD
  5
A3
330
1
100
AcDbSymbolTableRecord
100
AcDbBlockTableRecord
  2
*D1
  0
BLOCK_RECORD
  5
D4
330
1
100
AcDbSymbolTableRecord
100
AcDbBlockTableRecord
  2
*D2
  0
BLOCK_RECORD
  5
E6
330
1
100
AcDbSymbolTableRecord
100
AcDbBlockTableRecord
  2
*D3
  0
BLOCK_RECORD
  5
F9
330
1
100
AcDbSymbolTableRecord
100
AcDbBlockTableRecord
  2
*D4
  0
BLOCK_RECORD
  5
1BF
330
1
100
AcDbSymbolTableRecord
100
AcDbBlockTableRecord
  2
*D5
  0
BLOCK_RECORD
  5
1D1
330
1
100
AcDbSymbolTableRecord
100
AcDbBlockTableRecord
  2
*D6
  0
BLOCK_RECORD
  5
92
330
1
100
AcDbSymbolTableRecord
100
AcDbBlockTableRecord
  2
*D7
  0
BLOCK_RECORD
  5
4B
330
1
100
AcDbSymbolTableRecord
100
AcDbBlockTableRecord
  2
*D8
  0
BLOCK_RECORD
  5
5C
330
1
100
AcDbSymbolTableRecord
100
AcDbBlockTableRecord
  2
*D9
  0
BLOCK_RECORD
  5
6D
330
1
100
AcDbSymbolTableRecord
100
AcDbBlockTableRecord
  2
*D10
  0
BLOCK_RECORD
  5
7D
330
1
100
AcDbSymbolTableRecord
100
AcDbBlockTableRecord
  2
*D11
  0
BLOCK_RECORD
  5
B3
330
1
100
AcDbSymbolTableRecord
100
AcDbBlockTableRecord
  2
*D12
  0
BLOCK_RECORD
  5
11B
330
1
100
AcDbSymbolTableRecord
100
AcDbBlockTableRecord
  2
*D13
  0
BLOCK_RECORD
  5
131
330
1
100
AcDbSymbolTableRecord
100
AcDbBlockTableRecord
  2
*D14
  0
BLOCK_RECORD
  5
143
330
1
100
AcDbSymbolTableRecord
100
AcDbBlockTableRecord
  2
*D15
  0
BLOCK_RECORD
  5
158
330
1
100
AcDbSymbolTableRecord
100
AcDbBlockTableRecord
  2
*D16
  0
BLOCK_RECORD
  5
172
330
1
100
AcDbSymbolTableRecord
100
AcDbBlockTableRecord
  2
*D17
  0
BLOCK_RECORD
  5
189
330
1
100
AcDbSymbolTableRecord
100
AcDbBlockTableRecord
  2
*D18
  0
BLOCK_RECORD
  5
20D
330
1
100
AcDbSymbolTableRecord
100
AcDbBlockTableRecord
  2
*D19
  0
BLOCK_RECORD
  5
19B
330
1
100
AcDbSymbolTableRecord
100
AcDbBlockTableRecord
  2
*D20
  0
BLOCK_RECORD
  5
1AA
330
1
100
AcDbSymbolTableRecord
100
AcDbBlockTableRecord
  2
*D21
  0
BLOCK_RECORD
  5
1E7
330
1
100
AcDbSymbolTableRecord
100
AcDbBlockTableRecord
  2
*D22
  0
BLOCK_RECORD
  5
1F3
330
1
100
AcDbSymbolTableRecord
100
AcDbBlockTableRecord
  2
*D23
  0
BLOCK_RECORD
  5
220
330
1
100
AcDbSymbolTableRecord
100
AcDbBlockTableRecord
  2
*D24
  0
BLOCK_RECORD
  5
22C
330
1
100
AcDbSymbolTableRecord
100
AcDbBlockTableRecord
  2
*D25
  0
BLOCK_RECORD
  5
235
330
1
100
AcDbSymbolTableRecord
100
AcDbBlockTableRecord
  2
*D26
  0
BLOCK_RECORD
  5
23E
330
1
100
AcDbSymbolTableRecord
100
AcDbBlockTableRecord
  2
*D27
  0
BLOCK_RECORD
  5
24A
330
1
100
AcDbSymbolTableRecord
100
AcDbBlockTableRecord
  2
*D28
  0
BLOCK_RECORD
  5
258
330
1
100
AcDbSymbolTableRecord
100
AcDbBlockTableRecord
  2
*D29
  0
BLOCK_RECORD
  5
266
330
1
100
AcDbSymbolTableRecord
100
AcDbBlockTableRecord
  2
*D30
  0
BLOCK_RECORD
  5
272
330
1
100
AcDbSymbolTableRecord
100
AcDbBlockTableRecord
  2
*D31
  0
BLOCK_RECORD
  5
280
330
1
100
AcDbSymbolTableRecord
100
AcDbBlockTableRecord
  2
*D32
  0
BLOCK_RECORD
  5
28E
330
1
100
AcDbSymbolTableRecord
100
AcDbBlockTableRecord
  2
*D33
  0
BLOCK_RECORD
  5
29A
330
1
100
AcDbSymbolTableRecord
100
AcDbBlockTableRecord
  2
*D34
  0
BLOCK_RECORD
  5
2A6
330
1
100
AcDbSymbolTableRecord
100
AcDbBlockTableRecord
  2
*D35
  0
BLOCK_RECORD
  5
2B2
330
1
100
AcDbSymbolTableRecord
100
AcDbBlockTableRecord
  2
*D36
  0
BLOCK_RECORD
  5
2BE
330
1
100
AcDbSymbolTableRecord
100
AcDbBlockTableRecord
  2
*D37
  0
BLOCK_RECORD
  5
2CA
330
1
100
AcDbSymbolTableRecord
100
AcDbBlockTableRecord
  2
*D38
  0
BLOCK_RECORD
  5
2D8
330
1
100
AcDbSymbolTableRecord
100
AcDbBlockTableRecord
  2
*D39
  0
BLOCK_RECORD
  5
2E6
330
1
100
AcDbSymbolTableRecord
100
AcDbBlockTableRecord
  2
*D40
  0
BLOCK_RECORD
  5
2F2
330
1
100
AcDbSymbolTableRecord
100
AcDbBlockTableRecord
  2
*D41
  0
BLOCK_RECORD
  5
2FE
330
1
100
AcDbSymbolTableRecord
100
AcDbBlockTableRecord
  2
*D42
  0
BLOCK_RECORD
  5
30A
330
1
100
AcDbSymbolTableRecord
100
AcDbBlockTableRecord
  2
*D43
  0
BLOCK_RECORD
  5
316
330
1
100
AcDbSymbolTableRecord
100
AcDbBlockTableRecord
  2
*D44
  0
BLOCK_RECORD
  5
321
330
1
100
AcDbSymbolTableRecord
100
AcDbBlockTableRecord
  2
*D45
  0
BLOCK_RECORD
  5
32D
330
1
100
AcDbSymbolTableRecord
100
AcDbBlockTableRecord
  2
*D46
  0
BLOCK_RECORD
  5
339
330
1
100
AcDbSymbolTableRecord
100
AcDbBlockTableRecord
  2
*D47
  0
ENDTAB
  0
ENDSEC
  0
SECTION
  2
BLOCKS
  0
BLOCK
  5
4
330
2
100
AcDbEntity
  8
0
100
AcDbBlockBegin
  2
*MODEL_SPACE
 70
     0
 10
0.0
 20
0.0
 30
0.0
  3
*MODEL_SPACE
  1

  0
ENDBLK
  5
A
330
2
100
AcDbEntity
  8
0
100
AcDbBlockEnd
  0
BLOCK
  5
F
330
D
100
AcDbEntity
 67
     1
  8
0
100
AcDbBlockBegin
  2
*PAPER_SPACE
 70
     0
 10
0.0
 20
0.0
 30
0.0
  3
*PAPER_SPACE
  1

  0
ENDBLK
  5
10
330
D
100
AcDbEntity
 67
     1
  8
0
100
AcDbBlockEnd
  0
BLOCK
  5
3D
330
32
100
AcDbEntity
  8
0
100
AcDbBlockBegin
  2
*D0
 70
     1
 10
0.0
 20
0.0
 30
0.0
  3
*D0
  1

  0
LINE
  5
33
330
32
100
AcDbEntity
  8
0
 62
   123
100
AcDbLine
 10
-5530.467056331378
 20
-2574.099048231373
 30
0.0
 11
-5507.938289801651
 21
-2574.099048231373
 31
0.0
  0
LINE
  5
34
330
32
100
AcDbEntity
  8
0
 62
   123
100
AcDbLine
 10
-5531.193567331378
 20
-2534.099048231373
 30
0.0
 11
-5507.938289801651
 21
-2534.099048231373
 31
0.0
  0
LINE
  5
35
330
32
100
AcDbEntity
  8
0
 62
   123
100
AcDbLine
 10
-5508.838289801651
 20
-2568.849048231373
 30
0.0
 11
-5508.838289801651
 21
-2539.349048231373
 31
0.0
  0
SOLID
  5
36
330
32
100
AcDbEntity
  8
0
 62
   123
100
AcDbTrace
 10
-5509.713289801651
 20
-2568.849048231373
 30
0.0
 11
-5507.963289801651
 21
-2568.849048231373
 31
0.0
 12
-5508.838289801651
 22
-2574.099048231373
 32
0.0
 13
-5508.838289801651
 23
-2574.099048231373
 33
0.0
  0
SOLID
  5
37
330
32
100
AcDbEntity
  8
0
 62
   123
100
AcDbTrace
 10
-5509.713289801651
 20
-2539.349048231373
 30
0.0
 11
-5507.963289801651
 21
-2539.349048231373
 31
0.0
 12
-5508.838289801651
 22
-2534.099048231373
 32
0.0
 13
-5508.838289801651
 23
-2534.099048231373
 33
0.0
  0
MTEXT
  5
38
330
32
100
AcDbEntity
  8
0
 62
     3
100
AcDbMText
 10
-5512.58828980165
 20
-2554.099048231373
 30
0.0
 40
4.5
 41
0.0
 71
     5
 72
     1
  1
\A1;40
 11
0.0000000000000001
 21
1.0
 31
0.0
1001
ACAD
1000
MTEXTBEGIN
1070
    73
1070
     1
1070
    44
1040
1.0
1070
    74
1070
     0
1000
MTEXTEND
  0
POINT
  5
39
330
32
100
AcDbEntity
  8
DEFPOINTS
 62
     0
100
AcDbPoint
 10
-5531.967056331378
 20
-2574.099048231373
 30
0.0
  0
POINT
  5
3B
330
32
100
AcDbEntity
  8
DEFPOINTS
 62
     0
100
AcDbPoint
 10
-5532.693567331378
 20
-2534.099048231373
 30
0.0
  0
POINT
  5
3C
330
32
100
AcDbEntity
  8
DEFPOINTS
 62
     0
100
AcDbPoint
 10
-5508.838289801651
 20
-2534.099048231373
 30
0.0
  0
ENDBLK
  5
3E
330
32
100
AcDbEntity
  8
0
100
AcDbBlockEnd
  0
BLOCK
  5
AD
330
A3
100
AcDbEntity
  8
0
100
AcDbBlockBegin
  2
*D1
 70
     1
 10
0.0
 20
0.0
 30
0.0
  3
*D1
  1

  0
LINE
  5
A4
330
A3
100
AcDbEntity
  8
0
 62
   123
100
AcDbLine
 10
-5676.881885331379
 20
-2777.388215380418
 30
0.0
 11
-5694.015560630551
 21
-2777.388215380418
 31
0.0
  0
LINE
  5
A5
330
A3
100
AcDbEntity
  8
0
 62
   123
100
AcDbLine
 10
-5676.97755283138
 20
-2711.388215380418
 30
0.0
 11
-5694.015560630551
 21
-2711.388215380418
 31
0.0
  0
LINE
  5
A6
330
A3
100
AcDbEntity
  8
0
 62
   123
100
AcDbLine
 10
-5693.115560630551
 20
-2772.138215380417
 30
0.0
 11
-5693.115560630551
 21
-2716.638215380418
 31
0.0
  0
SOLID
  5
A7
330
A3
100
AcDbEntity
  8
0
 62
   123
100
AcDbTrace
 10
-5693.990560630551
 20
-2772.138215380417
 30
0.0
 11
-5692.240560630551
 21
-2772.138215380417
 31
0.0
 12
-5693.115560630551
 22
-2777.388215380418
 32
0.0
 13
-5693.115560630551
 23
-2777.388215380418
 33
0.0
  0
SOLID
  5
A8
330
A3
100
AcDbEntity
  8
0
 62
   123
100
AcDbTrace
 10
-5693.990560630551
 20
-2716.638215380418
 30
0.0
 11
-5692.240560630551
 21
-2716.638215380418
 31
0.0
 12
-5693.115560630551
 22
-2711.388215380418
 32
0.0
 13
-5693.115560630551
 23
-2711.388215380418
 33
0.0
  0
MTEXT
  5
A9
330
A3
100
AcDbEntity
  8
0
 62
     3
100
AcDbMText
 10
-5696.86556063055
 20
-2748.29631333766
 30
0.0
 40
4.5
 41
0.0
 71
     5
 72
     1
  1
\A1;66%%P0.5
 11
0.0000000000000001
 21
1.0
 31
0.0
1001
ACAD
1000
MTEXTBEGIN
1070
    73
1070
     1
1070
    44
1040
1.0
1070
    74
1070
     0
1000
MTEXTEND
  0
POINT
  5
AA
330
A3
100
AcDbEntity
  8
DEFPOINTS
 62
     0
100
AcDbPoint
 10
-5675.381885331379
 20
-2777.388215380418
 30
0.0
  0
POINT
  5
AB
330
A3
100
AcDbEntity
  8
DEFPOINTS
 62
     0
100
AcDbPoint
 10
-5675.477552831381
 20
-2711.388215380418
 30
0.0
  0
POINT
  5
AC
330
A3
100
AcDbEntity
  8
DEFPOINTS
 62
     0
100
AcDbPoint
 10
-5693.115560630551
 20
-2711.388215380418
 30
0.0
  0
ENDBLK
  5
AE
330
A3
100
AcDbEntity
  8
0
100
AcDbBlockEnd
  0
BLOCK
  5
E0
330
D4
100
AcDbEntity
  8
0
100
AcDbBlockBegin
  2
*D2
 70
     1
 10
0.0
 20
0.0
 30
0.0
  3
*D2
  1

  0
LINE
  5
D5
330
D4
100
AcDbEntity
  8
0
 62
   123
100
AcDbLine
 10
-5568.881885331379
 20
-2777.388215380418
 30
0.0
 11
-5577.093960058284
 21
-2777.388215380418
 31
0.0
  0
LINE
  5
D6
330
D4
100
AcDbEntity
  8
0
 62
   123
100
AcDbLine
 10
-5572.080511941866
 20
-2776.388215380418
 30
0.0
 11
-5577.093960058284
 21
-2776.388215380418
 31
0.0
  0
LINE
  5
D7
330
D4
100
AcDbEntity
  8
0
 62
   123
100
AcDbLine
 10
-5576.193960058286
 20
-2771.138215380418
 30
0.0
 11
-5576.193960058286
 21
-2765.888215380417
 31
0.0
  0
LINE
  5
D8
330
D4
100
AcDbEntity
  8
0
 62
   123
100
AcDbLine
 10
-5576.193960058286
 20
-2782.638215380417
 30
0.0
 11
-5576.193960058286
 21
-2791.959643951846
 31
0.0
  0
LINE
  5
D9
330
D4
100
AcDbEntity
  8
0
 62
   123
100
AcDbLine
 10
-5576.193960058286
 20
-2776.388215380418
 30
0.0
 11
-5576.193960058286
 21
-2777.388215380418
 31
0.0
  0
SOLID
  5
DA
330
D4
100
AcDbEntity
  8
0
 62
   123
100
AcDbTrace
 10
-5577.068960058285
 20
-2771.138215380418
 30
0.0
 11
-5575.318960058286
 21
-2771.138215380418
 31
0.0
 12
-5576.193960058286
 22
-2776.388215380418
 32
0.0
 13
-5576.193960058286
 23
-2776.388215380418
 33
0.0
  0
SOLID
  5
DB
330
D4
100
AcDbEntity
  8
0
 62
   123
100
AcDbTrace
 10
-5577.068960058285
 20
-2782.638215380417
 30
0.0
 11
-5575.318960058286
 21
-2782.638215380417
 31
0.0
 12
-5576.193960058286
 22
-2777.388215380418
 32
0.0
 13
-5576.193960058286
 23
-2777.388215380418
 33
0.0
  0
MTEXT
  5
DC
330
D4
100
AcDbEntity
  8
0
 62
     3
100
AcDbMText
 10
-5579.943960058284
 20
-2789.923929666133
 30
0.0
 40
4.5
 41
0.0
 71
     5
 72
     1
  1
\A1;1
 11
0.0000000000000001
 21
1.0
 31
0.0
1001
ACAD
1000
MTEXTBEGIN
1070
    73
1070
     1
1070
    44
1040
1.0
1070
    74
1070
     0
1000
MTEXTEND
  0
POINT
  5
DD
330
D4
100
AcDbEntity
  8
DEFPOINTS
 62
     0
100
AcDbPoint
 10
-5567.381885331379
 20
-2777.388215380418
 30
0.0
  0
POINT
  5
DE
330
D4
100
AcDbEntity
  8
DEFPOINTS
 62
     0
100
AcDbPoint
 10
-5570.580511941866
 20
-2776.388215380418
 30
0.0
  0
POINT
  5
DF
330
D4
100
AcDbEntity
  8
DEFPOINTS
 62
     0
100
AcDbPoint
 10
-5576.193960058286
 20
-2776.388215380418
 30
0.0
  0
ENDBLK
  5
E1
330
D4
100
AcDbEntity
  8
0
100
AcDbBlockEnd
  0
BLOCK
  5
F2
330
E6
100
AcDbEntity
  8
0
100
AcDbBlockBegin
  2
*D3
 70
     1
 10
0.0
 20
0.0
 30
0.0
  3
*D3
  1

  0
LINE
  5
E7
330
E6
100
AcDbEntity
  8
0
 62
   123
100
AcDbLine
 10
-5529.881885331379
 20
-2777.388215380418
 30
0.0
 11
-5512.607768259152
 21
-2777.388215380418
 31
0.0
  0
LINE
  5
E8
330
E6
100
AcDbEntity
  8
0
 62
   123
100
AcDbLine
 10
-5529.381885331378
 20
-2768.388215380418
 30
0.0
 11
-5512.607768259152
 21
-2768.388215380418
 31
0.0
  0
LINE
  5
E9
330
E6
100
AcDbEntity
  8
0
 62
   123
100
AcDbLine
 10
-5513.507768259152
 20
-2782.638215380417
 30
0.0
 11
-5513.507768259152
 21
-2787.888215380418
 31
0.0
  0
LINE
  5
EA
330
E6
100
AcDbEntity
  8
0
 62
   123
100
AcDbLine
 10
-5513.507768259152
 20
-2763.138215380418
 30
0.0
 11
-5513.507768259152
 21
-2757.888215380418
 31
0.0
  0
LINE
  5
EB
330
E6
100
AcDbEntity
  8
0
 62
   123
100
AcDbLine
 10
-5513.507768259152
 20
-2777.388215380418
 30
0.0
 11
-5513.507768259152
 21
-2768.388215380418
 31
0.0
  0
SOLID
  5
EC
330
E6
100
AcDbEntity
  8
0
 62
   123
100
AcDbTrace
 10
-5514.382768259152
 20
-2782.638215380417
 30
0.0
 11
-5512.632768259152
 21
-2782.638215380417
 31
0.0
 12
-5513.507768259152
 22
-2777.388215380418
 32
0.0
 13
-5513.507768259152
 23
-2777.388215380418
 33
0.0
  0
SOLID
  5
ED
330
E6
100
AcDbEntity
  8
0
 62
   123
100
AcDbTrace
 10
-5514.382768259152
 20
-2763.138215380418
 30
0.0
 11
-5512.632768259152
 21
-2763.138215380418
 31
0.0
 12
-5513.507768259152
 22
-2768.388215380418
 32
0.0
 13
-5513.507768259152
 23
-2768.388215380418
 33
0.0
  0
MTEXT
  5
EE
330
E6
100
AcDbEntity
  8
0
 62
     3
100
AcDbMText
 10
-5517.257768259151
 20
-2772.888215380419
 30
0.0
 40
4.5
 41
0.0
 71
     5
 72
     1
  1
\A1;9
 11
0.0000000000000001
 21
1.0
 31
0.0
1001
ACAD
1000
MTEXTBEGIN
1070
    73
1070
     1
1070
    44
1040
1.0
1070
    74
1070
     0
1000
MTEXTEND
  0
POINT
  5
EF
330
E6
100
AcDbEntity
  8
DEFPOINTS
 62
     0
100
AcDbPoint
 10
-5531.381885331379
 20
-2777.388215380418
 30
0.0
  0
POINT
  5
F0
330
E6
100
AcDbEntity
  8
DEFPOINTS
 62
     0
100
AcDbPoint
 10
-5530.881885331378
 20
-2768.388215380418
 30
0.0
  0
POINT
  5
F1
330
E6
100
AcDbEntity
  8
DEFPOINTS
 62
     0
100
AcDbPoint
 10
-5513.507768259152
 20
-2768.388215380418
 30
0.0
  0
ENDBLK
  5
F3
330
E6
100
AcDbEntity
  8
0
100
AcDbBlockEnd
  0
BLOCK
  5
103
330
F9
100
AcDbEntity
  8
0
100
AcDbBlockBegin
  2
*D4
 70
     1
 10
0.0
 20
0.0
 30
0.0
  3
*D4
  1

  0
LINE
  5
FA
330
F9
100
AcDbEntity
  8
0
 62
   123
100
AcDbLine
 10
-5649.381885331379
 20
-2672.588215380418
 30
0.0
 11
-5649.381885331379
 21
-2639.370154890195
 31
0.0
  0
LINE
  5
FB
330
F9
100
AcDbEntity
  8
0
 62
   123
100
AcDbLine
 10
-5557.381885331379
 20
-2672.588215380418
 30
0.0
 11
-5557.381885331379
 21
-2639.370154890195
 31
0.0
  0
LINE
  5
FC
330
F9
100
AcDbEntity
  8
0
 62
   123
100
AcDbLine
 10
-5644.131885331379
 20
-2640.270154890195
 30
0.0
 11
-5562.631885331379
 21
-2640.270154890195
 31
0.0
  0
SOLID
  5
FD
330
F9
100
AcDbEntity
  8
0
 62
   123
100
AcDbTrace
 10
-5644.131885331379
 20
-2639.395154890195
 30
0.0
 11
-5644.131885331379
 21
-2641.145154890195
 31
0.0
 12
-5649.381885331379
 22
-2640.270154890195
 32
0.0
 13
-5649.381885331379
 23
-2640.270154890195
 33
0.0
  0
SOLID
  5
FE
330
F9
100
AcDbEntity
  8
0
 62
   123
100
AcDbTrace
 10
-5562.631885331379
 20
-2639.395154890195
 30
0.0
 11
-5562.631885331379
 21
-2641.145154890195
 31
0.0
 12
-5557.381885331379
 22
-2640.270154890195
 32
0.0
 13
-5557.381885331379
 23
-2640.270154890195
 33
0.0
  0
MTEXT
  5
FF
330
F9
100
AcDbEntity
  8
0
 62
     3
100
AcDbMText
 10
-5603.381885331379
 20
-2636.520154890195
 30
0.0
 40
4.5
 41
0.0
 71
     5
 72
     1
  1
\A1;92
1001
ACAD
1000
MTEXTBEGIN
1070
    73
1070
     1
1070
    44
1040
1.0
1070
    74
1070
     0
1000
MTEXTEND
  0
POINT
  5
100
330
F9
100
AcDbEntity
  8
DEFPOINTS
 62
     0
100
AcDbPoint
 10
-5649.381885331379
 20
-2674.088215380418
 30
0.0
  0
POINT
  5
101
330
F9
100
AcDbEntity
  8
DEFPOINTS
 62
     0
100
AcDbPoint
 10
-5557.381885331379
 20
-2674.088215380418
 30
0.0
  0
POINT
  5
102
330
F9
100
AcDbEntity
  8
DEFPOINTS
 62
     0
100
AcDbPoint
 10
-5557.381885331379
 20
-2640.270154890195
 30
0.0
  0
ENDBLK
  5
104
330
F9
100
AcDbEntity
  8
0
100
AcDbBlockEnd
  0
BLOCK
  5
1CB
330
1BF
100
AcDbEntity
  8
0
100
AcDbBlockBegin
  2
*D5
 70
     1
 10
0.0
 20
0.0
 30
0.0
  3
*D5
  1

  0
LINE
  5
1C0
330
1BF
100
AcDbEntity
  8
0
 62
   123
100
AcDbLine
 10
-5670.381885331379
 20
-2537.299048231373
 30
0.0
 11
-5686.224211380801
 21
-2537.299048231373
 31
0.0
  0
LINE
  5
1C1
330
1BF
100
AcDbEntity
  8
0
 62
   123
100
AcDbLine
 10
-5670.381885331379
 20
-2530.899048231373
 30
0.0
 11
-5686.224211380801
 21
-2530.899048231373
 31
0.0
  0
LINE
  5
1C2
330
1BF
100
AcDbEntity
  8
0
 62
   123
100
AcDbLine
 10
-5685.324211380802
 20
-2542.549048231373
 30
0.0
 11
-5685.324211380802
 21
-2547.799048231373
 31
0.0
  0
LINE
  5
1C3
330
1BF
100
AcDbEntity
  8
0
 62
   123
100
AcDbLine
 10
-5685.324211380802
 20
-2525.649048231373
 30
0.0
 11
-5685.324211380802
 21
-2520.399048231373
 31
0.0
  0
LINE
  5
1C4
330
1BF
100
AcDbEntity
  8
0
 62
   123
100
AcDbLine
 10
-5685.324211380802
 20
-2537.299048231373
 30
0.0
 11
-5685.324211380802
 21
-2530.899048231373
 31
0.0
  0
SOLID
  5
1C5
330
1BF
100
AcDbEntity
  8
0
 62
   123
100
AcDbTrace
 10
-5686.199211380802
 20
-2542.549048231373
 30
0.0
 11
-5684.449211380802
 21
-2542.549048231373
 31
0.0
 12
-5685.324211380802
 22
-2537.299048231373
 32
0.0
 13
-5685.324211380802
 23
-2537.299048231373
 33
0.0
  0
SOLID
  5
1C6
330
1BF
100
AcDbEntity
  8
0
 62
   123
100
AcDbTrace
 10
-5686.199211380802
 20
-2525.649048231373
 30
0.0
 11
-5684.449211380802
 21
-2525.649048231373
 31
0.0
 12
-5685.324211380802
 22
-2530.899048231373
 32
0.0
 13
-5685.324211380802
 23
-2530.899048231373
 33
0.0
  0
MTEXT
  5
1C7
330
1BF
100
AcDbEntity
  8
0
 62
     3
100
AcDbMText
 10
-5689.074211380801
 20
-2534.099048231374
 30
0.0
 40
4.5
 41
0.0
 71
     5
 72
     1
  1
\A1;6.4
 11
0.0000000000000001
 21
1.0
 31
0.0
1001
ACAD
1000
MTEXTBEGIN
1070
    73
1070
     1
1070
    44
1040
1.0
1070
    74
1070
     0
1000
MTEXTEND
  0
POINT
  5
1C8
330
1BF
100
AcDbEntity
  8
DEFPOINTS
 62
     0
100
AcDbPoint
 10
-5668.881885331379
 20
-2537.299048231373
 30
0.0
  0
POINT
  5
1C9
330
1BF
100
AcDbEntity
  8
DEFPOINTS
 62
     0
100
AcDbPoint
 10
-5668.881885331379
 20
-2530.899048231373
 30
0.0
  0
POINT
  5
1CA
330
1BF
100
AcDbEntity
  8
DEFPOINTS
 62
     0
100
AcDbPoint
 10
-5685.324211380802
 20
-2530.899048231373
 30
0.0
  0
ENDBLK
  5
1CC
330
1BF
100
AcDbEntity
  8
0
100
AcDbBlockEnd
  0
BLOCK
  5
1DB
330
1D1
100
AcDbEntity
  8
0
100
AcDbBlockBegin
  2
*D6
 70
     1
 10
0.0
 20
0.0
 30
0.0
  3
*D6
  1

  0
LINE
  5
1D2
330
1D1
100
AcDbEntity
  8
0
 62
   123
100
AcDbLine
 10
-5618.881885331379
 20
-2569.099048231373
 30
0.0
 11
-5612.196891543822
 21
-2569.099048231373
 31
0.0
  0
LINE
  5
1D3
330
1D1
100
AcDbEntity
  8
0
 62
   123
100
AcDbLine
 10
-5636.881885331379
 20
-2526.099048231373
 30
0.0
 11
-5612.196891543822
 21
-2526.099048231373
 31
0.0
  0
LINE
  5
1D4
330
1D1
100
AcDbEntity
  8
0
 62
   123
100
AcDbLine
 10
-5613.096891543822
 20
-2563.849048231373
 30
0.0
 11
-5613.096891543822
 21
-2531.349048231373
 31
0.0
  0
SOLID
  5
1D5
330
1D1
100
AcDbEntity
  8
0
 62
   123
100
AcDbTrace
 10
-5613.971891543822
 20
-2563.849048231373
 30
0.0
 11
-5612.221891543821
 21
-2563.849048231373
 31
0.0
 12
-5613.096891543822
 22
-2569.099048231373
 32
0.0
 13
-5613.096891543822
 23
-2569.099048231373
 33
0.0
  0
SOLID
  5
1D6
330
1D1
100
AcDbEntity
  8
0
 62
   123
100
AcDbTrace
 10
-5613.971891543822
 20
-2531.349048231373
 30
0.0
 11
-5612.221891543821
 21
-2531.349048231373
 31
0.0
 12
-5613.096891543822
 22
-2526.099048231373
 32
0.0
 13
-5613.096891543822
 23
-2526.099048231373
 33
0.0
  0
MTEXT
  5
1D7
330
1D1
100
AcDbEntity
  8
0
 62
     3
100
AcDbMText
 10
-5616.846891543821
 20
-2548.687413320052
 30
0.0
 40
4.5
 41
0.0
 71
     5
 72
     1
  1
\A1;43
 11
0.0000000000000001
 21
1.0
 31
0.0
1001
ACAD
1000
MTEXTBEGIN
1070
    73
1070
     1
1070
    44
1040
1.0
1070
    74
1070
     0
1000
MTEXTEND
  0
POINT
  5
1D8
330
1D1
100
AcDbEntity
  8
DEFPOINTS
 62
     0
100
AcDbPoint
 10
-5620.381885331379
 20
-2569.099048231373
 30
0.0
  0
POINT
  5
1D9
330
1D1
100
AcDbEntity
  8
DEFPOINTS
 62
     0
100
AcDbPoint
 10
-5638.381885331379
 20
-2526.099048231373
 30
0.0
  0
POINT
  5
1DA
330
1D1
100
AcDbEntity
  8
DEFPOINTS
 62
     0
100
AcDbPoint
 10
-5613.096891543822
 20
-2526.099048231373
 30
0.0
  0
ENDBLK
  5
1DC
330
1D1
100
AcDbEntity
  8
0
100
AcDbBlockEnd
  0
BLOCK
  5
9C
330
92
100
AcDbEntity
  8
0
100
AcDbBlockBegin
  2
*D7
 70
     1
 10
0.0
 20
0.0
 30
0.0
  3
*D7
  1

  0
LINE
  5
93
330
92
100
AcDbEntity
  8
0
 62
   123
100
AcDbLine
 10
-5676.381885331378
 20
-2777.888215380418
 30
0.0
 11
-5676.381885331378
 21
-2799.500560402038
 31
0.0
  0
LINE
  5
94
330
92
100
AcDbEntity
  8
0
 62
   123
100
AcDbLine
 10
-5530.381885331379
 20
-2777.888215380418
 30
0.0
 11
-5530.381885331379
 21
-2799.500560402038
 31
0.0
  0
LINE
  5
95
330
92
100
AcDbEntity
  8
0
 62
   123
100
AcDbLine
 10
-5671.131885331379
 20
-2798.600560402038
 30
0.0
 11
-5535.631885331379
 21
-2798.600560402038
 31
0.0
  0
SOLID
  5
96
330
92
100
AcDbEntity
  8
0
 62
   123
100
AcDbTrace
 10
-5671.131885331379
 20
-2797.725560402038
 30
0.0
 11
-5671.131885331379
 21
-2799.475560402038
 31
0.0
 12
-5676.381885331378
 22
-2798.600560402038
 32
0.0
 13
-5676.381885331378
 23
-2798.600560402038
 33
0.0
  0
SOLID
  5
97
330
92
100
AcDbEntity
  8
0
 62
   123
100
AcDbTrace
 10
-5535.631885331379
 20
-2797.725560402038
 30
0.0
 11
-5535.631885331379
 21
-2799.475560402038
 31
0.0
 12
-5530.381885331379
 22
-2798.600560402038
 32
0.0
 13
-5530.381885331379
 23
-2798.600560402038
 33
0.0
  0
MTEXT
  5
98
330
92
100
AcDbEntity
  8
0
 62
     3
100
AcDbMText
 10
-5603.3788847711
 20
-2794.850560402038
 30
0.0
 40
4.5
 41
0.0
 71
     5
 72
     1
  1
\A1;146
1001
ACAD
1000
MTEXTBEGIN
1070
    73
1070
     1
1070
    44
1040
1.0
1070
    74
1070
     0
1000
MTEXTEND
  0
POINT
  5
99
330
92
100
AcDbEntity
  8
DEFPOINTS
 62
     0
100
AcDbPoint
 10
-5676.381885331378
 20
-2776.388215380418
 30
0.0
  0
POINT
  5
9A
330
92
100
AcDbEntity
  8
DEFPOINTS
 62
     0
100
AcDbPoint
 10
-5530.381885331379
 20
-2776.388215380418
 30
0.0
  0
POINT
  5
9B
330
92
100
AcDbEntity
  8
DEFPOINTS
 62
     0
100
AcDbPoint
 10
-5530.381885331379
 20
-2798.600560402038
 30
0.0
  0
ENDBLK
  5
9D
330
92
100
AcDbEntity
  8
0
100
AcDbBlockEnd
  0
BLOCK
  5
55
330
4B
100
AcDbEntity
  8
0
100
AcDbBlockBegin
  2
*D8
 70
     1
 10
0.0
 20
0.0
 30
0.0
  3
*D8
  1

  0
LINE
  5
4C
330
4B
100
AcDbEntity
  8
0
 62
   123
100
AcDbLine
 10
-5434.887733322999
 20
-2669.958375380418
 30
0.0
 11
-5470.566074042615
 21
-2669.958375380418
 31
0.0
  0
LINE
  5
4D
330
4B
100
AcDbEntity
  8
0
 62
   123
100
AcDbLine
 10
-5434.887733322999
 20
-2752.958375380418
 30
0.0
 11
-5470.566074042615
 21
-2752.958375380418
 31
0.0
  0
LINE
  5
4E
330
4B
100
AcDbEntity
  8
0
 62
   123
100
AcDbLine
 10
-5469.666074042615
 20
-2675.208375380418
 30
0.0
 11
-5469.666074042615
 21
-2747.708375380418
 31
0.0
  0
SOLID
  5
4F
330
4B
100
AcDbEntity
  8
0
 62
   123
100
AcDbTrace
 10
-5470.541074042615
 20
-2675.208375380418
 30
0.0
 11
-5468.791074042615
 21
-2675.208375380418
 31
0.0
 12
-5469.666074042615
 22
-2669.958375380418
 32
0.0
 13
-5469.666074042615
 23
-2669.958375380418
 33
0.0
  0
SOLID
  5
50
330
4B
100
AcDbEntity
  8
0
 62
   123
100
AcDbTrace
 10
-5470.541074042615
 20
-2747.708375380418
 30
0.0
 11
-5468.791074042615
 21
-2747.708375380418
 31
0.0
 12
-5469.666074042615
 22
-2752.958375380418
 32
0.0
 13
-5469.666074042615
 23
-2752.958375380418
 33
0.0
  0
MTEXT
  5
51
330
4B
100
AcDbEntity
  8
0
 62
     3
100
AcDbMText
 10
-5473.416074042614
 20
-2711.262825660672
 30
0.0
 40
4.5
 41
0.0
 71
     5
 72
     1
  1
\A1;%%c83
 11
0.0000000000000001
 21
1.0
 31
0.0
1001
ACAD
1000
MTEXTBEGIN
1070
    73
1070
     1
1070
    44
1040
1.0
1070
    74
1070
     0
1000
MTEXTEND
  0
POINT
  5
52
330
4B
100
AcDbEntity
  8
DEFPOINTS
 62
     0
100
AcDbPoint
 10
-5433.387733322999
 20
-2669.958375380418
 30
0.0
  0
POINT
  5
53
330
4B
100
AcDbEntity
  8
DEFPOINTS
 62
     0
100
AcDbPoint
 10
-5433.387733322999
 20
-2752.958375380418
 30
0.0
  0
POINT
  5
54
330
4B
100
AcDbEntity
  8
DEFPOINTS
 62
     0
100
AcDbPoint
 10
-5469.666074042615
 20
-2752.958375380418
 30
0.0
  0
ENDBLK
  5
56
330
4B
100
AcDbEntity
  8
0
100
AcDbBlockEnd
  0
BLOCK
  5
66
330
5C
100
AcDbEntity
  8
0
100
AcDbBlockBegin
  2
*D9
 70
     1
 10
0.0
 20
0.0
 30
0.0
  3
*D9
  1

  0
LINE
  5
5D
330
5C
100
AcDbEntity
  8
0
 62
   123
100
AcDbLine
 10
-5564.581885331378
 20
-2665.388215380418
 30
0.0
 11
-5501.000482475679
 21
-2665.388215380418
 31
0.0
  0
LINE
  5
5E
330
5C
100
AcDbEntity
  8
0
 62
   123
100
AcDbLine
 10
-5529.881885331379
 20
-2777.388215380418
 30
0.0
 11
-5501.000482475679
 21
-2777.388215380418
 31
0.0
  0
LINE
  5
5F
330
5C
100
AcDbEntity
  8
0
 62
   123
100
AcDbLine
 10
-5501.900482475678
 20
-2670.638215380418
 30
0.0
 11
-5501.900482475678
 21
-2772.138215380417
 31
0.0
  0
SOLID
  5
60
330
5C
100
AcDbEntity
  8
0
 62
   123
100
AcDbTrace
 10
-5502.775482475678
 20
-2670.638215380418
 30
0.0
 11
-5501.025482475679
 21
-2670.638215380418
 31
0.0
 12
-5501.900482475678
 22
-2665.388215380418
 32
0.0
 13
-5501.900482475678
 23
-2665.388215380418
 33
0.0
  0
SOLID
  5
61
330
5C
100
AcDbEntity
  8
0
 62
   123
100
AcDbTrace
 10
-5502.775482475678
 20
-2772.138215380417
 30
0.0
 11
-5501.025482475679
 21
-2772.138215380417
 31
0.0
 12
-5501.900482475678
 22
-2777.388215380418
 32
0.0
 13
-5501.900482475678
 23
-2777.388215380418
 33
0.0
  0
MTEXT
  5
62
330
5C
100
AcDbEntity
  8
0
 62
     3
100
AcDbMText
 10
-5505.650482475678
 20
-2721.813058911956
 30
0.0
 40
4.5
 41
0.0
 71
     5
 72
     1
  1
\A1;112
 11
0.0000000000000001
 21
1.0
 31
0.0
1001
ACAD
1000
MTEXTBEGIN
1070
    73
1070
     1
1070
    44
1040
1.0
1070
    74
1070
     0
1000
MTEXTEND
  0
POINT
  5
63
330
5C
100
AcDbEntity
  8
DEFPOINTS
 62
     0
100
AcDbPoint
 10
-5566.081885331378
 20
-2665.388215380418
 30
0.0
  0
POINT
  5
64
330
5C
100
AcDbEntity
  8
DEFPOINTS
 62
     0
100
AcDbPoint
 10
-5531.381885331379
 20
-2777.388215380418
 30
0.0
  0
POINT
  5
65
330
5C
100
AcDbEntity
  8
DEFPOINTS
 62
     0
100
AcDbPoint
 10
-5501.900482475678
 20
-2777.388215380418
 30
0.0
  0
ENDBLK
  5
67
330
5C
100
AcDbEntity
  8
0
100
AcDbBlockEnd
  0
BLOCK
  5
76
330
6D
100
AcDbEntity
  8
0
100
AcDbBlockBegin
  2
*D10
 70
     1
 10
0.0
 20
0.0
 30
0.0
  3
*D10
  1

  0
LINE
  5
6E
330
6D
100
AcDbEntity
  8
0
 62
   123
100
AcDbLine
 10
-5648.020153844007
 20
-2747.234937464793
 30
0.0
 11
-5652.11361951547
 21
-2750.522191455063
 31
0.0
  0
LINE
  5
6F
330
6D
100
AcDbEntity
  8
0
 62
   123
100
AcDbLine
 10
-5558.743616818752
 20
-2675.54149329604
 30
0.0
 11
-5516.20960541176
 21
-2641.384593020913
 31
0.0
  0
LINE
  5
70
330
6D
100
AcDbEntity
  8
0
 62
   123
100
AcDbLine
 10
-5643.926688172542
 20
-2743.947683474523
 30
0.0
 11
-5562.837082490216
 21
-2678.82874728631
 31
0.0
  0
SOLID
  5
71
330
6D
100
AcDbEntity
  8
0
 62
   123
100
AcDbTrace
 10
-5648.568029509053
 20
-2746.552693186216
 30
0.0
 11
-5647.472278178963
 21
-2747.917181743371
 31
0.0
 12
-5643.926688172542
 22
-2743.947683474523
 32
0.0
 13
-5643.926688172542
 23
-2743.947683474523
 33
0.0
  0
SOLID
  5
72
330
6D
100
AcDbEntity
  8
0
 62
   123
100
AcDbTrace
 10
-5559.291492483797
 20
-2674.859249017463
 30
0.0
 11
-5558.195741153706
 21
-2676.223737574618
 31
0.0
 12
-5562.837082490216
 22
-2678.82874728631
 32
0.0
 13
-5562.837082490216
 23
-2678.82874728631
 33
0.0
  0
MTEXT
  5
73
330
6D
100
AcDbEntity
  8
0
 62
     3
100
AcDbMText
 10
-5532.174682842537
 20
-2649.395839998728
 30
0.0
 40
4.5
 41
0.0
 71
     5
 72
     1
  1
\A1;\U+2205104%%P0.3
 11
0.7797077469454622
 21
0.6261436171943552
 31
0.0
1001
ACAD
1000
MTEXTBEGIN
1070
    73
1070
     1
1070
    44
1040
1.0
1070
    74
1070
     0
1000
MTEXTEND
  0
POINT
  5
74
330
6D
100
AcDbEntity
  8
DEFPOINTS
 62
     0
100
AcDbPoint
 10
-5562.837082490216
 20
-2678.82874728631
 30
0.0
  0
POINT
  5
75
330
6D
100
AcDbEntity
  8
DEFPOINTS
 62
     0
100
AcDbPoint
 10
-5643.926688172542
 20
-2743.947683474523
 30
0.0
  0
ENDBLK
  5
77
330
6D
100
AcDbEntity
  8
0
100
AcDbBlockEnd
  0
BLOCK
  5
87
330
7D
100
AcDbEntity
  8
0
100
AcDbBlockBegin
  2
*D11
 70
     1
 10
0.0
 20
0.0
 30
0.0
  3
*D11
  1

  0
LINE
  5
7E
330
7D
100
AcDbEntity
  8
0
 62
   123
100
AcDbLine
 10
-5659.381885331379
 20
-2701.888215380418
 30
0.0
 11
-5659.381885331379
 21
-2626.419086865746
 31
0.0
  0
LINE
  5
7F
330
7D
100
AcDbEntity
  8
0
 62
   123
100
AcDbLine
 10
-5547.381885331379
 20
-2702.388215380418
 30
0.0
 11
-5547.381885331379
 21
-2626.419086865746
 31
0.0
  0
LINE
  5
80
330
7D
100
AcDbEntity
  8
0
 62
   123
100
AcDbLine
 10
-5654.131885331379
 20
-2627.319086865746
 30
0.0
 11
-5552.631885331379
 21
-2627.319086865746
 31
0.0
  0
SOLID
  5
81
330
7D
100
AcDbEntity
  8
0
 62
   123
100
AcDbTrace
 10
-5654.131885331379
 20
-2626.444086865746
 30
0.0
 11
-5654.131885331379
 21
-2628.194086865746
 31
0.0
 12
-5659.381885331379
 22
-2627.319086865746
 32
0.0
 13
-5659.381885331379
 23
-2627.319086865746
 33
0.0
  0
SOLID
  5
82
330
7D
100
AcDbEntity
  8
0
 62
   123
100
AcDbTrace
 10
-5552.631885331379
 20
-2626.444086865746
 30
0.0
 11
-5552.631885331379
 21
-2628.194086865746
 31
0.0
 12
-5547.381885331379
 22
-2627.319086865746
 32
0.0
 13
-5547.381885331379
 23
-2627.319086865746
 33
0.0
  0
MTEXT
  5
83
330
7D
100
AcDbEntity
  8
0
 62
     3
100
AcDbMText
 10
-5605.002004750452
 20
-2623.569086865746
 30
0.0
 40
4.5
 41
0.0
 71
     5
 72
     1
  1
\A1;112
1001
ACAD
1000
MTEXTBEGIN
1070
    73
1070
     1
1070
    44
1040
1.0
1070
    74
1070
     0
1000
MTEXTEND
  0
POINT
  5
84
330
7D
100
AcDbEntity
  8
DEFPOINTS
 62
     0
100
AcDbPoint
 10
-5659.381885331379
 20
-2703.388215380417
 30
0.0
  0
POINT
  5
85
330
7D
100
AcDbEntity
  8
DEFPOINTS
 62
     0
100
AcDbPoint
 10
-5547.381885331379
 20
-2703.888215380418
 30
0.0
  0
POINT
  5
86
330
7D
100
AcDbEntity
  8
DEFPOINTS
 62
     0
100
AcDbPoint
 10
-5547.381885331379
 20
-2627.319086865746
 30
0.0
  0
ENDBLK
  5
88
330
7D
100
AcDbEntity
  8
0
100
AcDbBlockEnd
  0
BLOCK
  5
BD
330
B3
100
AcDbEntity
  8
0
100
AcDbBlockBegin
  2
*D12
 70
     1
 10
0.0
 20
0.0
 30
0.0
  3
*D12
  1

  0
LINE
  5
B4
330
B3
100
AcDbEntity
  8
0
 62
   123
100
AcDbLine
 10
-5678.381885331379
 20
-2777.388215380418
 30
0.0
 11
-5711.076132296487
 21
-2777.388215380418
 31
0.0
  0
LINE
  5
B5
330
B3
100
AcDbEntity
  8
0
 62
   123
100
AcDbLine
 10
-5660.881885331378
 20
-2703.388215380417
 30
0.0
 11
-5711.076132296487
 21
-2703.388215380417
 31
0.0
  0
LINE
  5
B6
330
B3
100
AcDbEntity
  8
0
 62
   123
100
AcDbLine
 10
-5710.176132296488
 20
-2772.138215380417
 30
0.0
 11
-5710.176132296488
 21
-2708.638215380418
 31
0.0
  0
SOLID
  5
B7
330
B3
100
AcDbEntity
  8
0
 62
   123
100
AcDbTrace
 10
-5711.051132296487
 20
-2772.138215380417
 30
0.0
 11
-5709.301132296488
 21
-2772.138215380417
 31
0.0
 12
-5710.176132296488
 22
-2777.388215380418
 32
0.0
 13
-5710.176132296488
 23
-2777.388215380418
 33
0.0
  0
SOLID
  5
B8
330
B3
100
AcDbEntity
  8
0
 62
   123
100
AcDbTrace
 10
-5711.051132296487
 20
-2708.638215380418
 30
0.0
 11
-5709.301132296488
 21
-2708.638215380418
 31
0.0
 12
-5710.176132296488
 22
-2703.388215380417
 32
0.0
 13
-5710.176132296488
 23
-2703.388215380417
 33
0.0
  0
MTEXT
  5
B9
330
B3
100
AcDbEntity
  8
0
 62
     3
100
AcDbMText
 10
-5713.926132296487
 20
-2740.388215380418
 30
0.0
 40
4.5
 41
0.0
 71
     5
 72
     1
  1
\A1;74
 11
0.0000000000000001
 21
1.0
 31
0.0
1001
ACAD
1000
MTEXTBEGIN
1070
    73
1070
     1
1070
    44
1040
1.0
1070
    74
1070
     0
1000
MTEXTEND
  0
POINT
  5
BA
330
B3
100
AcDbEntity
  8
DEFPOINTS
 62
     0
100
AcDbPoint
 10
-5676.881885331379
 20
-2777.388215380418
 30
0.0
  0
POINT
  5
BB
330
B3
100
AcDbEntity
  8
DEFPOINTS
 62
     0
100
AcDbPoint
 10
-5659.381885331379
 20
-2703.388215380417
 30
0.0
  0
POINT
  5
BC
330
B3
100
AcDbEntity
  8
DEFPOINTS
 62
     0
100
AcDbPoint
 10
-5710.176132296488
 20
-2703.388215380417
 30
0.0
  0
ENDBLK
  5
BE
330
B3
100
AcDbEntity
  8
0
100
AcDbBlockEnd
  0
BLOCK
  5
125
330
11B
100
AcDbEntity
  8
0
100
AcDbBlockBegin
  2
*D13
 70
     1
 10
0.0
 20
0.0
 30
0.0
  3
*D13
  1

  0
LINE
  5
11C
330
11B
100
AcDbEntity
  8
0
 62
   123
100
AcDbLine
 10
-5545.881885331379
 20
-2591.099048231373
 30
0.0
 11
-5507.938289801651
 21
-2591.099048231373
 31
0.0
  0
LINE
  5
11D
330
11B
100
AcDbEntity
  8
0
 62
   123
100
AcDbLine
 10
-5531.967056331378
 20
-2574.099048231373
 30
0.0
 11
-5507.938289801651
 21
-2574.099048231373
 31
0.0
  0
LINE
  5
11E
330
11B
100
AcDbEntity
  8
0
 62
   123
100
AcDbLine
 10
-5508.838289801651
 20
-2585.849048231373
 30
0.0
 11
-5508.838289801651
 21
-2579.349048231373
 31
0.0
  0
SOLID
  5
11F
330
11B
100
AcDbEntity
  8
0
 62
   123
100
AcDbTrace
 10
-5509.713289801651
 20
-2585.849048231373
 30
0.0
 11
-5507.963289801651
 21
-2585.849048231373
 31
0.0
 12
-5508.838289801651
 22
-2591.099048231373
 32
0.0
 13
-5508.838289801651
 23
-2591.099048231373
 33
0.0
  0
SOLID
  5
120
330
11B
100
AcDbEntity
  8
0
 62
   123
100
AcDbTrace
 10
-5509.713289801651
 20
-2579.349048231373
 30
0.0
 11
-5507.963289801651
 21
-2579.349048231373
 31
0.0
 12
-5508.838289801651
 22
-2574.099048231373
 32
0.0
 13
-5508.838289801651
 23
-2574.099048231373
 33
0.0
  0
MTEXT
  5
121
330
11B
100
AcDbEntity
  8
0
 62
     3
100
AcDbMText
 10
-5512.58828980165
 20
-2582.020926281186
 30
0.0
 40
4.5
 41
0.0
 71
     5
 72
     1
  1
\A1;17
 11
0.0000000000000001
 21
1.0
 31
0.0
1001
ACAD
1000
MTEXTBEGIN
1070
    73
1070
     1
1070
    44
1040
1.0
1070
    74
1070
     0
1000
MTEXTEND
  0
POINT
  5
122
330
11B
100
AcDbEntity
  8
DEFPOINTS
 62
     0
100
AcDbPoint
 10
-5547.381885331379
 20
-2591.099048231373
 30
0.0
  0
POINT
  5
123
330
11B
100
AcDbEntity
  8
DEFPOINTS
 62
     0
100
AcDbPoint
 10
-5533.467056331378
 20
-2574.099048231373
 30
0.0
  0
POINT
  5
124
330
11B
100
AcDbEntity
  8
DEFPOINTS
 62
     0
100
AcDbPoint
 10
-5508.838289801651
 20
-2574.099048231373
 30
0.0
  0
ENDBLK
  5
126
330
11B
100
AcDbEntity
  8
0
100
AcDbBlockEnd
  0
BLOCK
  5
13B
330
131
100
AcDbEntity
  8
0
100
AcDbBlockBegin
  2
*D14
 70
     1
 10
0.0
 20
0.0
 30
0.0
  3
*D14
  1

  0
LINE
  5
132
330
131
100
AcDbEntity
  8
0
 62
   123
100
AcDbLine
 10
-5440.887733322999
 20
-2671.458375380418
 30
0.0
 11
-5458.763517144562
 21
-2671.458375380418
 31
0.0
  0
LINE
  5
133
330
131
100
AcDbEntity
  8
0
 62
   123
100
AcDbLine
 10
-5440.887733322999
 20
-2751.458375380418
 30
0.0
 11
-5458.763517144562
 21
-2751.458375380418
 31
0.0
  0
LINE
  5
134
330
131
100
AcDbEntity
  8
0
 62
   123
100
AcDbLine
 10
-5457.863517144563
 20
-2676.708375380418
 30
0.0
 11
-5457.863517144563
 21
-2746.208375380418
 31
0.0
  0
SOLID
  5
135
330
131
100
AcDbEntity
  8
0
 62
   123
100
AcDbTrace
 10
-5458.738517144563
 20
-2676.708375380418
 30
0.0
 11
-5456.988517144563
 21
-2676.708375380418
 31
0.0
 12
-5457.863517144563
 22
-2671.458375380418
 32
0.0
 13
-5457.863517144563
 23
-2671.458375380418
 33
0.0
  0
SOLID
  5
136
330
131
100
AcDbEntity
  8
0
 62
   123
100
AcDbTrace
 10
-5458.738517144563
 20
-2746.208375380418
 30
0.0
 11
-5456.988517144563
 21
-2746.208375380418
 31
0.0
 12
-5457.863517144563
 22
-2751.458375380418
 32
0.0
 13
-5457.863517144563
 23
-2751.458375380418
 33
0.0
  0
MTEXT
  5
137
330
131
100
AcDbEntity
  8
0
 62
     3
100
AcDbMText
 10
-5461.613517144562
 20
-2711.464503688317
 30
0.0
 40
4.5
 41
0.0
 71
     5
 72
     1
  1
\A1;%%c80
 11
0.0000000000000001
 21
1.0
 31
0.0
1001
ACAD
1000
MTEXTBEGIN
1070
    73
1070
     1
1070
    44
1040
1.0
1070
    74
1070
     0
1000
MTEXTEND
  0
POINT
  5
138
330
131
100
AcDbEntity
  8
DEFPOINTS
 62
     0
100
AcDbPoint
 10
-5439.387733322999
 20
-2671.458375380418
 30
0.0
  0
POINT
  5
139
330
131
100
AcDbEntity
  8
DEFPOINTS
 62
     0
100
AcDbPoint
 10
-5439.387733322999
 20
-2751.458375380418
 30
0.0
  0
POINT
  5
13A
330
131
100
AcDbEntity
  8
DEFPOINTS
 62
     0
100
AcDbPoint
 10
-5457.863517144563
 20
-2751.458375380418
 30
0.0
  0
ENDBLK
  5
13C
330
131
100
AcDbEntity
  8
0
100
AcDbBlockEnd
  0
BLOCK
  5
14D
330
143
100
AcDbEntity
  8
0
100
AcDbBlockBegin
  2
*D15
 70
     1
 10
0.0
 20
0.0
 30
0.0
  3
*D15
  1

  0
LINE
  5
144
330
143
100
AcDbEntity
  8
0
 62
   123
100
AcDbLine
 10
-5404.387733322999
 20
-2766.958375380418
 30
0.0
 11
-5404.387733322999
 21
-2749.624486432061
 31
0.0
  0
LINE
  5
145
330
143
100
AcDbEntity
  8
0
 62
   123
100
AcDbLine
 10
-5374.387733323
 20
-2771.458375380418
 30
0.0
 11
-5374.387733323
 21
-2749.624486432061
 31
0.0
  0
LINE
  5
146
330
143
100
AcDbEntity
  8
0
 62
   123
100
AcDbLine
 10
-5399.137733322999
 20
-2750.524486432061
 30
0.0
 11
-5379.637733323
 21
-2750.524486432061
 31
0.0
  0
SOLID
  5
147
330
143
100
AcDbEntity
  8
0
 62
   123
100
AcDbTrace
 10
-5399.137733322999
 20
-2749.649486432061
 30
0.0
 11
-5399.137733322999
 21
-2751.399486432061
 31
0.0
 12
-5404.387733322999
 22
-2750.524486432061
 32
0.0
 13
-5404.387733322999
 23
-2750.524486432061
 33
0.0
  0
SOLID
  5
148
330
143
100
AcDbEntity
  8
0
 62
   123
100
AcDbTrace
 10
-5379.637733323
 20
-2749.649486432061
 30
0.0
 11
-5379.637733323
 21
-2751.399486432061
 31
0.0
 12
-5374.387733323
 22
-2750.524486432061
 32
0.0
 13
-5374.387733323
 23
-2750.524486432061
 33
0.0
  0
MTEXT
  5
149
330
143
100
AcDbEntity
  8
0
 62
     3
100
AcDbMText
 10
-5386.737825956076
 20
-2746.774486432062
 30
0.0
 40
4.5
 41
0.0
 71
     5
 72
     1
  1
\A1;30
1001
ACAD
1000
MTEXTBEGIN
1070
    73
1070
     1
1070
    44
1040
1.0
1070
    74
1070
     0
1000
MTEXTEND
  0
POINT
  5
14A
330
143
100
AcDbEntity
  8
DEFPOINTS
 62
     0
100
AcDbPoint
 10
-5404.387733322999
 20
-2768.458375380418
 30
0.0
  0
POINT
  5
14B
330
143
100
AcDbEntity
  8
DEFPOINTS
 62
     0
100
AcDbPoint
 10
-5374.387733323
 20
-2772.958375380418
 30
0.0
  0
POINT
  5
14C
330
143
100
AcDbEntity
  8
DEFPOINTS
 62
     0
100
AcDbPoint
 10
-5374.387733323
 20
-2750.524486432061
 30
0.0
  0
ENDBLK
  5
14E
330
143
100
AcDbEntity
  8
0
100
AcDbBlockEnd
  0
BLOCK
  5
162
330
158
100
AcDbEntity
  8
0
100
AcDbBlockBegin
  2
*D16
 70
     1
 10
0.0
 20
0.0
 30
0.0
  3
*D16
  1

  0
LINE
  5
159
330
158
100
AcDbEntity
  8
0
 62
   123
100
AcDbLine
 10
-5439.387733322999
 20
-2770.958375380418
 30
0.0
 11
-5439.387733322999
 21
-2795.386927944591
 31
0.0
  0
LINE
  5
15A
330
158
100
AcDbEntity
  8
0
 62
   123
100
AcDbLine
 10
-5374.387733323
 20
-2777.958375380418
 30
0.0
 11
-5374.387733323
 21
-2795.386927944591
 31
0.0
  0
LINE
  5
15B
330
158
100
AcDbEntity
  8
0
 62
   123
100
AcDbLine
 10
-5434.137733322999
 20
-2794.486927944591
 30
0.0
 11
-5379.637733323
 21
-2794.486927944591
 31
0.0
  0
SOLID
  5
15C
330
158
100
AcDbEntity
  8
0
 62
   123
100
AcDbTrace
 10
-5434.137733322999
 20
-2793.611927944591
 30
0.0
 11
-5434.137733322999
 21
-2795.361927944591
 31
0.0
 12
-5439.387733322999
 22
-2794.486927944591
 32
0.0
 13
-5439.387733322999
 23
-2794.486927944591
 33
0.0
  0
SOLID
  5
15D
330
158
100
AcDbEntity
  8
0
 62
   123
100
AcDbTrace
 10
-5379.637733323
 20
-2793.611927944591
 30
0.0
 11
-5379.637733323
 21
-2795.361927944591
 31
0.0
 12
-5374.387733323
 22
-2794.486927944591
 32
0.0
 13
-5374.387733323
 23
-2794.486927944591
 33
0.0
  0
MTEXT
  5
15E
330
158
100
AcDbEntity
  8
0
 62
     3
100
AcDbMText
 10
-5406.616290467469
 20
-2790.736927944591
 30
0.0
 40
4.5
 41
0.0
 71
     5
 72
     1
  1
\A1;65
1001
ACAD
1000
MTEXTBEGIN
1070
    73
1070
     1
1070
    44
1040
1.0
1070
    74
1070
     0
1000
MTEXTEND
  0
POINT
  5
15F
330
158
100
AcDbEntity
  8
DEFPOINTS
 62
     0
100
AcDbPoint
 10
-5439.387733322999
 20
-2769.458375380418
 30
0.0
  0
POINT
  5
160
330
158
100
AcDbEntity
  8
DEFPOINTS
 62
     0
100
AcDbPoint
 10
-5374.387733323
 20
-2776.458375380418
 30
0.0
  0
POINT
  5
161
330
158
100
AcDbEntity
  8
DEFPOINTS
 62
     0
100
AcDbPoint
 10
-5374.387733323
 20
-2794.486927944591
 30
0.0
  0
ENDBLK
  5
163
330
158
100
AcDbEntity
  8
0
100
AcDbBlockEnd
  0
BLOCK
  5
17E
330
172
100
AcDbEntity
  8
0
100
AcDbBlockBegin
  2
*D17
 70
     1
 10
0.0
 20
0.0
 30
0.0
  3
*D17
  1

  0
LINE
  5
173
330
172
100
AcDbEntity
  8
0
 62
   123
100
AcDbLine
 10
-5433.387733322999
 20
-2668.458375380418
 30
0.0
 11
-5433.387733322999
 21
-2651.975348736838
 31
0.0
  0
LINE
  5
174
330
172
100
AcDbEntity
  8
0
 62
   123
100
AcDbLine
 10
-5430.387733322999
 20
-2664.458375380418
 30
0.0
 11
-5430.387733322999
 21
-2651.975348736838
 31
0.0
  0
LINE
  5
175
330
172
100
AcDbEntity
  8
0
 62
   123
100
AcDbLine
 10
-5438.637733322999
 20
-2652.875348736838
 30
0.0
 11
-5443.887733322999
 21
-2652.875348736838
 31
0.0
  0
LINE
  5
176
330
172
100
AcDbEntity
  8
0
 62
   123
100
AcDbLine
 10
-5425.137733322999
 20
-2652.875348736838
 30
0.0
 11
-5413.887733322999
 21
-2652.875348736838
 31
0.0
  0
LINE
  5
177
330
172
100
AcDbEntity
  8
0
 62
   123
100
AcDbLine
 10
-5433.387733322999
 20
-2652.875348736838
 30
0.0
 11
-5430.387733322999
 21
-2652.875348736838
 31
0.0
  0
SOLID
  5
178
330
172
100
AcDbEntity
  8
0
 62
   123
100
AcDbTrace
 10
-5438.637733322999
 20
-2652.000348736838
 30
0.0
 11
-5438.637733322999
 21
-2653.750348736839
 31
0.0
 12
-5433.387733322999
 22
-2652.875348736838
 32
0.0
 13
-5433.387733322999
 23
-2652.875348736838
 33
0.0
  0
SOLID
  5
179
330
172
100
AcDbEntity
  8
0
 62
   123
100
AcDbTrace
 10
-5425.137733322999
 20
-2652.000348736838
 30
0.0
 11
-5425.137733322999
 21
-2653.750348736839
 31
0.0
 12
-5430.387733322999
 22
-2652.875348736838
 32
0.0
 13
-5430.387733322999
 23
-2652.875348736838
 33
0.0
  0
MTEXT
  5
17A
330
172
100
AcDbEntity
  8
0
 62
     3
100
AcDbMText
 10
-5416.887733322999
 20
-2649.125348736838
 30
0.0
 40
4.5
 41
0.0
 71
     5
 72
     1
  1
\A1;3
1001
ACAD
1000
MTEXTBEGIN
1070
    73
1070
     1
1070
    44
1040
1.0
1070
    74
1070
     0
1000
MTEXTEND
  0
POINT
  5
17B
330
172
100
AcDbEntity
  8
DEFPOINTS
 62
     0
100
AcDbPoint
 10
-5433.387733322999
 20
-2669.958375380418
 30
0.0
  0
POINT
  5
17C
330
172
100
AcDbEntity
  8
DEFPOINTS
 62
     0
100
AcDbPoint
 10
-5430.387733322999
 20
-2665.958375380418
 30
0.0
  0
POINT
  5
17D
330
172
100
AcDbEntity
  8
DEFPOINTS
 62
     0
100
AcDbPoint
 10
-5430.387733322999
 20
-2652.875348736838
 30
0.0
  0
ENDBLK
  5
17F
330
172
100
AcDbEntity
  8
0
100
AcDbBlockEnd
  0
BLOCK
  5
195
330
189
100
AcDbEntity
  8
0
100
AcDbBlockBegin
  2
*D18
 70
     1
 10
0.0
 20
0.0
 30
0.0
  3
*D18
  1

  0
LINE
  5
18A
330
189
100
AcDbEntity
  8
0
 62
   123
100
AcDbLine
 10
-5439.387733322999
 20
-2664.458375380418
 30
0.0
 11
-5439.387733322999
 21
-2641.343963767639
 31
0.0
  0
LINE
  5
18B
330
189
100
AcDbEntity
  8
0
 62
   123
100
AcDbLine
 10
-5430.387733322999
 20
-2664.458375380418
 30
0.0
 11
-5430.387733322999
 21
-2641.343963767639
 31
0.0
  0
LINE
  5
18C
330
189
100
AcDbEntity
  8
0
 62
   123
100
AcDbLine
 10
-5444.637733322999
 20
-2642.243963767639
 30
0.0
 11
-5449.887733322999
 21
-2642.243963767639
 31
0.0
  0
LINE
  5
18D
330
189
100
AcDbEntity
  8
0
 62
   123
100
AcDbLine
 10
-5425.137733322999
 20
-2642.243963767639
 30
0.0
 11
-5419.887733322999
 21
-2642.243963767639
 31
0.0
  0
LINE
  5
18E
330
189
100
AcDbEntity
  8
0
 62
   123
100
AcDbLine
 10
-5439.387733322999
 20
-2642.243963767639
 30
0.0
 11
-5430.387733322999
 21
-2642.243963767639
 31
0.0
  0
SOLID
  5
18F
330
189
100
AcDbEntity
  8
0
 62
   123
100
AcDbTrace
 10
-5444.637733322999
 20
-2641.368963767638
 30
0.0
 11
-5444.637733322999
 21
-2643.118963767639
 31
0.0
 12
-5439.387733322999
 22
-2642.243963767639
 32
0.0
 13
-5439.387733322999
 23
-2642.243963767639
 33
0.0
  0
SOLID
  5
190
330
189
100
AcDbEntity
  8
0
 62
   123
100
AcDbTrace
 10
-5425.137733322999
 20
-2641.368963767638
 30
0.0
 11
-5425.137733322999
 21
-2643.118963767639
 31
0.0
 12
-5430.387733322999
 22
-2642.243963767639
 32
0.0
 13
-5430.387733322999
 23
-2642.243963767639
 33
0.0
  0
MTEXT
  5
191
330
189
100
AcDbEntity
  8
0
 62
     3
100
AcDbMText
 10
-5434.887733322999
 20
-2638.493963767639
 30
0.0
 40
4.5
 41
0.0
 71
     5
 72
     1
  1
\A1;9
1001
ACAD
1000
MTEXTBEGIN
1070
    73
1070
     1
1070
    44
1040
1.0
1070
    74
1070
     0
1000
MTEXTEND
  0
POINT
  5
192
330
189
100
AcDbEntity
  8
DEFPOINTS
 62
     0
100
AcDbPoint
 10
-5439.387733322999
 20
-2665.958375380418
 30
0.0
  0
POINT
  5
193
330
189
100
AcDbEntity
  8
DEFPOINTS
 62
     0
100
AcDbPoint
 10
-5430.387733322999
 20
-2665.958375380418
 30
0.0
  0
POINT
  5
194
330
189
100
AcDbEntity
  8
DEFPOINTS
 62
     0
100
AcDbPoint
 10
-5430.387733322999
 20
-2642.243963767639
 30
0.0
  0
ENDBLK
  5
196
330
189
100
AcDbEntity
  8
0
100
AcDbBlockEnd
  0
BLOCK
  5
217
330
20D
100
AcDbEntity
  8
0
100
AcDbBlockBegin
  2
*D19
 70
     1
 10
0.0
 20
0.0
 30
0.0
  3
*D19
  1

  0
LINE
  5
20E
330
20D
100
AcDbEntity
  8
0
 62
   123
100
AcDbLine
 10
-5667.381885331379
 20
-2528.282589231373
 30
0.0
 11
-5667.381885331379
 21
-2492.265153337148
 31
0.0
  0
LINE
  5
20F
330
20D
100
AcDbEntity
  8
0
 62
   123
100
AcDbLine
 10
-5539.381885331379
 20
-2528.282589231373
 30
0.0
 11
-5539.381885331379
 21
-2492.265153337148
 31
0.0
  0
LINE
  5
210
330
20D
100
AcDbEntity
  8
0
 62
   123
100
AcDbLine
 10
-5662.131885331379
 20
-2493.165153337148
 30
0.0
 11
-5544.631885331379
 21
-2493.165153337148
 31
0.0
  0
SOLID
  5
211
330
20D
100
AcDbEntity
  8
0
 62
   123
100
AcDbTrace
 10
-5662.131885331379
 20
-2492.290153337148
 30
0.0
 11
-5662.131885331379
 21
-2494.040153337149
 31
0.0
 12
-5667.381885331379
 22
-2493.165153337148
 32
0.0
 13
-5667.381885331379
 23
-2493.165153337148
 33
0.0
  0
SOLID
  5
212
330
20D
100
AcDbEntity
  8
0
 62
   123
100
AcDbTrace
 10
-5544.631885331379
 20
-2492.290153337148
 30
0.0
 11
-5544.631885331379
 21
-2494.040153337149
 31
0.0
 12
-5539.381885331379
 22
-2493.165153337148
 32
0.0
 13
-5539.381885331379
 23
-2493.165153337148
 33
0.0
  0
MTEXT
  5
213
330
20D
100
AcDbEntity
  8
0
 62
     3
100
AcDbMText
 10
-5605.524539131129
 20
-2489.415153337148
 30
0.0
 40
4.5
 41
0.0
 71
     5
 72
     1
  1
\A1;128
1001
ACAD
1000
MTEXTBEGIN
1070
    73
1070
     1
1070
    44
1040
1.0
1070
    74
1070
     0
1000
MTEXTEND
  0
POINT
  5
214
330
20D
100
AcDbEntity
  8
DEFPOINTS
 62
     0
100
AcDbPoint
 10
-5667.381885331379
 20
-2529.782589231373
 30
0.0
  0
POINT
  5
215
330
20D
100
AcDbEntity
  8
DEFPOINTS
 62
     0
100
AcDbPoint
 10
-5539.381885331379
 20
-2529.782589231373
 30
0.0
  0
POINT
  5
216
330
20D
100
AcDbEntity
  8
DEFPOINTS
 62
     0
100
AcDbPoint
 10
-5539.381885331379
 20
-2493.165153337148
 30
0.0
  0
ENDBLK
  5
218
330
20D
100
AcDbEntity
  8
0
100
AcDbBlockEnd
  0
BLOCK
  5
1A5
330
19B
100
AcDbEntity
  8
0
100
AcDbBlockBegin
  2
*D20
 70
     1
 10
0.0
 20
0.0
 30
0.0
  3
*D20
  1

  0
LINE
  5
19C
330
19B
100
AcDbEntity
  8
0
 62
   123
100
AcDbLine
 10
-5628.381885331378
 20
-2534.599048231373
 30
0.0
 11
-5628.381885331378
 21
-2504.017036603076
 31
0.0
  0
LINE
  5
19D
330
19B
100
AcDbEntity
  8
0
 62
   123
100
AcDbLine
 10
-5578.381885331379
 20
-2534.599048231372
 30
0.0
 11
-5578.381885331379
 21
-2504.017036603076
 31
0.0
  0
LINE
  5
19E
330
19B
100
AcDbEntity
  8
0
 62
   123
100
AcDbLine
 10
-5623.131885331378
 20
-2504.917036603076
 30
0.0
 11
-5583.631885331379
 21
-2504.917036603076
 31
0.0
  0
SOLID
  5
19F
330
19B
100
AcDbEntity
  8
0
 62
   123
100
AcDbTrace
 10
-5623.131885331378
 20
-2504.042036603076
 30
0.0
 11
-5623.131885331378
 21
-2505.792036603076
 31
0.0
 12
-5628.381885331378
 22
-2504.917036603076
 32
0.0
 13
-5628.381885331378
 23
-2504.917036603076
 33
0.0
  0
SOLID
  5
1A0
330
19B
100
AcDbEntity
  8
0
 62
   123
100
AcDbTrace
 10
-5583.631885331379
 20
-2504.042036603076
 30
0.0
 11
-5583.631885331379
 21
-2505.792036603076
 31
0.0
 12
-5578.381885331379
 22
-2504.917036603076
 32
0.0
 13
-5578.381885331379
 23
-2504.917036603076
 33
0.0
  0
MTEXT
  5
1A1
330
19B
100
AcDbEntity
  8
0
 62
     3
100
AcDbMText
 10
-5605.450015266907
 20
-2501.167036603076
 30
0.0
 40
4.5
 41
0.0
 71
     5
 72
     1
  1
\A1;50
1001
ACAD
1000
MTEXTBEGIN
1070
    73
1070
     1
1070
    44
1040
1.0
1070
    74
1070
     0
1000
MTEXTEND
  0
POINT
  5
1A2
330
19B
100
AcDbEntity
  8
DEFPOINTS
 62
     0
100
AcDbPoint
 10
-5628.381885331378
 20
-2536.099048231373
 30
0.0
  0
POINT
  5
1A3
330
19B
100
AcDbEntity
  8
DEFPOINTS
 62
     0
100
AcDbPoint
 10
-5578.381885331379
 20
-2536.099048231372
 30
0.0
  0
POINT
  5
1A4
330
19B
100
AcDbEntity
  8
DEFPOINTS
 62
     0
100
AcDbPoint
 10
-5578.381885331379
 20
-2504.917036603076
 30
0.0
  0
ENDBLK
  5
1A6
330
19B
100
AcDbEntity
  8
0
100
AcDbBlockEnd
  0
BLOCK
  5
1B6
330
1AA
100
AcDbEntity
  8
0
100
AcDbBlockBegin
  2
*D21
 70
     1
 10
0.0
 20
0.0
 30
0.0
  3
*D21
  1

  0
LINE
  5
1AB
330
1AA
100
AcDbEntity
  8
0
 62
   123
100
AcDbLine
 10
-5672.081885331379
 20
-2532.599048231373
 30
0.0
 11
-5672.081885331379
 21
-2513.69676065454
 31
0.0
  0
LINE
  5
1AC
330
1AA
100
AcDbEntity
  8
0
 62
   123
100
AcDbLine
 10
-5662.681885331379
 20
-2532.599048231373
 30
0.0
 11
-5662.681885331379
 21
-2513.69676065454
 31
0.0
  0
LINE
  5
1AD
330
1AA
100
AcDbEntity
  8
0
 62
   123
100
AcDbLine
 10
-5657.431885331379
 20
-2514.59676065454
 30
0.0
 11
-5652.181885331379
 21
-2514.59676065454
 31
0.0
  0
LINE
  5
1AE
330
1AA
100
AcDbEntity
  8
0
 62
   123
100
AcDbLine
 10
-5677.331885331379
 20
-2514.59676065454
 30
0.0
 11
-5695.224742474235
 21
-2514.59676065454
 31
0.0
  0
LINE
  5
1AF
330
1AA
100
AcDbEntity
  8
0
 62
   123
100
AcDbLine
 10
-5662.681885331379
 20
-2514.59676065454
 30
0.0
 11
-5672.081885331379
 21
-2514.59676065454
 31
0.0
  0
SOLID
  5
1B0
330
1AA
100
AcDbEntity
  8
0
 62
   123
100
AcDbTrace
 10
-5657.431885331379
 20
-2513.72176065454
 30
0.0
 11
-5657.431885331379
 21
-2515.47176065454
 31
0.0
 12
-5662.681885331379
 22
-2514.59676065454
 32
0.0
 13
-5662.681885331379
 23
-2514.59676065454
 33
0.0
  0
SOLID
  5
1B1
330
1AA
100
AcDbEntity
  8
0
 62
   123
100
AcDbTrace
 10
-5677.331885331379
 20
-2513.72176065454
 30
0.0
 11
-5677.331885331379
 21
-2515.47176065454
 31
0.0
 12
-5672.081885331379
 22
-2514.59676065454
 32
0.0
 13
-5672.081885331379
 23
-2514.59676065454
 33
0.0
  0
MTEXT
  5
1B2
330
1AA
100
AcDbEntity
  8
0
 62
     3
100
AcDbMText
 10
-5688.903313902807
 20
-2510.846760654541
 30
0.0
 40
4.5
 41
0.0
 71
     5
 72
     1
  1
\A1;9.4
1001
ACAD
1000
MTEXTBEGIN
1070
    73
1070
     1
1070
    44
1040
1.0
1070
    74
1070
     0
1000
MTEXTEND
  0
POINT
  5
1B3
330
1AA
100
AcDbEntity
  8
DEFPOINTS
 62
     0
100
AcDbPoint
 10
-5672.081885331379
 20
-2534.099048231373
 30
0.0
  0
POINT
  5
1B4
330
1AA
100
AcDbEntity
  8
DEFPOINTS
 62
     0
100
AcDbPoint
 10
-5662.681885331379
 20
-2534.099048231373
 30
0.0
  0
POINT
  5
1B5
330
1AA
100
AcDbEntity
  8
DEFPOINTS
 62
     0
100
AcDbPoint
 10
-5662.681885331379
 20
-2514.59676065454
 30
0.0
  0
ENDBLK
  5
1B7
330
1AA
100
AcDbEntity
  8
0
100
AcDbBlockEnd
  0
BLOCK
  5
1EE
330
1E7
100
AcDbEntity
  8
0
100
AcDbBlockBegin
  2
*D22
 70
     1
 10
0.0
 20
0.0
 30
0.0
  3
*D22
  1

  0
LINE
  5
1E8
330
1E7
100
AcDbEntity
  8
0
 62
   123
100
AcDbLine
 10
-5529.412477102242
 20
-2525.504965774522
 30
0.0
 11
-5515.154815352427
 21
-2511.735139630372
 31
0.0
  0
LINE
  5
1E9
330
1E7
100
AcDbEntity
  8
0
 62
   123
100
AcDbLine
 10
-5540.381885331381
 20
-2536.099048231374
 30
0.0
 11
-5533.188830754896
 21
-2529.152108915406
 31
0.0
  0
SOLID
  5
1EA
330
1E7
100
AcDbEntity
  8
0
 62
   123
100
AcDbTrace
 10
-5530.020334292388
 20
-2524.87557349908
 30
0.0
 11
-5528.804619912095
 21
-2526.134358049965
 31
0.0
 12
-5533.188830754896
 22
-2529.152108915406
 32
0.0
 13
-5533.188830754896
 23
-2529.152108915406
 33
0.0
  0
MTEXT
  5
1EB
330
1E7
100
AcDbEntity
  8
0
 62
     3
100
AcDbMText
 10
-5523.000571644494
 20
-2514.099085665824
 30
0.0
 40
4.5
 41
0.0
 71
     5
 72
     1
  1
\A1;R10
 11
0.7193054576483315
 21
0.6946939315967317
 31
0.0
1001
ACAD
1000
MTEXTBEGIN
1070
    73
1070
     1
1070
    44
1040
1.0
1070
    74
1070
     0
1000
MTEXTEND
  0
POINT
  5
1EC
330
1E7
100
AcDbEntity
  8
DEFPOINTS
 62
     0
100
AcDbPoint
 10
-5533.188830754896
 20
-2529.152108915406
 30
0.0
  0
POINT
  5
1ED
330
1E7
100
AcDbEntity
  8
DEFPOINTS
 62
     0
100
AcDbPoint
 10
-5540.381885331381
 20
-2536.099048231374
 30
0.0
  0
ENDBLK
  5
1EF
330
1E7
100
AcDbEntity
  8
0
100
AcDbBlockEnd
  0
BLOCK
  5
1FA
330
1F3
100
AcDbEntity
  8
0
100
AcDbBlockBegin
  2
*D23
 70
     1
 10
0.0
 20
0.0
 30
0.0
  3
*D23
  1

  0
LINE
  5
1F4
330
1F3
100
AcDbEntity
  8
0
 62
   123
100
AcDbLine
 10
-5579.310878421911
 20
-2525.463277924188
 30
0.0
 11
-5593.516009956445
 21
-2511.639267337568
 31
0.0
  0
LINE
  5
1F5
330
1F3
100
AcDbEntity
  8
0
 62
   123
100
AcDbLine
 10
-5568.381885331376
 20
-2536.099048231374
 30
0.0
 11
-5575.54843817763
 21
-2529.124772620103
 31
0.0
  0
SOLID
  5
1F6
330
1F3
100
AcDbEntity
  8
0
 62
   123
100
AcDbTrace
 10
-5578.700629305926
 20
-2524.836204550141
 30
0.0
 11
-5579.921127537897
 21
-2526.090351298234
 31
0.0
 12
-5575.54843817763
 22
-2529.124772620103
 32
0.0
 13
-5575.54843817763
 23
-2529.124772620103
 33
0.0
  0
MTEXT
  5
1F7
330
1F3
100
AcDbEntity
  8
0
 62
     3
100
AcDbMText
 10
-5585.679310957096
 20
-2514.033067965577
 30
0.0
 40
4.5
 41
0.0
 71
     5
 72
     1
  1
\A1;R10
 11
0.7166552846250151
 21
-0.6974275611266297
 31
0.0
1001
ACAD
1000
MTEXTBEGIN
1070
    73
1070
     1
1070
    44
1040
1.0
1070
    74
1070
     0
1000
MTEXTEND
  0
POINT
  5
1F8
330
1F3
100
AcDbEntity
  8
DEFPOINTS
 62
     0
100
AcDbPoint
 10
-5575.54843817763
 20
-2529.124772620103
 30
0.0
  0
POINT
  5
1F9
330
1F3
100
AcDbEntity
  8
DEFPOINTS
 62
     0
100
AcDbPoint
 10
-5568.381885331376
 20
-2536.099048231374
 30
0.0
  0
ENDBLK
  5
1FB
330
1F3
100
AcDbEntity
  8
0
100
AcDbBlockEnd
  0
BLOCK
  5
22A
330
220
100
AcDbEntity
  8
0
100
AcDbBlockBegin
  2
*D24
 70
     1
 10
0.0
 20
0.0
 30
0.0
  3
*D24
  1

  0
LINE
  5
221
330
220
100
AcDbEntity
  8
0
 62
   123
100
AcDbLine
 10
44.11447088045861
 20
273.1068109773668
 30
0.0
 11
44.11447088045861
 21
309.1242468715912
 31
0.0
  0
LINE
  5
222
330
220
100
AcDbEntity
  8
0
 62
   123
100
AcDbLine
 10
172.1144708804586
 20
273.1068109773668
 30
0.0
 11
172.1144708804586
 21
309.1242468715912
 31
0.0
  0
LINE
  5
223
330
220
100
AcDbEntity
  8
0
 62
   123
100
AcDbLine
 10
49.36447088045861
 20
308.2242468715912
 30
0.0
 11
166.8644708804586
 21
308.2242468715912
 31
0.0
  0
SOLID
  5
224
330
220
100
AcDbEntity
  8
0
 62
   123
100
AcDbTrace
 10
49.36447088045861
 20
309.0992468715912
 30
0.0
 11
49.36447088045861
 21
307.3492468715912
 31
0.0
 12
44.11447088045861
 22
308.2242468715912
 32
0.0
 13
44.11447088045861
 23
308.2242468715912
 33
0.0
  0
SOLID
  5
225
330
220
100
AcDbEntity
  8
0
 62
   123
100
AcDbTrace
 10
166.8644708804586
 20
309.0992468715912
 30
0.0
 11
166.8644708804586
 21
307.3492468715912
 31
0.0
 12
172.1144708804586
 22
308.2242468715912
 32
0.0
 13
172.1144708804586
 23
308.2242468715912
 33
0.0
  0
MTEXT
  5
226
330
220
100
AcDbEntity
  8
0
 62
     3
100
AcDbMText
 10
105.9718170807081
 20
311.9742468715912
 30
0.0
 40
4.5
 41
0.0
 71
     5
 72
     1
  1
\A1;128
1001
ACAD
1000
MTEXTBEGIN
1070
    73
1070
     1
1070
    44
1040
1.0
1070
    74
1070
     0
1000
MTEXTEND
  0
POINT
  5
227
330
220
100
AcDbEntity
  8
DEFPOINTS
 62
     0
100
AcDbPoint
 10
44.11447088045861
 20
271.6068109773668
 30
0.0
  0
POINT
  5
228
330
220
100
AcDbEntity
  8
DEFPOINTS
 62
     0
100
AcDbPoint
 10
172.1144708804586
 20
271.6068109773668
 30
0.0
  0
POINT
  5
229
330
220
100
AcDbEntity
  8
DEFPOINTS
 62
     0
100
AcDbPoint
 10
172.1144708804586
 20
308.2242468715912
 30
0.0
  0
ENDBLK
  5
22B
330
220
100
AcDbEntity
  8
0
100
AcDbBlockEnd
  0
BLOCK
  5
233
330
22C
100
AcDbEntity
  8
0
100
AcDbBlockBegin
  2
*D25
 70
     1
 10
0.0
 20
0.0
 30
0.0
  3
*D25
  1

  0
LINE
  5
35E
330
22C
100
AcDbEntity
  8
0
 62
   123
100
AcDbLine
 10
132.1854777899233
 20
275.9261222845516
 30
0.0
 11
117.9803462553884
 21
289.7501328711716
 31
0.0
  0
LINE
  5
35F
330
22C
100
AcDbEntity
  8
0
 62
   123
100
AcDbLine
 10
143.1144708804586
 20
265.2903519773672
 30
0.0
 11
135.9479180342047
 21
272.2646275886369
 31
0.0
  0
SOLID
  5
360
330
22C
100
AcDbEntity
  8
0
 62
   123
100
AcDbTrace
 10
132.7957269059091
 20
276.5531956585985
 30
0.0
 11
131.5752286739375
 21
275.2990489105048
 31
0.0
 12
135.9479180342047
 22
272.2646275886369
 32
0.0
 13
135.9479180342047
 23
272.2646275886369
 33
0.0
  0
MTEXT
  5
361
330
22C
100
AcDbEntity
  8
0
 62
     3
100
AcDbMText
 10
125.8170452547384
 20
287.3563322431643
 30
0.0
 40
4.5
 41
0.0
 71
     5
 72
     1
  1
\A1;R10
 11
0.7166552846250251
 21
-0.6974275611266196
 31
0.0
1001
ACAD
1000
MTEXTBEGIN
1070
    73
1070
     1
1070
    44
1040
1.0
1070
    74
1070
     0
1000
MTEXTEND
  0
POINT
  5
362
330
22C
100
AcDbEntity
  8
DEFPOINTS
 62
     0
100
AcDbPoint
 10
135.9479180342047
 20
272.2646275886369
 30
0.0
  0
POINT
  5
363
330
22C
100
AcDbEntity
  8
DEFPOINTS
 62
     0
100
AcDbPoint
 10
143.1144708804586
 20
265.2903519773672
 30
0.0
  0
ENDBLK
  5
234
330
22C
100
AcDbEntity
  8
0
100
AcDbBlockEnd
  0
BLOCK
  5
23C
330
235
100
AcDbEntity
  8
0
100
AcDbBlockBegin
  2
*D26
 70
     1
 10
0.0
 20
0.0
 30
0.0
  3
*D26
  1

  0
LINE
  5
358
330
235
100
AcDbEntity
  8
0
 62
   123
100
AcDbLine
 10
182.0838791095969
 20
275.8844344342179
 30
0.0
 11
196.3415408594136
 21
289.6542605783687
 31
0.0
  0
LINE
  5
359
330
235
100
AcDbEntity
  8
0
 62
   123
100
AcDbLine
 10
171.1144708804585
 20
265.2903519773666
 30
0.0
 11
178.3075254569431
 21
272.2372912933351
 31
0.0
  0
SOLID
  5
35A
330
235
100
AcDbEntity
  8
0
 62
   123
100
AcDbTrace
 10
181.4760219194497
 20
276.5138267096602
 30
0.0
 11
182.691736299744
 21
275.2550421587756
 31
0.0
 12
178.3075254569431
 22
272.2372912933351
 32
0.0
 13
178.3075254569431
 23
272.2372912933351
 33
0.0
  0
MTEXT
  5
35B
330
235
100
AcDbEntity
  8
0
 62
     3
100
AcDbMText
 10
188.4957845673452
 20
287.2903145429167
 30
0.0
 40
4.5
 41
0.0
 71
     5
 72
     1
  1
\A1;R10
 11
0.7193054576483368
 21
0.6946939315967264
 31
0.0
1001
ACAD
1000
MTEXTBEGIN
1070
    73
1070
     1
1070
    44
1040
1.0
1070
    74
1070
     0
1000
MTEXTEND
  0
POINT
  5
35C
330
235
100
AcDbEntity
  8
DEFPOINTS
 62
     0
100
AcDbPoint
 10
178.3075254569431
 20
272.2372912933351
 30
0.0
  0
POINT
  5
35D
330
235
100
AcDbEntity
  8
DEFPOINTS
 62
     0
100
AcDbPoint
 10
171.1144708804585
 20
265.2903519773666
 30
0.0
  0
ENDBLK
  5
23D
330
235
100
AcDbEntity
  8
0
100
AcDbBlockEnd
  0
BLOCK
  5
248
330
23E
100
AcDbEntity
  8
0
100
AcDbBlockBegin
  2
*D27
 70
     1
 10
0.0
 20
0.0
 30
0.0
  3
*D27
  1

  0
LINE
  5
23F
330
23E
100
AcDbEntity
  8
0
 62
   123
100
AcDbLine
 10
92.6144708804586
 20
232.2903519773667
 30
0.0
 11
99.29946466801672
 21
232.2903519773667
 31
0.0
  0
LINE
  5
240
330
23E
100
AcDbEntity
  8
0
 62
   123
100
AcDbLine
 10
74.61447088045861
 20
275.2903519773667
 30
0.0
 11
99.2994646680167
 21
275.2903519773667
 31
0.0
  0
LINE
  5
241
330
23E
100
AcDbEntity
  8
0
 62
   123
100
AcDbLine
 10
98.3994646680167
 20
237.5403519773667
 30
0.0
 11
98.3994646680167
 21
270.0403519773667
 31
0.0
  0
SOLID
  5
242
330
23E
100
AcDbEntity
  8
0
 62
   123
100
AcDbTrace
 10
97.52446466801671
 20
237.5403519773667
 30
0.0
 11
99.2744646680167
 21
237.5403519773667
 31
0.0
 12
98.3994646680167
 22
232.2903519773667
 32
0.0
 13
98.3994646680167
 23
232.2903519773667
 33
0.0
  0
SOLID
  5
243
330
23E
100
AcDbEntity
  8
0
 62
   123
100
AcDbTrace
 10
97.52446466801671
 20
270.0403519773667
 30
0.0
 11
99.2744646680167
 21
270.0403519773667
 31
0.0
 12
98.3994646680167
 22
275.2903519773667
 32
0.0
 13
98.3994646680167
 23
275.2903519773667
 33
0.0
  0
MTEXT
  5
244
330
23E
100
AcDbEntity
  8
0
 62
     3
100
AcDbMText
 10
94.64946466801666
 20
252.7019868886868
 30
0.0
 40
4.5
 41
0.0
 71
     5
 72
     1
  1
\A1;43
 11
0.0000000000000001
 21
1.0
 31
0.0
1001
ACAD
1000
MTEXTBEGIN
1070
    73
1070
     1
1070
    44
1040
1.0
1070
    74
1070
     0
1000
MTEXTEND
  0
POINT
  5
245
330
23E
100
AcDbEntity
  8
DEFPOINTS
 62
     0
100
AcDbPoint
 10
91.11447088045862
 20
232.2903519773667
 30
0.0
  0
POINT
  5
246
330
23E
100
AcDbEntity
  8
DEFPOINTS
 62
     0
100
AcDbPoint
 10
73.11447088045861
 20
275.2903519773667
 30
0.0
  0
POINT
  5
247
330
23E
100
AcDbEntity
  8
DEFPOINTS
 62
     0
100
AcDbPoint
 10
98.3994646680167
 20
275.2903519773667
 30
0.0
  0
ENDBLK
  5
249
330
23E
100
AcDbEntity
  8
0
100
AcDbBlockEnd
  0
BLOCK
  5
256
330
24A
100
AcDbEntity
  8
0
100
AcDbBlockBegin
  2
*D28
 70
     1
 10
0.0
 20
0.0
 30
0.0
  3
*D28
  1

  0
LINE
  5
24B
330
24A
100
AcDbEntity
  8
0
 62
   123
100
AcDbLine
 10
41.11447088045861
 20
264.0903519773664
 30
0.0
 11
25.27214483103639
 21
264.0903519773664
 31
0.0
  0
LINE
  5
24C
330
24A
100
AcDbEntity
  8
0
 62
   123
100
AcDbLine
 10
41.11447088045861
 20
270.490351977367
 30
0.0
 11
25.27214483103639
 21
270.490351977367
 31
0.0
  0
LINE
  5
24D
330
24A
100
AcDbEntity
  8
0
 62
   123
100
AcDbLine
 10
26.17214483103639
 20
258.8403519773665
 30
0.0
 11
26.17214483103639
 21
253.5903519773664
 31
0.0
  0
LINE
  5
24E
330
24A
100
AcDbEntity
  8
0
 62
   123
100
AcDbLine
 10
26.17214483103639
 20
275.740351977367
 30
0.0
 11
26.17214483103639
 21
280.990351977367
 31
0.0
  0
LINE
  5
24F
330
24A
100
AcDbEntity
  8
0
 62
   123
100
AcDbLine
 10
26.17214483103639
 20
264.0903519773664
 30
0.0
 11
26.17214483103639
 21
270.490351977367
 31
0.0
  0
SOLID
  5
250
330
24A
100
AcDbEntity
  8
0
 62
   123
100
AcDbTrace
 10
25.29714483103639
 20
258.8403519773665
 30
0.0
 11
27.04714483103638
 21
258.8403519773665
 31
0.0
 12
26.17214483103639
 22
264.0903519773664
 32
0.0
 13
26.17214483103639
 23
264.0903519773664
 33
0.0
  0
SOLID
  5
251
330
24A
100
AcDbEntity
  8
0
 62
   123
100
AcDbTrace
 10
25.29714483103639
 20
275.740351977367
 30
0.0
 11
27.04714483103639
 21
275.740351977367
 31
0.0
 12
26.17214483103639
 22
270.490351977367
 32
0.0
 13
26.17214483103639
 23
270.490351977367
 33
0.0
  0
MTEXT
  5
252
330
24A
100
AcDbEntity
  8
0
 62
     3
100
AcDbMText
 10
22.42214483103635
 20
267.2903519773667
 30
0.0
 40
4.5
 41
0.0
 71
     5
 72
     1
  1
\A1;6.4
 11
0.0000000000000001
 21
1.0
 31
0.0
1001
ACAD
1000
MTEXTBEGIN
1070
    73
1070
     1
1070
    44
1040
1.0
1070
    74
1070
     0
1000
MTEXTEND
  0
POINT
  5
253
330
24A
100
AcDbEntity
  8
DEFPOINTS
 62
     0
100
AcDbPoint
 10
42.61447088045861
 20
264.0903519773664
 30
0.0
  0
POINT
  5
254
330
24A
100
AcDbEntity
  8
DEFPOINTS
 62
     0
100
AcDbPoint
 10
42.61447088045861
 20
270.490351977367
 30
0.0
  0
POINT
  5
255
330
24A
100
AcDbEntity
  8
DEFPOINTS
 62
     0
100
AcDbPoint
 10
26.17214483103639
 20
270.490351977367
 30
0.0
  0
ENDBLK
  5
257
330
24A
100
AcDbEntity
  8
0
100
AcDbBlockEnd
  0
BLOCK
  5
264
330
258
100
AcDbEntity
  8
0
100
AcDbBlockBegin
  2
*D29
 70
     1
 10
0.0
 20
0.0
 30
0.0
  3
*D29
  1

  0
LINE
  5
34D
330
258
100
AcDbEntity
  8
0
 62
   123
100
AcDbLine
 10
39.4144708804586
 20
268.7903519773667
 30
0.0
 11
39.4144708804586
 21
287.6926395541994
 31
0.0
  0
LINE
  5
34E
330
258
100
AcDbEntity
  8
0
 62
   123
100
AcDbLine
 10
48.81447088045824
 20
268.7903519773667
 30
0.0
 11
48.81447088045824
 21
287.6926395541994
 31
0.0
  0
LINE
  5
34F
330
258
100
AcDbEntity
  8
0
 62
   123
100
AcDbLine
 10
54.06447088045824
 20
286.7926395541994
 30
0.0
 11
59.31447088045825
 21
286.7926395541994
 31
0.0
  0
LINE
  5
350
330
258
100
AcDbEntity
  8
0
 62
   123
100
AcDbLine
 10
34.16447088045861
 20
286.7926395541994
 30
0.0
 11
16.27161373760146
 21
286.7926395541994
 31
0.0
  0
LINE
  5
351
330
258
100
AcDbEntity
  8
0
 62
   123
100
AcDbLine
 10
48.81447088045824
 20
286.7926395541994
 30
0.0
 11
39.4144708804586
 21
286.7926395541994
 31
0.0
  0
SOLID
  5
352
330
258
100
AcDbEntity
  8
0
 62
   123
100
AcDbTrace
 10
54.06447088045824
 20
287.6676395541995
 30
0.0
 11
54.06447088045824
 21
285.9176395541994
 31
0.0
 12
48.81447088045824
 22
286.7926395541994
 32
0.0
 13
48.81447088045824
 23
286.7926395541994
 33
0.0
  0
SOLID
  5
353
330
258
100
AcDbEntity
  8
0
 62
   123
100
AcDbTrace
 10
34.16447088045861
 20
287.6676395541995
 30
0.0
 11
34.16447088045861
 21
285.9176395541994
 31
0.0
 12
39.4144708804586
 22
286.7926395541994
 32
0.0
 13
39.4144708804586
 23
286.7926395541994
 33
0.0
  0
MTEXT
  5
354
330
258
100
AcDbEntity
  8
0
 62
     3
100
AcDbMText
 10
22.59304230903004
 20
290.5426395541994
 30
0.0
 40
4.5
 41
0.0
 71
     5
 72
     1
  1
\A1;9.4
1001
ACAD
1000
MTEXTBEGIN
1070
    73
1070
     1
1070
    44
1040
1.0
1070
    74
1070
     0
1000
MTEXTEND
  0
POINT
  5
355
330
258
100
AcDbEntity
  8
DEFPOINTS
 62
     0
100
AcDbPoint
 10
39.4144708804586
 20
267.2903519773667
 30
0.0
  0
POINT
  5
356
330
258
100
AcDbEntity
  8
DEFPOINTS
 62
     0
100
AcDbPoint
 10
48.81447088045824
 20
267.2903519773667
 30
0.0
  0
POINT
  5
357
330
258
100
AcDbEntity
  8
DEFPOINTS
 62
     0
100
AcDbPoint
 10
48.81447088045824
 20
286.7926395541994
 30
0.0
  0
ENDBLK
  5
265
330
258
100
AcDbEntity
  8
0
100
AcDbBlockEnd
  0
BLOCK
  5
270
330
266
100
AcDbEntity
  8
0
100
AcDbBlockBegin
  2
*D30
 70
     1
 10
0.0
 20
0.0
 30
0.0
  3
*D30
  1

  0
LINE
  5
267
330
266
100
AcDbEntity
  8
0
 62
   123
100
AcDbLine
 10
83.11447088045861
 20
266.7903519773667
 30
0.0
 11
83.11447088045861
 21
297.3723636056637
 31
0.0
  0
LINE
  5
268
330
266
100
AcDbEntity
  8
0
 62
   123
100
AcDbLine
 10
133.1144708804586
 20
266.7903519773672
 30
0.0
 11
133.1144708804586
 21
297.3723636056637
 31
0.0
  0
LINE
  5
269
330
266
100
AcDbEntity
  8
0
 62
   123
100
AcDbLine
 10
88.36447088045861
 20
296.4723636056637
 30
0.0
 11
127.8644708804586
 21
296.4723636056637
 31
0.0
  0
SOLID
  5
26A
330
266
100
AcDbEntity
  8
0
 62
   123
100
AcDbTrace
 10
88.36447088045861
 20
297.3473636056637
 30
0.0
 11
88.36447088045861
 21
295.5973636056637
 31
0.0
 12
83.11447088045861
 22
296.4723636056637
 32
0.0
 13
83.11447088045861
 23
296.4723636056637
 33
0.0
  0
SOLID
  5
26B
330
266
100
AcDbEntity
  8
0
 62
   123
100
AcDbTrace
 10
127.8644708804586
 20
297.3473636056637
 30
0.0
 11
127.8644708804586
 21
295.5973636056637
 31
0.0
 12
133.1144708804586
 22
296.4723636056637
 32
0.0
 13
133.1144708804586
 23
296.4723636056637
 33
0.0
  0
MTEXT
  5
26C
330
266
100
AcDbEntity
  8
0
 62
     3
100
AcDbMText
 10
106.0463409449312
 20
300.2223636056637
 30
0.0
 40
4.5
 41
0.0
 71
     5
 72
     1
  1
\A1;50
1001
ACAD
1000
MTEXTBEGIN
1070
    73
1070
     1
1070
    44
1040
1.0
1070
    74
1070
     0
1000
MTEXTEND
  0
POINT
  5
26D
330
266
100
AcDbEntity
  8
DEFPOINTS
 62
     0
100
AcDbPoint
 10
83.11447088045861
 20
265.2903519773667
 30
0.0
  0
POINT
  5
26E
330
266
100
AcDbEntity
  8
DEFPOINTS
 62
     0
100
AcDbPoint
 10
133.1144708804586
 20
265.2903519773672
 30
0.0
  0
POINT
  5
26F
330
266
100
AcDbEntity
  8
DEFPOINTS
 62
     0
100
AcDbPoint
 10
133.1144708804586
 20
296.4723636056637
 30
0.0
  0
ENDBLK
  5
271
330
266
100
AcDbEntity
  8
0
100
AcDbBlockEnd
  0
BLOCK
  5
27E
330
272
100
AcDbEntity
  8
0
100
AcDbBlockBegin
  2
*D31
 70
     1
 10
0.0
 20
0.0
 30
0.0
  3
*D31
  1

  0
LINE
  5
273
330
272
100
AcDbEntity
  8
0
 62
   123
100
AcDbLine
 10
272.1086228888379
 20
136.9310248283218
 30
0.0
 11
272.1086228888379
 21
160.045436441101
 31
0.0
  0
LINE
  5
274
330
272
100
AcDbEntity
  8
0
 62
   123
100
AcDbLine
 10
281.108622888838
 20
136.9310248283218
 30
0.0
 11
281.108622888838
 21
160.045436441101
 31
0.0
  0
LINE
  5
275
330
272
100
AcDbEntity
  8
0
 62
   123
100
AcDbLine
 10
266.858622888838
 20
159.145436441101
 30
0.0
 11
261.6086228888379
 21
159.145436441101
 31
0.0
  0
LINE
  5
276
330
272
100
AcDbEntity
  8
0
 62
   123
100
AcDbLine
 10
286.3586228888379
 20
159.145436441101
 30
0.0
 11
291.608622888838
 21
159.145436441101
 31
0.0
  0
LINE
  5
277
330
272
100
AcDbEntity
  8
0
 62
   123
100
AcDbLine
 10
272.1086228888379
 20
159.145436441101
 30
0.0
 11
281.108622888838
 21
159.145436441101
 31
0.0
  0
SOLID
  5
278
330
272
100
AcDbEntity
  8
0
 62
   123
100
AcDbTrace
 10
266.858622888838
 20
160.020436441101
 30
0.0
 11
266.858622888838
 21
158.270436441101
 31
0.0
 12
272.1086228888379
 22
159.145436441101
 32
0.0
 13
272.1086228888379
 23
159.145436441101
 33
0.0
  0
SOLID
  5
279
330
272
100
AcDbEntity
  8
0
 62
   123
100
AcDbTrace
 10
286.3586228888379
 20
160.020436441101
 30
0.0
 11
286.3586228888379
 21
158.270436441101
 31
0.0
 12
281.108622888838
 22
159.145436441101
 32
0.0
 13
281.108622888838
 23
159.145436441101
 33
0.0
  0
MTEXT
  5
27A
330
272
100
AcDbEntity
  8
0
 62
     3
100
AcDbMText
 10
276.6086228888379
 20
162.895436441101
 30
0.0
 40
4.5
 41
0.0
 71
     5
 72
     1
  1
\A1;9
1001
ACAD
1000
MTEXTBEGIN
1070
    73
1070
     1
1070
    44
1040
1.0
1070
    74
1070
     0
1000
MTEXTEND
  0
POINT
  5
27B
330
272
100
AcDbEntity
  8
DEFPOINTS
 62
     0
100
AcDbPoint
 10
272.1086228888379
 20
135.4310248283218
 30
0.0
  0
POINT
  5
27C
330
272
100
AcDbEntity
  8
DEFPOINTS
 62
     0
100
AcDbPoint
 10
281.108622888838
 20
135.4310248283218
 30
0.0
  0
POINT
  5
27D
330
272
100
AcDbEntity
  8
DEFPOINTS
 62
     0
100
AcDbPoint
 10
281.108622888838
 20
159.145436441101
 30
0.0
  0
ENDBLK
  5
27F
330
272
100
AcDbEntity
  8
0
100
AcDbBlockEnd
  0
BLOCK
  5
28C
330
280
100
AcDbEntity
  8
0
100
AcDbBlockBegin
  2
*D32
 70
     1
 10
0.0
 20
0.0
 30
0.0
  3
*D32
  1

  0
LINE
  5
281
330
280
100
AcDbEntity
  8
0
 62
   123
100
AcDbLine
 10
278.1086228888379
 20
132.9310248283218
 30
0.0
 11
278.1086228888379
 21
149.4140514719014
 31
0.0
  0
LINE
  5
282
330
280
100
AcDbEntity
  8
0
 62
   123
100
AcDbLine
 10
281.108622888838
 20
136.9310248283218
 30
0.0
 11
281.108622888838
 21
149.4140514719014
 31
0.0
  0
LINE
  5
283
330
280
100
AcDbEntity
  8
0
 62
   123
100
AcDbLine
 10
272.858622888838
 20
148.5140514719014
 30
0.0
 11
267.6086228888379
 21
148.5140514719014
 31
0.0
  0
LINE
  5
284
330
280
100
AcDbEntity
  8
0
 62
   123
100
AcDbLine
 10
286.3586228888379
 20
148.5140514719014
 30
0.0
 11
297.608622888838
 21
148.5140514719014
 31
0.0
  0
LINE
  5
285
330
280
100
AcDbEntity
  8
0
 62
   123
100
AcDbLine
 10
278.1086228888379
 20
148.5140514719014
 30
0.0
 11
281.108622888838
 21
148.5140514719014
 31
0.0
  0
SOLID
  5
286
330
280
100
AcDbEntity
  8
0
 62
   123
100
AcDbTrace
 10
272.858622888838
 20
149.3890514719014
 30
0.0
 11
272.858622888838
 21
147.6390514719014
 31
0.0
 12
278.1086228888379
 22
148.5140514719014
 32
0.0
 13
278.1086228888379
 23
148.5140514719014
 33
0.0
  0
SOLID
  5
287
330
280
100
AcDbEntity
  8
0
 62
   123
100
AcDbTrace
 10
286.3586228888379
 20
149.3890514719014
 30
0.0
 11
286.3586228888379
 21
147.6390514719014
 31
0.0
 12
281.108622888838
 22
148.5140514719014
 32
0.0
 13
281.108622888838
 23
148.5140514719014
 33
0.0
  0
MTEXT
  5
288
330
280
100
AcDbEntity
  8
0
 62
     3
100
AcDbMText
 10
294.6086228888379
 20
152.2640514719014
 30
0.0
 40
4.5
 41
0.0
 71
     5
 72
     1
  1
\A1;3
1001
ACAD
1000
MTEXTBEGIN
1070
    73
1070
     1
1070
    44
1040
1.0
1070
    74
1070
     0
1000
MTEXTEND
  0
POINT
  5
289
330
280
100
AcDbEntity
  8
DEFPOINTS
 62
     0
100
AcDbPoint
 10
278.1086228888379
 20
131.4310248283218
 30
0.0
  0
POINT
  5
28A
330
280
100
AcDbEntity
  8
DEFPOINTS
 62
     0
100
AcDbPoint
 10
281.108622888838
 20
135.4310248283218
 30
0.0
  0
POINT
  5
28B
330
280
100
AcDbEntity
  8
DEFPOINTS
 62
     0
100
AcDbPoint
 10
281.108622888838
 20
148.5140514719014
 30
0.0
  0
ENDBLK
  5
28D
330
280
100
AcDbEntity
  8
0
100
AcDbBlockEnd
  0
BLOCK
  5
298
330
28E
100
AcDbEntity
  8
0
100
AcDbBlockBegin
  2
*D33
 70
     1
 10
0.0
 20
0.0
 30
0.0
  3
*D33
  1

  0
LINE
  5
28F
330
28E
100
AcDbEntity
  8
0
 62
   123
100
AcDbLine
 10
272.1086228888379
 20
30.43102482832182
 30
0.0
 11
272.1086228888379
 21
6.002472264148856
 31
0.0
  0
LINE
  5
290
330
28E
100
AcDbEntity
  8
0
 62
   123
100
AcDbLine
 10
337.108622888838
 20
23.43102482832182
 30
0.0
 11
337.108622888838
 21
6.002472264148856
 31
0.0
  0
LINE
  5
291
330
28E
100
AcDbEntity
  8
0
 62
   123
100
AcDbLine
 10
277.358622888838
 20
6.902472264148855
 30
0.0
 11
331.858622888838
 21
6.902472264148855
 31
0.0
  0
SOLID
  5
292
330
28E
100
AcDbEntity
  8
0
 62
   123
100
AcDbTrace
 10
277.358622888838
 20
7.777472264148855
 30
0.0
 11
277.358622888838
 21
6.027472264148855
 31
0.0
 12
272.1086228888379
 22
6.902472264148855
 32
0.0
 13
272.1086228888379
 23
6.902472264148855
 33
0.0
  0
SOLID
  5
293
330
28E
100
AcDbEntity
  8
0
 62
   123
100
AcDbTrace
 10
331.858622888838
 20
7.777472264148855
 30
0.0
 11
331.858622888838
 21
6.027472264148855
 31
0.0
 12
337.108622888838
 22
6.902472264148855
 32
0.0
 13
337.108622888838
 23
6.902472264148855
 33
0.0
  0
MTEXT
  5
294
330
28E
100
AcDbEntity
  8
0
 62
     3
100
AcDbMText
 10
304.880065744368
 20
10.65247226414885
 30
0.0
 40
4.5
 41
0.0
 71
     5
 72
     1
  1
\A1;65
1001
ACAD
1000
MTEXTBEGIN
1070
    73
1070
     1
1070
    44
1040
1.0
1070
    74
1070
     0
1000
MTEXTEND
  0
POINT
  5
295
330
28E
100
AcDbEntity
  8
DEFPOINTS
 62
     0
100
AcDbPoint
 10
272.1086228888379
 20
31.93102482832182
 30
0.0
  0
POINT
  5
296
330
28E
100
AcDbEntity
  8
DEFPOINTS
 62
     0
100
AcDbPoint
 10
337.108622888838
 20
24.93102482832182
 30
0.0
  0
POINT
  5
297
330
28E
100
AcDbEntity
  8
DEFPOINTS
 62
     0
100
AcDbPoint
 10
337.108622888838
 20
6.902472264148855
 30
0.0
  0
ENDBLK
  5
299
330
28E
100
AcDbEntity
  8
0
100
AcDbBlockEnd
  0
BLOCK
  5
2A4
330
29A
100
AcDbEntity
  8
0
100
AcDbBlockBegin
  2
*D34
 70
     1
 10
0.0
 20
0.0
 30
0.0
  3
*D34
  1

  0
LINE
  5
29B
330
29A
100
AcDbEntity
  8
0
 62
   123
100
AcDbLine
 10
307.108622888838
 20
34.43102482832182
 30
0.0
 11
307.108622888838
 21
51.76491377667835
 31
0.0
  0
LINE
  5
29C
330
29A
100
AcDbEntity
  8
0
 62
   123
100
AcDbLine
 10
337.108622888838
 20
29.93102482832182
 30
0.0
 11
337.108622888838
 21
51.76491377667835
 31
0.0
  0
LINE
  5
29D
330
29A
100
AcDbEntity
  8
0
 62
   123
100
AcDbLine
 10
312.358622888838
 20
50.86491377667835
 30
0.0
 11
331.858622888838
 21
50.86491377667835
 31
0.0
  0
SOLID
  5
29E
330
29A
100
AcDbEntity
  8
0
 62
   123
100
AcDbTrace
 10
312.358622888838
 20
51.73991377667835
 30
0.0
 11
312.358622888838
 21
49.98991377667834
 31
0.0
 12
307.108622888838
 22
50.86491377667835
 32
0.0
 13
307.108622888838
 23
50.86491377667835
 33
0.0
  0
SOLID
  5
29F
330
29A
100
AcDbEntity
  8
0
 62
   123
100
AcDbTrace
 10
331.858622888838
 20
51.73991377667835
 30
0.0
 11
331.858622888838
 21
49.98991377667834
 31
0.0
 12
337.108622888838
 22
50.86491377667835
 32
0.0
 13
337.108622888838
 23
50.86491377667835
 33
0.0
  0
MTEXT
  5
2A0
330
29A
100
AcDbEntity
  8
0
 62
     3
100
AcDbMText
 10
324.7585302557618
 20
54.61491377667835
 30
0.0
 40
4.5
 41
0.0
 71
     5
 72
     1
  1
\A1;30
1001
ACAD
1000
MTEXTBEGIN
1070
    73
1070
     1
1070
    44
1040
1.0
1070
    74
1070
     0
1000
MTEXTEND
  0
POINT
  5
2A1
330
29A
100
AcDbEntity
  8
DEFPOINTS
 62
     0
100
AcDbPoint
 10
307.108622888838
 20
32.93102482832182
 30
0.0
  0
POINT
  5
2A2
330
29A
100
AcDbEntity
  8
DEFPOINTS
 62
     0
100
AcDbPoint
 10
337.108622888838
 20
28.43102482832182
 30
0.0
  0
POINT
  5
2A3
330
29A
100
AcDbEntity
  8
DEFPOINTS
 62
     0
100
AcDbPoint
 10
337.108622888838
 20
50.86491377667835
 30
0.0
  0
ENDBLK
  5
2A5
330
29A
100
AcDbEntity
  8
0
100
AcDbBlockEnd
  0
BLOCK
  5
2B0
330
2A6
100
AcDbEntity
  8
0
100
AcDbBlockBegin
  2
*D35
 70
     1
 10
0.0
 20
0.0
 30
0.0
  3
*D35
  1

  0
LINE
  5
2A7
330
2A6
100
AcDbEntity
  8
0
 62
   123
100
AcDbLine
 10
270.608622888838
 20
129.9310248283218
 30
0.0
 11
252.7328390672752
 21
129.9310248283218
 31
0.0
  0
LINE
  5
2A8
330
2A6
100
AcDbEntity
  8
0
 62
   123
100
AcDbLine
 10
270.608622888838
 20
49.93102482832183
 30
0.0
 11
252.7328390672752
 21
49.93102482832183
 31
0.0
  0
LINE
  5
2A9
330
2A6
100
AcDbEntity
  8
0
 62
   123
100
AcDbLine
 10
253.6328390672752
 20
124.6810248283218
 30
0.0
 11
253.6328390672752
 21
55.18102482832183
 31
0.0
  0
SOLID
  5
2AA
330
2A6
100
AcDbEntity
  8
0
 62
   123
100
AcDbTrace
 10
252.7578390672752
 20
124.6810248283218
 30
0.0
 11
254.5078390672752
 21
124.6810248283218
 31
0.0
 12
253.6328390672752
 22
129.9310248283218
 32
0.0
 13
253.6328390672752
 23
129.9310248283218
 33
0.0
  0
SOLID
  5
2AB
330
2A6
100
AcDbEntity
  8
0
 62
   123
100
AcDbTrace
 10
252.7578390672752
 20
55.18102482832183
 30
0.0
 11
254.5078390672752
 21
55.18102482832183
 31
0.0
 12
253.6328390672752
 22
49.93102482832183
 32
0.0
 13
253.6328390672752
 23
49.93102482832183
 33
0.0
  0
MTEXT
  5
2AC
330
2A6
100
AcDbEntity
  8
0
 62
     3
100
AcDbMText
 10
249.8828390672751
 20
89.92489652042332
 30
0.0
 40
4.5
 41
0.0
 71
     5
 72
     1
  1
\A1;%%c80
 11
0.0000000000000001
 21
1.0
 31
0.0
1001
ACAD
1000
MTEXTBEGIN
1070
    73
1070
     1
1070
    44
1040
1.0
1070
    74
1070
     0
1000
MTEXTEND
  0
POINT
  5
2AD
330
2A6
100
AcDbEntity
  8
DEFPOINTS
 62
     0
100
AcDbPoint
 10
272.1086228888379
 20
129.9310248283218
 30
0.0
  0
POINT
  5
2AE
330
2A6
100
AcDbEntity
  8
DEFPOINTS
 62
     0
100
AcDbPoint
 10
272.1086228888379
 20
49.93102482832182
 30
0.0
  0
POINT
  5
2AF
330
2A6
100
AcDbEntity
  8
DEFPOINTS
 62
     0
100
AcDbPoint
 10
253.6328390672752
 20
49.93102482832183
 30
0.0
  0
ENDBLK
  5
2B1
330
2A6
100
AcDbEntity
  8
0
100
AcDbBlockEnd
  0
BLOCK
  5
2BC
330
2B2
100
AcDbEntity
  8
0
100
AcDbBlockBegin
  2
*D36
 70
     1
 10
0.0
 20
0.0
 30
0.0
  3
*D36
  1

  0
LINE
  5
2B3
330
2B2
100
AcDbEntity
  8
0
 62
   123
100
AcDbLine
 10
165.6144708804586
 20
210.2903519773667
 30
0.0
 11
203.5580664101876
 21
210.2903519773667
 31
0.0
  0
LINE
  5
2B4
330
2B2
100
AcDbEntity
  8
0
 62
   123
100
AcDbLine
 10
179.5292998804588
 20
227.2903519773667
 30
0.0
 11
203.5580664101876
 21
227.2903519773667
 31
0.0
  0
LINE
  5
2B5
330
2B2
100
AcDbEntity
  8
0
 62
   123
100
AcDbLine
 10
202.6580664101875
 20
215.5403519773667
 30
0.0
 11
202.6580664101875
 21
222.0403519773667
 31
0.0
  0
SOLID
  5
2B6
330
2B2
100
AcDbEntity
  8
0
 62
   123
100
AcDbTrace
 10
201.7830664101875
 20
215.5403519773667
 30
0.0
 11
203.5330664101875
 21
215.5403519773667
 31
0.0
 12
202.6580664101875
 22
210.2903519773667
 32
0.0
 13
202.6580664101875
 23
210.2903519773667
 33
0.0
  0
SOLID
  5
2B7
330
2B2
100
AcDbEntity
  8
0
 62
   123
100
AcDbTrace
 10
201.7830664101875
 20
222.0403519773667
 30
0.0
 11
203.5330664101875
 21
222.0403519773667
 31
0.0
 12
202.6580664101875
 22
227.2903519773667
 32
0.0
 13
202.6580664101875
 23
227.2903519773667
 33
0.0
  0
MTEXT
  5
2B8
330
2B2
100
AcDbEntity
  8
0
 62
     3
100
AcDbMText
 10
198.9080664101875
 20
219.3684739275536
 30
0.0
 40
4.5
 41
0.0
 71
     5
 72
     1
  1
\A1;17
 11
0.0000000000000001
 21
1.0
 31
0.0
1001
ACAD
1000
MTEXTBEGIN
1070
    73
1070
     1
1070
    44
1040
1.0
1070
    74
1070
     0
1000
MTEXTEND
  0
POINT
  5
2B9
330
2B2
100
AcDbEntity
  8
DEFPOINTS
 62
     0
100
AcDbPoint
 10
164.1144708804586
 20
210.2903519773667
 30
0.0
  0
POINT
  5
2BA
330
2B2
100
AcDbEntity
  8
DEFPOINTS
 62
     0
100
AcDbPoint
 10
178.0292998804589
 20
227.2903519773667
 30
0.0
  0
POINT
  5
2BB
330
2B2
100
AcDbEntity
  8
DEFPOINTS
 62
     0
100
AcDbPoint
 10
202.6580664101875
 20
227.2903519773667
 30
0.0
  0
ENDBLK
  5
2BD
330
2B2
100
AcDbEntity
  8
0
100
AcDbBlockEnd
  0
BLOCK
  5
2C8
330
2BE
100
AcDbEntity
  8
0
100
AcDbBlockBegin
  2
*D37
 70
     1
 10
0.0
 20
0.0
 30
0.0
  3
*D37
  1

  0
LINE
  5
2BF
330
2BE
100
AcDbEntity
  8
0
 62
   123
100
AcDbLine
 10
62.11447088045861
 20
128.8011848283222
 30
0.0
 11
62.11447088045861
 21
162.0192453185444
 31
0.0
  0
LINE
  5
2C0
330
2BE
100
AcDbEntity
  8
0
 62
   123
100
AcDbLine
 10
154.1144708804586
 20
128.8011848283222
 30
0.0
 11
154.1144708804586
 21
162.0192453185444
 31
0.0
  0
LINE
  5
2C1
330
2BE
100
AcDbEntity
  8
0
 62
   123
100
AcDbLine
 10
67.36447088045861
 20
161.1192453185444
 30
0.0
 11
148.8644708804586
 21
161.1192453185444
 31
0.0
  0
SOLID
  5
2C2
330
2BE
100
AcDbEntity
  8
0
 62
   123
100
AcDbTrace
 10
67.36447088045861
 20
161.9942453185444
 30
0.0
 11
67.36447088045861
 21
160.2442453185444
 31
0.0
 12
62.11447088045861
 22
161.1192453185444
 32
0.0
 13
62.11447088045861
 23
161.1192453185444
 33
0.0
  0
SOLID
  5
2C3
330
2BE
100
AcDbEntity
  8
0
 62
   123
100
AcDbTrace
 10
148.8644708804586
 20
161.9942453185444
 30
0.0
 11
148.8644708804586
 21
160.2442453185444
 31
0.0
 12
154.1144708804586
 22
161.1192453185444
 32
0.0
 13
154.1144708804586
 23
161.1192453185444
 33
0.0
  0
MTEXT
  5
2C4
330
2BE
100
AcDbEntity
  8
0
 62
     3
100
AcDbMText
 10
108.1144708804586
 20
164.8692453185444
 30
0.0
 40
4.5
 41
0.0
 71
     5
 72
     1
  1
\A1;92
1001
ACAD
1000
MTEXTBEGIN
1070
    73
1070
     1
1070
    44
1040
1.0
1070
    74
1070
     0
1000
MTEXTEND
  0
POINT
  5
2C5
330
2BE
100
AcDbEntity
  8
DEFPOINTS
 62
     0
100
AcDbPoint
 10
62.11447088045861
 20
127.3011848283222
 30
0.0
  0
POINT
  5
2C6
330
2BE
100
AcDbEntity
  8
DEFPOINTS
 62
     0
100
AcDbPoint
 10
154.1144708804586
 20
127.3011848283222
 30
0.0
  0
POINT
  5
2C7
330
2BE
100
AcDbEntity
  8
DEFPOINTS
 62
     0
100
AcDbPoint
 10
154.1144708804586
 20
161.1192453185444
 30
0.0
  0
ENDBLK
  5
2C9
330
2BE
100
AcDbEntity
  8
0
100
AcDbBlockEnd
  0
BLOCK
  5
2D6
330
2CA
100
AcDbEntity
  8
0
100
AcDbBlockBegin
  2
*D38
 70
     1
 10
0.0
 20
0.0
 30
0.0
  3
*D38
  1

  0
LINE
  5
2CB
330
2CA
100
AcDbEntity
  8
0
 62
   123
100
AcDbLine
 10
181.6144708804586
 20
24.00118482832203
 30
0.0
 11
198.8885879526864
 21
24.00118482832203
 31
0.0
  0
LINE
  5
2CC
330
2CA
100
AcDbEntity
  8
0
 62
   123
100
AcDbLine
 10
182.1144708804586
 20
33.00118482832203
 30
0.0
 11
198.8885879526864
 21
33.00118482832203
 31
0.0
  0
LINE
  5
2CD
330
2CA
100
AcDbEntity
  8
0
 62
   123
100
AcDbLine
 10
197.9885879526864
 20
18.75118482832203
 30
0.0
 11
197.9885879526864
 21
13.50118482832203
 31
0.0
  0
LINE
  5
2CE
330
2CA
100
AcDbEntity
  8
0
 62
   123
100
AcDbLine
 10
197.9885879526864
 20
38.25118482832204
 30
0.0
 11
197.9885879526864
 21
43.50118482832203
 31
0.0
  0
LINE
  5
2CF
330
2CA
100
AcDbEntity
  8
0
 62
   123
100
AcDbLine
 10
197.9885879526864
 20
24.00118482832203
 30
0.0
 11
197.9885879526864
 21
33.00118482832203
 31
0.0
  0
SOLID
  5
2D0
330
2CA
100
AcDbEntity
  8
0
 62
   123
100
AcDbTrace
 10
197.1135879526864
 20
18.75118482832203
 30
0.0
 11
198.8635879526864
 21
18.75118482832203
 31
0.0
 12
197.9885879526864
 22
24.00118482832203
 32
0.0
 13
197.9885879526864
 23
24.00118482832203
 33
0.0
  0
SOLID
  5
2D1
330
2CA
100
AcDbEntity
  8
0
 62
   123
100
AcDbTrace
 10
197.1135879526864
 20
38.25118482832204
 30
0.0
 11
198.8635879526864
 21
38.25118482832204
 31
0.0
 12
197.9885879526864
 22
33.00118482832203
 32
0.0
 13
197.9885879526864
 23
33.00118482832203
 33
0.0
  0
MTEXT
  5
2D2
330
2CA
100
AcDbEntity
  8
0
 62
     3
100
AcDbMText
 10
194.2385879526864
 20
28.50118482832207
 30
0.0
 40
4.5
 41
0.0
 71
     5
 72
     1
  1
\A1;9
 11
0.0000000000000001
 21
1.0
 31
0.0
1001
ACAD
1000
MTEXTBEGIN
1070
    73
1070
     1
1070
    44
1040
1.0
1070
    74
1070
     0
1000
MTEXTEND
  0
POINT
  5
2D3
330
2CA
100
AcDbEntity
  8
DEFPOINTS
 62
     0
100
AcDbPoint
 10
180.1144708804586
 20
24.00118482832203
 30
0.0
  0
POINT
  5
2D4
330
2CA
100
AcDbEntity
  8
DEFPOINTS
 62
     0
100
AcDbPoint
 10
180.6144708804586
 20
33.00118482832203
 30
0.0
  0
POINT
  5
2D5
330
2CA
100
AcDbEntity
  8
DEFPOINTS
 62
     0
100
AcDbPoint
 10
197.9885879526864
 20
33.00118482832203
 30
0.0
  0
ENDBLK
  5
2D7
330
2CA
100
AcDbEntity
  8
0
100
AcDbBlockEnd
  0
BLOCK
  5
2E4
330
2D8
100
AcDbEntity
  8
0
100
AcDbBlockBegin
  2
*D39
 70
     1
 10
0.0
 20
0.0
 30
0.0
  3
*D39
  1

  0
LINE
  5
2D9
330
2D8
100
AcDbEntity
  8
0
 62
   123
100
AcDbLine
 10
142.6144708804586
 20
24.00118482832203
 30
0.0
 11
134.4023961535527
 21
24.00118482832204
 31
0.0
  0
LINE
  5
2DA
330
2D8
100
AcDbEntity
  8
0
 62
   123
100
AcDbLine
 10
139.4158442699717
 20
25.00118482832204
 30
0.0
 11
134.4023961535527
 21
25.00118482832204
 31
0.0
  0
LINE
  5
2DB
330
2D8
100
AcDbEntity
  8
0
 62
   123
100
AcDbLine
 10
135.3023961535527
 20
30.25118482832204
 30
0.0
 11
135.3023961535527
 21
35.50118482832203
 31
0.0
  0
LINE
  5
2DC
330
2D8
100
AcDbEntity
  8
0
 62
   123
100
AcDbLine
 10
135.3023961535527
 20
18.75118482832204
 30
0.0
 11
135.3023961535527
 21
9.429756256892602
 31
0.0
  0
LINE
  5
2DD
330
2D8
100
AcDbEntity
  8
0
 62
   123
100
AcDbLine
 10
135.3023961535527
 20
25.00118482832204
 30
0.0
 11
135.3023961535527
 21
24.00118482832204
 31
0.0
  0
SOLID
  5
2DE
330
2D8
100
AcDbEntity
  8
0
 62
   123
100
AcDbTrace
 10
134.4273961535527
 20
30.25118482832204
 30
0.0
 11
136.1773961535527
 21
30.25118482832203
 31
0.0
 12
135.3023961535527
 22
25.00118482832204
 32
0.0
 13
135.3023961535527
 23
25.00118482832204
 33
0.0
  0
SOLID
  5
2DF
330
2D8
100
AcDbEntity
  8
0
 62
   123
100
AcDbTrace
 10
134.4273961535527
 20
18.75118482832204
 30
0.0
 11
136.1773961535527
 21
18.75118482832204
 31
0.0
 12
135.3023961535527
 22
24.00118482832204
 32
0.0
 13
135.3023961535527
 23
24.00118482832204
 33
0.0
  0
MTEXT
  5
2E0
330
2D8
100
AcDbEntity
  8
0
 62
     3
100
AcDbMText
 10
131.5523961535527
 20
11.4654705426069
 30
0.0
 40
4.5
 41
0.0
 71
     5
 72
     1
  1
\A1;1
 11
0.0000000000000001
 21
1.0
 31
0.0
1001
ACAD
1000
MTEXTBEGIN
1070
    73
1070
     1
1070
    44
1040
1.0
1070
    74
1070
     0
1000
MTEXTEND
  0
POINT
  5
2E1
330
2D8
100
AcDbEntity
  8
DEFPOINTS
 62
     0
100
AcDbPoint
 10
144.1144708804586
 20
24.00118482832203
 30
0.0
  0
POINT
  5
2E2
330
2D8
100
AcDbEntity
  8
DEFPOINTS
 62
     0
100
AcDbPoint
 10
140.9158442699717
 20
25.00118482832204
 30
0.0
  0
POINT
  5
2E3
330
2D8
100
AcDbEntity
  8
DEFPOINTS
 62
     0
100
AcDbPoint
 10
135.3023961535527
 20
25.00118482832204
 30
0.0
  0
ENDBLK
  5
2E5
330
2D8
100
AcDbEntity
  8
0
100
AcDbBlockEnd
  0
BLOCK
  5
2F0
330
2E6
100
AcDbEntity
  8
0
100
AcDbBlockBegin
  2
*D40
 70
     1
 10
0.0
 20
0.0
 30
0.0
  3
*D40
  1

  0
LINE
  5
2E7
330
2E6
100
AcDbEntity
  8
0
 62
   123
100
AcDbLine
 10
33.11447088045861
 20
24.00118482832203
 30
0.0
 11
0.4202239153506522
 21
24.00118482832205
 31
0.0
  0
LINE
  5
2E8
330
2E6
100
AcDbEntity
  8
0
 62
   123
100
AcDbLine
 10
50.61447088045861
 20
98.00118482832203
 30
0.0
 11
0.4202239153506686
 21
98.00118482832205
 31
0.0
  0
LINE
  5
2E9
330
2E6
100
AcDbEntity
  8
0
 62
   123
100
AcDbLine
 10
1.320223915350655
 20
29.25118482832205
 30
0.0
 11
1.320223915350669
 21
92.75118482832205
 31
0.0
  0
SOLID
  5
2EA
330
2E6
100
AcDbEntity
  8
0
 62
   123
100
AcDbTrace
 10
0.4452239153506553
 20
29.25118482832205
 30
0.0
 11
2.195223915350655
 21
29.25118482832205
 31
0.0
 12
1.320223915350654
 22
24.00118482832205
 32
0.0
 13
1.320223915350654
 23
24.00118482832205
 33
0.0
  0
SOLID
  5
2EB
330
2E6
100
AcDbEntity
  8
0
 62
   123
100
AcDbTrace
 10
0.4452239153506694
 20
92.75118482832205
 30
0.0
 11
2.195223915350669
 21
92.75118482832205
 31
0.0
 12
1.32022391535067
 22
98.00118482832205
 32
0.0
 13
1.32022391535067
 23
98.00118482832205
 33
0.0
  0
MTEXT
  5
2EC
330
2E6
100
AcDbEntity
  8
0
 62
     3
100
AcDbMText
 10
-2.429776084649347
 20
61.00118482832204
 30
0.0
 40
4.5
 41
0.0
 71
     5
 72
     1
  1
\A1;74
 11
0.0000000000000001
 21
1.0
 31
0.0
1001
ACAD
1000
MTEXTBEGIN
1070
    73
1070
     1
1070
    44
1040
1.0
1070
    74
1070
     0
1000
MTEXTEND
  0
POINT
  5
2ED
330
2E6
100
AcDbEntity
  8
DEFPOINTS
 62
     0
100
AcDbPoint
 10
34.61447088045861
 20
24.00118482832203
 30
0.0
  0
POINT
  5
2EE
330
2E6
100
AcDbEntity
  8
DEFPOINTS
 62
     0
100
AcDbPoint
 10
52.11447088045861
 20
98.00118482832203
 30
0.0
  0
POINT
  5
2EF
330
2E6
100
AcDbEntity
  8
DEFPOINTS
 62
     0
100
AcDbPoint
 10
1.32022391535067
 20
98.00118482832205
 30
0.0
  0
ENDBLK
  5
2F1
330
2E6
100
AcDbEntity
  8
0
100
AcDbBlockEnd
  0
BLOCK
  5
2FC
330
2F2
100
AcDbEntity
  8
0
100
AcDbBlockBegin
  2
*D41
 70
     1
 10
0.0
 20
0.0
 30
0.0
  3
*D41
  1

  0
LINE
  5
2F3
330
2F2
100
AcDbEntity
  8
0
 62
   123
100
AcDbLine
 10
34.61447088045861
 20
24.00118482832203
 30
0.0
 11
17.4807955812872
 21
24.00118482832204
 31
0.0
  0
LINE
  5
2F4
330
2F2
100
AcDbEntity
  8
0
 62
   123
100
AcDbLine
 10
34.51880338045703
 20
90.00118482832204
 30
0.0
 11
17.48079558128722
 21
90.00118482832204
 31
0.0
  0
LINE
  5
2F5
330
2F2
100
AcDbEntity
  8
0
 62
   123
100
AcDbLine
 10
18.3807955812872
 20
29.25118482832204
 30
0.0
 11
18.38079558128721
 21
84.75118482832206
 31
0.0
  0
SOLID
  5
2F6
330
2F2
100
AcDbEntity
  8
0
 62
   123
100
AcDbTrace
 10
17.5057955812872
 20
29.25118482832204
 30
0.0
 11
19.2557955812872
 21
29.25118482832204
 31
0.0
 12
18.3807955812872
 22
24.00118482832204
 32
0.0
 13
18.3807955812872
 23
24.00118482832204
 33
0.0
  0
SOLID
  5
2F7
330
2F2
100
AcDbEntity
  8
0
 62
   123
100
AcDbTrace
 10
17.50579558128721
 20
84.75118482832206
 30
0.0
 11
19.25579558128721
 21
84.75118482832206
 31
0.0
 12
18.38079558128722
 22
90.00118482832204
 32
0.0
 13
18.38079558128722
 23
90.00118482832204
 33
0.0
  0
MTEXT
  5
2F8
330
2F2
100
AcDbEntity
  8
0
 62
     3
100
AcDbMText
 10
14.6307955812872
 20
53.09308687107978
 30
0.0
 40
4.5
 41
0.0
 71
     5
 72
     1
  1
\A1;66%%P0.5
 11
0.0000000000000001
 21
1.0
 31
0.0
1001
ACAD
1000
MTEXTBEGIN
1070
    73
1070
     1
1070
    44
1040
1.0
1070
    74
1070
     0
1000
MTEXTEND
  0
POINT
  5
2F9
330
2F2
100
AcDbEntity
  8
DEFPOINTS
 62
     0
100
AcDbPoint
 10
36.11447088045861
 20
24.00118482832203
 30
0.0
  0
POINT
  5
2FA
330
2F2
100
AcDbEntity
  8
DEFPOINTS
 62
     0
100
AcDbPoint
 10
36.01880338045702
 20
90.00118482832204
 30
0.0
  0
POINT
  5
2FB
330
2F2
100
AcDbEntity
  8
DEFPOINTS
 62
     0
100
AcDbPoint
 10
18.38079558128722
 20
90.00118482832204
 30
0.0
  0
ENDBLK
  5
2FD
330
2F2
100
AcDbEntity
  8
0
100
AcDbBlockEnd
  0
BLOCK
  5
308
330
2FE
100
AcDbEntity
  8
0
100
AcDbBlockBegin
  2
*D42
 70
     1
 10
0.0
 20
0.0
 30
0.0
  3
*D42
  1

  0
LINE
  5
2FF
330
2FE
100
AcDbEntity
  8
0
 62
   123
100
AcDbLine
 10
35.11447088045861
 20
23.50118482832204
 30
0.0
 11
35.11447088045861
 21
1.888839806701618
 31
0.0
  0
LINE
  5
300
330
2FE
100
AcDbEntity
  8
0
 62
   123
100
AcDbLine
 10
181.1144708804586
 20
23.50118482832204
 30
0.0
 11
181.1144708804586
 21
1.888839806701618
 31
0.0
  0
LINE
  5
301
330
2FE
100
AcDbEntity
  8
0
 62
   123
100
AcDbLine
 10
40.36447088045861
 20
2.788839806701616
 30
0.0
 11
175.8644708804586
 21
2.788839806701616
 31
0.0
  0
SOLID
  5
302
330
2FE
100
AcDbEntity
  8
0
 62
   123
100
AcDbTrace
 10
40.36447088045861
 20
3.663839806701616
 30
0.0
 11
40.36447088045861
 21
1.913839806701616
 31
0.0
 12
35.11447088045861
 22
2.788839806701616
 32
0.0
 13
35.11447088045861
 23
2.788839806701616
 33
0.0
  0
SOLID
  5
303
330
2FE
100
AcDbEntity
  8
0
 62
   123
100
AcDbTrace
 10
175.8644708804586
 20
3.663839806701616
 30
0.0
 11
175.8644708804586
 21
1.913839806701616
 31
0.0
 12
181.1144708804586
 22
2.788839806701616
 32
0.0
 13
181.1144708804586
 23
2.788839806701616
 33
0.0
  0
MTEXT
  5
304
330
2FE
100
AcDbEntity
  8
0
 62
     3
100
AcDbMText
 10
108.117471440737
 20
6.538839806701616
 30
0.0
 40
4.5
 41
0.0
 71
     5
 72
     1
  1
\A1;146
1001
ACAD
1000
MTEXTBEGIN
1070
    73
1070
     1
1070
    44
1040
1.0
1070
    74
1070
     0
1000
MTEXTEND
  0
POINT
  5
305
330
2FE
100
AcDbEntity
  8
DEFPOINTS
 62
     0
100
AcDbPoint
 10
35.11447088045861
 20
25.00118482832204
 30
0.0
  0
POINT
  5
306
330
2FE
100
AcDbEntity
  8
DEFPOINTS
 62
     0
100
AcDbPoint
 10
181.1144708804586
 20
25.00118482832204
 30
0.0
  0
POINT
  5
307
330
2FE
100
AcDbEntity
  8
DEFPOINTS
 62
     0
100
AcDbPoint
 10
181.1144708804586
 20
2.788839806701616
 30
0.0
  0
ENDBLK
  5
309
330
2FE
100
AcDbEntity
  8
0
100
AcDbBlockEnd
  0
BLOCK
  5
314
330
30A
100
AcDbEntity
  8
0
100
AcDbBlockBegin
  2
*D43
 70
     1
 10
0.0
 20
0.0
 30
0.0
  3
*D43
  1

  0
LINE
  5
30B
330
30A
100
AcDbEntity
  8
0
 62
   123
100
AcDbLine
 10
52.11447088045861
 20
99.50118482832204
 30
0.0
 11
52.11447088045861
 21
174.9703133429938
 31
0.0
  0
LINE
  5
30C
330
30A
100
AcDbEntity
  8
0
 62
   123
100
AcDbLine
 10
164.1144708804586
 20
99.00118482832205
 30
0.0
 11
164.1144708804586
 21
174.9703133429938
 31
0.0
  0
LINE
  5
30D
330
30A
100
AcDbEntity
  8
0
 62
   123
100
AcDbLine
 10
57.36447088045862
 20
174.0703133429938
 30
0.0
 11
158.8644708804586
 21
174.0703133429938
 31
0.0
  0
SOLID
  5
30E
330
30A
100
AcDbEntity
  8
0
 62
   123
100
AcDbTrace
 10
57.36447088045862
 20
174.9453133429938
 30
0.0
 11
57.36447088045862
 21
173.1953133429938
 31
0.0
 12
52.11447088045861
 22
174.0703133429938
 32
0.0
 13
52.11447088045861
 23
174.0703133429938
 33
0.0
  0
SOLID
  5
30F
330
30A
100
AcDbEntity
  8
0
 62
   123
100
AcDbTrace
 10
158.8644708804586
 20
174.9453133429938
 30
0.0
 11
158.8644708804586
 21
173.1953133429938
 31
0.0
 12
164.1144708804586
 22
174.0703133429938
 32
0.0
 13
164.1144708804586
 23
174.0703133429938
 33
0.0
  0
MTEXT
  5
310
330
30A
100
AcDbEntity
  8
0
 62
     3
100
AcDbMText
 10
106.494351461386
 20
177.8203133429938
 30
0.0
 40
4.5
 41
0.0
 71
     5
 72
     1
  1
\A1;112
1001
ACAD
1000
MTEXTBEGIN
1070
    73
1070
     1
1070
    44
1040
1.0
1070
    74
1070
     0
1000
MTEXTEND
  0
POINT
  5
311
330
30A
100
AcDbEntity
  8
DEFPOINTS
 62
     0
100
AcDbPoint
 10
52.11447088045861
 20
98.00118482832203
 30
0.0
  0
POINT
  5
312
330
30A
100
AcDbEntity
  8
DEFPOINTS
 62
     0
100
AcDbPoint
 10
164.1144708804586
 20
97.50118482832204
 30
0.0
  0
POINT
  5
313
330
30A
100
AcDbEntity
  8
DEFPOINTS
 62
     0
100
AcDbPoint
 10
164.1144708804586
 20
174.0703133429938
 30
0.0
  0
ENDBLK
  5
315
330
30A
100
AcDbEntity
  8
0
100
AcDbBlockEnd
  0
BLOCK
  5
31F
330
316
100
AcDbEntity
  8
0
100
AcDbBlockBegin
  2
*D44
 70
     1
 10
0.0
 20
0.0
 30
0.0
  3
*D44
  1

  0
LINE
  5
345
330
316
100
AcDbEntity
  8
0
 62
   123
100
AcDbLine
 10
63.47620236783195
 20
54.15446274394607
 30
0.0
 11
59.38273669636828
 21
50.86720875367571
 31
0.0
  0
LINE
  5
346
330
316
100
AcDbEntity
  8
0
 62
   123
100
AcDbLine
 10
152.7527393930863
 20
125.8479069126988
 30
0.0
 11
195.2867508000772
 21
160.0048071878247
 31
0.0
  0
LINE
  5
347
330
316
100
AcDbEntity
  8
0
 62
   123
100
AcDbLine
 10
67.56966803929562
 20
57.44171673421644
 30
0.0
 11
148.6592737216226
 21
122.5606529224285
 31
0.0
  0
SOLID
  5
348
330
316
100
AcDbEntity
  8
0
 62
   123
100
AcDbTrace
 10
62.92832670278689
 20
54.83670702252336
 30
0.0
 11
64.02407803287701
 21
53.47221846536879
 31
0.0
 12
67.56966803929562
 22
57.44171673421644
 32
0.0
 13
67.56966803929562
 23
57.44171673421644
 33
0.0
  0
SOLID
  5
349
330
316
100
AcDbEntity
  8
0
 62
   123
100
AcDbTrace
 10
152.2048637280412
 20
126.5301511912761
 30
0.0
 11
153.3006150581313
 21
125.1656626341215
 31
0.0
 12
148.6592737216226
 22
122.5606529224285
 32
0.0
 13
148.6592737216226
 23
122.5606529224285
 33
0.0
  0
MTEXT
  5
34A
330
316
100
AcDbEntity
  8
0
 62
     3
100
AcDbMText
 10
179.3216733693009
 20
151.9935602100117
 30
0.0
 40
4.5
 41
0.0
 71
     5
 72
     1
  1
\A1;\U+2205104%%P0.3
 11
0.7797077469454622
 21
0.6261436171943552
 31
0.0
1001
ACAD
1000
MTEXTBEGIN
1070
    73
1070
     1
1070
    44
1040
1.0
1070
    74
1070
     0
1000
MTEXTEND
  0
POINT
  5
34B
330
316
100
AcDbEntity
  8
DEFPOINTS
 62
     0
100
AcDbPoint
 10
148.6592737216226
 20
122.5606529224285
 30
0.0
  0
POINT
  5
34C
330
316
100
AcDbEntity
  8
DEFPOINTS
 62
     0
100
AcDbPoint
 10
67.56966803929562
 20
57.44171673421644
 30
0.0
  0
ENDBLK
  5
320
330
316
100
AcDbEntity
  8
0
100
AcDbBlockEnd
  0
BLOCK
  5
32B
330
321
100
AcDbEntity
  8
0
100
AcDbBlockBegin
  2
*D45
 70
     1
 10
0.0
 20
0.0
 30
0.0
  3
*D45
  1

  0
LINE
  5
322
330
321
100
AcDbEntity
  8
0
 62
   123
100
AcDbLine
 10
146.9144708804587
 20
136.001184828322
 30
0.0
 11
210.4958737361598
 21
136.001184828322
 31
0.0
  0
LINE
  5
323
330
321
100
AcDbEntity
  8
0
 62
   123
100
AcDbLine
 10
181.6144708804586
 20
24.00118482832203
 30
0.0
 11
210.4958737361597
 21
24.00118482832203
 31
0.0
  0
LINE
  5
324
330
321
100
AcDbEntity
  8
0
 62
   123
100
AcDbLine
 10
209.5958737361597
 20
130.751184828322
 30
0.0
 11
209.5958737361597
 21
29.25118482832202
 31
0.0
  0
SOLID
  5
325
330
321
100
AcDbEntity
  8
0
 62
   123
100
AcDbTrace
 10
208.7208737361597
 20
130.751184828322
 30
0.0
 11
210.4708737361598
 21
130.751184828322
 31
0.0
 12
209.5958737361597
 22
136.001184828322
 32
0.0
 13
209.5958737361597
 23
136.001184828322
 33
0.0
  0
SOLID
  5
326
330
321
100
AcDbEntity
  8
0
 62
   123
100
AcDbTrace
 10
208.7208737361597
 20
29.25118482832202
 30
0.0
 11
210.4708737361597
 21
29.25118482832202
 31
0.0
 12
209.5958737361597
 22
24.00118482832203
 32
0.0
 13
209.5958737361597
 23
24.00118482832203
 33
0.0
  0
MTEXT
  5
327
330
321
100
AcDbEntity
  8
0
 62
     3
100
AcDbMText
 10
205.8458737361597
 20
79.576341296784
 30
0.0
 40
4.5
 41
0.0
 71
     5
 72
     1
  1
\A1;112
 11
0.0000000000000001
 21
1.0
 31
0.0
1001
ACAD
1000
MTEXTBEGIN
1070
    73
1070
     1
1070
    44
1040
1.0
1070
    74
1070
     0
1000
MTEXTEND
  0
POINT
  5
328
330
321
100
AcDbEntity
  8
DEFPOINTS
 62
     0
100
AcDbPoint
 10
145.4144708804587
 20
136.001184828322
 30
0.0
  0
POINT
  5
329
330
321
100
AcDbEntity
  8
DEFPOINTS
 62
     0
100
AcDbPoint
 10
180.1144708804586
 20
24.00118482832203
 30
0.0
  0
POINT
  5
32A
330
321
100
AcDbEntity
  8
DEFPOINTS
 62
     0
100
AcDbPoint
 10
209.5958737361597
 20
24.00118482832203
 30
0.0
  0
ENDBLK
  5
32C
330
321
100
AcDbEntity
  8
0
100
AcDbBlockEnd
  0
BLOCK
  5
337
330
32D
100
AcDbEntity
  8
0
100
AcDbBlockBegin
  2
*D46
 70
     1
 10
0.0
 20
0.0
 30
0.0
  3
*D46
  1

  0
LINE
  5
32E
330
32D
100
AcDbEntity
  8
0
 62
   123
100
AcDbLine
 10
276.6086228888379
 20
131.4310248283218
 30
0.0
 11
240.9302821692232
 21
131.4310248283218
 31
0.0
  0
LINE
  5
32F
330
32D
100
AcDbEntity
  8
0
 62
   123
100
AcDbLine
 10
276.6086228888379
 20
48.43102482832183
 30
0.0
 11
240.9302821692232
 21
48.43102482832183
 31
0.0
  0
LINE
  5
330
330
32D
100
AcDbEntity
  8
0
 62
   123
100
AcDbLine
 10
241.8302821692232
 20
126.1810248283218
 30
0.0
 11
241.8302821692232
 21
53.68102482832183
 31
0.0
  0
SOLID
  5
331
330
32D
100
AcDbEntity
  8
0
 62
   123
100
AcDbTrace
 10
240.9552821692232
 20
126.1810248283218
 30
0.0
 11
242.7052821692232
 21
126.1810248283218
 31
0.0
 12
241.8302821692232
 22
131.4310248283218
 32
0.0
 13
241.8302821692232
 23
131.4310248283218
 33
0.0
  0
SOLID
  5
332
330
32D
100
AcDbEntity
  8
0
 62
   123
100
AcDbTrace
 10
240.9552821692232
 20
53.68102482832183
 30
0.0
 11
242.7052821692232
 21
53.68102482832183
 31
0.0
 12
241.8302821692232
 22
48.43102482832183
 32
0.0
 13
241.8302821692232
 23
48.43102482832183
 33
0.0
  0
MTEXT
  5
333
330
32D
100
AcDbEntity
  8
0
 62
     3
100
AcDbMText
 10
238.0802821692232
 20
90.12657454806776
 30
0.0
 40
4.5
 41
0.0
 71
     5
 72
     1
  1
\A1;%%c83
 11
0.0000000000000001
 21
1.0
 31
0.0
1001
ACAD
1000
MTEXTBEGIN
1070
    73
1070
     1
1070
    44
1040
1.0
1070
    74
1070
     0
1000
MTEXTEND
  0
POINT
  5
334
330
32D
100
AcDbEntity
  8
DEFPOINTS
 62
     0
100
AcDbPoint
 10
278.1086228888379
 20
131.4310248283218
 30
0.0
  0
POINT
  5
335
330
32D
100
AcDbEntity
  8
DEFPOINTS
 62
     0
100
AcDbPoint
 10
278.1086228888379
 20
48.43102482832183
 30
0.0
  0
POINT
  5
336
330
32D
100
AcDbEntity
  8
DEFPOINTS
 62
     0
100
AcDbPoint
 10
241.8302821692232
 20
48.43102482832183
 30
0.0
  0
ENDBLK
  5
338
330
32D
100
AcDbEntity
  8
0
100
AcDbBlockEnd
  0
BLOCK
  5
343
330
339
100
AcDbEntity
  8
0
100
AcDbBlockBegin
  2
*D47
 70
     1
 10
0.0
 20
0.0
 30
0.0
  3
*D47
  1

  0
LINE
  5
33A
330
339
100
AcDbEntity
  8
0
 62
   123
100
AcDbLine
 10
181.0292998804589
 20
227.2903519773667
 30
0.0
 11
203.5580664101875
 21
227.2903519773667
 31
0.0
  0
LINE
  5
33B
330
339
100
AcDbEntity
  8
0
 62
   123
100
AcDbLine
 10
180.302788880459
 20
267.2903519773667
 30
0.0
 11
203.5580664101875
 21
267.2903519773667
 31
0.0
  0
LINE
  5
33C
330
339
100
AcDbEntity
  8
0
 62
   123
100
AcDbLine
 10
202.6580664101875
 20
232.5403519773667
 30
0.0
 11
202.6580664101875
 21
262.0403519773667
 31
0.0
  0
SOLID
  5
33D
330
339
100
AcDbEntity
  8
0
 62
   123
100
AcDbTrace
 10
201.7830664101875
 20
232.5403519773667
 30
0.0
 11
203.5330664101875
 21
232.5403519773667
 31
0.0
 12
202.6580664101875
 22
227.2903519773667
 32
0.0
 13
202.6580664101875
 23
227.2903519773667
 33
0.0
  0
SOLID
  5
33E
330
339
100
AcDbEntity
  8
0
 62
   123
100
AcDbTrace
 10
201.7830664101875
 20
262.0403519773667
 30
0.0
 11
203.5330664101875
 21
262.0403519773667
 31
0.0
 12
202.6580664101875
 22
267.2903519773667
 32
0.0
 13
202.6580664101875
 23
267.2903519773667
 33
0.0
  0
MTEXT
  5
33F
330
339
100
AcDbEntity
  8
0
 62
     3
100
AcDbMText
 10
198.9080664101875
 20
247.2903519773667
 30
0.0
 40
4.5
 41
0.0
 71
     5
 72
     1
  1
\A1;40
 11
0.0000000000000001
 21
1.0
 31
0.0
1001
ACAD
1000
MTEXTBEGIN
1070
    73
1070
     1
1070
    44
1040
1.0
1070
    74
1070
     0
1000
MTEXTEND
  0
POINT
  5
340
330
339
100
AcDbEntity
  8
DEFPOINTS
 62
     0
100
AcDbPoint
 10
179.5292998804588
 20
227.2903519773667
 30
0.0
  0
POINT
  5
341
330
339
100
AcDbEntity
  8
DEFPOINTS
 62
     0
100
AcDbPoint
 10
178.802788880459
 20
267.2903519773667
 30
0.0
  0
POINT
  5
342
330
339
100
AcDbEntity
  8
DEFPOINTS
 62
     0
100
AcDbPoint
 10
202.6580664101875
 20
267.2903519773667
 30
0.0
  0
ENDBLK
  5
344
330
339
100
AcDbEntity
  8
0
100
AcDbBlockEnd
  0
ENDSEC
  0
SECTION
  2
ENTITIES
  0
LINE
  5
29
102
{ACAD_REACTORS
330
11A
102
}
330
2
100
AcDbEntity
  8
0
  6
CONTINUOUS
100
AcDbLine
 10
164.1144708804586
 20
210.2903519773667
 30
0.0
 11
164.1144708804586
 21
246.2903519773667
 31
0.0
  0
LINE
  5
2A
330
2
100
AcDbEntity
  8
0
  6
CONTINUOUS
100
AcDbLine
 10
155.1144708804586
 20
210.2903519773663
 30
0.0
 11
155.1144708804586
 21
275.2903519773667
 31
0.0
  0
LINE
  5
2B
330
2
100
AcDbEntity
  8
CEN
  6
CENTER
100
AcDbLine
 10
108.1144708804586
 20
196.7546084373771
 30
0.0
 11
108.1144708804586
 21
280.7187824870829
 31
0.0
  0
LINE
  5
2E
330
2
100
AcDbEntity
  8
0
  6
CONTINUOUS
100
AcDbLine
 10
52.11447088045861
 20
210.2903519773672
 30
0.0
 11
52.11447088045861
 21
246.2903519773667
 31
0.0
  0
LINE
  5
2F
330
2
100
AcDbEntity
  8
0
  6
CONTINUOUS
100
AcDbLine
 10
61.11447088045861
 20
210.2903519773672
 30
0.0
 11
61.11447088045861
 21
275.2903519773667
 31
0.0
  0
LINE
  5
30
330
2
100
AcDbEntity
  8
0
  6
CONTINUOUS
100
AcDbLine
 10
181.1144708804586
 20
225.2903519773667
 30
0.0
 11
181.1144708804586
 21
265.2903519773667
 31
0.0
  0
DIMENSION
  5
31
330
2
100
AcDbEntity
  8
0
100
AcDbDimension
  2
*D47
 10
202.6580664101875
 20
267.2903519773667
 30
0.0
 11
202.6580664101875
 21
247.2903519773667
 31
0.0
 70
   160
  3
STANDARD
100
AcDbAlignedDimension
 13
179.5292998804588
 23
227.2903519773667
 33
0.0
 14
178.802788880459
 24
267.2903519773667
 34
0.0
 50
90.0
100
AcDbRotatedDimension
1001
ACAD
1000
DSTYLE
1002
{
1070
    40
1040
1.5
1002
}
  0
LINE
  5
3F
330
2
100
AcDbEntity
  8
0
  6
CONTINUOUS
100
AcDbLine
 10
148.1144708804586
 20
219.2903519773667
 30
0.0
 11
148.1144708804586
 21
275.2903519773667
 31
0.0
  0
LINE
  5
40
330
2
100
AcDbEntity
  8
CEN
  6
CENTER
 48
0.5
100
AcDbLine
 10
172.1144708804586
 20
222.8594319773665
 30
0.0
 11
172.1144708804586
 21
231.6068109773668
 31
0.0
  0
ARC
  5
41
330
2
100
AcDbEntity
  8
0
  6
CONTINUOUS
100
AcDbCircle
 10
170.6144708804586
 20
227.2903519773667
 30
0.0
 40
3.2
100
AcDbArc
 50
90.0
 51
270.0
  0
ARC
  5
42
330
2
100
AcDbEntity
  8
0
  6
CONTINUOUS
100
AcDbCircle
 10
173.6144708804586
 20
227.2903519773667
 30
0.0
 40
3.2
100
AcDbArc
 50
270.0
 51
90.0
  0
LINE
  5
43
330
2
100
AcDbEntity
  8
0
  6
CONTINUOUS
100
AcDbLine
 10
68.11447088045861
 20
219.2903519773667
 30
0.0
 11
68.11447088045861
 21
275.2903519773667
 31
0.0
  0
LINE
  5
44
330
2
100
AcDbEntity
  8
CEN
  6
CENTER
 48
0.5
100
AcDbLine
 10
44.11447088045861
 20
222.8594319773665
 30
0.0
 11
44.11447088045861
 21
231.6068109773668
 31
0.0
  0
ARC
  5
45
330
2
100
AcDbEntity
  8
0
  6
CONTINUOUS
100
AcDbCircle
 10
45.61447088045861
 20
227.2903519773667
 30
0.0
 40
3.2
100
AcDbArc
 50
270.0
 51
90.0
  0
LINE
  5
46
330
2
100
AcDbEntity
  8
0
  6
CONTINUOUS
100
AcDbLine
 10
35.11447088045861
 20
225.2903519773671
 30
0.0
 11
35.11447088045952
 21
265.2903519773672
 31
0.0
  0
ARC
  5
47
330
2
100
AcDbEntity
  8
0
  6
CONTINUOUS
100
AcDbCircle
 10
42.61447088045861
 20
227.2903519773667
 30
0.0
 40
3.2
100
AcDbArc
 50
90.0
 51
270.0
  0
DIMENSION
  5
48
102
{ACAD_XDICTIONARY
360
49
102
}
102
{ACAD_REACTORS
330
4A
102
}
330
2
100
AcDbEntity
  8
0
100
AcDbDimension
  2
*D46
 10
241.8302821692232
 20
48.43102482832183
 30
0.0
 11
241.8302821692232
 21
90.12657454806776
 31
0.0
 70
   160
  1
%%c<>
  3
STANDARD
100
AcDbAlignedDimension
 13
278.1086228888379
 23
131.4310248283218
 33
0.0
 14
278.1086228888379
 24
48.43102482832183
 34
0.0
 50
90.0
100
AcDbRotatedDimension
1001
ACAD
1000
DSTYLE
1002
{
1070
    40
1040
1.5
1002
}
  0
LINE
  5
57
102
{ACAD_REACTORS
330
7C
102
}
330
2
100
AcDbEntity
  8
0
  6
CONTINUOUS
100
AcDbLine
 10
52.11447088045861
 20
98.00118482832203
 30
0.0
 11
62.11447088045861
 21
111.501184828322
 31
0.0
  0
LINE
  5
58
330
2
100
AcDbEntity
  8
CEN
  6
CENTER
100
AcDbLine
 10
108.1144708804586
 20
24.92444532832178
 30
0.0
 11
108.1144708804586
 21
155.0779243283223
 31
0.0
  0
DIMENSION
  5
59
102
{ACAD_XDICTIONARY
360
5A
102
}
102
{ACAD_REACTORS
330
5B
102
}
330
2
100
AcDbEntity
  8
0
100
AcDbDimension
  2
*D45
 10
209.5958737361597
 20
24.00118482832203
 30
0.0
 11
209.5958737361597
 21
79.576341296784
 31
0.0
 70
   160
  3
STANDARD
100
AcDbAlignedDimension
 13
145.4144708804587
 23
136.001184828322
 33
0.0
 14
180.1144708804586
 24
24.00118482832203
 34
0.0
 50
90.0
100
AcDbRotatedDimension
1001
ACAD
1000
DSTYLE
1002
{
1070
    40
1040
1.5
1002
}
  0
LINE
  5
68
330
2
100
AcDbEntity
  8
0
  6
CONTINUOUS
100
AcDbLine
 10
154.1144708804595
 20
32.00118482832204
 30
0.0
 11
154.1144708804586
 21
128.001184828322
 31
0.0
  0
LINE
  5
69
330
2
100
AcDbEntity
  8
0
  6
CONTINUOUS
100
AcDbLine
 10
62.11447088045861
 20
32.00118482832204
 30
0.0
 11
62.11447088045861
 21
127.3011848283222
 31
0.0
  0
DIMENSION
  5
6A
102
{ACAD_XDICTIONARY
360
6B
102
}
102
{ACAD_REACTORS
330
6C
102
}
330
2
100
AcDbEntity
  8
0
100
AcDbDimension
  2
*D44
 10
67.56966803929562
 20
57.44171673421644
 30
0.0
 11
181.6697119337797
 21
149.0696561589662
 31
0.0
 70
   163
  1
<>%%P0.3
  3
STANDARD
100
AcDbDiametricDimension
 15
148.6592737216226
 25
122.5606529224285
 35
0.0
 40
0.0
1001
ACAD
1000
DSTYLE
1002
{
1070
    40
1040
1.5
1002
}
  0
CIRCLE
  5
78
330
2
100
AcDbEntity
  8
0
  6
CONTINUOUS
100
AcDbCircle
 10
108.1144708804586
 20
90.00118482832204
 30
0.0
 40
40.0
  0
ARC
  5
79
330
2
100
AcDbEntity
  8
0
  6
CONTINUOUS
100
AcDbCircle
 10
108.1144708804586
 20
90.00118482832204
 30
0.0
 40
40.0
100
AcDbArc
 50
270.0
 51
90.0
  0
DIMENSION
  5
7A
102
{ACAD_XDICTIONARY
360
7B
102
}
102
{ACAD_REACTORS
330
7C
102
}
330
2
100
AcDbEntity
  8
0
100
AcDbDimension
  2
*D43
 10
164.1144708804586
 20
174.0703133429938
 30
0.0
 11
106.494351461386
 21
174.0703133429938
 31
0.0
 70
   160
  3
STANDARD
100
AcDbAlignedDimension
 13
52.11447088045861
 23
98.00118482832203
 33
0.0
 14
164.1144708804586
 24
97.50118482832204
 34
0.0
100
AcDbRotatedDimension
1001
ACAD
1000
DSTYLE
1002
{
1070
    40
1040
1.5
1002
}
  0
CIRCLE
  5
89
330
2
100
AcDbEntity
  8
HI
100
AcDbCircle
 10
108.1144708804586
 20
90.00118482832204
 30
0.0
 40
41.5
  0
LINE
  5
8C
330
2
100
AcDbEntity
  8
0
 62
    35
100
AcDbLine
 10
62.11447088045861
 20
32.00118482832204
 30
0.0
 11
62.11447088045861
 21
111.501184828322
 31
0.0
  0
LINE
  5
8D
330
2
100
AcDbEntity
  8
0
 62
    35
100
AcDbLine
 10
154.1144708804586
 20
32.00118482832204
 30
0.0
 11
154.1144708804586
 21
111.501184828322
 31
0.0
  0
LINE
  5
8E
330
2
100
AcDbEntity
  8
0
  6
CONTINUOUS
100
AcDbLine
 10
164.1144708804586
 20
97.50118482832204
 30
0.0
 11
154.1144708804586
 21
111.501184828322
 31
0.0
  0
DIMENSION
  5
8F
102
{ACAD_XDICTIONARY
360
90
102
}
102
{ACAD_REACTORS
330
91
102
}
330
2
100
AcDbEntity
  8
0
100
AcDbDimension
  2
*D42
 10
181.1144708804586
 20
2.788839806701616
 30
0.0
 11
108.117471440737
 21
2.788839806701616
 31
0.0
 70
   160
  3
STANDARD
100
AcDbAlignedDimension
 13
35.11447088045861
 23
25.00118482832204
 33
0.0
 14
181.1144708804586
 24
25.00118482832204
 34
0.0
100
AcDbRotatedDimension
1001
ACAD
1000
DSTYLE
1002
{
1070
    40
1040
1.5
1002
}
  0
LINE
  5
9E
330
2
100
AcDbEntity
  8
CEN
  6
CENTER
100
AcDbLine
 10
179.5870306304586
 20
90.00118482832204
 30
0.0
 11
36.64191113045672
 21
90.00118482832204
 31
0.0
  0
LINE
  5
9F
330
2
100
AcDbEntity
  8
0
 62
    35
100
AcDbLine
 10
154.1144708804586
 20
32.00118482832204
 30
0.0
 11
62.11447088045861
 21
32.00118482832204
 31
0.0
  0
LINE
  5
A0
330
2
100
AcDbEntity
  8
0
  6
CONTINUOUS
100
AcDbLine
 10
154.1144708804586
 20
32.00118482832204
 30
0.0
 11
108.1144708804586
 21
32.00118482832204
 31
0.0
  0
LINE
  5
A1
330
2
100
AcDbEntity
  8
0
  6
CONTINUOUS
100
AcDbLine
 10
143.1144708804586
 20
25.00118482832204
 30
0.0
 11
73.11447088045861
 21
25.00118482832204
 31
0.0
  0
DIMENSION
  5
A2
330
2
100
AcDbEntity
  8
0
100
AcDbDimension
  2
*D41
 10
18.38079558128722
 20
90.00118482832204
 30
0.0
 11
18.3807955812872
 21
53.09308687107978
 31
0.0
 70
   160
  1
<>%%P0.5
  3
STANDARD
100
AcDbAlignedDimension
 13
36.11447088045861
 23
24.00118482832203
 33
0.0
 14
36.01880338045702
 24
90.00118482832204
 34
0.0
 50
90.0
100
AcDbRotatedDimension
1001
ACAD
1000
DSTYLE
1002
{
1070
    40
1040
1.5
1002
}
  0
LINE
  5
AF
102
{ACAD_REACTORS
330
B2
102
}
330
2
100
AcDbEntity
  8
0
  6
CONTINUOUS
100
AcDbLine
 10
52.11447088045861
 20
24.00118482832203
 30
0.0
 11
52.11447088045861
 21
98.00118482832203
 31
0.0
  0
DIMENSION
  5
B0
102
{ACAD_XDICTIONARY
360
B1
102
}
102
{ACAD_REACTORS
330
B2
102
}
330
2
100
AcDbEntity
  8
0
100
AcDbDimension
  2
*D40
 10
1.32022391535067
 20
98.00118482832205
 30
0.0
 11
1.320223915350652
 21
61.00118482832204
 31
0.0
 70
   160
  3
STANDARD
100
AcDbAlignedDimension
 13
34.61447088045861
 23
24.00118482832203
 33
0.0
 14
52.11447088045861
 24
98.00118482832203
 34
0.0
 50
90.0
100
AcDbRotatedDimension
1001
ACAD
1000
DSTYLE
1002
{
1070
    40
1040
1.5
1002
}
  0
LINE
  5
BF
330
2
100
AcDbEntity
  8
0
  6
CONTINUOUS
100
AcDbLine
 10
35.61447088045861
 20
33.00118482832203
 30
0.0
 11
51.61447088045861
 21
33.00118482832203
 31
0.0
  0
LINE
  5
C0
330
2
100
AcDbEntity
  8
0
  6
CONTINUOUS
100
AcDbLine
 10
36.11447088045861
 20
24.00118482832203
 30
0.0
 11
72.11447088045861
 21
24.00118482832203
 31
0.0
  0
ARC
  5
C1
330
2
100
AcDbEntity
  8
0
  6
CONTINUOUS
100
AcDbCircle
 10
35.61447088045861
 20
32.50118482832204
 30
0.0
 40
0.5
100
AcDbArc
 50
90.0
 51
180.0
  0
LINE
  5
C2
330
2
100
AcDbEntity
  8
0
  6
CONTINUOUS
100
AcDbLine
 10
36.11447088045861
 20
24.00118482832203
 30
0.0
 11
35.11447088045861
 21
25.00118482832204
 31
0.0
  0
LINE
  5
C3
102
{ACAD_REACTORS
330
91
102
}
330
2
100
AcDbEntity
  8
0
  6
CONTINUOUS
100
AcDbLine
 10
35.11447088045861
 20
25.00118482832204
 30
0.0
 11
35.11447088045861
 21
32.50118482832204
 31
0.0
  0
ARC
  5
C4
330
2
100
AcDbEntity
  8
0
  6
CONTINUOUS
100
AcDbCircle
 10
51.61447088045861
 20
33.50118482832204
 30
0.0
 40
0.5
100
AcDbArc
 50
270.0
 51
0.0
  0
ARC
  5
C5
330
2
100
AcDbEntity
  8
0
  6
CONTINUOUS
100
AcDbCircle
 10
51.61447088045861
 20
33.50118482832204
 30
0.0
 40
0.5
100
AcDbArc
 50
270.0
 51
0.0
  0
LINE
  5
C6
330
2
100
AcDbEntity
  8
0
  6
CONTINUOUS
100
AcDbLine
 10
73.11447088045861
 20
25.00118482832204
 30
0.0
 11
72.11447088045861
 21
24.00118482832203
 31
0.0
  0
LINE
  5
C7
330
2
100
AcDbEntity
  8
0
 62
    35
100
AcDbLine
 10
62.11447088045861
 20
32.00118482832204
 30
0.0
 11
52.11447088045861
 21
24.00118482832203
 31
0.0
  0
ARC
  5
C8
330
2
100
AcDbEntity
  8
CEN
  6
CENTER
 48
0.5
100
AcDbCircle
 10
108.1144708804586
 20
90.00118482832204
 30
0.0
 40
52.0
100
AcDbArc
 50
212.7373040000039
 51
231.8611529999974
  0
LINE
  5
C9
330
2
100
AcDbEntity
  8
CEN
  6
CENTER
 48
0.5
100
AcDbLine
 10
76.07472875875737
 20
57.96144270662262
 30
0.0
 11
66.6151077587574
 21
48.50182170662264
 31
0.0
  0
CIRCLE
  5
CA
330
2
100
AcDbEntity
  8
0
  6
CONTINUOUS
100
AcDbCircle
 10
71.34491908768177
 20
53.23163303555521
 30
0.0
 40
2.666666666666666
  0
ARC
  5
CB
330
2
100
AcDbEntity
  8
0
  6
CONTINUOUS
 62
     3
100
AcDbCircle
 10
71.34491908768177
 20
53.23163303555521
 30
0.0
 40
3.999999999999999
100
AcDbArc
 50
269.9999999999913
 51
180.0
  0
ARC
  5
CC
330
2
100
AcDbEntity
  8
CEN
  6
CENTER
 48
0.5
100
AcDbCircle
 10
108.1144708804586
 20
90.00118482832204
 30
0.0
 40
52.0
100
AcDbArc
 50
302.7373040000039
 51
321.8611529999973
  0
LINE
  5
CD
330
2
100
AcDbEntity
  8
0
  6
CONTINUOUS
100
AcDbLine
 10
164.1144708804586
 20
25.00118482832204
 30
0.0
 11
164.1144708804586
 21
97.50118482832204
 31
0.0
  0
LINE
  5
CE
330
2
100
AcDbEntity
  8
0
  6
CONTINUOUS
100
AcDbLine
 10
180.6144708804586
 20
33.00118482832203
 30
0.0
 11
164.6144708804586
 21
33.00118482832203
 31
0.0
  0
LINE
  5
CF
330
2
100
AcDbEntity
  8
0
  6
CONTINUOUS
100
AcDbLine
 10
180.1144708804586
 20
24.00118482832203
 30
0.0
 11
144.1144708804586
 21
24.00118482832203
 31
0.0
  0
ARC
  5
D0
330
2
100
AcDbEntity
  8
0
  6
CONTINUOUS
100
AcDbCircle
 10
164.6144708804586
 20
33.50118482832204
 30
0.0
 40
0.5
100
AcDbArc
 50
180.0
 51
270.0
  0
LINE
  5
D1
330
2
100
AcDbEntity
  8
0
  6
CONTINUOUS
100
AcDbLine
 10
143.1144708804586
 20
25.00118482832204
 30
0.0
 11
144.1144708804586
 21
24.00118482832203
 31
0.0
  0
LINE
  5
D2
330
2
100
AcDbEntity
  8
0
 62
    35
100
AcDbLine
 10
154.1144708804595
 20
32.00118482832204
 30
0.0
 11
164.1144708804586
 21
24.00118482832203
 31
0.0
  0
DIMENSION
  5
D3
330
2
100
AcDbEntity
  8
0
100
AcDbDimension
  2
*D39
 10
135.3023961535527
 20
25.00118482832204
 30
0.0
 11
135.3023961535527
 21
11.4654705426069
 31
0.0
 70
   160
  3
STANDARD
100
AcDbAlignedDimension
 13
144.1144708804586
 23
24.00118482832203
 33
0.0
 14
140.9158442699717
 24
25.00118482832204
 34
0.0
 50
90.0
100
AcDbRotatedDimension
1001
ACAD
1000
DSTYLE
1002
{
1070
    40
1040
1.5
1002
}
  0
ARC
  5
E2
330
2
100
AcDbEntity
  8
0
  6
CONTINUOUS
100
AcDbCircle
 10
180.6144708804586
 20
32.50118482832204
 30
0.0
 40
0.5
100
AcDbArc
 50
0.0
 51
90.0
  0
LINE
  5
E3
102
{ACAD_REACTORS
330
5B
102
}
330
2
100
AcDbEntity
  8
0
  6
CONTINUOUS
100
AcDbLine
 10
180.1144708804586
 20
24.00118482832203
 30
0.0
 11
181.1144708804586
 21
25.00118482832204
 31
0.0
  0
LINE
  5
E4
102
{ACAD_REACTORS
330
91
102
}
330
2
100
AcDbEntity
  8
0
  6
CONTINUOUS
100
AcDbLine
 10
181.1144708804586
 20
25.00118482832204
 30
0.0
 11
181.1144708804586
 21
32.50118482832204
 31
0.0
  0
DIMENSION
  5
E5
330
2
100
AcDbEntity
  8
0
100
AcDbDimension
  2
*D38
 10
197.9885879526864
 20
33.00118482832203
 30
0.0
 11
197.9885879526864
 21
28.50118482832207
 31
0.0
 70
   160
  3
STANDARD
100
AcDbAlignedDimension
 13
180.1144708804586
 23
24.00118482832203
 33
0.0
 14
180.6144708804586
 24
33.00118482832203
 34
0.0
 50
90.0
100
AcDbRotatedDimension
1001
ACAD
1000
DSTYLE
1002
{
1070
    40
1040
1.5
1002
}
  0
LINE
  5
F4
330
2
100
AcDbEntity
  8
CEN
  6
CENTER
 48
0.5
100
AcDbLine
 10
140.1542130021589
 20
57.96144270662171
 30
0.0
 11
149.6138340021589
 21
48.50182170662174
 31
0.0
  0
CIRCLE
  5
F5
330
2
100
AcDbEntity
  8
0
  6
CONTINUOUS
100
AcDbCircle
 10
144.8840226732199
 20
53.23163303554975
 30
0.0
 40
2.666666666666665
  0
ARC
  5
F6
330
2
100
AcDbEntity
  8
0
  6
CONTINUOUS
 62
     3
100
AcDbCircle
 10
144.8840226732199
 20
53.23163303554975
 30
0.0
 40
3.999999999999998
100
AcDbArc
 50
269.9999999999913
 51
180.0
  0
LINE
  5
F7
330
2
100
AcDbEntity
  8
0
  6
CONTINUOUS
100
AcDbLine
 10
146.1144708804586
 20
136.001184828322
 30
0.0
 11
70.11447088045861
 21
136.001184828322
 31
0.0
  0
DIMENSION
  5
F8
330
2
100
AcDbEntity
  8
0
100
AcDbDimension
  2
*D37
 10
154.1144708804586
 20
161.1192453185444
 30
0.0
 11
108.1144708804586
 21
161.1192453185444
 31
0.0
 70
   160
  3
STANDARD
100
AcDbAlignedDimension
 13
62.11447088045861
 23
127.3011848283222
 33
0.0
 14
154.1144708804586
 24
127.3011848283222
 34
0.0
100
AcDbRotatedDimension
1001
ACAD
1000
DSTYLE
1002
{
1070
    40
1040
1.5
1002
}
  0
LINE
  5
105
330
2
100
AcDbEntity
  8
0
  6
CONTINUOUS
100
AcDbLine
 10
166.1144708804586
 20
210.2903519773667
 30
0.0
 11
50.11447088045861
 21
210.2903519773672
 31
0.0
  0
LINE
  5
106
330
2
100
AcDbEntity
  8
0
  6
CONTINUOUS
100
AcDbLine
 10
164.1144708804586
 20
219.2903519773667
 30
0.0
 11
52.11447088045861
 21
219.2903519773667
 31
0.0
  0
LEADER
  5
107
330
2
100
AcDbEntity
  8
0
100
AcDbLeader
  3
STANDARD
 73
     0
 75
     1
 40
4.5
 41
41.14285714285713
 76
     3
 10
67.70380467384348
 20
128.4267221345435
 30
0.0
 10
46.00292373867887
 20
144.9265951829684
 30
0.0
 10
40.75292373867887
 20
144.9265951829684
 30
0.0
340
108
1001
ACAD
1000
DSTYLE
1002
{
1070
     5
1000

1070
    40
1040
1.5
1070
    77
1070
     1
1070
   147
1040
1.0
1070
   342
1005
0
1002
}
  0
MTEXT
  5
108
102
{ACAD_REACTORS
330
107
102
}
330
2
100
AcDbEntity
  8
0
 62
     3
100
AcDbMText
 10
39.25292373867887
 20
146.4265951829684
 30
0.0
 40
4.5
 41
0.0
 71
     9
 72
     1
  1
4-M8xP1.25
1001
ACAD
1000
MTEXTBEGIN
1070
    73
1070
     1
1070
    44
1040
1.0
1070
    74
1070
     0
1000
MTEXTEND
  0
ARC
  5
109
330
2
100
AcDbEntity
  8
CEN
  6
CENTER
 48
0.5
100
AcDbCircle
 10
108.1144708804586
 20
90.00118482832158
 30
0.0
 40
52.0
100
AcDbArc
 50
122.7373040000039
 51
141.8611529999974
  0
LINE
  5
10A
330
2
100
AcDbEntity
  8
CEN
  6
CENTER
 48
0.5
100
AcDbLine
 10
75.89393988045867
 20
122.2217158283219
 30
0.0
 11
66.43431888045871
 21
131.6813368283219
 31
0.0
  0
LINE
  5
10B
330
2
100
AcDbEntity
  8
0
  6
CONTINUOUS
100
AcDbLine
 10
62.11447088045861
 20
111.501184828322
 30
0.0
 11
62.11447088045861
 21
128.001184828322
 31
0.0
  0
ARC
  5
10C
330
2
100
AcDbEntity
  8
0
  6
CONTINUOUS
100
AcDbCircle
 10
70.11447088045861
 20
128.001184828322
 30
0.0
 40
8.0
100
AcDbArc
 50
90.0
 51
180.0
  0
ARC
  5
10D
330
2
100
AcDbEntity
  8
0
  6
CONTINUOUS
 62
     3
100
AcDbCircle
 10
71.34491888045523
 20
126.7707368283258
 30
0.0
 40
3.999999999999999
100
AcDbArc
 50
269.9999999999913
 51
180.0
  0
CIRCLE
  5
10E
330
2
100
AcDbEntity
  8
0
  6
CONTINUOUS
100
AcDbCircle
 10
71.34491888045523
 20
126.7707368283258
 30
0.0
 40
2.666666666666666
  0
ARC
  5
10F
330
2
100
AcDbEntity
  8
0
  6
CONTINUOUS
100
AcDbCircle
 10
50.11447088045861
 20
225.2903519773671
 30
0.0
 40
15.0
100
AcDbArc
 50
180.0
 51
270.0
  0
LINE
  5
110
330
2
100
AcDbEntity
  8
CEN
  6
CENTER
 48
0.5
100
AcDbLine
 10
37.73893988045893
 20
227.2903519773667
 30
0.0
 11
50.80278888045905
 21
227.2903519773667
 31
0.0
  0
LINE
  5
111
330
2
100
AcDbEntity
  8
0
  6
CONTINUOUS
100
AcDbLine
 10
42.31447088045934
 20
224.0903519773664
 30
0.0
 11
45.91447088045879
 21
224.0903519773664
 31
0.0
  0
LINE
  5
112
330
2
100
AcDbEntity
  8
0
  6
CONTINUOUS
100
AcDbLine
 10
49.31447088045934
 20
227.2903519773667
 30
0.0
 11
49.33609688045908
 21
227.2903519773667
 31
0.0
  0
LINE
  5
113
330
2
100
AcDbEntity
  8
CEN
  6
CENTER
 48
0.5
100
AcDbLine
 10
140.3350018804585
 20
122.2217158283219
 30
0.0
 11
149.7946228804585
 21
131.6813368283219
 31
0.0
  0
ARC
  5
114
102
{ACAD_REACTORS
330
6C
102
}
330
2
100
AcDbEntity
  8
CEN
  6
CENTER
 48
0.5
100
AcDbCircle
 10
108.1144708804586
 20
90.00118482832204
 30
0.0
 40
52.0
100
AcDbArc
 50
32.73730400000394
 51
51.86115299999745
  0
ARC
  5
115
330
2
100
AcDbEntity
  8
0
  6
CONTINUOUS
100
AcDbCircle
 10
146.1144708804586
 20
128.001184828322
 30
0.0
 40
8.0
100
AcDbArc
 50
0.0
 51
90.0
  0
CIRCLE
  5
116
330
2
100
AcDbEntity
  8
0
  6
CONTINUOUS
100
AcDbCircle
 10
144.8840226732245
 20
126.7707366210888
 30
0.0
 40
2.666666666666666
  0
ARC
  5
117
330
2
100
AcDbEntity
  8
0
  6
CONTINUOUS
 62
     3
100
AcDbCircle
 10
144.8840226732245
 20
126.7707366210888
 30
0.0
 40
3.999999999999999
100
AcDbArc
 50
269.9999999999913
 51
180.0
  0
DIMENSION
  5
118
102
{ACAD_XDICTIONARY
360
119
102
}
102
{ACAD_REACTORS
330
11A
102
}
330
2
100
AcDbEntity
  8
0
100
AcDbDimension
  2
*D36
 10
202.6580664101875
 20
227.2903519773667
 30
0.0
 11
202.6580664101875
 21
219.3684739275536
 31
0.0
 70
   160
  3
STANDARD
100
AcDbAlignedDimension
 13
164.1144708804586
 23
210.2903519773667
 33
0.0
 14
178.0292998804589
 24
227.2903519773667
 34
0.0
 50
90.0
100
AcDbRotatedDimension
1001
ACAD
1000
DSTYLE
1002
{
1070
    40
1040
1.5
1002
}
  0
ARC
  5
127
330
2
100
AcDbEntity
  8
0
  6
CONTINUOUS
100
AcDbCircle
 10
166.1144708804586
 20
225.2903519773667
 30
0.0
 40
15.0
100
AcDbArc
 50
269.9999999999998
 51
0.0
  0
LINE
  5
128
330
2
100
AcDbEntity
  8
CEN
  6
CENTER
 48
0.5
100
AcDbLine
 10
165.7389398804589
 20
227.2903519773667
 30
0.0
 11
178.802788880459
 21
227.2903519773667
 31
0.0
  0
LINE
  5
129
330
2
100
AcDbEntity
  8
0
  6
CONTINUOUS
100
AcDbLine
 10
170.3144708804584
 20
224.0903519773664
 30
0.0
 11
173.9144708804587
 21
224.0903519773664
 31
0.0
  0
LINE
  5
12A
330
2
100
AcDbEntity
  8
0
  6
CONTINUOUS
100
AcDbLine
 10
166.9144708804587
 20
227.2903519773667
 30
0.0
 11
166.8928438804587
 21
227.2903519773667
 31
0.0
  0
LINE
  5
12B
330
2
100
AcDbEntity
  8
0
  6
CONTINUOUS
100
AcDbLine
 10
177.3144708804584
 20
227.2903519773667
 30
0.0
 11
177.336096880459
 21
227.2903519773667
 31
0.0
  0
LINE
  5
12C
102
{ACAD_REACTORS
330
188
330
171
102
}
330
2
100
AcDbEntity
  8
0
  6
CONTINUOUS
100
AcDbLine
 10
281.108622888838
 20
98.43102482832183
 30
0.0
 11
281.108622888838
 21
135.4310248283218
 31
0.0
  0
LINE
  5
12D
330
2
100
AcDbEntity
  8
0
 62
    35
100
AcDbLine
 10
273.608622888838
 20
97.93102482832182
 30
0.0
 11
272.1086228888379
 21
111.4310248283218
 31
0.0
  0
DIMENSION
  5
12E
102
{ACAD_XDICTIONARY
360
12F
102
}
102
{ACAD_REACTORS
330
130
102
}
330
2
100
AcDbEntity
  8
0
100
AcDbDimension
  2
*D35
 10
253.6328390672752
 20
49.93102482832183
 30
0.0
 11
253.6328390672752
 21
89.92489652042332
 31
0.0
 70
   160
  1
%%c<>
  3
STANDARD
100
AcDbAlignedDimension
 13
272.1086228888379
 23
129.9310248283218
 33
0.0
 14
272.1086228888379
 24
49.93102482832182
 34
0.0
 50
90.0
100
AcDbRotatedDimension
1001
ACAD
1000
DSTYLE
1002
{
1070
    40
1040
1.5
1002
}
  0
LINE
  5
13D
102
{ACAD_REACTORS
330
171
330
4A
102
}
330
2
100
AcDbEntity
  8
HI
100
AcDbLine
 10
278.1086228888379
 20
48.43102482832183
 30
0.0
 11
278.1086228888379
 21
131.4310248283218
 31
0.0
  0
LINE
  5
13E
330
2
100
AcDbEntity
  8
HI
100
AcDbLine
 10
278.1086228888379
 20
48.43102482832183
 30
0.0
 11
278.1086228888379
 21
131.4310248283218
 31
0.0
  0
LINE
  5
13F
102
{ACAD_REACTORS
330
157
330
188
102
}
330
2
100
AcDbEntity
  8
0
  6
CONTINUOUS
100
AcDbLine
 10
272.1086228888379
 20
31.93102482832182
 30
0.0
 11
272.1086228888379
 21
135.4310248283218
 31
0.0
  0
DIMENSION
  5
140
102
{ACAD_XDICTIONARY
360
141
102
}
102
{ACAD_REACTORS
330
142
102
}
330
2
100
AcDbEntity
  8
0
100
AcDbDimension
  2
*D34
 10
337.108622888838
 20
50.86491377667835
 30
0.0
 11
324.7585302557618
 21
50.86491377667835
 31
0.0
 70
   160
  3
STANDARD
100
AcDbAlignedDimension
 13
307.108622888838
 23
32.93102482832182
 33
0.0
 14
337.108622888838
 24
28.43102482832182
 34
0.0
100
AcDbRotatedDimension
1001
ACAD
1000
DSTYLE
1002
{
1070
    40
1040
1.5
1002
}
  0
LINE
  5
14F
330
2
100
AcDbEntity
  8
0
 62
    35
100
AcDbLine
 10
273.608622888838
 20
24.93102482832182
 30
0.0
 11
273.608622888838
 21
97.9310248283182
 31
0.0
  0
LINE
  5
150
330
2
100
AcDbEntity
  8
0
  6
CONTINUOUS
100
AcDbLine
 10
281.108622888838
 20
98.43102482832183
 30
0.0
 11
281.108622888838
 21
32.93102482832182
 31
0.0
  0
LINE
  5
151
102
{ACAD_REACTORS
330
142
102
}
330
2
100
AcDbEntity
  8
0
  6
CONTINUOUS
100
AcDbLine
 10
281.108622888838
 20
98.43102482832183
 30
0.0
 11
307.108622888838
 21
32.93102482832182
 31
0.0
  0
LINE
  5
152
330
2
100
AcDbEntity
  8
0
  6
CONTINUOUS
100
AcDbLine
 10
281.108622888838
 20
98.43102482832183
 30
0.0
 11
281.108622888838
 21
32.93102482832182
 31
0.0
  0
LINE
  5
153
330
2
100
AcDbEntity
  8
0
  6
CONTINUOUS
100
AcDbLine
 10
336.108622888838
 20
32.93102482832182
 30
0.0
 11
273.608622888838
 21
32.93102482832182
 31
0.0
  0
LINE
  5
154
330
2
100
AcDbEntity
  8
0
  6
CONTINUOUS
100
AcDbLine
 10
336.108622888838
 20
23.93102482832182
 30
0.0
 11
274.6313243933573
 21
23.93102482832182
 31
0.0
  0
DIMENSION
  5
155
102
{ACAD_XDICTIONARY
360
156
102
}
102
{ACAD_REACTORS
330
157
102
}
330
2
100
AcDbEntity
  8
0
100
AcDbDimension
  2
*D33
 10
337.108622888838
 20
6.902472264148855
 30
0.0
 11
304.880065744368
 21
6.902472264148855
 31
0.0
 70
   160
  3
STANDARD
100
AcDbAlignedDimension
 13
272.1086228888379
 23
31.93102482832182
 33
0.0
 14
337.108622888838
 24
24.93102482832182
 34
0.0
100
AcDbRotatedDimension
1001
ACAD
1000
DSTYLE
1002
{
1070
    40
1040
1.5
1002
}
  0
ARC
  5
164
330
2
100
AcDbEntity
  8
0
  6
CONTINUOUS
100
AcDbCircle
 10
274.6313243933573
 20
24.93102482832182
 30
0.0
 40
1.0
100
AcDbArc
 50
192.0947570770108
 51
270.0
  0
LINE
  5
165
330
2
100
AcDbEntity
  8
0
  6
CONTINUOUS
100
AcDbLine
 10
272.1086228888379
 20
31.93102482832182
 30
0.0
 11
273.6535219792804
 21
24.72149573959132
 31
0.0
  0
ARC
  5
166
330
2
100
AcDbEntity
  8
0
  6
CONTINUOUS
100
AcDbCircle
 10
336.108622888838
 20
31.93102482832182
 30
0.0
 40
1.0
100
AcDbArc
 50
0.0
 51
90.0
  0
ARC
  5
167
330
2
100
AcDbEntity
  8
0
  6
CONTINUOUS
100
AcDbCircle
 10
336.108622888838
 20
24.93102482832182
 30
0.0
 40
1.0
100
AcDbArc
 50
270.0
 51
0.0
  0
LINE
  5
168
102
{ACAD_REACTORS
330
142
330
157
102
}
330
2
100
AcDbEntity
  8
0
  6
CONTINUOUS
100
AcDbLine
 10
337.108622888838
 20
24.93102482832182
 30
0.0
 11
337.108622888838
 21
31.93102482832182
 31
0.0
  0
LINE
  5
169
330
2
100
AcDbEntity
  8
0
 62
    35
100
AcDbLine
 10
281.108622888838
 20
97.93102482832182
 30
0.0
 11
273.608622888838
 21
97.93102482832182
 31
0.0
  0
LINE
  5
16A
102
{ACAD_REACTORS
330
130
102
}
330
2
100
AcDbEntity
  8
HI
100
AcDbLine
 10
278.1086228888379
 20
49.93102482832182
 30
0.0
 11
272.1086228888379
 21
49.93102482832182
 31
0.0
  0
LINE
  5
16B
330
2
100
AcDbEntity
  8
HI
100
AcDbLine
 10
281.108622888838
 20
48.43102482832183
 30
0.0
 11
278.1086228888379
 21
48.43102482832183
 31
0.0
  0
LINE
  5
16C
330
2
100
AcDbEntity
  8
HI
100
AcDbLine
 10
281.108622888838
 20
48.43102482832183
 30
0.0
 11
278.1086228888379
 21
48.43102482832183
 31
0.0
  0
LINE
  5
16D
330
2
100
AcDbEntity
  8
CEN
  6
CENTER
100
AcDbLine
 10
294.8772948888381
 20
89.93102482832183
 30
0.0
 11
263.6709758888373
 21
89.93102482832183
 31
0.0
  0
LINE
  5
16E
330
2
100
AcDbEntity
  8
0
 62
    35
100
AcDbLine
 10
281.108622888838
 20
111.4310248283218
 30
0.0
 11
272.1086228888379
 21
111.4310248283218
 31
0.0
  0
DIMENSION
  5
16F
102
{ACAD_XDICTIONARY
360
170
102
}
102
{ACAD_REACTORS
330
171
102
}
330
2
100
AcDbEntity
  8
0
100
AcDbDimension
  2
*D32
 10
281.108622888838
 20
148.5140514719014
 30
0.0
 11
294.6086228888379
 21
148.5140514719014
 31
0.0
 70
   160
  3
STANDARD
100
AcDbAlignedDimension
 13
278.1086228888379
 23
131.4310248283218
 33
0.0
 14
281.108622888838
 24
135.4310248283218
 34
0.0
100
AcDbRotatedDimension
1001
ACAD
1000
DSTYLE
1002
{
1070
    40
1040
1.5
1002
}
  0
ARC
  5
180
330
2
100
AcDbEntity
  8
0
  6
CONTINUOUS
100
AcDbCircle
 10
280.6086228888379
 20
135.4310248283218
 30
0.0
 40
0.5
100
AcDbArc
 50
0.000000000000007
 51
90.0
  0
LINE
  5
181
102
{ACAD_REACTORS
330
130
102
}
330
2
100
AcDbEntity
  8
HI
100
AcDbLine
 10
278.1086228888379
 20
129.9310248283218
 30
0.0
 11
272.1086228888379
 21
129.9310248283218
 31
0.0
  0
ARC
  5
182
330
2
100
AcDbEntity
  8
0
  6
CONTINUOUS
100
AcDbCircle
 10
272.608622888838
 20
135.4310248283218
 30
0.0
 40
0.5
100
AcDbArc
 50
90.0
 51
180.0
  0
LINE
  5
183
330
2
100
AcDbEntity
  8
0
  6
CONTINUOUS
100
AcDbLine
 10
280.6086228888379
 20
135.9310248283218
 30
0.0
 11
272.608622888838
 21
135.9310248283218
 31
0.0
  0
LINE
  5
184
330
2
100
AcDbEntity
  8
HI
100
AcDbLine
 10
281.108622888838
 20
131.4310248283218
 30
0.0
 11
278.1086228888379
 21
131.4310248283218
 31
0.0
  0
LINE
  5
185
330
2
100
AcDbEntity
  8
HI
100
AcDbLine
 10
281.108622888838
 20
131.4310248283218
 30
0.0
 11
278.1086228888379
 21
131.4310248283218
 31
0.0
  0
DIMENSION
  5
186
102
{ACAD_XDICTIONARY
360
187
102
}
102
{ACAD_REACTORS
330
188
102
}
330
2
100
AcDbEntity
  8
0
100
AcDbDimension
  2
*D31
 10
281.108622888838
 20
159.145436441101
 30
0.0
 11
276.6086228888379
 21
159.145436441101
 31
0.0
 70
   160
  3
STANDARD
100
AcDbAlignedDimension
 13
272.1086228888379
 23
135.4310248283218
 33
0.0
 14
281.108622888838
 24
135.4310248283218
 34
0.0
100
AcDbRotatedDimension
1001
ACAD
1000
DSTYLE
1002
{
1070
    40
1040
1.5
1002
}
  0
LINE
  5
197
102
{ACAD_REACTORS
330
1D0
102
}
330
2
100
AcDbEntity
  8
0
  6
CONTINUOUS
100
AcDbLine
 10
125.1144708804586
 20
232.2903519773667
 30
0.0
 11
91.11447088045862
 21
232.2903519773667
 31
0.0
  0
DIMENSION
  5
198
102
{ACAD_XDICTIONARY
360
199
102
}
102
{ACAD_REACTORS
330
19A
102
}
330
2
100
AcDbEntity
  8
0
100
AcDbDimension
  2
*D30
 10
133.1144708804586
 20
296.4723636056637
 30
0.0
 11
106.0463409449312
 21
296.4723636056637
 31
0.0
 70
   160
  3
STANDARD
100
AcDbAlignedDimension
 13
83.11447088045861
 23
265.2903519773667
 33
0.0
 14
133.1144708804586
 24
265.2903519773672
 34
0.0
100
AcDbRotatedDimension
1001
ACAD
1000
DSTYLE
1002
{
1070
    40
1040
1.5
1002
}
  0
DIMENSION
  5
1A7
102
{ACAD_XDICTIONARY
360
1A8
102
}
102
{ACAD_REACTORS
330
1A9
102
}
330
2
100
AcDbEntity
  8
0
100
AcDbDimension
  2
*D29
 10
48.81447088045824
 20
286.7926395541994
 30
0.0
 11
22.59304230903004
 21
286.7926395541994
 31
0.0
 70
   160
  3
STANDARD
100
AcDbAlignedDimension
 13
39.4144708804586
 23
267.2903519773667
 33
0.0
 14
48.81447088045824
 24
267.2903519773667
 34
0.0
100
AcDbRotatedDimension
1001
ACAD
1000
DSTYLE
1002
{
1070
    40
1040
1.5
1002
}
  0
LINE
  5
1B8
330
2
100
AcDbEntity
  8
0
  6
CONTINUOUS
100
AcDbLine
 10
42.31447088045934
 20
230.490351977367
 30
0.0
 11
45.91447088045879
 21
230.490351977367
 31
0.0
  0
LINE
  5
1B9
330
2
100
AcDbEntity
  8
0
  6
CONTINUOUS
100
AcDbLine
 10
42.31447088045934
 20
264.0903519773664
 30
0.0
 11
45.91447088045879
 21
264.0903519773664
 31
0.0
  0
LINE
  5
1BA
330
2
100
AcDbEntity
  8
0
  6
CONTINUOUS
100
AcDbLine
 10
42.31447088045934
 20
270.490351977367
 30
0.0
 11
45.91447088045879
 21
270.490351977367
 31
0.0
  0
LINE
  5
1BB
330
2
100
AcDbEntity
  8
CEN
  6
CENTER
 48
0.5
100
AcDbLine
 10
37.73893988045893
 20
267.2903519773667
 30
0.0
 11
50.80278888045905
 21
267.2903519773667
 31
0.0
  0
ARC
  5
1BC
330
2
100
AcDbEntity
  8
0
  6
CONTINUOUS
100
AcDbCircle
 10
45.11447088045952
 20
265.2903519773667
 30
0.0
 40
10.0
100
AcDbArc
 50
90.0
 51
179.9999999999992
  0
ARC
  5
1BD
102
{ACAD_REACTORS
330
1A9
102
}
330
2
100
AcDbEntity
  8
0
  6
CONTINUOUS
100
AcDbCircle
 10
42.61447088045861
 20
267.2903519773667
 30
0.0
 40
3.2
100
AcDbArc
 50
90.0
 51
270.0
  0
DIMENSION
  5
1BE
330
2
100
AcDbEntity
  8
0
100
AcDbDimension
  2
*D28
 10
26.17214483103639
 20
270.490351977367
 30
0.0
 11
26.17214483103635
 21
267.2903519773667
 31
0.0
 70
   160
  3
STANDARD
100
AcDbAlignedDimension
 13
42.61447088045861
 23
264.0903519773664
 33
0.0
 14
42.61447088045861
 24
270.490351977367
 34
0.0
 50
90.0
100
AcDbRotatedDimension
1001
ACAD
1000
DSTYLE
1002
{
1070
    40
1040
1.5
1002
}
  0
LINE
  5
1CD
330
2
100
AcDbEntity
  8
0
  6
CONTINUOUS
100
AcDbLine
 10
83.11447088045861
 20
240.2903519773667
 30
0.0
 11
83.11447088045861
 21
265.2903519773667
 31
0.0
  0
DIMENSION
  5
1CE
102
{ACAD_XDICTIONARY
360
1CF
102
}
102
{ACAD_REACTORS
330
1D0
102
}
330
2
100
AcDbEntity
  8
0
100
AcDbDimension
  2
*D27
 10
98.3994646680167
 20
275.2903519773667
 30
0.0
 11
98.39946466801666
 21
252.7019868886868
 31
0.0
 70
   160
  3
STANDARD
100
AcDbAlignedDimension
 13
91.11447088045862
 23
232.2903519773667
 33
0.0
 14
73.11447088045861
 24
275.2903519773667
 34
0.0
 50
90.0
100
AcDbRotatedDimension
1001
ACAD
1000
DSTYLE
1002
{
1070
    40
1040
1.5
1002
}
  0
ARC
  5
1DD
330
2
100
AcDbEntity
  8
0
  6
CONTINUOUS
100
AcDbCircle
 10
91.11447088045862
 20
240.2903519773667
 30
0.0
 40
8.0
100
AcDbArc
 50
180.0
 51
270.0
  0
LINE
  5
1DE
330
2
100
AcDbEntity
  8
0
  6
CONTINUOUS
100
AcDbLine
 10
45.11447088045952
 20
275.2903519773667
 30
0.0
 11
73.11447088045861
 21
275.2903519773667
 31
0.0
  0
ARC
  5
1DF
102
{ACAD_REACTORS
330
1A9
102
}
330
2
100
AcDbEntity
  8
0
  6
CONTINUOUS
100
AcDbCircle
 10
45.61447088045861
 20
267.2903519773667
 30
0.0
 40
3.2
100
AcDbArc
 50
270.0
 51
90.0
  0
LINE
  5
1E0
330
2
100
AcDbEntity
  8
0
  6
CONTINUOUS
100
AcDbLine
 10
49.31447088045934
 20
267.2903519773667
 30
0.0
 11
49.33609688045908
 21
267.2903519773667
 31
0.0
  0
LINE
  5
1E1
102
{ACAD_REACTORS
330
20C
102
}
330
2
100
AcDbEntity
  8
CEN
  6
CENTER
 48
0.5
100
AcDbLine
 10
44.11447088045861
 20
262.8594319773664
 30
0.0
 11
44.11447088045861
 21
271.6068109773668
 31
0.0
  0
LINE
  5
1E2
330
2
100
AcDbEntity
  8
0
  6
CONTINUOUS
100
AcDbLine
 10
52.11447088045861
 20
246.2903519773667
 30
0.0
 11
61.11447088045861
 21
246.2903519773667
 31
0.0
  0
ARC
  5
1E3
102
{ACAD_REACTORS
330
1D0
330
19A
102
}
330
2
100
AcDbEntity
  8
0
  6
CONTINUOUS
100
AcDbCircle
 10
73.11447088045861
 20
265.2903519773667
 30
0.0
 40
10.0
100
AcDbArc
 50
0.0
 51
90.0
  0
DIMENSION
  5
1E4
102
{ACAD_XDICTIONARY
360
1E5
102
}
102
{ACAD_REACTORS
330
1E6
102
}
330
2
100
AcDbEntity
  8
0
100
AcDbDimension
  2
*D26
 10
171.1144708804585
 20
265.2903519773666
 30
0.0
 11
191.100886810833
 21
284.5929190767354
 31
0.0
 70
   164
  3
STANDARD
100
AcDbRadialDimension
 15
178.3075254569431
 25
272.2372912933351
 35
0.0
 40
0.0
1001
ACAD
1000
DSTYLE
1002
{
1070
    40
1040
1.5
1002
}
  0
DIMENSION
  5
1F0
102
{ACAD_XDICTIONARY
360
1F1
102
}
102
{ACAD_REACTORS
330
1F2
102
}
330
2
100
AcDbEntity
  8
0
100
AcDbDimension
  2
*D25
 10
143.1144708804586
 20
265.2903519773672
 30
0.0
 11
123.2016919005136
 21
284.6688749258205
 31
0.0
 70
   164
  3
STANDARD
100
AcDbRadialDimension
 15
135.9479180342047
 25
272.2646275886369
 35
0.0
 40
0.0
1001
ACAD
1000
DSTYLE
1002
{
1070
    40
1040
1.5
1002
}
  0
LINE
  5
1FC
330
2
100
AcDbEntity
  8
CEN
  6
CENTER
 48
0.5
100
AcDbLine
 10
165.7389398804589
 20
267.2903519773667
 30
0.0
 11
178.802788880459
 21
267.2903519773667
 31
0.0
  0
ARC
  5
1FD
102
{ACAD_REACTORS
330
1E6
102
}
330
2
100
AcDbEntity
  8
0
  6
CONTINUOUS
100
AcDbCircle
 10
171.1144708804586
 20
265.2903519773667
 30
0.0
 40
10.0
100
AcDbArc
 50
0.0
 51
90.0
  0
LINE
  5
1FE
102
{ACAD_REACTORS
330
19A
102
}
330
2
100
AcDbEntity
  8
0
  6
CONTINUOUS
100
AcDbLine
 10
133.1144708804586
 20
240.2903519773667
 30
0.0
 11
133.1144708804586
 21
265.2903519773672
 31
0.0
  0
ARC
  5
1FF
330
2
100
AcDbEntity
  8
0
  6
CONTINUOUS
100
AcDbCircle
 10
125.1144708804586
 20
240.2903519773667
 30
0.0
 40
8.0
100
AcDbArc
 50
270.0
 51
0.0
  0
LINE
  5
200
330
2
100
AcDbEntity
  8
0
  6
CONTINUOUS
100
AcDbLine
 10
170.3144708804584
 20
230.490351977367
 30
0.0
 11
173.9144708804587
 21
230.490351977367
 31
0.0
  0
LINE
  5
201
330
2
100
AcDbEntity
  8
CEN
  6
CENTER
 48
0.5
100
AcDbLine
 10
172.1144708804586
 20
262.8594319773664
 30
0.0
 11
172.1144708804586
 21
271.6068109773668
 31
0.0
  0
LINE
  5
202
330
2
100
AcDbEntity
  8
0
  6
CONTINUOUS
100
AcDbLine
 10
171.1144708804586
 20
275.2903519773667
 30
0.0
 11
143.1144708804586
 21
275.2903519773671
 31
0.0
  0
LINE
  5
203
330
2
100
AcDbEntity
  8
0
  6
CONTINUOUS
100
AcDbLine
 10
170.3144708804584
 20
270.490351977367
 30
0.0
 11
173.9144708804587
 21
270.490351977367
 31
0.0
  0
LINE
  5
204
330
2
100
AcDbEntity
  8
0
  6
CONTINUOUS
100
AcDbLine
 10
170.3144708804584
 20
264.0903519773664
 30
0.0
 11
173.9144708804587
 21
264.0903519773664
 31
0.0
  0
ARC
  5
205
330
2
100
AcDbEntity
  8
0
  6
CONTINUOUS
100
AcDbCircle
 10
170.6144708804586
 20
267.2903519773667
 30
0.0
 40
3.2
100
AcDbArc
 50
90.0
 51
270.0
  0
LINE
  5
206
330
2
100
AcDbEntity
  8
0
  6
CONTINUOUS
100
AcDbLine
 10
164.1144708804586
 20
246.2903519773667
 30
0.0
 11
155.1144708804586
 21
246.2903519773667
 31
0.0
  0
ARC
  5
207
330
2
100
AcDbEntity
  8
0
  6
CONTINUOUS
100
AcDbCircle
 10
173.6144708804586
 20
267.2903519773667
 30
0.0
 40
3.2
100
AcDbArc
 50
270.0
 51
90.0
  0
LINE
  5
208
330
2
100
AcDbEntity
  8
0
  6
CONTINUOUS
100
AcDbLine
 10
177.3144708804584
 20
267.2903519773667
 30
0.0
 11
177.336096880459
 21
267.2903519773667
 31
0.0
  0
ARC
  5
209
102
{ACAD_REACTORS
330
1F2
330
19A
102
}
330
2
100
AcDbEntity
  8
0
  6
CONTINUOUS
100
AcDbCircle
 10
143.1144708804586
 20
265.2903519773672
 30
0.0
 40
10.0
100
AcDbArc
 50
90.0
 51
180.0
  0
DIMENSION
  5
20A
102
{ACAD_XDICTIONARY
360
20B
102
}
102
{ACAD_REACTORS
330
20C
102
}
330
2
100
AcDbEntity
  8
0
100
AcDbDimension
  2
*D24
 10
172.1144708804586
 20
308.2242468715912
 30
0.0
 11
105.9718170807081
 21
308.2242468715912
 31
0.0
 70
   160
  3
STANDARD
100
AcDbAlignedDimension
 13
44.11447088045861
 23
271.6068109773668
 33
0.0
 14
172.1144708804586
 24
271.6068109773668
 34
0.0
100
AcDbRotatedDimension
1001
ACAD
1000
DSTYLE
1002
{
1070
    40
1040
1.5
1002
}
  0
ENDSEC
  0
SECTION
  2
OBJECTS
  0
DICTIONARY
  5
8
330
0
100
AcDbDictionary
  3
ACAD_GROUP
350
25
  3
ACAD_LAYOUT
350
C
  3
ACAD_MLINESTYLE
350
26
  3
ACAD_PLOTSETTINGS
350
27
  3
ACAD_PLOTSTYLENAME
350
7
  3
ACDBHEADERROUNDTRIPXREC
350
389
  3
ACDBVARIABLEDICTIONARY
350
219
  0
DICTIONARY
  5
13
330
12
100
AcDbDictionary
280
     1
  3
ACAD_LAYERFILTERS
360
14
  3
ACAD_LAYERSTATES
360
15
  0
DICTIONARY
  5
3
330
2
100
AcDbDictionary
280
     1
  3
ACAD_LAYOUTSELFREF
360
3AA
  0
DICTIONARY
  5
E
330
D
100
AcDbDictionary
280
     1
  3
ACAD_LAYOUTSELFREF
360
3AB
  0
DICTIONARY
  5
49
330
48
100
AcDbDictionary
280
     1
  3
ACAD_DIMASSOC
360
4A
  0
DICTIONARY
  5
5A
330
59
100
AcDbDictionary
280
     1
  3
ACAD_DIMASSOC
360
5B
  0
DICTIONARY
  5
6B
330
6A
100
AcDbDictionary
280
     1
  3
ACAD_DIMASSOC
360
6C
  0
DICTIONARY
  5
7B
330
7A
100
AcDbDictionary
280
     1
  3
ACAD_DIMASSOC
360
7C
  0
DICTIONARY
  5
90
330
8F
100
AcDbDictionary
280
     1
  3
ACAD_DIMASSOC
360
91
  0
DICTIONARY
  5
B1
330
B0
100
AcDbDictionary
280
     1
  3
ACAD_DIMASSOC
360
B2
  0
DICTIONARY
  5
119
330
118
100
AcDbDictionary
280
     1
  3
ACAD_DIMASSOC
360
11A
  0
DICTIONARY
  5
12F
330
12E
100
AcDbDictionary
280
     1
  3
ACAD_DIMASSOC
360
130
  0
DICTIONARY
  5
141
330
140
100
AcDbDictionary
280
     1
  3
ACAD_DIMASSOC
360
142
  0
DICTIONARY
  5
156
330
155
100
AcDbDictionary
280
     1
  3
ACAD_DIMASSOC
360
157
  0
DICTIONARY
  5
170
330
16F
100
AcDbDictionary
280
     1
  3
ACAD_DIMASSOC
360
171
  0
DICTIONARY
  5
187
330
186
100
AcDbDictionary
280
     1
  3
ACAD_DIMASSOC
360
188
  0
DICTIONARY
  5
199
330
198
100
AcDbDictionary
280
     1
  3
ACAD_DIMASSOC
360
19A
  0
DICTIONARY
  5
1A8
330
1A7
100
AcDbDictionary
280
     1
  3
ACAD_DIMASSOC
360
1A9
  0
DICTIONARY
  5
1CF
330
1CE
100
AcDbDictionary
280
     1
  3
ACAD_DIMASSOC
360
1D0
  0
DICTIONARY
  5
1E5
330
1E4
100
AcDbDictionary
280
     1
  3
ACAD_DIMASSOC
360
1E6
  0
DICTIONARY
  5
1F1
330
1F0
100
AcDbDictionary
280
     1
  3
ACAD_DIMASSOC
360
1F2
  0
DICTIONARY
  5
20B
330
20A
100
AcDbDictionary
280
     1
  3
ACAD_DIMASSOC
360
20C
  0
DICTIONARY
  5
25
102
{ACAD_REACTORS
330
8
102
}
330
8
100
AcDbDictionary
  0
DICTIONARY
  5
C
102
{ACAD_REACTORS
330
8
102
}
330
8
100
AcDbDictionary
  0
DICTIONARY
  5
26
102
{ACAD_REACTORS
330
8
102
}
330
8
100
AcDbDictionary
  3
STANDARD
350
28
  0
DICTIONARY
  5
27
102
{ACAD_REACTORS
330
8
102
}
330
8
100
AcDbDictionary
  0
ACDBDICTIONARYWDFLT
  5
7
102
{ACAD_REACTORS
330
8
102
}
330
8
100
AcDbDictionary
281
     1
  3
Normal
350
6
100
AcDbDictionaryWithDefault
340
6
  0
DICTIONARY
  5
389
102
{ACAD_REACTORS
330
8
102
}
330
8
100
AcDbDictionary
  3
CEPSNTYPE
350
393
  3
DIMSTYLEDATA
350
397
  3
FINGERPRINTGUID
350
394
  3
HYPERLINKBASE
350
38C
  3
INSUNITS
350
392
  3
LAYOUTDICT
350
38E
  3
LWETCUNION
350
391
  3
PLOTSETDICT
350
38F
  3
PLOTSTYLNAMDICT
350
390
  3
PSVPSCALE
350
396
  3
PUCSBASE
350
39A
  3
PUCSORGBACK
350
3A0
  3
PUCSORGBOTTOM
350
39C
  3
PUCSORGFRONT
350
39F
  3
PUCSORGLEFT
350
39D
  3
PUCSORGRIGHT
350
39E
  3
PUCSORGTOP
350
39B
  3
PUCSORTHOREF
350
398
  3
PUCSORTHOVIEW
350
399
  3
STYLESHEET
350
38D
  3
TSTACKALIGN
350
38A
  3
TSTACKSIZE
350
38B
  3
UCSBASE
350
3A3
  3
UCSORGBACK
350
3A9
  3
UCSORGBOTTOM
350
3A5
  3
UCSORGFRONT
350
3A8
  3
UCSORGLEFT
350
3A6
  3
UCSORGRIGHT
350
3A7
  3
UCSORGTOP
350
3A4
  3
UCSORTHOREF
350
3A1
  3
UCSORTHOVIEW
350
3A2
  3
VERSIONGUID
350
395
  0
DICTIONARY
  5
219
102
{ACAD_REACTORS
330
8
102
}
330
8
100
AcDbDictionary
  3
DIMASSOC
350
21B
  3
HIDETEXT
350
21A
  0
DICTIONARY
  5
14
102
{ACAD_REACTORS
330
13
102
}
330
13
100
AcDbDictionary
280
     1
  0
DICTIONARY
  5
15
102
{ACAD_REACTORS
330
13
102
}
330
13
100
AcDbDictionary
  0
XRECORD
  5
3AA
102
{ACAD_REACTORS
330
3
102
}
330
3
100
AcDbXrecord
340
2
  0
XRECORD
  5
3AB
102
{ACAD_REACTORS
330
E
102
}
330
E
100
AcDbXrecord
340
D
  0
DIMASSOC
  5
4A
102
{ACAD_REACTORS
330
49
102
}
330
49
100
AcDbDimAssoc
330
48
 90
        3
 70
     0
 71
     0
  1
AcDbOsnapPointRef
 72
     1
331
13D
 73
     2
 91
        0
 40
1.0
 10
278.1086228888379
 20
131.4310248283218
 30
0.0
 75
     0
  1
AcDbOsnapPointRef
 72
    13
331
13D
 73
     2
 91
        0
 40
0.0
 10
278.1086228888379
 20
48.43102482832183
 30
0.0
 75
     0
  0
DIMASSOC
  5
5B
102
{ACAD_REACTORS
330
5A
102
}
330
5A
100
AcDbDimAssoc
330
59
 90
        2
 70
     0
 71
     0
  1
AcDbOsnapPointRef
 72
    13
331
E3
 73
     2
 91
        0
 40
0.0
 10
180.1144708804586
 20
24.00118482832203
 30
0.0
 75
     0
  0
DIMASSOC
  5
6C
102
{ACAD_REACTORS
330
6B
102
}
330
6B
100
AcDbDimAssoc
330
6A
 90
        2
 70
     0
 71
     0
  1
AcDbOsnapPointRef
 72
     3
331
114
 73
     2
 91
        0
 40
0.0
 10
108.1144708804586
 20
90.00118482832204
 30
0.0
 75
     0
  0
DIMASSOC
  5
7C
102
{ACAD_REACTORS
330
7B
102
}
330
7B
100
AcDbDimAssoc
330
7A
 90
        1
 70
     0
 71
     0
  1
AcDbOsnapPointRef
 72
    13
331
57
 73
     2
 91
        0
 40
0.0
 10
52.11447088045861
 20
98.00118482832203
 30
0.0
 75
     0
  0
DIMASSOC
  5
91
102
{ACAD_REACTORS
330
90
102
}
330
90
100
AcDbDimAssoc
330
8F
 90
        3
 70
     0
 71
     0
  1
AcDbOsnapPointRef
 72
    13
331
C3
 73
     2
 91
        0
 40
0.0
 10
35.11447088045861
 20
25.00118482832204
 30
0.0
 75
     0
  1
AcDbOsnapPointRef
 72
    13
331
E4
 73
     2
 91
        0
 40
0.0
 10
181.1144708804586
 20
25.00118482832204
 30
0.0
 75
     0
  0
DIMASSOC
  5
B2
102
{ACAD_REACTORS
330
B1
102
}
330
B1
100
AcDbDimAssoc
330
B0
 90
        2
 70
     0
 71
     0
  1
AcDbOsnapPointRef
 72
     1
331
AF
 73
     2
 91
        0
 40
1.0
 10
52.11447088045861
 20
98.00118482832203
 30
0.0
 75
     0
  0
DIMASSOC
  5
11A
102
{ACAD_REACTORS
330
119
102
}
330
119
100
AcDbDimAssoc
330
118
 90
        1
 70
     0
 71
     0
  1
AcDbOsnapPointRef
 72
    13
331
29
 73
     2
 91
        0
 40
0.0
 10
164.1144708804586
 20
210.2903519773667
 30
0.0
 75
     0
  0
DIMASSOC
  5
130
102
{ACAD_REACTORS
330
12F
102
}
330
12F
100
AcDbDimAssoc
330
12E
 90
        3
 70
     0
 71
     0
  1
AcDbOsnapPointRef
 72
     1
331
181
 73
     2
 91
        0
 40
1.0
 10
272.1086228888379
 20
129.9310248283218
 30
0.0
 75
     0
  1
AcDbOsnapPointRef
 72
     1
331
16A
 73
     2
 91
        0
 40
1.0
 10
272.1086228888379
 20
49.93102482832182
 30
0.0
 75
     0
  0
DIMASSOC
  5
142
102
{ACAD_REACTORS
330
141
102
}
330
141
100
AcDbDimAssoc
330
140
 90
        3
 70
     0
 71
     0
  1
AcDbOsnapPointRef
 72
     1
331
151
 73
     2
 91
        0
 40
0.9999999999999998
 10
307.108622888838
 20
32.93102482832182
 30
0.0
 75
     0
  1
AcDbOsnapPointRef
 72
     2
331
168
 73
     2
 91
        0
 40
0.5
 10
337.108622888838
 20
28.43102482832182
 30
0.0
 75
     0
  0
DIMASSOC
  5
157
102
{ACAD_REACTORS
330
156
102
}
330
156
100
AcDbDimAssoc
330
155
 90
        3
 70
     0
 71
     0
  1
AcDbOsnapPointRef
 72
    13
331
13F
 73
     2
 91
        0
 40
0.0
 10
272.1086228888379
 20
31.93102482832182
 30
0.0
 75
     0
  1
AcDbOsnapPointRef
 72
    13
331
168
 73
     2
 91
        0
 40
0.0
 10
337.108622888838
 20
24.93102482832182
 30
0.0
 75
     0
  0
DIMASSOC
  5
171
102
{ACAD_REACTORS
330
170
102
}
330
170
100
AcDbDimAssoc
330
16F
 90
        3
 70
     0
 71
     0
  1
AcDbOsnapPointRef
 72
     1
331
13D
 73
     2
 91
        0
 40
1.0
 10
278.1086228888379
 20
131.4310248283218
 30
0.0
 75
     0
  1
AcDbOsnapPointRef
 72
     1
331
12C
 73
     2
 91
        0
 40
1.0
 10
281.108622888838
 20
135.4310248283218
 30
0.0
 75
     0
  0
DIMASSOC
  5
188
102
{ACAD_REACTORS
330
187
102
}
330
187
100
AcDbDimAssoc
330
186
 90
        3
 70
     0
 71
     0
  1
AcDbOsnapPointRef
 72
     1
331
13F
 73
     2
 91
        0
 40
1.0
 10
272.1086228888379
 20
135.4310248283218
 30
0.0
 75
     0
  1
AcDbOsnapPointRef
 72
     1
331
12C
 73
     2
 91
        0
 40
1.0
 10
281.108622888838
 20
135.4310248283218
 30
0.0
 75
     0
  0
DIMASSOC
  5
19A
102
{ACAD_REACTORS
330
199
102
}
330
199
100
AcDbDimAssoc
330
198
 90
        3
 70
     0
 71
     0
  1
AcDbOsnapPointRef
 72
    13
331
1E3
 73
     2
 91
        0
 40
0.0
 10
83.11447088045861
 20
265.2903519773667
 30
0.0
 75
     0
  1
AcDbOsnapPointRef
 72
     6
331
1FE
 73
     2
 91
        0
 40
1.0
 10
133.1144708804586
 20
265.2903519773672
 30
0.0
332
209
 74
     2
 92
        0
 75
     0
  0
DIMASSOC
  5
1A9
102
{ACAD_REACTORS
330
1A8
102
}
330
1A8
100
AcDbDimAssoc
330
1A7
 90
        3
 70
     0
 71
     0
  1
AcDbOsnapPointRef
 72
     2
331
1BD
 73
     2
 91
        0
 40
3.141592653589793
 10
39.4144708804586
 20
267.2903519773667
 30
0.0
 75
     0
  1
AcDbOsnapPointRef
 72
     2
331
1DF
 73
     2
 91
        0
 40
6.283185307179586
 10
48.81447088045861
 20
267.2903519773667
 30
0.0
 75
     0
  0
DIMASSOC
  5
1D0
102
{ACAD_REACTORS
330
1CF
102
}
330
1CF
100
AcDbDimAssoc
330
1CE
 90
        3
 70
     0
 71
     0
  1
AcDbOsnapPointRef
 72
     1
331
197
 73
     2
 91
        0
 40
1.0
 10
91.11447088045862
 20
232.2903519773667
 30
0.0
 75
     0
  1
AcDbOsnapPointRef
 72
     1
331
1E3
 73
     2
 91
        0
 40
1.570796326794896
 10
73.11447088045861
 20
275.2903519773667
 30
0.0
 75
     0
  0
DIMASSOC
  5
1E6
102
{ACAD_REACTORS
330
1E5
102
}
330
1E5
100
AcDbDimAssoc
330
1E4
 90
        2
 70
     0
 71
     0
  1
AcDbOsnapPointRef
 72
     3
331
1FD
 73
     2
 91
        0
 40
0.0
 10
171.1144708804586
 20
265.2903519773667
 30
0.0
 75
     0
  0
DIMASSOC
  5
1F2
102
{ACAD_REACTORS
330
1F1
102
}
330
1F1
100
AcDbDimAssoc
330
1F0
 90
        2
 70
     0
 71
     0
  1
AcDbOsnapPointRef
 72
     3
331
209
 73
     2
 91
        0
 40
0.0
 10
143.1144708804586
 20
265.2903519773672
 30
0.0
 75
     0
  0
DIMASSOC
  5
20C
102
{ACAD_REACTORS
330
20B
102
}
330
20B
100
AcDbDimAssoc
330
20A
 90
        1
 70
     0
 71
     0
  1
AcDbOsnapPointRef
 72
     1
331
1E1
 73
     2
 91
        0
 40
1.0
 10
44.11447088045861
 20
271.6068109773668
 30
0.0
 75
     0
  0
MLINESTYLE
  5
28
102
{ACAD_REACTORS
330
26
102
}
330
26
100
AcDbMlineStyle
  2
STANDARD
 70
     0
  3

 62
   256
 51
90.0
 52
90.0
 71
     2
 49
0.5
 62
   256
  6
BYLAYER
 49
-0.5
 62
   256
  6
BYLAYER
  0
ACDBPLACEHOLDER
  5
6
102
{ACAD_REACTORS
330
7
102
}
330
7
100
AcDbPlaceHolder
280
     0
  0
XRECORD
  5
393
102
{ACAD_REACTORS
330
389
102
}
330
389
100
AcDbXrecord
 90
        0
  0
XRECORD
  5
397
102
{ACAD_REACTORS
330
389
102
}
330
389
100
AcDbXrecord
1000
DSTYLE
1002
{
1070
    79
 70
     2
1070
   179
 70
     1
1070
   289
 70
     0
1002
}
  0
XRECORD
  5
394
102
{ACAD_REACTORS
330
389
102
}
330
389
100
AcDbXrecord
  1
{FDEAD578-A652-11D2-9A35-0060089B3A3F}
  0
XRECORD
  5
38C
102
{ACAD_REACTORS
330
389
102
}
330
389
100
AcDbXrecord
  1

  0
XRECORD
  5
392
102
{ACAD_REACTORS
330
389
102
}
330
389
100
AcDbXrecord
 90
        4
  0
XRECORD
  5
38E
102
{ACAD_REACTORS
330
389
102
}
330
389
100
AcDbXrecord
340
C
  0
XRECORD
  5
391
102
{ACAD_REACTORS
330
389
102
}
330
389
100
AcDbXrecord
 90
    10781
  0
XRECORD
  5
38F
102
{ACAD_REACTORS
330
389
102
}
330
389
100
AcDbXrecord
340
27
  0
XRECORD
  5
390
102
{ACAD_REACTORS
330
389
102
}
330
389
100
AcDbXrecord
340
7
  0
XRECORD
  5
396
102
{ACAD_REACTORS
330
389
102
}
330
389
100
AcDbXrecord
 40
0.0
  0
XRECORD
  5
39A
102
{ACAD_REACTORS
330
389
102
}
330
389
100
AcDbXrecord
340
0
  0
XRECORD
  5
3A0
102
{ACAD_REACTORS
330
389
102
}
330
389
100
AcDbXrecord
 10
0.0
 20
0.0
 30
0.0
  0
XRECORD
  5
39C
102
{ACAD_REACTORS
330
389
102
}
330
389
100
AcDbXrecord
 10
0.0
 20
0.0
 30
0.0
  0
XRECORD
  5
39F
102
{ACAD_REACTORS
330
389
102
}
330
389
100
AcDbXrecord
 10
0.0
 20
0.0
 30
0.0
  0
XRECORD
  5
39D
102
{ACAD_REACTORS
330
389
102
}
330
389
100
AcDbXrecord
 10
0.0
 20
0.0
 30
0.0
  0
XRECORD
  5
39E
102
{ACAD_REACTORS
330
389
102
}
330
389
100
AcDbXrecord
 10
0.0
 20
0.0
 30
0.0
  0
XRECORD
  5
39B
102
{ACAD_REACTORS
330
389
102
}
330
389
100
AcDbXrecord
 10
0.0
 20
0.0
 30
0.0
  0
XRECORD
  5
398
102
{ACAD_REACTORS
330
389
102
}
330
389
100
AcDbXrecord
340
0
  0
XRECORD
  5
399
102
{ACAD_REACTORS
330
389
102
}
330
389
100
AcDbXrecord
 70
     0
  0
XRECORD
  5
38D
102
{ACAD_REACTORS
330
389
102
}
330
389
100
AcDbXrecord
  1

  0
XRECORD
  5
38A
102
{ACAD_REACTORS
330
389
102
}
330
389
100
AcDbXrecord
 90
        1
  0
XRECORD
  5
38B
102
{ACAD_REACTORS
330
389
102
}
330
389
100
AcDbXrecord
 90
       70
  0
XRECORD
  5
3A3
102
{ACAD_REACTORS
330
389
102
}
330
389
100
AcDbXrecord
340
0
  0
XRECORD
  5
3A9
102
{ACAD_REACTORS
330
389
102
}
330
389
100
AcDbXrecord
 10
0.0
 20
0.0
 30
0.0
  0
XRECORD
  5
3A5
102
{ACAD_REACTORS
330
389
102
}
330
389
100
AcDbXrecord
 10
0.0
 20
0.0
 30
0.0
  0
XRECORD
  5
3A8
102
{ACAD_REACTORS
330
389
102
}
330
389
100
AcDbXrecord
 10
0.0
 20
0.0
 30
0.0
  0
XRECORD
  5
3A6
102
{ACAD_REACTORS
330
389
102
}
330
389
100
AcDbXrecord
 10
0.0
 20
0.0
 30
0.0
  0
XRECORD
  5
3A7
102
{ACAD_REACTORS
330
389
102
}
330
389
100
AcDbXrecord
 10
0.0
 20
0.0
 30
0.0
  0
XRECORD
  5
3A4
102
{ACAD_REACTORS
330
389
102
}
330
389
100
AcDbXrecord
 10
0.0
 20
0.0
 30
0.0
  0
XRECORD
  5
3A1
102
{ACAD_REACTORS
330
389
102
}
330
389
100
AcDbXrecord
340
0
  0
XRECORD
  5
3A2
102
{ACAD_REACTORS
330
389
102
}
330
389
100
AcDbXrecord
 70
     0
  0
XRECORD
  5
395
102
{ACAD_REACTORS
330
389
102
}
330
389
100
AcDbXrecord
  1
{C4F55433-3B4F-4B4F-936F-D9D224D25CB9}
  0
DICTIONARYVAR
  5
21B
102
{ACAD_REACTORS
330
219
102
}
330
219
100
DictionaryVariables
280
     0
  1
2
  0
DICTIONARYVAR
  5
21A
102
{ACAD_REACTORS
330
219
102
}
330
219
100
DictionaryVariables
280
     0
  1
1
  0
ENDSEC
  0
EOF
