  0
SECTION
  2
HEADER
  9
$ACADVER
  1
AC1014
  9
$ACADMAINTVER
 70
     9
  9
$DWGCODEPAGE
  3
ANSI_949
  9
$INSBASE
 10
0.0
 20
0.0
 30
0.0
  9
$EXTMIN
 10
-13.24258164862476
 20
2.572734501063678
 30
-0.0000000000000058
  9
$EXTMAX
 10
260.4342754507051
 20
223.4830288798366
 30
0.0000000000000104
  9
$LIMMIN
 10
0.0
 20
0.0
  9
$LIMMAX
 10
100.0
 20
50.0
  9
$ORTHOMODE
 70
     1
  9
$REGENMODE
 70
     1
  9
$FILLMODE
 70
     1
  9
$QTEXTMODE
 70
     0
  9
$MIRRTEXT
 70
     0
  9
$DRAGMODE
 70
     2
  9
$LTSCALE
 40
0.5
  9
$OSMODE
 70
   567
  9
$ATTMODE
 70
     1
  9
$TEXTSIZE
 40
5.777225951253058
  9
$TRACEWID
 40
1.0
  9
$TEXTSTYLE
  7
STANDARD
  9
$CLAYER
  8
0
  9
$CELTYPE
  6
BYLAYER
  9
$CECOLOR
 62
   256
  9
$CELTSCALE
 40
1.0
  9
$DELOBJ
 70
     1
  9
$DISPSILH
 70
     0
  9
$DIMSCALE
 40
1.0
  9
$DIMASZ
 40
3.5
  9
$DIMEXO
 40
1.0
  9
$DIMDLI
 40
10.0
  9
$DIMRND
 40
0.0
  9
$DIMDLE
 40
0.0
  9
$DIMEXE
 40
0.6
  9
$DIMTP
 40
0.0
  9
$DIMTM
 40
0.0
  9
$DIMTXT
 40
3.0
  9
$DIMCEN
 40
0.09
  9
$DIMTSZ
 40
0.0
  9
$DIMTOL
 70
     0
  9
$DIMLIM
 70
     0
  9
$DIMTIH
 70
     0
  9
$DIMTOH
 70
     0
  9
$DIMSE1
 70
     0
  9
$DIMSE2
 70
     0
  9
$DIMTAD
 70
     1
  9
$DIMZIN
 70
     8
  9
$DIMBLK
  1

  9
$DIMASO
 70
     1
  9
$DIMSHO
 70
     1
  9
$DIMPOST
  1

  9
$DIMAPOST
  1

  9
$DIMALT
 70
     0
  9
$DIMALTD
 70
     2
  9
$DIMALTF
 40
25.4
  9
$DIMLFAC
 40
1.0
  9
$DIMTOFL
 70
     1
  9
$DIMTVP
 40
0.0
  9
$DIMTIX
 70
     1
  9
$DIMSOXD
 70
     0
  9
$DIMSAH
 70
     0
  9
$DIMBLK1
  1

  9
$DIMBLK2
  1

  9
$DIMSTYLE
  2
STANDARD
  9
$DIMCLRD
 70
   123
  9
$DIMCLRE
 70
   123
  9
$DIMCLRT
 70
     3
  9
$DIMTFAC
 40
1.0
  9
$DIMGAP
 40
1.0
  9
$DIMJUST
 70
     0
  9
$DIMSD1
 70
     0
  9
$DIMSD2
 70
     0
  9
$DIMTOLJ
 70
     1
  9
$DIMTZIN
 70
     0
  9
$DIMALTZ
 70
     0
  9
$DIMALTTZ
 70
     0
  9
$DIMFIT
 70
     0
  9
$DIMUPT
 70
     1
  9
$DIMUNIT
 70
     2
  9
$DIMDEC
 70
     2
  9
$DIMTDEC
 70
     2
  9
$DIMALTU
 70
     2
  9
$DIMALTTD
 70
     2
  9
$DIMTXSTY
  7
STANDARD
  9
$DIMAUNIT
 70
     1
  9
$LUNITS
 70
     2
  9
$LUPREC
 70
     4
  9
$SKETCHINC
 40
1.0
  9
$FILLETRAD
 40
6.0
  9
$AUNITS
 70
     0
  9
$AUPREC
 70
     0
  9
$MENU
  1
.
  9
$ELEVATION
 40
0.0
  9
$PELEVATION
 40
0.0
  9
$THICKNESS
 40
0.0
  9
$LIMCHECK
 70
     0
  9
$BLIPMODE
 70
     1
  9
$CHAMFERA
 40
1.0
  9
$CHAMFERB
 40
1.0
  9
$CHAMFERC
 40
20.0
  9
$CHAMFERD
 40
0.0
  9
$SKPOLY
 70
     0
  9
$TDCREATE
 40
2452839.586179271
  9
$TDUPDATE
 40
2453377.777803078
  9
$TDINDWG
 40
9.8474981366
  9
$TDUSRTIMER
 40
9.8474979630
  9
$USRTIMER
 70
     1
  9
$ANGBASE
 50
0.0
  9
$ANGDIR
 70
     0
  9
$PDMODE
 70
     0
  9
$PDSIZE
 40
0.0
  9
$PLINEWID
 40
0.0
  9
$COORDS
 70
     2
  9
$SPLFRAME
 70
     0
  9
$SPLINETYPE
 70
     6
  9
$SPLINESEGS
 70
   800
  9
$ATTDIA
 70
     0
  9
$ATTREQ
 70
     1
  9
$HANDLING
 70
 22529
  9
$HANDSEED
  5
39A
  9
$SURFTAB1
 70
     6
  9
$SURFTAB2
 70
     6
  9
$SURFTYPE
 70
     6
  9
$SURFU
 70
     6
  9
$SURFV
 70
     6
  9
$UCSNAME
  2

  9
$UCSORG
 10
0.0
 20
0.0
 30
0.0
  9
$UCSXDIR
 10
1.0
 20
0.0
 30
0.0
  9
$UCSYDIR
 10
0.0
 20
1.0
 30
0.0
  9
$PUCSNAME
  2

  9
$PUCSORG
 10
0.0
 20
0.0
 30
0.0
  9
$PUCSXDIR
 10
1.0
 20
0.0
 30
0.0
  9
$PUCSYDIR
 10
0.0
 20
1.0
 30
0.0
  9
$USERI1
 70
     0
  9
$USERI2
 70
     0
  9
$USERI3
 70
     0
  9
$USERI4
 70
     0
  9
$USERI5
 70
     0
  9
$USERR1
 40
0.0
  9
$USERR2
 40
0.0
  9
$USERR3
 40
0.0
  9
$USERR4
 40
0.0
  9
$USERR5
 40
0.0
  9
$WORLDVIEW
 70
     1
  9
$SHADEDGE
 70
     3
  9
$SHADEDIF
 70
    70
  9
$TILEMODE
 70
     1
  9
$MAXACTVP
 70
    48
  9
$PINSBASE
 10
0.0
 20
0.0
 30
0.0
  9
$PLIMCHECK
 70
     0
  9
$PEXTMIN
 10
0.0
 20
0.0
 30
0.0
  9
$PEXTMAX
 10
0.0
 20
0.0
 30
0.0
  9
$PLIMMIN
 10
0.0
 20
0.0
  9
$PLIMMAX
 10
12.0
 20
9.0
  9
$UNITMODE
 70
     0
  9
$VISRETAIN
 70
     1
  9
$PLINEGEN
 70
     0
  9
$PSLTSCALE
 70
     1
  9
$TREEDEPTH
 70
  3020
  9
$PICKSTYLE
 70
     0
  9
$CMLSTYLE
  2
STANDARD
  9
$CMLJUST
 70
     0
  9
$CMLSCALE
 40
20.0
  9
$PROXYGRAPHICS
 70
     1
  9
$MEASUREMENT
 70
     1
  0
ENDSEC
  0
SECTION
  2
CLASSES
  0
CLASS
  1
ACDBDICTIONARYWDFLT
  2
AcDbDictionaryWithDefault
  3
AutoCAD 2000
 90
        0
280
     0
281
     0
  0
CLASS
  1
ACDBPLACEHOLDER
  2
AcDbPlaceHolder
  3
AutoCAD 2000
 90
        0
280
     0
281
     0
  0
CLASS
  1
LAYOUT
  2
AcDbLayout
  3
AutoCAD 2000
 90
        0
280
     0
281
     0
  0
CLASS
  1
DICTIONARYVAR
  2
AcDbDictionaryVar
  3
AutoCAD 2000
 90
        0
280
     0
281
     0
  0
CLASS
  1
DIMASSOC
  2
AcDbDimAssoc
  3
"AcDbDimAssoc|Product Desc:     AcDim ARX App For Dimension|Company:          Autodesk, Inc.|WEB Address:      www.autodesk.com"
 90
        0
280
     0
281
     0
  0
CLASS
  1
LONG_TRANSACTION
  2
AcDbLongTransaction
  3
AutoCAD 2000
 90
        0
280
     0
281
     0
  0
CLASS
  1
LWPOLYLINE
  2
AcDbPolyline
  3
AutoCAD 2000
 90
        0
280
     0
281
     1
  0
CLASS
  1
HATCH
  2
AcDbHatch
  3
AutoCAD 2000
 90
        0
280
     0
281
     1
  0
CLASS
  1
XRECORD
  2
AcDbXrecord
  3
AutoCAD 2000
 90
        0
280
     0
281
     0
  0
CLASS
  1
LONG_TRANSACTION
  2
AcDbLongTransaction
  3
AutoCAD 2000
 90
        0
280
     0
281
     0
  0
CLASS
  1
LWPOLYLINE
  2
AcDbPolyline
  3
AutoCAD 2000
 90
        0
280
     0
281
     1
  0
CLASS
  1
HATCH
  2
AcDbHatch
  3
AutoCAD 2000
 90
        0
280
     0
281
     1
  0
CLASS
  1
XRECORD
  2
AcDbXrecord
  3
AutoCAD 2000
 90
        0
280
     0
281
     0
  0
CLASS
  1
LONG_TRANSACTION
  2
AcDbLongTransaction
  3
AutoCAD 2000
 90
        0
280
     0
281
     0
  0
CLASS
  1
LWPOLYLINE
  2
AcDbPolyline
  3
AutoCAD 2000
 90
        0
280
     0
281
     1
  0
CLASS
  1
HATCH
  2
AcDbHatch
  3
AutoCAD 2000
 90
        0
280
     0
281
     1
  0
CLASS
  1
XRECORD
  2
AcDbXrecord
  3
AutoCAD 2000
 90
        0
280
     0
281
     0
  0
CLASS
  1
LONG_TRANSACTION
  2
AcDbLongTransaction
  3
AutoCAD 2000
 90
        0
280
     0
281
     0
  0
CLASS
  1
LWPOLYLINE
  2
AcDbPolyline
  3
AutoCAD 2000
 90
        0
280
     0
281
     1
  0
CLASS
  1
HATCH
  2
AcDbHatch
  3
AutoCAD 2000
 90
        0
280
     0
281
     1
  0
CLASS
  1
XRECORD
  2
AcDbXrecord
  3
AutoCAD 2000
 90
        0
280
     0
281
     0
  0
CLASS
  1
LONG_TRANSACTION
  2
AcDbLongTransaction
  3
AutoCAD 2000
 90
        0
280
     0
281
     0
  0
CLASS
  1
LWPOLYLINE
  2
AcDbPolyline
  3
AutoCAD 2000
 90
        0
280
     0
281
     1
  0
CLASS
  1
HATCH
  2
AcDbHatch
  3
AutoCAD 2000
 90
        0
280
     0
281
     1
  0
CLASS
  1
XRECORD
  2
AcDbXrecord
  3
AutoCAD 2000
 90
        0
280
     0
281
     0
  0
CLASS
  1
LONG_TRANSACTION
  2
AcDbLongTransaction
  3
AutoCAD 2000
 90
        0
280
     0
281
     0
  0
CLASS
  1
LWPOLYLINE
  2
AcDbPolyline
  3
AutoCAD 2000
 90
        0
280
     0
281
     1
  0
CLASS
  1
HATCH
  2
AcDbHatch
  3
AutoCAD 2000
 90
        0
280
     0
281
     1
  0
CLASS
  1
XRECORD
  2
AcDbXrecord
  3
AutoCAD 2000
 90
        0
280
     0
281
     0
  0
CLASS
  1
LONG_TRANSACTION
  2
AcDbLongTransaction
  3
AutoCAD 2000
 90
        0
280
     0
281
     0
  0
CLASS
  1
LWPOLYLINE
  2
AcDbPolyline
  3
AutoCAD 2000
 90
        0
280
     0
281
     1
  0
CLASS
  1
HATCH
  2
AcDbHatch
  3
AutoCAD 2000
 90
        0
280
     0
281
     1
  0
CLASS
  1
XRECORD
  2
AcDbXrecord
  3
AutoCAD 2000
 90
        0
280
     0
281
     0
  0
CLASS
  1
LONG_TRANSACTION
  2
AcDbLongTransaction
  3
AutoCAD 2000
 90
        0
280
     0
281
     0
  0
CLASS
  1
LWPOLYLINE
  2
AcDbPolyline
  3
AutoCAD 2000
 90
        0
280
     0
281
     1
  0
CLASS
  1
HATCH
  2
AcDbHatch
  3
AutoCAD 2000
 90
        0
280
     0
281
     1
  0
CLASS
  1
XRECORD
  2
AcDbXrecord
  3
AutoCAD 2000
 90
        0
280
     0
281
     0
  0
CLASS
  1
LONG_TRANSACTION
  2
AcDbLongTransaction
  3
AutoCAD 2000
 90
        0
280
     0
281
     0
  0
CLASS
  1
LWPOLYLINE
  2
AcDbPolyline
  3
AutoCAD 2000
 90
        0
280
     0
281
     1
  0
CLASS
  1
HATCH
  2
AcDbHatch
  3
AutoCAD 2000
 90
        0
280
     0
281
     1
  0
CLASS
  1
XRECORD
  2
AcDbXrecord
  3
AutoCAD 2000
 90
        0
280
     0
281
     0
  0
CLASS
  1
LONG_TRANSACTION
  2
AcDbLongTransaction
  3
AutoCAD 2000
 90
        0
280
     0
281
     0
  0
CLASS
  1
LWPOLYLINE
  2
AcDbPolyline
  3
AutoCAD 2000
 90
        0
280
     0
281
     1
  0
CLASS
  1
HATCH
  2
AcDbHatch
  3
AutoCAD 2000
 90
        0
280
     0
281
     1
  0
CLASS
  1
XRECORD
  2
AcDbXrecord
  3
AutoCAD 2000
 90
        0
280
     0
281
     0
  0
CLASS
  1
LONG_TRANSACTION
  2
AcDbLongTransaction
  3
AutoCAD 2000
 90
        0
280
     0
281
     0
  0
CLASS
  1
LWPOLYLINE
  2
AcDbPolyline
  3
AutoCAD 2000
 90
        0
280
     0
281
     1
  0
CLASS
  1
HATCH
  2
AcDbHatch
  3
AutoCAD 2000
 90
        0
280
     0
281
     1
  0
CLASS
  1
XRECORD
  2
AcDbXrecord
  3
AutoCAD 2000
 90
        0
280
     0
281
     0
  0
CLASS
  1
LONG_TRANSACTION
  2
AcDbLongTransaction
  3
AutoCAD 2000
 90
        0
280
     0
281
     0
  0
CLASS
  1
LWPOLYLINE
  2
AcDbPolyline
  3
AutoCAD 2000
 90
        0
280
     0
281
     1
  0
CLASS
  1
HATCH
  2
AcDbHatch
  3
AutoCAD 2000
 90
        0
280
     0
281
     1
  0
CLASS
  1
XRECORD
  2
AcDbXrecord
  3
AutoCAD 2000
 90
        0
280
     0
281
     0
  0
CLASS
  1
LONG_TRANSACTION
  2
AcDbLongTransaction
  3
AutoCAD 2000
 90
        0
280
     0
281
     0
  0
CLASS
  1
LWPOLYLINE
  2
AcDbPolyline
  3
AutoCAD 2000
 90
        0
280
     0
281
     1
  0
CLASS
  1
HATCH
  2
AcDbHatch
  3
AutoCAD 2000
 90
        0
280
     0
281
     1
  0
CLASS
  1
XRECORD
  2
AcDbXrecord
  3
AutoCAD 2000
 90
        0
280
     0
281
     0
  0
CLASS
  1
LONG_TRANSACTION
  2
AcDbLongTransaction
  3
AutoCAD 2000
 90
        0
280
     0
281
     0
  0
CLASS
  1
LWPOLYLINE
  2
AcDbPolyline
  3
AutoCAD 2000
 90
        0
280
     0
281
     1
  0
CLASS
  1
HATCH
  2
AcDbHatch
  3
AutoCAD 2000
 90
        0
280
     0
281
     1
  0
CLASS
  1
XRECORD
  2
AcDbXrecord
  3
AutoCAD 2000
 90
        0
280
     0
281
     0
  0
CLASS
  1
LONG_TRANSACTION
  2
AcDbLongTransaction
  3
AutoCAD 2000
 90
        0
280
     0
281
     0
  0
CLASS
  1
LWPOLYLINE
  2
AcDbPolyline
  3
AutoCAD 2000
 90
        0
280
     0
281
     1
  0
CLASS
  1
HATCH
  2
AcDbHatch
  3
AutoCAD 2000
 90
        0
280
     0
281
     1
  0
CLASS
  1
XRECORD
  2
AcDbXrecord
  3
AutoCAD 2000
 90
        0
280
     0
281
     0
  0
CLASS
  1
LONG_TRANSACTION
  2
AcDbLongTransaction
  3
AutoCAD 2000
 90
        0
280
     0
281
     0
  0
CLASS
  1
LWPOLYLINE
  2
AcDbPolyline
  3
AutoCAD 2000
 90
        0
280
     0
281
     1
  0
CLASS
  1
HATCH
  2
AcDbHatch
  3
AutoCAD 2000
 90
        0
280
     0
281
     1
  0
CLASS
  1
XRECORD
  2
AcDbXrecord
  3
AutoCAD 2000
 90
        0
280
     0
281
     0
  0
CLASS
  1
LONG_TRANSACTION
  2
AcDbLongTransaction
  3
AutoCAD 2000
 90
        0
280
     0
281
     0
  0
CLASS
  1
LWPOLYLINE
  2
AcDbPolyline
  3
AutoCAD 2000
 90
        0
280
     0
281
     1
  0
CLASS
  1
HATCH
  2
AcDbHatch
  3
AutoCAD 2000
 90
        0
280
     0
281
     1
  0
CLASS
  1
XRECORD
  2
AcDbXrecord
  3
AutoCAD 2000
 90
        0
280
     0
281
     0
  0
CLASS
  1
LONG_TRANSACTION
  2
AcDbLongTransaction
  3
AutoCAD 2000
 90
        0
280
     0
281
     0
  0
CLASS
  1
LWPOLYLINE
  2
AcDbPolyline
  3
AutoCAD 2000
 90
        0
280
     0
281
     1
  0
CLASS
  1
HATCH
  2
AcDbHatch
  3
AutoCAD 2000
 90
        0
280
     0
281
     1
  0
CLASS
  1
XRECORD
  2
AcDbXrecord
  3
AutoCAD 2000
 90
        0
280
     0
281
     0
  0
CLASS
  1
LONG_TRANSACTION
  2
AcDbLongTransaction
  3
AutoCAD 2000
 90
        0
280
     0
281
     0
  0
CLASS
  1
LWPOLYLINE
  2
AcDbPolyline
  3
AutoCAD 2000
 90
        0
280
     0
281
     1
  0
CLASS
  1
HATCH
  2
AcDbHatch
  3
AutoCAD 2000
 90
        0
280
     0
281
     1
  0
CLASS
  1
XRECORD
  2
AcDbXrecord
  3
AutoCAD 2000
 90
        0
280
     0
281
     0
  0
CLASS
  1
LONG_TRANSACTION
  2
AcDbLongTransaction
  3
AutoCAD 2000
 90
        0
280
     0
281
     0
  0
CLASS
  1
LWPOLYLINE
  2
AcDbPolyline
  3
AutoCAD 2000
 90
        0
280
     0
281
     1
  0
CLASS
  1
HATCH
  2
AcDbHatch
  3
AutoCAD 2000
 90
        0
280
     0
281
     1
  0
CLASS
  1
XRECORD
  2
AcDbXrecord
  3
AutoCAD 2000
 90
        0
280
     0
281
     0
  0
CLASS
  1
LONG_TRANSACTION
  2
AcDbLongTransaction
  3
AutoCAD 2000
 90
        0
280
     0
281
     0
  0
CLASS
  1
LWPOLYLINE
  2
AcDbPolyline
  3
AutoCAD 2000
 90
        0
280
     0
281
     1
  0
CLASS
  1
HATCH
  2
AcDbHatch
  3
AutoCAD 2000
 90
        0
280
     0
281
     1
  0
CLASS
  1
XRECORD
  2
AcDbXrecord
  3
AutoCAD 2000
 90
        0
280
     0
281
     0
  0
CLASS
  1
LONG_TRANSACTION
  2
AcDbLongTransaction
  3
AutoCAD 2000
 90
        0
280
     0
281
     0
  0
CLASS
  1
LWPOLYLINE
  2
AcDbPolyline
  3
AutoCAD 2000
 90
        0
280
     0
281
     1
  0
CLASS
  1
HATCH
  2
AcDbHatch
  3
AutoCAD 2000
 90
        0
280
     0
281
     1
  0
CLASS
  1
XRECORD
  2
AcDbXrecord
  3
AutoCAD 2000
 90
        0
280
     0
281
     0
  0
CLASS
  1
LONG_TRANSACTION
  2
AcDbLongTransaction
  3
AutoCAD 2000
 90
        0
280
     0
281
     0
  0
CLASS
  1
LWPOLYLINE
  2
AcDbPolyline
  3
AutoCAD 2000
 90
        0
280
     0
281
     1
  0
CLASS
  1
HATCH
  2
AcDbHatch
  3
AutoCAD 2000
 90
        0
280
     0
281
     1
  0
CLASS
  1
XRECORD
  2
AcDbXrecord
  3
AutoCAD 2000
 90
        0
280
     0
281
     0
  0
CLASS
  1
LONG_TRANSACTION
  2
AcDbLongTransaction
  3
AutoCAD 2000
 90
        0
280
     0
281
     0
  0
CLASS
  1
LWPOLYLINE
  2
AcDbPolyline
  3
AutoCAD 2000
 90
        0
280
     0
281
     1
  0
CLASS
  1
HATCH
  2
AcDbHatch
  3
AutoCAD 2000
 90
        0
280
     0
281
     1
  0
CLASS
  1
XRECORD
  2
AcDbXrecord
  3
AutoCAD 2000
 90
        0
280
     0
281
     0
  0
CLASS
  1
LONG_TRANSACTION
  2
AcDbLongTransaction
  3
AutoCAD 2000
 90
        0
280
     0
281
     0
  0
CLASS
  1
LWPOLYLINE
  2
AcDbPolyline
  3
AutoCAD 2000
 90
        0
280
     0
281
     1
  0
CLASS
  1
HATCH
  2
AcDbHatch
  3
AutoCAD 2000
 90
        0
280
     0
281
     1
  0
CLASS
  1
XRECORD
  2
AcDbXrecord
  3
AutoCAD 2000
 90
        0
280
     0
281
     0
  0
CLASS
  1
LONG_TRANSACTION
  2
AcDbLongTransaction
  3
AutoCAD 2000
 90
        0
280
     0
281
     0
  0
CLASS
  1
LWPOLYLINE
  2
AcDbPolyline
  3
AutoCAD 2000
 90
        0
280
     0
281
     1
  0
CLASS
  1
HATCH
  2
AcDbHatch
  3
AutoCAD 2000
 90
        0
280
     0
281
     1
  0
CLASS
  1
XRECORD
  2
AcDbXrecord
  3
AutoCAD 2000
 90
        0
280
     0
281
     0
  0
CLASS
  1
LONG_TRANSACTION
  2
AcDbLongTransaction
  3
AutoCAD 2000
 90
        0
280
     0
281
     0
  0
CLASS
  1
LWPOLYLINE
  2
AcDbPolyline
  3
AutoCAD 2000
 90
        0
280
     0
281
     1
  0
CLASS
  1
HATCH
  2
AcDbHatch
  3
AutoCAD 2000
 90
        0
280
     0
281
     1
  0
CLASS
  1
XRECORD
  2
AcDbXrecord
  3
AutoCAD 2000
 90
        0
280
     0
281
     0
  0
CLASS
  1
LONG_TRANSACTION
  2
AcDbLongTransaction
  3
AutoCAD 2000
 90
        0
280
     0
281
     0
  0
CLASS
  1
LWPOLYLINE
  2
AcDbPolyline
  3
AutoCAD 2000
 90
        0
280
     0
281
     1
  0
CLASS
  1
HATCH
  2
AcDbHatch
  3
AutoCAD 2000
 90
        0
280
     0
281
     1
  0
CLASS
  1
XRECORD
  2
AcDbXrecord
  3
AutoCAD 2000
 90
        0
280
     0
281
     0
  0
CLASS
  1
LONG_TRANSACTION
  2
AcDbLongTransaction
  3
AutoCAD 2000
 90
        0
280
     0
281
     0
  0
CLASS
  1
LWPOLYLINE
  2
AcDbPolyline
  3
AutoCAD 2000
 90
        0
280
     0
281
     1
  0
CLASS
  1
HATCH
  2
AcDbHatch
  3
AutoCAD 2000
 90
        0
280
     0
281
     1
  0
CLASS
  1
XRECORD
  2
AcDbXrecord
  3
AutoCAD 2000
 90
        0
280
     0
281
     0
  0
CLASS
  1
LONG_TRANSACTION
  2
AcDbLongTransaction
  3
AutoCAD 2000
 90
        0
280
     0
281
     0
  0
CLASS
  1
LWPOLYLINE
  2
AcDbPolyline
  3
AutoCAD 2000
 90
        0
280
     0
281
     1
  0
CLASS
  1
HATCH
  2
AcDbHatch
  3
AutoCAD 2000
 90
        0
280
     0
281
     1
  0
CLASS
  1
XRECORD
  2
AcDbXrecord
  3
AutoCAD 2000
 90
        0
280
     0
281
     0
  0
CLASS
  1
LONG_TRANSACTION
  2
AcDbLongTransaction
  3
AutoCAD 2000
 90
        0
280
     0
281
     0
  0
CLASS
  1
LWPOLYLINE
  2
AcDbPolyline
  3
AutoCAD 2000
 90
        0
280
     0
281
     1
  0
CLASS
  1
HATCH
  2
AcDbHatch
  3
AutoCAD 2000
 90
        0
280
     0
281
     1
  0
CLASS
  1
XRECORD
  2
AcDbXrecord
  3
AutoCAD 2000
 90
        0
280
     0
281
     0
  0
CLASS
  1
LONG_TRANSACTION
  2
AcDbLongTransaction
  3
AutoCAD 2000
 90
        0
280
     0
281
     0
  0
CLASS
  1
LWPOLYLINE
  2
AcDbPolyline
  3
AutoCAD 2000
 90
        0
280
     0
281
     1
  0
CLASS
  1
HATCH
  2
AcDbHatch
  3
AutoCAD 2000
 90
        0
280
     0
281
     1
  0
CLASS
  1
XRECORD
  2
AcDbXrecord
  3
AutoCAD 2000
 90
        0
280
     0
281
     0
  0
CLASS
  1
LONG_TRANSACTION
  2
AcDbLongTransaction
  3
AutoCAD 2000
 90
        0
280
     0
281
     0
  0
CLASS
  1
LWPOLYLINE
  2
AcDbPolyline
  3
AutoCAD 2000
 90
        0
280
     0
281
     1
  0
CLASS
  1
HATCH
  2
AcDbHatch
  3
AutoCAD 2000
 90
        0
280
     0
281
     1
  0
CLASS
  1
XRECORD
  2
AcDbXrecord
  3
AutoCAD 2000
 90
        0
280
     0
281
     0
  0
CLASS
  1
LONG_TRANSACTION
  2
AcDbLongTransaction
  3
AutoCAD 2000
 90
        0
280
     0
281
     0
  0
CLASS
  1
LWPOLYLINE
  2
AcDbPolyline
  3
AutoCAD 2000
 90
        0
280
     0
281
     1
  0
CLASS
  1
HATCH
  2
AcDbHatch
  3
AutoCAD 2000
 90
        0
280
     0
281
     1
  0
CLASS
  1
XRECORD
  2
AcDbXrecord
  3
AutoCAD 2000
 90
        0
280
     0
281
     0
  0
CLASS
  1
LONG_TRANSACTION
  2
AcDbLongTransaction
  3
AutoCAD 2000
 90
        0
280
     0
281
     0
  0
CLASS
  1
LWPOLYLINE
  2
AcDbPolyline
  3
AutoCAD 2000
 90
        0
280
     0
281
     1
  0
CLASS
  1
HATCH
  2
AcDbHatch
  3
AutoCAD 2000
 90
        0
280
     0
281
     1
  0
CLASS
  1
XRECORD
  2
AcDbXrecord
  3
AutoCAD 2000
 90
        0
280
     0
281
     0
  0
CLASS
  1
LONG_TRANSACTION
  2
AcDbLongTransaction
  3
AutoCAD 2000
 90
        0
280
     0
281
     0
  0
CLASS
  1
LWPOLYLINE
  2
AcDbPolyline
  3
AutoCAD 2000
 90
        0
280
     0
281
     1
  0
CLASS
  1
HATCH
  2
AcDbHatch
  3
AutoCAD 2000
 90
        0
280
     0
281
     1
  0
CLASS
  1
XRECORD
  2
AcDbXrecord
  3
AutoCAD 2000
 90
        0
280
     0
281
     0
  0
CLASS
  1
LONG_TRANSACTION
  2
AcDbLongTransaction
  3
AutoCAD 2000
 90
        0
280
     0
281
     0
  0
CLASS
  1
LWPOLYLINE
  2
AcDbPolyline
  3
AutoCAD 2000
 90
        0
280
     0
281
     1
  0
CLASS
  1
HATCH
  2
AcDbHatch
  3
AutoCAD 2000
 90
        0
280
     0
281
     1
  0
CLASS
  1
XRECORD
  2
AcDbXrecord
  3
AutoCAD 2000
 90
        0
280
     0
281
     0
  0
CLASS
  1
LONG_TRANSACTION
  2
AcDbLongTransaction
  3
AutoCAD 2000
 90
        0
280
     0
281
     0
  0
CLASS
  1
LWPOLYLINE
  2
AcDbPolyline
  3
AutoCAD 2000
 90
        0
280
     0
281
     1
  0
CLASS
  1
HATCH
  2
AcDbHatch
  3
AutoCAD 2000
 90
        0
280
     0
281
     1
  0
CLASS
  1
XRECORD
  2
AcDbXrecord
  3
AutoCAD 2000
 90
        0
280
     0
281
     0
  0
CLASS
  1
LONG_TRANSACTION
  2
AcDbLongTransaction
  3
AutoCAD 2000
 90
        0
280
     0
281
     0
  0
CLASS
  1
LWPOLYLINE
  2
AcDbPolyline
  3
AutoCAD 2000
 90
        0
280
     0
281
     1
  0
CLASS
  1
HATCH
  2
AcDbHatch
  3
AutoCAD 2000
 90
        0
280
     0
281
     1
  0
CLASS
  1
XRECORD
  2
AcDbXrecord
  3
AutoCAD 2000
 90
        0
280
     0
281
     0
  0
CLASS
  1
LONG_TRANSACTION
  2
AcDbLongTransaction
  3
AutoCAD 2000
 90
        0
280
     0
281
     0
  0
CLASS
  1
LWPOLYLINE
  2
AcDbPolyline
  3
AutoCAD 2000
 90
        0
280
     0
281
     1
  0
CLASS
  1
HATCH
  2
AcDbHatch
  3
AutoCAD 2000
 90
        0
280
     0
281
     1
  0
CLASS
  1
XRECORD
  2
AcDbXrecord
  3
AutoCAD 2000
 90
        0
280
     0
281
     0
  0
CLASS
  1
LONG_TRANSACTION
  2
AcDbLongTransaction
  3
AutoCAD 2000
 90
        0
280
     0
281
     0
  0
CLASS
  1
LWPOLYLINE
  2
AcDbPolyline
  3
AutoCAD 2000
 90
        0
280
     0
281
     1
  0
CLASS
  1
HATCH
  2
AcDbHatch
  3
AutoCAD 2000
 90
        0
280
     0
281
     1
  0
CLASS
  1
XRECORD
  2
AcDbXrecord
  3
AutoCAD 2000
 90
        0
280
     0
281
     0
  0
CLASS
  1
LONG_TRANSACTION
  2
AcDbLongTransaction
  3
AutoCAD 2000
 90
        0
280
     0
281
     0
  0
CLASS
  1
LWPOLYLINE
  2
AcDbPolyline
  3
AutoCAD 2000
 90
        0
280
     0
281
     1
  0
CLASS
  1
HATCH
  2
AcDbHatch
  3
AutoCAD 2000
 90
        0
280
     0
281
     1
  0
CLASS
  1
XRECORD
  2
AcDbXrecord
  3
AutoCAD 2000
 90
        0
280
     0
281
     0
  0
CLASS
  1
LONG_TRANSACTION
  2
AcDbLongTransaction
  3
AutoCAD 2000
 90
        0
280
     0
281
     0
  0
CLASS
  1
LWPOLYLINE
  2
AcDbPolyline
  3
AutoCAD 2000
 90
        0
280
     0
281
     1
  0
CLASS
  1
HATCH
  2
AcDbHatch
  3
AutoCAD 2000
 90
        0
280
     0
281
     1
  0
CLASS
  1
XRECORD
  2
AcDbXrecord
  3
AutoCAD 2000
 90
        0
280
     0
281
     0
  0
CLASS
  1
LONG_TRANSACTION
  2
AcDbLongTransaction
  3
AutoCAD 2000
 90
        0
280
     0
281
     0
  0
CLASS
  1
LWPOLYLINE
  2
AcDbPolyline
  3
AutoCAD 2000
 90
        0
280
     0
281
     1
  0
CLASS
  1
HATCH
  2
AcDbHatch
  3
AutoCAD 2000
 90
        0
280
     0
281
     1
  0
CLASS
  1
XRECORD
  2
AcDbXrecord
  3
AutoCAD 2000
 90
        0
280
     0
281
     0
  0
CLASS
  1
LONG_TRANSACTION
  2
AcDbLongTransaction
  3
AutoCAD 2000
 90
        0
280
     0
281
     0
  0
CLASS
  1
LWPOLYLINE
  2
AcDbPolyline
  3
AutoCAD 2000
 90
        0
280
     0
281
     1
  0
CLASS
  1
HATCH
  2
AcDbHatch
  3
AutoCAD 2000
 90
        0
280
     0
281
     1
  0
CLASS
  1
XRECORD
  2
AcDbXrecord
  3
AutoCAD 2000
 90
        0
280
     0
281
     0
  0
CLASS
  1
LONG_TRANSACTION
  2
AcDbLongTransaction
  3
AutoCAD 2000
 90
        0
280
     0
281
     0
  0
CLASS
  1
LWPOLYLINE
  2
AcDbPolyline
  3
AutoCAD 2000
 90
        0
280
     0
281
     1
  0
CLASS
  1
HATCH
  2
AcDbHatch
  3
AutoCAD 2000
 90
        0
280
     0
281
     1
  0
CLASS
  1
XRECORD
  2
AcDbXrecord
  3
AutoCAD 2000
 90
        0
280
     0
281
     0
  0
CLASS
  1
LONG_TRANSACTION
  2
AcDbLongTransaction
  3
AutoCAD 2000
 90
        0
280
     0
281
     0
  0
CLASS
  1
LWPOLYLINE
  2
AcDbPolyline
  3
AutoCAD 2000
 90
        0
280
     0
281
     1
  0
CLASS
  1
HATCH
  2
AcDbHatch
  3
AutoCAD 2000
 90
        0
280
     0
281
     1
  0
CLASS
  1
XRECORD
  2
AcDbXrecord
  3
AutoCAD 2000
 90
        0
280
     0
281
     0
  0
CLASS
  1
LONG_TRANSACTION
  2
AcDbLongTransaction
  3
AutoCAD 2000
 90
        0
280
     0
281
     0
  0
CLASS
  1
LWPOLYLINE
  2
AcDbPolyline
  3
AutoCAD 2000
 90
        0
280
     0
281
     1
  0
CLASS
  1
HATCH
  2
AcDbHatch
  3
AutoCAD 2000
 90
        0
280
     0
281
     1
  0
CLASS
  1
XRECORD
  2
AcDbXrecord
  3
AutoCAD 2000
 90
        0
280
     0
281
     0
  0
CLASS
  1
LONG_TRANSACTION
  2
AcDbLongTransaction
  3
AutoCAD 2000
 90
        0
280
     0
281
     0
  0
CLASS
  1
LWPOLYLINE
  2
AcDbPolyline
  3
AutoCAD 2000
 90
        0
280
     0
281
     1
  0
CLASS
  1
HATCH
  2
AcDbHatch
  3
AutoCAD 2000
 90
        0
280
     0
281
     1
  0
CLASS
  1
XRECORD
  2
AcDbXrecord
  3
AutoCAD 2000
 90
        0
280
     0
281
     0
  0
CLASS
  1
LONG_TRANSACTION
  2
AcDbLongTransaction
  3
AutoCAD 2000
 90
        0
280
     0
281
     0
  0
CLASS
  1
LWPOLYLINE
  2
AcDbPolyline
  3
AutoCAD 2000
 90
        0
280
     0
281
     1
  0
CLASS
  1
HATCH
  2
AcDbHatch
  3
AutoCAD 2000
 90
        0
280
     0
281
     1
  0
CLASS
  1
XRECORD
  2
AcDbXrecord
  3
AutoCAD 2000
 90
        0
280
     0
281
     0
  0
CLASS
  1
LONG_TRANSACTION
  2
AcDbLongTransaction
  3
AutoCAD 2000
 90
        0
280
     0
281
     0
  0
CLASS
  1
LWPOLYLINE
  2
AcDbPolyline
  3
AutoCAD 2000
 90
        0
280
     0
281
     1
  0
CLASS
  1
HATCH
  2
AcDbHatch
  3
AutoCAD 2000
 90
        0
280
     0
281
     1
  0
CLASS
  1
XRECORD
  2
AcDbXrecord
  3
AutoCAD 2000
 90
        0
280
     0
281
     0
  0
CLASS
  1
LONG_TRANSACTION
  2
AcDbLongTransaction
  3
AutoCAD 2000
 90
        0
280
     0
281
     0
  0
CLASS
  1
LWPOLYLINE
  2
AcDbPolyline
  3
AutoCAD 2000
 90
        0
280
     0
281
     1
  0
CLASS
  1
HATCH
  2
AcDbHatch
  3
AutoCAD 2000
 90
        0
280
     0
281
     1
  0
CLASS
  1
XRECORD
  2
AcDbXrecord
  3
AutoCAD 2000
 90
        0
280
     0
281
     0
  0
CLASS
  1
LONG_TRANSACTION
  2
AcDbLongTransaction
  3
AutoCAD 2000
 90
        0
280
     0
281
     0
  0
CLASS
  1
LWPOLYLINE
  2
AcDbPolyline
  3
AutoCAD 2000
 90
        0
280
     0
281
     1
  0
CLASS
  1
HATCH
  2
AcDbHatch
  3
AutoCAD 2000
 90
        0
280
     0
281
     1
  0
CLASS
  1
XRECORD
  2
AcDbXrecord
  3
AutoCAD 2000
 90
        0
280
     0
281
     0
  0
CLASS
  1
LONG_TRANSACTION
  2
AcDbLongTransaction
  3
AutoCAD 2000
 90
        0
280
     0
281
     0
  0
CLASS
  1
LWPOLYLINE
  2
AcDbPolyline
  3
AutoCAD 2000
 90
        0
280
     0
281
     1
  0
CLASS
  1
HATCH
  2
AcDbHatch
  3
AutoCAD 2000
 90
        0
280
     0
281
     1
  0
CLASS
  1
XRECORD
  2
AcDbXrecord
  3
AutoCAD 2000
 90
        0
280
     0
281
     0
  0
CLASS
  1
LONG_TRANSACTION
  2
AcDbLongTransaction
  3
AutoCAD 2000
 90
        0
280
     0
281
     0
  0
CLASS
  1
LWPOLYLINE
  2
AcDbPolyline
  3
AutoCAD 2000
 90
        0
280
     0
281
     1
  0
CLASS
  1
HATCH
  2
AcDbHatch
  3
AutoCAD 2000
 90
        0
280
     0
281
     1
  0
CLASS
  1
XRECORD
  2
AcDbXrecord
  3
AutoCAD 2000
 90
        0
280
     0
281
     0
  0
CLASS
  1
LONG_TRANSACTION
  2
AcDbLongTransaction
  3
AutoCAD 2000
 90
        0
280
     0
281
     0
  0
CLASS
  1
LWPOLYLINE
  2
AcDbPolyline
  3
AutoCAD 2000
 90
        0
280
     0
281
     1
  0
CLASS
  1
HATCH
  2
AcDbHatch
  3
AutoCAD 2000
 90
        0
280
     0
281
     1
  0
CLASS
  1
XRECORD
  2
AcDbXrecord
  3
AutoCAD 2000
 90
        0
280
     0
281
     0
  0
CLASS
  1
LONG_TRANSACTION
  2
AcDbLongTransaction
  3
AutoCAD 2000
 90
        0
280
     0
281
     0
  0
CLASS
  1
LWPOLYLINE
  2
AcDbPolyline
  3
AutoCAD 2000
 90
        0
280
     0
281
     1
  0
CLASS
  1
HATCH
  2
AcDbHatch
  3
AutoCAD 2000
 90
        0
280
     0
281
     1
  0
CLASS
  1
XRECORD
  2
AcDbXrecord
  3
AutoCAD 2000
 90
        0
280
     0
281
     0
  0
CLASS
  1
LONG_TRANSACTION
  2
AcDbLongTransaction
  3
AutoCAD 2000
 90
        0
280
     0
281
     0
  0
CLASS
  1
LWPOLYLINE
  2
AcDbPolyline
  3
AutoCAD 2000
 90
        0
280
     0
281
     1
  0
CLASS
  1
HATCH
  2
AcDbHatch
  3
AutoCAD 2000
 90
        0
280
     0
281
     1
  0
CLASS
  1
XRECORD
  2
AcDbXrecord
  3
AutoCAD 2000
 90
        0
280
     0
281
     0
  0
CLASS
  1
LONG_TRANSACTION
  2
AcDbLongTransaction
  3
AutoCAD 2000
 90
        0
280
     0
281
     0
  0
CLASS
  1
LWPOLYLINE
  2
AcDbPolyline
  3
AutoCAD 2000
 90
        0
280
     0
281
     1
  0
CLASS
  1
HATCH
  2
AcDbHatch
  3
AutoCAD 2000
 90
        0
280
     0
281
     1
  0
CLASS
  1
XRECORD
  2
AcDbXrecord
  3
AutoCAD 2000
 90
        0
280
     0
281
     0
  0
CLASS
  1
LONG_TRANSACTION
  2
AcDbLongTransaction
  3
AutoCAD 2000
 90
        0
280
     0
281
     0
  0
CLASS
  1
LWPOLYLINE
  2
AcDbPolyline
  3
AutoCAD 2000
 90
        0
280
     0
281
     1
  0
CLASS
  1
HATCH
  2
AcDbHatch
  3
AutoCAD 2000
 90
        0
280
     0
281
     1
  0
CLASS
  1
XRECORD
  2
AcDbXrecord
  3
AutoCAD 2000
 90
        0
280
     0
281
     0
  0
CLASS
  1
LONG_TRANSACTION
  2
AcDbLongTransaction
  3
AutoCAD 2000
 90
        0
280
     0
281
     0
  0
CLASS
  1
LWPOLYLINE
  2
AcDbPolyline
  3
AutoCAD 2000
 90
        0
280
     0
281
     1
  0
CLASS
  1
HATCH
  2
AcDbHatch
  3
AutoCAD 2000
 90
        0
280
     0
281
     1
  0
CLASS
  1
XRECORD
  2
AcDbXrecord
  3
AutoCAD 2000
 90
        0
280
     0
281
     0
  0
CLASS
  1
LONG_TRANSACTION
  2
AcDbLongTransaction
  3
AutoCAD 2000
 90
        0
280
     0
281
     0
  0
CLASS
  1
LWPOLYLINE
  2
AcDbPolyline
  3
AutoCAD 2000
 90
        0
280
     0
281
     1
  0
CLASS
  1
HATCH
  2
AcDbHatch
  3
AutoCAD 2000
 90
        0
280
     0
281
     1
  0
CLASS
  1
XRECORD
  2
AcDbXrecord
  3
AutoCAD 2000
 90
        0
280
     0
281
     0
  0
CLASS
  1
LONG_TRANSACTION
  2
AcDbLongTransaction
  3
AutoCAD 2000
 90
        0
280
     0
281
     0
  0
CLASS
  1
LWPOLYLINE
  2
AcDbPolyline
  3
AutoCAD 2000
 90
        0
280
     0
281
     1
  0
CLASS
  1
HATCH
  2
AcDbHatch
  3
AutoCAD 2000
 90
        0
280
     0
281
     1
  0
CLASS
  1
XRECORD
  2
AcDbXrecord
  3
AutoCAD 2000
 90
        0
280
     0
281
     0
  0
CLASS
  1
LONG_TRANSACTION
  2
AcDbLongTransaction
  3
AutoCAD 2000
 90
        0
280
     0
281
     0
  0
CLASS
  1
LWPOLYLINE
  2
AcDbPolyline
  3
AutoCAD 2000
 90
        0
280
     0
281
     1
  0
CLASS
  1
HATCH
  2
AcDbHatch
  3
AutoCAD 2000
 90
        0
280
     0
281
     1
  0
CLASS
  1
XRECORD
  2
AcDbXrecord
  3
AutoCAD 2000
 90
        0
280
     0
281
     0
  0
CLASS
  1
LONG_TRANSACTION
  2
AcDbLongTransaction
  3
AutoCAD 2000
 90
        0
280
     0
281
     0
  0
CLASS
  1
LWPOLYLINE
  2
AcDbPolyline
  3
AutoCAD 2000
 90
        0
280
     0
281
     1
  0
CLASS
  1
HATCH
  2
AcDbHatch
  3
AutoCAD 2000
 90
        0
280
     0
281
     1
  0
CLASS
  1
XRECORD
  2
AcDbXrecord
  3
AutoCAD 2000
 90
        0
280
     0
281
     0
  0
CLASS
  1
LONG_TRANSACTION
  2
AcDbLongTransaction
  3
AutoCAD 2000
 90
        0
280
     0
281
     0
  0
CLASS
  1
LWPOLYLINE
  2
AcDbPolyline
  3
AutoCAD 2000
 90
        0
280
     0
281
     1
  0
CLASS
  1
HATCH
  2
AcDbHatch
  3
AutoCAD 2000
 90
        0
280
     0
281
     1
  0
CLASS
  1
XRECORD
  2
AcDbXrecord
  3
AutoCAD 2000
 90
        0
280
     0
281
     0
  0
CLASS
  1
LONG_TRANSACTION
  2
AcDbLongTransaction
  3
AutoCAD 2000
 90
        0
280
     0
281
     0
  0
CLASS
  1
LWPOLYLINE
  2
AcDbPolyline
  3
AutoCAD 2000
 90
        0
280
     0
281
     1
  0
CLASS
  1
HATCH
  2
AcDbHatch
  3
AutoCAD 2000
 90
        0
280
     0
281
     1
  0
CLASS
  1
XRECORD
  2
AcDbXrecord
  3
AutoCAD 2000
 90
        0
280
     0
281
     0
  0
CLASS
  1
LONG_TRANSACTION
  2
AcDbLongTransaction
  3
AutoCAD 2000
 90
        0
280
     0
281
     0
  0
CLASS
  1
LWPOLYLINE
  2
AcDbPolyline
  3
AutoCAD 2000
 90
        0
280
     0
281
     1
  0
CLASS
  1
HATCH
  2
AcDbHatch
  3
AutoCAD 2000
 90
        0
280
     0
281
     1
  0
CLASS
  1
XRECORD
  2
AcDbXrecord
  3
AutoCAD 2000
 90
        0
280
     0
281
     0
  0
CLASS
  1
LONG_TRANSACTION
  2
AcDbLongTransaction
  3
AutoCAD 2000
 90
        0
280
     0
281
     0
  0
CLASS
  1
LWPOLYLINE
  2
AcDbPolyline
  3
AutoCAD 2000
 90
        0
280
     0
281
     1
  0
CLASS
  1
HATCH
  2
AcDbHatch
  3
AutoCAD 2000
 90
        0
280
     0
281
     1
  0
CLASS
  1
XRECORD
  2
AcDbXrecord
  3
AutoCAD 2000
 90
        0
280
     0
281
     0
  0
CLASS
  1
LONG_TRANSACTION
  2
AcDbLongTransaction
  3
AutoCAD 2000
 90
        0
280
     0
281
     0
  0
CLASS
  1
LWPOLYLINE
  2
AcDbPolyline
  3
AutoCAD 2000
 90
        0
280
     0
281
     1
  0
CLASS
  1
HATCH
  2
AcDbHatch
  3
AutoCAD 2000
 90
        0
280
     0
281
     1
  0
CLASS
  1
XRECORD
  2
AcDbXrecord
  3
AutoCAD 2000
 90
        0
280
     0
281
     0
  0
CLASS
  1
LONG_TRANSACTION
  2
AcDbLongTransaction
  3
AutoCAD 2000
 90
        0
280
     0
281
     0
  0
CLASS
  1
LWPOLYLINE
  2
AcDbPolyline
  3
AutoCAD 2000
 90
        0
280
     0
281
     1
  0
CLASS
  1
HATCH
  2
AcDbHatch
  3
AutoCAD 2000
 90
        0
280
     0
281
     1
  0
CLASS
  1
XRECORD
  2
AcDbXrecord
  3
AutoCAD 2000
 90
        0
280
     0
281
     0
  0
CLASS
  1
LONG_TRANSACTION
  2
AcDbLongTransaction
  3
AutoCAD 2000
 90
        0
280
     0
281
     0
  0
CLASS
  1
LWPOLYLINE
  2
AcDbPolyline
  3
AutoCAD 2000
 90
        0
280
     0
281
     1
  0
CLASS
  1
HATCH
  2
AcDbHatch
  3
AutoCAD 2000
 90
        0
280
     0
281
     1
  0
CLASS
  1
XRECORD
  2
AcDbXrecord
  3
AutoCAD 2000
 90
        0
280
     0
281
     0
  0
CLASS
  1
LONG_TRANSACTION
  2
AcDbLongTransaction
  3
AutoCAD 2000
 90
        0
280
     0
281
     0
  0
CLASS
  1
LWPOLYLINE
  2
AcDbPolyline
  3
AutoCAD 2000
 90
        0
280
     0
281
     1
  0
CLASS
  1
HATCH
  2
AcDbHatch
  3
AutoCAD 2000
 90
        0
280
     0
281
     1
  0
CLASS
  1
XRECORD
  2
AcDbXrecord
  3
AutoCAD 2000
 90
        0
280
     0
281
     0
  0
CLASS
  1
LONG_TRANSACTION
  2
AcDbLongTransaction
  3
AutoCAD 2000
 90
        0
280
     0
281
     0
  0
CLASS
  1
LWPOLYLINE
  2
AcDbPolyline
  3
AutoCAD 2000
 90
        0
280
     0
281
     1
  0
CLASS
  1
HATCH
  2
AcDbHatch
  3
AutoCAD 2000
 90
        0
280
     0
281
     1
  0
CLASS
  1
XRECORD
  2
AcDbXrecord
  3
AutoCAD 2000
 90
        0
280
     0
281
     0
  0
CLASS
  1
LONG_TRANSACTION
  2
AcDbLongTransaction
  3
AutoCAD 2000
 90
        0
280
     0
281
     0
  0
CLASS
  1
LWPOLYLINE
  2
AcDbPolyline
  3
AutoCAD 2000
 90
        0
280
     0
281
     1
  0
CLASS
  1
HATCH
  2
AcDbHatch
  3
AutoCAD 2000
 90
        0
280
     0
281
     1
  0
CLASS
  1
XRECORD
  2
AcDbXrecord
  3
AutoCAD 2000
 90
        0
280
     0
281
     0
  0
CLASS
  1
LONG_TRANSACTION
  2
AcDbLongTransaction
  3
AutoCAD 2000
 90
        0
280
     0
281
     0
  0
CLASS
  1
LWPOLYLINE
  2
AcDbPolyline
  3
AutoCAD 2000
 90
        0
280
     0
281
     1
  0
CLASS
  1
HATCH
  2
AcDbHatch
  3
AutoCAD 2000
 90
        0
280
     0
281
     1
  0
CLASS
  1
XRECORD
  2
AcDbXrecord
  3
AutoCAD 2000
 90
        0
280
     0
281
     0
  0
CLASS
  1
LONG_TRANSACTION
  2
AcDbLongTransaction
  3
AutoCAD 2000
 90
        0
280
     0
281
     0
  0
CLASS
  1
LWPOLYLINE
  2
AcDbPolyline
  3
AutoCAD 2000
 90
        0
280
     0
281
     1
  0
CLASS
  1
HATCH
  2
AcDbHatch
  3
AutoCAD 2000
 90
        0
280
     0
281
     1
  0
CLASS
  1
XRECORD
  2
AcDbXrecord
  3
AutoCAD 2000
 90
        0
280
     0
281
     0
  0
CLASS
  1
LONG_TRANSACTION
  2
AcDbLongTransaction
  3
AutoCAD 2000
 90
        0
280
     0
281
     0
  0
CLASS
  1
LWPOLYLINE
  2
AcDbPolyline
  3
AutoCAD 2000
 90
        0
280
     0
281
     1
  0
CLASS
  1
HATCH
  2
AcDbHatch
  3
AutoCAD 2000
 90
        0
280
     0
281
     1
  0
CLASS
  1
XRECORD
  2
AcDbXrecord
  3
AutoCAD 2000
 90
        0
280
     0
281
     0
  0
CLASS
  1
LONG_TRANSACTION
  2
AcDbLongTransaction
  3
AutoCAD 2000
 90
        0
280
     0
281
     0
  0
CLASS
  1
LWPOLYLINE
  2
AcDbPolyline
  3
AutoCAD 2000
 90
        0
280
     0
281
     1
  0
CLASS
  1
HATCH
  2
AcDbHatch
  3
AutoCAD 2000
 90
        0
280
     0
281
     1
  0
CLASS
  1
XRECORD
  2
AcDbXrecord
  3
AutoCAD 2000
 90
        0
280
     0
281
     0
  0
CLASS
  1
LONG_TRANSACTION
  2
AcDbLongTransaction
  3
AutoCAD 2000
 90
        0
280
     0
281
     0
  0
CLASS
  1
LWPOLYLINE
  2
AcDbPolyline
  3
AutoCAD 2000
 90
        0
280
     0
281
     1
  0
CLASS
  1
HATCH
  2
AcDbHatch
  3
AutoCAD 2000
 90
        0
280
     0
281
     1
  0
CLASS
  1
XRECORD
  2
AcDbXrecord
  3
AutoCAD 2000
 90
        0
280
     0
281
     0
  0
CLASS
  1
LONG_TRANSACTION
  2
AcDbLongTransaction
  3
AutoCAD 2000
 90
        0
280
     0
281
     0
  0
CLASS
  1
LWPOLYLINE
  2
AcDbPolyline
  3
AutoCAD 2000
 90
        0
280
     0
281
     1
  0
CLASS
  1
HATCH
  2
AcDbHatch
  3
AutoCAD 2000
 90
        0
280
     0
281
     1
  0
CLASS
  1
XRECORD
  2
AcDbXrecord
  3
AutoCAD 2000
 90
        0
280
     0
281
     0
  0
CLASS
  1
LONG_TRANSACTION
  2
AcDbLongTransaction
  3
AutoCAD 2000
 90
        0
280
     0
281
     0
  0
CLASS
  1
LWPOLYLINE
  2
AcDbPolyline
  3
AutoCAD 2000
 90
        0
280
     0
281
     1
  0
CLASS
  1
HATCH
  2
AcDbHatch
  3
AutoCAD 2000
 90
        0
280
     0
281
     1
  0
CLASS
  1
XRECORD
  2
AcDbXrecord
  3
AutoCAD 2000
 90
        0
280
     0
281
     0
  0
CLASS
  1
LONG_TRANSACTION
  2
AcDbLongTransaction
  3
AutoCAD 2000
 90
        0
280
     0
281
     0
  0
CLASS
  1
LWPOLYLINE
  2
AcDbPolyline
  3
AutoCAD 2000
 90
        0
280
     0
281
     1
  0
CLASS
  1
HATCH
  2
AcDbHatch
  3
AutoCAD 2000
 90
        0
280
     0
281
     1
  0
CLASS
  1
XRECORD
  2
AcDbXrecord
  3
AutoCAD 2000
 90
        0
280
     0
281
     0
  0
CLASS
  1
LONG_TRANSACTION
  2
AcDbLongTransaction
  3
AutoCAD 2000
 90
        0
280
     0
281
     0
  0
CLASS
  1
LWPOLYLINE
  2
AcDbPolyline
  3
AutoCAD 2000
 90
        0
280
     0
281
     1
  0
CLASS
  1
HATCH
  2
AcDbHatch
  3
AutoCAD 2000
 90
        0
280
     0
281
     1
  0
CLASS
  1
XRECORD
  2
AcDbXrecord
  3
AutoCAD 2000
 90
        0
280
     0
281
     0
  0
CLASS
  1
LONG_TRANSACTION
  2
AcDbLongTransaction
  3
AutoCAD 2000
 90
        0
280
     0
281
     0
  0
CLASS
  1
LWPOLYLINE
  2
AcDbPolyline
  3
AutoCAD 2000
 90
        0
280
     0
281
     1
  0
CLASS
  1
HATCH
  2
AcDbHatch
  3
AutoCAD 2000
 90
        0
280
     0
281
     1
  0
CLASS
  1
XRECORD
  2
AcDbXrecord
  3
AutoCAD 2000
 90
        0
280
     0
281
     0
  0
CLASS
  1
LONG_TRANSACTION
  2
AcDbLongTransaction
  3
AutoCAD 2000
 90
        0
280
     0
281
     0
  0
CLASS
  1
LWPOLYLINE
  2
AcDbPolyline
  3
AutoCAD 2000
 90
        0
280
     0
281
     1
  0
CLASS
  1
HATCH
  2
AcDbHatch
  3
AutoCAD 2000
 90
        0
280
     0
281
     1
  0
CLASS
  1
XRECORD
  2
AcDbXrecord
  3
AutoCAD 2000
 90
        0
280
     0
281
     0
  0
CLASS
  1
LONG_TRANSACTION
  2
AcDbLongTransaction
  3
AutoCAD 2000
 90
        0
280
     0
281
     0
  0
CLASS
  1
LWPOLYLINE
  2
AcDbPolyline
  3
AutoCAD 2000
 90
        0
280
     0
281
     1
  0
CLASS
  1
HATCH
  2
AcDbHatch
  3
AutoCAD 2000
 90
        0
280
     0
281
     1
  0
CLASS
  1
XRECORD
  2
AcDbXrecord
  3
AutoCAD 2000
 90
        0
280
     0
281
     0
  0
CLASS
  1
LONG_TRANSACTION
  2
AcDbLongTransaction
  3
AutoCAD 2000
 90
        0
280
     0
281
     0
  0
CLASS
  1
LWPOLYLINE
  2
AcDbPolyline
  3
AutoCAD 2000
 90
        0
280
     0
281
     1
  0
CLASS
  1
HATCH
  2
AcDbHatch
  3
AutoCAD 2000
 90
        0
280
     0
281
     1
  0
CLASS
  1
XRECORD
  2
AcDbXrecord
  3
AutoCAD 2000
 90
        0
280
     0
281
     0
  0
CLASS
  1
LONG_TRANSACTION
  2
AcDbLongTransaction
  3
AutoCAD 2000
 90
        0
280
     0
281
     0
  0
CLASS
  1
LWPOLYLINE
  2
AcDbPolyline
  3
AutoCAD 2000
 90
        0
280
     0
281
     1
  0
CLASS
  1
HATCH
  2
AcDbHatch
  3
AutoCAD 2000
 90
        0
280
     0
281
     1
  0
CLASS
  1
XRECORD
  2
AcDbXrecord
  3
AutoCAD 2000
 90
        0
280
     0
281
     0
  0
CLASS
  1
LONG_TRANSACTION
  2
AcDbLongTransaction
  3
AutoCAD 2000
 90
        0
280
     0
281
     0
  0
CLASS
  1
LWPOLYLINE
  2
AcDbPolyline
  3
AutoCAD 2000
 90
        0
280
     0
281
     1
  0
CLASS
  1
HATCH
  2
AcDbHatch
  3
AutoCAD 2000
 90
        0
280
     0
281
     1
  0
CLASS
  1
XRECORD
  2
AcDbXrecord
  3
AutoCAD 2000
 90
        0
280
     0
281
     0
  0
CLASS
  1
LONG_TRANSACTION
  2
AcDbLongTransaction
  3
AutoCAD 2000
 90
        0
280
     0
281
     0
  0
CLASS
  1
LWPOLYLINE
  2
AcDbPolyline
  3
AutoCAD 2000
 90
        0
280
     0
281
     1
  0
CLASS
  1
HATCH
  2
AcDbHatch
  3
AutoCAD 2000
 90
        0
280
     0
281
     1
  0
CLASS
  1
XRECORD
  2
AcDbXrecord
  3
AutoCAD 2000
 90
        0
280
     0
281
     0
  0
CLASS
  1
LONG_TRANSACTION
  2
AcDbLongTransaction
  3
AutoCAD 2000
 90
        0
280
     0
281
     0
  0
CLASS
  1
LWPOLYLINE
  2
AcDbPolyline
  3
AutoCAD 2000
 90
        0
280
     0
281
     1
  0
CLASS
  1
HATCH
  2
AcDbHatch
  3
AutoCAD 2000
 90
        0
280
     0
281
     1
  0
CLASS
  1
XRECORD
  2
AcDbXrecord
  3
AutoCAD 2000
 90
        0
280
     0
281
     0
  0
CLASS
  1
LONG_TRANSACTION
  2
AcDbLongTransaction
  3
AutoCAD 2000
 90
        0
280
     0
281
     0
  0
CLASS
  1
LWPOLYLINE
  2
AcDbPolyline
  3
AutoCAD 2000
 90
        0
280
     0
281
     1
  0
CLASS
  1
HATCH
  2
AcDbHatch
  3
AutoCAD 2000
 90
        0
280
     0
281
     1
  0
CLASS
  1
XRECORD
  2
AcDbXrecord
  3
AutoCAD 2000
 90
        0
280
     0
281
     0
  0
CLASS
  1
LONG_TRANSACTION
  2
AcDbLongTransaction
  3
AutoCAD 2000
 90
        0
280
     0
281
     0
  0
CLASS
  1
LWPOLYLINE
  2
AcDbPolyline
  3
AutoCAD 2000
 90
        0
280
     0
281
     1
  0
CLASS
  1
HATCH
  2
AcDbHatch
  3
AutoCAD 2000
 90
        0
280
     0
281
     1
  0
CLASS
  1
XRECORD
  2
AcDbXrecord
  3
AutoCAD 2000
 90
        0
280
     0
281
     0
  0
ENDSEC
  0
SECTION
  2
TABLES
  0
TABLE
  2
VPORT
  5
1E
330
0
100
AcDbSymbolTable
 70
     2
  0
VPORT
  5
376
330
1E
100
AcDbSymbolTableRecord
100
AcDbViewportTableRecord
  2
*ACTIVE
 70
     0
 10
0.0
 20
0.0
 11
1.0
 21
1.0
 12
123.5958469010402
 22
111.7415144399183
 13
0.0
 23
0.0
 14
10.0
 24
10.0
 15
10.0
 25
10.0
 16
0.0
 26
0.0
 36
1.0
 17
0.0
 27
0.0
 37
0.0
 40
225.1782225249428
 41
1.549367088607595
 42
50.0
 43
0.0
 44
0.0
 50
0.0
 51
0.0
 71
     0
 72
 10000
 73
     1
 74
     3
 75
     0
 76
     0
 77
     0
 78
     1
  0
ENDTAB
  0
TABLE
  2
LTYPE
  5
19
330
0
100
AcDbSymbolTable
 70
     3
  0
LTYPE
  5
1A
330
19
100
AcDbSymbolTableRecord
100
AcDbLinetypeTableRecord
  2
BYBLOCK
 70
     0
  3

 72
    65
 73
     0
 40
0.0
  0
LTYPE
  5
1B
330
19
100
AcDbSymbolTableRecord
100
AcDbLinetypeTableRecord
  2
BYLAYER
 70
     0
  3

 72
    65
 73
     0
 40
0.0
  0
LTYPE
  5
9
330
19
100
AcDbSymbolTableRecord
100
AcDbLinetypeTableRecord
  2
CONTINUOUS
 70
     0
  3
Solid line
 72
    65
 73
     0
 40
0.0
  0
LTYPE
  5
A0
330
19
100
AcDbSymbolTableRecord
100
AcDbLinetypeTableRecord
  2
CENTER
 70
     0
  3
Center ____ _ ____ _ ____ _ ____ _ ____ _ ____
 72
    65
 73
     4
 40
50.8
 49
31.75
 74
     0
 49
-6.349999999999998
 74
     0
 49
6.349999999999998
 74
     0
 49
-6.349999999999998
 74
     0
  0
LTYPE
  5
5F
330
19
100
AcDbSymbolTableRecord
100
AcDbLinetypeTableRecord
  2
ACAD_ISO02W100
 70
     0
  3
ISO dash __ __ __ __ __ __ __ __ __ __ __ __ __
 72
    65
 73
     2
 40
15.0
 49
12.0
 74
     0
 49
-3.0
 74
     0
  0
ENDTAB
  0
TABLE
  2
LAYER
  5
12
102
{ACAD_XDICTIONARY
360
13
102
}
330
0
100
AcDbSymbolTable
 70
     4
  0
LAYER
  5
5
330
12
100
AcDbSymbolTableRecord
100
AcDbLayerTableRecord
  2
0
 70
     0
 62
     7
  6
CONTINUOUS
  0
LAYER
  5
34
330
12
100
AcDbSymbolTableRecord
100
AcDbLayerTableRecord
  2
DEFPOINTS
 70
     0
 62
     7
  6
CONTINUOUS
  0
LAYER
  5
9F
330
12
100
AcDbSymbolTableRecord
100
AcDbLayerTableRecord
  2
CEN
 70
     0
 62
     1
  6
CENTER
  0
LAYER
  5
5E
330
12
100
AcDbSymbolTableRecord
100
AcDbLayerTableRecord
  2
HI
 70
     0
 62
     4
  6
ACAD_ISO02W100
  0
ENDTAB
  0
TABLE
  2
STYLE
  5
16
330
0
100
AcDbSymbolTable
 70
     1
  0
STYLE
  5
17
330
16
100
AcDbSymbolTableRecord
100
AcDbTextStyleTableRecord
  2
STANDARD
 70
     0
 40
0.0
 41
1.0
 50
0.0
 71
     0
 42
5.777225951253058
  3
romans.shx
  4
whgtxt.shx
  0
ENDTAB
  0
TABLE
  2
VIEW
  5
1C
330
0
100
AcDbSymbolTable
 70
     0
  0
ENDTAB
  0
TABLE
  2
UCS
  5
1D
330
0
100
AcDbSymbolTable
 70
     0
  0
ENDTAB
  0
TABLE
  2
APPID
  5
20
330
0
100
AcDbSymbolTable
 70
     1
  0
APPID
  5
21
330
20
100
AcDbSymbolTableRecord
100
AcDbRegAppTableRecord
  2
ACAD
 70
     0
  0
ENDTAB
  0
TABLE
  2
DIMSTYLE
  5
22
330
0
100
AcDbSymbolTable
 70
     1
  0
DIMSTYLE
105
23
102
{ACAD_REACTORS
330
20B
330
29
330
A2
330
FC
330
3B
330
B0
330
144
330
151
330
E4
330
4E
330
CC
330
62
330
71
330
80
330
198
330
17A
330
8F
330
1AC
330
121
330
1C0
330
1EA
330
130
330
1F9
330
10B
330
1D3
102
}
330
22
100
AcDbSymbolTableRecord
100
AcDbDimStyleTableRecord
  2
STANDARD
 70
     0
  3

  4

  5

  6

  7

 40
1.0
 41
3.5
 42
1.0
 43
10.0
 44
0.6
 45
0.0
 46
0.0
 47
0.0
 48
0.0
140
3.0
141
0.09
142
0.0
143
25.4
144
1.0
145
0.0
146
1.0
147
1.0
 71
     0
 72
     0
 73
     0
 74
     0
 75
     0
 76
     0
 77
     1
 78
     8
170
     0
171
     2
172
     1
173
     0
174
     1
175
     0
176
   123
177
   123
178
     3
270
     2
271
     2
272
     2
273
     2
274
     2
340
17
275
     1
280
     0
281
     0
282
     0
283
     1
284
     0
285
     0
286
     0
287
     0
288
     1
  0
ENDTAB
  0
TABLE
  2
BLOCK_RECORD
  5
1
330
0
100
AcDbSymbolTable
 70
    50
  0
BLOCK_RECORD
  5
2
102
{ACAD_XDICTIONARY
360
3
102
}
330
1
100
AcDbSymbolTableRecord
100
AcDbBlockTableRecord
  2
*MODEL_SPACE
  0
BLOCK_RECORD
  5
D
102
{ACAD_XDICTIONARY
360
E
102
}
330
1
100
AcDbSymbolTableRecord
100
AcDbBlockTableRecord
  2
*PAPER_SPACE
  0
BLOCK_RECORD
  5
A3
330
1
100
AcDbSymbolTableRecord
100
AcDbBlockTableRecord
  2
*D0
  0
BLOCK_RECORD
  5
B1
330
1
100
AcDbSymbolTableRecord
100
AcDbBlockTableRecord
  2
*D1
  0
BLOCK_RECORD
  5
145
330
1
100
AcDbSymbolTableRecord
100
AcDbBlockTableRecord
  2
*D2
  0
BLOCK_RECORD
  5
152
330
1
100
AcDbSymbolTableRecord
100
AcDbBlockTableRecord
  2
*D3
  0
BLOCK_RECORD
  5
E5
330
1
100
AcDbSymbolTableRecord
100
AcDbBlockTableRecord
  2
*D4
  0
BLOCK_RECORD
  5
122
330
1
100
AcDbSymbolTableRecord
100
AcDbBlockTableRecord
  2
*D5
  0
BLOCK_RECORD
  5
20E
330
1
100
AcDbSymbolTableRecord
100
AcDbBlockTableRecord
  2
*D6
  0
BLOCK_RECORD
  5
2C
330
1
100
AcDbSymbolTableRecord
100
AcDbBlockTableRecord
  2
*D7
  0
BLOCK_RECORD
  5
FF
330
1
100
AcDbSymbolTableRecord
100
AcDbBlockTableRecord
  2
*D8
  0
BLOCK_RECORD
  5
3E
330
1
100
AcDbSymbolTableRecord
100
AcDbBlockTableRecord
  2
*D9
  0
BLOCK_RECORD
  5
51
330
1
100
AcDbSymbolTableRecord
100
AcDbBlockTableRecord
  2
*D10
  0
BLOCK_RECORD
  5
CF
330
1
100
AcDbSymbolTableRecord
100
AcDbBlockTableRecord
  2
*D11
  0
BLOCK_RECORD
  5
65
330
1
100
AcDbSymbolTableRecord
100
AcDbBlockTableRecord
  2
*D12
  0
BLOCK_RECORD
  5
74
330
1
100
AcDbSymbolTableRecord
100
AcDbBlockTableRecord
  2
*D13
  0
BLOCK_RECORD
  5
83
330
1
100
AcDbSymbolTableRecord
100
AcDbBlockTableRecord
  2
*D14
  0
BLOCK_RECORD
  5
19B
330
1
100
AcDbSymbolTableRecord
100
AcDbBlockTableRecord
  2
*D15
  0
BLOCK_RECORD
  5
17D
330
1
100
AcDbSymbolTableRecord
100
AcDbBlockTableRecord
  2
*D16
  0
BLOCK_RECORD
  5
92
330
1
100
AcDbSymbolTableRecord
100
AcDbBlockTableRecord
  2
*D17
  0
BLOCK_RECORD
  5
1AF
330
1
100
AcDbSymbolTableRecord
100
AcDbBlockTableRecord
  2
*D18
  0
BLOCK_RECORD
  5
1C3
330
1
100
AcDbSymbolTableRecord
100
AcDbBlockTableRecord
  2
*D19
  0
BLOCK_RECORD
  5
1ED
330
1
100
AcDbSymbolTableRecord
100
AcDbBlockTableRecord
  2
*D20
  0
BLOCK_RECORD
  5
133
330
1
100
AcDbSymbolTableRecord
100
AcDbBlockTableRecord
  2
*D21
  0
BLOCK_RECORD
  5
1FC
330
1
100
AcDbSymbolTableRecord
100
AcDbBlockTableRecord
  2
*D22
  0
BLOCK_RECORD
  5
10E
330
1
100
AcDbSymbolTableRecord
100
AcDbBlockTableRecord
  2
*D23
  0
BLOCK_RECORD
  5
1D6
330
1
100
AcDbSymbolTableRecord
100
AcDbBlockTableRecord
  2
*D24
  0
BLOCK_RECORD
  5
21F
330
1
100
AcDbSymbolTableRecord
100
AcDbBlockTableRecord
  2
*D25
  0
BLOCK_RECORD
  5
22B
330
1
100
AcDbSymbolTableRecord
100
AcDbBlockTableRecord
  2
*D26
  0
BLOCK_RECORD
  5
237
330
1
100
AcDbSymbolTableRecord
100
AcDbBlockTableRecord
  2
*D27
  0
BLOCK_RECORD
  5
243
330
1
100
AcDbSymbolTableRecord
100
AcDbBlockTableRecord
  2
*D28
  0
BLOCK_RECORD
  5
24F
330
1
100
AcDbSymbolTableRecord
100
AcDbBlockTableRecord
  2
*D29
  0
BLOCK_RECORD
  5
25B
330
1
100
AcDbSymbolTableRecord
100
AcDbBlockTableRecord
  2
*D30
  0
BLOCK_RECORD
  5
267
330
1
100
AcDbSymbolTableRecord
100
AcDbBlockTableRecord
  2
*D31
  0
BLOCK_RECORD
  5
272
330
1
100
AcDbSymbolTableRecord
100
AcDbBlockTableRecord
  2
*D32
  0
BLOCK_RECORD
  5
27D
330
1
100
AcDbSymbolTableRecord
100
AcDbBlockTableRecord
  2
*D33
  0
BLOCK_RECORD
  5
28B
330
1
100
AcDbSymbolTableRecord
100
AcDbBlockTableRecord
  2
*D34
  0
BLOCK_RECORD
  5
297
330
1
100
AcDbSymbolTableRecord
100
AcDbBlockTableRecord
  2
*D35
  0
BLOCK_RECORD
  5
2A3
330
1
100
AcDbSymbolTableRecord
100
AcDbBlockTableRecord
  2
*D36
  0
BLOCK_RECORD
  5
2B1
330
1
100
AcDbSymbolTableRecord
100
AcDbBlockTableRecord
  2
*D37
  0
BLOCK_RECORD
  5
2BF
330
1
100
AcDbSymbolTableRecord
100
AcDbBlockTableRecord
  2
*D38
  0
BLOCK_RECORD
  5
2CD
330
1
100
AcDbSymbolTableRecord
100
AcDbBlockTableRecord
  2
*D39
  0
BLOCK_RECORD
  5
2D9
330
1
100
AcDbSymbolTableRecord
100
AcDbBlockTableRecord
  2
*D40
  0
BLOCK_RECORD
  5
2E5
330
1
100
AcDbSymbolTableRecord
100
AcDbBlockTableRecord
  2
*D41
  0
BLOCK_RECORD
  5
2F1
330
1
100
AcDbSymbolTableRecord
100
AcDbBlockTableRecord
  2
*D42
  0
BLOCK_RECORD
  5
2FF
330
1
100
AcDbSymbolTableRecord
100
AcDbBlockTableRecord
  2
*D43
  0
BLOCK_RECORD
  5
30D
330
1
100
AcDbSymbolTableRecord
100
AcDbBlockTableRecord
  2
*D44
  0
BLOCK_RECORD
  5
316
330
1
100
AcDbSymbolTableRecord
100
AcDbBlockTableRecord
  2
*D45
  0
BLOCK_RECORD
  5
322
330
1
100
AcDbSymbolTableRecord
100
AcDbBlockTableRecord
  2
*D46
  0
BLOCK_RECORD
  5
32E
330
1
100
AcDbSymbolTableRecord
100
AcDbBlockTableRecord
  2
*D47
  0
BLOCK_RECORD
  5
337
330
1
100
AcDbSymbolTableRecord
100
AcDbBlockTableRecord
  2
*D48
  0
BLOCK_RECORD
  5
343
330
1
100
AcDbSymbolTableRecord
100
AcDbBlockTableRecord
  2
*D49
  0
ENDTAB
  0
ENDSEC
  0
SECTION
  2
BLOCKS
  0
BLOCK
  5
4
330
2
100
AcDbEntity
  8
0
100
AcDbBlockBegin
  2
*MODEL_SPACE
 70
     0
 10
0.0
 20
0.0
 30
0.0
  3
*MODEL_SPACE
  1

  0
ENDBLK
  5
A
330
2
100
AcDbEntity
  8
0
100
AcDbBlockEnd
  0
BLOCK
  5
F
330
D
100
AcDbEntity
 67
     1
  8
0
100
AcDbBlockBegin
  2
*PAPER_SPACE
 70
     0
 10
0.0
 20
0.0
 30
0.0
  3
*PAPER_SPACE
  1

  0
ENDBLK
  5
10
330
D
100
AcDbEntity
 67
     1
  8
0
100
AcDbBlockEnd
  0
BLOCK
  5
AD
330
A3
100
AcDbEntity
  8
0
100
AcDbBlockBegin
  2
*D0
 70
     1
 10
0.0
 20
0.0
 30
0.0
  3
*D0
  1

  0
LINE
  5
A4
330
A3
100
AcDbEntity
  8
0
 62
   123
100
AcDbLine
 10
-6029.939821514614
 20
-1866.22325211413
 30
0.0
 11
-6029.939821514614
 21
-1884.971448850885
 31
0.0
  0
LINE
  5
A5
330
A3
100
AcDbEntity
  8
0
 62
   123
100
AcDbLine
 10
-5979.939821514614
 20
-1873.72325211413
 30
0.0
 11
-5979.939821514614
 21
-1884.971448850885
 31
0.0
  0
LINE
  5
A6
330
A3
100
AcDbEntity
  8
0
 62
   123
100
AcDbLine
 10
-6026.439821514614
 20
-1884.371448850886
 30
0.0
 11
-5983.439821514614
 21
-1884.371448850886
 31
0.0
  0
SOLID
  5
A7
330
A3
100
AcDbEntity
  8
0
 62
   123
100
AcDbTrace
 10
-6026.439821514614
 20
-1883.788115517553
 30
0.0
 11
-6026.439821514614
 21
-1884.95478218422
 31
0.0
 12
-6029.939821514614
 22
-1884.371448850886
 32
0.0
 13
-6029.939821514614
 23
-1884.371448850886
 33
0.0
  0
SOLID
  5
A8
330
A3
100
AcDbEntity
  8
0
 62
   123
100
AcDbTrace
 10
-5983.439821514614
 20
-1883.788115517553
 30
0.0
 11
-5983.439821514614
 21
-1884.95478218422
 31
0.0
 12
-5979.939821514614
 22
-1884.371448850886
 32
0.0
 13
-5979.939821514614
 23
-1884.371448850886
 33
0.0
  0
MTEXT
  5
A9
330
A3
100
AcDbEntity
  8
0
 62
     3
100
AcDbMText
 10
-6005.669952980934
 20
-1881.871448850885
 30
0.0
 40
3.0
 41
0.0
 71
     5
 72
     1
  1
\A1;50
1001
ACAD
1000
MTEXTBEGIN
1070
    73
1070
     1
1070
    44
1040
1.0
1070
    74
1070
     0
1000
MTEXTEND
  0
POINT
  5
AA
330
A3
100
AcDbEntity
  8
DEFPOINTS
 62
     0
100
AcDbPoint
 10
-6029.939821514614
 20
-1865.22325211413
 30
0.0
  0
POINT
  5
AB
330
A3
100
AcDbEntity
  8
DEFPOINTS
 62
     0
100
AcDbPoint
 10
-5979.939821514614
 20
-1872.72325211413
 30
0.0
  0
POINT
  5
AC
330
A3
100
AcDbEntity
  8
DEFPOINTS
 62
     0
100
AcDbPoint
 10
-5979.939821514614
 20
-1884.371448850886
 30
0.0
  0
ENDBLK
  5
AE
330
A3
100
AcDbEntity
  8
0
100
AcDbBlockEnd
  0
BLOCK
  5
BB
330
B1
100
AcDbEntity
  8
0
100
AcDbBlockBegin
  2
*D1
 70
     1
 10
0.0
 20
0.0
 30
0.0
  3
*D1
  1

  0
LINE
  5
B2
330
B1
100
AcDbEntity
  8
0
 62
   123
100
AcDbLine
 10
-6218.31065836703
 20
-1873.223252114129
 30
0.0
 11
-6218.31065836703
 21
-1897.373485849819
 31
0.0
  0
LINE
  5
B3
330
B1
100
AcDbEntity
  8
0
 62
   123
100
AcDbLine
 10
-6118.310658367032
 20
-1874.223252114131
 30
0.0
 11
-6118.310658367032
 21
-1897.373485849819
 31
0.0
  0
LINE
  5
B4
330
B1
100
AcDbEntity
  8
0
 62
   123
100
AcDbLine
 10
-6214.810658367031
 20
-1896.773485849818
 30
0.0
 11
-6121.810658367031
 21
-1896.773485849818
 31
0.0
  0
SOLID
  5
B5
330
B1
100
AcDbEntity
  8
0
 62
   123
100
AcDbTrace
 10
-6214.810658367031
 20
-1896.190152516485
 30
0.0
 11
-6214.810658367031
 21
-1897.356819183151
 31
0.0
 12
-6218.31065836703
 22
-1896.773485849818
 32
0.0
 13
-6218.31065836703
 23
-1896.773485849818
 33
0.0
  0
SOLID
  5
B6
330
B1
100
AcDbEntity
  8
0
 62
   123
100
AcDbTrace
 10
-6121.810658367031
 20
-1896.190152516485
 30
0.0
 11
-6121.810658367031
 21
-1897.356819183151
 31
0.0
 12
-6118.310658367032
 22
-1896.773485849818
 32
0.0
 13
-6118.310658367032
 23
-1896.773485849818
 33
0.0
  0
MTEXT
  5
B7
330
B1
100
AcDbEntity
  8
0
 62
     3
100
AcDbMText
 10
-6167.810658367031
 20
-1894.27348584982
 30
0.0
 40
3.0
 41
0.0
 71
     5
 72
     1
  1
\A1;100
1001
ACAD
1000
MTEXTBEGIN
1070
    73
1070
     1
1070
    44
1040
1.0
1070
    74
1070
     0
1000
MTEXTEND
  0
POINT
  5
B8
330
B1
100
AcDbEntity
  8
DEFPOINTS
 62
     0
100
AcDbPoint
 10
-6218.31065836703
 20
-1872.22325211413
 30
0.0
  0
POINT
  5
B9
330
B1
100
AcDbEntity
  8
DEFPOINTS
 62
     0
100
AcDbPoint
 10
-6118.310658367032
 20
-1873.223252114132
 30
0.0
  0
POINT
  5
BA
330
B1
100
AcDbEntity
  8
DEFPOINTS
 62
     0
100
AcDbPoint
 10
-6118.310658367032
 20
-1896.773485849818
 30
0.0
  0
ENDBLK
  5
BC
330
B1
100
AcDbEntity
  8
0
100
AcDbBlockEnd
  0
BLOCK
  5
14F
330
145
100
AcDbEntity
  8
0
100
AcDbBlockBegin
  2
*D2
 70
     1
 10
0.0
 20
0.0
 30
0.0
  3
*D2
  1

  0
LINE
  5
146
330
145
100
AcDbEntity
  8
0
 62
   123
100
AcDbLine
 10
-6202.310658367029
 20
-1830.223252114129
 30
0.0
 11
-6202.310658367029
 21
-1776.992099342146
 31
0.0
  0
LINE
  5
147
330
145
100
AcDbEntity
  8
0
 62
   123
100
AcDbLine
 10
-6134.310658367031
 20
-1830.223252114129
 30
0.0
 11
-6134.310658367031
 21
-1776.992099342146
 31
0.0
  0
LINE
  5
148
330
145
100
AcDbEntity
  8
0
 62
   123
100
AcDbLine
 10
-6198.810658367031
 20
-1777.592099342147
 30
0.0
 11
-6137.810658367031
 21
-1777.592099342147
 31
0.0
  0
SOLID
  5
149
330
145
100
AcDbEntity
  8
0
 62
   123
100
AcDbTrace
 10
-6198.810658367031
 20
-1777.008766008813
 30
0.0
 11
-6198.810658367031
 21
-1778.17543267548
 31
0.0
 12
-6202.310658367029
 22
-1777.592099342147
 32
0.0
 13
-6202.310658367029
 23
-1777.592099342147
 33
0.0
  0
SOLID
  5
14A
330
145
100
AcDbEntity
  8
0
 62
   123
100
AcDbTrace
 10
-6137.810658367031
 20
-1777.008766008813
 30
0.0
 11
-6137.810658367031
 21
-1778.17543267548
 31
0.0
 12
-6134.310658367031
 22
-1777.592099342147
 32
0.0
 13
-6134.310658367031
 23
-1777.592099342147
 33
0.0
  0
MTEXT
  5
14B
330
145
100
AcDbEntity
  8
0
 62
     3
100
AcDbMText
 10
-6168.310658367031
 20
-1775.092099342147
 30
0.0
 40
3.0
 41
0.0
 71
     5
 72
     1
  1
\A1;68
1001
ACAD
1000
MTEXTBEGIN
1070
    73
1070
     1
1070
    44
1040
1.0
1070
    74
1070
     0
1000
MTEXTEND
  0
POINT
  5
14C
330
145
100
AcDbEntity
  8
DEFPOINTS
 62
     0
100
AcDbPoint
 10
-6202.310658367029
 20
-1831.22325211413
 30
0.0
  0
POINT
  5
14D
330
145
100
AcDbEntity
  8
DEFPOINTS
 62
     0
100
AcDbPoint
 10
-6134.310658367031
 20
-1831.22325211413
 30
0.0
  0
POINT
  5
14E
330
145
100
AcDbEntity
  8
DEFPOINTS
 62
     0
100
AcDbPoint
 10
-6134.310658367031
 20
-1777.592099342147
 30
0.0
  0
ENDBLK
  5
150
330
145
100
AcDbEntity
  8
0
100
AcDbBlockEnd
  0
BLOCK
  5
15C
330
152
100
AcDbEntity
  8
0
100
AcDbBlockBegin
  2
*D3
 70
     1
 10
0.0
 20
0.0
 30
0.0
  3
*D3
  1

  0
LINE
  5
153
330
152
100
AcDbEntity
  8
0
 62
   123
100
AcDbLine
 10
-6198.810658367031
 20
-1807.72325211413
 30
0.0
 11
-6198.810658367031
 21
-1789.51836997246
 31
0.0
  0
LINE
  5
154
330
152
100
AcDbEntity
  8
0
 62
   123
100
AcDbLine
 10
-6137.81065836703
 20
-1807.72325211413
 30
0.0
 11
-6137.81065836703
 21
-1789.51836997246
 31
0.0
  0
LINE
  5
155
330
152
100
AcDbEntity
  8
0
 62
   123
100
AcDbLine
 10
-6195.310658367032
 20
-1790.118369972461
 30
0.0
 11
-6141.31065836703
 21
-1790.118369972461
 31
0.0
  0
SOLID
  5
156
330
152
100
AcDbEntity
  8
0
 62
   123
100
AcDbTrace
 10
-6195.310658367032
 20
-1789.535036639128
 30
0.0
 11
-6195.310658367032
 21
-1790.701703305794
 31
0.0
 12
-6198.810658367031
 22
-1790.118369972461
 32
0.0
 13
-6198.810658367031
 23
-1790.118369972461
 33
0.0
  0
SOLID
  5
157
330
152
100
AcDbEntity
  8
0
 62
   123
100
AcDbTrace
 10
-6141.31065836703
 20
-1789.535036639128
 30
0.0
 11
-6141.31065836703
 21
-1790.701703305794
 31
0.0
 12
-6137.81065836703
 22
-1790.118369972461
 32
0.0
 13
-6137.81065836703
 23
-1790.118369972461
 33
0.0
  0
MTEXT
  5
158
330
152
100
AcDbEntity
  8
0
 62
     3
100
AcDbMText
 10
-6168.310658367031
 20
-1787.61836997246
 30
0.0
 40
3.0
 41
0.0
 71
     5
 72
     1
  1
\A1;61
1001
ACAD
1000
MTEXTBEGIN
1070
    73
1070
     1
1070
    44
1040
1.0
1070
    74
1070
     0
1000
MTEXTEND
  0
POINT
  5
159
330
152
100
AcDbEntity
  8
DEFPOINTS
 62
     0
100
AcDbPoint
 10
-6198.810658367031
 20
-1808.72325211413
 30
0.0
  0
POINT
  5
15A
330
152
100
AcDbEntity
  8
DEFPOINTS
 62
     0
100
AcDbPoint
 10
-6137.81065836703
 20
-1808.72325211413
 30
0.0
  0
POINT
  5
15B
330
152
100
AcDbEntity
  8
DEFPOINTS
 62
     0
100
AcDbPoint
 10
-6137.81065836703
 20
-1790.118369972461
 30
0.0
  0
ENDBLK
  5
15D
330
152
100
AcDbEntity
  8
0
100
AcDbBlockEnd
  0
BLOCK
  5
F1
330
E5
100
AcDbEntity
  8
0
100
AcDbBlockBegin
  2
*D4
 70
     1
 10
0.0
 20
0.0
 30
0.0
  3
*D4
  1

  0
LINE
  5
E6
330
E5
100
AcDbEntity
  8
0
 62
   123
100
AcDbLine
 10
-6118.310658367032
 20
-1873.22325211413
 30
0.0
 11
-6104.12816334875
 21
-1873.22325211413
 31
0.0
  0
LINE
  5
E7
330
E5
100
AcDbEntity
  8
0
 62
   123
100
AcDbLine
 10
-6118.310658367032
 20
-1865.223252114131
 30
0.0
 11
-6104.12816334875
 21
-1865.223252114131
 31
0.0
  0
LINE
  5
E8
330
E5
100
AcDbEntity
  8
0
 62
   123
100
AcDbLine
 10
-6104.728163348751
 20
-1876.72325211413
 30
0.0
 11
-6104.728163348751
 21
-1880.223252114131
 31
0.0
  0
LINE
  5
E9
330
E5
100
AcDbEntity
  8
0
 62
   123
100
AcDbLine
 10
-6104.728163348751
 20
-1861.723252114131
 30
0.0
 11
-6104.728163348751
 21
-1858.223252114131
 31
0.0
  0
LINE
  5
EA
330
E5
100
AcDbEntity
  8
0
 62
   123
100
AcDbLine
 10
-6104.728163348751
 20
-1873.22325211413
 30
0.0
 11
-6104.728163348751
 21
-1865.223252114131
 31
0.0
  0
SOLID
  5
EB
330
E5
100
AcDbEntity
  8
0
 62
   123
100
AcDbTrace
 10
-6105.311496682084
 20
-1876.72325211413
 30
0.0
 11
-6104.144830015417
 21
-1876.72325211413
 31
0.0
 12
-6104.728163348751
 22
-1873.22325211413
 32
0.0
 13
-6104.728163348751
 23
-1873.22325211413
 33
0.0
  0
SOLID
  5
EC
330
E5
100
AcDbEntity
  8
0
 62
   123
100
AcDbTrace
 10
-6105.311496682084
 20
-1861.723252114131
 30
0.0
 11
-6104.144830015417
 21
-1861.723252114131
 31
0.0
 12
-6104.728163348751
 22
-1865.223252114131
 32
0.0
 13
-6104.728163348751
 23
-1865.223252114131
 33
0.0
  0
MTEXT
  5
ED
330
E5
100
AcDbEntity
  8
0
 62
     3
100
AcDbMText
 10
-6107.228163348751
 20
-1869.223252114132
 30
0.0
 40
3.0
 41
0.0
 71
     5
 72
     1
  1
\A1;8
 11
0.0000000000000001
 21
1.0
 31
0.0
1001
ACAD
1000
MTEXTBEGIN
1070
    73
1070
     1
1070
    44
1040
1.0
1070
    74
1070
     0
1000
MTEXTEND
  0
POINT
  5
EE
330
E5
100
AcDbEntity
  8
DEFPOINTS
 62
     0
100
AcDbPoint
 10
-6119.31065836703
 20
-1873.22325211413
 30
0.0
  0
POINT
  5
EF
330
E5
100
AcDbEntity
  8
DEFPOINTS
 62
     0
100
AcDbPoint
 10
-6119.31065836703
 20
-1865.223252114131
 30
0.0
  0
POINT
  5
F0
330
E5
100
AcDbEntity
  8
DEFPOINTS
 62
     0
100
AcDbPoint
 10
-6104.728163348751
 20
-1865.223252114131
 30
0.0
  0
ENDBLK
  5
F2
330
E5
100
AcDbEntity
  8
0
100
AcDbBlockEnd
  0
BLOCK
  5
12C
330
122
100
AcDbEntity
  8
0
100
AcDbBlockBegin
  2
*D5
 70
     1
 10
0.0
 20
0.0
 30
0.0
  3
*D5
  1

  0
LINE
  5
123
330
122
100
AcDbEntity
  8
0
 62
   123
100
AcDbLine
 10
-6120.310658367031
 20
-1742.750260883248
 30
0.0
 11
-6103.572227868504
 21
-1742.750260883248
 31
0.0
  0
LINE
  5
124
330
122
100
AcDbEntity
  8
0
 62
   123
100
AcDbLine
 10
-6122.701767578487
 20
-1717.750260883248
 30
0.0
 11
-6103.572227868504
 21
-1717.750260883248
 31
0.0
  0
LINE
  5
125
330
122
100
AcDbEntity
  8
0
 62
   123
100
AcDbLine
 10
-6104.172227868503
 20
-1739.250260883248
 30
0.0
 11
-6104.172227868503
 21
-1721.250260883248
 31
0.0
  0
SOLID
  5
126
330
122
100
AcDbEntity
  8
0
 62
   123
100
AcDbTrace
 10
-6104.755561201837
 20
-1739.250260883248
 30
0.0
 11
-6103.588894535171
 21
-1739.250260883248
 31
0.0
 12
-6104.172227868503
 22
-1742.750260883248
 32
0.0
 13
-6104.172227868503
 23
-1742.750260883248
 33
0.0
  0
SOLID
  5
127
330
122
100
AcDbEntity
  8
0
 62
   123
100
AcDbTrace
 10
-6104.755561201837
 20
-1721.250260883248
 30
0.0
 11
-6103.588894535171
 21
-1721.250260883248
 31
0.0
 12
-6104.172227868503
 22
-1717.750260883248
 32
0.0
 13
-6104.172227868503
 23
-1717.750260883248
 33
0.0
  0
MTEXT
  5
128
330
122
100
AcDbEntity
  8
0
 62
     3
100
AcDbMText
 10
-6106.672227868504
 20
-1730.250260883248
 30
0.0
 40
3.0
 41
0.0
 71
     5
 72
     1
  1
\A1;25
 11
0.0000000000000001
 21
1.0
 31
0.0
1001
ACAD
1000
MTEXTBEGIN
1070
    73
1070
     1
1070
    44
1040
1.0
1070
    74
1070
     0
1000
MTEXTEND
  0
POINT
  5
129
330
122
100
AcDbEntity
  8
DEFPOINTS
 62
     0
100
AcDbPoint
 10
-6121.310658367032
 20
-1742.750260883248
 30
0.0
  0
POINT
  5
12A
330
122
100
AcDbEntity
  8
DEFPOINTS
 62
     0
100
AcDbPoint
 10
-6123.701767578488
 20
-1717.750260883248
 30
0.0
  0
POINT
  5
12B
330
122
100
AcDbEntity
  8
DEFPOINTS
 62
     0
100
AcDbPoint
 10
-6104.172227868503
 20
-1717.750260883248
 30
0.0
  0
ENDBLK
  5
12D
330
122
100
AcDbEntity
  8
0
100
AcDbBlockEnd
  0
BLOCK
  5
215
330
20E
100
AcDbEntity
  8
0
100
AcDbBlockBegin
  2
*D6
 70
     1
 10
0.0
 20
0.0
 30
0.0
  3
*D6
  1

  0
LINE
  5
20F
330
20E
100
AcDbEntity
  8
0
 62
   123
100
AcDbLine
 10
-6118.094140092784
 20
-1708.925706823576
 30
0.0
 11
-6103.607225291209
 21
-1696.412582548486
 31
0.0
  0
LINE
  5
210
330
20E
100
AcDbEntity
  8
0
 62
   123
100
AcDbLine
 10
-6128.310658367029
 20
-1717.750260883249
 30
0.0
 11
-6120.742867052773
 21
-1711.21355417238
 31
0.0
  0
SOLID
  5
211
330
20E
100
AcDbEntity
  8
0
 62
   123
100
AcDbTrace
 10
-6118.475447984252
 20
-1708.484252330245
 30
0.0
 11
-6117.712832201316
 21
-1709.367161316907
 31
0.0
 12
-6120.742867052773
 22
-1711.21355417238
 32
0.0
 13
-6120.742867052773
 23
-1711.21355417238
 33
0.0
  0
MTEXT
  5
212
330
20E
100
AcDbEntity
  8
0
 62
     3
100
AcDbMText
 10
-6108.917186321566
 20
-1697.695606550916
 30
0.0
 40
3.0
 41
0.0
 71
     5
 72
     1
  1
\A1;R10
 11
0.7567791314254238
 21
0.6536706710867342
 31
0.0
1001
ACAD
1000
MTEXTBEGIN
1070
    73
1070
     1
1070
    44
1040
1.0
1070
    74
1070
     0
1000
MTEXTEND
  0
POINT
  5
213
330
20E
100
AcDbEntity
  8
DEFPOINTS
 62
     0
100
AcDbPoint
 10
-6120.742867052773
 20
-1711.21355417238
 30
0.0
  0
POINT
  5
214
330
20E
100
AcDbEntity
  8
DEFPOINTS
 62
     0
100
AcDbPoint
 10
-6128.310658367029
 20
-1717.750260883249
 30
0.0
  0
ENDBLK
  5
216
330
20E
100
AcDbEntity
  8
0
100
AcDbBlockEnd
  0
BLOCK
  5
36
330
2C
100
AcDbEntity
  8
0
100
AcDbBlockBegin
  2
*D7
 70
     1
 10
0.0
 20
0.0
 30
0.0
  3
*D7
  1

  0
LINE
  5
2D
330
2C
100
AcDbEntity
  8
0
 62
   123
100
AcDbLine
 10
-6194.674902387458
 20
-1846.048067920024
 30
0.0
 11
-6197.912616565405
 21
-1847.377431264607
 31
0.0
  0
LINE
  5
2E
330
2C
100
AcDbEntity
  8
0
 62
   123
100
AcDbLine
 10
-6141.946414346606
 20
-1824.398436308237
 30
0.0
 11
-6118.686317467423
 21
-1814.848142958301
 31
0.0
  0
LINE
  5
2F
330
2C
100
AcDbEntity
  8
0
 62
   123
100
AcDbLine
 10
-6191.43718820951
 20
-1844.718704575441
 30
0.0
 11
-6145.184128524554
 21
-1825.72779965282
 31
0.0
  0
SOLID
  5
30
330
2C
100
AcDbEntity
  8
0
 62
   123
100
AcDbTrace
 10
-6194.896462944889
 20
-1845.508448890367
 30
0.0
 11
-6194.453341830027
 21
-1846.587686949682
 31
0.0
 12
-6191.43718820951
 22
-1844.718704575441
 32
0.0
 13
-6191.43718820951
 23
-1844.718704575441
 33
0.0
  0
SOLID
  5
31
330
2C
100
AcDbEntity
  8
0
 62
   123
100
AcDbTrace
 10
-6142.167974904037
 20
-1823.85881727858
 30
0.0
 11
-6141.724853789177
 21
-1824.938055337896
 31
0.0
 12
-6145.184128524554
 22
-1825.72779965282
 32
0.0
 13
-6145.184128524554
 23
-1825.72779965282
 33
0.0
  0
MTEXT
  5
32
330
2C
100
AcDbEntity
  8
0
 62
     3
100
AcDbMText
 10
-6124.062941283399
 20
-1814.353190873789
 30
0.0
 40
3.0
 41
0.0
 71
     5
 72
     1
  1
\A1;\U+220550
 11
0.9250611936991075
 21
0.3798180984523804
 31
0.0
1001
ACAD
1000
MTEXTBEGIN
1070
    73
1070
     1
1070
    44
1040
1.0
1070
    74
1070
     0
1000
MTEXTEND
  0
POINT
  5
33
330
2C
100
AcDbEntity
  8
DEFPOINTS
 62
     0
100
AcDbPoint
 10
-6145.184128524554
 20
-1825.72779965282
 30
0.0
  0
POINT
  5
35
330
2C
100
AcDbEntity
  8
DEFPOINTS
 62
     0
100
AcDbPoint
 10
-6191.43718820951
 20
-1844.718704575441
 30
0.0
  0
ENDBLK
  5
37
330
2C
100
AcDbEntity
  8
0
100
AcDbBlockEnd
  0
BLOCK
  5
109
330
FF
100
AcDbEntity
  8
0
100
AcDbBlockBegin
  2
*D8
 70
     1
 10
0.0
 20
0.0
 30
0.0
  3
*D8
  1

  0
LINE
  5
100
330
FF
100
AcDbEntity
  8
0
 62
   123
100
AcDbLine
 10
-6005.939821514614
 20
-1864.223252114129
 30
0.0
 11
-6005.939821514614
 21
-1854.233270532519
 31
0.0
  0
LINE
  5
101
330
FF
100
AcDbEntity
  8
0
 62
   123
100
AcDbLine
 10
-5979.939821514614
 20
-1864.72325211413
 30
0.0
 11
-5979.939821514614
 21
-1854.233270532519
 31
0.0
  0
LINE
  5
102
330
FF
100
AcDbEntity
  8
0
 62
   123
100
AcDbLine
 10
-6002.439821514614
 20
-1854.83327053252
 30
0.0
 11
-5983.439821514614
 21
-1854.83327053252
 31
0.0
  0
SOLID
  5
103
330
FF
100
AcDbEntity
  8
0
 62
   123
100
AcDbTrace
 10
-6002.439821514614
 20
-1854.249937199187
 30
0.0
 11
-6002.439821514614
 21
-1855.416603865854
 31
0.0
 12
-6005.939821514614
 22
-1854.83327053252
 32
0.0
 13
-6005.939821514614
 23
-1854.83327053252
 33
0.0
  0
SOLID
  5
104
330
FF
100
AcDbEntity
  8
0
 62
   123
100
AcDbTrace
 10
-5983.439821514614
 20
-1854.249937199187
 30
0.0
 11
-5983.439821514614
 21
-1855.416603865854
 31
0.0
 12
-5979.939821514614
 22
-1854.83327053252
 32
0.0
 13
-5979.939821514614
 23
-1854.83327053252
 33
0.0
  0
MTEXT
  5
105
330
FF
100
AcDbEntity
  8
0
 62
     3
100
AcDbMText
 10
-5992.939821514614
 20
-1852.333270532519
 30
0.0
 40
3.0
 41
0.0
 71
     5
 72
     1
  1
\A1;26
1001
ACAD
1000
MTEXTBEGIN
1070
    73
1070
     1
1070
    44
1040
1.0
1070
    74
1070
     0
1000
MTEXTEND
  0
POINT
  5
106
330
FF
100
AcDbEntity
  8
DEFPOINTS
 62
     0
100
AcDbPoint
 10
-6005.939821514614
 20
-1865.22325211413
 30
0.0
  0
POINT
  5
107
330
FF
100
AcDbEntity
  8
DEFPOINTS
 62
     0
100
AcDbPoint
 10
-5979.939821514614
 20
-1865.723252114129
 30
0.0
  0
POINT
  5
108
330
FF
100
AcDbEntity
  8
DEFPOINTS
 62
     0
100
AcDbPoint
 10
-5979.939821514614
 20
-1854.83327053252
 30
0.0
  0
ENDBLK
  5
10A
330
FF
100
AcDbEntity
  8
0
100
AcDbBlockEnd
  0
BLOCK
  5
48
330
3E
100
AcDbEntity
  8
0
100
AcDbBlockBegin
  2
*D9
 70
     1
 10
0.0
 20
0.0
 30
0.0
  3
*D9
  1

  0
LINE
  5
3F
330
3E
100
AcDbEntity
  8
0
 62
   123
100
AcDbLine
 10
-6218.31065836703
 20
-1873.223252114129
 30
0.0
 11
-6249.592923737784
 21
-1873.223252114129
 31
0.0
  0
LINE
  5
40
330
3E
100
AcDbEntity
  8
0
 62
   123
100
AcDbLine
 10
-6203.310658367032
 20
-1831.22325211413
 30
0.0
 11
-6249.592923737784
 21
-1831.22325211413
 31
0.0
  0
LINE
  5
41
330
3E
100
AcDbEntity
  8
0
 62
   123
100
AcDbLine
 10
-6248.992923737785
 20
-1869.72325211413
 30
0.0
 11
-6248.992923737785
 21
-1834.72325211413
 31
0.0
  0
SOLID
  5
42
330
3E
100
AcDbEntity
  8
0
 62
   123
100
AcDbTrace
 10
-6249.576257071117
 20
-1869.72325211413
 30
0.0
 11
-6248.409590404451
 21
-1869.72325211413
 31
0.0
 12
-6248.992923737785
 22
-1873.223252114129
 32
0.0
 13
-6248.992923737785
 23
-1873.223252114129
 33
0.0
  0
SOLID
  5
43
330
3E
100
AcDbEntity
  8
0
 62
   123
100
AcDbTrace
 10
-6249.576257071117
 20
-1834.72325211413
 30
0.0
 11
-6248.409590404451
 21
-1834.72325211413
 31
0.0
 12
-6248.992923737785
 22
-1831.22325211413
 32
0.0
 13
-6248.992923737785
 23
-1831.22325211413
 33
0.0
  0
MTEXT
  5
44
330
3E
100
AcDbEntity
  8
0
 62
     3
100
AcDbMText
 10
-6251.492923737782
 20
-1848.966786235328
 30
0.0
 40
3.0
 41
0.0
 71
     5
 72
     1
  1
\A1;42
 11
0.0000000000000001
 21
1.0
 31
0.0
1001
ACAD
1000
MTEXTBEGIN
1070
    73
1070
     1
1070
    44
1040
1.0
1070
    74
1070
     0
1000
MTEXTEND
  0
POINT
  5
45
330
3E
100
AcDbEntity
  8
DEFPOINTS
 62
     0
100
AcDbPoint
 10
-6217.310658367029
 20
-1873.223252114129
 30
0.0
  0
POINT
  5
46
330
3E
100
AcDbEntity
  8
DEFPOINTS
 62
     0
100
AcDbPoint
 10
-6202.310658367029
 20
-1831.22325211413
 30
0.0
  0
POINT
  5
47
330
3E
100
AcDbEntity
  8
DEFPOINTS
 62
     0
100
AcDbPoint
 10
-6248.992923737785
 20
-1831.22325211413
 30
0.0
  0
ENDBLK
  5
49
330
3E
100
AcDbEntity
  8
0
100
AcDbBlockEnd
  0
BLOCK
  5
5A
330
51
100
AcDbEntity
  8
0
100
AcDbBlockBegin
  2
*D10
 70
     1
 10
0.0
 20
0.0
 30
0.0
  3
*D10
  1

  0
LINE
  5
52
330
51
100
AcDbEntity
  8
0
 62
   123
100
AcDbLine
 10
-6198.913546128061
 20
-1858.583757975581
 30
0.0
 11
-6201.695626833753
 21
-1860.707440378156
 31
0.0
  0
LINE
  5
53
330
51
100
AcDbEntity
  8
0
 62
   123
100
AcDbLine
 10
-6137.707770602816
 20
-1811.86274511892
 30
0.0
 11
-6109.398601648067
 21
-1790.253133356864
 31
0.0
  0
LINE
  5
54
330
51
100
AcDbEntity
  8
0
 62
   123
100
AcDbLine
 10
-6196.131465422368
 20
-1856.460075573005
 30
0.0
 11
-6140.489851308508
 21
-1813.986427521495
 31
0.0
  0
SOLID
  5
55
330
51
100
AcDbEntity
  8
0
 62
   123
100
AcDbTrace
 10
-6199.267493195158
 20
-1858.120077857964
 30
0.0
 11
-6198.559599060965
 21
-1859.047438093196
 31
0.0
 12
-6196.131465422368
 22
-1856.460075573005
 32
0.0
 13
-6196.131465422368
 23
-1856.460075573005
 33
0.0
  0
SOLID
  5
56
330
51
100
AcDbEntity
  8
0
 62
   123
100
AcDbTrace
 10
-6138.061717669913
 20
-1811.399065001305
 30
0.0
 11
-6137.353823535719
 21
-1812.326425236536
 31
0.0
 12
-6140.489851308508
 22
-1813.986427521495
 32
0.0
 13
-6140.489851308508
 23
-1813.986427521495
 33
0.0
  0
MTEXT
  5
57
330
51
100
AcDbEntity
  8
0
 62
     3
100
AcDbMText
 10
-6119.03465113795
 20
-1794.463618231744
 30
0.0
 40
3.0
 41
0.0
 71
     5
 72
     1
  1
\A1;\U+220570%%P0.3
 11
0.7948802016266359
 21
0.6067664007359001
 31
0.0
1001
ACAD
1000
MTEXTBEGIN
1070
    73
1070
     1
1070
    44
1040
1.0
1070
    74
1070
     0
1000
MTEXTEND
  0
POINT
  5
58
330
51
100
AcDbEntity
  8
DEFPOINTS
 62
     0
100
AcDbPoint
 10
-6140.489851308508
 20
-1813.986427521495
 30
0.0
  0
POINT
  5
59
330
51
100
AcDbEntity
  8
DEFPOINTS
 62
     0
100
AcDbPoint
 10
-6196.131465422368
 20
-1856.460075573005
 30
0.0
  0
ENDBLK
  5
5B
330
51
100
AcDbEntity
  8
0
100
AcDbBlockEnd
  0
BLOCK
  5
DB
330
CF
100
AcDbEntity
  8
0
100
AcDbBlockBegin
  2
*D11
 70
     1
 10
0.0
 20
0.0
 30
0.0
  3
*D11
  1

  0
LINE
  5
D0
330
CF
100
AcDbEntity
  8
0
 62
   123
100
AcDbLine
 10
-6143.310658367031
 20
-1873.22325211413
 30
0.0
 11
-6150.430526062018
 21
-1873.22325211413
 31
0.0
  0
LINE
  5
D1
330
CF
100
AcDbEntity
  8
0
 62
   123
100
AcDbLine
 10
-6145.997918509887
 20
-1872.22325211413
 30
0.0
 11
-6150.430526062018
 21
-1872.22325211413
 31
0.0
  0
LINE
  5
D2
330
CF
100
AcDbEntity
  8
0
 62
   123
100
AcDbLine
 10
-6149.830526062018
 20
-1868.72325211413
 30
0.0
 11
-6149.830526062018
 21
-1865.223252114131
 31
0.0
  0
LINE
  5
D3
330
CF
100
AcDbEntity
  8
0
 62
   123
100
AcDbLine
 10
-6149.830526062018
 20
-1876.72325211413
 30
0.0
 11
-6149.830526062018
 21
-1887.116109256988
 31
0.0
  0
LINE
  5
D4
330
CF
100
AcDbEntity
  8
0
 62
   123
100
AcDbLine
 10
-6149.830526062018
 20
-1872.22325211413
 30
0.0
 11
-6149.830526062018
 21
-1873.22325211413
 31
0.0
  0
SOLID
  5
D5
330
CF
100
AcDbEntity
  8
0
 62
   123
100
AcDbTrace
 10
-6150.413859395351
 20
-1868.72325211413
 30
0.0
 11
-6149.247192728685
 21
-1868.72325211413
 31
0.0
 12
-6149.830526062018
 22
-1872.22325211413
 32
0.0
 13
-6149.830526062018
 23
-1872.22325211413
 33
0.0
  0
SOLID
  5
D6
330
CF
100
AcDbEntity
  8
0
 62
   123
100
AcDbTrace
 10
-6150.413859395351
 20
-1876.72325211413
 30
0.0
 11
-6149.247192728685
 21
-1876.72325211413
 31
0.0
 12
-6149.830526062018
 22
-1873.22325211413
 32
0.0
 13
-6149.830526062018
 23
-1873.22325211413
 33
0.0
  0
MTEXT
  5
D7
330
CF
100
AcDbEntity
  8
0
 62
     3
100
AcDbMText
 10
-6152.330526062018
 20
-1885.758966399845
 30
0.0
 40
3.0
 41
0.0
 71
     5
 72
     1
  1
\A1;1
 11
0.0000000000000001
 21
1.0
 31
0.0
1001
ACAD
1000
MTEXTBEGIN
1070
    73
1070
     1
1070
    44
1040
1.0
1070
    74
1070
     0
1000
MTEXTEND
  0
POINT
  5
D8
330
CF
100
AcDbEntity
  8
DEFPOINTS
 62
     0
100
AcDbPoint
 10
-6142.31065836703
 20
-1873.22325211413
 30
0.0
  0
POINT
  5
D9
330
CF
100
AcDbEntity
  8
DEFPOINTS
 62
     0
100
AcDbPoint
 10
-6144.997918509885
 20
-1872.22325211413
 30
0.0
  0
POINT
  5
DA
330
CF
100
AcDbEntity
  8
DEFPOINTS
 62
     0
100
AcDbPoint
 10
-6149.830526062018
 20
-1872.22325211413
 30
0.0
  0
ENDBLK
  5
DC
330
CF
100
AcDbEntity
  8
0
100
AcDbBlockEnd
  0
BLOCK
  5
6F
330
65
100
AcDbEntity
  8
0
100
AcDbBlockBegin
  2
*D12
 70
     1
 10
0.0
 20
0.0
 30
0.0
  3
*D12
  1

  0
LINE
  5
66
330
65
100
AcDbEntity
  8
0
 62
   123
100
AcDbLine
 10
-6030.939821514614
 20
-1860.223252114131
 30
0.0
 11
-6041.962303018585
 21
-1860.223252114131
 31
0.0
  0
LINE
  5
67
330
65
100
AcDbEntity
  8
0
 62
   123
100
AcDbLine
 10
-6030.939821514614
 20
-1810.223252114131
 30
0.0
 11
-6041.962303018585
 21
-1810.223252114131
 31
0.0
  0
LINE
  5
68
330
65
100
AcDbEntity
  8
0
 62
   123
100
AcDbLine
 10
-6041.362303018583
 20
-1856.723252114131
 30
0.0
 11
-6041.362303018583
 21
-1813.723252114131
 31
0.0
  0
SOLID
  5
69
330
65
100
AcDbEntity
  8
0
 62
   123
100
AcDbTrace
 10
-6041.945636351917
 20
-1856.723252114131
 30
0.0
 11
-6040.778969685252
 21
-1856.723252114131
 31
0.0
 12
-6041.362303018583
 22
-1860.223252114131
 32
0.0
 13
-6041.362303018583
 23
-1860.223252114131
 33
0.0
  0
SOLID
  5
6A
330
65
100
AcDbEntity
  8
0
 62
   123
100
AcDbTrace
 10
-6041.945636351917
 20
-1813.723252114131
 30
0.0
 11
-6040.778969685252
 21
-1813.723252114131
 31
0.0
 12
-6041.362303018583
 22
-1810.223252114131
 32
0.0
 13
-6041.362303018583
 23
-1810.223252114131
 33
0.0
  0
MTEXT
  5
6B
330
65
100
AcDbEntity
  8
0
 62
     3
100
AcDbMText
 10
-6043.862303018585
 20
-1836.043384833149
 30
0.0
 40
3.0
 41
0.0
 71
     5
 72
     1
  1
\A1;%%c50
 11
0.0000000000000001
 21
1.0
 31
0.0
1001
ACAD
1000
MTEXTBEGIN
1070
    73
1070
     1
1070
    44
1040
1.0
1070
    74
1070
     0
1000
MTEXTEND
  0
POINT
  5
6C
330
65
100
AcDbEntity
  8
DEFPOINTS
 62
     0
100
AcDbPoint
 10
-6029.939821514614
 20
-1860.223252114131
 30
0.0
  0
POINT
  5
6D
330
65
100
AcDbEntity
  8
DEFPOINTS
 62
     0
100
AcDbPoint
 10
-6029.939821514614
 20
-1810.223252114131
 30
0.0
  0
POINT
  5
6E
330
65
100
AcDbEntity
  8
DEFPOINTS
 62
     0
100
AcDbPoint
 10
-6041.362303018583
 20
-1810.223252114131
 30
0.0
  0
ENDBLK
  5
70
330
65
100
AcDbEntity
  8
0
100
AcDbBlockEnd
  0
BLOCK
  5
7E
330
74
100
AcDbEntity
  8
0
100
AcDbBlockBegin
  2
*D13
 70
     1
 10
0.0
 20
0.0
 30
0.0
  3
*D13
  1

  0
LINE
  5
75
330
74
100
AcDbEntity
  8
0
 62
   123
100
AcDbLine
 10
-6027.939821514614
 20
-1808.223252114131
 30
0.0
 11
-6054.926202001692
 21
-1808.223252114131
 31
0.0
  0
LINE
  5
76
330
74
100
AcDbEntity
  8
0
 62
   123
100
AcDbLine
 10
-6027.939821514614
 20
-1862.223250980376
 30
0.0
 11
-6054.926202001692
 21
-1862.223250980376
 31
0.0
  0
LINE
  5
77
330
74
100
AcDbEntity
  8
0
 62
   123
100
AcDbLine
 10
-6054.326202001692
 20
-1811.723252114131
 30
0.0
 11
-6054.326202001692
 21
-1858.723250980375
 31
0.0
  0
SOLID
  5
78
330
74
100
AcDbEntity
  8
0
 62
   123
100
AcDbTrace
 10
-6054.909535335024
 20
-1811.723252114131
 30
0.0
 11
-6053.74286866836
 21
-1811.723252114131
 31
0.0
 12
-6054.326202001692
 22
-1808.223252114131
 32
0.0
 13
-6054.326202001692
 23
-1808.223252114131
 33
0.0
  0
SOLID
  5
79
330
74
100
AcDbEntity
  8
0
 62
   123
100
AcDbTrace
 10
-6054.909535335024
 20
-1858.723250980375
 30
0.0
 11
-6053.74286866836
 21
-1858.723250980375
 31
0.0
 12
-6054.326202001692
 22
-1862.223250980376
 32
0.0
 13
-6054.326202001692
 23
-1862.223250980376
 33
0.0
  0
MTEXT
  5
7A
330
74
100
AcDbEntity
  8
0
 62
     3
100
AcDbMText
 10
-6056.82620200169
 20
-1834.509126432488
 30
0.0
 40
3.0
 41
0.0
 71
     5
 72
     1
  1
\A1;%%c54
 11
0.0000000000000001
 21
1.0
 31
0.0
1001
ACAD
1000
MTEXTBEGIN
1070
    73
1070
     1
1070
    44
1040
1.0
1070
    74
1070
     0
1000
MTEXTEND
  0
POINT
  5
7B
330
74
100
AcDbEntity
  8
DEFPOINTS
 62
     0
100
AcDbPoint
 10
-6026.939821514614
 20
-1808.223252114131
 30
0.0
  0
POINT
  5
7C
330
74
100
AcDbEntity
  8
DEFPOINTS
 62
     0
100
AcDbPoint
 10
-6026.939821514614
 20
-1862.223250980376
 30
0.0
  0
POINT
  5
7D
330
74
100
AcDbEntity
  8
DEFPOINTS
 62
     0
100
AcDbPoint
 10
-6054.326202001692
 20
-1862.223250980376
 30
0.0
  0
ENDBLK
  5
7F
330
74
100
AcDbEntity
  8
0
100
AcDbBlockEnd
  0
BLOCK
  5
8D
330
83
100
AcDbEntity
  8
0
100
AcDbBlockBegin
  2
*D14
 70
     1
 10
0.0
 20
0.0
 30
0.0
  3
*D14
  1

  0
LINE
  5
84
330
83
100
AcDbEntity
  8
0
 62
   123
100
AcDbLine
 10
-6118.310658367032
 20
-1873.22325211413
 30
0.0
 11
-6092.857004174362
 21
-1873.22325211413
 31
0.0
  0
LINE
  5
85
330
83
100
AcDbEntity
  8
0
 62
   123
100
AcDbLine
 10
-6141.810658367028
 20
-1804.723252114132
 30
0.0
 11
-6092.857004174362
 21
-1804.723252114132
 31
0.0
  0
LINE
  5
86
330
83
100
AcDbEntity
  8
0
 62
   123
100
AcDbLine
 10
-6093.457004174364
 20
-1869.72325211413
 30
0.0
 11
-6093.457004174364
 21
-1808.223252114132
 31
0.0
  0
SOLID
  5
87
330
83
100
AcDbEntity
  8
0
 62
   123
100
AcDbTrace
 10
-6094.040337507697
 20
-1869.72325211413
 30
0.0
 11
-6092.87367084103
 21
-1869.72325211413
 31
0.0
 12
-6093.457004174364
 22
-1873.22325211413
 32
0.0
 13
-6093.457004174364
 23
-1873.22325211413
 33
0.0
  0
SOLID
  5
88
330
83
100
AcDbEntity
  8
0
 62
   123
100
AcDbTrace
 10
-6094.040337507697
 20
-1808.223252114132
 30
0.0
 11
-6092.87367084103
 21
-1808.223252114132
 31
0.0
 12
-6093.457004174364
 22
-1804.723252114132
 32
0.0
 13
-6093.457004174364
 23
-1804.723252114132
 33
0.0
  0
MTEXT
  5
89
330
83
100
AcDbEntity
  8
0
 62
     3
100
AcDbMText
 10
-6095.957004174364
 20
-1841.459276109599
 30
0.0
 40
3.0
 41
0.0
 71
     5
 72
     1
  1
\A1;68.5
 11
0.0000000000000001
 21
1.0
 31
0.0
1001
ACAD
1000
MTEXTBEGIN
1070
    73
1070
     1
1070
    44
1040
1.0
1070
    74
1070
     0
1000
MTEXTEND
  0
POINT
  5
8A
330
83
100
AcDbEntity
  8
DEFPOINTS
 62
     0
100
AcDbPoint
 10
-6119.31065836703
 20
-1873.22325211413
 30
0.0
  0
POINT
  5
8B
330
83
100
AcDbEntity
  8
DEFPOINTS
 62
     0
100
AcDbPoint
 10
-6142.81065836703
 20
-1804.723252114132
 30
0.0
  0
POINT
  5
8C
330
83
100
AcDbEntity
  8
DEFPOINTS
 62
     0
100
AcDbPoint
 10
-6093.457004174364
 20
-1804.723252114132
 30
0.0
  0
ENDBLK
  5
8E
330
83
100
AcDbEntity
  8
0
100
AcDbBlockEnd
  0
BLOCK
  5
1A7
330
19B
100
AcDbEntity
  8
0
100
AcDbBlockBegin
  2
*D15
 70
     1
 10
0.0
 20
0.0
 30
0.0
  3
*D15
  1

  0
LINE
  5
19C
330
19B
100
AcDbEntity
  8
0
 62
   123
100
AcDbLine
 10
-6026.939821514614
 20
-1807.22325211413
 30
0.0
 11
-6026.939821514614
 21
-1789.901342447689
 31
0.0
  0
LINE
  5
19D
330
19B
100
AcDbEntity
  8
0
 62
   123
100
AcDbLine
 10
-6023.939821514614
 20
-1805.617645656865
 30
0.0
 11
-6023.939821514614
 21
-1789.901342447689
 31
0.0
  0
LINE
  5
19E
330
19B
100
AcDbEntity
  8
0
 62
   123
100
AcDbLine
 10
-6030.439821514613
 20
-1790.501342447689
 30
0.0
 11
-6033.939821514614
 21
-1790.501342447689
 31
0.0
  0
LINE
  5
19F
330
19B
100
AcDbEntity
  8
0
 62
   123
100
AcDbLine
 10
-6020.439821514614
 20
-1790.501342447689
 30
0.0
 11
-6008.439821514613
 21
-1790.501342447689
 31
0.0
  0
LINE
  5
1A0
330
19B
100
AcDbEntity
  8
0
 62
   123
100
AcDbLine
 10
-6026.939821514614
 20
-1790.501342447689
 30
0.0
 11
-6023.939821514614
 21
-1790.501342447689
 31
0.0
  0
SOLID
  5
1A1
330
19B
100
AcDbEntity
  8
0
 62
   123
100
AcDbTrace
 10
-6030.439821514613
 20
-1789.918009114357
 30
0.0
 11
-6030.439821514613
 21
-1791.084675781022
 31
0.0
 12
-6026.939821514614
 22
-1790.501342447689
 32
0.0
 13
-6026.939821514614
 23
-1790.501342447689
 33
0.0
  0
SOLID
  5
1A2
330
19B
100
AcDbEntity
  8
0
 62
   123
100
AcDbTrace
 10
-6020.439821514614
 20
-1789.918009114357
 30
0.0
 11
-6020.439821514614
 21
-1791.084675781022
 31
0.0
 12
-6023.939821514614
 22
-1790.501342447689
 32
0.0
 13
-6023.939821514614
 23
-1790.501342447689
 33
0.0
  0
MTEXT
  5
1A3
330
19B
100
AcDbEntity
  8
0
 62
     3
100
AcDbMText
 10
-6010.439821514614
 20
-1788.00134244769
 30
0.0
 40
3.0
 41
0.0
 71
     5
 72
     1
  1
\A1;3
1001
ACAD
1000
MTEXTBEGIN
1070
    73
1070
     1
1070
    44
1040
1.0
1070
    74
1070
     0
1000
MTEXTEND
  0
POINT
  5
1A4
330
19B
100
AcDbEntity
  8
DEFPOINTS
 62
     0
100
AcDbPoint
 10
-6026.939821514614
 20
-1808.223252114131
 30
0.0
  0
POINT
  5
1A5
330
19B
100
AcDbEntity
  8
DEFPOINTS
 62
     0
100
AcDbPoint
 10
-6023.939821514614
 20
-1806.617645656865
 30
0.0
  0
POINT
  5
1A6
330
19B
100
AcDbEntity
  8
DEFPOINTS
 62
     0
100
AcDbPoint
 10
-6023.939821514614
 20
-1790.501342447689
 30
0.0
  0
ENDBLK
  5
1A8
330
19B
100
AcDbEntity
  8
0
100
AcDbBlockEnd
  0
BLOCK
  5
189
330
17D
100
AcDbEntity
  8
0
100
AcDbBlockBegin
  2
*D16
 70
     1
 10
0.0
 20
0.0
 30
0.0
  3
*D16
  1

  0
LINE
  5
17E
330
17D
100
AcDbEntity
  8
0
 62
   123
100
AcDbLine
 10
-6029.939821514614
 20
-1804.72325211413
 30
0.0
 11
-6029.939821514614
 21
-1780.143987334233
 31
0.0
  0
LINE
  5
17F
330
17D
100
AcDbEntity
  8
0
 62
   123
100
AcDbLine
 10
-6023.939821514614
 20
-1804.72325211413
 30
0.0
 11
-6023.939821514614
 21
-1780.143987334233
 31
0.0
  0
LINE
  5
180
330
17D
100
AcDbEntity
  8
0
 62
   123
100
AcDbLine
 10
-6033.439821514614
 20
-1780.743987334234
 30
0.0
 11
-6036.939821514614
 21
-1780.743987334234
 31
0.0
  0
LINE
  5
181
330
17D
100
AcDbEntity
  8
0
 62
   123
100
AcDbLine
 10
-6020.439821514614
 20
-1780.743987334234
 30
0.0
 11
-6016.939821514614
 21
-1780.743987334234
 31
0.0
  0
LINE
  5
182
330
17D
100
AcDbEntity
  8
0
 62
   123
100
AcDbLine
 10
-6029.939821514614
 20
-1780.743987334234
 30
0.0
 11
-6023.939821514614
 21
-1780.743987334234
 31
0.0
  0
SOLID
  5
183
330
17D
100
AcDbEntity
  8
0
 62
   123
100
AcDbTrace
 10
-6033.439821514614
 20
-1780.1606540009
 30
0.0
 11
-6033.439821514614
 21
-1781.327320667567
 31
0.0
 12
-6029.939821514614
 22
-1780.743987334234
 32
0.0
 13
-6029.939821514614
 23
-1780.743987334234
 33
0.0
  0
SOLID
  5
184
330
17D
100
AcDbEntity
  8
0
 62
   123
100
AcDbTrace
 10
-6020.439821514614
 20
-1780.1606540009
 30
0.0
 11
-6020.439821514614
 21
-1781.327320667567
 31
0.0
 12
-6023.939821514614
 22
-1780.743987334234
 32
0.0
 13
-6023.939821514614
 23
-1780.743987334234
 33
0.0
  0
MTEXT
  5
185
330
17D
100
AcDbEntity
  8
0
 62
     3
100
AcDbMText
 10
-6026.939821514614
 20
-1778.243987334234
 30
0.0
 40
3.0
 41
0.0
 71
     5
 72
     1
  1
\A1;6
1001
ACAD
1000
MTEXTBEGIN
1070
    73
1070
     1
1070
    44
1040
1.0
1070
    74
1070
     0
1000
MTEXTEND
  0
POINT
  5
186
330
17D
100
AcDbEntity
  8
DEFPOINTS
 62
     0
100
AcDbPoint
 10
-6029.939821514614
 20
-1805.72325211413
 30
0.0
  0
POINT
  5
187
330
17D
100
AcDbEntity
  8
DEFPOINTS
 62
     0
100
AcDbPoint
 10
-6023.939821514614
 20
-1805.72325211413
 30
0.0
  0
POINT
  5
188
330
17D
100
AcDbEntity
  8
DEFPOINTS
 62
     0
100
AcDbPoint
 10
-6023.939821514614
 20
-1780.743987334234
 30
0.0
  0
ENDBLK
  5
18A
330
17D
100
AcDbEntity
  8
0
100
AcDbBlockEnd
  0
BLOCK
  5
9C
330
92
100
AcDbEntity
  8
0
100
AcDbBlockBegin
  2
*D17
 70
     1
 10
0.0
 20
0.0
 30
0.0
  3
*D17
  1

  0
LINE
  5
93
330
92
100
AcDbEntity
  8
0
 62
   123
100
AcDbLine
 10
-6218.31065836703
 20
-1873.223252114129
 30
0.0
 11
-6236.687985699145
 21
-1873.223252114129
 31
0.0
  0
LINE
  5
94
330
92
100
AcDbEntity
  8
0
 62
   123
100
AcDbLine
 10
-6216.557758942514
 20
-1835.223252114131
 30
0.0
 11
-6236.687985699145
 21
-1835.223252114131
 31
0.0
  0
LINE
  5
95
330
92
100
AcDbEntity
  8
0
 62
   123
100
AcDbLine
 10
-6236.087985699145
 20
-1869.72325211413
 30
0.0
 11
-6236.087985699145
 21
-1838.723252114131
 31
0.0
  0
SOLID
  5
96
330
92
100
AcDbEntity
  8
0
 62
   123
100
AcDbTrace
 10
-6236.671319032478
 20
-1869.72325211413
 30
0.0
 11
-6235.504652365812
 21
-1869.72325211413
 31
0.0
 12
-6236.087985699145
 22
-1873.223252114129
 32
0.0
 13
-6236.087985699145
 23
-1873.223252114129
 33
0.0
  0
SOLID
  5
97
330
92
100
AcDbEntity
  8
0
 62
   123
100
AcDbTrace
 10
-6236.671319032478
 20
-1838.723252114131
 30
0.0
 11
-6235.504652365812
 21
-1838.723252114131
 31
0.0
 12
-6236.087985699145
 22
-1835.223252114131
 32
0.0
 13
-6236.087985699145
 23
-1835.223252114131
 33
0.0
  0
MTEXT
  5
98
330
92
100
AcDbEntity
  8
0
 62
     3
100
AcDbMText
 10
-6238.587985699145
 20
-1853.852998166552
 30
0.0
 40
3.0
 41
0.0
 71
     5
 72
     1
  1
\A1;38%%P0.5
 11
0.0000000000000001
 21
1.0
 31
0.0
1001
ACAD
1000
MTEXTBEGIN
1070
    73
1070
     1
1070
    44
1040
1.0
1070
    74
1070
     0
1000
MTEXTEND
  0
POINT
  5
99
330
92
100
AcDbEntity
  8
DEFPOINTS
 62
     0
100
AcDbPoint
 10
-6217.310658367029
 20
-1873.223252114129
 30
0.0
  0
POINT
  5
9A
330
92
100
AcDbEntity
  8
DEFPOINTS
 62
     0
100
AcDbPoint
 10
-6215.557758942512
 20
-1835.223252114131
 30
0.0
  0
POINT
  5
9B
330
92
100
AcDbEntity
  8
DEFPOINTS
 62
     0
100
AcDbPoint
 10
-6236.087985699145
 20
-1835.223252114131
 30
0.0
  0
ENDBLK
  5
9D
330
92
100
AcDbEntity
  8
0
100
AcDbBlockEnd
  0
BLOCK
  5
1B9
330
1AF
100
AcDbEntity
  8
0
100
AcDbBlockBegin
  2
*D18
 70
     1
 10
0.0
 20
0.0
 30
0.0
  3
*D18
  1

  0
LINE
  5
1B0
330
1AF
100
AcDbEntity
  8
0
 62
   123
100
AcDbLine
 10
-6132.310658367032
 20
-1757.750260883248
 30
0.0
 11
-6103.572227868504
 21
-1757.750260883248
 31
0.0
  0
LINE
  5
1B1
330
1AF
100
AcDbEntity
  8
0
 62
   123
100
AcDbLine
 10
-6120.310658367031
 20
-1742.750260883248
 30
0.0
 11
-6103.572227868504
 21
-1742.750260883248
 31
0.0
  0
LINE
  5
1B2
330
1AF
100
AcDbEntity
  8
0
 62
   123
100
AcDbLine
 10
-6104.172227868503
 20
-1754.250260883249
 30
0.0
 11
-6104.172227868503
 21
-1746.250260883248
 31
0.0
  0
SOLID
  5
1B3
330
1AF
100
AcDbEntity
  8
0
 62
   123
100
AcDbTrace
 10
-6104.755561201837
 20
-1754.250260883249
 30
0.0
 11
-6103.588894535171
 21
-1754.250260883249
 31
0.0
 12
-6104.172227868503
 22
-1757.750260883248
 32
0.0
 13
-6104.172227868503
 23
-1757.750260883248
 33
0.0
  0
SOLID
  5
1B4
330
1AF
100
AcDbEntity
  8
0
 62
   123
100
AcDbTrace
 10
-6104.755561201837
 20
-1746.250260883248
 30
0.0
 11
-6103.588894535171
 21
-1746.250260883248
 31
0.0
 12
-6104.172227868503
 22
-1742.750260883248
 32
0.0
 13
-6104.172227868503
 23
-1742.750260883248
 33
0.0
  0
MTEXT
  5
1B5
330
1AF
100
AcDbEntity
  8
0
 62
     3
100
AcDbMText
 10
-6106.672227868504
 20
-1750.250260883249
 30
0.0
 40
3.0
 41
0.0
 71
     5
 72
     1
  1
\A1;15
 11
0.0000000000000001
 21
1.0
 31
0.0
1001
ACAD
1000
MTEXTBEGIN
1070
    73
1070
     1
1070
    44
1040
1.0
1070
    74
1070
     0
1000
MTEXTEND
  0
POINT
  5
1B6
330
1AF
100
AcDbEntity
  8
DEFPOINTS
 62
     0
100
AcDbPoint
 10
-6133.31065836703
 20
-1757.750260883248
 30
0.0
  0
POINT
  5
1B7
330
1AF
100
AcDbEntity
  8
DEFPOINTS
 62
     0
100
AcDbPoint
 10
-6121.310658367032
 20
-1742.750260883248
 30
0.0
  0
POINT
  5
1B8
330
1AF
100
AcDbEntity
  8
DEFPOINTS
 62
     0
100
AcDbPoint
 10
-6104.172227868503
 20
-1742.750260883248
 30
0.0
  0
ENDBLK
  5
1BA
330
1AF
100
AcDbEntity
  8
0
100
AcDbBlockEnd
  0
BLOCK
  5
1CD
330
1C3
100
AcDbEntity
  8
0
100
AcDbBlockBegin
  2
*D19
 70
     1
 10
0.0
 20
0.0
 30
0.0
  3
*D19
  1

  0
LINE
  5
1C4
330
1C3
100
AcDbEntity
  8
0
 62
   123
100
AcDbLine
 10
-6209.31065836703
 20
-1701.750260883247
 30
0.0
 11
-6209.31065836703
 21
-1680.133061419928
 31
0.0
  0
LINE
  5
1C5
330
1C3
100
AcDbEntity
  8
0
 62
   123
100
AcDbLine
 10
-6127.310658367029
 20
-1701.750260883247
 30
0.0
 11
-6127.310658367029
 21
-1680.133061419928
 31
0.0
  0
LINE
  5
1C6
330
1C3
100
AcDbEntity
  8
0
 62
   123
100
AcDbLine
 10
-6205.810658367031
 20
-1680.733061419928
 30
0.0
 11
-6130.810658367032
 21
-1680.733061419928
 31
0.0
  0
SOLID
  5
1C7
330
1C3
100
AcDbEntity
  8
0
 62
   123
100
AcDbTrace
 10
-6205.810658367031
 20
-1680.149728086594
 30
0.0
 11
-6205.810658367031
 21
-1681.316394753261
 31
0.0
 12
-6209.31065836703
 22
-1680.733061419928
 32
0.0
 13
-6209.31065836703
 23
-1680.733061419928
 33
0.0
  0
SOLID
  5
1C8
330
1C3
100
AcDbEntity
  8
0
 62
   123
100
AcDbTrace
 10
-6130.810658367032
 20
-1680.149728086594
 30
0.0
 11
-6130.810658367032
 21
-1681.316394753261
 31
0.0
 12
-6127.310658367029
 22
-1680.733061419928
 32
0.0
 13
-6127.310658367029
 23
-1680.733061419928
 33
0.0
  0
MTEXT
  5
1C9
330
1C3
100
AcDbEntity
  8
0
 62
     3
100
AcDbMText
 10
-6168.310658367031
 20
-1678.233061419927
 30
0.0
 40
3.0
 41
0.0
 71
     5
 72
     1
  1
\A1;82
1001
ACAD
1000
MTEXTBEGIN
1070
    73
1070
     1
1070
    44
1040
1.0
1070
    74
1070
     0
1000
MTEXTEND
  0
POINT
  5
1CA
330
1C3
100
AcDbEntity
  8
DEFPOINTS
 62
     0
100
AcDbPoint
 10
-6209.31065836703
 20
-1702.750260883249
 30
0.0
  0
POINT
  5
1CB
330
1C3
100
AcDbEntity
  8
DEFPOINTS
 62
     0
100
AcDbPoint
 10
-6127.310658367029
 20
-1702.750260883249
 30
0.0
  0
POINT
  5
1CC
330
1C3
100
AcDbEntity
  8
DEFPOINTS
 62
     0
100
AcDbPoint
 10
-6127.310658367029
 20
-1680.733061419928
 30
0.0
  0
ENDBLK
  5
1CE
330
1C3
100
AcDbEntity
  8
0
100
AcDbBlockEnd
  0
BLOCK
  5
1F7
330
1ED
100
AcDbEntity
  8
0
100
AcDbBlockBegin
  2
*D20
 70
     1
 10
0.0
 20
0.0
 30
0.0
  3
*D20
  1

  0
LINE
  5
1EE
330
1ED
100
AcDbEntity
  8
0
 62
   123
100
AcDbLine
 10
-6187.31065836703
 20
-1714.750260883248
 30
0.0
 11
-6187.31065836703
 21
-1690.500427164248
 31
0.0
  0
LINE
  5
1EF
330
1ED
100
AcDbEntity
  8
0
 62
   123
100
AcDbLine
 10
-6149.31065836703
 20
-1714.750260883248
 30
0.0
 11
-6149.31065836703
 21
-1690.500427164248
 31
0.0
  0
LINE
  5
1F0
330
1ED
100
AcDbEntity
  8
0
 62
   123
100
AcDbLine
 10
-6183.810658367029
 20
-1691.100427164249
 30
0.0
 11
-6152.81065836703
 21
-1691.100427164249
 31
0.0
  0
SOLID
  5
1F1
330
1ED
100
AcDbEntity
  8
0
 62
   123
100
AcDbTrace
 10
-6183.810658367029
 20
-1690.517093830916
 30
0.0
 11
-6183.810658367029
 21
-1691.683760497582
 31
0.0
 12
-6187.31065836703
 22
-1691.100427164249
 32
0.0
 13
-6187.31065836703
 23
-1691.100427164249
 33
0.0
  0
SOLID
  5
1F2
330
1ED
100
AcDbEntity
  8
0
 62
   123
100
AcDbTrace
 10
-6152.81065836703
 20
-1690.517093830916
 30
0.0
 11
-6152.81065836703
 21
-1691.683760497582
 31
0.0
 12
-6149.31065836703
 22
-1691.100427164249
 32
0.0
 13
-6149.31065836703
 23
-1691.100427164249
 33
0.0
  0
MTEXT
  5
1F3
330
1ED
100
AcDbEntity
  8
0
 62
     3
100
AcDbMText
 10
-6168.310658367031
 20
-1688.600427164248
 30
0.0
 40
3.0
 41
0.0
 71
     5
 72
     1
  1
\A1;38
1001
ACAD
1000
MTEXTBEGIN
1070
    73
1070
     1
1070
    44
1040
1.0
1070
    74
1070
     0
1000
MTEXTEND
  0
POINT
  5
1F4
330
1ED
100
AcDbEntity
  8
DEFPOINTS
 62
     0
100
AcDbPoint
 10
-6187.31065836703
 20
-1715.750260883248
 30
0.0
  0
POINT
  5
1F5
330
1ED
100
AcDbEntity
  8
DEFPOINTS
 62
     0
100
AcDbPoint
 10
-6149.31065836703
 20
-1715.750260883248
 30
0.0
  0
POINT
  5
1F6
330
1ED
100
AcDbEntity
  8
DEFPOINTS
 62
     0
100
AcDbPoint
 10
-6149.31065836703
 20
-1691.100427164249
 30
0.0
  0
ENDBLK
  5
1F8
330
1ED
100
AcDbEntity
  8
0
100
AcDbBlockEnd
  0
BLOCK
  5
13D
330
133
100
AcDbEntity
  8
0
100
AcDbBlockBegin
  2
*D21
 70
     1
 10
0.0
 20
0.0
 30
0.0
  3
*D21
  1

  0
LINE
  5
134
330
133
100
AcDbEntity
  8
0
 62
   123
100
AcDbLine
 10
-6194.310658367029
 20
-1707.750260883249
 30
0.0
 11
-6171.751809785752
 21
-1707.750260883249
 31
0.0
  0
LINE
  5
135
330
133
100
AcDbEntity
  8
0
 62
   123
100
AcDbLine
 10
-6178.240501116087
 20
-1740.750260883249
 30
0.0
 11
-6171.751809785752
 21
-1740.750260883249
 31
0.0
  0
LINE
  5
136
330
133
100
AcDbEntity
  8
0
 62
   123
100
AcDbLine
 10
-6172.351809785752
 20
-1711.250260883248
 30
0.0
 11
-6172.351809785752
 21
-1737.250260883249
 31
0.0
  0
SOLID
  5
137
330
133
100
AcDbEntity
  8
0
 62
   123
100
AcDbTrace
 10
-6172.935143119086
 20
-1711.250260883248
 30
0.0
 11
-6171.768476452419
 21
-1711.250260883248
 31
0.0
 12
-6172.351809785752
 22
-1707.750260883249
 32
0.0
 13
-6172.351809785752
 23
-1707.750260883249
 33
0.0
  0
SOLID
  5
138
330
133
100
AcDbEntity
  8
0
 62
   123
100
AcDbTrace
 10
-6172.935143119086
 20
-1737.250260883249
 30
0.0
 11
-6171.768476452419
 21
-1737.250260883249
 31
0.0
 12
-6172.351809785752
 22
-1740.750260883249
 32
0.0
 13
-6172.351809785752
 23
-1740.750260883249
 33
0.0
  0
MTEXT
  5
139
330
133
100
AcDbEntity
  8
0
 62
     3
100
AcDbMText
 10
-6174.851809785753
 20
-1722.960676477087
 30
0.0
 40
3.0
 41
0.0
 71
     5
 72
     1
  1
\A1;33
 11
0.0000000000000001
 21
1.0
 31
0.0
1001
ACAD
1000
MTEXTBEGIN
1070
    73
1070
     1
1070
    44
1040
1.0
1070
    74
1070
     0
1000
MTEXTEND
  0
POINT
  5
13A
330
133
100
AcDbEntity
  8
DEFPOINTS
 62
     0
100
AcDbPoint
 10
-6195.310658367032
 20
-1707.750260883249
 30
0.0
  0
POINT
  5
13B
330
133
100
AcDbEntity
  8
DEFPOINTS
 62
     0
100
AcDbPoint
 10
-6179.240501116087
 20
-1740.750260883249
 30
0.0
  0
POINT
  5
13C
330
133
100
AcDbEntity
  8
DEFPOINTS
 62
     0
100
AcDbPoint
 10
-6172.351809785752
 20
-1740.750260883249
 30
0.0
  0
ENDBLK
  5
13E
330
133
100
AcDbEntity
  8
0
100
AcDbBlockEnd
  0
BLOCK
  5
203
330
1FC
100
AcDbEntity
  8
0
100
AcDbBlockBegin
  2
*D22
 70
     1
 10
0.0
 20
0.0
 30
0.0
  3
*D22
  1

  0
LINE
  5
1FD
330
1FC
100
AcDbEntity
  8
0
 62
   123
100
AcDbLine
 10
-6149.867051838781
 20
-1708.066633435456
 30
0.0
 11
-6161.452727471344
 21
-1697.662715524773
 31
0.0
  0
LINE
  5
1FE
330
1FC
100
AcDbEntity
  8
0
 62
   123
100
AcDbLine
 10
-6141.31065836703
 20
-1715.750260883248
 30
0.0
 11
-6147.262932086507
 21
-1710.405128745653
 31
0.0
  0
SOLID
  5
1FF
330
1FC
100
AcDbEntity
  8
0
 62
   123
100
AcDbTrace
 10
-6149.477302620415
 20
-1707.632613476744
 30
0.0
 11
-6150.256801057146
 21
-1708.500653394167
 31
0.0
 12
-6147.262932086507
 22
-1710.405128745653
 32
0.0
 13
-6147.262932086507
 23
-1710.405128745653
 33
0.0
  0
MTEXT
  5
200
330
1FC
100
AcDbEntity
  8
0
 62
     3
100
AcDbMText
 10
-6157.23139922714
 20
-1698.09340090355
 30
0.0
 40
3.0
 41
0.0
 71
     5
 72
     1
  1
\A1;R8
 11
0.7440342149351524
 21
-0.6681415171996362
 31
0.0
1001
ACAD
1000
MTEXTBEGIN
1070
    73
1070
     1
1070
    44
1040
1.0
1070
    74
1070
     0
1000
MTEXTEND
  0
POINT
  5
201
330
1FC
100
AcDbEntity
  8
DEFPOINTS
 62
     0
100
AcDbPoint
 10
-6147.262932086507
 20
-1710.405128745653
 30
0.0
  0
POINT
  5
202
330
1FC
100
AcDbEntity
  8
DEFPOINTS
 62
     0
100
AcDbPoint
 10
-6141.31065836703
 20
-1715.750260883248
 30
0.0
  0
ENDBLK
  5
204
330
1FC
100
AcDbEntity
  8
0
100
AcDbBlockEnd
  0
BLOCK
  5
11A
330
10E
100
AcDbEntity
  8
0
100
AcDbBlockBegin
  2
*D23
 70
     1
 10
0.0
 20
0.0
 30
0.0
  3
*D23
  1

  0
LINE
  5
10F
330
10E
100
AcDbEntity
  8
0
 62
   123
100
AcDbLine
 10
-6211.76065836703
 20
-1720.000260883247
 30
0.0
 11
-6227.534294665538
 21
-1720.000260883247
 31
0.0
  0
LINE
  5
110
330
10E
100
AcDbEntity
  8
0
 62
   123
100
AcDbLine
 10
-6211.76065836703
 20
-1715.500260883247
 30
0.0
 11
-6227.534294665538
 21
-1715.500260883247
 31
0.0
  0
LINE
  5
111
330
10E
100
AcDbEntity
  8
0
 62
   123
100
AcDbLine
 10
-6226.934294665538
 20
-1723.500260883247
 30
0.0
 11
-6226.934294665538
 21
-1727.000260883247
 31
0.0
  0
LINE
  5
112
330
10E
100
AcDbEntity
  8
0
 62
   123
100
AcDbLine
 10
-6226.934294665538
 20
-1712.000260883248
 30
0.0
 11
-6226.934294665538
 21
-1708.500260883248
 31
0.0
  0
LINE
  5
113
330
10E
100
AcDbEntity
  8
0
 62
   123
100
AcDbLine
 10
-6226.934294665538
 20
-1720.000260883247
 30
0.0
 11
-6226.934294665538
 21
-1715.500260883247
 31
0.0
  0
SOLID
  5
114
330
10E
100
AcDbEntity
  8
0
 62
   123
100
AcDbTrace
 10
-6227.517627998871
 20
-1723.500260883247
 30
0.0
 11
-6226.350961332205
 21
-1723.500260883247
 31
0.0
 12
-6226.934294665538
 22
-1720.000260883247
 32
0.0
 13
-6226.934294665538
 23
-1720.000260883247
 33
0.0
  0
SOLID
  5
115
330
10E
100
AcDbEntity
  8
0
 62
   123
100
AcDbTrace
 10
-6227.517627998871
 20
-1712.000260883248
 30
0.0
 11
-6226.350961332205
 21
-1712.000260883248
 31
0.0
 12
-6226.934294665538
 22
-1715.500260883247
 32
0.0
 13
-6226.934294665538
 23
-1715.500260883247
 33
0.0
  0
MTEXT
  5
116
330
10E
100
AcDbEntity
  8
0
 62
     3
100
AcDbMText
 10
-6229.434294665538
 20
-1717.750260883248
 30
0.0
 40
3.0
 41
0.0
 71
     5
 72
     1
  1
\A1;4.5
 11
0.0000000000000001
 21
1.0
 31
0.0
1001
ACAD
1000
MTEXTBEGIN
1070
    73
1070
     1
1070
    44
1040
1.0
1070
    74
1070
     0
1000
MTEXTEND
  0
POINT
  5
117
330
10E
100
AcDbEntity
  8
DEFPOINTS
 62
     0
100
AcDbPoint
 10
-6210.76065836703
 20
-1720.000260883247
 30
0.0
  0
POINT
  5
118
330
10E
100
AcDbEntity
  8
DEFPOINTS
 62
     0
100
AcDbPoint
 10
-6210.76065836703
 20
-1715.500260883247
 30
0.0
  0
POINT
  5
119
330
10E
100
AcDbEntity
  8
DEFPOINTS
 62
     0
100
AcDbPoint
 10
-6226.934294665538
 20
-1715.500260883247
 30
0.0
  0
ENDBLK
  5
11B
330
10E
100
AcDbEntity
  8
0
100
AcDbBlockEnd
  0
BLOCK
  5
1E2
330
1D6
100
AcDbEntity
  8
0
100
AcDbBlockBegin
  2
*D24
 70
     1
 10
0.0
 20
0.0
 30
0.0
  3
*D24
  1

  0
LINE
  5
1D7
330
1D6
100
AcDbEntity
  8
0
 62
   123
100
AcDbLine
 10
-6213.01065836703
 20
-1716.750260883248
 30
0.0
 11
-6213.01065836703
 21
-1695.636836952627
 31
0.0
  0
LINE
  5
1D8
330
1D6
100
AcDbEntity
  8
0
 62
   123
100
AcDbLine
 10
-6205.610658367032
 20
-1716.750260883248
 30
0.0
 11
-6205.610658367032
 21
-1695.636836952627
 31
0.0
  0
LINE
  5
1D9
330
1D6
100
AcDbEntity
  8
0
 62
   123
100
AcDbLine
 10
-6202.110658367032
 20
-1696.236836952626
 30
0.0
 11
-6198.61065836703
 21
-1696.236836952626
 31
0.0
  0
LINE
  5
1DA
330
1D6
100
AcDbEntity
  8
0
 62
   123
100
AcDbLine
 10
-6216.510658367031
 20
-1696.236836952626
 30
0.0
 11
-6229.25449579835
 21
-1696.236836952626
 31
0.0
  0
LINE
  5
1DB
330
1D6
100
AcDbEntity
  8
0
 62
   123
100
AcDbLine
 10
-6205.610658367032
 20
-1696.236836952626
 30
0.0
 11
-6213.01065836703
 21
-1696.236836952626
 31
0.0
  0
SOLID
  5
1DC
330
1D6
100
AcDbEntity
  8
0
 62
   123
100
AcDbTrace
 10
-6202.110658367032
 20
-1695.653503619293
 30
0.0
 11
-6202.110658367032
 21
-1696.820170285961
 31
0.0
 12
-6205.610658367032
 22
-1696.236836952626
 32
0.0
 13
-6205.610658367032
 23
-1696.236836952626
 33
0.0
  0
SOLID
  5
1DD
330
1D6
100
AcDbEntity
  8
0
 62
   123
100
AcDbTrace
 10
-6216.510658367031
 20
-1695.653503619293
 30
0.0
 11
-6216.510658367031
 21
-1696.820170285961
 31
0.0
 12
-6213.01065836703
 22
-1696.236836952626
 32
0.0
 13
-6213.01065836703
 23
-1696.236836952626
 33
0.0
  0
MTEXT
  5
1DE
330
1D6
100
AcDbEntity
  8
0
 62
     3
100
AcDbMText
 10
-6225.040210084063
 20
-1693.736836952626
 30
0.0
 40
3.0
 41
0.0
 71
     5
 72
     1
  1
\A1;7.4
1001
ACAD
1000
MTEXTBEGIN
1070
    73
1070
     1
1070
    44
1040
1.0
1070
    74
1070
     0
1000
MTEXTEND
  0
POINT
  5
1DF
330
1D6
100
AcDbEntity
  8
DEFPOINTS
 62
     0
100
AcDbPoint
 10
-6213.01065836703
 20
-1717.750260883248
 30
0.0
  0
POINT
  5
1E0
330
1D6
100
AcDbEntity
  8
DEFPOINTS
 62
     0
100
AcDbPoint
 10
-6205.610658367032
 20
-1717.750260883248
 30
0.0
  0
POINT
  5
1E1
330
1D6
100
AcDbEntity
  8
DEFPOINTS
 62
     0
100
AcDbPoint
 10
-6205.610658367032
 20
-1696.236836952626
 30
0.0
  0
ENDBLK
  5
1E3
330
1D6
100
AcDbEntity
  8
0
100
AcDbBlockEnd
  0
BLOCK
  5
229
330
21F
100
AcDbEntity
  8
0
100
AcDbBlockBegin
  2
*D25
 70
     1
 10
0.0
 20
0.0
 30
0.0
  3
*D25
  1

  0
LINE
  5
220
330
21F
100
AcDbEntity
  8
0
 62
   123
100
AcDbLine
 10
234.0202543999512
 20
35.79623825296812
 30
0.0
 11
234.0202543999512
 21
45.7862198345782
 31
0.0
  0
LINE
  5
221
330
21F
100
AcDbEntity
  8
0
 62
   123
100
AcDbLine
 10
260.0202543999512
 20
35.29623825296812
 30
0.0
 11
260.0202543999512
 21
45.7862198345782
 31
0.0
  0
LINE
  5
222
330
21F
100
AcDbEntity
  8
0
 62
   123
100
AcDbLine
 10
237.5202543999512
 20
45.18621983457819
 30
0.0
 11
256.5202543999512
 21
45.18621983457819
 31
0.0
  0
SOLID
  5
223
330
21F
100
AcDbEntity
  8
0
 62
   123
100
AcDbTrace
 10
237.5202543999512
 20
45.76955316791153
 30
0.0
 11
237.5202543999512
 21
44.60288650124486
 31
0.0
 12
234.0202543999512
 22
45.18621983457819
 32
0.0
 13
234.0202543999512
 23
45.18621983457819
 33
0.0
  0
SOLID
  5
224
330
21F
100
AcDbEntity
  8
0
 62
   123
100
AcDbTrace
 10
256.5202543999512
 20
45.76955316791153
 30
0.0
 11
256.5202543999512
 21
44.60288650124486
 31
0.0
 12
260.0202543999512
 22
45.18621983457819
 32
0.0
 13
260.0202543999512
 23
45.18621983457819
 33
0.0
  0
MTEXT
  5
225
330
21F
100
AcDbEntity
  8
0
 62
     3
100
AcDbMText
 10
247.0202543999512
 20
47.68621983457819
 30
0.0
 40
3.0
 41
0.0
 71
     5
 72
     1
  1
\A1;26
1001
ACAD
1000
MTEXTBEGIN
1070
    73
1070
     1
1070
    44
1040
1.0
1070
    74
1070
     0
1000
MTEXTEND
  0
POINT
  5
226
330
21F
100
AcDbEntity
  8
DEFPOINTS
 62
     0
100
AcDbPoint
 10
234.0202543999512
 20
34.79623825296812
 30
0.0
  0
POINT
  5
227
330
21F
100
AcDbEntity
  8
DEFPOINTS
 62
     0
100
AcDbPoint
 10
260.0202543999512
 20
34.29623825296812
 30
0.0
  0
POINT
  5
228
330
21F
100
AcDbEntity
  8
DEFPOINTS
 62
     0
100
AcDbPoint
 10
260.0202543999512
 20
45.18621983457819
 30
0.0
  0
ENDBLK
  5
22A
330
21F
100
AcDbEntity
  8
0
100
AcDbBlockEnd
  0
BLOCK
  5
235
330
22B
100
AcDbEntity
  8
0
100
AcDbBlockBegin
  2
*D26
 70
     1
 10
0.0
 20
0.0
 30
0.0
  3
*D26
  1

  0
LINE
  5
22C
330
22B
100
AcDbEntity
  8
0
 62
   123
100
AcDbLine
 10
210.0202543999512
 20
33.79623825296812
 30
0.0
 11
210.0202543999512
 21
15.04804151621228
 31
0.0
  0
LINE
  5
22D
330
22B
100
AcDbEntity
  8
0
 62
   123
100
AcDbLine
 10
260.0202543999512
 20
26.29623825296812
 30
0.0
 11
260.0202543999512
 21
15.04804151621228
 31
0.0
  0
LINE
  5
22E
330
22B
100
AcDbEntity
  8
0
 62
   123
100
AcDbLine
 10
213.5202543999512
 20
15.64804151621228
 30
0.0
 11
256.5202543999512
 21
15.64804151621228
 31
0.0
  0
SOLID
  5
22F
330
22B
100
AcDbEntity
  8
0
 62
   123
100
AcDbTrace
 10
213.5202543999512
 20
16.23137484954562
 30
0.0
 11
213.5202543999512
 21
15.06470818287895
 31
0.0
 12
210.0202543999512
 22
15.64804151621228
 32
0.0
 13
210.0202543999512
 23
15.64804151621228
 33
0.0
  0
SOLID
  5
230
330
22B
100
AcDbEntity
  8
0
 62
   123
100
AcDbTrace
 10
256.5202543999512
 20
16.23137484954562
 30
0.0
 11
256.5202543999512
 21
15.06470818287895
 31
0.0
 12
260.0202543999512
 22
15.64804151621228
 32
0.0
 13
260.0202543999512
 23
15.64804151621228
 33
0.0
  0
MTEXT
  5
231
330
22B
100
AcDbEntity
  8
0
 62
     3
100
AcDbMText
 10
234.2901229336312
 20
18.14804151621228
 30
0.0
 40
3.0
 41
0.0
 71
     5
 72
     1
  1
\A1;50
1001
ACAD
1000
MTEXTBEGIN
1070
    73
1070
     1
1070
    44
1040
1.0
1070
    74
1070
     0
1000
MTEXTEND
  0
POINT
  5
232
330
22B
100
AcDbEntity
  8
DEFPOINTS
 62
     0
100
AcDbPoint
 10
210.0202543999512
 20
34.79623825296812
 30
0.0
  0
POINT
  5
233
330
22B
100
AcDbEntity
  8
DEFPOINTS
 62
     0
100
AcDbPoint
 10
260.0202543999512
 20
27.29623825296812
 30
0.0
  0
POINT
  5
234
330
22B
100
AcDbEntity
  8
DEFPOINTS
 62
     0
100
AcDbPoint
 10
260.0202543999512
 20
15.64804151621228
 30
0.0
  0
ENDBLK
  5
236
330
22B
100
AcDbEntity
  8
0
100
AcDbBlockEnd
  0
BLOCK
  5
241
330
237
100
AcDbEntity
  8
0
100
AcDbBlockBegin
  2
*D27
 70
     1
 10
0.0
 20
0.0
 30
0.0
  3
*D27
  1

  0
LINE
  5
238
330
237
100
AcDbEntity
  8
0
 62
   123
100
AcDbLine
 10
41.14941754753362
 20
92.29623825296812
 30
0.0
 11
41.14941754753362
 21
110.5011203946372
 31
0.0
  0
LINE
  5
239
330
237
100
AcDbEntity
  8
0
 62
   123
100
AcDbLine
 10
102.1494175475354
 20
92.29623825296721
 30
0.0
 11
102.1494175475354
 21
110.5011203946372
 31
0.0
  0
LINE
  5
23A
330
237
100
AcDbEntity
  8
0
 62
   123
100
AcDbLine
 10
44.64941754753363
 20
109.9011203946372
 30
0.0
 11
98.64941754753544
 21
109.9011203946372
 31
0.0
  0
SOLID
  5
23B
330
237
100
AcDbEntity
  8
0
 62
   123
100
AcDbTrace
 10
44.64941754753363
 20
110.4844537279705
 30
0.0
 11
44.64941754753363
 21
109.3177870613039
 31
0.0
 12
41.14941754753362
 22
109.9011203946372
 32
0.0
 13
41.14941754753362
 23
109.9011203946372
 33
0.0
  0
SOLID
  5
23C
330
237
100
AcDbEntity
  8
0
 62
   123
100
AcDbTrace
 10
98.64941754753544
 20
110.4844537279705
 30
0.0
 11
98.64941754753544
 21
109.3177870613039
 31
0.0
 12
102.1494175475354
 22
109.9011203946372
 32
0.0
 13
102.1494175475354
 23
109.9011203946372
 33
0.0
  0
MTEXT
  5
23D
330
237
100
AcDbEntity
  8
0
 62
     3
100
AcDbMText
 10
71.64941754753363
 20
112.4011203946372
 30
0.0
 40
3.0
 41
0.0
 71
     5
 72
     1
  1
\A1;61
1001
ACAD
1000
MTEXTBEGIN
1070
    73
1070
     1
1070
    44
1040
1.0
1070
    74
1070
     0
1000
MTEXTEND
  0
POINT
  5
23E
330
237
100
AcDbEntity
  8
DEFPOINTS
 62
     0
100
AcDbPoint
 10
41.14941754753362
 20
91.29623825296812
 30
0.0
  0
POINT
  5
23F
330
237
100
AcDbEntity
  8
DEFPOINTS
 62
     0
100
AcDbPoint
 10
102.1494175475354
 20
91.29623825296722
 30
0.0
  0
POINT
  5
240
330
237
100
AcDbEntity
  8
DEFPOINTS
 62
     0
100
AcDbPoint
 10
102.1494175475354
 20
109.9011203946372
 30
0.0
  0
ENDBLK
  5
242
330
237
100
AcDbEntity
  8
0
100
AcDbBlockEnd
  0
BLOCK
  5
24D
330
243
100
AcDbEntity
  8
0
100
AcDbBlockBegin
  2
*D28
 70
     1
 10
0.0
 20
0.0
 30
0.0
  3
*D28
  1

  0
LINE
  5
244
330
243
100
AcDbEntity
  8
0
 62
   123
100
AcDbLine
 10
37.64941754753545
 20
69.79623825296812
 30
0.0
 11
37.64941754753545
 21
123.0273910249512
 31
0.0
  0
LINE
  5
245
330
243
100
AcDbEntity
  8
0
 62
   123
100
AcDbLine
 10
105.6494175475336
 20
69.79623825296812
 30
0.0
 11
105.6494175475336
 21
123.0273910249512
 31
0.0
  0
LINE
  5
246
330
243
100
AcDbEntity
  8
0
 62
   123
100
AcDbLine
 10
41.14941754753544
 20
122.4273910249512
 30
0.0
 11
102.1494175475336
 21
122.4273910249512
 31
0.0
  0
SOLID
  5
247
330
243
100
AcDbEntity
  8
0
 62
   123
100
AcDbTrace
 10
41.14941754753544
 20
123.0107243582845
 30
0.0
 11
41.14941754753544
 21
121.8440576916179
 31
0.0
 12
37.64941754753545
 22
122.4273910249512
 32
0.0
 13
37.64941754753545
 23
122.4273910249512
 33
0.0
  0
SOLID
  5
248
330
243
100
AcDbEntity
  8
0
 62
   123
100
AcDbTrace
 10
102.1494175475336
 20
123.0107243582845
 30
0.0
 11
102.1494175475336
 21
121.8440576916179
 31
0.0
 12
105.6494175475336
 22
122.4273910249512
 32
0.0
 13
105.6494175475336
 23
122.4273910249512
 33
0.0
  0
MTEXT
  5
249
330
243
100
AcDbEntity
  8
0
 62
     3
100
AcDbMText
 10
71.64941754753363
 20
124.9273910249512
 30
0.0
 40
3.0
 41
0.0
 71
     5
 72
     1
  1
\A1;68
1001
ACAD
1000
MTEXTBEGIN
1070
    73
1070
     1
1070
    44
1040
1.0
1070
    74
1070
     0
1000
MTEXTEND
  0
POINT
  5
24A
330
243
100
AcDbEntity
  8
DEFPOINTS
 62
     0
100
AcDbPoint
 10
37.64941754753545
 20
68.79623825296812
 30
0.0
  0
POINT
  5
24B
330
243
100
AcDbEntity
  8
DEFPOINTS
 62
     0
100
AcDbPoint
 10
105.6494175475336
 20
68.79623825296812
 30
0.0
  0
POINT
  5
24C
330
243
100
AcDbEntity
  8
DEFPOINTS
 62
     0
100
AcDbPoint
 10
105.6494175475336
 20
122.4273910249512
 30
0.0
  0
ENDBLK
  5
24E
330
243
100
AcDbEntity
  8
0
100
AcDbBlockEnd
  0
BLOCK
  5
259
330
24F
100
AcDbEntity
  8
0
100
AcDbBlockBegin
  2
*D29
 70
     1
 10
0.0
 20
0.0
 30
0.0
  3
*D29
  1

  0
LINE
  5
250
330
24F
100
AcDbEntity
  8
0
 62
   123
100
AcDbLine
 10
21.64941754753545
 20
26.79623825296812
 30
0.0
 11
21.64941754753545
 21
2.64600451727906
 31
0.0
  0
LINE
  5
251
330
24F
100
AcDbEntity
  8
0
 62
   123
100
AcDbLine
 10
121.6494175475336
 20
25.79623825296607
 30
0.0
 11
121.6494175475336
 21
2.64600451727906
 31
0.0
  0
LINE
  5
252
330
24F
100
AcDbEntity
  8
0
 62
   123
100
AcDbLine
 10
25.14941754753545
 20
3.246004517279061
 30
0.0
 11
118.1494175475336
 21
3.246004517279061
 31
0.0
  0
SOLID
  5
253
330
24F
100
AcDbEntity
  8
0
 62
   123
100
AcDbTrace
 10
25.14941754753545
 20
3.829337850612394
 30
0.0
 11
25.14941754753545
 21
2.662671183945728
 31
0.0
 12
21.64941754753545
 22
3.246004517279061
 32
0.0
 13
21.64941754753545
 23
3.246004517279061
 33
0.0
  0
SOLID
  5
254
330
24F
100
AcDbEntity
  8
0
 62
   123
100
AcDbTrace
 10
118.1494175475336
 20
3.829337850612394
 30
0.0
 11
118.1494175475336
 21
2.662671183945728
 31
0.0
 12
121.6494175475336
 22
3.246004517279061
 32
0.0
 13
121.6494175475336
 23
3.246004517279061
 33
0.0
  0
MTEXT
  5
255
330
24F
100
AcDbEntity
  8
0
 62
     3
100
AcDbMText
 10
72.14941754753363
 20
5.746004517279061
 30
0.0
 40
3.0
 41
0.0
 71
     5
 72
     1
  1
\A1;100
1001
ACAD
1000
MTEXTBEGIN
1070
    73
1070
     1
1070
    44
1040
1.0
1070
    74
1070
     0
1000
MTEXTEND
  0
POINT
  5
256
330
24F
100
AcDbEntity
  8
DEFPOINTS
 62
     0
100
AcDbPoint
 10
21.64941754753545
 20
27.79623825296812
 30
0.0
  0
POINT
  5
257
330
24F
100
AcDbEntity
  8
DEFPOINTS
 62
     0
100
AcDbPoint
 10
121.6494175475336
 20
26.79623825296607
 30
0.0
  0
POINT
  5
258
330
24F
100
AcDbEntity
  8
DEFPOINTS
 62
     0
100
AcDbPoint
 10
121.6494175475336
 20
3.246004517279061
 30
0.0
  0
ENDBLK
  5
25A
330
24F
100
AcDbEntity
  8
0
100
AcDbBlockEnd
  0
BLOCK
  5
265
330
25B
100
AcDbEntity
  8
0
100
AcDbBlockBegin
  2
*D30
 70
     1
 10
0.0
 20
0.0
 30
0.0
  3
*D30
  1

  0
LINE
  5
25C
330
25B
100
AcDbEntity
  8
0
 62
   123
100
AcDbLine
 10
121.6494175475354
 20
26.79623825296721
 30
0.0
 11
147.1030717402014
 21
26.79623825296721
 31
0.0
  0
LINE
  5
25D
330
25B
100
AcDbEntity
  8
0
 62
   123
100
AcDbLine
 10
98.14941754753546
 20
95.29623825296608
 30
0.0
 11
147.1030717402014
 21
95.29623825296608
 31
0.0
  0
LINE
  5
25E
330
25B
100
AcDbEntity
  8
0
 62
   123
100
AcDbLine
 10
146.5030717402014
 20
30.29623825296721
 30
0.0
 11
146.5030717402014
 21
91.79623825296607
 31
0.0
  0
SOLID
  5
25F
330
25B
100
AcDbEntity
  8
0
 62
   123
100
AcDbTrace
 10
145.9197384068681
 20
30.29623825296721
 30
0.0
 11
147.0864050735347
 21
30.29623825296721
 31
0.0
 12
146.5030717402014
 22
26.79623825296721
 32
0.0
 13
146.5030717402014
 23
26.79623825296721
 33
0.0
  0
SOLID
  5
260
330
25B
100
AcDbEntity
  8
0
 62
   123
100
AcDbTrace
 10
145.9197384068681
 20
91.79623825296607
 30
0.0
 11
147.0864050735348
 21
91.79623825296607
 31
0.0
 12
146.5030717402014
 22
95.29623825296608
 32
0.0
 13
146.5030717402014
 23
95.29623825296608
 33
0.0
  0
MTEXT
  5
261
330
25B
100
AcDbEntity
  8
0
 62
     3
100
AcDbMText
 10
144.0030717402014
 20
58.56021425749827
 30
0.0
 40
3.0
 41
0.0
 71
     5
 72
     1
  1
\A1;68.5
 11
0.0000000000000001
 21
1.0
 31
0.0
1001
ACAD
1000
MTEXTBEGIN
1070
    73
1070
     1
1070
    44
1040
1.0
1070
    74
1070
     0
1000
MTEXTEND
  0
POINT
  5
262
330
25B
100
AcDbEntity
  8
DEFPOINTS
 62
     0
100
AcDbPoint
 10
120.6494175475354
 20
26.79623825296721
 30
0.0
  0
POINT
  5
263
330
25B
100
AcDbEntity
  8
DEFPOINTS
 62
     0
100
AcDbPoint
 10
97.14941754753546
 20
95.29623825296608
 30
0.0
  0
POINT
  5
264
330
25B
100
AcDbEntity
  8
DEFPOINTS
 62
     0
100
AcDbPoint
 10
146.5030717402014
 20
95.29623825296608
 30
0.0
  0
ENDBLK
  5
266
330
25B
100
AcDbEntity
  8
0
100
AcDbBlockEnd
  0
BLOCK
  5
270
330
267
100
AcDbEntity
  8
0
100
AcDbBlockBegin
  2
*D31
 70
     1
 10
0.0
 20
0.0
 30
0.0
  3
*D31
  1

  0
LINE
  5
36E
330
267
100
AcDbEntity
  8
0
 62
   123
100
AcDbLine
 10
41.04652978650078
 20
41.43573239151591
 30
0.0
 11
38.26444908080754
 21
39.31204998894028
 31
0.0
  0
LINE
  5
36F
330
267
100
AcDbEntity
  8
0
 62
   123
100
AcDbLine
 10
102.2523053117472
 20
88.15674524817602
 30
0.0
 11
130.5614742664939
 21
109.7663570102312
 31
0.0
  0
LINE
  5
370
330
267
100
AcDbEntity
  8
0
 62
   123
100
AcDbLine
 10
43.82861049219402
 20
43.55941479409154
 30
0.0
 11
99.47022460605403
 21
86.03306284560039
 31
0.0
  0
SOLID
  5
371
330
267
100
AcDbEntity
  8
0
 62
   123
100
AcDbTrace
 10
40.69258271940483
 20
41.89941250913146
 30
0.0
 11
41.40047685359671
 21
40.97205227390038
 31
0.0
 12
43.82861049219402
 22
43.55941479409154
 32
0.0
 13
43.82861049219402
 23
43.55941479409154
 33
0.0
  0
SOLID
  5
372
330
267
100
AcDbEntity
  8
0
 62
   123
100
AcDbTrace
 10
101.8983582446513
 20
88.62042536579156
 30
0.0
 11
102.6062523788432
 21
87.69306513056049
 31
0.0
 12
99.47022460605403
 22
86.03306284560039
 32
0.0
 13
99.47022460605403
 23
86.03306284560039
 33
0.0
  0
MTEXT
  5
373
330
267
100
AcDbEntity
  8
0
 62
     3
100
AcDbMText
 10
120.9254247766106
 20
105.5558721353526
 30
0.0
 40
3.0
 41
0.0
 71
     5
 72
     1
  1
\A1;\U+220570%%P0.3
 11
0.7948802016266408
 21
0.6067664007358937
 31
0.0
1001
ACAD
1000
MTEXTBEGIN
1070
    73
1070
     1
1070
    44
1040
1.0
1070
    74
1070
     0
1000
MTEXTEND
  0
POINT
  5
374
330
267
100
AcDbEntity
  8
DEFPOINTS
 62
     0
100
AcDbPoint
 10
99.47022460605403
 20
86.03306284560039
 30
0.0
  0
POINT
  5
375
330
267
100
AcDbEntity
  8
DEFPOINTS
 62
     0
100
AcDbPoint
 10
43.82861049219402
 20
43.55941479409154
 30
0.0
  0
ENDBLK
  5
271
330
267
100
AcDbEntity
  8
0
100
AcDbBlockEnd
  0
BLOCK
  5
27B
330
272
100
AcDbEntity
  8
0
100
AcDbBlockBegin
  2
*D32
 70
     1
 10
0.0
 20
0.0
 30
0.0
  3
*D32
  1

  0
LINE
  5
366
330
272
100
AcDbEntity
  8
0
 62
   123
100
AcDbLine
 10
45.28517352710836
 20
53.97142244707444
 30
0.0
 11
42.04745934916147
 21
52.64205910249114
 31
0.0
  0
LINE
  5
367
330
272
100
AcDbEntity
  8
0
 62
   123
100
AcDbLine
 10
98.01366156795831
 20
75.62105405885979
 30
0.0
 11
121.2737584471434
 21
85.17134740879743
 31
0.0
  0
LINE
  5
368
330
272
100
AcDbEntity
  8
0
 62
   123
100
AcDbLine
 10
48.52288770505524
 20
55.30078579165773
 30
0.0
 11
94.77594739001142
 21
74.29169071427647
 31
0.0
  0
SOLID
  5
369
330
272
100
AcDbEntity
  8
0
 62
   123
100
AcDbTrace
 10
45.06361296967781
 20
54.51104147673225
 30
0.0
 11
45.50673408453891
 21
53.43180341741661
 31
0.0
 12
48.52288770505524
 22
55.30078579165773
 32
0.0
 13
48.52288770505524
 23
55.30078579165773
 33
0.0
  0
SOLID
  5
36A
330
272
100
AcDbEntity
  8
0
 62
   123
100
AcDbTrace
 10
97.79210101052777
 20
76.16067308851758
 30
0.0
 11
98.23522212538888
 21
75.08143502920195
 31
0.0
 12
94.77594739001142
 22
74.29169071427647
 32
0.0
 13
94.77594739001142
 23
74.29169071427647
 33
0.0
  0
MTEXT
  5
36B
330
272
100
AcDbEntity
  8
0
 62
     3
100
AcDbMText
 10
115.8971346311667
 20
85.66629949330883
 30
0.0
 40
3.0
 41
0.0
 71
     5
 72
     1
  1
\A1;\U+220550
 11
0.9250611936991116
 21
0.3798180984523705
 31
0.0
1001
ACAD
1000
MTEXTBEGIN
1070
    73
1070
     1
1070
    44
1040
1.0
1070
    74
1070
     0
1000
MTEXTEND
  0
POINT
  5
36C
330
272
100
AcDbEntity
  8
DEFPOINTS
 62
     0
100
AcDbPoint
 10
94.77594739001142
 20
74.29169071427647
 30
0.0
  0
POINT
  5
36D
330
272
100
AcDbEntity
  8
DEFPOINTS
 62
     0
100
AcDbPoint
 10
48.52288770505524
 20
55.30078579165773
 30
0.0
  0
ENDBLK
  5
27C
330
272
100
AcDbEntity
  8
0
100
AcDbBlockEnd
  0
BLOCK
  5
289
330
27D
100
AcDbEntity
  8
0
100
AcDbBlockBegin
  2
*D33
 70
     1
 10
0.0
 20
0.0
 30
0.0
  3
*D33
  1

  0
LINE
  5
27E
330
27D
100
AcDbEntity
  8
0
 62
   123
100
AcDbLine
 10
96.64941754753545
 20
26.79623825296721
 30
0.0
 11
89.52954985254692
 21
26.79623825296721
 31
0.0
  0
LINE
  5
27F
330
27D
100
AcDbEntity
  8
0
 62
   123
100
AcDbLine
 10
93.9621574046796
 20
27.79623825296721
 30
0.0
 11
89.52954985254692
 21
27.79623825296721
 31
0.0
  0
LINE
  5
280
330
27D
100
AcDbEntity
  8
0
 62
   123
100
AcDbLine
 10
90.12954985254692
 20
31.29623825296721
 30
0.0
 11
90.12954985254692
 21
34.79623825296721
 31
0.0
  0
LINE
  5
281
330
27D
100
AcDbEntity
  8
0
 62
   123
100
AcDbLine
 10
90.12954985254692
 20
23.29623825296721
 30
0.0
 11
90.12954985254692
 21
12.90338111010944
 31
0.0
  0
LINE
  5
282
330
27D
100
AcDbEntity
  8
0
 62
   123
100
AcDbLine
 10
90.12954985254692
 20
27.79623825296721
 30
0.0
 11
90.12954985254692
 21
26.79623825296721
 31
0.0
  0
SOLID
  5
283
330
27D
100
AcDbEntity
  8
0
 62
   123
100
AcDbTrace
 10
89.54621651921359
 20
31.29623825296721
 30
0.0
 11
90.71288318588024
 21
31.29623825296721
 31
0.0
 12
90.12954985254692
 22
27.79623825296721
 32
0.0
 13
90.12954985254692
 23
27.79623825296721
 33
0.0
  0
SOLID
  5
284
330
27D
100
AcDbEntity
  8
0
 62
   123
100
AcDbTrace
 10
89.54621651921359
 20
23.29623825296721
 30
0.0
 11
90.71288318588024
 21
23.29623825296721
 31
0.0
 12
90.12954985254692
 22
26.79623825296721
 32
0.0
 13
90.12954985254692
 23
26.79623825296721
 33
0.0
  0
MTEXT
  5
285
330
27D
100
AcDbEntity
  8
0
 62
     3
100
AcDbMText
 10
87.62954985254692
 20
14.26052396725231
 30
0.0
 40
3.0
 41
0.0
 71
     5
 72
     1
  1
\A1;1
 11
0.0000000000000001
 21
1.0
 31
0.0
1001
ACAD
1000
MTEXTBEGIN
1070
    73
1070
     1
1070
    44
1040
1.0
1070
    74
1070
     0
1000
MTEXTEND
  0
POINT
  5
286
330
27D
100
AcDbEntity
  8
DEFPOINTS
 62
     0
100
AcDbPoint
 10
97.64941754753545
 20
26.79623825296721
 30
0.0
  0
POINT
  5
287
330
27D
100
AcDbEntity
  8
DEFPOINTS
 62
     0
100
AcDbPoint
 10
94.9621574046796
 20
27.79623825296721
 30
0.0
  0
POINT
  5
288
330
27D
100
AcDbEntity
  8
DEFPOINTS
 62
     0
100
AcDbPoint
 10
90.12954985254692
 20
27.79623825296721
 30
0.0
  0
ENDBLK
  5
28A
330
27D
100
AcDbEntity
  8
0
100
AcDbBlockEnd
  0
BLOCK
  5
295
330
28B
100
AcDbEntity
  8
0
100
AcDbBlockBegin
  2
*D34
 70
     1
 10
0.0
 20
0.0
 30
0.0
  3
*D34
  1

  0
LINE
  5
28C
330
28B
100
AcDbEntity
  8
0
 62
   123
100
AcDbLine
 10
21.64941754753545
 20
26.79623825296812
 30
0.0
 11
-9.632847823219522
 21
26.79623825296813
 31
0.0
  0
LINE
  5
28D
330
28B
100
AcDbEntity
  8
0
 62
   123
100
AcDbLine
 10
36.64941754753545
 20
68.79623825296812
 30
0.0
 11
-9.632847823219512
 21
68.79623825296814
 31
0.0
  0
LINE
  5
28E
330
28B
100
AcDbEntity
  8
0
 62
   123
100
AcDbLine
 10
-9.032847823219523
 20
30.29623825296813
 30
0.0
 11
-9.032847823219515
 21
65.29623825296813
 31
0.0
  0
SOLID
  5
28F
330
28B
100
AcDbEntity
  8
0
 62
   123
100
AcDbTrace
 10
-9.616181156552856
 20
30.29623825296813
 30
0.0
 11
-8.449514489886189
 21
30.29623825296813
 31
0.0
 12
-9.032847823219524
 22
26.79623825296813
 32
0.0
 13
-9.032847823219524
 23
26.79623825296813
 33
0.0
  0
SOLID
  5
290
330
28B
100
AcDbEntity
  8
0
 62
   123
100
AcDbTrace
 10
-9.616181156552849
 20
65.29623825296813
 30
0.0
 11
-8.449514489886182
 21
65.29623825296813
 31
0.0
 12
-9.032847823219514
 22
68.79623825296814
 32
0.0
 13
-9.032847823219514
 23
68.79623825296814
 33
0.0
  0
MTEXT
  5
291
330
28B
100
AcDbEntity
  8
0
 62
     3
100
AcDbMText
 10
-11.53284782321952
 20
51.05270413177004
 30
0.0
 40
3.0
 41
0.0
 71
     5
 72
     1
  1
\A1;42
 11
0.0000000000000001
 21
1.0
 31
0.0
1001
ACAD
1000
MTEXTBEGIN
1070
    73
1070
     1
1070
    44
1040
1.0
1070
    74
1070
     0
1000
MTEXTEND
  0
POINT
  5
292
330
28B
100
AcDbEntity
  8
DEFPOINTS
 62
     0
100
AcDbPoint
 10
22.64941754753544
 20
26.79623825296812
 30
0.0
  0
POINT
  5
293
330
28B
100
AcDbEntity
  8
DEFPOINTS
 62
     0
100
AcDbPoint
 10
37.64941754753545
 20
68.79623825296812
 30
0.0
  0
POINT
  5
294
330
28B
100
AcDbEntity
  8
DEFPOINTS
 62
     0
100
AcDbPoint
 10
-9.032847823219514
 20
68.79623825296814
 30
0.0
  0
ENDBLK
  5
296
330
28B
100
AcDbEntity
  8
0
100
AcDbBlockEnd
  0
BLOCK
  5
2A1
330
297
100
AcDbEntity
  8
0
100
AcDbBlockBegin
  2
*D35
 70
     1
 10
0.0
 20
0.0
 30
0.0
  3
*D35
  1

  0
LINE
  5
298
330
297
100
AcDbEntity
  8
0
 62
   123
100
AcDbLine
 10
21.64941754753545
 20
26.79623825296812
 30
0.0
 11
3.272090215420031
 21
26.79623825296812
 31
0.0
  0
LINE
  5
299
330
297
100
AcDbEntity
  8
0
 62
   123
100
AcDbLine
 10
23.40231697205308
 20
64.79623825296721
 30
0.0
 11
3.272090215420039
 21
64.79623825296721
 31
0.0
  0
LINE
  5
29A
330
297
100
AcDbEntity
  8
0
 62
   123
100
AcDbLine
 10
3.872090215420034
 20
30.29623825296813
 30
0.0
 11
3.872090215420041
 21
61.29623825296722
 31
0.0
  0
SOLID
  5
29B
330
297
100
AcDbEntity
  8
0
 62
   123
100
AcDbTrace
 10
3.288756882086701
 20
30.29623825296813
 30
0.0
 11
4.455423548753367
 21
30.29623825296813
 31
0.0
 12
3.872090215420033
 22
26.79623825296812
 32
0.0
 13
3.872090215420033
 23
26.79623825296812
 33
0.0
  0
SOLID
  5
29C
330
297
100
AcDbEntity
  8
0
 62
   123
100
AcDbTrace
 10
3.288756882086708
 20
61.29623825296722
 30
0.0
 11
4.455423548753373
 21
61.29623825296722
 31
0.0
 12
3.872090215420041
 22
64.79623825296721
 32
0.0
 13
3.872090215420041
 23
64.79623825296721
 33
0.0
  0
MTEXT
  5
29D
330
297
100
AcDbEntity
  8
0
 62
     3
100
AcDbMText
 10
1.37209021542003
 20
46.166492200545
 30
0.0
 40
3.0
 41
0.0
 71
     5
 72
     1
  1
\A1;38%%P0.5
 11
0.0000000000000001
 21
1.0
 31
0.0
1001
ACAD
1000
MTEXTBEGIN
1070
    73
1070
     1
1070
    44
1040
1.0
1070
    74
1070
     0
1000
MTEXTEND
  0
POINT
  5
29E
330
297
100
AcDbEntity
  8
DEFPOINTS
 62
     0
100
AcDbPoint
 10
22.64941754753544
 20
26.79623825296812
 30
0.0
  0
POINT
  5
29F
330
297
100
AcDbEntity
  8
DEFPOINTS
 62
     0
100
AcDbPoint
 10
24.40231697205308
 20
64.79623825296721
 30
0.0
  0
POINT
  5
2A0
330
297
100
AcDbEntity
  8
DEFPOINTS
 62
     0
100
AcDbPoint
 10
3.872090215420041
 20
64.79623825296721
 30
0.0
  0
ENDBLK
  5
2A2
330
297
100
AcDbEntity
  8
0
100
AcDbBlockEnd
  0
BLOCK
  5
2AF
330
2A3
100
AcDbEntity
  8
0
100
AcDbBlockBegin
  2
*D36
 70
     1
 10
0.0
 20
0.0
 30
0.0
  3
*D36
  1

  0
LINE
  5
2A4
330
2A3
100
AcDbEntity
  8
0
 62
   123
100
AcDbLine
 10
121.6494175475354
 20
26.79623825296721
 30
0.0
 11
135.8319125658141
 21
26.79623825296721
 31
0.0
  0
LINE
  5
2A5
330
2A3
100
AcDbEntity
  8
0
 62
   123
100
AcDbLine
 10
121.6494175475354
 20
34.79623825296721
 30
0.0
 11
135.8319125658141
 21
34.79623825296721
 31
0.0
  0
LINE
  5
2A6
330
2A3
100
AcDbEntity
  8
0
 62
   123
100
AcDbLine
 10
135.2319125658141
 20
23.29623825296721
 30
0.0
 11
135.2319125658141
 21
19.79623825296721
 31
0.0
  0
LINE
  5
2A7
330
2A3
100
AcDbEntity
  8
0
 62
   123
100
AcDbLine
 10
135.2319125658141
 20
38.29623825296721
 30
0.0
 11
135.2319125658141
 21
41.79623825296721
 31
0.0
  0
LINE
  5
2A8
330
2A3
100
AcDbEntity
  8
0
 62
   123
100
AcDbLine
 10
135.2319125658141
 20
26.79623825296721
 30
0.0
 11
135.2319125658141
 21
34.79623825296721
 31
0.0
  0
SOLID
  5
2A9
330
2A3
100
AcDbEntity
  8
0
 62
   123
100
AcDbTrace
 10
134.6485792324807
 20
23.29623825296721
 30
0.0
 11
135.8152458991474
 21
23.29623825296721
 31
0.0
 12
135.2319125658141
 22
26.79623825296721
 32
0.0
 13
135.2319125658141
 23
26.79623825296721
 33
0.0
  0
SOLID
  5
2AA
330
2A3
100
AcDbEntity
  8
0
 62
   123
100
AcDbTrace
 10
134.6485792324807
 20
38.29623825296721
 30
0.0
 11
135.8152458991474
 21
38.29623825296721
 31
0.0
 12
135.2319125658141
 22
34.79623825296721
 32
0.0
 13
135.2319125658141
 23
34.79623825296721
 33
0.0
  0
MTEXT
  5
2AB
330
2A3
100
AcDbEntity
  8
0
 62
     3
100
AcDbMText
 10
132.7319125658141
 20
30.79623825296723
 30
0.0
 40
3.0
 41
0.0
 71
     5
 72
     1
  1
\A1;8
 11
0.0000000000000001
 21
1.0
 31
0.0
1001
ACAD
1000
MTEXTBEGIN
1070
    73
1070
     1
1070
    44
1040
1.0
1070
    74
1070
     0
1000
MTEXTEND
  0
POINT
  5
2AC
330
2A3
100
AcDbEntity
  8
DEFPOINTS
 62
     0
100
AcDbPoint
 10
120.6494175475354
 20
26.79623825296721
 30
0.0
  0
POINT
  5
2AD
330
2A3
100
AcDbEntity
  8
DEFPOINTS
 62
     0
100
AcDbPoint
 10
120.6494175475354
 20
34.79623825296721
 30
0.0
  0
POINT
  5
2AE
330
2A3
100
AcDbEntity
  8
DEFPOINTS
 62
     0
100
AcDbPoint
 10
135.2319125658141
 20
34.79623825296721
 30
0.0
  0
ENDBLK
  5
2B0
330
2A3
100
AcDbEntity
  8
0
100
AcDbBlockEnd
  0
BLOCK
  5
2BD
330
2B1
100
AcDbEntity
  8
0
100
AcDbBlockBegin
  2
*D37
 70
     1
 10
0.0
 20
0.0
 30
0.0
  3
*D37
  1

  0
LINE
  5
2B2
330
2B1
100
AcDbEntity
  8
0
 62
   123
100
AcDbLine
 10
213.0202543999512
 20
92.79623825296722
 30
0.0
 11
213.0202543999512
 21
110.1181479194081
 31
0.0
  0
LINE
  5
2B3
330
2B1
100
AcDbEntity
  8
0
 62
   123
100
AcDbLine
 10
216.0202543999512
 20
94.40184471023327
 30
0.0
 11
216.0202543999512
 21
110.1181479194081
 31
0.0
  0
LINE
  5
2B4
330
2B1
100
AcDbEntity
  8
0
 62
   123
100
AcDbLine
 10
209.5202543999512
 20
109.5181479194081
 30
0.0
 11
206.0202543999512
 21
109.5181479194081
 31
0.0
  0
LINE
  5
2B5
330
2B1
100
AcDbEntity
  8
0
 62
   123
100
AcDbLine
 10
219.5202543999512
 20
109.5181479194081
 30
0.0
 11
231.5202543999512
 21
109.5181479194081
 31
0.0
  0
LINE
  5
2B6
330
2B1
100
AcDbEntity
  8
0
 62
   123
100
AcDbLine
 10
213.0202543999512
 20
109.5181479194081
 30
0.0
 11
216.0202543999512
 21
109.5181479194081
 31
0.0
  0
SOLID
  5
2B7
330
2B1
100
AcDbEntity
  8
0
 62
   123
100
AcDbTrace
 10
209.5202543999512
 20
110.1014812527415
 30
0.0
 11
209.5202543999512
 21
108.9348145860748
 31
0.0
 12
213.0202543999512
 22
109.5181479194081
 32
0.0
 13
213.0202543999512
 23
109.5181479194081
 33
0.0
  0
SOLID
  5
2B8
330
2B1
100
AcDbEntity
  8
0
 62
   123
100
AcDbTrace
 10
219.5202543999512
 20
110.1014812527415
 30
0.0
 11
219.5202543999512
 21
108.9348145860748
 31
0.0
 12
216.0202543999512
 22
109.5181479194081
 32
0.0
 13
216.0202543999512
 23
109.5181479194081
 33
0.0
  0
MTEXT
  5
2B9
330
2B1
100
AcDbEntity
  8
0
 62
     3
100
AcDbMText
 10
229.5202543999512
 20
112.0181479194082
 30
0.0
 40
3.0
 41
0.0
 71
     5
 72
     1
  1
\A1;3
1001
ACAD
1000
MTEXTBEGIN
1070
    73
1070
     1
1070
    44
1040
1.0
1070
    74
1070
     0
1000
MTEXTEND
  0
POINT
  5
2BA
330
2B1
100
AcDbEntity
  8
DEFPOINTS
 62
     0
100
AcDbPoint
 10
213.0202543999512
 20
91.79623825296721
 30
0.0
  0
POINT
  5
2BB
330
2B1
100
AcDbEntity
  8
DEFPOINTS
 62
     0
100
AcDbPoint
 10
216.0202543999512
 20
93.40184471023325
 30
0.0
  0
POINT
  5
2BC
330
2B1
100
AcDbEntity
  8
DEFPOINTS
 62
     0
100
AcDbPoint
 10
216.0202543999512
 20
109.5181479194081
 30
0.0
  0
ENDBLK
  5
2BE
330
2B1
100
AcDbEntity
  8
0
100
AcDbBlockEnd
  0
BLOCK
  5
2CB
330
2BF
100
AcDbEntity
  8
0
100
AcDbBlockBegin
  2
*D38
 70
     1
 10
0.0
 20
0.0
 30
0.0
  3
*D38
  1

  0
LINE
  5
2C0
330
2BF
100
AcDbEntity
  8
0
 62
   123
100
AcDbLine
 10
210.0202543999512
 20
95.29623825296813
 30
0.0
 11
210.0202543999512
 21
119.8755030328642
 31
0.0
  0
LINE
  5
2C1
330
2BF
100
AcDbEntity
  8
0
 62
   123
100
AcDbLine
 10
216.0202543999512
 20
95.29623825296813
 30
0.0
 11
216.0202543999512
 21
119.8755030328642
 31
0.0
  0
LINE
  5
2C2
330
2BF
100
AcDbEntity
  8
0
 62
   123
100
AcDbLine
 10
206.5202543999512
 20
119.2755030328642
 30
0.0
 11
203.0202543999512
 21
119.2755030328642
 31
0.0
  0
LINE
  5
2C3
330
2BF
100
AcDbEntity
  8
0
 62
   123
100
AcDbLine
 10
219.5202543999512
 20
119.2755030328642
 30
0.0
 11
223.0202543999512
 21
119.2755030328642
 31
0.0
  0
LINE
  5
2C4
330
2BF
100
AcDbEntity
  8
0
 62
   123
100
AcDbLine
 10
210.0202543999512
 20
119.2755030328642
 30
0.0
 11
216.0202543999512
 21
119.2755030328642
 31
0.0
  0
SOLID
  5
2C5
330
2BF
100
AcDbEntity
  8
0
 62
   123
100
AcDbTrace
 10
206.5202543999512
 20
119.8588363661975
 30
0.0
 11
206.5202543999512
 21
118.6921696995308
 31
0.0
 12
210.0202543999512
 22
119.2755030328642
 32
0.0
 13
210.0202543999512
 23
119.2755030328642
 33
0.0
  0
SOLID
  5
2C6
330
2BF
100
AcDbEntity
  8
0
 62
   123
100
AcDbTrace
 10
219.5202543999512
 20
119.8588363661975
 30
0.0
 11
219.5202543999512
 21
118.6921696995308
 31
0.0
 12
216.0202543999512
 22
119.2755030328642
 32
0.0
 13
216.0202543999512
 23
119.2755030328642
 33
0.0
  0
MTEXT
  5
2C7
330
2BF
100
AcDbEntity
  8
0
 62
     3
100
AcDbMText
 10
213.0202543999512
 20
121.7755030328642
 30
0.0
 40
3.0
 41
0.0
 71
     5
 72
     1
  1
\A1;6
1001
ACAD
1000
MTEXTBEGIN
1070
    73
1070
     1
1070
    44
1040
1.0
1070
    74
1070
     0
1000
MTEXTEND
  0
POINT
  5
2C8
330
2BF
100
AcDbEntity
  8
DEFPOINTS
 62
     0
100
AcDbPoint
 10
210.0202543999512
 20
94.29623825296813
 30
0.0
  0
POINT
  5
2C9
330
2BF
100
AcDbEntity
  8
DEFPOINTS
 62
     0
100
AcDbPoint
 10
216.0202543999512
 20
94.29623825296813
 30
0.0
  0
POINT
  5
2CA
330
2BF
100
AcDbEntity
  8
DEFPOINTS
 62
     0
100
AcDbPoint
 10
216.0202543999512
 20
119.2755030328642
 30
0.0
  0
ENDBLK
  5
2CC
330
2BF
100
AcDbEntity
  8
0
100
AcDbBlockEnd
  0
BLOCK
  5
2D7
330
2CD
100
AcDbEntity
  8
0
100
AcDbBlockBegin
  2
*D39
 70
     1
 10
0.0
 20
0.0
 30
0.0
  3
*D39
  1

  0
LINE
  5
2CE
330
2CD
100
AcDbEntity
  8
0
 62
   123
100
AcDbLine
 10
212.0202543999512
 20
91.79623825296721
 30
0.0
 11
185.0338739128732
 21
91.79623825296721
 31
0.0
  0
LINE
  5
2CF
330
2CD
100
AcDbEntity
  8
0
 62
   123
100
AcDbLine
 10
212.0202543999512
 20
37.79623938672216
 30
0.0
 11
185.0338739128732
 21
37.79623938672217
 31
0.0
  0
LINE
  5
2D0
330
2CD
100
AcDbEntity
  8
0
 62
   123
100
AcDbLine
 10
185.6338739128732
 20
88.29623825296721
 30
0.0
 11
185.6338739128732
 21
41.29623938672216
 31
0.0
  0
SOLID
  5
2D1
330
2CD
100
AcDbEntity
  8
0
 62
   123
100
AcDbTrace
 10
185.0505405795399
 20
88.29623825296721
 30
0.0
 11
186.2172072462066
 21
88.29623825296721
 31
0.0
 12
185.6338739128732
 22
91.79623825296721
 32
0.0
 13
185.6338739128732
 23
91.79623825296721
 33
0.0
  0
SOLID
  5
2D2
330
2CD
100
AcDbEntity
  8
0
 62
   123
100
AcDbTrace
 10
185.0505405795399
 20
41.29623938672216
 30
0.0
 11
186.2172072462065
 21
41.29623938672216
 31
0.0
 12
185.6338739128732
 22
37.79623938672217
 32
0.0
 13
185.6338739128732
 23
37.79623938672217
 33
0.0
  0
MTEXT
  5
2D3
330
2CD
100
AcDbEntity
  8
0
 62
     3
100
AcDbMText
 10
183.1338739128732
 20
65.51036393461004
 30
0.0
 40
3.0
 41
0.0
 71
     5
 72
     1
  1
\A1;%%c54
 11
0.0000000000000001
 21
1.0
 31
0.0
1001
ACAD
1000
MTEXTBEGIN
1070
    73
1070
     1
1070
    44
1040
1.0
1070
    74
1070
     0
1000
MTEXTEND
  0
POINT
  5
2D4
330
2CD
100
AcDbEntity
  8
DEFPOINTS
 62
     0
100
AcDbPoint
 10
213.0202543999512
 20
91.79623825296721
 30
0.0
  0
POINT
  5
2D5
330
2CD
100
AcDbEntity
  8
DEFPOINTS
 62
     0
100
AcDbPoint
 10
213.0202543999512
 20
37.79623938672216
 30
0.0
  0
POINT
  5
2D6
330
2CD
100
AcDbEntity
  8
DEFPOINTS
 62
     0
100
AcDbPoint
 10
185.6338739128732
 20
37.79623938672217
 30
0.0
  0
ENDBLK
  5
2D8
330
2CD
100
AcDbEntity
  8
0
100
AcDbBlockEnd
  0
BLOCK
  5
2E3
330
2D9
100
AcDbEntity
  8
0
100
AcDbBlockBegin
  2
*D40
 70
     1
 10
0.0
 20
0.0
 30
0.0
  3
*D40
  1

  0
LINE
  5
2DA
330
2D9
100
AcDbEntity
  8
0
 62
   123
100
AcDbLine
 10
209.0202543999512
 20
39.79623825296721
 30
0.0
 11
197.9977728959815
 21
39.79623825296722
 31
0.0
  0
LINE
  5
2DB
330
2D9
100
AcDbEntity
  8
0
 62
   123
100
AcDbLine
 10
209.0202543999512
 20
89.79623825296721
 30
0.0
 11
197.9977728959815
 21
89.79623825296721
 31
0.0
  0
LINE
  5
2DC
330
2D9
100
AcDbEntity
  8
0
 62
   123
100
AcDbLine
 10
198.5977728959815
 20
43.29623825296722
 30
0.0
 11
198.5977728959815
 21
86.29623825296722
 31
0.0
  0
SOLID
  5
2DD
330
2D9
100
AcDbEntity
  8
0
 62
   123
100
AcDbTrace
 10
198.0144395626481
 20
43.29623825296722
 30
0.0
 11
199.1811062293148
 21
43.29623825296722
 31
0.0
 12
198.5977728959815
 22
39.79623825296722
 32
0.0
 13
198.5977728959815
 23
39.79623825296722
 33
0.0
  0
SOLID
  5
2DE
330
2D9
100
AcDbEntity
  8
0
 62
   123
100
AcDbTrace
 10
198.0144395626481
 20
86.29623825296722
 30
0.0
 11
199.1811062293148
 21
86.29623825296722
 31
0.0
 12
198.5977728959815
 22
89.79623825296721
 32
0.0
 13
198.5977728959815
 23
89.79623825296721
 33
0.0
  0
MTEXT
  5
2DF
330
2D9
100
AcDbEntity
  8
0
 62
     3
100
AcDbMText
 10
196.0977728959815
 20
63.97610553394907
 30
0.0
 40
3.0
 41
0.0
 71
     5
 72
     1
  1
\A1;%%c50
 11
0.0000000000000001
 21
1.0
 31
0.0
1001
ACAD
1000
MTEXTBEGIN
1070
    73
1070
     1
1070
    44
1040
1.0
1070
    74
1070
     0
1000
MTEXTEND
  0
POINT
  5
2E0
330
2D9
100
AcDbEntity
  8
DEFPOINTS
 62
     0
100
AcDbPoint
 10
210.0202543999512
 20
39.79623825296721
 30
0.0
  0
POINT
  5
2E1
330
2D9
100
AcDbEntity
  8
DEFPOINTS
 62
     0
100
AcDbPoint
 10
210.0202543999512
 20
89.79623825296721
 30
0.0
  0
POINT
  5
2E2
330
2D9
100
AcDbEntity
  8
DEFPOINTS
 62
     0
100
AcDbPoint
 10
198.5977728959815
 20
89.79623825296721
 30
0.0
  0
ENDBLK
  5
2E4
330
2D9
100
AcDbEntity
  8
0
100
AcDbBlockEnd
  0
BLOCK
  5
2EF
330
2E5
100
AcDbEntity
  8
0
100
AcDbBlockBegin
  2
*D41
 70
     1
 10
0.0
 20
0.0
 30
0.0
  3
*D41
  1

  0
LINE
  5
2E6
330
2E5
100
AcDbEntity
  8
0
 62
   123
100
AcDbLine
 10
30.64941754753545
 20
198.2692294838491
 30
0.0
 11
30.64941754753545
 21
219.8864289471701
 31
0.0
  0
LINE
  5
2E7
330
2E5
100
AcDbEntity
  8
0
 62
   123
100
AcDbLine
 10
112.6494175475354
 20
198.2692294838491
 30
0.0
 11
112.6494175475354
 21
219.8864289471701
 31
0.0
  0
LINE
  5
2E8
330
2E5
100
AcDbEntity
  8
0
 62
   123
100
AcDbLine
 10
34.14941754753545
 20
219.2864289471701
 30
0.0
 11
109.1494175475354
 21
219.2864289471701
 31
0.0
  0
SOLID
  5
2E9
330
2E5
100
AcDbEntity
  8
0
 62
   123
100
AcDbTrace
 10
34.14941754753545
 20
219.8697622805035
 30
0.0
 11
34.14941754753545
 21
218.7030956138368
 31
0.0
 12
30.64941754753545
 22
219.2864289471701
 32
0.0
 13
30.64941754753545
 23
219.2864289471701
 33
0.0
  0
SOLID
  5
2EA
330
2E5
100
AcDbEntity
  8
0
 62
   123
100
AcDbTrace
 10
109.1494175475354
 20
219.8697622805035
 30
0.0
 11
109.1494175475354
 21
218.7030956138368
 31
0.0
 12
112.6494175475354
 22
219.2864289471701
 32
0.0
 13
112.6494175475354
 23
219.2864289471701
 33
0.0
  0
MTEXT
  5
2EB
330
2E5
100
AcDbEntity
  8
0
 62
     3
100
AcDbMText
 10
71.64941754753363
 20
221.7864289471701
 30
0.0
 40
3.0
 41
0.0
 71
     5
 72
     1
  1
\A1;82
1001
ACAD
1000
MTEXTBEGIN
1070
    73
1070
     1
1070
    44
1040
1.0
1070
    74
1070
     0
1000
MTEXTEND
  0
POINT
  5
2EC
330
2E5
100
AcDbEntity
  8
DEFPOINTS
 62
     0
100
AcDbPoint
 10
30.64941754753545
 20
197.2692294838491
 30
0.0
  0
POINT
  5
2ED
330
2E5
100
AcDbEntity
  8
DEFPOINTS
 62
     0
100
AcDbPoint
 10
112.6494175475354
 20
197.2692294838491
 30
0.0
  0
POINT
  5
2EE
330
2E5
100
AcDbEntity
  8
DEFPOINTS
 62
     0
100
AcDbPoint
 10
112.6494175475354
 20
219.2864289471701
 30
0.0
  0
ENDBLK
  5
2F0
330
2E5
100
AcDbEntity
  8
0
100
AcDbBlockEnd
  0
BLOCK
  5
2FD
330
2F1
100
AcDbEntity
  8
0
100
AcDbBlockBegin
  2
*D42
 70
     1
 10
0.0
 20
0.0
 30
0.0
  3
*D42
  1

  0
LINE
  5
2F2
330
2F1
100
AcDbEntity
  8
0
 62
   123
100
AcDbLine
 10
26.94941754753472
 20
183.26922948385
 30
0.0
 11
26.94941754753472
 21
204.3826534144712
 31
0.0
  0
LINE
  5
2F3
330
2F1
100
AcDbEntity
  8
0
 62
   123
100
AcDbLine
 10
34.34941754753344
 20
183.26922948385
 30
0.0
 11
34.34941754753344
 21
204.3826534144712
 31
0.0
  0
LINE
  5
2F4
330
2F1
100
AcDbEntity
  8
0
 62
   123
100
AcDbLine
 10
37.84941754753345
 20
203.7826534144712
 30
0.0
 11
41.34941754753344
 21
203.7826534144712
 31
0.0
  0
LINE
  5
2F5
330
2F1
100
AcDbEntity
  8
0
 62
   123
100
AcDbLine
 10
23.44941754753472
 20
203.7826534144712
 30
0.0
 11
10.70558011621649
 21
203.7826534144712
 31
0.0
  0
LINE
  5
2F6
330
2F1
100
AcDbEntity
  8
0
 62
   123
100
AcDbLine
 10
34.34941754753344
 20
203.7826534144712
 30
0.0
 11
26.94941754753472
 21
203.7826534144712
 31
0.0
  0
SOLID
  5
2F7
330
2F1
100
AcDbEntity
  8
0
 62
   123
100
AcDbTrace
 10
37.84941754753345
 20
204.3659867478046
 30
0.0
 11
37.84941754753345
 21
203.1993200811379
 31
0.0
 12
34.34941754753344
 22
203.7826534144712
 32
0.0
 13
34.34941754753344
 23
203.7826534144712
 33
0.0
  0
SOLID
  5
2F8
330
2F1
100
AcDbEntity
  8
0
 62
   123
100
AcDbTrace
 10
23.44941754753472
 20
204.3659867478046
 30
0.0
 11
23.44941754753472
 21
203.1993200811379
 31
0.0
 12
26.94941754753472
 22
203.7826534144712
 32
0.0
 13
26.94941754753472
 23
203.7826534144712
 33
0.0
  0
MTEXT
  5
2F9
330
2F1
100
AcDbEntity
  8
0
 62
     3
100
AcDbMText
 10
14.9198658305022
 20
206.2826534144712
 30
0.0
 40
3.0
 41
0.0
 71
     5
 72
     1
  1
\A1;7.4
1001
ACAD
1000
MTEXTBEGIN
1070
    73
1070
     1
1070
    44
1040
1.0
1070
    74
1070
     0
1000
MTEXTEND
  0
POINT
  5
2FA
330
2F1
100
AcDbEntity
  8
DEFPOINTS
 62
     0
100
AcDbPoint
 10
26.94941754753472
 20
182.26922948385
 30
0.0
  0
POINT
  5
2FB
330
2F1
100
AcDbEntity
  8
DEFPOINTS
 62
     0
100
AcDbPoint
 10
34.34941754753344
 20
182.26922948385
 30
0.0
  0
POINT
  5
2FC
330
2F1
100
AcDbEntity
  8
DEFPOINTS
 62
     0
100
AcDbPoint
 10
34.34941754753344
 20
203.7826534144712
 30
0.0
  0
ENDBLK
  5
2FE
330
2F1
100
AcDbEntity
  8
0
100
AcDbBlockEnd
  0
BLOCK
  5
30B
330
2FF
100
AcDbEntity
  8
0
100
AcDbBlockBegin
  2
*D43
 70
     1
 10
0.0
 20
0.0
 30
0.0
  3
*D43
  1

  0
LINE
  5
35B
330
2FF
100
AcDbEntity
  8
0
 62
   123
100
AcDbLine
 10
28.19941754753472
 20
180.01922948385
 30
0.0
 11
12.42578124902723
 21
180.01922948385
 31
0.0
  0
LINE
  5
35C
330
2FF
100
AcDbEntity
  8
0
 62
   123
100
AcDbLine
 10
28.19941754753472
 20
184.51922948385
 30
0.0
 11
12.42578124902723
 21
184.51922948385
 31
0.0
  0
LINE
  5
35D
330
2FF
100
AcDbEntity
  8
0
 62
   123
100
AcDbLine
 10
13.02578124902723
 20
176.51922948385
 30
0.0
 11
13.02578124902723
 21
173.01922948385
 31
0.0
  0
LINE
  5
35E
330
2FF
100
AcDbEntity
  8
0
 62
   123
100
AcDbLine
 10
13.02578124902723
 20
188.01922948385
 30
0.0
 11
13.02578124902723
 21
191.51922948385
 31
0.0
  0
LINE
  5
35F
330
2FF
100
AcDbEntity
  8
0
 62
   123
100
AcDbLine
 10
13.02578124902723
 20
180.01922948385
 30
0.0
 11
13.02578124902723
 21
184.51922948385
 31
0.0
  0
SOLID
  5
360
330
2FF
100
AcDbEntity
  8
0
 62
   123
100
AcDbTrace
 10
12.44244791569389
 20
176.51922948385
 30
0.0
 11
13.60911458236056
 21
176.51922948385
 31
0.0
 12
13.02578124902723
 22
180.01922948385
 32
0.0
 13
13.02578124902723
 23
180.01922948385
 33
0.0
  0
SOLID
  5
361
330
2FF
100
AcDbEntity
  8
0
 62
   123
100
AcDbTrace
 10
12.4424479156939
 20
188.01922948385
 30
0.0
 11
13.60911458236057
 21
188.01922948385
 31
0.0
 12
13.02578124902723
 22
184.51922948385
 32
0.0
 13
13.02578124902723
 23
184.51922948385
 33
0.0
  0
MTEXT
  5
362
330
2FF
100
AcDbEntity
  8
0
 62
     3
100
AcDbMText
 10
10.5257812490272
 20
182.26922948385
 30
0.0
 40
3.0
 41
0.0
 71
     5
 72
     1
  1
\A1;4.5
 11
0.0000000000000001
 21
1.0
 31
0.0
1001
ACAD
1000
MTEXTBEGIN
1070
    73
1070
     1
1070
    44
1040
1.0
1070
    74
1070
     0
1000
MTEXTEND
  0
POINT
  5
363
330
2FF
100
AcDbEntity
  8
DEFPOINTS
 62
     0
100
AcDbPoint
 10
29.19941754753472
 20
180.01922948385
 30
0.0
  0
POINT
  5
364
330
2FF
100
AcDbEntity
  8
DEFPOINTS
 62
     0
100
AcDbPoint
 10
29.19941754753472
 20
184.51922948385
 30
0.0
  0
POINT
  5
365
330
2FF
100
AcDbEntity
  8
DEFPOINTS
 62
     0
100
AcDbPoint
 10
13.02578124902723
 20
184.51922948385
 30
0.0
  0
ENDBLK
  5
30C
330
2FF
100
AcDbEntity
  8
0
100
AcDbBlockEnd
  0
BLOCK
  5
314
330
30D
100
AcDbEntity
  8
0
100
AcDbBlockBegin
  2
*D44
 70
     1
 10
0.0
 20
0.0
 30
0.0
  3
*D44
  1

  0
LINE
  5
355
330
30D
100
AcDbEntity
  8
0
 62
   123
100
AcDbLine
 10
90.0930240757842
 20
191.9528569316422
 30
0.0
 11
78.50734844322056
 21
202.3567748423227
 31
0.0
  0
LINE
  5
356
330
30D
100
AcDbEntity
  8
0
 62
   123
100
AcDbLine
 10
98.64941754753544
 20
184.26922948385
 30
0.0
 11
92.69714382805737
 21
189.6143616214436
 31
0.0
  0
SOLID
  5
357
330
30D
100
AcDbEntity
  8
0
 62
   123
100
AcDbTrace
 10
90.48277329415062
 20
192.3868768903544
 30
0.0
 11
89.70327485741776
 21
191.51883697293
 31
0.0
 12
92.69714382805737
 22
189.6143616214436
 32
0.0
 13
92.69714382805737
 23
189.6143616214436
 33
0.0
  0
MTEXT
  5
358
330
30D
100
AcDbEntity
  8
0
 62
     3
100
AcDbMText
 10
82.72867668742589
 20
201.9260894635478
 30
0.0
 40
3.0
 41
0.0
 71
     5
 72
     1
  1
\A1;R8
 11
0.7440342149351933
 21
-0.6681415171995906
 31
0.0
1001
ACAD
1000
MTEXTBEGIN
1070
    73
1070
     1
1070
    44
1040
1.0
1070
    74
1070
     0
1000
MTEXTEND
  0
POINT
  5
359
330
30D
100
AcDbEntity
  8
DEFPOINTS
 62
     0
100
AcDbPoint
 10
92.69714382805737
 20
189.6143616214436
 30
0.0
  0
POINT
  5
35A
330
30D
100
AcDbEntity
  8
DEFPOINTS
 62
     0
100
AcDbPoint
 10
98.64941754753544
 20
184.26922948385
 30
0.0
  0
ENDBLK
  5
315
330
30D
100
AcDbEntity
  8
0
100
AcDbBlockEnd
  0
BLOCK
  5
320
330
316
100
AcDbEntity
  8
0
100
AcDbBlockBegin
  2
*D45
 70
     1
 10
0.0
 20
0.0
 30
0.0
  3
*D45
  1

  0
LINE
  5
317
330
316
100
AcDbEntity
  8
0
 62
   123
100
AcDbLine
 10
52.64941754753545
 20
185.26922948385
 30
0.0
 11
52.64941754753545
 21
209.5190632028491
 31
0.0
  0
LINE
  5
318
330
316
100
AcDbEntity
  8
0
 62
   123
100
AcDbLine
 10
90.64941754753546
 20
185.26922948385
 30
0.0
 11
90.64941754753546
 21
209.5190632028491
 31
0.0
  0
LINE
  5
319
330
316
100
AcDbEntity
  8
0
 62
   123
100
AcDbLine
 10
56.14941754753544
 20
208.9190632028492
 30
0.0
 11
87.14941754753544
 21
208.9190632028492
 31
0.0
  0
SOLID
  5
31A
330
316
100
AcDbEntity
  8
0
 62
   123
100
AcDbTrace
 10
56.14941754753544
 20
209.5023965361825
 30
0.0
 11
56.14941754753544
 21
208.3357298695158
 31
0.0
 12
52.64941754753545
 22
208.9190632028492
 32
0.0
 13
52.64941754753545
 23
208.9190632028492
 33
0.0
  0
SOLID
  5
31B
330
316
100
AcDbEntity
  8
0
 62
   123
100
AcDbTrace
 10
87.14941754753544
 20
209.5023965361825
 30
0.0
 11
87.14941754753544
 21
208.3357298695158
 31
0.0
 12
90.64941754753546
 22
208.9190632028492
 32
0.0
 13
90.64941754753546
 23
208.9190632028492
 33
0.0
  0
MTEXT
  5
31C
330
316
100
AcDbEntity
  8
0
 62
     3
100
AcDbMText
 10
71.64941754753363
 20
211.4190632028492
 30
0.0
 40
3.0
 41
0.0
 71
     5
 72
     1
  1
\A1;38
1001
ACAD
1000
MTEXTBEGIN
1070
    73
1070
     1
1070
    44
1040
1.0
1070
    74
1070
     0
1000
MTEXTEND
  0
POINT
  5
31D
330
316
100
AcDbEntity
  8
DEFPOINTS
 62
     0
100
AcDbPoint
 10
52.64941754753545
 20
184.26922948385
 30
0.0
  0
POINT
  5
31E
330
316
100
AcDbEntity
  8
DEFPOINTS
 62
     0
100
AcDbPoint
 10
90.64941754753546
 20
184.26922948385
 30
0.0
  0
POINT
  5
31F
330
316
100
AcDbEntity
  8
DEFPOINTS
 62
     0
100
AcDbPoint
 10
90.64941754753546
 20
208.9190632028492
 30
0.0
  0
ENDBLK
  5
321
330
316
100
AcDbEntity
  8
0
100
AcDbBlockEnd
  0
BLOCK
  5
32C
330
322
100
AcDbEntity
  8
0
100
AcDbBlockBegin
  2
*D46
 70
     1
 10
0.0
 20
0.0
 30
0.0
  3
*D46
  1

  0
LINE
  5
323
330
322
100
AcDbEntity
  8
0
 62
   123
100
AcDbLine
 10
45.64941754753363
 20
192.2692294838491
 30
0.0
 11
68.20826612881287
 21
192.2692294838491
 31
0.0
  0
LINE
  5
324
330
322
100
AcDbEntity
  8
0
 62
   123
100
AcDbLine
 10
61.71957479847788
 20
159.2692294838491
 30
0.0
 11
68.20826612881283
 21
159.269229483849
 31
0.0
  0
LINE
  5
325
330
322
100
AcDbEntity
  8
0
 62
   123
100
AcDbLine
 10
67.60826612881285
 20
188.7692294838491
 30
0.0
 11
67.60826612881285
 21
162.7692294838491
 31
0.0
  0
SOLID
  5
326
330
322
100
AcDbEntity
  8
0
 62
   123
100
AcDbTrace
 10
67.02493279547953
 20
188.7692294838491
 30
0.0
 11
68.19159946214618
 21
188.7692294838491
 31
0.0
 12
67.60826612881285
 22
192.2692294838491
 32
0.0
 13
67.60826612881285
 23
192.2692294838491
 33
0.0
  0
SOLID
  5
327
330
322
100
AcDbEntity
  8
0
 62
   123
100
AcDbTrace
 10
67.02493279547953
 20
162.7692294838491
 30
0.0
 11
68.19159946214618
 21
162.7692294838491
 31
0.0
 12
67.60826612881285
 22
159.269229483849
 32
0.0
 13
67.60826612881285
 23
159.269229483849
 33
0.0
  0
MTEXT
  5
328
330
322
100
AcDbEntity
  8
0
 62
     3
100
AcDbMText
 10
65.10826612881283
 20
177.0588138900109
 30
0.0
 40
3.0
 41
0.0
 71
     5
 72
     1
  1
\A1;33
 11
0.0000000000000001
 21
1.0
 31
0.0
1001
ACAD
1000
MTEXTBEGIN
1070
    73
1070
     1
1070
    44
1040
1.0
1070
    74
1070
     0
1000
MTEXTEND
  0
POINT
  5
329
330
322
100
AcDbEntity
  8
DEFPOINTS
 62
     0
100
AcDbPoint
 10
44.64941754753363
 20
192.2692294838491
 30
0.0
  0
POINT
  5
32A
330
322
100
AcDbEntity
  8
DEFPOINTS
 62
     0
100
AcDbPoint
 10
60.71957479847788
 20
159.2692294838491
 30
0.0
  0
POINT
  5
32B
330
322
100
AcDbEntity
  8
DEFPOINTS
 62
     0
100
AcDbPoint
 10
67.60826612881285
 20
159.269229483849
 30
0.0
  0
ENDBLK
  5
32D
330
322
100
AcDbEntity
  8
0
100
AcDbBlockEnd
  0
BLOCK
  5
335
330
32E
100
AcDbEntity
  8
0
100
AcDbBlockBegin
  2
*D47
 70
     1
 10
0.0
 20
0.0
 30
0.0
  3
*D47
  1

  0
LINE
  5
34F
330
32E
100
AcDbEntity
  8
0
 62
   123
100
AcDbLine
 10
121.8659358217781
 20
191.0937835435222
 30
0.0
 11
136.3528506233508
 21
203.6069078186117
 31
0.0
  0
LINE
  5
350
330
32E
100
AcDbEntity
  8
0
 62
   123
100
AcDbLine
 10
111.6494175475336
 20
182.26922948385
 30
0.0
 11
119.2172088617891
 21
188.8059361947186
 31
0.0
  0
SOLID
  5
351
330
32E
100
AcDbEntity
  8
0
 62
   123
100
AcDbTrace
 10
121.4846279303108
 20
191.5352380368537
 30
0.0
 11
122.2472437132453
 21
190.6523290501907
 31
0.0
 12
119.2172088617891
 22
188.8059361947186
 32
0.0
 13
119.2172088617891
 23
188.8059361947186
 33
0.0
  0
MTEXT
  5
352
330
32E
100
AcDbEntity
  8
0
 62
     3
100
AcDbMText
 10
131.0428895929962
 20
202.3238838161825
 30
0.0
 40
3.0
 41
0.0
 71
     5
 72
     1
  1
\A1;R10
 11
0.7567791314254153
 21
0.653670671086744
 31
0.0
1001
ACAD
1000
MTEXTBEGIN
1070
    73
1070
     1
1070
    44
1040
1.0
1070
    74
1070
     0
1000
MTEXTEND
  0
POINT
  5
353
330
32E
100
AcDbEntity
  8
DEFPOINTS
 62
     0
100
AcDbPoint
 10
119.2172088617891
 20
188.8059361947186
 30
0.0
  0
POINT
  5
354
330
32E
100
AcDbEntity
  8
DEFPOINTS
 62
     0
100
AcDbPoint
 10
111.6494175475336
 20
182.26922948385
 30
0.0
  0
ENDBLK
  5
336
330
32E
100
AcDbEntity
  8
0
100
AcDbBlockEnd
  0
BLOCK
  5
341
330
337
100
AcDbEntity
  8
0
100
AcDbBlockBegin
  2
*D48
 70
     1
 10
0.0
 20
0.0
 30
0.0
  3
*D48
  1

  0
LINE
  5
338
330
337
100
AcDbEntity
  8
0
 62
   123
100
AcDbLine
 10
107.6494175475354
 20
142.2692294838491
 30
0.0
 11
136.3878480460613
 21
142.2692294838491
 31
0.0
  0
LINE
  5
339
330
337
100
AcDbEntity
  8
0
 62
   123
100
AcDbLine
 10
119.6494175475336
 20
157.26922948385
 30
0.0
 11
136.3878480460613
 21
157.26922948385
 31
0.0
  0
LINE
  5
33A
330
337
100
AcDbEntity
  8
0
 62
   123
100
AcDbLine
 10
135.7878480460613
 20
145.7692294838491
 30
0.0
 11
135.7878480460613
 21
153.76922948385
 31
0.0
  0
SOLID
  5
33B
330
337
100
AcDbEntity
  8
0
 62
   123
100
AcDbTrace
 10
135.2045147127279
 20
145.7692294838491
 30
0.0
 11
136.3711813793946
 21
145.7692294838491
 31
0.0
 12
135.7878480460613
 22
142.2692294838491
 32
0.0
 13
135.7878480460613
 23
142.2692294838491
 33
0.0
  0
SOLID
  5
33C
330
337
100
AcDbEntity
  8
0
 62
   123
100
AcDbTrace
 10
135.2045147127279
 20
153.76922948385
 30
0.0
 11
136.3711813793946
 21
153.76922948385
 31
0.0
 12
135.7878480460613
 22
157.26922948385
 32
0.0
 13
135.7878480460613
 23
157.26922948385
 33
0.0
  0
MTEXT
  5
33D
330
337
100
AcDbEntity
  8
0
 62
     3
100
AcDbMText
 10
133.2878480460613
 20
149.7692294838491
 30
0.0
 40
3.0
 41
0.0
 71
     5
 72
     1
  1
\A1;15
 11
0.0000000000000001
 21
1.0
 31
0.0
1001
ACAD
1000
MTEXTBEGIN
1070
    73
1070
     1
1070
    44
1040
1.0
1070
    74
1070
     0
1000
MTEXTEND
  0
POINT
  5
33E
330
337
100
AcDbEntity
  8
DEFPOINTS
 62
     0
100
AcDbPoint
 10
106.6494175475354
 20
142.2692294838491
 30
0.0
  0
POINT
  5
33F
330
337
100
AcDbEntity
  8
DEFPOINTS
 62
     0
100
AcDbPoint
 10
118.6494175475336
 20
157.26922948385
 30
0.0
  0
POINT
  5
340
330
337
100
AcDbEntity
  8
DEFPOINTS
 62
     0
100
AcDbPoint
 10
135.7878480460613
 20
157.26922948385
 30
0.0
  0
ENDBLK
  5
342
330
337
100
AcDbEntity
  8
0
100
AcDbBlockEnd
  0
BLOCK
  5
34D
330
343
100
AcDbEntity
  8
0
100
AcDbBlockBegin
  2
*D49
 70
     1
 10
0.0
 20
0.0
 30
0.0
  3
*D49
  1

  0
LINE
  5
344
330
343
100
AcDbEntity
  8
0
 62
   123
100
AcDbLine
 10
119.6494175475336
 20
157.26922948385
 30
0.0
 11
136.3878480460613
 21
157.26922948385
 31
0.0
  0
LINE
  5
345
330
343
100
AcDbEntity
  8
0
 62
   123
100
AcDbLine
 10
117.2583083360777
 20
182.26922948385
 30
0.0
 11
136.3878480460613
 21
182.26922948385
 31
0.0
  0
LINE
  5
346
330
343
100
AcDbEntity
  8
0
 62
   123
100
AcDbLine
 10
135.7878480460613
 20
160.76922948385
 30
0.0
 11
135.7878480460613
 21
178.76922948385
 31
0.0
  0
SOLID
  5
347
330
343
100
AcDbEntity
  8
0
 62
   123
100
AcDbTrace
 10
135.2045147127279
 20
160.76922948385
 30
0.0
 11
136.3711813793946
 21
160.76922948385
 31
0.0
 12
135.7878480460613
 22
157.26922948385
 32
0.0
 13
135.7878480460613
 23
157.26922948385
 33
0.0
  0
SOLID
  5
348
330
343
100
AcDbEntity
  8
0
 62
   123
100
AcDbTrace
 10
135.2045147127279
 20
178.76922948385
 30
0.0
 11
136.3711813793946
 21
178.76922948385
 31
0.0
 12
135.7878480460613
 22
182.26922948385
 32
0.0
 13
135.7878480460613
 23
182.26922948385
 33
0.0
  0
MTEXT
  5
349
330
343
100
AcDbEntity
  8
0
 62
     3
100
AcDbMText
 10
133.2878480460613
 20
169.76922948385
 30
0.0
 40
3.0
 41
0.0
 71
     5
 72
     1
  1
\A1;25
 11
0.0000000000000001
 21
1.0
 31
0.0
1001
ACAD
1000
MTEXTBEGIN
1070
    73
1070
     1
1070
    44
1040
1.0
1070
    74
1070
     0
1000
MTEXTEND
  0
POINT
  5
34A
330
343
100
AcDbEntity
  8
DEFPOINTS
 62
     0
100
AcDbPoint
 10
118.6494175475336
 20
157.26922948385
 30
0.0
  0
POINT
  5
34B
330
343
100
AcDbEntity
  8
DEFPOINTS
 62
     0
100
AcDbPoint
 10
116.2583083360777
 20
182.26922948385
 30
0.0
  0
POINT
  5
34C
330
343
100
AcDbEntity
  8
DEFPOINTS
 62
     0
100
AcDbPoint
 10
135.7878480460613
 20
182.26922948385
 30
0.0
  0
ENDBLK
  5
34E
330
343
100
AcDbEntity
  8
0
100
AcDbBlockEnd
  0
ENDSEC
  0
SECTION
  2
ENTITIES
  0
DIMENSION
  5
29
102
{ACAD_XDICTIONARY
360
2A
102
}
102
{ACAD_REACTORS
330
2B
102
}
330
2
100
AcDbEntity
  8
0
100
AcDbDimension
  2
*D32
 10
48.52288770505524
 20
55.30078579165773
 30
0.0
 11
116.8466798772976
 21
83.35364650906104
 31
0.0
 70
   163
  3
STANDARD
100
AcDbDiametricDimension
 15
94.77594739001142
 25
74.29169071427647
 35
0.0
 40
0.0
  0
LINE
  5
38
102
{ACAD_REACTORS
330
64
330
17C
102
}
330
2
100
AcDbEntity
  8
0
100
AcDbLine
 10
210.0202543999512
 20
94.29623825296813
 30
0.0
 11
210.0202543999512
 21
34.79623825296812
 31
0.0
  0
CIRCLE
  5
39
102
{ACAD_REACTORS
330
2B
102
}
330
2
100
AcDbEntity
  8
0
100
AcDbCircle
 10
71.64941754753363
 20
64.79623825296721
 30
0.0
 40
25.0
  0
LINE
  5
3A
102
{ACAD_REACTORS
330
FE
102
}
330
2
100
AcDbEntity
  8
0
100
AcDbLine
 10
234.0202543999512
 20
34.79623825296812
 30
0.0
 11
216.0202543999512
 21
68.79623825296812
 31
0.0
  0
DIMENSION
  5
3B
102
{ACAD_XDICTIONARY
360
3C
102
}
102
{ACAD_REACTORS
330
3D
102
}
330
2
100
AcDbEntity
  8
0
100
AcDbDimension
  2
*D34
 10
-9.032847823219514
 20
68.79623825296814
 30
0.0
 11
-9.032847823219526
 21
51.05270413177004
 31
0.0
 70
   160
  3
STANDARD
100
AcDbAlignedDimension
 13
22.64941754753544
 23
26.79623825296812
 33
0.0
 14
37.64941754753545
 24
68.79623825296812
 34
0.0
 50
90.0
100
AcDbRotatedDimension
  0
LINE
  5
4A
330
2
100
AcDbEntity
  8
0
100
AcDbLine
 10
105.6494175475336
 20
68.79623825296812
 30
0.0
 11
105.6494175475336
 21
26.79623825296607
 31
0.0
  0
LINE
  5
4B
330
2
100
AcDbEntity
  8
0
100
AcDbLine
 10
37.64941754753545
 20
68.79623825296812
 30
0.0
 11
37.64941754753545
 21
26.79623825296607
 31
0.0
  0
LINE
  5
4C
330
2
100
AcDbEntity
  8
0
 62
    35
100
AcDbLine
 10
41.14941754753362
 20
72.79623825296903
 30
0.0
 11
41.14941754753362
 21
34.79623825296721
 31
0.0
  0
LINE
  5
4D
330
2
100
AcDbEntity
  8
0
 62
    35
100
AcDbLine
 10
102.1494175475336
 20
72.79623825296903
 30
0.0
 11
102.1494175475336
 21
34.79623825296721
 31
0.0
  0
DIMENSION
  5
4E
102
{ACAD_XDICTIONARY
360
4F
102
}
102
{ACAD_REACTORS
330
50
102
}
330
2
100
AcDbEntity
  8
0
100
AcDbDimension
  2
*D31
 10
43.82861049219402
 20
43.55941479409154
 30
0.0
 11
122.4423407784503
 21
103.568671631286
 31
0.0
 70
   163
  1
<>%%P0.3
  3
STANDARD
100
AcDbDiametricDimension
 15
99.47022460605403
 25
86.03306284560039
 35
0.0
 40
0.0
  0
LINE
  5
5C
330
2
100
AcDbEntity
  8
0
 62
    35
100
AcDbLine
 10
211.0202543999512
 20
68.79623825296812
 30
0.0
 11
211.0202543999512
 21
27.0613470256751
 31
0.0
  0
LINE
  5
5D
330
2
100
AcDbEntity
  8
HI
100
AcDbLine
 10
216.0202543999512
 20
68.79623825296812
 30
0.0
 11
216.0202543999512
 21
34.79623825296812
 31
0.0
  0
LINE
  5
60
102
{ACAD_REACTORS
330
73
330
19A
102
}
330
2
100
AcDbEntity
  8
HI
100
AcDbLine
 10
213.0202543999512
 20
91.79623825296721
 30
0.0
 11
213.0202543999512
 21
37.79623938672216
 31
0.0
  0
CIRCLE
  5
61
330
2
100
AcDbEntity
  8
HI
100
AcDbCircle
 10
71.64941754912161
 20
64.79623881984503
 30
0.0
 40
26.99999943312241
  0
DIMENSION
  5
62
102
{ACAD_XDICTIONARY
360
63
102
}
102
{ACAD_REACTORS
330
64
102
}
330
2
100
AcDbEntity
  8
0
100
AcDbDimension
  2
*D40
 10
198.5977728959815
 20
89.79623825296721
 30
0.0
 11
198.5977728959815
 21
63.97610553394907
 31
0.0
 70
   160
  1
%%c<>
  3
STANDARD
100
AcDbAlignedDimension
 13
210.0202543999512
 23
39.79623825296721
 33
0.0
 14
210.0202543999512
 24
89.79623825296721
 34
0.0
 50
90.0
100
AcDbRotatedDimension
  0
DIMENSION
  5
71
102
{ACAD_XDICTIONARY
360
72
102
}
102
{ACAD_REACTORS
330
73
102
}
330
2
100
AcDbEntity
  8
0
100
AcDbDimension
  2
*D39
 10
185.6338739128732
 20
37.79623938672217
 30
0.0
 11
185.6338739128732
 21
65.51036393461004
 31
0.0
 70
   160
  1
%%c<>
  3
STANDARD
100
AcDbAlignedDimension
 13
213.0202543999512
 23
91.79623825296721
 33
0.0
 14
213.0202543999512
 24
37.79623938672216
 34
0.0
 50
90.0
100
AcDbRotatedDimension
  0
DIMENSION
  5
80
102
{ACAD_XDICTIONARY
360
81
102
}
102
{ACAD_REACTORS
330
82
102
}
330
2
100
AcDbEntity
  8
0
100
AcDbDimension
  2
*D30
 10
146.5030717402014
 20
95.29623825296608
 30
0.0
 11
146.5030717402014
 21
58.56021425749827
 31
0.0
 70
   160
  3
STANDARD
100
AcDbAlignedDimension
 13
120.6494175475354
 23
26.79623825296721
 33
0.0
 14
97.14941754753546
 24
95.29623825296608
 34
0.0
 50
90.0
100
AcDbRotatedDimension
  0
DIMENSION
  5
8F
102
{ACAD_XDICTIONARY
360
90
102
}
102
{ACAD_REACTORS
330
91
102
}
330
2
100
AcDbEntity
  8
0
100
AcDbDimension
  2
*D35
 10
3.872090215420041
 20
64.79623825296721
 30
0.0
 11
3.87209021542003
 21
46.166492200545
 31
0.0
 70
   160
  1
<>%%P0.5
  3
STANDARD
100
AcDbAlignedDimension
 13
22.64941754753544
 23
26.79623825296812
 33
0.0
 14
24.40231697205308
 24
64.79623825296721
 34
0.0
 50
90.0
100
AcDbRotatedDimension
  0
LINE
  5
9E
330
2
100
AcDbEntity
  8
CEN
100
AcDbLine
 10
71.64941754753363
 20
104.0736266969681
 30
0.0
 11
71.64941754753363
 21
25.51884980896602
 31
0.0
  0
LINE
  5
A1
330
2
100
AcDbEntity
  8
0
100
AcDbLine
 10
211.46164550922
 20
26.79623825296812
 30
0.0
 11
259.5202543999512
 21
26.79623825296812
 31
0.0
  0
DIMENSION
  5
A2
330
2
100
AcDbEntity
  8
0
100
AcDbDimension
  2
*D26
 10
260.0202543999512
 20
15.64804151621228
 30
0.0
 11
234.2901229336312
 21
15.64804151621228
 31
0.0
 70
   160
  3
STANDARD
100
AcDbAlignedDimension
 13
210.0202543999512
 23
34.79623825296812
 33
0.0
 14
260.0202543999512
 24
27.29623825296812
 34
0.0
100
AcDbRotatedDimension
  0
LINE
  5
AF
330
2
100
AcDbEntity
  8
0
100
AcDbLine
 10
211.0202543999512
 20
34.79623825296812
 30
0.0
 11
259.5202543999512
 21
34.79623825296812
 31
0.0
  0
DIMENSION
  5
B0
330
2
100
AcDbEntity
  8
0
100
AcDbDimension
  2
*D29
 10
121.6494175475336
 20
3.246004517279061
 30
0.0
 11
72.14941754753363
 21
3.246004517279061
 31
0.0
 70
   160
  3
STANDARD
100
AcDbAlignedDimension
 13
21.64941754753545
 23
27.79623825296812
 33
0.0
 14
121.6494175475336
 24
26.79623825296607
 34
0.0
100
AcDbRotatedDimension
  0
LINE
  5
BD
330
2
100
AcDbEntity
  8
0
 62
    35
100
AcDbLine
 10
41.14941754753362
 20
34.79623825296721
 30
0.0
 11
102.1494175475336
 21
34.79623825296721
 31
0.0
  0
LINE
  5
BE
102
{ACAD_REACTORS
330
82
102
}
330
2
100
AcDbEntity
  8
0
100
AcDbLine
 10
97.64941754753545
 20
26.79623825296721
 30
0.0
 11
120.6494175475354
 21
26.79623825296721
 31
0.0
  0
LINE
  5
BF
330
2
100
AcDbEntity
  8
CEN
  6
CENTER
100
AcDbLine
 10
100.6407951692526
 20
35.80485798942118
 30
0.0
 11
92.15551316925303
 21
44.29013998942105
 31
0.0
  0
ARC
  5
C0
330
2
100
AcDbEntity
  8
CEN
  6
CENTER
100
AcDbCircle
 10
71.64941716925387
 20
64.79623598942112
 30
0.0
 40
35.0
100
AcDbArc
 50
305.1763620000113
 51
324.8236380000118
  0
LINE
  5
C1
102
{ACAD_REACTORS
330
3D
330
91
102
}
330
2
100
AcDbEntity
  8
0
100
AcDbLine
 10
22.64941754753544
 20
26.79623825296812
 30
0.0
 11
45.64941754753545
 21
26.79623825296812
 31
0.0
  0
LINE
  5
C2
330
2
100
AcDbEntity
  8
0
100
AcDbLine
 10
37.64941754753545
 20
34.79623825296721
 30
0.0
 11
23.64941754753363
 21
34.79623825296721
 31
0.0
  0
LINE
  5
C3
330
2
100
AcDbEntity
  8
0
100
AcDbLine
 10
21.64941754753545
 20
27.79623825296812
 30
0.0
 11
21.64941754753545
 21
32.79623825296721
 31
0.0
  0
ARC
  5
C4
330
2
100
AcDbEntity
  8
0
100
AcDbCircle
 10
22.64941754753544
 20
27.79623825296812
 30
0.0
 40
1.0
100
AcDbArc
 50
180.0
 51
270.0
  0
ARC
  5
C5
330
2
100
AcDbEntity
  8
0
100
AcDbCircle
 10
23.64941754753363
 20
32.79623825296721
 30
0.0
 40
2.0
100
AcDbArc
 50
90.0
 51
180.0
  0
LINE
  5
C6
330
2
100
AcDbEntity
  8
0
 62
    35
100
AcDbLine
 10
41.14941754753362
 20
34.79623825296721
 30
0.0
 11
37.64941754753545
 21
26.79623825296812
 31
0.0
  0
LINE
  5
C7
330
2
100
AcDbEntity
  8
0
  6
CONTINUOUS
100
AcDbLine
 10
46.64941754753363
 20
27.79623825296812
 30
0.0
 11
45.64941754753545
 21
26.79623825296812
 31
0.0
  0
LINE
  5
C8
102
{ACAD_REACTORS
330
CE
102
}
330
2
100
AcDbEntity
  8
0
  6
CONTINUOUS
100
AcDbLine
 10
96.64941754753364
 20
27.79623825296721
 30
0.0
 11
97.64941754753545
 21
26.79623825296721
 31
0.0
  0
LINE
  5
C9
102
{ACAD_REACTORS
330
3D
330
CE
102
}
330
2
100
AcDbEntity
  8
0
100
AcDbLine
 10
46.64941754753363
 20
27.79623825296812
 30
0.0
 11
96.64941754753364
 21
27.79623825296721
 31
0.0
  0
LINE
  5
CA
330
2
100
AcDbEntity
  8
CEN
  6
CENTER
100
AcDbLine
 10
42.65803633883115
 20
35.80485836929028
 30
0.0
 11
51.1433183388317
 21
44.29014036929015
 31
0.0
  0
ARC
  5
CB
330
2
100
AcDbEntity
  8
CEN
  6
CENTER
100
AcDbCircle
 10
71.64941433882995
 20
64.79623636929023
 30
0.0
 40
35.0
100
AcDbArc
 50
215.1763620000113
 51
234.8236380000118
  0
DIMENSION
  5
CC
102
{ACAD_XDICTIONARY
360
CD
102
}
102
{ACAD_REACTORS
330
CE
102
}
330
2
100
AcDbEntity
  8
0
100
AcDbDimension
  2
*D33
 10
90.12954985254692
 20
27.79623825296721
 30
0.0
 11
90.12954985254692
 21
14.26052396725231
 31
0.0
 70
   160
  3
STANDARD
100
AcDbAlignedDimension
 13
97.64941754753545
 23
26.79623825296721
 33
0.0
 14
94.9621574046796
 24
27.79623825296721
 34
0.0
 50
90.0
100
AcDbRotatedDimension
  0
CIRCLE
  5
DD
330
2
100
AcDbEntity
  8
0
100
AcDbCircle
 10
46.90068020442322
 20
40.04750034455605
 30
0.0
 40
1.5
  0
ARC
  5
DE
330
2
100
AcDbEntity
  8
0
  6
CONTINUOUS
 62
     3
100
AcDbCircle
 10
46.90068020442322
 20
40.04750034455605
 30
0.0
 40
2.0
100
AcDbArc
 50
269.9999902160608
 51
180.0000097842255
  0
CIRCLE
  5
DF
330
2
100
AcDbEntity
  8
0
100
AcDbCircle
 10
96.39815545594411
 20
40.04750090985498
 30
0.0
 40
1.5
  0
ARC
  5
E0
330
2
100
AcDbEntity
  8
0
  6
CONTINUOUS
 62
     3
100
AcDbCircle
 10
96.39815545594411
 20
40.04750090985498
 30
0.0
 40
2.0
100
AcDbArc
 50
269.9999902160608
 51
180.0000097842255
  0
LINE
  5
E1
330
2
100
AcDbEntity
  8
0
100
AcDbLine
 10
119.6494175475336
 20
34.79623825296721
 30
0.0
 11
105.6494175475336
 21
34.79623825296721
 31
0.0
  0
LINE
  5
E2
330
2
100
AcDbEntity
  8
0
100
AcDbLine
 10
121.6494175475336
 20
27.79623825296721
 30
0.0
 11
121.6494175475336
 21
32.79623825296721
 31
0.0
  0
LINE
  5
E3
330
2
100
AcDbEntity
  8
0
 62
    35
100
AcDbLine
 10
102.1494175475336
 20
34.79623825296721
 30
0.0
 11
105.6494175475336
 21
26.79623825296721
 31
0.0
  0
DIMENSION
  5
E4
330
2
100
AcDbEntity
  8
0
100
AcDbDimension
  2
*D36
 10
135.2319125658141
 20
34.79623825296721
 30
0.0
 11
135.2319125658141
 21
30.79623825296723
 31
0.0
 70
   160
  3
STANDARD
100
AcDbAlignedDimension
 13
120.6494175475354
 23
26.79623825296721
 33
0.0
 14
120.6494175475354
 24
34.79623825296721
 34
0.0
 50
90.0
100
AcDbRotatedDimension
  0
ARC
  5
F3
330
2
100
AcDbEntity
  8
0
100
AcDbCircle
 10
120.6494175475354
 20
27.79623825296721
 30
0.0
 40
1.0
100
AcDbArc
 50
270.0
 51
0.0
  0
ARC
  5
F4
330
2
100
AcDbEntity
  8
0
100
AcDbCircle
 10
119.6494175475336
 20
32.79623825296721
 30
0.0
 40
2.0
100
AcDbArc
 50
0.0
 51
90.0
  0
LINE
  5
F5
330
2
100
AcDbEntity
  8
0
100
AcDbLine
 10
210.0202543999512
 20
34.79623825296812
 30
0.0
 11
210.9655065708639
 21
27.23422088567327
 31
0.0
  0
LINE
  5
F6
102
{ACAD_REACTORS
330
64
102
}
330
2
100
AcDbEntity
  8
HI
100
AcDbLine
 10
210.0202543999512
 20
39.79623825296721
 30
0.0
 11
213.0202543999512
 21
39.79623825296608
 31
0.0
  0
LINE
  5
F7
330
2
100
AcDbEntity
  8
HI
100
AcDbLine
 10
213.0202543999512
 20
37.79623938672216
 30
0.0
 11
216.0202543999512
 21
37.79623938672216
 31
0.0
  0
ARC
  5
F8
330
2
100
AcDbEntity
  8
0
100
AcDbCircle
 10
211.46164550922
 20
27.29623825296812
 30
0.0
 40
0.5
100
AcDbArc
 50
187.1250163489018
 51
270.0
  0
LINE
  5
F9
102
{ACAD_REACTORS
330
FE
102
}
330
2
100
AcDbEntity
  8
0
100
AcDbLine
 10
260.0202543999512
 20
34.29623825296812
 30
0.0
 11
260.0202543999512
 21
27.29623825296812
 31
0.0
  0
ARC
  5
FA
330
2
100
AcDbEntity
  8
0
100
AcDbCircle
 10
259.5202543999512
 20
27.29623825296812
 30
0.0
 40
0.5
100
AcDbArc
 50
270.0
 51
0.0
  0
ARC
  5
FB
330
2
100
AcDbEntity
  8
0
100
AcDbCircle
 10
259.5202543999512
 20
34.29623825296812
 30
0.0
 40
0.5
100
AcDbArc
 50
0.0
 51
90.0
  0
DIMENSION
  5
FC
102
{ACAD_XDICTIONARY
360
FD
102
}
102
{ACAD_REACTORS
330
FE
102
}
330
2
100
AcDbEntity
  8
0
100
AcDbDimension
  2
*D25
 10
260.0202543999512
 20
45.18621983457819
 30
0.0
 11
247.0202543999512
 21
45.18621983457819
 31
0.0
 70
   160
  3
STANDARD
100
AcDbAlignedDimension
 13
234.0202543999512
 23
34.79623825296812
 33
0.0
 14
260.0202543999512
 24
34.29623825296812
 34
0.0
100
AcDbRotatedDimension
  0
DIMENSION
  5
10B
102
{ACAD_XDICTIONARY
360
10C
102
}
102
{ACAD_REACTORS
330
10D
102
}
330
2
100
AcDbEntity
  8
0
100
AcDbDimension
  2
*D43
 10
13.02578124902723
 20
184.51922948385
 30
0.0
 11
13.0257812490272
 21
182.26922948385
 31
0.0
 70
   160
  3
STANDARD
100
AcDbAlignedDimension
 13
29.19941754753472
 23
180.01922948385
 33
0.0
 14
29.19941754753472
 24
184.51922948385
 34
0.0
 50
90.0
100
AcDbRotatedDimension
  0
LINE
  5
11C
330
2
100
AcDbEntity
  8
0
100
AcDbLine
 10
121.6494175475336
 20
182.26922948385
 30
0.0
 11
121.6494175475336
 21
157.2692294838491
 31
0.0
  0
LINE
  5
11D
330
2
100
AcDbEntity
  8
0
100
AcDbLine
 10
21.64941754753635
 20
182.26922948385
 30
0.0
 11
21.64941754753635
 21
157.2692294838491
 31
0.0
  0
LINE
  5
11E
330
2
100
AcDbEntity
  8
CEN
100
AcDbLine
 10
71.64941754753363
 20
137.2692294838491
 30
0.0
 11
71.64941754753363
 21
197.2692294838491
 31
0.0
  0
LINE
  5
11F
102
{ACAD_REACTORS
330
1C2
102
}
330
2
100
AcDbEntity
  8
CEN
100
AcDbLine
 10
30.64941754753545
 20
137.2692294838491
 30
0.0
 11
30.64941754753545
 21
197.2692294838491
 31
0.0
  0
LINE
  5
120
102
{ACAD_REACTORS
330
1C2
102
}
330
2
100
AcDbEntity
  8
CEN
100
AcDbLine
 10
112.6494175475354
 20
137.2692294838491
 30
0.0
 11
112.6494175475354
 21
197.2692294838491
 31
0.0
  0
DIMENSION
  5
121
330
2
100
AcDbEntity
  8
0
100
AcDbDimension
  2
*D49
 10
135.7878480460613
 20
182.26922948385
 30
0.0
 11
135.7878480460612
 21
169.76922948385
 31
0.0
 70
   160
  3
STANDARD
100
AcDbAlignedDimension
 13
118.6494175475336
 23
157.26922948385
 33
0.0
 14
116.2583083360777
 24
182.26922948385
 34
0.0
 50
90.0
100
AcDbRotatedDimension
  0
LINE
  5
12E
330
2
100
AcDbEntity
  8
0
100
AcDbLine
 10
52.64941754753363
 20
148.2692294838491
 30
0.0
 11
52.64941754753363
 21
184.26922948385
 31
0.0
  0
LINE
  5
12F
102
{ACAD_REACTORS
330
1EC
102
}
330
2
100
AcDbEntity
  8
0
100
AcDbLine
 10
90.64941754753546
 20
148.2692294838491
 30
0.0
 11
90.64941754753546
 21
184.26922948385
 31
0.0
  0
DIMENSION
  5
130
102
{ACAD_XDICTIONARY
360
131
102
}
102
{ACAD_REACTORS
330
132
102
}
330
2
100
AcDbEntity
  8
0
100
AcDbDimension
  2
*D46
 10
67.60826612881285
 20
159.269229483849
 30
0.0
 11
67.60826612881283
 21
177.0588138900109
 31
0.0
 70
   160
  3
STANDARD
100
AcDbAlignedDimension
 13
44.64941754753363
 23
192.2692294838491
 33
0.0
 14
60.71957479847788
 24
159.2692294838491
 34
0.0
 50
90.0
100
AcDbRotatedDimension
  0
LINE
  5
13F
330
2
100
AcDbEntity
  8
0
100
AcDbLine
 10
41.14941754753362
 20
148.26922948385
 30
0.0
 11
41.14941754753362
 21
192.2692294838491
 31
0.0
  0
LINE
  5
140
330
2
100
AcDbEntity
  8
0
100
AcDbLine
 10
102.1494175475336
 20
148.26922948385
 30
0.0
 11
102.1494175475336
 21
192.2692294838491
 31
0.0
  0
LINE
  5
141
330
2
100
AcDbEntity
  8
0
100
AcDbLine
 10
46.64941754753363
 20
148.26922948385
 30
0.0
 11
46.64941754753363
 21
192.015196176264
 31
0.0
  0
LINE
  5
142
330
2
100
AcDbEntity
  8
0
100
AcDbLine
 10
96.64941754753364
 20
148.26922948385
 30
0.0
 11
96.64941754753364
 21
192.015196176264
 31
0.0
  0
LINE
  5
143
102
{ACAD_REACTORS
330
1AE
102
}
330
2
100
AcDbEntity
  8
0
100
AcDbLine
 10
36.64941754753636
 20
142.2692294838491
 30
0.0
 11
106.6494175475354
 21
142.2692294838491
 31
0.0
  0
DIMENSION
  5
144
330
2
100
AcDbEntity
  8
0
100
AcDbDimension
  2
*D28
 10
105.6494175475336
 20
122.4273910249512
 30
0.0
 11
71.64941754753363
 21
122.4273910249512
 31
0.0
 70
   160
  3
STANDARD
100
AcDbAlignedDimension
 13
37.64941754753545
 23
68.79623825296812
 33
0.0
 14
105.6494175475336
 24
68.79623825296812
 34
0.0
100
AcDbRotatedDimension
  0
DIMENSION
  5
151
330
2
100
AcDbEntity
  8
0
100
AcDbDimension
  2
*D27
 10
102.1494175475354
 20
109.9011203946372
 30
0.0
 11
71.64941754753363
 21
109.9011203946372
 31
0.0
 70
   160
  3
STANDARD
100
AcDbAlignedDimension
 13
41.14941754753362
 23
91.29623825296812
 33
0.0
 14
102.1494175475354
 24
91.29623825296722
 34
0.0
100
AcDbRotatedDimension
  0
ARC
  5
15E
102
{ACAD_REACTORS
330
50
102
}
330
2
100
AcDbEntity
  8
CEN
  6
CENTER
100
AcDbCircle
 10
71.64941754912161
 20
64.79623881984412
 30
0.0
 40
35.0
100
AcDbArc
 50
35.17636200001151
 51
54.82363800001198
  0
LINE
  5
15F
330
2
100
AcDbEntity
  8
CEN
  6
CENTER
100
AcDbLine
 10
100.6407955491222
 20
93.78761681984405
 30
0.0
 11
92.15551354912349
 21
85.30233481984419
 31
0.0
  0
LINE
  5
160
330
2
100
AcDbEntity
  8
0
100
AcDbLine
 10
37.64941754753545
 20
148.2692294838491
 30
0.0
 11
105.6494175475336
 21
148.2692294838491
 31
0.0
  0
ARC
  5
161
330
2
100
AcDbEntity
  8
0
100
AcDbCircle
 10
97.14941754753546
 20
90.29623825296608
 30
0.0
 40
5.0
100
AcDbArc
 50
0.0
 51
89.999999999999
  0
LINE
  5
162
102
{ACAD_REACTORS
330
91
102
}
330
2
100
AcDbEntity
  8
CEN
100
AcDbLine
 10
24.40231697205308
 20
64.79623825296721
 30
0.0
 11
118.8965181230132
 21
64.79623825296721
 31
0.0
  0
LEADER
  5
163
330
2
100
AcDbEntity
  8
0
100
AcDbLeader
  3
STANDARD
 73
     0
 75
     1
 40
3.0
 41
24.57142857142857
 76
     3
 10
45.27071115478975
 20
90.70394183375833
 30
0.0
 10
28.08224491856162
 20
104.2059888866583
 30
0.0
 10
24.58224491856162
 20
104.2059888866583
 30
0.0
340
164
1001
ACAD
1000
DSTYLE
1002
{
1070
     5
1000

1070
   342
1005
0
1002
}
  0
MTEXT
  5
164
102
{ACAD_REACTORS
330
163
102
}
330
2
100
AcDbEntity
  8
0
 62
     3
100
AcDbMText
 10
23.58224491856162
 20
105.2059888866583
 30
0.0
 40
3.0
 41
0.0
 71
     9
 72
     1
  1
4-M4xP0.7
1001
ACAD
1000
MTEXTBEGIN
1070
    73
1070
     1
1070
    44
1040
1.0
1070
    74
1070
     0
1000
MTEXTEND
  0
LINE
  5
165
102
{ACAD_REACTORS
330
82
102
}
330
2
100
AcDbEntity
  8
0
100
AcDbLine
 10
46.14941754753362
 20
95.29623825296813
 30
0.0
 11
97.14941754753546
 21
95.29623825296608
 31
0.0
  0
LINE
  5
166
330
2
100
AcDbEntity
  8
0
100
AcDbLine
 10
41.14941754753362
 20
90.29623825296813
 30
0.0
 11
41.14941754753362
 21
72.79623825296903
 31
0.0
  0
LINE
  5
167
330
2
100
AcDbEntity
  8
0
100
AcDbLine
 10
37.64941754753545
 20
68.79623825296812
 30
0.0
 11
41.14941754753362
 21
72.79623825296903
 31
0.0
  0
ARC
  5
168
330
2
100
AcDbEntity
  8
0
  6
CONTINUOUS
 62
     3
100
AcDbCircle
 10
96.39815489064677
 20
89.54497616137814
 30
0.0
 40
2.0
100
AcDbArc
 50
269.9999902160608
 51
180.0000097842255
  0
LINE
  5
169
330
2
100
AcDbEntity
  8
CEN
  6
CENTER
100
AcDbLine
 10
42.6580367186998
 20
93.78761719971317
 30
0.0
 11
51.14331871869945
 21
85.30233519971307
 31
0.0
  0
ARC
  5
16A
330
2
100
AcDbEntity
  8
CEN
  6
CENTER
100
AcDbCircle
 10
71.64941471869951
 20
64.79623919971323
 30
0.0
 40
35.0
100
AcDbArc
 50
125.1763620000114
 51
144.8236380000119
  0
CIRCLE
  5
16B
330
2
100
AcDbEntity
  8
0
100
AcDbCircle
 10
96.39815489064677
 20
89.54497616137814
 30
0.0
 40
1.5
  0
CIRCLE
  5
16C
330
2
100
AcDbEntity
  8
0
100
AcDbCircle
 10
46.90067963912315
 20
89.5449755960792
 30
0.0
 40
1.5
  0
ARC
  5
16D
330
2
100
AcDbEntity
  8
0
  6
CONTINUOUS
 62
     3
100
AcDbCircle
 10
46.90067963912315
 20
89.5449755960792
 30
0.0
 40
2.0
100
AcDbArc
 50
269.9999902160608
 51
180.0000097842255
  0
ARC
  5
16E
330
2
100
AcDbEntity
  8
0
100
AcDbCircle
 10
46.14941754753362
 20
90.29623825296813
 30
0.0
 40
5.0
100
AcDbArc
 50
89.9999999999995
 51
180.0
  0
ARC
  5
16F
330
2
100
AcDbEntity
  8
0
100
AcDbCircle
 10
36.64941754753636
 20
157.2692294838491
 30
0.0
 40
15.0
100
AcDbArc
 50
180.0000000000004
 51
270.0
  0
LINE
  5
170
330
2
100
AcDbEntity
  8
CEN
100
AcDbLine
 10
24.64941754753545
 20
157.26922948385
 30
0.0
 11
36.64941754753363
 21
157.26922948385
 31
0.0
  0
LINE
  5
171
330
2
100
AcDbEntity
  8
0
100
AcDbLine
 10
29.19941754753472
 20
155.0192294838509
 30
0.0
 11
32.09941754753344
 21
155.0192294838509
 31
0.0
  0
LINE
  5
172
330
2
100
AcDbEntity
  8
0
100
AcDbLine
 10
29.19941754753472
 20
159.51922948385
 30
0.0
 11
32.09941754753344
 21
159.51922948385
 31
0.0
  0
ARC
  5
173
330
2
100
AcDbEntity
  8
0
100
AcDbCircle
 10
29.19941754753472
 20
157.26922948385
 30
0.0
 40
2.25
100
AcDbArc
 50
90.0
 51
270.0
  0
LINE
  5
174
330
2
100
AcDbEntity
  8
0
100
AcDbLine
 10
37.64941754753545
 20
166.26922948385
 30
0.0
 11
37.64941754753545
 21
142.2692294838491
 31
0.0
  0
LINE
  5
175
102
{ACAD_REACTORS
330
132
102
}
330
2
100
AcDbEntity
  8
0
100
AcDbLine
 10
56.64941754753545
 20
159.2692294838491
 30
0.0
 11
86.64941754753362
 21
159.2692294838491
 31
0.0
  0
ARC
  5
176
330
2
100
AcDbEntity
  8
0
100
AcDbCircle
 10
56.64941754753545
 20
163.2692294838491
 30
0.0
 40
4.0
100
AcDbArc
 50
180.0
 51
270.0000000000007
  0
ARC
  5
177
330
2
100
AcDbEntity
  8
0
100
AcDbCircle
 10
86.64941754753362
 20
163.2692294838491
 30
0.0
 40
4.0
100
AcDbArc
 50
270.0000000000007
 51
0.0
  0
LINE
  5
178
102
{ACAD_REACTORS
330
132
102
}
330
2
100
AcDbEntity
  8
0
100
AcDbLine
 10
37.64941754753545
 20
166.26922948385
 30
0.0
 11
41.14941754753362
 21
166.26922948385
 31
0.0
  0
ARC
  5
179
330
2
100
AcDbEntity
  8
0
100
AcDbCircle
 10
32.09941754753344
 20
157.26922948385
 30
0.0
 40
2.25
100
AcDbArc
 50
270.0
 51
90.0
  0
DIMENSION
  5
17A
102
{ACAD_XDICTIONARY
360
17B
102
}
102
{ACAD_REACTORS
330
17C
102
}
330
2
100
AcDbEntity
  8
0
100
AcDbDimension
  2
*D38
 10
216.0202543999512
 20
119.2755030328642
 30
0.0
 11
213.0202543999512
 21
119.2755030328642
 31
0.0
 70
   160
  3
STANDARD
100
AcDbAlignedDimension
 13
210.0202543999512
 23
94.29623825296813
 33
0.0
 14
216.0202543999512
 24
94.29623825296813
 34
0.0
100
AcDbRotatedDimension
  0
LINE
  5
18B
330
2
100
AcDbEntity
  8
0
100
AcDbLine
 10
102.1494175475336
 20
72.79623825296903
 30
0.0
 11
105.6494175475336
 21
68.79623825296812
 31
0.0
  0
LINE
  5
18C
330
2
100
AcDbEntity
  8
0
100
AcDbLine
 10
102.1494175475354
 20
90.29623825296608
 30
0.0
 11
102.1494175475336
 21
72.79623825296903
 31
0.0
  0
LINE
  5
18D
330
2
100
AcDbEntity
  8
0
100
AcDbLine
 10
211.0202543999512
 20
95.29623825296813
 30
0.0
 11
215.0202543999512
 21
95.29623825296813
 31
0.0
  0
LINE
  5
18E
102
{ACAD_REACTORS
330
19A
330
17C
102
}
330
2
100
AcDbEntity
  8
0
100
AcDbLine
 10
216.0202543999512
 20
94.29623825296813
 30
0.0
 11
216.0202543999512
 21
68.79623825296812
 31
0.0
  0
LINE
  5
18F
330
2
100
AcDbEntity
  8
0
 62
    35
100
AcDbLine
 10
210.0202543999512
 20
72.79623825296813
 30
0.0
 11
211.0202543999512
 21
72.79623825296903
 31
0.0
  0
ARC
  5
190
330
2
100
AcDbEntity
  8
0
100
AcDbCircle
 10
211.0202543999512
 20
94.29623825296813
 30
0.0
 40
1.0
100
AcDbArc
 50
90.0
 51
180.0
  0
ARC
  5
191
330
2
100
AcDbEntity
  8
0
100
AcDbCircle
 10
215.0202543999512
 20
94.29623825296813
 30
0.0
 40
1.0
100
AcDbArc
 50
0.0
 51
90.0
  0
LINE
  5
192
102
{ACAD_REACTORS
330
64
102
}
330
2
100
AcDbEntity
  8
HI
100
AcDbLine
 10
210.0202543999512
 20
89.79623825296721
 30
0.0
 11
213.0202543999512
 21
89.79623825296721
 31
0.0
  0
LINE
  5
193
330
2
100
AcDbEntity
  8
HI
100
AcDbLine
 10
213.0202543999512
 20
91.79623825296721
 30
0.0
 11
216.0202543999512
 21
91.79623825296721
 31
0.0
  0
LINE
  5
194
330
2
100
AcDbEntity
  8
CEN
100
AcDbLine
 10
205.0202543999512
 20
64.79623825296721
 30
0.0
 11
221.0202543999512
 21
64.79623825296721
 31
0.0
  0
LINE
  5
195
330
2
100
AcDbEntity
  8
0
 62
    35
100
AcDbLine
 10
210.0202543999512
 20
72.79623825296903
 30
0.0
 11
216.0202543999512
 21
72.79623825296903
 31
0.0
  0
LINE
  5
196
330
2
100
AcDbEntity
  8
0
 62
    35
100
AcDbLine
 10
211.0202543999512
 20
68.79623825296812
 30
0.0
 11
210.0202543999512
 21
72.79623825296903
 31
0.0
  0
LINE
  5
197
330
2
100
AcDbEntity
  8
0
 62
    35
100
AcDbLine
 10
211.0202543999512
 20
68.79623825296812
 30
0.0
 11
216.0202543999512
 21
68.79623825296812
 31
0.0
  0
DIMENSION
  5
198
102
{ACAD_XDICTIONARY
360
199
102
}
102
{ACAD_REACTORS
330
19A
102
}
330
2
100
AcDbEntity
  8
0
100
AcDbDimension
  2
*D37
 10
216.0202543999512
 20
109.5181479194081
 30
0.0
 11
229.5202543999512
 21
109.5181479194081
 31
0.0
 70
   160
  3
STANDARD
100
AcDbAlignedDimension
 13
213.0202543999512
 23
91.79623825296721
 33
0.0
 14
216.0202543999512
 24
93.40184471023325
 34
0.0
100
AcDbRotatedDimension
  0
LINE
  5
1A9
330
2
100
AcDbEntity
  8
CEN
100
AcDbLine
 10
106.6494175475354
 20
157.26922948385
 30
0.0
 11
118.6494175475336
 21
157.26922948385
 31
0.0
  0
ARC
  5
1AA
330
2
100
AcDbEntity
  8
0
100
AcDbCircle
 10
106.6494175475354
 20
157.2692294838491
 30
0.0
 40
15.0
100
AcDbArc
 50
270.0000000000001
 51
0.0
  0
LINE
  5
1AB
330
2
100
AcDbEntity
  8
0
100
AcDbLine
 10
105.6494175475336
 20
166.26922948385
 30
0.0
 11
105.6494175475336
 21
142.2692294838491
 31
0.0
  0
DIMENSION
  5
1AC
102
{ACAD_XDICTIONARY
360
1AD
102
}
102
{ACAD_REACTORS
330
1AE
102
}
330
2
100
AcDbEntity
  8
0
100
AcDbDimension
  2
*D48
 10
135.7878480460613
 20
157.26922948385
 30
0.0
 11
135.7878480460612
 21
149.7692294838491
 31
0.0
 70
   160
  3
STANDARD
100
AcDbAlignedDimension
 13
106.6494175475354
 23
142.2692294838491
 33
0.0
 14
118.6494175475336
 24
157.26922948385
 34
0.0
 50
90.0
100
AcDbRotatedDimension
  0
LINE
  5
1BB
330
2
100
AcDbEntity
  8
0
100
AcDbLine
 10
102.1494175475336
 20
166.26922948385
 30
0.0
 11
105.6494175475336
 21
166.26922948385
 31
0.0
  0
LINE
  5
1BC
330
2
100
AcDbEntity
  8
0
100
AcDbLine
 10
111.1994175475347
 20
155.01922948385
 30
0.0
 11
114.0994175475334
 21
155.01922948385
 31
0.0
  0
ARC
  5
1BD
330
2
100
AcDbEntity
  8
0
100
AcDbCircle
 10
111.1994175475347
 20
157.26922948385
 30
0.0
 40
2.25
100
AcDbArc
 50
90.0
 51
270.0
  0
LINE
  5
1BE
330
2
100
AcDbEntity
  8
0
100
AcDbLine
 10
111.1994175475347
 20
159.51922948385
 30
0.0
 11
114.0994175475334
 21
159.51922948385
 31
0.0
  0
ARC
  5
1BF
330
2
100
AcDbEntity
  8
0
100
AcDbCircle
 10
114.0994175475334
 20
157.26922948385
 30
0.0
 40
2.25
100
AcDbArc
 50
270.0
 51
90.0
  0
DIMENSION
  5
1C0
102
{ACAD_XDICTIONARY
360
1C1
102
}
102
{ACAD_REACTORS
330
1C2
102
}
330
2
100
AcDbEntity
  8
0
100
AcDbDimension
  2
*D41
 10
112.6494175475354
 20
219.2864289471701
 30
0.0
 11
71.64941754753363
 21
219.2864289471701
 31
0.0
 70
   160
  3
STANDARD
100
AcDbAlignedDimension
 13
30.64941754753545
 23
197.2692294838491
 33
0.0
 14
112.6494175475354
 24
197.2692294838491
 34
0.0
100
AcDbRotatedDimension
  0
LINE
  5
1CF
330
2
100
AcDbEntity
  8
0
100
AcDbLine
 10
98.64941754753544
 20
192.2692294838491
 30
0.0
 11
111.6494175475336
 21
192.2692294838491
 31
0.0
  0
LINE
  5
1D0
330
2
100
AcDbEntity
  8
0
100
AcDbLine
 10
29.19941754753472
 20
184.5192294838509
 30
0.0
 11
32.09941754753344
 21
184.5192294838509
 31
0.0
  0
LINE
  5
1D1
330
2
100
AcDbEntity
  8
0
100
AcDbLine
 10
29.19941754753472
 20
180.0192294838509
 30
0.0
 11
32.09941754753344
 21
180.0192294838509
 31
0.0
  0
LINE
  5
1D2
102
{ACAD_REACTORS
330
1D5
102
}
330
2
100
AcDbEntity
  8
CEN
100
AcDbLine
 10
24.64941754753545
 20
182.26922948385
 30
0.0
 11
36.64941754753363
 21
182.26922948385
 31
0.0
  0
DIMENSION
  5
1D3
102
{ACAD_XDICTIONARY
360
1D4
102
}
102
{ACAD_REACTORS
330
1D5
102
}
330
2
100
AcDbEntity
  8
0
100
AcDbDimension
  2
*D42
 10
34.34941754753344
 20
203.7826534144712
 30
0.0
 11
14.9198658305022
 21
203.7826534144712
 31
0.0
 70
   160
  3
STANDARD
100
AcDbAlignedDimension
 13
26.94941754753472
 23
182.26922948385
 33
0.0
 14
34.34941754753344
 24
182.26922948385
 34
0.0
100
AcDbRotatedDimension
  0
ARC
  5
1E4
330
2
100
AcDbEntity
  8
0
100
AcDbCircle
 10
31.64941754753636
 20
182.26922948385
 30
0.0
 40
10.0
100
AcDbArc
 50
90.0
 51
180.0
  0
ARC
  5
1E5
102
{ACAD_REACTORS
330
10D
330
1D5
102
}
330
2
100
AcDbEntity
  8
0
100
AcDbCircle
 10
29.19941754753472
 20
182.26922948385
 30
0.0
 40
2.25
100
AcDbArc
 50
90.0
 51
270.0
  0
LINE
  5
1E6
330
2
100
AcDbEntity
  8
0
100
AcDbLine
 10
31.64941754753636
 20
192.2692294838491
 30
0.0
 11
44.64941754753363
 21
192.2692294838491
 31
0.0
  0
ARC
  5
1E7
102
{ACAD_REACTORS
330
1D5
102
}
330
2
100
AcDbEntity
  8
0
100
AcDbCircle
 10
32.09941754753344
 20
182.26922948385
 30
0.0
 40
2.25
100
AcDbArc
 50
270.0
 51
90.0
  0
ARC
  5
1E8
330
2
100
AcDbEntity
  8
0
100
AcDbCircle
 10
44.64941754753363
 20
184.26922948385
 30
0.0
 40
8.0
100
AcDbArc
 50
0.0
 51
90.0
  0
ARC
  5
1E9
102
{ACAD_REACTORS
330
1FB
102
}
330
2
100
AcDbEntity
  8
0
100
AcDbCircle
 10
98.64941754753544
 20
184.26922948385
 30
0.0
 40
8.0
100
AcDbArc
 50
90.0
 51
180.0
  0
DIMENSION
  5
1EA
102
{ACAD_XDICTIONARY
360
1EB
102
}
102
{ACAD_REACTORS
330
1EC
102
}
330
2
100
AcDbEntity
  8
0
100
AcDbDimension
  2
*D45
 10
90.64941754753546
 20
208.9190632028492
 30
0.0
 11
71.64941754753363
 21
208.9190632028492
 31
0.0
 70
   160
  3
STANDARD
100
AcDbAlignedDimension
 13
52.64941754753545
 23
184.26922948385
 33
0.0
 14
90.64941754753546
 24
184.26922948385
 34
0.0
100
AcDbRotatedDimension
  0
DIMENSION
  5
1F9
102
{ACAD_XDICTIONARY
360
1FA
102
}
102
{ACAD_REACTORS
330
1FB
102
}
330
2
100
AcDbEntity
  8
0
100
AcDbDimension
  2
*D44
 10
98.64941754753544
 20
184.26922948385
 30
0.0
 11
81.05832289442693
 21
200.0660039262098
 31
0.0
 70
   164
  3
STANDARD
100
AcDbRadialDimension
 15
92.69714382805737
 25
189.6143616214436
 35
0.0
 40
0.0
  0
LINE
  5
205
330
2
100
AcDbEntity
  8
CEN
100
AcDbLine
 10
106.6494175475354
 20
182.26922948385
 30
0.0
 11
118.6494175475336
 21
182.26922948385
 31
0.0
  0
LINE
  5
206
330
2
100
AcDbEntity
  8
0
100
AcDbLine
 10
111.1994175475347
 20
180.0192294838509
 30
0.0
 11
114.0994175475334
 21
180.0192294838509
 31
0.0
  0
ARC
  5
207
330
2
100
AcDbEntity
  8
0
100
AcDbCircle
 10
111.1994175475347
 20
182.26922948385
 30
0.0
 40
2.25
100
AcDbArc
 50
90.0
 51
270.0
  0
LINE
  5
208
330
2
100
AcDbEntity
  8
0
100
AcDbLine
 10
111.1994175475347
 20
184.5192294838509
 30
0.0
 11
114.0994175475334
 21
184.5192294838509
 31
0.0
  0
ARC
  5
209
330
2
100
AcDbEntity
  8
0
100
AcDbCircle
 10
114.0994175475334
 20
182.26922948385
 30
0.0
 40
2.25
100
AcDbArc
 50
270.0
 51
90.0
  0
ARC
  5
20A
102
{ACAD_REACTORS
330
20D
102
}
330
2
100
AcDbEntity
  8
0
100
AcDbCircle
 10
111.6494175475336
 20
182.26922948385
 30
0.0
 40
10.0
100
AcDbArc
 50
0.0
 51
90.0
  0
DIMENSION
  5
20B
102
{ACAD_XDICTIONARY
360
20C
102
}
102
{ACAD_REACTORS
330
20D
102
}
330
2
100
AcDbEntity
  8
0
100
AcDbDimension
  2
*D47
 10
111.6494175475336
 20
182.26922948385
 30
0.0
 11
132.6770662707131
 21
200.431935987619
 31
0.0
 70
   164
  3
STANDARD
100
AcDbRadialDimension
 15
119.2172088617891
 25
188.8059361947186
 35
0.0
 40
0.0
  0
ENDSEC
  0
SECTION
  2
OBJECTS
  0
DICTIONARY
  5
8
330
0
100
AcDbDictionary
  3
ACAD_GROUP
350
25
  3
ACAD_LAYOUT
350
C
  3
ACAD_MLINESTYLE
350
26
  3
ACAD_PLOTSETTINGS
350
27
  3
ACAD_PLOTSTYLENAME
350
7
  3
ACDBHEADERROUNDTRIPXREC
350
377
  3
ACDBVARIABLEDICTIONARY
350
217
  0
DICTIONARY
  5
13
330
12
100
AcDbDictionary
280
     1
  3
ACAD_LAYERFILTERS
360
14
  3
ACAD_LAYERSTATES
360
15
  0
DICTIONARY
  5
3
330
2
100
AcDbDictionary
280
     1
  3
ACAD_LAYOUTSELFREF
360
398
  0
DICTIONARY
  5
E
330
D
100
AcDbDictionary
280
     1
  3
ACAD_LAYOUTSELFREF
360
399
  0
DICTIONARY
  5
2A
330
29
100
AcDbDictionary
280
     1
  3
ACAD_DIMASSOC
360
2B
  0
DICTIONARY
  5
3C
330
3B
100
AcDbDictionary
280
     1
  3
ACAD_DIMASSOC
360
3D
  0
DICTIONARY
  5
4F
330
4E
100
AcDbDictionary
280
     1
  3
ACAD_DIMASSOC
360
50
  0
DICTIONARY
  5
63
330
62
100
AcDbDictionary
280
     1
  3
ACAD_DIMASSOC
360
64
  0
DICTIONARY
  5
72
330
71
100
AcDbDictionary
280
     1
  3
ACAD_DIMASSOC
360
73
  0
DICTIONARY
  5
81
330
80
100
AcDbDictionary
280
     1
  3
ACAD_DIMASSOC
360
82
  0
DICTIONARY
  5
90
330
8F
100
AcDbDictionary
280
     1
  3
ACAD_DIMASSOC
360
91
  0
DICTIONARY
  5
CD
330
CC
100
AcDbDictionary
280
     1
  3
ACAD_DIMASSOC
360
CE
  0
DICTIONARY
  5
FD
330
FC
100
AcDbDictionary
280
     1
  3
ACAD_DIMASSOC
360
FE
  0
DICTIONARY
  5
10C
330
10B
100
AcDbDictionary
280
     1
  3
ACAD_DIMASSOC
360
10D
  0
DICTIONARY
  5
131
330
130
100
AcDbDictionary
280
     1
  3
ACAD_DIMASSOC
360
132
  0
DICTIONARY
  5
17B
330
17A
100
AcDbDictionary
280
     1
  3
ACAD_DIMASSOC
360
17C
  0
DICTIONARY
  5
199
330
198
100
AcDbDictionary
280
     1
  3
ACAD_DIMASSOC
360
19A
  0
DICTIONARY
  5
1AD
330
1AC
100
AcDbDictionary
280
     1
  3
ACAD_DIMASSOC
360
1AE
  0
DICTIONARY
  5
1C1
330
1C0
100
AcDbDictionary
280
     1
  3
ACAD_DIMASSOC
360
1C2
  0
DICTIONARY
  5
1D4
330
1D3
100
AcDbDictionary
280
     1
  3
ACAD_DIMASSOC
360
1D5
  0
DICTIONARY
  5
1EB
330
1EA
100
AcDbDictionary
280
     1
  3
ACAD_DIMASSOC
360
1EC
  0
DICTIONARY
  5
1FA
330
1F9
100
AcDbDictionary
280
     1
  3
ACAD_DIMASSOC
360
1FB
  0
DICTIONARY
  5
20C
330
20B
100
AcDbDictionary
280
     1
  3
ACAD_DIMASSOC
360
20D
  0
DICTIONARY
  5
25
102
{ACAD_REACTORS
330
8
102
}
330
8
100
AcDbDictionary
  0
DICTIONARY
  5
C
102
{ACAD_REACTORS
330
8
102
}
330
8
100
AcDbDictionary
  0
DICTIONARY
  5
26
102
{ACAD_REACTORS
330
8
102
}
330
8
100
AcDbDictionary
  3
STANDARD
350
28
  0
DICTIONARY
  5
27
102
{ACAD_REACTORS
330
8
102
}
330
8
100
AcDbDictionary
  0
ACDBDICTIONARYWDFLT
  5
7
102
{ACAD_REACTORS
330
8
102
}
330
8
100
AcDbDictionary
281
     1
  3
Normal
350
6
100
AcDbDictionaryWithDefault
340
6
  0
DICTIONARY
  5
377
102
{ACAD_REACTORS
330
8
102
}
330
8
100
AcDbDictionary
  3
CEPSNTYPE
350
381
  3
DIMSTYLEDATA
350
385
  3
FINGERPRINTGUID
350
382
  3
HYPERLINKBASE
350
37A
  3
INSUNITS
350
380
  3
LAYOUTDICT
350
37C
  3
LWETCUNION
350
37F
  3
PLOTSETDICT
350
37D
  3
PLOTSTYLNAMDICT
350
37E
  3
PSVPSCALE
350
384
  3
PUCSBASE
350
388
  3
PUCSORGBACK
350
38E
  3
PUCSORGBOTTOM
350
38A
  3
PUCSORGFRONT
350
38D
  3
PUCSORGLEFT
350
38B
  3
PUCSORGRIGHT
350
38C
  3
PUCSORGTOP
350
389
  3
PUCSORTHOREF
350
386
  3
PUCSORTHOVIEW
350
387
  3
STYLESHEET
350
37B
  3
TSTACKALIGN
350
378
  3
TSTACKSIZE
350
379
  3
UCSBASE
350
391
  3
UCSORGBACK
350
397
  3
UCSORGBOTTOM
350
393
  3
UCSORGFRONT
350
396
  3
UCSORGLEFT
350
394
  3
UCSORGRIGHT
350
395
  3
UCSORGTOP
350
392
  3
UCSORTHOREF
350
38F
  3
UCSORTHOVIEW
350
390
  3
VERSIONGUID
350
383
  0
DICTIONARY
  5
217
102
{ACAD_REACTORS
330
8
102
}
330
8
100
AcDbDictionary
  3
DIMASSOC
350
219
  3
HIDETEXT
350
218
  0
DICTIONARY
  5
14
102
{ACAD_REACTORS
330
13
102
}
330
13
100
AcDbDictionary
280
     1
  0
DICTIONARY
  5
15
102
{ACAD_REACTORS
330
13
102
}
330
13
100
AcDbDictionary
  0
XRECORD
  5
398
102
{ACAD_REACTORS
330
3
102
}
330
3
100
AcDbXrecord
340
2
  0
XRECORD
  5
399
102
{ACAD_REACTORS
330
E
102
}
330
E
100
AcDbXrecord
340
D
  0
DIMASSOC
  5
2B
102
{ACAD_REACTORS
330
2A
102
}
330
2A
100
AcDbDimAssoc
330
29
 90
        2
 70
     0
 71
     0
  1
AcDbOsnapPointRef
 72
     3
331
39
 73
     2
 91
        0
 40
0.0
 10
71.64941754753363
 20
64.79623825296721
 30
0.0
 75
     0
  0
DIMASSOC
  5
3D
102
{ACAD_REACTORS
330
3C
102
}
330
3C
100
AcDbDimAssoc
330
3B
 90
        1
 70
     0
 71
     0
  1
AcDbOsnapPointRef
 72
    13
331
C1
 73
     2
 91
        0
 40
0.0
 10
22.64941754753544
 20
26.79623825296812
 30
0.0
 75
     0
  0
DIMASSOC
  5
50
102
{ACAD_REACTORS
330
4F
102
}
330
4F
100
AcDbDimAssoc
330
4E
 90
        2
 70
     0
 71
     0
  1
AcDbOsnapPointRef
 72
     3
331
15E
 73
     2
 91
        0
 40
0.0
 10
71.64941754912161
 20
64.79623881984412
 30
0.0
 75
     0
  0
DIMASSOC
  5
64
102
{ACAD_REACTORS
330
63
102
}
330
63
100
AcDbDimAssoc
330
62
 90
        3
 70
     0
 71
     0
  1
AcDbOsnapPointRef
 72
    13
331
F6
 73
     2
 91
        0
 40
0.0
 10
210.0202543999512
 20
39.79623825296721
 30
0.0
 75
     0
  1
AcDbOsnapPointRef
 72
     6
331
38
 73
     2
 91
        0
 40
0.0756302521008556
 10
210.0202543999512
 20
89.79623825296721
 30
0.0
332
192
 74
     2
 92
        0
 75
     0
  0
DIMASSOC
  5
73
102
{ACAD_REACTORS
330
72
102
}
330
72
100
AcDbDimAssoc
330
71
 90
        3
 70
     0
 71
     0
  1
AcDbOsnapPointRef
 72
    13
331
60
 73
     2
 91
        0
 40
0.0
 10
213.0202543999512
 20
91.79623825296721
 30
0.0
 75
     0
  1
AcDbOsnapPointRef
 72
     1
331
60
 73
     2
 91
        0
 40
1.0
 10
213.0202543999512
 20
37.79623938672216
 30
0.0
 75
     0
  0
DIMASSOC
  5
82
102
{ACAD_REACTORS
330
81
102
}
330
81
100
AcDbDimAssoc
330
80
 90
        3
 70
     0
 71
     0
  1
AcDbOsnapPointRef
 72
     1
331
BE
 73
     2
 91
        0
 40
1.0
 10
120.6494175475354
 20
26.79623825296721
 30
0.0
 75
     0
  1
AcDbOsnapPointRef
 72
     1
331
165
 73
     2
 91
        0
 40
1.0
 10
97.14941754753546
 20
95.29623825296608
 30
0.0
 75
     0
  0
DIMASSOC
  5
91
102
{ACAD_REACTORS
330
90
102
}
330
90
100
AcDbDimAssoc
330
8F
 90
        3
 70
     0
 71
     0
  1
AcDbOsnapPointRef
 72
    13
331
C1
 73
     2
 91
        0
 40
0.0
 10
22.64941754753544
 20
26.79623825296812
 30
0.0
 75
     0
  1
AcDbOsnapPointRef
 72
    13
331
162
 73
     2
 91
        0
 40
0.0
 10
24.40231697205308
 20
64.79623825296721
 30
0.0
 75
     0
  0
DIMASSOC
  5
CE
102
{ACAD_REACTORS
330
CD
102
}
330
CD
100
AcDbDimAssoc
330
CC
 90
        3
 70
     0
 71
     0
  1
AcDbOsnapPointRef
 72
     1
331
C8
 73
     2
 91
        0
 40
0.9999999999999998
 10
97.64941754753545
 20
26.79623825296721
 30
0.0
 75
     0
  1
AcDbOsnapPointRef
 72
    10
331
C9
 73
     2
 91
        0
 40
0.9662547971429095
 10
94.96215740467912
 20
27.79623825296724
 30
0.0
 75
     0
  0
DIMASSOC
  5
FE
102
{ACAD_REACTORS
330
FD
102
}
330
FD
100
AcDbDimAssoc
330
FC
 90
        3
 70
     0
 71
     0
  1
AcDbOsnapPointRef
 72
    13
331
3A
 73
     2
 91
        0
 40
0.0
 10
234.0202543999512
 20
34.79623825296812
 30
0.0
 75
     0
  1
AcDbOsnapPointRef
 72
    13
331
F9
 73
     2
 91
        0
 40
0.0
 10
260.0202543999512
 20
34.29623825296812
 30
0.0
 75
     0
  0
DIMASSOC
  5
10D
102
{ACAD_REACTORS
330
10C
102
}
330
10C
100
AcDbDimAssoc
330
10B
 90
        3
 70
     0
 71
     0
  1
AcDbOsnapPointRef
 72
     1
331
1E5
 73
     2
 91
        0
 40
4.712388980384688
 10
29.19941754753472
 20
180.01922948385
 30
0.0
 75
     0
  1
AcDbOsnapPointRef
 72
    13
331
1E5
 73
     2
 91
        0
 40
1.570796326794896
 10
29.19941754753472
 20
184.51922948385
 30
0.0
 75
     0
  0
DIMASSOC
  5
132
102
{ACAD_REACTORS
330
131
102
}
330
131
100
AcDbDimAssoc
330
130
 90
        2
 70
     0
 71
     0
  1
AcDbOsnapPointRef
 72
    10
331
175
 73
     2
 91
        0
 40
0.1356719083647476
 10
60.71957479847763
 20
159.2692294838491
 30
0.0
 75
     0
  0
DIMASSOC
  5
17C
102
{ACAD_REACTORS
330
17B
102
}
330
17B
100
AcDbDimAssoc
330
17A
 90
        3
 70
     0
 71
     0
  1
AcDbOsnapPointRef
 72
    13
331
38
 73
     2
 91
        0
 40
0.0
 10
210.0202543999512
 20
94.29623825296813
 30
0.0
 75
     0
  1
AcDbOsnapPointRef
 72
    13
331
18E
 73
     2
 91
        0
 40
0.0
 10
216.0202543999512
 20
94.29623825296813
 30
0.0
 75
     0
  0
DIMASSOC
  5
19A
102
{ACAD_REACTORS
330
199
102
}
330
199
100
AcDbDimAssoc
330
198
 90
        3
 70
     0
 71
     0
  1
AcDbOsnapPointRef
 72
    13
331
60
 73
     2
 91
        0
 40
0.0
 10
213.0202543999512
 20
91.79623825296721
 30
0.0
 75
     0
  1
AcDbOsnapPointRef
 72
    10
331
18E
 73
     2
 91
        0
 40
0.0350742565778466
 10
216.0202543999512
 20
93.40184471023304
 30
0.0
 75
     0
  0
DIMASSOC
  5
1AE
102
{ACAD_REACTORS
330
1AD
102
}
330
1AD
100
AcDbDimAssoc
330
1AC
 90
        1
 70
     0
 71
     0
  1
AcDbOsnapPointRef
 72
     1
331
143
 73
     2
 91
        0
 40
1.0
 10
106.6494175475354
 20
142.2692294838491
 30
0.0
 75
     0
  0
DIMASSOC
  5
1C2
102
{ACAD_REACTORS
330
1C1
102
}
330
1C1
100
AcDbDimAssoc
330
1C0
 90
        3
 70
     0
 71
     0
  1
AcDbOsnapPointRef
 72
     1
331
11F
 73
     2
 91
        0
 40
1.0
 10
30.64941754753545
 20
197.2692294838491
 30
0.0
 75
     0
  1
AcDbOsnapPointRef
 72
     1
331
120
 73
     2
 91
        0
 40
1.0
 10
112.6494175475354
 20
197.2692294838491
 30
0.0
 75
     0
  0
DIMASSOC
  5
1D5
102
{ACAD_REACTORS
330
1D4
102
}
330
1D4
100
AcDbDimAssoc
330
1D3
 90
        3
 70
     0
 71
     0
  1
AcDbOsnapPointRef
 72
     6
331
1D2
 73
     2
 91
        0
 40
0.1666666666666666
 10
26.94941754753472
 20
182.26922948385
 30
0.0
332
1E5
 74
     2
 92
        0
 75
     0
  1
AcDbOsnapPointRef
 72
     6
331
1D2
 73
     2
 91
        0
 40
0.8333333333333332
 10
34.34941754753344
 20
182.26922948385
 30
0.0
332
1E7
 74
     2
 92
        0
 75
     0
  0
DIMASSOC
  5
1EC
102
{ACAD_REACTORS
330
1EB
102
}
330
1EB
100
AcDbDimAssoc
330
1EA
 90
        2
 70
     0
 71
     0
  1
AcDbOsnapPointRef
 72
     1
331
12F
 73
     2
 91
        0
 40
1.0
 10
90.64941754753546
 20
184.26922948385
 30
0.0
 75
     0
  0
DIMASSOC
  5
1FB
102
{ACAD_REACTORS
330
1FA
102
}
330
1FA
100
AcDbDimAssoc
330
1F9
 90
        2
 70
     0
 71
     0
  1
AcDbOsnapPointRef
 72
     3
331
1E9
 73
     2
 91
        0
 40
0.0
 10
98.64941754753544
 20
184.26922948385
 30
0.0
 75
     0
  0
DIMASSOC
  5
20D
102
{ACAD_REACTORS
330
20C
102
}
330
20C
100
AcDbDimAssoc
330
20B
 90
        2
 70
     0
 71
     0
  1
AcDbOsnapPointRef
 72
     3
331
20A
 73
     2
 91
        0
 40
0.0
 10
111.6494175475336
 20
182.26922948385
 30
0.0
 75
     0
  0
MLINESTYLE
  5
28
102
{ACAD_REACTORS
330
26
102
}
330
26
100
AcDbMlineStyle
  2
STANDARD
 70
     0
  3

 62
   256
 51
90.0
 52
90.0
 71
     2
 49
0.5
 62
   256
  6
BYLAYER
 49
-0.5
 62
   256
  6
BYLAYER
  0
ACDBPLACEHOLDER
  5
6
102
{ACAD_REACTORS
330
7
102
}
330
7
100
AcDbPlaceHolder
280
     0
  0
XRECORD
  5
381
102
{ACAD_REACTORS
330
377
102
}
330
377
100
AcDbXrecord
 90
        0
  0
XRECORD
  5
385
102
{ACAD_REACTORS
330
377
102
}
330
377
100
AcDbXrecord
1000
DSTYLE
1002
{
1070
    79
 70
     2
1070
   179
 70
     1
1070
   289
 70
     0
1002
}
  0
XRECORD
  5
382
102
{ACAD_REACTORS
330
377
102
}
330
377
100
AcDbXrecord
  1
{FDEAD578-A652-11D2-9A35-0060089B3A3F}
  0
XRECORD
  5
37A
102
{ACAD_REACTORS
330
377
102
}
330
377
100
AcDbXrecord
  1

  0
XRECORD
  5
380
102
{ACAD_REACTORS
330
377
102
}
330
377
100
AcDbXrecord
 90
        4
  0
XRECORD
  5
37C
102
{ACAD_REACTORS
330
377
102
}
330
377
100
AcDbXrecord
340
C
  0
XRECORD
  5
37F
102
{ACAD_REACTORS
330
377
102
}
330
377
100
AcDbXrecord
 90
    10781
  0
XRECORD
  5
37D
102
{ACAD_REACTORS
330
377
102
}
330
377
100
AcDbXrecord
340
27
  0
XRECORD
  5
37E
102
{ACAD_REACTORS
330
377
102
}
330
377
100
AcDbXrecord
340
7
  0
XRECORD
  5
384
102
{ACAD_REACTORS
330
377
102
}
330
377
100
AcDbXrecord
 40
0.0
  0
XRECORD
  5
388
102
{ACAD_REACTORS
330
377
102
}
330
377
100
AcDbXrecord
340
0
  0
XRECORD
  5
38E
102
{ACAD_REACTORS
330
377
102
}
330
377
100
AcDbXrecord
 10
0.0
 20
0.0
 30
0.0
  0
XRECORD
  5
38A
102
{ACAD_REACTORS
330
377
102
}
330
377
100
AcDbXrecord
 10
0.0
 20
0.0
 30
0.0
  0
XRECORD
  5
38D
102
{ACAD_REACTORS
330
377
102
}
330
377
100
AcDbXrecord
 10
0.0
 20
0.0
 30
0.0
  0
XRECORD
  5
38B
102
{ACAD_REACTORS
330
377
102
}
330
377
100
AcDbXrecord
 10
0.0
 20
0.0
 30
0.0
  0
XRECORD
  5
38C
102
{ACAD_REACTORS
330
377
102
}
330
377
100
AcDbXrecord
 10
0.0
 20
0.0
 30
0.0
  0
XRECORD
  5
389
102
{ACAD_REACTORS
330
377
102
}
330
377
100
AcDbXrecord
 10
0.0
 20
0.0
 30
0.0
  0
XRECORD
  5
386
102
{ACAD_REACTORS
330
377
102
}
330
377
100
AcDbXrecord
340
0
  0
XRECORD
  5
387
102
{ACAD_REACTORS
330
377
102
}
330
377
100
AcDbXrecord
 70
     0
  0
XRECORD
  5
37B
102
{ACAD_REACTORS
330
377
102
}
330
377
100
AcDbXrecord
  1

  0
XRECORD
  5
378
102
{ACAD_REACTORS
330
377
102
}
330
377
100
AcDbXrecord
 90
        1
  0
XRECORD
  5
379
102
{ACAD_REACTORS
330
377
102
}
330
377
100
AcDbXrecord
 90
       70
  0
XRECORD
  5
391
102
{ACAD_REACTORS
330
377
102
}
330
377
100
AcDbXrecord
340
0
  0
XRECORD
  5
397
102
{ACAD_REACTORS
330
377
102
}
330
377
100
AcDbXrecord
 10
0.0
 20
0.0
 30
0.0
  0
XRECORD
  5
393
102
{ACAD_REACTORS
330
377
102
}
330
377
100
AcDbXrecord
 10
0.0
 20
0.0
 30
0.0
  0
XRECORD
  5
396
102
{ACAD_REACTORS
330
377
102
}
330
377
100
AcDbXrecord
 10
0.0
 20
0.0
 30
0.0
  0
XRECORD
  5
394
102
{ACAD_REACTORS
330
377
102
}
330
377
100
AcDbXrecord
 10
0.0
 20
0.0
 30
0.0
  0
XRECORD
  5
395
102
{ACAD_REACTORS
330
377
102
}
330
377
100
AcDbXrecord
 10
0.0
 20
0.0
 30
0.0
  0
XRECORD
  5
392
102
{ACAD_REACTORS
330
377
102
}
330
377
100
AcDbXrecord
 10
0.0
 20
0.0
 30
0.0
  0
XRECORD
  5
38F
102
{ACAD_REACTORS
330
377
102
}
330
377
100
AcDbXrecord
340
0
  0
XRECORD
  5
390
102
{ACAD_REACTORS
330
377
102
}
330
377
100
AcDbXrecord
 70
     0
  0
XRECORD
  5
383
102
{ACAD_REACTORS
330
377
102
}
330
377
100
AcDbXrecord
  1
{D4CC4D6F-FDEF-4A0D-BDF3-A91BADD749F1}
  0
DICTIONARYVAR
  5
219
102
{ACAD_REACTORS
330
217
102
}
330
217
100
DictionaryVariables
280
     0
  1
2
  0
DICTIONARYVAR
  5
218
102
{ACAD_REACTORS
330
217
102
}
330
217
100
DictionaryVariables
280
     0
  1
1
  0
ENDSEC
  0
EOF
