  0
SECTION
  2
HEADER
  9
$ACADVER
  1
AC1015
  9
$ACADMAINTVER
 70
    20
  9
$DWGCODEPAGE
  3
ANSI_949
  9
$INSBASE
 10
21114.93707611169
 20
-1393.042849301519
 30
0.0
  9
$EXTMIN
 10
-110.3172033711387
 20
-155.4273279461961
 30
-0.0015258207003583
  9
$EXTMAX
 10
119.9740417109831
 20
142.3802792625099
 30
0.0000000349246037
  9
$LIMMIN
 10
0.0
 20
0.0
  9
$LIMMAX
 10
420.0
 20
297.0
  9
$ORTHOMODE
 70
     0
  9
$REGENMODE
 70
     1
  9
$FILLMODE
 70
     1
  9
$QTEXTMODE
 70
     0
  9
$MIRRTEXT
 70
     0
  9
$LTSCALE
 40
1.0
  9
$ATTMODE
 70
     1
  9
$TEXTSIZE
 40
5.777225951253058
  9
$TRACEWID
 40
1.0
  9
$TEXTSTYLE
  7
STANDARD
  9
$CLAYER
  8
0
  9
$CELTYPE
  6
BYLAYER
  9
$CECOLOR
 62
   256
  9
$CELTSCALE
 40
1.0
  9
$DISPSILH
 70
     0
  9
$DIMSCALE
 40
1.0
  9
$DIMASZ
 40
3.0
  9
$DIMEXO
 40
1.0
  9
$DIMDLI
 40
10.0
  9
$DIMRND
 40
0.0
  9
$DIMDLE
 40
0.0
  9
$DIMEXE
 40
0.6
  9
$DIMTP
 40
0.0
  9
$DIMTM
 40
0.0
  9
$DIMTXT
 40
3.5
  9
$DIMCEN
 40
0.09
  9
$DIMTSZ
 40
0.0
  9
$DIMTOL
 70
     0
  9
$DIMLIM
 70
     0
  9
$DIMTIH
 70
     0
  9
$DIMTOH
 70
     0
  9
$DIMSE1
 70
     0
  9
$DIMSE2
 70
     0
  9
$DIMTAD
 70
     1
  9
$DIMZIN
 70
     8
  9
$DIMBLK
  1

  9
$DIMASO
 70
     1
  9
$DIMSHO
 70
     1
  9
$DIMPOST
  1

  9
$DIMAPOST
  1

  9
$DIMALT
 70
     0
  9
$DIMALTD
 70
     2
  9
$DIMALTF
 40
25.4
  9
$DIMLFAC
 40
1.0
  9
$DIMTOFL
 70
     1
  9
$DIMTVP
 40
0.0
  9
$DIMTIX
 70
     1
  9
$DIMSOXD
 70
     0
  9
$DIMSAH
 70
     0
  9
$DIMBLK1
  1

  9
$DIMBLK2
  1

  9
$DIMSTYLE
  2
1_1_2
  9
$DIMCLRD
 70
   123
  9
$DIMCLRE
 70
   123
  9
$DIMCLRT
 70
     3
  9
$DIMTFAC
 40
1.0
  9
$DIMGAP
 40
1.0
  9
$DIMJUST
 70
     0
  9
$DIMSD1
 70
     0
  9
$DIMSD2
 70
     0
  9
$DIMTOLJ
 70
     1
  9
$DIMTZIN
 70
     0
  9
$DIMALTZ
 70
     0
  9
$DIMALTTZ
 70
     0
  9
$DIMUPT
 70
     1
  9
$DIMDEC
 70
     2
  9
$DIMTDEC
 70
     2
  9
$DIMALTU
 70
     2
  9
$DIMALTTD
 70
     2
  9
$DIMTXSTY
  7
STANDARD
  9
$DIMAUNIT
 70
     1
  9
$DIMADEC
 70
     1
  9
$DIMALTRND
 40
0.0
  9
$DIMAZIN
 70
     2
  9
$DIMDSEP
 70
    46
  9
$DIMATFIT
 70
     3
  9
$DIMFRAC
 70
     0
  9
$DIMLDRBLK
  1

  9
$DIMLUNIT
 70
     2
  9
$DIMLWD
 70
    -2
  9
$DIMLWE
 70
    -2
  9
$DIMTMOVE
 70
     0
  9
$LUNITS
 70
     2
  9
$LUPREC
 70
     4
  9
$SKETCHINC
 40
1.0
  9
$FILLETRAD
 40
0.5
  9
$AUNITS
 70
     0
  9
$AUPREC
 70
     0
  9
$MENU
  1
.
  9
$ELEVATION
 40
0.0
  9
$PELEVATION
 40
0.0
  9
$THICKNESS
 40
0.0
  9
$LIMCHECK
 70
     0
  9
$CHAMFERA
 40
1.0
  9
$CHAMFERB
 40
1.0
  9
$CHAMFERC
 40
20.0
  9
$CHAMFERD
 40
0.0
  9
$SKPOLY
 70
     0
  9
$TDCREATE
 40
2452839.586179271
  9
$TDUCREATE
 40
2452839.211179271
  9
$TDUPDATE
 40
2456237.787272616
  9
$TDUUPDATE
 40
2456237.412272616
  9
$TDINDWG
 40
11.1183678125
  9
$TDUSRTIMER
 40
11.1183678125
  9
$USRTIMER
 70
     1
  9
$ANGBASE
 50
0.0
  9
$ANGDIR
 70
     0
  9
$PDMODE
 70
     0
  9
$PDSIZE
 40
0.0
  9
$PLINEWID
 40
0.0
  9
$SPLFRAME
 70
     0
  9
$SPLINETYPE
 70
     6
  9
$SPLINESEGS
 70
   800
  9
$HANDSEED
  5
818
  9
$SURFTAB1
 70
     6
  9
$SURFTAB2
 70
     6
  9
$SURFTYPE
 70
     6
  9
$SURFU
 70
     6
  9
$SURFV
 70
     6
  9
$UCSBASE
  2

  9
$UCSNAME
  2

  9
$UCSORG
 10
0.0
 20
0.0
 30
0.0
  9
$UCSXDIR
 10
1.0
 20
0.0
 30
0.0
  9
$UCSYDIR
 10
0.0
 20
1.0
 30
0.0
  9
$UCSORTHOREF
  2

  9
$UCSORTHOVIEW
 70
     0
  9
$UCSORGTOP
 10
0.0
 20
0.0
 30
0.0
  9
$UCSORGBOTTOM
 10
0.0
 20
0.0
 30
0.0
  9
$UCSORGLEFT
 10
0.0
 20
0.0
 30
0.0
  9
$UCSORGRIGHT
 10
0.0
 20
0.0
 30
0.0
  9
$UCSORGFRONT
 10
0.0
 20
0.0
 30
0.0
  9
$UCSORGBACK
 10
0.0
 20
0.0
 30
0.0
  9
$PUCSBASE
  2

  9
$PUCSNAME
  2

  9
$PUCSORG
 10
0.0
 20
0.0
 30
0.0
  9
$PUCSXDIR
 10
1.0
 20
0.0
 30
0.0
  9
$PUCSYDIR
 10
0.0
 20
1.0
 30
0.0
  9
$PUCSORTHOREF
  2

  9
$PUCSORTHOVIEW
 70
     0
  9
$PUCSORGTOP
 10
0.0
 20
0.0
 30
0.0
  9
$PUCSORGBOTTOM
 10
0.0
 20
0.0
 30
0.0
  9
$PUCSORGLEFT
 10
0.0
 20
0.0
 30
0.0
  9
$PUCSORGRIGHT
 10
0.0
 20
0.0
 30
0.0
  9
$PUCSORGFRONT
 10
0.0
 20
0.0
 30
0.0
  9
$PUCSORGBACK
 10
0.0
 20
0.0
 30
0.0
  9
$USERI1
 70
     0
  9
$USERI2
 70
     0
  9
$USERI3
 70
     0
  9
$USERI4
 70
     0
  9
$USERI5
 70
     0
  9
$USERR1
 40
0.0
  9
$USERR2
 40
0.0
  9
$USERR3
 40
0.0
  9
$USERR4
 40
0.0
  9
$USERR5
 40
0.0
  9
$WORLDVIEW
 70
     1
  9
$SHADEDGE
 70
     3
  9
$SHADEDIF
 70
    70
  9
$TILEMODE
 70
     1
  9
$MAXACTVP
 70
    48
  9
$PINSBASE
 10
0.0
 20
0.0
 30
0.0
  9
$PLIMCHECK
 70
     0
  9
$PEXTMIN
 10
0.0
 20
0.0
 30
0.0
  9
$PEXTMAX
 10
0.0
 20
0.0
 30
0.0
  9
$PLIMMIN
 10
0.0
 20
0.0
  9
$PLIMMAX
 10
12.0
 20
9.0
  9
$UNITMODE
 70
     0
  9
$VISRETAIN
 70
     1
  9
$PLINEGEN
 70
     0
  9
$PSLTSCALE
 70
     1
  9
$TREEDEPTH
 70
  3020
  9
$CMLSTYLE
  2
STANDARD
  9
$CMLJUST
 70
     0
  9
$CMLSCALE
 40
20.0
  9
$PROXYGRAPHICS
 70
     1
  9
$MEASUREMENT
 70
     1
  9
$CELWEIGHT
370
    -1
  9
$ENDCAPS
280
     0
  9
$JOINSTYLE
280
     0
  9
$LWDISPLAY
290
     0
  9
$INSUNITS
 70
     4
  9
$HYPERLINKBASE
  1

  9
$STYLESHEET
  1

  9
$XEDIT
290
     1
  9
$CEPSNTYPE
380
     0
  9
$PSTYLEMODE
290
     1
  9
$FINGERPRINTGUID
  2
{FDEAD578-A652-11D2-9A35-0060089B3A3F}
  9
$VERSIONGUID
  2
{729DE478-8E92-4B04-8F6F-E1E86A8DBFBC}
  9
$EXTNAMES
290
     1
  9
$PSVPSCALE
 40
0.0
  9
$OLESTARTUP
290
     0
  0
ENDSEC
  0
SECTION
  2
CLASSES
  0
CLASS
  1
ACDBDICTIONARYWDFLT
  2
AcDbDictionaryWithDefault
  3
ObjectDBX Classes
 90
        0
280
     0
281
     0
  0
CLASS
  1
ACDBPLACEHOLDER
  2
AcDbPlaceHolder
  3
ObjectDBX Classes
 90
        0
280
     0
281
     0
  0
CLASS
  1
LAYOUT
  2
AcDbLayout
  3
ObjectDBX Classes
 90
        0
280
     0
281
     0
  0
CLASS
  1
DICTIONARYVAR
  2
AcDbDictionaryVar
  3
ObjectDBX Classes
 90
        0
280
     0
281
     0
  0
CLASS
  1
DIMASSOC
  2
AcDbDimAssoc
  3
"AcDbDimAssoc|Product Desc:     AcDim ARX App For Dimension|Company:          Autodesk, Inc.|WEB Address:      www.autodesk.com"
 90
        0
280
     0
281
     0
  0
CLASS
  1
MATERIAL
  2
AcDbMaterial
  3
ObjectDBX Classes
 90
     1153
280
     0
281
     0
  0
CLASS
  1
VISUALSTYLE
  2
AcDbVisualStyle
  3
ObjectDBX Classes
 90
     4095
280
     0
281
     0
  0
CLASS
  1
TABLESTYLE
  2
AcDbTableStyle
  3
ObjectDBX Classes
 90
     4095
280
     0
281
     0
  0
CLASS
  1
SCALE
  2
AcDbScale
  3
ObjectDBX Classes
 90
     1153
280
     0
281
     0
  0
CLASS
  1
MLEADERSTYLE
  2
AcDbMLeaderStyle
  3
ACDB_MLEADERSTYLE_CLASS
 90
     4095
280
     0
281
     0
  0
CLASS
  1
CELLSTYLEMAP
  2
AcDbCellStyleMap
  3
ObjectDBX Classes
 90
     1152
280
     0
281
     0
  0
ENDSEC
  0
SECTION
  2
TABLES
  0
TABLE
  2
VPORT
  5
90
330
0
100
AcDbSymbolTable
 70
     1
  0
VPORT
  5
725
330
90
100
AcDbSymbolTableRecord
100
AcDbViewportTableRecord
  2
*ACTIVE
 70
     0
 10
0.0
 20
0.0
 11
1.0
 21
1.0
 12
4.828419169922213
 22
-6.523524341843085
 13
0.0
 23
0.0
 14
10.0
 24
10.0
 15
10.0
 25
10.0
 16
0.0
 26
0.0
 36
1.0
 17
0.0
 27
0.0
 37
0.0
 40
300.0163162856556
 41
1.584158415841584
 42
50.0
 43
0.0
 44
0.0
 50
0.0
 51
0.0
 71
     0
 72
 10000
 73
     1
 74
     3
 75
     0
 76
     0
 77
     0
 78
     1
281
     0
 65
     1
110
0.0
120
0.0
130
0.0
111
1.0
121
0.0
131
0.0
112
0.0
122
1.0
132
0.0
 79
     0
146
0.0
1001
ACAD_NAV_VCDISPLAY
1070
     3
  0
ENDTAB
  0
TABLE
  2
LTYPE
  5
8B
330
0
100
AcDbSymbolTable
 70
     2
  0
LTYPE
  5
8C
330
8B
100
AcDbSymbolTableRecord
100
AcDbLinetypeTableRecord
  2
BYBLOCK
 70
     0
  3

 72
    65
 73
     0
 40
0.0
  0
LTYPE
  5
8D
330
8B
100
AcDbSymbolTableRecord
100
AcDbLinetypeTableRecord
  2
BYLAYER
 70
     0
  3

 72
    65
 73
     0
 40
0.0
  0
LTYPE
  5
9
330
8B
100
AcDbSymbolTableRecord
100
AcDbLinetypeTableRecord
  2
CONTINUOUS
 70
     0
  3
Solid line
 72
    65
 73
     0
 40
0.0
  0
LTYPE
  5
E1
330
8B
100
AcDbSymbolTableRecord
100
AcDbLinetypeTableRecord
  2
CENTER
 70
     0
  3
Center ____ _ ____ _ ____ _ ____ _ ____ _ ____
 72
    65
 73
     4
 40
50.8
 49
31.75
 74
     0
 49
-6.349999999999997
 74
     0
 49
6.349999999999997
 74
     0
 49
-6.349999999999997
 74
     0
  0
ENDTAB
  0
TABLE
  2
LAYER
  5
12
102
{ACAD_XDICTIONARY
360
13
102
}
330
0
100
AcDbSymbolTable
 70
     6
  0
LAYER
  5
5
102
{ACAD_XDICTIONARY
360
7C6
102
}
330
12
100
AcDbSymbolTableRecord
100
AcDbLayerTableRecord
  2
0
 70
     0
 62
     7
  6
CONTINUOUS
370
    -3
390
6
  0
LAYER
  5
183
102
{ACAD_XDICTIONARY
360
7C8
102
}
330
12
100
AcDbSymbolTableRecord
100
AcDbLayerTableRecord
  2
3
 70
     0
 62
     3
  6
CONTINUOUS
370
    -3
390
6
  0
LAYER
  5
A9
330
12
100
AcDbSymbolTableRecord
100
AcDbLayerTableRecord
  2
DEFPOINTS
 70
     0
 62
     7
  6
CONTINUOUS
290
     0
370
    -3
390
6
  0
LAYER
  5
B2
102
{ACAD_XDICTIONARY
360
7CA
102
}
330
12
100
AcDbSymbolTableRecord
100
AcDbLayerTableRecord
  2
DIM
 70
     0
 62
     3
  6
CONTINUOUS
370
    -3
390
6
  0
LAYER
  5
E0
102
{ACAD_XDICTIONARY
360
7CC
102
}
330
12
100
AcDbSymbolTableRecord
100
AcDbLayerTableRecord
  2
CEN
 70
     0
 62
     1
  6
CENTER
370
    -3
390
6
  0
LAYER
  5
164
102
{ACAD_XDICTIONARY
360
7CE
102
}
330
12
100
AcDbSymbolTableRecord
100
AcDbLayerTableRecord
  2
2
 70
     0
 62
     2
  6
CONTINUOUS
370
    -3
390
6
  0
ENDTAB
  0
TABLE
  2
STYLE
  5
88
330
0
100
AcDbSymbolTable
 70
     1
  0
STYLE
  5
89
330
88
100
AcDbSymbolTableRecord
100
AcDbTextStyleTableRecord
  2
STANDARD
 70
     0
 40
0.0
 41
1.0
 50
0.0
 71
     0
 42
5.777225951253058
  3
romans.shx
  4
whgtxt.shx
  0
ENDTAB
  0
TABLE
  2
VIEW
  5
8E
330
0
100
AcDbSymbolTable
 70
     0
  0
ENDTAB
  0
TABLE
  2
UCS
  5
8F
330
0
100
AcDbSymbolTable
 70
     0
  0
ENDTAB
  0
TABLE
  2
APPID
  5
92
330
0
100
AcDbSymbolTable
 70
     3
  0
APPID
  5
93
330
92
100
AcDbSymbolTableRecord
100
AcDbRegAppTableRecord
  2
ACAD
 70
     0
  0
APPID
  5
7D6
330
92
100
AcDbSymbolTableRecord
100
AcDbRegAppTableRecord
  2
ACAD_NAV_VCDISPLAY
 70
     0
  0
APPID
  5
813
330
92
100
AcDbSymbolTableRecord
100
AcDbRegAppTableRecord
  2
ACAD_MLEADERVER
 70
     0
  0
ENDTAB
  0
TABLE
  2
DIMSTYLE
  5
94
330
0
100
AcDbSymbolTable
 70
     2
100
AcDbDimStyleTable
 71
     1
340
9D
  0
DIMSTYLE
105
9D
102
{ACAD_REACTORS
330
1C4
330
1B7
330
1A1
330
190
330
105
330
E2
330
F1
330
16D
330
CA
330
1E8
330
2A6
330
290
330
9E
330
24D
330
25D
330
2B8
330
1D3
330
2C5
330
B9
102
}
330
94
100
AcDbSymbolTableRecord
100
AcDbDimStyleTableRecord
  2
STANDARD
 70
     0
 41
2.5
 42
1.0
 43
10.0
 44
0.6
 73
     0
 74
     0
 77
     1
 78
     8
140
3.0
147
1.0
172
     1
174
     1
176
   123
177
   123
178
     3
271
     2
272
     2
275
     1
288
     1
340
89
  0
DIMSTYLE
105
95
330
94
100
AcDbSymbolTableRecord
100
AcDbDimStyleTableRecord
  2
1_1_2
 70
     0
 41
3.0
 42
1.0
 43
10.0
 44
0.6
 73
     0
 74
     0
 77
     1
 78
     8
140
3.5
147
1.0
172
     1
174
     1
176
   123
177
   123
178
     3
271
     2
272
     2
275
     1
288
     1
340
89
  0
ENDTAB
  0
TABLE
  2
BLOCK_RECORD
  5
1
330
0
100
AcDbSymbolTable
 70
    38
  0
BLOCK_RECORD
  5
2
102
{ACAD_XDICTIONARY
360
3
102
}
330
1
100
AcDbSymbolTableRecord
100
AcDbBlockTableRecord
  2
*MODEL_SPACE
340
7AA
  0
BLOCK_RECORD
  5
D
102
{ACAD_XDICTIONARY
360
E
102
}
330
1
100
AcDbSymbolTableRecord
100
AcDbBlockTableRecord
  2
*PAPER_SPACE
340
7AB
  0
BLOCK_RECORD
  5
2DC
330
1
100
AcDbSymbolTableRecord
100
AcDbBlockTableRecord
  2
*D19
340
0
  0
BLOCK_RECORD
  5
2E8
330
1
100
AcDbSymbolTableRecord
100
AcDbBlockTableRecord
  2
*D20
340
0
  0
BLOCK_RECORD
  5
2F4
330
1
100
AcDbSymbolTableRecord
100
AcDbBlockTableRecord
  2
*D21
340
0
  0
BLOCK_RECORD
  5
300
330
1
100
AcDbSymbolTableRecord
100
AcDbBlockTableRecord
  2
*D22
340
0
  0
BLOCK_RECORD
  5
30E
330
1
100
AcDbSymbolTableRecord
100
AcDbBlockTableRecord
  2
*D23
340
0
  0
BLOCK_RECORD
  5
31A
330
1
100
AcDbSymbolTableRecord
100
AcDbBlockTableRecord
  2
*D24
340
0
  0
BLOCK_RECORD
  5
326
330
1
100
AcDbSymbolTableRecord
100
AcDbBlockTableRecord
  2
*D25
340
0
  0
BLOCK_RECORD
  5
332
330
1
100
AcDbSymbolTableRecord
100
AcDbBlockTableRecord
  2
*D26
340
0
  0
BLOCK_RECORD
  5
340
330
1
100
AcDbSymbolTableRecord
100
AcDbBlockTableRecord
  2
*D27
340
0
  0
BLOCK_RECORD
  5
34B
330
1
100
AcDbSymbolTableRecord
100
AcDbBlockTableRecord
  2
*D28
340
0
  0
BLOCK_RECORD
  5
359
330
1
100
AcDbSymbolTableRecord
100
AcDbBlockTableRecord
  2
*D29
340
0
  0
BLOCK_RECORD
  5
365
330
1
100
AcDbSymbolTableRecord
100
AcDbBlockTableRecord
  2
*D30
340
0
  0
BLOCK_RECORD
  5
371
330
1
100
AcDbSymbolTableRecord
100
AcDbBlockTableRecord
  2
*D31
340
0
  0
BLOCK_RECORD
  5
37D
330
1
100
AcDbSymbolTableRecord
100
AcDbBlockTableRecord
  2
*D32
340
0
  0
BLOCK_RECORD
  5
388
330
1
100
AcDbSymbolTableRecord
100
AcDbBlockTableRecord
  2
*D33
340
0
  0
BLOCK_RECORD
  5
396
330
1
100
AcDbSymbolTableRecord
100
AcDbBlockTableRecord
  2
*D34
340
0
  0
BLOCK_RECORD
  5
3A2
330
1
100
AcDbSymbolTableRecord
100
AcDbBlockTableRecord
  2
*D35
340
0
  0
BLOCK_RECORD
  5
3AE
330
1
100
AcDbSymbolTableRecord
100
AcDbBlockTableRecord
  2
*D36
340
0
  0
BLOCK_RECORD
  5
3BA
330
1
100
AcDbSymbolTableRecord
100
AcDbBlockTableRecord
  2
*D37
340
0
  0
ENDTAB
  0
ENDSEC
  0
SECTION
  2
BLOCKS
  0
BLOCK
  5
4
330
2
100
AcDbEntity
  8
0
100
AcDbBlockBegin
  2
*MODEL_SPACE
 70
     0
 10
0.0
 20
0.0
 30
0.0
  3
*MODEL_SPACE
  1

  0
ENDBLK
  5
A
330
2
100
AcDbEntity
  8
0
100
AcDbBlockEnd
  0
BLOCK
  5
F
330
D
100
AcDbEntity
 67
     1
  8
0
100
AcDbBlockBegin
  2
*PAPER_SPACE
 70
     0
 10
0.0
 20
0.0
 30
0.0
  3
*PAPER_SPACE
  1

  0
ENDBLK
  5
10
330
D
100
AcDbEntity
 67
     1
  8
0
100
AcDbBlockEnd
  0
BLOCK
  5
2E6
330
2DC
100
AcDbEntity
  8
0
100
AcDbBlockBegin
  2
*D19
 70
     1
 10
0.0
 20
0.0
 30
0.0
  3
*D19
  1

  0
LINE
  5
662
330
2DC
100
AcDbEntity
  8
0
 62
   123
100
AcDbLine
 10
28.30693842575943
 20
-33.81643734376207
 30
0.0
 11
28.30693842575943
 21
-34.21643734376207
 31
0.0
  0
LINE
  5
663
330
2DC
100
AcDbEntity
  8
0
 62
   123
100
AcDbLine
 10
103.3069384257593
 20
-55.71392777728232
 30
0.0
 11
103.3069384257593
 21
-34.21643734376207
 31
0.0
  0
LINE
  5
664
330
2DC
100
AcDbEntity
  8
0
 62
   123
100
AcDbLine
 10
30.80693842575942
 20
-34.81643734376207
 30
0.0
 11
100.8069384257593
 21
-34.81643734376207
 31
0.0
  0
SOLID
  5
665
330
2DC
100
AcDbEntity
  8
0
 62
   123
100
AcDbTrace
 10
30.80693842575942
 20
-34.39977067709541
 30
0.0
 11
30.80693842575942
 21
-35.23310401042873
 31
0.0
 12
28.30693842575943
 22
-34.81643734376207
 32
0.0
 13
28.30693842575943
 23
-34.81643734376207
 33
0.0
  0
SOLID
  5
666
330
2DC
100
AcDbEntity
  8
0
 62
   123
100
AcDbTrace
 10
100.8069384257593
 20
-34.39977067709541
 30
0.0
 11
100.8069384257593
 21
-35.23310401042873
 31
0.0
 12
103.3069384257593
 22
-34.81643734376207
 32
0.0
 13
103.3069384257593
 23
-34.81643734376207
 33
0.0
  0
MTEXT
  5
667
330
2DC
100
AcDbEntity
  8
0
 62
     3
100
AcDbMText
 10
65.80693842575943
 20
-32.31643734376207
 30
0.0
 40
3.0
 41
0.0
 71
     5
 72
     1
  1
\A1;75
 73
     1
 44
1.0
1001
ACAD
1000
MTEXTBEGIN
1070
    73
1070
     1
1070
    44
1040
1.0
1070
    74
1070
     0
1000
MTEXTEND
  0
POINT
  5
668
330
2DC
100
AcDbEntity
  8
DEFPOINTS
 62
     0
100
AcDbPoint
 10
28.30693842575943
 20
-34.81643734376207
 30
0.0
  0
POINT
  5
669
330
2DC
100
AcDbEntity
  8
DEFPOINTS
 62
     0
100
AcDbPoint
 10
103.3069384257593
 20
-56.71392777728232
 30
0.0
  0
POINT
  5
66A
330
2DC
100
AcDbEntity
  8
DEFPOINTS
 62
     0
100
AcDbPoint
 10
103.3069384257593
 20
-34.81643734376207
 30
0.0
  0
ENDBLK
  5
2E7
330
2DC
100
AcDbEntity
  8
0
100
AcDbBlockEnd
  0
BLOCK
  5
2F2
330
2E8
100
AcDbEntity
  8
0
100
AcDbBlockBegin
  2
*D20
 70
     1
 10
0.0
 20
0.0
 30
0.0
  3
*D20
  1

  0
LINE
  5
69B
330
2E8
100
AcDbEntity
  8
0
 62
   123
100
AcDbLine
 10
4.306938425759426
 20
-81.21381499211103
 30
0.0
 11
4.306938425759428
 21
-34.21643734376207
 31
0.0
  0
LINE
  5
69C
330
2E8
100
AcDbEntity
  8
0
 62
   123
100
AcDbLine
 10
28.30693842575943
 20
-53.21392777728028
 30
0.0
 11
28.30693842575943
 21
-34.21643734376207
 31
0.0
  0
LINE
  5
69D
330
2E8
100
AcDbEntity
  8
0
 62
   123
100
AcDbLine
 10
6.806938425759428
 20
-34.81643734376207
 30
0.0
 11
25.80693842575942
 21
-34.81643734376207
 31
0.0
  0
SOLID
  5
69E
330
2E8
100
AcDbEntity
  8
0
 62
   123
100
AcDbTrace
 10
6.806938425759428
 20
-34.39977067709541
 30
0.0
 11
6.806938425759428
 21
-35.23310401042873
 31
0.0
 12
4.306938425759428
 22
-34.81643734376207
 32
0.0
 13
4.306938425759428
 23
-34.81643734376207
 33
0.0
  0
SOLID
  5
69F
330
2E8
100
AcDbEntity
  8
0
 62
   123
100
AcDbTrace
 10
25.80693842575942
 20
-34.39977067709541
 30
0.0
 11
25.80693842575942
 21
-35.23310401042873
 31
0.0
 12
28.30693842575943
 22
-34.81643734376207
 32
0.0
 13
28.30693842575943
 23
-34.81643734376207
 33
0.0
  0
MTEXT
  5
6A0
330
2E8
100
AcDbEntity
  8
0
 62
     3
100
AcDbMText
 10
16.30693842575942
 20
-32.31643734376207
 30
0.0
 40
3.0
 41
0.0
 71
     5
 72
     1
  1
\A1;24
 73
     1
 44
1.0
1001
ACAD
1000
MTEXTBEGIN
1070
    73
1070
     1
1070
    44
1040
1.0
1070
    74
1070
     0
1000
MTEXTEND
  0
POINT
  5
6A1
330
2E8
100
AcDbEntity
  8
DEFPOINTS
 62
     0
100
AcDbPoint
 10
4.306938425759426
 20
-82.21381499211103
 30
0.0
  0
POINT
  5
6A2
330
2E8
100
AcDbEntity
  8
DEFPOINTS
 62
     0
100
AcDbPoint
 10
28.30693842575943
 20
-54.21392777728029
 30
0.0
  0
POINT
  5
6A3
330
2E8
100
AcDbEntity
  8
DEFPOINTS
 62
     0
100
AcDbPoint
 10
28.30693842575943
 20
-34.81643734376207
 30
0.0
  0
ENDBLK
  5
2F3
330
2E8
100
AcDbEntity
  8
0
100
AcDbBlockEnd
  0
BLOCK
  5
2FE
330
2F4
100
AcDbEntity
  8
0
100
AcDbBlockBegin
  2
*D21
 70
     1
 10
0.0
 20
0.0
 30
0.0
  3
*D21
  1

  0
LINE
  5
6A4
330
2F4
100
AcDbEntity
  8
0
 62
   123
100
AcDbLine
 10
28.30693842575943
 20
-44.0055944439484
 30
0.0
 11
28.30693842575943
 21
-44.4055944439484
 31
0.0
  0
LINE
  5
6A5
330
2F4
100
AcDbEntity
  8
0
 62
   123
100
AcDbLine
 10
35.30693842575942
 20
-54.61519043575136
 30
0.0
 11
35.30693842575942
 21
-44.4055944439484
 31
0.0
  0
LINE
  5
6A6
330
2F4
100
AcDbEntity
  8
0
 62
   123
100
AcDbLine
 10
30.80693842575942
 20
-45.0055944439484
 30
0.0
 11
32.80693842575942
 21
-45.0055944439484
 31
0.0
  0
SOLID
  5
6A7
330
2F4
100
AcDbEntity
  8
0
 62
   123
100
AcDbTrace
 10
30.80693842575942
 20
-44.58892777728173
 30
0.0
 11
30.80693842575942
 21
-45.42226111061506
 31
0.0
 12
28.30693842575943
 22
-45.0055944439484
 32
0.0
 13
28.30693842575943
 23
-45.0055944439484
 33
0.0
  0
SOLID
  5
6A8
330
2F4
100
AcDbEntity
  8
0
 62
   123
100
AcDbTrace
 10
32.80693842575942
 20
-44.58892777728173
 30
0.0
 11
32.80693842575942
 21
-45.42226111061506
 31
0.0
 12
35.30693842575942
 22
-45.0055944439484
 32
0.0
 13
35.30693842575942
 23
-45.0055944439484
 33
0.0
  0
MTEXT
  5
6A9
330
2F4
100
AcDbEntity
  8
0
 62
     3
100
AcDbMText
 10
31.80693842575943
 20
-42.5055944439484
 30
0.0
 40
3.0
 41
0.0
 71
     5
 72
     1
  1
\A1;7
 73
     1
 44
1.0
1001
ACAD
1000
MTEXTBEGIN
1070
    73
1070
     1
1070
    44
1040
1.0
1070
    74
1070
     0
1000
MTEXTEND
  0
POINT
  5
6AA
330
2F4
100
AcDbEntity
  8
DEFPOINTS
 62
     0
100
AcDbPoint
 10
28.30693842575943
 20
-45.0055944439484
 30
0.0
  0
POINT
  5
6AB
330
2F4
100
AcDbEntity
  8
DEFPOINTS
 62
     0
100
AcDbPoint
 10
35.30693842575942
 20
-55.61519043575136
 30
0.0
  0
POINT
  5
6AC
330
2F4
100
AcDbEntity
  8
DEFPOINTS
 62
     0
100
AcDbPoint
 10
35.30693842575942
 20
-45.0055944439484
 30
0.0
  0
ENDBLK
  5
2FF
330
2F4
100
AcDbEntity
  8
0
100
AcDbBlockEnd
  0
BLOCK
  5
30C
330
300
100
AcDbEntity
  8
0
100
AcDbBlockBegin
  2
*D22
 70
     1
 10
0.0
 20
0.0
 30
0.0
  3
*D22
  1

  0
LINE
  5
6AD
330
300
100
AcDbEntity
  8
0
 62
   123
100
AcDbLine
 10
26.30693842575942
 20
-56.21392777728118
 30
0.0
 11
26.30693842575942
 21
-44.4055944439484
 31
0.0
  0
LINE
  5
6AE
330
300
100
AcDbEntity
  8
0
 62
   123
100
AcDbLine
 10
28.30693842575943
 20
-53.21392777728232
 30
0.0
 11
28.30693842575943
 21
-44.4055944439484
 31
0.0
  0
LINE
  5
6AF
330
300
100
AcDbEntity
  8
0
 62
   123
100
AcDbLine
 10
30.80693842575942
 20
-45.0055944439484
 30
0.0
 11
33.30693842575942
 21
-45.0055944439484
 31
0.0
  0
LINE
  5
6B0
330
300
100
AcDbEntity
  8
0
 62
   123
100
AcDbLine
 10
23.80693842575942
 20
-45.0055944439484
 30
0.0
 11
17.30693842575942
 21
-45.0055944439484
 31
0.0
  0
LINE
  5
6B1
330
300
100
AcDbEntity
  8
0
 62
   123
100
AcDbLine
 10
28.30693842575943
 20
-45.0055944439484
 30
0.0
 11
26.30693842575942
 21
-45.0055944439484
 31
0.0
  0
SOLID
  5
6B2
330
300
100
AcDbEntity
  8
0
 62
   123
100
AcDbTrace
 10
30.80693842575942
 20
-44.58892777728173
 30
0.0
 11
30.80693842575942
 21
-45.42226111061506
 31
0.0
 12
28.30693842575943
 22
-45.0055944439484
 32
0.0
 13
28.30693842575943
 23
-45.0055944439484
 33
0.0
  0
SOLID
  5
6B3
330
300
100
AcDbEntity
  8
0
 62
   123
100
AcDbTrace
 10
23.80693842575942
 20
-44.58892777728173
 30
0.0
 11
23.80693842575942
 21
-45.42226111061506
 31
0.0
 12
26.30693842575942
 22
-45.0055944439484
 32
0.0
 13
26.30693842575942
 23
-45.0055944439484
 33
0.0
  0
MTEXT
  5
6B4
330
300
100
AcDbEntity
  8
0
 62
     3
100
AcDbMText
 10
19.30693842575942
 20
-42.5055944439484
 30
0.0
 40
3.0
 41
0.0
 71
     5
 72
     1
  1
\A1;2
 73
     1
 44
1.0
1001
ACAD
1000
MTEXTBEGIN
1070
    73
1070
     1
1070
    44
1040
1.0
1070
    74
1070
     0
1000
MTEXTEND
  0
POINT
  5
6B5
330
300
100
AcDbEntity
  8
DEFPOINTS
 62
     0
100
AcDbPoint
 10
26.30693842575942
 20
-57.21392777728119
 30
0.0
  0
POINT
  5
6B6
330
300
100
AcDbEntity
  8
DEFPOINTS
 62
     0
100
AcDbPoint
 10
28.30693842575943
 20
-54.21392777728232
 30
0.0
  0
POINT
  5
6B7
330
300
100
AcDbEntity
  8
DEFPOINTS
 62
     0
100
AcDbPoint
 10
28.30693842575943
 20
-45.0055944439484
 30
0.0
  0
ENDBLK
  5
30D
330
300
100
AcDbEntity
  8
0
100
AcDbBlockEnd
  0
BLOCK
  5
318
330
30E
100
AcDbEntity
  8
0
100
AcDbBlockBegin
  2
*D23
 70
     1
 10
0.0
 20
0.0
 30
0.0
  3
*D23
  1

  0
LINE
  5
67E
330
30E
100
AcDbEntity
  8
0
 62
   123
100
AcDbLine
 10
-105.3010211029816
 20
-58.21392777728028
 30
0.0
 11
-105.3010211029816
 21
-39.96282998297632
 31
0.0
  0
LINE
  5
67F
330
30E
100
AcDbEntity
  8
0
 62
   123
100
AcDbLine
 10
-45.30102110298162
 20
-58.21392777728028
 30
0.0
 11
-45.30102110298162
 21
-39.96282998297632
 31
0.0
  0
LINE
  5
680
330
30E
100
AcDbEntity
  8
0
 62
   123
100
AcDbLine
 10
-102.8010211029816
 20
-40.56282998297635
 30
0.0
 11
-47.80102110298162
 21
-40.56282998297635
 31
0.0
  0
SOLID
  5
681
330
30E
100
AcDbEntity
  8
0
 62
   123
100
AcDbTrace
 10
-102.8010211029816
 20
-40.14616331630967
 30
0.0
 11
-102.8010211029816
 21
-40.979496649643
 31
0.0
 12
-105.3010211029816
 22
-40.56282998297635
 32
0.0
 13
-105.3010211029816
 23
-40.56282998297635
 33
0.0
  0
SOLID
  5
682
330
30E
100
AcDbEntity
  8
0
 62
   123
100
AcDbTrace
 10
-47.80102110298162
 20
-40.14616331630967
 30
0.0
 11
-47.80102110298162
 21
-40.979496649643
 31
0.0
 12
-45.30102110298162
 22
-40.56282998297635
 32
0.0
 13
-45.30102110298162
 23
-40.56282998297635
 33
0.0
  0
MTEXT
  5
683
330
30E
100
AcDbEntity
  8
0
 62
     3
100
AcDbMText
 10
-75.63175986264309
 20
-38.06282998297635
 30
0.0
 40
3.0
 41
0.0
 71
     5
 72
     1
  1
\A1;60
 73
     1
 44
1.0
1001
ACAD
1000
MTEXTBEGIN
1070
    73
1070
     1
1070
    44
1040
1.0
1070
    74
1070
     0
1000
MTEXTEND
  0
POINT
  5
684
330
30E
100
AcDbEntity
  8
DEFPOINTS
 62
     0
100
AcDbPoint
 10
-105.3010211029816
 20
-59.21392777728029
 30
0.0
  0
POINT
  5
685
330
30E
100
AcDbEntity
  8
DEFPOINTS
 62
     0
100
AcDbPoint
 10
-45.30102110298162
 20
-59.21392777728029
 30
0.0
  0
POINT
  5
686
330
30E
100
AcDbEntity
  8
DEFPOINTS
 62
     0
100
AcDbPoint
 10
-45.30102110298162
 20
-40.56282998297635
 30
0.0
  0
ENDBLK
  5
319
330
30E
100
AcDbEntity
  8
0
100
AcDbBlockEnd
  0
BLOCK
  5
324
330
31A
100
AcDbEntity
  8
0
100
AcDbBlockBegin
  2
*D24
 70
     1
 10
0.0
 20
0.0
 30
0.0
  3
*D24
  1

  0
LINE
  5
6B8
330
31A
100
AcDbEntity
  8
0
 62
   123
100
AcDbLine
 10
97.30693842575931
 20
-54.21392777728232
 30
0.0
 11
116.1186995568488
 21
-54.21392777728232
 31
0.0
  0
LINE
  5
6B9
330
31A
100
AcDbEntity
  8
0
 62
   123
100
AcDbLine
 10
97.30693842575931
 20
-114.2139277772822
 30
0.0
 11
116.1186995568488
 21
-114.2139277772822
 31
0.0
  0
LINE
  5
6BA
330
31A
100
AcDbEntity
  8
0
 62
   123
100
AcDbLine
 10
115.5186995568488
 20
-56.71392777728232
 30
0.0
 11
115.5186995568488
 21
-111.7139277772822
 31
0.0
  0
SOLID
  5
6BB
330
31A
100
AcDbEntity
  8
0
 62
   123
100
AcDbTrace
 10
115.1020328901822
 20
-56.71392777728232
 30
0.0
 11
115.9353662235155
 21
-56.71392777728232
 31
0.0
 12
115.5186995568488
 22
-54.21392777728232
 32
0.0
 13
115.5186995568488
 23
-54.21392777728232
 33
0.0
  0
SOLID
  5
6BC
330
31A
100
AcDbEntity
  8
0
 62
   123
100
AcDbTrace
 10
115.1020328901821
 20
-111.7139277772822
 30
0.0
 11
115.9353662235155
 21
-111.7139277772822
 31
0.0
 12
115.5186995568488
 22
-114.2139277772822
 32
0.0
 13
115.5186995568488
 23
-114.2139277772822
 33
0.0
  0
MTEXT
  5
6BD
330
31A
100
AcDbEntity
  8
0
 62
     3
100
AcDbMText
 10
113.0186995568489
 20
-84.21392777728234
 30
0.0
 40
3.0
 41
0.0
 71
     5
 72
     1
  1
\A1;%%C60
 11
0.0000000000000001
 21
1.0
 31
0.0
 73
     1
 44
1.0
1001
ACAD
1000
MTEXTBEGIN
1070
    73
1070
     1
1070
    44
1040
1.0
1070
    74
1070
     0
1000
MTEXTEND
  0
POINT
  5
6BE
330
31A
100
AcDbEntity
  8
DEFPOINTS
 62
     0
100
AcDbPoint
 10
96.30693842575931
 20
-54.21392777728232
 30
0.0
  0
POINT
  5
6BF
330
31A
100
AcDbEntity
  8
DEFPOINTS
 62
     0
100
AcDbPoint
 10
96.30693842575931
 20
-114.2139277772822
 30
0.0
  0
POINT
  5
6C0
330
31A
100
AcDbEntity
  8
DEFPOINTS
 62
     0
100
AcDbPoint
 10
115.5186995568488
 20
-114.2139277772822
 30
0.0
  0
ENDBLK
  5
325
330
31A
100
AcDbEntity
  8
0
100
AcDbBlockEnd
  0
BLOCK
  5
330
330
326
100
AcDbEntity
  8
0
100
AcDbBlockBegin
  2
*D25
 70
     1
 10
0.0
 20
0.0
 30
0.0
  3
*D25
  1

  0
LINE
  5
692
330
326
100
AcDbEntity
  8
0
 62
   123
100
AcDbLine
 10
25.30693842575942
 20
-57.21392777728119
 30
0.0
 11
-15.44230031439279
 21
-57.21392777728118
 31
0.0
  0
LINE
  5
693
330
326
100
AcDbEntity
  8
0
 62
   123
100
AcDbLine
 10
25.30693842575942
 20
-111.2139277772822
 30
0.0
 11
-15.44230031439281
 21
-111.2139277772822
 31
0.0
  0
LINE
  5
694
330
326
100
AcDbEntity
  8
0
 62
   123
100
AcDbLine
 10
-14.84230031439279
 20
-59.71392777728118
 30
0.0
 11
-14.8423003143928
 21
-108.7139277772822
 31
0.0
  0
SOLID
  5
695
330
326
100
AcDbEntity
  8
0
 62
   123
100
AcDbTrace
 10
-15.25896698105946
 20
-59.71392777728118
 30
0.0
 11
-14.42563364772612
 21
-59.71392777728118
 31
0.0
 12
-14.84230031439279
 22
-57.21392777728118
 32
0.0
 13
-14.84230031439279
 23
-57.21392777728118
 33
0.0
  0
SOLID
  5
696
330
326
100
AcDbEntity
  8
0
 62
   123
100
AcDbTrace
 10
-15.25896698105947
 20
-108.7139277772822
 30
0.0
 11
-14.42563364772614
 21
-108.7139277772822
 31
0.0
 12
-14.8423003143928
 22
-111.2139277772822
 32
0.0
 13
-14.8423003143928
 23
-111.2139277772822
 33
0.0
  0
MTEXT
  5
697
330
326
100
AcDbEntity
  8
0
 62
     3
100
AcDbMText
 10
-18.79245031439278
 20
-87.54277360124223
 30
0.0
 40
3.0
 41
0.0
 71
     5
 72
     1
  1
\A1;\A1;%%C54{\f??|b0|i0|c0|p49;\H0.7x;\S+0^ -0.03;\H1.429x;(h7)} 
 11
0.0000000000000001
 21
1.0
 31
0.0
 73
     1
 44
1.0
1001
ACAD
1000
MTEXTBEGIN
1070
    73
1070
     1
1070
    44
1040
1.0
1070
    74
1070
     0
1000
MTEXTEND
  0
POINT
  5
698
330
326
100
AcDbEntity
  8
DEFPOINTS
 62
     0
100
AcDbPoint
 10
26.30693842575942
 20
-57.21392777728119
 30
0.0
  0
POINT
  5
699
330
326
100
AcDbEntity
  8
DEFPOINTS
 62
     0
100
AcDbPoint
 10
26.30693842575942
 20
-111.2139277772822
 30
0.0
  0
POINT
  5
69A
330
326
100
AcDbEntity
  8
DEFPOINTS
 62
     0
100
AcDbPoint
 10
-14.8423003143928
 20
-111.2139277772822
 30
0.0
  0
ENDBLK
  5
331
330
326
100
AcDbEntity
  8
0
100
AcDbBlockEnd
  0
BLOCK
  5
33E
330
332
100
AcDbEntity
  8
0
100
AcDbBlockBegin
  2
*D26
 70
     1
 10
0.0
 20
0.0
 30
0.0
  3
*D26
  1

  0
LINE
  5
687
330
332
100
AcDbEntity
  8
0
 62
   123
100
AcDbLine
 10
3.806938425759426
 20
-81.21403816273703
 30
0.0
 11
-4.565142256484126
 21
-81.21403816273703
 31
0.0
  0
LINE
  5
688
330
332
100
AcDbEntity
  8
0
 62
   123
100
AcDbLine
 10
3.806938425759426
 20
-87.21381739182421
 30
0.0
 11
-4.565142256484127
 21
-87.21381739182421
 31
0.0
  0
LINE
  5
689
330
332
100
AcDbEntity
  8
0
 62
   123
100
AcDbLine
 10
-3.965142256484126
 20
-78.71403816273704
 30
0.0
 11
-3.965142256484125
 21
-76.21403816273704
 31
0.0
  0
LINE
  5
68A
330
332
100
AcDbEntity
  8
0
 62
   123
100
AcDbLine
 10
-3.965142256484127
 20
-89.71381739182421
 30
0.0
 11
-3.965142256484128
 21
-92.21381739182421
 31
0.0
  0
LINE
  5
68B
330
332
100
AcDbEntity
  8
0
 62
   123
100
AcDbLine
 10
-3.965142256484126
 20
-81.21403816273703
 30
0.0
 11
-3.965142256484127
 21
-87.21381739182421
 31
0.0
  0
SOLID
  5
68C
330
332
100
AcDbEntity
  8
0
 62
   123
100
AcDbTrace
 10
-4.381808923150792
 20
-78.71403816273704
 30
0.0
 11
-3.548475589817459
 21
-78.71403816273704
 31
0.0
 12
-3.965142256484126
 22
-81.21403816273703
 32
0.0
 13
-3.965142256484126
 23
-81.21403816273703
 33
0.0
  0
SOLID
  5
68D
330
332
100
AcDbEntity
  8
0
 62
   123
100
AcDbTrace
 10
-4.381808923150795
 20
-89.71381739182421
 30
0.0
 11
-3.548475589817461
 21
-89.71381739182421
 31
0.0
 12
-3.965142256484127
 22
-87.21381739182421
 32
0.0
 13
-3.965142256484127
 23
-87.21381739182421
 33
0.0
  0
MTEXT
  5
68E
330
332
100
AcDbEntity
  8
0
 62
     3
100
AcDbMText
 10
-7.915292256484113
 20
-84.21392777728064
 30
0.0
 40
3.0
 41
0.0
 71
     5
 72
     1
  1
\A1;\A1;%%c6{\H0.7x;\S+0^ -0.012;\f??|b0|i0|c0|p49;\H1.429x;(h7)}  
 11
0.0000000000000001
 21
1.0
 31
0.0
 73
     1
 44
1.0
1001
ACAD
1000
MTEXTBEGIN
1070
    73
1070
     1
1070
    44
1040
1.0
1070
    74
1070
     0
1000
MTEXTEND
  0
POINT
  5
68F
330
332
100
AcDbEntity
  8
DEFPOINTS
 62
     0
100
AcDbPoint
 10
4.806938425759425
 20
-81.21403816273703
 30
0.0
  0
POINT
  5
690
330
332
100
AcDbEntity
  8
DEFPOINTS
 62
     0
100
AcDbPoint
 10
4.806938425759425
 20
-87.21381739182421
 30
0.0
  0
POINT
  5
691
330
332
100
AcDbEntity
  8
DEFPOINTS
 62
     0
100
AcDbPoint
 10
-3.965142256484127
 20
-87.21381739182421
 30
0.0
  0
ENDBLK
  5
33F
330
332
100
AcDbEntity
  8
0
100
AcDbBlockEnd
  0
BLOCK
  5
349
330
340
100
AcDbEntity
  8
0
100
AcDbBlockBegin
  2
*D27
 70
     1
 10
0.0
 20
0.0
 30
0.0
  3
*D27
  1

  0
LINE
  5
71D
330
340
100
AcDbEntity
  8
0
 62
   123
100
AcDbLine
 10
-22.45510690054443
 20
-49.98396575569198
 30
0.0
 11
-43.82679988895525
 21
-63.82708400562584
 31
0.0
  0
LINE
  5
71E
330
340
100
AcDbEntity
  8
0
 62
   123
100
AcDbLine
 10
-106.7752423170328
 20
-104.6007715489367
 30
0.0
 11
-108.873523731302
 21
-105.959894467047
 31
0.0
  0
MTEXT
  5
71F
102
{ACAD_XDICTIONARY
360
7DD
102
}
330
340
100
AcDbEntity
  8
0
 62
     3
100
AcDbMText
 10
-32.38720816838297
 20
-53.43867226398776
 30
0.0
 40
3.0
 41
0.0
 71
     5
 72
     1
  1
\A1;\U+220570%%p0.5
 11
0.8393125657076602
 21
0.5436491672441194
 31
0.0
 73
     1
 44
1.0
1001
ACAD
1000
MTEXTBEGIN
1070
    73
1070
     1
1070
    44
1040
1.0
1070
    74
1070
     0
1000
MTEXTEND
  0
LINE
  5
720
330
340
100
AcDbEntity
  8
0
 62
   123
100
AcDbLine
 10
-104.6769609027637
 20
-103.2416486308264
 30
0.0
 11
-45.92508130322441
 21
-65.18620692373613
 31
0.0
  0
SOLID
  5
721
330
340
100
AcDbEntity
  8
0
 62
   123
100
AcDbTrace
 10
-107.0017628033845
 20
-104.2510579798918
 30
0.0
 11
-106.5487218306811
 21
-104.9504851179815
 31
0.0
 12
-104.6769609027637
 22
-103.2416486308264
 32
0.0
 13
-104.6769609027637
 23
-103.2416486308264
 33
0.0
  0
SOLID
  5
722
330
340
100
AcDbEntity
  8
0
 62
   123
100
AcDbTrace
 10
-44.05332037530697
 20
-63.47737043658097
 30
0.0
 11
-43.60027940260354
 21
-64.1767975746707
 31
0.0
 12
-45.92508130322441
 22
-65.18620692373613
 32
0.0
 13
-45.92508130322441
 23
-65.18620692373613
 33
0.0
  0
POINT
  5
723
330
340
100
AcDbEntity
  8
DEFPOINTS
 62
     0
100
AcDbPoint
 10
-45.92508130322441
 20
-65.18620692373613
 30
0.0
  0
POINT
  5
724
330
340
100
AcDbEntity
  8
DEFPOINTS
 62
     0
100
AcDbPoint
 10
-104.6769609027637
 20
-103.2416486308264
 30
0.0
  0
ENDBLK
  5
34A
330
340
100
AcDbEntity
  8
0
100
AcDbBlockEnd
  0
BLOCK
  5
357
330
34B
100
AcDbEntity
  8
0
100
AcDbBlockBegin
  2
*D28
 70
     1
 10
0.0
 20
0.0
 30
0.0
  3
*D28
  1

  0
LINE
  5
7BB
330
34B
100
AcDbEntity
  8
0
 62
   123
370
    -2
100
AcDbLine
 10
-75.30102110298161
 20
-120.2139277772822
 30
0.0
 11
-75.30102110298162
 21
-136.7327866176258
 31
0.0
  0
LINE
  5
7BC
330
34B
100
AcDbEntity
  8
0
 62
   123
370
    -2
100
AcDbLine
 10
-61.62492905245709
 20
-117.2309346859215
 30
0.0
 11
-55.20292393806163
 21
-132.7350265307254
 31
0.0
  0
ARC
  5
7BD
330
34B
100
AcDbEntity
  8
0
 62
   123
370
    -2
100
AcDbCircle
 10
-75.30102110298162
 20
-84.21392777728026
 30
0.0
 40
51.91885884034559
100
AcDbArc
 50
272.7591764118522
 51
289.7408235881465
  0
SOLID
  5
7BE
330
34B
100
AcDbEntity
  8
0
 62
   123
100
AcDbTrace
 10
-72.7917140978918
 20
-136.4891424304284
 30
0.0
 11
-72.81177745617687
 21
-135.6560506551127
 31
0.0
 12
-75.30102110298162
 22
-136.1327866176258
 32
0.0
 13
-75.30102110298162
 23
-136.1327866176258
 33
0.0
  0
SOLID
  5
7BF
330
34B
100
AcDbEntity
  8
0
 62
   123
100
AcDbTrace
 10
-57.91473420866374
 20
-132.6928445157929
 30
0.0
 11
-57.61445991468384
 21
-133.4701988705239
 31
0.0
 12
-55.43253399748067
 22
-132.1806988112187
 32
0.0
 13
-55.43253399748067
 23
-132.1806988112187
 33
0.0
  0
MTEXT
  5
7C0
330
34B
100
AcDbEntity
  8
0
 62
     3
100
AcDbMText
 10
-65.71562011015418
 20
-132.4029927363868
 30
0.0
 40
3.0
 41
0.0
 71
     5
 72
     1
  1
\A1;22\U+00B030'
 11
0.9807852804032325
 21
0.1950903220161171
 31
0.0
 73
     1
 44
1.0
1001
ACAD
1000
MTEXTBEGIN
1070
    73
1070
     1
1070
    44
1040
1.0
1070
    74
1070
     0
1000
MTEXTEND
  0
POINT
  5
7C1
330
34B
100
AcDbEntity
  8
DEFPOINTS
 62
     0
100
AcDbPoint
 10
-68.52425015414133
 20
-135.6886135829331
 30
0.0
  0
POINT
  5
7C2
330
34B
100
AcDbEntity
  8
DEFPOINTS
 62
     0
100
AcDbPoint
 10
-75.30102110298161
 20
-119.2139277772822
 30
0.0
  0
POINT
  5
7C3
330
34B
100
AcDbEntity
  8
DEFPOINTS
 62
     0
100
AcDbPoint
 10
-75.30102110298161
 20
-84.21392777728028
 30
0.0
  0
POINT
  5
7C4
330
34B
100
AcDbEntity
  8
DEFPOINTS
 62
     0
100
AcDbPoint
 10
-62.00761248482216
 20
-116.3070551534102
 30
0.0
  0
POINT
  5
7C5
330
34B
100
AcDbEntity
  8
DEFPOINTS
 62
     0
100
AcDbPoint
 10
-75.30102110298162
 20
-49.21392777728121
 30
0.0
  0
ENDBLK
  5
358
330
34B
100
AcDbEntity
  8
0
100
AcDbBlockEnd
  0
BLOCK
  5
363
330
359
100
AcDbEntity
  8
0
100
AcDbBlockBegin
  2
*D29
 70
     1
 10
0.0
 20
0.0
 30
0.0
  3
*D29
  1

  0
LINE
  5
6C1
330
359
100
AcDbEntity
  8
0
 62
   123
100
AcDbLine
 10
17.88643993477831
 20
136.5705185325477
 30
0.0
 11
17.88643993477831
 21
136.1705185325477
 31
0.0
  0
LINE
  5
6C2
330
359
100
AcDbEntity
  8
0
 62
   123
100
AcDbLine
 10
92.88643993477819
 20
114.9201463142508
 30
0.0
 11
92.88643993477819
 21
136.1705185325477
 31
0.0
  0
LINE
  5
6C3
330
359
100
AcDbEntity
  8
0
 62
   123
100
AcDbLine
 10
20.38643993477831
 20
135.5705185325477
 30
0.0
 11
90.38643993477819
 21
135.5705185325477
 31
0.0
  0
SOLID
  5
6C4
330
359
100
AcDbEntity
  8
0
 62
   123
100
AcDbTrace
 10
20.38643993477831
 20
135.9871851992143
 30
0.0
 11
20.38643993477831
 21
135.153851865881
 31
0.0
 12
17.88643993477831
 22
135.5705185325477
 32
0.0
 13
17.88643993477831
 23
135.5705185325477
 33
0.0
  0
SOLID
  5
6C5
330
359
100
AcDbEntity
  8
0
 62
   123
100
AcDbTrace
 10
90.38643993477819
 20
135.9871851992143
 30
0.0
 11
90.38643993477819
 21
135.153851865881
 31
0.0
 12
92.88643993477819
 22
135.5705185325477
 32
0.0
 13
92.88643993477819
 23
135.5705185325477
 33
0.0
  0
MTEXT
  5
6C6
330
359
100
AcDbEntity
  8
0
 62
     3
100
AcDbMText
 10
55.38643993478921
 20
138.0705185325477
 30
0.0
 40
3.0
 41
0.0
 71
     5
 72
     1
  1
\A1;75
 73
     1
 44
1.0
1001
ACAD
1000
MTEXTBEGIN
1070
    73
1070
     1
1070
    44
1040
1.0
1070
    74
1070
     0
1000
MTEXTEND
  0
POINT
  5
6C7
330
359
100
AcDbEntity
  8
DEFPOINTS
 62
     0
100
AcDbPoint
 10
17.88643993477831
 20
135.5705185325477
 30
0.0
  0
POINT
  5
6C8
330
359
100
AcDbEntity
  8
DEFPOINTS
 62
     0
100
AcDbPoint
 10
92.88643993477819
 20
113.9201463142508
 30
0.0
  0
POINT
  5
6C9
330
359
100
AcDbEntity
  8
DEFPOINTS
 62
     0
100
AcDbPoint
 10
92.88643993477819
 20
135.5705185325477
 30
0.0
  0
ENDBLK
  5
364
330
359
100
AcDbEntity
  8
0
100
AcDbBlockEnd
  0
BLOCK
  5
36F
330
365
100
AcDbEntity
  8
0
100
AcDbBlockBegin
  2
*D30
 70
     1
 10
0.0
 20
0.0
 30
0.0
  3
*D30
  1

  0
LINE
  5
6CA
330
365
100
AcDbEntity
  8
0
 62
   123
100
AcDbLine
 10
5.385730497689792
 20
89.74014631425081
 30
0.0
 11
5.385730497689793
 21
136.1705185325477
 31
0.0
  0
LINE
  5
6CB
330
365
100
AcDbEntity
  8
0
 62
   123
100
AcDbLine
 10
17.88643993477831
 20
117.4201463142508
 30
0.0
 11
17.88643993477831
 21
136.1705185325477
 31
0.0
  0
LINE
  5
6CC
330
365
100
AcDbEntity
  8
0
 62
   123
100
AcDbLine
 10
7.885730497689793
 20
135.5705185325477
 30
0.0
 11
15.38643993477831
 21
135.5705185325477
 31
0.0
  0
SOLID
  5
6CD
330
365
100
AcDbEntity
  8
0
 62
   123
100
AcDbTrace
 10
7.885730497689793
 20
135.9871851992143
 30
0.0
 11
7.885730497689793
 21
135.153851865881
 31
0.0
 12
5.385730497689793
 22
135.5705185325477
 32
0.0
 13
5.385730497689793
 23
135.5705185325477
 33
0.0
  0
SOLID
  5
6CE
330
365
100
AcDbEntity
  8
0
 62
   123
100
AcDbTrace
 10
15.38643993477831
 20
135.9871851992143
 30
0.0
 11
15.38643993477831
 21
135.153851865881
 31
0.0
 12
17.88643993477831
 22
135.5705185325477
 32
0.0
 13
17.88643993477831
 23
135.5705185325477
 33
0.0
  0
MTEXT
  5
6CF
330
365
100
AcDbEntity
  8
0
 62
     3
100
AcDbMText
 10
11.63643993478922
 20
138.0705185325477
 30
0.0
 40
3.0
 41
0.0
 71
     5
 72
     1
  1
\A1;12.5
 73
     1
 44
1.0
1001
ACAD
1000
MTEXTBEGIN
1070
    73
1070
     1
1070
    44
1040
1.0
1070
    74
1070
     0
1000
MTEXTEND
  0
POINT
  5
6D0
330
365
100
AcDbEntity
  8
DEFPOINTS
 62
     0
100
AcDbPoint
 10
5.385730497689792
 20
88.74014631425081
 30
0.0
  0
POINT
  5
6D1
330
365
100
AcDbEntity
  8
DEFPOINTS
 62
     0
100
AcDbPoint
 10
17.88643993477831
 20
116.4201463142508
 30
0.0
  0
POINT
  5
6D2
330
365
100
AcDbEntity
  8
DEFPOINTS
 62
     0
100
AcDbPoint
 10
17.88643993477831
 20
135.5705185325477
 30
0.0
  0
ENDBLK
  5
370
330
365
100
AcDbEntity
  8
0
100
AcDbBlockEnd
  0
BLOCK
  5
37B
330
371
100
AcDbEntity
  8
0
100
AcDbBlockBegin
  2
*D31
 70
     1
 10
0.0
 20
0.0
 30
0.0
  3
*D31
  1

  0
LINE
  5
6DB
330
371
100
AcDbEntity
  8
0
 62
   123
100
AcDbLine
 10
-98.4415668170825
 20
112.4201463142508
 30
0.0
 11
-98.4415668170825
 21
130.6712441085568
 31
0.0
  0
LINE
  5
6DC
330
371
100
AcDbEntity
  8
0
 62
   123
100
AcDbLine
 10
-38.4415668170825
 20
112.4201463142508
 30
0.0
 11
-38.4415668170825
 21
130.6712441085568
 31
0.0
  0
LINE
  5
6DD
330
371
100
AcDbEntity
  8
0
 62
   123
100
AcDbLine
 10
-95.9415668170825
 20
130.0712441085568
 30
0.0
 11
-40.9415668170825
 21
130.0712441085568
 31
0.0
  0
SOLID
  5
6DE
330
371
100
AcDbEntity
  8
0
 62
   123
100
AcDbTrace
 10
-95.9415668170825
 20
130.4879107752235
 30
0.0
 11
-95.9415668170825
 21
129.6545774418902
 31
0.0
 12
-98.4415668170825
 22
130.0712441085568
 32
0.0
 13
-98.4415668170825
 23
130.0712441085568
 33
0.0
  0
SOLID
  5
6DF
330
371
100
AcDbEntity
  8
0
 62
   123
100
AcDbTrace
 10
-40.9415668170825
 20
130.4879107752235
 30
0.0
 11
-40.9415668170825
 21
129.6545774418902
 31
0.0
 12
-38.4415668170825
 22
130.0712441085568
 32
0.0
 13
-38.4415668170825
 23
130.0712441085568
 33
0.0
  0
MTEXT
  5
6E0
330
371
100
AcDbEntity
  8
0
 62
     3
100
AcDbMText
 10
-68.77230557674034
 20
132.5712441085568
 30
0.0
 40
3.0
 41
0.0
 71
     5
 72
     1
  1
\A1;60
 73
     1
 44
1.0
1001
ACAD
1000
MTEXTBEGIN
1070
    73
1070
     1
1070
    44
1040
1.0
1070
    74
1070
     0
1000
MTEXTEND
  0
POINT
  5
6E1
330
371
100
AcDbEntity
  8
DEFPOINTS
 62
     0
100
AcDbPoint
 10
-98.4415668170825
 20
111.4201463142508
 30
0.0
  0
POINT
  5
6E2
330
371
100
AcDbEntity
  8
DEFPOINTS
 62
     0
100
AcDbPoint
 10
-38.4415668170825
 20
111.4201463142508
 30
0.0
  0
POINT
  5
6E3
330
371
100
AcDbEntity
  8
DEFPOINTS
 62
     0
100
AcDbPoint
 10
-38.4415668170825
 20
130.0712441085568
 30
0.0
  0
ENDBLK
  5
37C
330
371
100
AcDbEntity
  8
0
100
AcDbBlockEnd
  0
BLOCK
  5
386
330
37D
100
AcDbEntity
  8
0
100
AcDbBlockBegin
  2
*D32
 70
     1
 10
0.0
 20
0.0
 30
0.0
  3
*D32
  1

  0
LINE
  5
715
330
37D
100
AcDbEntity
  8
0
 62
   123
100
AcDbLine
 10
-15.39170939775896
 20
119.3297066030942
 30
0.0
 11
-36.57523369908141
 21
106.1884748630327
 31
0.0
  0
LINE
  5
716
330
37D
100
AcDbEntity
  8
0
 62
   123
100
AcDbLine
 10
-100.3078999350776
 20
66.6518177654726
 30
0.0
 11
-102.4323221429443
 21
65.33392919555379
 31
0.0
  0
MTEXT
  5
717
102
{ACAD_XDICTIONARY
360
7DB
102
}
330
37D
100
AcDbEntity
  8
0
 62
     3
100
AcDbMText
 10
-25.38938013124758
 20
116.0696126538642
 30
0.0
 40
3.0
 41
0.0
 71
     5
 72
     1
  1
\A1;\U+220570%%p0.5
 11
0.8497688831466955
 21
0.5271554279675185
 31
0.0
 73
     1
 44
1.0
1001
ACAD
1000
MTEXTBEGIN
1070
    73
1070
     1
1070
    44
1040
1.0
1070
    74
1070
     0
1000
MTEXTEND
  0
LINE
  5
718
330
37D
100
AcDbEntity
  8
0
 62
   123
100
AcDbLine
 10
-98.18347772721088
 20
67.96970633539139
 30
0.0
 11
-38.69965590694814
 21
104.8705862931139
 31
0.0
  0
SOLID
  5
719
330
37D
100
AcDbEntity
  8
0
 62
   123
100
AcDbTrace
 10
-100.527548030064
 20
67.00588813345039
 30
0.0
 11
-100.0882518400911
 21
66.29774739749482
 31
0.0
 12
-98.18347772721088
 22
67.96970633539139
 32
0.0
 13
-98.18347772721088
 23
67.96970633539139
 33
0.0
  0
SOLID
  5
71A
330
37D
100
AcDbEntity
  8
0
 62
   123
100
AcDbTrace
 10
-36.79488179406789
 20
106.5425452310105
 30
0.0
 11
-36.35558560409494
 21
105.8344044950549
 31
0.0
 12
-38.69965590694814
 22
104.8705862931139
 32
0.0
 13
-38.69965590694814
 23
104.8705862931139
 33
0.0
  0
POINT
  5
71B
330
37D
100
AcDbEntity
  8
DEFPOINTS
 62
     0
100
AcDbPoint
 10
-38.69965590694814
 20
104.8705862931139
 30
0.0
  0
POINT
  5
71C
330
37D
100
AcDbEntity
  8
DEFPOINTS
 62
     0
100
AcDbPoint
 10
-98.18347772721088
 20
67.96970633539139
 30
0.0
  0
ENDBLK
  5
387
330
37D
100
AcDbEntity
  8
0
100
AcDbBlockEnd
  0
BLOCK
  5
394
330
388
100
AcDbEntity
  8
0
100
AcDbBlockBegin
  2
*D33
 70
     1
 10
0.0
 20
0.0
 30
0.0
  3
*D33
  1

  0
LINE
  5
6F8
330
388
100
AcDbEntity
  8
0
 62
   123
100
AcDbLine
 10
15.8864399347783
 20
114.4201463142508
 30
0.0
 11
15.8864399347783
 21
126.2284796475847
 31
0.0
  0
LINE
  5
6F9
330
388
100
AcDbEntity
  8
0
 62
   123
100
AcDbLine
 10
17.88643993477831
 20
117.4201463142508
 30
0.0
 11
17.88643993477831
 21
126.2284796475847
 31
0.0
  0
LINE
  5
6FA
330
388
100
AcDbEntity
  8
0
 62
   123
100
AcDbLine
 10
20.38643993477831
 20
125.6284796475847
 30
0.0
 11
22.88643993477831
 21
125.6284796475847
 31
0.0
  0
LINE
  5
6FB
330
388
100
AcDbEntity
  8
0
 62
   123
100
AcDbLine
 10
13.3864399347783
 20
125.6284796475847
 30
0.0
 11
6.886439934778309
 21
125.6284796475847
 31
0.0
  0
LINE
  5
6FC
330
388
100
AcDbEntity
  8
0
 62
   123
100
AcDbLine
 10
17.88643993477831
 20
125.6284796475847
 30
0.0
 11
15.8864399347783
 21
125.6284796475847
 31
0.0
  0
SOLID
  5
6FD
330
388
100
AcDbEntity
  8
0
 62
   123
100
AcDbTrace
 10
20.38643993477831
 20
126.0451463142514
 30
0.0
 11
20.38643993477831
 21
125.211812980918
 31
0.0
 12
17.88643993477831
 22
125.6284796475847
 32
0.0
 13
17.88643993477831
 23
125.6284796475847
 33
0.0
  0
SOLID
  5
6FE
330
388
100
AcDbEntity
  8
0
 62
   123
100
AcDbTrace
 10
13.3864399347783
 20
126.0451463142514
 30
0.0
 11
13.3864399347783
 21
125.211812980918
 31
0.0
 12
15.8864399347783
 22
125.6284796475847
 32
0.0
 13
15.8864399347783
 23
125.6284796475847
 33
0.0
  0
MTEXT
  5
6FF
330
388
100
AcDbEntity
  8
0
 62
     3
100
AcDbMText
 10
8.886439934778309
 20
128.1284796475847
 30
0.0
 40
3.0
 41
0.0
 71
     5
 72
     1
  1
\A1;2
 73
     1
 44
1.0
1001
ACAD
1000
MTEXTBEGIN
1070
    73
1070
     1
1070
    44
1040
1.0
1070
    74
1070
     0
1000
MTEXTEND
  0
POINT
  5
700
330
388
100
AcDbEntity
  8
DEFPOINTS
 62
     0
100
AcDbPoint
 10
15.8864399347783
 20
113.4201463142508
 30
0.0
  0
POINT
  5
701
330
388
100
AcDbEntity
  8
DEFPOINTS
 62
     0
100
AcDbPoint
 10
17.88643993477831
 20
116.4201463142508
 30
0.0
  0
POINT
  5
702
330
388
100
AcDbEntity
  8
DEFPOINTS
 62
     0
100
AcDbPoint
 10
17.88643993477831
 20
125.6284796475847
 30
0.0
  0
ENDBLK
  5
395
330
388
100
AcDbEntity
  8
0
100
AcDbBlockEnd
  0
BLOCK
  5
3A0
330
396
100
AcDbEntity
  8
0
100
AcDbBlockBegin
  2
*D34
 70
     1
 10
0.0
 20
0.0
 30
0.0
  3
*D34
  1

  0
LINE
  5
703
330
396
100
AcDbEntity
  8
0
 62
   123
100
AcDbLine
 10
17.88643993477831
 20
126.6284796475838
 30
0.0
 11
17.88643993477831
 21
126.2284796475847
 31
0.0
  0
LINE
  5
704
330
396
100
AcDbEntity
  8
0
 62
   123
100
AcDbLine
 10
24.88643993478922
 20
116.0188836557797
 30
0.0
 11
24.88643993478922
 21
126.2284796475847
 31
0.0
  0
LINE
  5
705
330
396
100
AcDbEntity
  8
0
 62
   123
100
AcDbLine
 10
20.38643993477831
 20
125.6284796475847
 30
0.0
 11
22.38643993478922
 21
125.6284796475847
 31
0.0
  0
SOLID
  5
706
330
396
100
AcDbEntity
  8
0
 62
   123
100
AcDbTrace
 10
20.38643993477831
 20
126.0451463142514
 30
0.0
 11
20.38643993477831
 21
125.211812980918
 31
0.0
 12
17.88643993477831
 22
125.6284796475847
 32
0.0
 13
17.88643993477831
 23
125.6284796475847
 33
0.0
  0
SOLID
  5
707
330
396
100
AcDbEntity
  8
0
 62
   123
100
AcDbTrace
 10
22.38643993478922
 20
126.0451463142514
 30
0.0
 11
22.38643993478922
 21
125.211812980918
 31
0.0
 12
24.88643993478922
 22
125.6284796475847
 32
0.0
 13
24.88643993478922
 23
125.6284796475847
 33
0.0
  0
MTEXT
  5
708
330
396
100
AcDbEntity
  8
0
 62
     3
100
AcDbMText
 10
21.38643993477831
 20
128.1284796475847
 30
0.0
 40
3.0
 41
0.0
 71
     5
 72
     1
  1
\A1;7
 73
     1
 44
1.0
1001
ACAD
1000
MTEXTBEGIN
1070
    73
1070
     1
1070
    44
1040
1.0
1070
    74
1070
     0
1000
MTEXTEND
  0
POINT
  5
709
330
396
100
AcDbEntity
  8
DEFPOINTS
 62
     0
100
AcDbPoint
 10
17.88643993477831
 20
125.6284796475838
 30
0.0
  0
POINT
  5
70A
330
396
100
AcDbEntity
  8
DEFPOINTS
 62
     0
100
AcDbPoint
 10
24.88643993478922
 20
115.0188836557797
 30
0.0
  0
POINT
  5
70B
330
396
100
AcDbEntity
  8
DEFPOINTS
 62
     0
100
AcDbPoint
 10
24.88643993478922
 20
125.6284796475847
 30
0.0
  0
ENDBLK
  5
3A1
330
396
100
AcDbEntity
  8
0
100
AcDbBlockEnd
  0
BLOCK
  5
3AC
330
3A2
100
AcDbEntity
  8
0
100
AcDbBlockBegin
  2
*D35
 70
     1
 10
0.0
 20
0.0
 30
0.0
  3
*D35
  1

  0
LINE
  5
70C
330
3A2
100
AcDbEntity
  8
0
 62
   123
100
AcDbLine
 10
86.88643993478908
 20
116.4201463142508
 30
0.0
 11
105.6982010658678
 21
116.4201463142507
 31
0.0
  0
LINE
  5
70D
330
3A2
100
AcDbEntity
  8
0
 62
   123
100
AcDbLine
 10
86.88643993478908
 20
56.42014631425087
 30
0.0
 11
105.6982010658678
 21
56.42014631425087
 31
0.0
  0
LINE
  5
70E
330
3A2
100
AcDbEntity
  8
0
 62
   123
100
AcDbLine
 10
105.0982010658678
 20
113.9201463142508
 30
0.0
 11
105.0982010658678
 21
58.92014631425087
 31
0.0
  0
SOLID
  5
70F
330
3A2
100
AcDbEntity
  8
0
 62
   123
100
AcDbTrace
 10
104.6815343992012
 20
113.9201463142508
 30
0.0
 11
105.5148677325345
 21
113.9201463142508
 31
0.0
 12
105.0982010658678
 22
116.4201463142507
 32
0.0
 13
105.0982010658678
 23
116.4201463142507
 33
0.0
  0
SOLID
  5
710
330
3A2
100
AcDbEntity
  8
0
 62
   123
100
AcDbTrace
 10
104.6815343992011
 20
58.92014631425087
 30
0.0
 11
105.5148677325345
 21
58.92014631425087
 31
0.0
 12
105.0982010658678
 22
56.42014631425087
 32
0.0
 13
105.0982010658678
 23
56.42014631425087
 33
0.0
  0
MTEXT
  5
711
330
3A2
100
AcDbEntity
  8
0
 62
     3
100
AcDbMText
 10
102.5982010658678
 20
85.92014631425087
 30
0.0
 40
3.0
 41
0.0
 71
     5
 72
     1
  1
\A1;%%C60
 11
0.0000000000000001
 21
1.0
 31
0.0
 73
     1
 44
1.0
1001
ACAD
1000
MTEXTBEGIN
1070
    73
1070
     1
1070
    44
1040
1.0
1070
    74
1070
     0
1000
MTEXTEND
  0
POINT
  5
712
330
3A2
100
AcDbEntity
  8
DEFPOINTS
 62
     0
100
AcDbPoint
 10
85.88643993478909
 20
116.4201463142508
 30
0.0
  0
POINT
  5
713
330
3A2
100
AcDbEntity
  8
DEFPOINTS
 62
     0
100
AcDbPoint
 10
85.88643993478909
 20
56.42014631425087
 30
0.0
  0
POINT
  5
714
330
3A2
100
AcDbEntity
  8
DEFPOINTS
 62
     0
100
AcDbPoint
 10
105.0982010658678
 20
56.42014631425087
 30
0.0
  0
ENDBLK
  5
3AD
330
3A2
100
AcDbEntity
  8
0
100
AcDbBlockEnd
  0
BLOCK
  5
3B8
330
3AE
100
AcDbEntity
  8
0
100
AcDbBlockBegin
  2
*D36
 70
     1
 10
0.0
 20
0.0
 30
0.0
  3
*D36
  1

  0
LINE
  5
6EF
330
3AE
100
AcDbEntity
  8
0
 62
   123
100
AcDbLine
 10
14.88643993477831
 20
113.4201463142508
 30
0.0
 11
-3.459906867290399
 21
113.4201463142508
 31
0.0
  0
LINE
  5
6F0
330
3AE
100
AcDbEntity
  8
0
 62
   123
100
AcDbLine
 10
14.88643993477831
 20
59.42014631425087
 30
0.0
 11
-3.459906867290412
 21
59.42014631425087
 31
0.0
  0
LINE
  5
6F1
330
3AE
100
AcDbEntity
  8
0
 62
   123
100
AcDbLine
 10
-2.859906867290399
 20
110.9201463142508
 30
0.0
 11
-2.859906867290411
 21
61.92014631425087
 31
0.0
  0
SOLID
  5
6F2
330
3AE
100
AcDbEntity
  8
0
 62
   123
100
AcDbTrace
 10
-3.276573533957066
 20
110.9201463142508
 30
0.0
 11
-2.443240200623732
 21
110.9201463142508
 31
0.0
 12
-2.859906867290399
 22
113.4201463142508
 32
0.0
 13
-2.859906867290399
 23
113.4201463142508
 33
0.0
  0
SOLID
  5
6F3
330
3AE
100
AcDbEntity
  8
0
 62
   123
100
AcDbTrace
 10
-3.276573533957076
 20
61.92014631425087
 30
0.0
 11
-2.443240200623744
 21
61.92014631425087
 31
0.0
 12
-2.859906867290411
 22
59.42014631425087
 32
0.0
 13
-2.859906867290411
 23
59.42014631425087
 33
0.0
  0
MTEXT
  5
6F4
330
3AE
100
AcDbEntity
  8
0
 62
     3
100
AcDbMText
 10
-6.810056867290418
 20
84.57711527634279
 30
0.0
 40
3.0
 41
0.0
 71
     5
 72
     1
  1
\A1;\A1;%%C54{\f??|b0|i0|c0|p49;\H0.7x;\S+0^ -0.03;\H1.429x;(h7)} 
 11
0.0000000000000001
 21
1.0
 31
0.0
 73
     1
 44
1.0
1001
ACAD
1000
MTEXTBEGIN
1070
    73
1070
     1
1070
    44
1040
1.0
1070
    74
1070
     0
1000
MTEXTEND
  0
POINT
  5
6F5
330
3AE
100
AcDbEntity
  8
DEFPOINTS
 62
     0
100
AcDbPoint
 10
15.8864399347783
 20
113.4201463142508
 30
0.0
  0
POINT
  5
6F6
330
3AE
100
AcDbEntity
  8
DEFPOINTS
 62
     0
100
AcDbPoint
 10
15.8864399347783
 20
59.42014631425087
 30
0.0
  0
POINT
  5
6F7
330
3AE
100
AcDbEntity
  8
DEFPOINTS
 62
     0
100
AcDbPoint
 10
-2.859906867290411
 20
59.42014631425087
 30
0.0
  0
ENDBLK
  5
3B9
330
3AE
100
AcDbEntity
  8
0
100
AcDbBlockEnd
  0
BLOCK
  5
3C6
330
3BA
100
AcDbEntity
  8
0
100
AcDbBlockBegin
  2
*D37
 70
     1
 10
0.0
 20
0.0
 30
0.0
  3
*D37
  1

  0
LINE
  5
7B0
330
3BA
100
AcDbEntity
  8
0
 62
   123
370
    -2
100
AcDbLine
 10
-68.44156681708252
 20
50.42014631425086
 30
0.0
 11
-68.44156681708253
 21
31.90978391139649
 31
0.0
  0
LINE
  5
7B1
330
3BA
100
AcDbEntity
  8
0
 62
   123
370
    -2
100
AcDbLine
 10
-54.76547476655795
 20
53.40313940561157
 30
0.0
 11
-47.58135423329327
 21
36.05913818048096
 31
0.0
  0
ARC
  5
7B2
330
3BA
100
AcDbEntity
  8
0
 62
   123
370
    -2
100
AcDbCircle
 10
-68.44156681708252
 20
86.42014631425082
 30
0.0
 40
53.91036240285432
100
AcDbArc
 50
272.6572310079007
 51
289.8427689920993
  0
SOLID
  5
7B3
330
3BA
100
AcDbEntity
  8
0
 62
   123
100
AcDbTrace
 10
-65.93257783387336
 20
32.15119585631632
 30
0.0
 11
-65.95190003131811
 21
32.98430515114525
 31
0.0
 12
-68.44156681708253
 22
32.5097839113965
 32
0.0
 13
-68.44156681708253
 23
32.5097839113965
 33
0.0
  0
SOLID
  5
7B4
330
3BA
100
AcDbEntity
  8
0
 62
   123
100
AcDbTrace
 10
-50.2927078956104
 20
36.09911213011179
 30
0.0
 11
-49.99174215387236
 21
35.32202521943544
 31
0.0
 12
-47.81096429271232
 22
36.61346589998772
 32
0.0
 13
-47.81096429271232
 23
36.61346589998772
 33
0.0
  0
MTEXT
  5
7B5
330
3BA
100
AcDbEntity
  8
0
 62
     3
100
AcDbMText
 10
-58.73810948134085
 20
36.22480229874643
 30
0.0
 40
3.0
 41
0.0
 71
     5
 72
     1
  1
\A1;22\U+00B030'
 11
0.9818227775474099
 21
0.1897999828479691
 31
0.0
 73
     1
 44
1.0
1001
ACAD
1000
MTEXTBEGIN
1070
    73
1070
     1
1070
    44
1040
1.0
1070
    74
1070
     0
1000
MTEXTEND
  0
POINT
  5
7B6
330
3BA
100
AcDbEntity
  8
DEFPOINTS
 62
     0
100
AcDbPoint
 10
-54.4885382988449
 20
34.34673496473064
 30
0.0
  0
POINT
  5
7B7
330
3BA
100
AcDbEntity
  8
DEFPOINTS
 62
     0
100
AcDbPoint
 10
-68.44156681708252
 20
51.42014631425086
 30
0.0
  0
POINT
  5
7B8
330
3BA
100
AcDbEntity
  8
DEFPOINTS
 62
     0
100
AcDbPoint
 10
-68.44156681708252
 20
86.42014631425082
 30
0.0
  0
POINT
  5
7B9
330
3BA
100
AcDbEntity
  8
DEFPOINTS
 62
     0
100
AcDbPoint
 10
-55.14815819892304
 20
54.32701893812286
 30
0.0
  0
POINT
  5
7BA
330
3BA
100
AcDbEntity
  8
DEFPOINTS
 62
     0
100
AcDbPoint
 10
-68.44156681708252
 20
121.4201463142508
 30
0.0
  0
ENDBLK
  5
3C7
330
3BA
100
AcDbEntity
  8
0
100
AcDbBlockEnd
  0
ENDSEC
  0
SECTION
  2
ENTITIES
  0
LEADER
  5
9B
330
2
100
AcDbEntity
  8
0
100
AcDbLeader
  3
STANDARD
 73
     0
 75
     1
 40
3.0
 41
26.65178571428572
 76
     3
 10
-43.69282947555097
 20
112.9188836557807
 30
0.0
 10
-48.69414663428165
 20
138.3487371762228
 30
0.0
 10
-51.19414663428165
 20
138.3487371762228
 30
0.0
340
9C
1001
ACAD
1000
DSTYLE
1002
{
1070
     5
1000

1070
    77
1070
     1
1070
   147
1040
1.0
1070
   342
1005
0
1002
}
  0
MTEXT
  5
9C
102
{ACAD_REACTORS
330
9B
102
}
330
2
100
AcDbEntity
  8
0
 62
     3
100
AcDbMText
 10
-52.19414663428164
 20
139.3487371762228
 30
0.0
 40
3.0
 41
0.0
 71
     9
 72
     1
  1
4-%%c4.5 hole
 73
     1
 44
1.0
1001
ACAD
1000
MTEXTBEGIN
1070
    73
1070
     1
1070
    44
1040
1.0
1070
    74
1070
     0
1000
MTEXTEND
  0
DIMENSION
  5
9E
102
{ACAD_XDICTIONARY
360
9F
102
}
102
{ACAD_REACTORS
330
A0
102
}
330
2
100
AcDbEntity
  8
0
100
AcDbDimension
  2
*D37
 10
-68.4415668170825
 20
121.4201463142508
 30
0.0
 11
-58.20938095769294
 21
33.48972456129293
 31
0.0
 70
   162
 71
     5
 42
0.3926990816987246
  3
STANDARD
100
AcDb2LineAngularDimension
 13
-68.4415668170825
 23
86.42014631425082
 33
0.0
 14
-55.14815819892304
 24
54.32701893812286
 34
0.0
 15
-68.4415668170825
 25
51.42014631425086
 35
0.0
 16
-54.4885382988449
 26
34.34673496473064
 36
0.0
1001
ACAD
1000
DSTYLE
1002
{
1070
   179
1070
     1
1070
   271
1070
     0
1070
   271
1070
     1
1070
   271
1070
     1
1070
   271
1070
     1
1070
   271
1070
     1
1070
   271
1070
     1
1070
   271
1070
     1
1070
   271
1070
     1
1070
   271
1070
     1
1070
   271
1070
     1
1070
   271
1070
     1
1070
   271
1070
     1
1070
   271
1070
     1
1070
   271
1070
     1
1070
   271
1070
     1
1070
   271
1070
     1
1070
   271
1070
     1
1070
   271
1070
     1
1070
   271
1070
     1
1070
   271
1070
     1
1070
   271
1070
     1
1070
   271
1070
     1
1070
   271
1070
     1
1070
   271
1070
     1
1070
   271
1070
     1
1070
   271
1070
     1
1070
   271
1070
     1
1070
   271
1070
     1
1070
   271
1070
     1
1070
   271
1070
     1
1070
   271
1070
     1
1070
   271
1070
     1
1070
   271
1070
     1
1070
   271
1070
     1
1070
   271
1070
     1
1070
   271
1070
     1
1070
   271
1070
     1
1070
   271
1070
     1
1070
   271
1070
     1
1070
   271
1070
     1
1070
   271
1070
     1
1070
   271
1070
     1
1070
   271
1070
     1
1070
   271
1070
     1
1070
   271
1070
     1
1070
   271
1070
     1
1070
   271
1070
     1
1070
   271
1070
     1
1070
   271
1070
     1
1070
   271
1070
     1
1070
   271
1070
     1
1070
   271
1070
     1
1070
   271
1070
     1
1070
   271
1070
     1
1070
   271
1070
     1
1070
   271
1070
     1
1070
   271
1070
     1
1070
   271
1070
     1
1070
   271
1070
     1
1070
   271
1070
     1
1070
   271
1070
     1
1070
   271
1070
     1
1070
   271
1070
     1
1070
   271
1070
     1
1070
   271
1070
     1
1070
   271
1070
     1
1070
   271
1070
     1
1070
   271
1070
     1
1070
   271
1070
     1
1070
   271
1070
     1
1070
   271
1070
     1
1070
   271
1070
     1
1070
   271
1070
     1
1070
   271
1070
     1
1070
   271
1070
     1
1070
   271
1070
     1
1070
   271
1070
     1
1070
   271
1070
     1
1070
   271
1070
     1
1070
   271
1070
     1
1070
   271
1070
     1
1070
   271
1070
     1
1070
   271
1070
     1
1070
   271
1070
     1
1070
   271
1070
     1
1070
   271
1070
     1
1070
   271
1070
     1
1070
   271
1070
     1
1070
   271
1070
     1
1070
   271
1070
     1
1070
   271
1070
     1
1070
   271
1070
     1
1070
   271
1070
     1
1070
   271
1070
     1
1070
   271
1070
     1
1070
   271
1070
     1
1070
   271
1070
     1
1070
   271
1070
     1
1070
   271
1070
     1
1002
}
  0
LEADER
  5
B0
330
2
100
AcDbEntity
  8
0
100
AcDbLeader
  3
STANDARD
 76
     2
 10
32.5237042678907
 20
41.67926298859588
 30
0.0
 10
37.16013818401711
 20
22.1969923950899
 30
0.0
1001
ACAD
1000
DSTYLE
1002
{
1070
     5
1000

1070
    77
1070
     1
1070
   147
1040
1.0
1070
   342
1005
0
1002
}
  0
MTEXT
  5
B1
330
2
100
AcDbEntity
  8
DIM
100
AcDbMText
 10
73.55229810497781
 20
25.70272461285485
 30
0.0
 40
3.5
 41
0.0
 71
     5
 72
     1
  1
MOTOR LEAD WIRE 300mm
 73
     1
 44
1.0
1001
ACAD
1000
MTEXTBEGIN
1070
    73
1070
     1
1070
    44
1040
1.0
1070
    74
1070
     0
1000
MTEXTEND
  0
MTEXT
  5
B3
330
2
100
AcDbEntity
  8
DIM
100
AcDbMText
 10
69.45522687764763
 20
17.02025222285287
 30
0.0
 40
3.5
 41
0.0
 71
     5
 72
     1
  1
UL Style 3266 , AWG20
 73
     1
 44
1.0
1001
ACAD
1000
MTEXTBEGIN
1070
    73
1070
     1
1070
    44
1040
1.0
1070
    74
1070
     0
1000
MTEXTEND
  0
LEADER
  5
B4
330
2
100
AcDbEntity
  8
0
100
AcDbLeader
  3
STANDARD
 73
     0
 75
     1
 40
3.0
 41
26.65178571428572
 76
     3
 10
-50.4738254497845
 20
-57.71382208484915
 30
0.0
 10
-55.47514260850061
 20
-32.28396856440595
 30
0.0
 10
-57.97514260850061
 20
-32.28396856440595
 30
0.0
340
B5
1001
ACAD
1000
DSTYLE
1002
{
1070
     5
1000

1070
    77
1070
     1
1070
   147
1040
1.0
1070
   342
1005
0
1002
}
  0
MTEXT
  5
B5
102
{ACAD_REACTORS
330
B4
102
}
330
2
100
AcDbEntity
  8
0
 62
     3
100
AcDbMText
 10
-58.97514260850061
 20
-31.28396856440595
 30
0.0
 40
3.0
 41
0.0
 71
     9
 72
     1
  1
4-%%c4.5 hole
 73
     1
 44
1.0
1001
ACAD
1000
MTEXTBEGIN
1070
    73
1070
     1
1070
    44
1040
1.0
1070
    74
1070
     0
1000
MTEXTEND
  0
LEADER
  5
B6
330
2
100
AcDbEntity
  8
0
 48
0.6
100
AcDbLeader
  3
STANDARD
 76
     2
 10
42.15628597070781
 20
-128.9336709820913
 30
0.0
 10
47.58063667499095
 20
-148.437081696443
 30
0.0
1001
ACAD
1000
DSTYLE
1002
{
1070
     5
1000

1070
    77
1070
     1
1070
   147
1040
1.0
1070
   342
1005
0
1002
}
  0
MTEXT
  5
B7
330
2
100
AcDbEntity
  8
DIM
100
AcDbMText
 10
84.32281053474225
 20
-144.9719725698811
 30
0.0
 40
3.5
 41
0.0
 71
     5
 72
     1
  1
MOTOR LEAD WIRE 300mm
 73
     1
 44
1.0
1001
ACAD
1000
MTEXTBEGIN
1070
    73
1070
     1
1070
    44
1040
1.0
1070
    74
1070
     0
1000
MTEXTEND
  0
MTEXT
  5
B8
330
2
100
AcDbEntity
  8
DIM
100
AcDbMText
 10
80.26413752691745
 20
-153.0801891011882
 30
0.0
 40
3.5
 41
0.0
 71
     5
 72
     1
  1
UL Style 3266 , AWG20
 73
     1
 44
1.0
1001
ACAD
1000
MTEXTBEGIN
1070
    73
1070
     1
1070
    44
1040
1.0
1070
    74
1070
     0
1000
MTEXTEND
  0
DIMENSION
  5
B9
102
{ACAD_XDICTIONARY
360
BA
102
}
102
{ACAD_REACTORS
330
BB
102
}
330
2
100
AcDbEntity
  8
0
100
AcDbDimension
  2
*D28
 10
-75.30102110298162
 20
-49.21392777728121
 30
0.0
 11
-65.71562011015416
 21
-132.4029927363868
 31
0.0
 70
    34
  1
<>
 71
     5
 42
0.3926990816987015
  3
STANDARD
100
AcDb2LineAngularDimension
 13
-75.30102110298162
 23
-84.21392777728028
 33
0.0
 14
-62.00761248482216
 24
-116.3070551534102
 34
0.0
 15
-75.30102110298162
 25
-119.2139277772822
 35
0.0
 16
-68.52425015414133
 26
-135.6886135829331
 36
0.0
1001
ACAD
1000
DSTYLE
1002
{
1070
   179
1070
     1
1070
   271
1070
     1
1002
}
  0
DIMENSION
  5
CA
102
{ACAD_XDICTIONARY
360
CB
102
}
102
{ACAD_REACTORS
330
CC
102
}
330
2
100
AcDbEntity
  8
0
 48
0.6
100
AcDbDimension
  2
*D27
 10
-104.6769609027637
 20
-103.2416486308264
 30
0.0
 11
-31.02808525027268
 21
-55.5369536782569
 31
0.0
 70
   163
  1
<>%%p0.5
 71
     5
 42
-1.0
  3
STANDARD
100
AcDbDiametricDimension
 15
-45.92508130322441
 25
-65.18620692373613
 35
0.0
 40
0.0
  0
CIRCLE
  5
D8
330
2
100
AcDbEntity
  8
0
 48
0.6
100
AcDbCircle
 10
-75.30102110298162
 20
-84.21392777728234
 30
0.0
 40
28.5
  0
CIRCLE
  5
D9
330
2
100
AcDbEntity
  8
0
 48
0.6
100
AcDbCircle
 10
-75.30102110298162
 20
-84.21392777728234
 30
0.0
 40
27.00000000000005
  0
CIRCLE
  5
DA
330
2
100
AcDbEntity
  8
0
 48
0.6
100
AcDbCircle
 10
-75.30102110298162
 20
-84.21392777728234
 30
0.0
 40
13.0
  0
LINE
  5
DB
330
2
100
AcDbEntity
  8
0
 48
0.6
100
AcDbLine
 10
-104.3010211029816
 20
-59.21392777728029
 30
0.0
 11
-104.3010211029816
 21
-109.2139277772802
 31
0.0
  0
LINE
  5
DC
102
{ACAD_REACTORS
330
16F
102
}
330
2
100
AcDbEntity
  8
0
 48
0.6
100
AcDbLine
 10
-105.3010211029816
 20
-59.21392777728029
 30
0.0
 11
-105.3010211029816
 21
-109.2139277772802
 31
0.0
  0
ARC
  5
DD
330
2
100
AcDbEntity
  8
0
 48
0.6
100
AcDbCircle
 10
-75.30102110298162
 20
-84.21392777728234
 30
0.0
 40
24.0
100
AcDbArc
 50
116.3656725032109
 51
153.634327496783
  0
ARC
  5
DE
330
2
100
AcDbEntity
  8
0
 48
0.6
100
AcDbCircle
 10
-75.30102110298162
 20
-84.21392777728234
 30
0.0
 40
24.0
100
AcDbArc
 50
26.36567250321681
 51
63.63432749678904
  0
LINE
  5
DF
102
{ACAD_REACTORS
330
BB
102
}
330
2
100
AcDbEntity
  8
CEN
 48
0.6
100
AcDbLine
 10
-75.30102110298162
 20
-119.2139277772822
 30
0.0
 11
-75.30102110298162
 21
-49.21392777728121
 31
0.0
  0
DIMENSION
  5
E2
330
2
100
AcDbEntity
  8
0
 48
0.6
100
AcDbDimension
  2
*D26
 10
-3.965142256484127
 20
-87.21381739182421
 30
0.0
 11
-3.965142256484114
 21
-84.21392777728064
 31
0.0
 70
   160
  1
\A1;%%c<>{\H0.7x;\S+0^ -0.012;\f??|b0|i0|c0|p49;\H1.429x;(h7)}  
 71
     5
 42
-1.0
  3
STANDARD
100
AcDbAlignedDimension
 13
4.806938425759425
 23
-81.21403816273703
 33
0.0
 14
4.806938425759425
 24
-87.21381739182421
 34
0.0
 50
90.0
100
AcDbRotatedDimension
  0
DIMENSION
  5
F1
102
{ACAD_XDICTIONARY
360
F2
102
}
102
{ACAD_REACTORS
330
F3
102
}
330
2
100
AcDbEntity
  8
0
 48
0.6
100
AcDbDimension
  2
*D25
 10
-14.8423003143928
 20
-111.2139277772822
 30
0.0
 11
-14.84230031439278
 21
-87.54277360124223
 31
0.0
 70
   160
  1
\A1;%%C<>{\f??|b0|i0|c0|p49;\H0.7x;\S+0^ -0.03;\H1.429x;(h7)} 
 71
     5
 42
-1.0
  3
STANDARD
100
AcDbAlignedDimension
 13
26.30693842575942
 23
-57.21392777728119
 33
0.0
 14
26.30693842575942
 24
-111.2139277772822
 34
0.0
 50
90.0
100
AcDbRotatedDimension
  0
LINE
  5
100
102
{ACAD_REACTORS
330
192
102
}
330
2
100
AcDbEntity
  8
0
 48
0.6
100
AcDbLine
 10
28.30693842575943
 20
-54.21392777728029
 30
0.0
 11
28.30693842575943
 21
-114.2139277772822
 31
0.0
  0
LINE
  5
101
102
{ACAD_REACTORS
330
F3
330
192
102
}
330
2
100
AcDbEntity
  8
0
 48
0.6
100
AcDbLine
 10
26.30693842575942
 20
-57.21392777728119
 30
0.0
 11
26.30693842575942
 21
-111.2139277772822
 31
0.0
  0
LINE
  5
102
330
2
100
AcDbEntity
  8
0
 48
0.6
100
AcDbLine
 10
34.40693842575797
 20
-54.21392777728029
 30
0.0
 11
34.40693842575797
 21
-114.2139277772822
 31
0.0
  0
LINE
  5
103
330
2
100
AcDbEntity
  8
0
 48
0.6
100
AcDbLine
 10
-46.30102110298161
 20
-59.21392777728029
 30
0.0
 11
-46.30102110298161
 21
-109.2139277772802
 31
0.0
  0
LINE
  5
104
102
{ACAD_REACTORS
330
16F
102
}
330
2
100
AcDbEntity
  8
0
 48
0.6
100
AcDbLine
 10
-45.30102110298162
 20
-59.21392777728029
 30
0.0
 11
-45.30102110298162
 21
-109.2139277772802
 31
0.0
  0
DIMENSION
  5
105
102
{ACAD_XDICTIONARY
360
106
102
}
102
{ACAD_REACTORS
330
107
102
}
330
2
100
AcDbEntity
  8
0
 48
0.6
100
AcDbDimension
  2
*D24
 10
115.5186995568488
 20
-114.2139277772822
 30
0.0
 11
115.5186995568489
 21
-84.21392777728234
 31
0.0
 70
   160
  1
%%C<>
 71
     5
 42
-1.0
  3
STANDARD
100
AcDbAlignedDimension
 13
96.30693842575931
 23
-54.21392777728232
 33
0.0
 14
96.30693842575931
 24
-114.2139277772822
 34
0.0
 50
90.0
100
AcDbRotatedDimension
  0
LINE
  5
114
330
2
100
AcDbEntity
  8
0
 48
0.6
100
AcDbLine
 10
102.3069384257593
 20
-55.71392777728121
 30
0.0
 11
102.3069384257593
 21
-112.7139277772822
 31
0.0
  0
LINE
  5
115
102
{ACAD_REACTORS
330
107
102
}
330
2
100
AcDbEntity
  8
0
 48
0.6
100
AcDbLine
 10
96.30693842575931
 20
-114.2139277772822
 30
0.0
 11
96.30693842575931
 21
-54.21392777728232
 31
0.0
  0
LINE
  5
116
102
{ACAD_REACTORS
330
1C6
102
}
330
2
100
AcDbEntity
  8
0
 48
0.6
100
AcDbLine
 10
103.3069384257593
 20
-56.71392777728232
 30
0.0
 11
103.3069384257593
 21
-111.7139277772811
 31
0.0
  0
ARC
  5
117
330
2
100
AcDbEntity
  8
0
 48
0.6
100
AcDbCircle
 10
-29.2580963514722
 20
-99.90337512874219
 30
0.0
 40
36.555792
100
AcDbArc
 50
203.0460947298111
 51
236.3176429999981
  0
ARC
  5
118
330
2
100
AcDbEntity
  8
0
 48
0.6
100
AcDbCircle
 10
-29.2580963514722
 20
-99.90337512874219
 30
0.0
 40
33.95579199999998
100
AcDbArc
 50
204.9259499999998
 51
236.3981230000006
  0
ARC
  5
119
330
2
100
AcDbEntity
  8
0
 48
0.6
100
AcDbCircle
 10
-29.2580963514722
 20
-99.90337512874219
 30
0.0
 40
39.15579199999999
100
AcDbArc
 50
201.4369589999971
 51
235.2486590000054
  0
ARC
  5
11A
330
2
100
AcDbEntity
  8
CEN
 48
0.6
100
AcDbCircle
 10
-75.30102110299253
 20
-84.21392777728028
 30
0.0
 40
35.0
100
AcDbArc
 50
304.6885525890122
 51
322.9113558998458
  0
LINE
  5
11B
330
2
100
AcDbEntity
  8
CEN
 48
0.6
100
AcDbLine
 10
-53.55748758150206
 20
-105.9574612987661
 30
0.0
 11
-47.54707994140903
 21
-111.9678689388521
 31
0.0
  0
LINE
  5
11C
330
2
100
AcDbEntity
  8
CEN
 48
0.6
100
AcDbLine
 10
-110.3010211029816
 20
-84.21392777728234
 30
0.0
 11
-40.30102110298162
 21
-84.21392777728234
 31
0.0
  0
LINE
  5
11D
330
2
100
AcDbEntity
  8
0
 48
0.6
100
AcDbLine
 10
-100.3010211029816
 20
-113.2139277772802
 30
0.0
 11
-50.30102110299253
 21
-113.2139277772802
 31
0.0
  0
LINE
  5
11E
330
2
100
AcDbEntity
  8
0
 48
0.6
100
AcDbLine
 10
-100.3010211029816
 20
-114.2139277772802
 30
0.0
 11
-50.30102110299253
 21
-114.2139277772802
 31
0.0
  0
LINE
  5
11F
102
{ACAD_REACTORS
330
BB
102
}
330
2
100
AcDbEntity
  8
0
  6
CENTER
 62
     1
 48
0.6
100
AcDbLine
 10
-75.30102110298162
 20
-84.21392777728028
 30
0.0
 11
-62.00761248482216
 21
-116.3070551534102
 31
0.0
  0
ARC
  5
120
330
2
100
AcDbEntity
  8
0
 48
0.6
100
AcDbCircle
 10
-55.58950526183092
 20
-74.44376179895103
 30
0.0
 40
2.0
100
AcDbArc
 50
321.9486744806221
 51
26.36567250321681
  0
ARC
  5
121
330
2
100
AcDbEntity
  8
0
 48
0.6
100
AcDbCircle
 10
-52.43966954828124
 20
-76.90923030973109
 30
0.0
 40
2.0
100
AcDbArc
 50
141.9486744806222
 51
197.7198081527984
  0
ARC
  5
122
330
2
100
AcDbEntity
  8
0
 48
0.6
100
AcDbCircle
 10
-55.58950526183092
 20
-93.98409375561023
 30
0.0
 40
2.0
100
AcDbArc
 50
333.6343274967831
 51
38.05132551937779
  0
ARC
  5
123
330
2
100
AcDbEntity
  8
0
 48
0.6
100
AcDbCircle
 10
-52.43966954828124
 20
-91.51862524483199
 30
0.0
 40
2.0
100
AcDbArc
 50
162.2801918472015
 51
218.0513255193776
  0
ARC
  5
124
330
2
100
AcDbEntity
  8
0
 48
0.6
100
AcDbCircle
 10
-67.99632363543264
 20
-107.0752793319801
 30
0.0
 40
2.0
100
AcDbArc
 50
51.94867448061305
 51
107.719808152805
  0
ARC
  5
125
330
2
100
AcDbEntity
  8
0
 48
0.6
100
AcDbCircle
 10
-65.53085512465099
 20
-103.92544361843
 30
0.0
 40
2.0
100
AcDbArc
 50
231.948674480613
 51
296.3656725032108
  0
ARC
  5
126
330
2
100
AcDbEntity
  8
0
 48
0.6
100
AcDbCircle
 10
-75.30102110298162
 20
-84.21392777728234
 30
0.0
 40
22.0
100
AcDbArc
 50
342.2801918472013
 51
17.71980815279839
  0
ARC
  5
12B
330
2
100
AcDbEntity
  8
0
 48
0.6
100
AcDbCircle
 10
-75.30102110298162
 20
-84.21392777728234
 30
0.0
 40
24.0
100
AcDbArc
 50
296.3656725032108
 51
333.6343274967831
  0
CIRCLE
  5
12C
330
2
100
AcDbEntity
  8
0
 48
0.6
100
AcDbCircle
 10
-75.30102110298162
 20
-84.21392777728234
 30
0.0
 40
2.000000000000053
  0
CIRCLE
  5
12D
330
2
100
AcDbEntity
  8
0
 48
0.6
100
AcDbCircle
 10
-75.30102110298162
 20
-84.21392777728234
 30
0.0
 40
3.000000000000055
  0
ARC
  5
12E
330
2
100
AcDbEntity
  8
0
 48
0.6
100
AcDbCircle
 10
-85.07118708132315
 20
-103.92544361843
 30
0.0
 40
2.0
100
AcDbArc
 50
243.634327496789
 51
308.0513255193868
  0
ARC
  5
12F
330
2
100
AcDbEntity
  8
0
 48
0.6
100
AcDbCircle
 10
-82.60571857053424
 20
-107.0752793319801
 30
0.0
 40
2.0
100
AcDbArc
 50
72.28019184719491
 51
128.0513255193867
  0
ARC
  5
130
330
2
100
AcDbEntity
  8
0
 48
0.6
100
AcDbCircle
 10
-95.01253694413231
 20
-74.44376179895103
 30
0.0
 40
2.0
100
AcDbArc
 50
153.634327496783
 51
218.0513255193776
  0
ARC
  5
131
330
2
100
AcDbEntity
  8
0
 48
0.6
100
AcDbCircle
 10
-98.16237265768201
 20
-76.90923030973109
 30
0.0
 40
2.0
100
AcDbArc
 50
342.2801918472013
 51
38.05132551937779
  0
ARC
  5
132
330
2
100
AcDbEntity
  8
0
 48
0.6
100
AcDbCircle
 10
-95.01253694413231
 20
-93.98409375561023
 30
0.0
 40
2.0
100
AcDbArc
 50
141.9486744806222
 51
206.3656725032168
  0
ARC
  5
133
330
2
100
AcDbEntity
  8
0
 48
0.6
100
AcDbCircle
 10
-98.16237265768201
 20
-91.51862524483199
 30
0.0
 40
2.0
100
AcDbArc
 50
321.9486744806221
 51
17.71980815279839
  0
ARC
  5
134
330
2
100
AcDbEntity
  8
0
 48
0.6
100
AcDbCircle
 10
-75.30102110298162
 20
-84.21392777728234
 30
0.0
 40
22.0
100
AcDbArc
 50
162.2801918472015
 51
197.7198081527984
  0
ARC
  5
135
330
2
100
AcDbEntity
  8
0
 48
0.6
100
AcDbCircle
 10
-100.3010211029816
 20
-109.2139277772802
 30
0.0
 40
4.0
100
AcDbArc
 50
180.0
 51
270.0
  0
CIRCLE
  5
136
330
2
100
AcDbEntity
  8
0
 48
0.6
100
AcDbCircle
 10
-100.0497584445095
 20
-108.9626651188113
 30
0.0
 40
2.25
  0
ARC
  5
137
330
2
100
AcDbEntity
  8
0
 48
0.6
100
AcDbCircle
 10
-100.3010211029816
 20
-109.2139277772802
 30
0.0
 40
5.0
100
AcDbArc
 50
180.0
 51
270.0
  0
ARC
  5
138
330
2
100
AcDbEntity
  8
CEN
 48
0.6
100
AcDbCircle
 10
-75.30102110299253
 20
-84.21392777728028
 30
0.0
 40
35.0
100
AcDbArc
 50
199.5241366191914
 51
231.1865505975712
  0
LINE
  5
139
330
2
100
AcDbEntity
  8
CEN
 48
0.6
100
AcDbLine
 10
-97.04455462447208
 20
-105.9574612987661
 30
0.0
 11
-103.0549622645505
 21
-111.9678689388521
 31
0.0
  0
ARC
  5
13A
330
2
100
AcDbEntity
  8
0
 48
0.6
100
AcDbCircle
 10
-75.30102110298162
 20
-84.21392777728234
 30
0.0
 40
24.0
100
AcDbArc
 50
206.3656725032168
 51
243.634327496789
  0
ARC
  5
13B
330
2
100
AcDbEntity
  8
0
 48
0.6
100
AcDbCircle
 10
-75.30102110298162
 20
-84.21392777728234
 30
0.0
 40
22.0
100
AcDbArc
 50
252.2801918471949
 51
287.7198081528051
  0
ARC
  5
13C
330
2
100
AcDbEntity
  8
0
 48
0.6
100
AcDbCircle
 10
-45.72967335148336
 20
-131.8103161287409
 30
0.0
 40
0.7499080000000001
100
AcDbArc
 50
92.01298199999559
 51
212.184510000001
  0
ARC
  5
13D
330
2
100
AcDbEntity
  8
0
 48
0.6
100
AcDbCircle
 10
-46.99902435148238
 20
-132.6091891287409
 30
0.0
 40
0.7499080000000001
100
AcDbArc
 50
272.0129819999954
 51
32.18451000000101
  0
CIRCLE
  5
13E
330
2
100
AcDbEntity
  8
0
 48
0.6
100
AcDbCircle
 10
-50.55228376145009
 20
-108.9626651188113
 30
0.0
 40
2.25
  0
ARC
  5
13F
330
2
100
AcDbEntity
  8
0
 48
0.6
100
AcDbCircle
 10
-48.11270135147264
 20
-128.9333511287401
 30
0.0
 40
0.7499080000000001
100
AcDbArc
 50
85.16289500000455
 51
205.3344229999992
  0
ARC
  5
140
330
2
100
AcDbEntity
  8
0
 48
0.6
100
AcDbCircle
 10
-49.46827335147304
 20
-129.5751231287409
 30
0.0
 40
0.7499080000000001
100
AcDbArc
 50
265.1628950000044
 51
25.33442299999946
  0
ARC
  5
141
330
2
100
AcDbEntity
  8
0
 48
0.6
100
AcDbCircle
 10
-51.5142903514809
 20
-131.3278511287422
 30
0.0
 40
0.7499080000000001
100
AcDbArc
 50
265.1628950000044
 51
25.33442299999946
  0
ARC
  5
142
330
2
100
AcDbEntity
  8
0
 48
0.6
100
AcDbCircle
 10
-50.15871735147289
 20
-130.6860781287411
 30
0.0
 40
0.7499080000000001
100
AcDbArc
 50
85.16289500000455
 51
205.3344229999992
  0
ARC
  5
143
330
2
100
AcDbEntity
  8
0
 48
0.6
100
AcDbCircle
 10
-29.2580963514722
 20
-99.90337512874219
 30
0.0
 40
37.855792
100
AcDbArc
 50
235.2486590000054
 51
242.0987460000029
  0
ARC
  5
144
330
2
100
AcDbEntity
  8
0
 48
0.6
100
AcDbCircle
 10
-29.2580963514722
 20
-99.90337512874219
 30
0.0
 40
35.255792
100
AcDbArc
 50
236.3564240000014
 51
242.0987460000029
  0
ARC
  5
145
330
2
100
AcDbEntity
  8
0
 48
0.6
100
AcDbCircle
 10
-50.30102110299253
 20
-109.2139277772802
 30
0.0
 40
4.0
100
AcDbArc
 50
270.0
 51
0.0
  0
ARC
  5
146
330
2
100
AcDbEntity
  8
0
 48
0.6
100
AcDbCircle
 10
-50.30102110299253
 20
-109.2139277772802
 30
0.0
 40
5.0
100
AcDbArc
 50
270.0
 51
0.0
  0
LINE
  5
147
102
{ACAD_REACTORS
330
107
102
}
330
2
100
AcDbEntity
  8
0
 48
0.6
100
AcDbLine
 10
96.30693842575931
 20
-114.2139277772822
 30
0.0
 11
34.40693842575797
 21
-114.2139277772822
 31
0.0
  0
LINE
  5
148
330
2
100
AcDbEntity
  8
0
 62
   123
 48
0.6
100
AcDbLine
 10
47.58063667499095
 20
-148.437081696443
 30
0.0
 11
119.9409956855393
 21
-148.437081696443
 31
0.0
  0
LINE
  5
149
330
2
100
AcDbEntity
  8
CEN
 48
0.6
100
AcDbLine
 10
106.7942434764097
 20
-84.21392777728234
 30
0.0
 11
0.1971471240083247
 21
-84.21392777728234
 31
0.0
  0
LINE
  5
14A
330
2
100
AcDbEntity
  8
0
 48
0.6
100
AcDbLine
 10
44.80693842575941
 20
-115.2139277772811
 30
0.0
 11
35.80693842575942
 21
-115.2139277772811
 31
0.0
  0
ARC
  5
14C
330
2
100
AcDbEntity
  8
0
 48
0.6
100
AcDbCircle
 10
74.96816316657509
 20
-115.290553808033
 30
0.0
 40
37.51427265422899
100
AcDbArc
 50
179.8829693302405
 51
213.4780580786805
  0
ARC
  5
14D
330
2
100
AcDbEntity
  8
0
 48
0.6
100
AcDbCircle
 10
35.80693842575942
 20
-114.7139277772822
 30
0.0
 40
0.5
100
AcDbArc
 50
180.0
 51
270.0
  0
LINE
  5
14E
330
2
100
AcDbEntity
  8
0
 48
0.6
100
AcDbLine
 10
35.30693842575942
 20
-114.2139277772822
 30
0.0
 11
35.30693842575942
 21
-114.7139277772822
 31
0.0
  0
ARC
  5
150
330
2
100
AcDbEntity
  8
0
 48
0.6
100
AcDbCircle
 10
75.0322016358275
 20
-115.2896279582711
 30
0.0
 40
32.3783059924139
100
AcDbArc
 50
179.8660441688498
 51
214.739597965026
  0
ARC
  5
151
330
2
100
AcDbEntity
  8
0
 48
0.6
100
AcDbCircle
 10
44.80693842575941
 20
-114.7139277772822
 30
0.0
 40
0.5
100
AcDbArc
 50
270.0
 51
0.0
  0
LINE
  5
152
330
2
100
AcDbEntity
  8
0
 48
0.6
100
AcDbLine
 10
45.30693842575941
 20
-114.2139277772822
 30
0.0
 11
45.30693842575941
 21
-114.7139277772822
 31
0.0
  0
LINE
  5
153
330
2
100
AcDbEntity
  8
0
 48
0.6
100
AcDbLine
 10
4.306938425759426
 20
-81.71403816273707
 30
0.0
 11
4.806938425759425
 21
-81.21403816273703
 31
0.0
  0
ARC
  5
154
330
2
100
AcDbEntity
  8
0
 48
0.6
100
AcDbCircle
 10
48.08098642575874
 20
-134.4074287772811
 30
0.0
 40
0.7499080000000001
100
AcDbArc
 50
62.66289500000094
 51
182.8344229999968
  0
ARC
  5
155
330
2
100
AcDbEntity
  8
0
 48
0.6
100
AcDbCircle
 10
76.60966042575978
 20
-114.8025737772801
 30
0.0
 40
35.255792
100
AcDbArc
 50
213.8564239999993
 51
219.5987459999965
  0
ARC
  5
156
330
2
100
AcDbEntity
  8
0
 48
0.6
100
AcDbCircle
 10
47.70320742576018
 20
-138.2296467772811
 30
0.0
 40
0.7499080000000001
100
AcDbArc
 50
249.5129820000002
 51
9.684509999999278
  0
ARC
  5
157
330
2
100
AcDbEntity
  8
0
 48
0.6
100
AcDbCircle
 10
76.60966042575978
 20
-114.8025737772801
 30
0.0
 40
36.555792
100
AcDbArc
 50
180.6447499623222
 51
213.8176429999978
  0
ARC
  5
158
330
2
100
AcDbEntity
  8
0
 48
0.6
100
AcDbCircle
 10
76.60966042575978
 20
-114.8025737772801
 30
0.0
 40
37.855792
100
AcDbArc
 50
212.7486590000019
 51
219.5987459999965
  0
ARC
  5
159
330
2
100
AcDbEntity
  8
0
 48
0.6
100
AcDbCircle
 10
46.58300442575796
 20
-134.48159477728
 30
0.0
 40
0.7499080000000001
100
AcDbArc
 50
242.6628950000009
 51
2.834422999996808
  0
ARC
  5
15A
330
2
100
AcDbEntity
  8
0
 48
0.6
100
AcDbCircle
 10
44.02199242575965
 20
-135.3179277772809
 30
0.0
 40
0.7499080000000001
100
AcDbArc
 50
242.6628950000009
 51
2.834422999996808
  0
ARC
  5
15B
330
2
100
AcDbEntity
  8
0
 48
0.6
100
AcDbCircle
 10
45.5199734257601
 20
-135.243761777281
 30
0.0
 40
0.7499080000000001
100
AcDbArc
 50
62.66289500000094
 51
182.8344229999968
  0
ARC
  5
15E
330
2
100
AcDbEntity
  8
0
 48
0.6
100
AcDbCircle
 10
49.1816494257598
 20
-137.9773437772811
 30
0.0
 40
0.7499080000000001
100
AcDbArc
 50
69.51298200000024
 51
189.6845099999992
  0
LINE
  5
160
330
2
100
AcDbEntity
  8
0
 48
0.6
100
AcDbLine
 10
4.806938425759425
 20
-81.21403816273703
 30
0.0
 11
26.30693842575942
 21
-81.21391817852323
 31
0.0
  0
LINE
  5
161
330
2
100
AcDbEntity
  8
0
 48
0.6
100
AcDbLine
 10
34.40693842575797
 20
-105.1126651188111
 30
0.0
 11
35.30693842575942
 21
-105.1126651188111
 31
0.0
  0
LINE
  5
162
330
2
100
AcDbEntity
  8
0
 48
0.6
100
AcDbLine
 10
4.306938425759426
 20
-86.7138173918242
 30
0.0
 11
4.806938425759425
 21
-87.21381739182421
 31
0.0
  0
LINE
  5
163
330
2
100
AcDbEntity
  8
2
 48
0.6
100
AcDbLine
 10
4.806938425759425
 20
-81.21403816273909
 30
0.0
 11
4.806938425759425
 21
-87.21381739182421
 31
0.0
  0
LINE
  5
165
330
2
100
AcDbEntity
  8
0
 48
0.6
100
AcDbLine
 10
4.306938425759426
 20
-81.71403816273707
 30
0.0
 11
4.306938425759426
 21
-86.7138173918242
 31
0.0
  0
LINE
  5
166
330
2
100
AcDbEntity
  8
0
 48
0.6
100
AcDbLine
 10
4.806938425759425
 20
-87.21381739182421
 30
0.0
 11
26.30693842575942
 21
-87.21391817856323
 31
0.0
  0
LINE
  5
167
330
2
100
AcDbEntity
  8
0
 48
0.6
100
AcDbLine
 10
28.30693842575943
 20
-114.2139277772822
 30
0.0
 11
96.30693842575931
 21
-114.2139277772822
 31
0.0
  0
LINE
  5
168
330
2
100
AcDbEntity
  8
0
 48
0.6
100
AcDbLine
 10
34.40693842575797
 20
-112.81266511881
 30
0.0
 11
35.30693842575942
 21
-112.81266511881
 31
0.0
  0
LINE
  5
169
330
2
100
AcDbEntity
  8
0
 48
0.6
100
AcDbLine
 10
28.30693842575943
 20
-111.2139277772822
 30
0.0
 11
26.30693842575942
 21
-111.2139277772822
 31
0.0
  0
LINE
  5
16A
330
2
100
AcDbEntity
  8
0
 48
0.6
100
AcDbLine
 10
35.30693842575942
 20
-105.1126651188111
 30
0.0
 11
35.30693842575942
 21
-112.81266511881
 31
0.0
  0
LINE
  5
16B
330
2
100
AcDbEntity
  8
0
 48
0.6
100
AcDbLine
 10
102.3069384257593
 20
-112.7139277772822
 30
0.0
 11
96.30693842575931
 21
-112.7139277772822
 31
0.0
  0
LINE
  5
16C
330
2
100
AcDbEntity
  8
0
 48
0.6
100
AcDbLine
 10
103.3069384257593
 20
-111.7139277772811
 30
0.0
 11
102.3069384257593
 21
-112.7139277772822
 31
0.0
  0
DIMENSION
  5
16D
102
{ACAD_XDICTIONARY
360
16E
102
}
102
{ACAD_REACTORS
330
16F
102
}
330
2
100
AcDbEntity
  8
0
 48
0.6
100
AcDbDimension
  2
*D23
 10
-45.30102110298162
 20
-40.56282998297635
 30
0.0
 11
-75.63175986264309
 21
-40.56282998297635
 31
0.0
 70
   160
  1
60
 71
     5
 42
-1.0
  3
STANDARD
100
AcDbAlignedDimension
 13
-105.3010211029816
 23
-59.21392777728029
 33
0.0
 14
-45.30102110298162
 24
-59.21392777728029
 34
0.0
100
AcDbRotatedDimension
  0
LINE
  5
17C
330
2
100
AcDbEntity
  8
CEN
 48
0.6
100
AcDbLine
 10
-53.55748758150206
 20
-62.47039425579528
 30
0.0
 11
-47.54707994140903
 21
-56.45998661570907
 31
0.0
  0
LINE
  5
17D
330
2
100
AcDbEntity
  8
0
 48
0.6
100
AcDbLine
 10
-100.3010211029816
 20
-55.21392777728029
 30
0.0
 11
-50.30102110299253
 21
-55.21392777728029
 31
0.0
  0
LINE
  5
17E
330
2
100
AcDbEntity
  8
0
 48
0.6
100
AcDbLine
 10
-100.3010211029816
 20
-54.21392777728029
 30
0.0
 11
-50.30102110299253
 21
-54.21392777728029
 31
0.0
  0
ARC
  5
17F
102
{ACAD_REACTORS
330
CC
102
}
330
2
100
AcDbEntity
  8
CEN
 48
0.6
100
AcDbCircle
 10
-75.30102110299253
 20
-84.21392777728028
 30
0.0
 40
35.0
100
AcDbArc
 50
21.71935007261406
 51
51.18655059757116
  0
ARC
  5
180
330
2
100
AcDbEntity
  8
0
 48
0.6
100
AcDbCircle
 10
-67.99632363543264
 20
-61.35257622258104
 30
0.0
 40
2.0
100
AcDbArc
 50
252.2801918471949
 51
308.0513255193868
  0
ARC
  5
181
330
2
100
AcDbEntity
  8
0
 48
0.6
100
AcDbCircle
 10
-65.53085512465099
 20
-64.502411936133
 30
0.0
 40
2.0
100
AcDbArc
 50
63.63432749678904
 51
128.0513255193867
  0
LWPOLYLINE
  5
182
330
2
100
AcDbEntity
  8
3
 48
0.6
100
AcDbPolyline
 90
        4
 70
     1
 43
0.0
 10
-82.24928451591244
 20
-39.82274361765231
 10
-78.94928451591319
 20
-39.82274361765231
 10
-78.94928451591319
 20
-36.3227436176523
 10
-82.24928451591244
 20
-36.3227436176523
  0
ARC
  5
184
330
2
100
AcDbEntity
  8
0
 48
0.6
100
AcDbCircle
 10
-85.07118708132315
 20
-64.502411936133
 30
0.0
 40
2.0
100
AcDbArc
 50
51.94867448061305
 51
116.3656725032109
  0
ARC
  5
185
330
2
100
AcDbEntity
  8
0
 48
0.6
100
AcDbCircle
 10
-82.60571857053424
 20
-61.35257622258104
 30
0.0
 40
2.0
100
AcDbArc
 50
231.948674480613
 51
287.7198081528051
  0
ARC
  5
186
330
2
100
AcDbEntity
  8
0
 48
0.6
100
AcDbCircle
 10
-100.3010211029816
 20
-59.21392777728029
 30
0.0
 40
4.0
100
AcDbArc
 50
90.0
 51
180.0
  0
CIRCLE
  5
187
330
2
100
AcDbEntity
  8
0
 48
0.6
100
AcDbCircle
 10
-100.0497584445095
 20
-59.46519043575217
 30
0.0
 40
2.25
  0
LINE
  5
188
330
2
100
AcDbEntity
  8
CEN
 48
0.6
100
AcDbLine
 10
-97.04455462447208
 20
-62.47039425579528
 30
0.0
 11
-103.0549622645505
 21
-56.45998661570907
 31
0.0
  0
ARC
  5
189
330
2
100
AcDbEntity
  8
CEN
 48
0.6
100
AcDbCircle
 10
-75.30102110299253
 20
-84.21392777728028
 30
0.0
 40
35.0
100
AcDbArc
 50
124.6885525890122
 51
145.106569353258
  0
ARC
  5
18A
330
2
100
AcDbEntity
  8
0
 48
0.6
100
AcDbCircle
 10
-100.3010211029816
 20
-59.21392777728029
 30
0.0
 40
5.0
100
AcDbArc
 50
90.0
 51
180.0
  0
ARC
  5
18B
330
2
100
AcDbEntity
  8
0
 48
0.6
100
AcDbCircle
 10
-75.30102110298162
 20
-84.21392777728234
 30
0.0
 40
22.0
100
AcDbArc
 50
72.28019184719491
 51
107.719808152805
  0
CIRCLE
  5
18C
330
2
100
AcDbEntity
  8
0
 48
0.6
100
AcDbCircle
 10
-50.55228376145009
 20
-59.46519043575217
 30
0.0
 40
2.25
  0
ARC
  5
18D
330
2
100
AcDbEntity
  8
0
 48
0.6
100
AcDbCircle
 10
-50.30102110299253
 20
-59.21392777728029
 30
0.0
 40
4.0
100
AcDbArc
 50
0.0
 51
90.0
  0
ARC
  5
18E
330
2
100
AcDbEntity
  8
0
 48
0.6
100
AcDbCircle
 10
-50.30102110299253
 20
-59.21392777728029
 30
0.0
 40
5.0
100
AcDbArc
 50
0.0
 51
90.0
  0
DIMENSION
  5
190
102
{ACAD_XDICTIONARY
360
191
102
}
102
{ACAD_REACTORS
330
192
102
}
330
2
100
AcDbEntity
  8
0
 48
0.6
100
AcDbDimension
  2
*D22
 10
28.30693842575943
 20
-45.0055944439484
 30
0.0
 11
19.30693842575942
 21
-45.0055944439484
 31
0.0
 70
   160
 71
     5
 42
-1.0
  3
STANDARD
100
AcDbAlignedDimension
 13
26.30693842575942
 23
-57.21392777728119
 33
0.0
 14
28.30693842575943
 24
-54.21392777728232
 34
0.0
100
AcDbRotatedDimension
  0
DIMENSION
  5
1A1
102
{ACAD_XDICTIONARY
360
1A2
102
}
102
{ACAD_REACTORS
330
1A3
102
}
330
2
100
AcDbEntity
  8
0
 48
0.6
100
AcDbDimension
  2
*D21
 10
35.30693842575942
 20
-45.0055944439484
 30
0.0
 11
31.80693842575943
 21
-45.0055944439484
 31
0.0
 70
   160
 71
     5
 42
-1.0
  3
STANDARD
100
AcDbAlignedDimension
 13
28.30693842575943
 23
-45.0055944439484
 33
0.0
 14
35.30693842575942
 24
-55.61519043575136
 34
0.0
100
AcDbRotatedDimension
  0
LINE
  5
1B0
330
2
100
AcDbEntity
  8
0
 48
0.6
100
AcDbLine
 10
28.30693842575943
 20
-54.21392777728029
 30
0.0
 11
96.30693842575931
 21
-54.21392777728232
 31
0.0
  0
LINE
  5
1B1
330
2
100
AcDbEntity
  8
0
 48
0.6
100
AcDbLine
 10
35.30693842575942
 20
-63.31519043575206
 30
0.0
 11
35.30693842575942
 21
-55.61519043575136
 31
0.0
  0
LINE
  5
1B2
330
2
100
AcDbEntity
  8
0
 48
0.6
100
AcDbLine
 10
34.40693842575797
 20
-63.31519043575206
 30
0.0
 11
35.30693842575942
 21
-63.31519043575206
 31
0.0
  0
LINE
  5
1B3
102
{ACAD_REACTORS
330
1A3
102
}
330
2
100
AcDbEntity
  8
0
 48
0.6
100
AcDbLine
 10
34.40693842575797
 20
-55.61519043575136
 30
0.0
 11
35.30693842575942
 21
-55.61519043575136
 31
0.0
  0
LINE
  5
1B4
330
2
100
AcDbEntity
  8
0
 48
0.6
100
AcDbLine
 10
28.30693842575943
 20
-57.21392777728119
 30
0.0
 11
26.30693842575942
 21
-57.21392777728119
 31
0.0
  0
LINE
  5
1B5
330
2
100
AcDbEntity
  8
0
 48
0.6
100
AcDbLine
 10
102.3069384257593
 20
-55.71392777728121
 30
0.0
 11
96.30693842575931
 21
-55.71392777728121
 31
0.0
  0
LINE
  5
1B6
330
2
100
AcDbEntity
  8
0
 48
0.6
100
AcDbLine
 10
103.3069384257593
 20
-56.71392777728232
 30
0.0
 11
102.3069384257593
 21
-55.71392777728121
 31
0.0
  0
DIMENSION
  5
1B7
330
2
100
AcDbEntity
  8
0
 48
0.6
100
AcDbDimension
  2
*D20
 10
28.30693842575943
 20
-34.81643734376207
 30
0.0
 11
16.30693842575942
 21
-34.81643734376207
 31
0.0
 70
   160
 71
     5
 42
-1.0
  3
STANDARD
100
AcDbAlignedDimension
 13
4.306938425759426
 23
-82.21381499211103
 33
0.0
 14
28.30693842575943
 24
-54.21392777728029
 34
0.0
100
AcDbRotatedDimension
  0
DIMENSION
  5
1C4
102
{ACAD_XDICTIONARY
360
1C5
102
}
102
{ACAD_REACTORS
330
1C6
102
}
330
2
100
AcDbEntity
  8
0
 48
0.6
100
AcDbDimension
  2
*D19
 10
103.3069384257593
 20
-34.81643734376207
 30
0.0
 11
65.80693842575943
 21
-34.81643734376207
 31
0.0
 70
   160
 71
     5
 42
-1.0
  3
STANDARD
100
AcDbAlignedDimension
 13
28.30693842575943
 23
-34.81643734376207
 33
0.0
 14
103.3069384257593
 24
-56.71392777728232
 34
0.0
100
AcDbRotatedDimension
  0
DIMENSION
  5
1D3
102
{ACAD_XDICTIONARY
360
1D4
102
}
102
{ACAD_REACTORS
330
1D5
102
}
330
2
100
AcDbEntity
  8
0
100
AcDbDimension
  2
*D36
 10
-2.859906867290411
 20
59.42014631425087
 30
0.0
 11
-2.859906867290418
 21
84.57711527634279
 31
0.0
 70
   160
  1
\A1;%%C<>{\f??|b0|i0|c0|p49;\H0.7x;\S+0^ -0.03;\H1.429x;(h7)} 
 71
     5
 42
-1.0
  3
STANDARD
100
AcDbAlignedDimension
 13
15.8864399347783
 23
113.4201463142508
 33
0.0
 14
15.8864399347783
 24
59.42014631425087
 34
0.0
 50
90.0
100
AcDbRotatedDimension
  0
ARC
  5
1E2
330
2
100
AcDbEntity
  8
0
100
AcDbCircle
 10
-48.73005097593182
 20
96.19031229258185
 30
0.0
 40
2.0
100
AcDbArc
 50
321.9486744806221
 51
26.36567250321681
  0
LINE
  5
1E3
102
{ACAD_REACTORS
330
1D5
330
25F
102
}
330
2
100
AcDbEntity
  8
0
100
AcDbLine
 10
15.8864399347783
 20
113.4201463142508
 30
0.0
 11
15.8864399347783
 21
59.42014631425087
 31
0.0
  0
LINE
  5
1E4
330
2
100
AcDbEntity
  8
0
100
AcDbLine
 10
23.98643993477685
 20
116.4201463142508
 30
0.0
 11
23.98643993477685
 21
56.42014631425087
 31
0.0
  0
LINE
  5
1E5
102
{ACAD_REACTORS
330
25F
102
}
330
2
100
AcDbEntity
  8
0
100
AcDbLine
 10
17.88643993477831
 20
116.4201463142508
 30
0.0
 11
17.88643993477831
 21
56.42014631425087
 31
0.0
  0
LINE
  5
1E6
102
{ACAD_REACTORS
330
2A8
102
}
330
2
100
AcDbEntity
  8
0
100
AcDbLine
 10
-38.4415668170825
 20
111.4201463142508
 30
0.0
 11
-38.4415668170825
 21
61.42014631425179
 31
0.0
  0
LINE
  5
1E7
330
2
100
AcDbEntity
  8
0
100
AcDbLine
 10
-39.4415668170825
 20
111.4201463142508
 30
0.0
 11
-39.4415668170825
 21
61.42014631425179
 31
0.0
  0
DIMENSION
  5
1E8
102
{ACAD_XDICTIONARY
360
1E9
102
}
102
{ACAD_REACTORS
330
1EA
102
}
330
2
100
AcDbEntity
  8
0
100
AcDbDimension
  2
*D35
 10
105.0982010658678
 20
56.42014631425087
 30
0.0
 11
105.0982010658678
 21
85.92014631425087
 31
0.0
 70
   160
  1
%%C<>
 71
     5
 42
-1.0
  3
STANDARD
100
AcDbAlignedDimension
 13
85.88643993478909
 23
116.4201463142508
 33
0.0
 14
85.88643993478909
 24
56.42014631425087
 34
0.0
 50
90.0
100
AcDbRotatedDimension
  0
LINE
  5
1F7
102
{ACAD_REACTORS
330
2C7
102
}
330
2
100
AcDbEntity
  8
0
100
AcDbLine
 10
92.88643993477819
 20
113.9201463142508
 30
0.0
 11
92.88643993477819
 21
58.92014631425087
 31
0.0
  0
LINE
  5
1F8
102
{ACAD_REACTORS
330
1EA
102
}
330
2
100
AcDbEntity
  8
0
100
AcDbLine
 10
85.88643993478909
 20
56.42014631425087
 30
0.0
 11
85.88643993478909
 21
116.4201463142508
 31
0.0
  0
LINE
  5
1F9
330
2
100
AcDbEntity
  8
0
100
AcDbLine
 10
91.88643993477819
 20
114.9201463142508
 30
0.0
 11
91.88643993477819
 21
57.92014631425178
 31
0.0
  0
ARC
  5
1FA
330
2
100
AcDbEntity
  8
0
100
AcDbCircle
 10
-45.58021526238213
 20
93.72484378180187
 30
0.0
 40
2.0
100
AcDbArc
 50
141.9486744806222
 51
197.7198081527984
  0
ARC
  5
1FB
330
2
100
AcDbEntity
  8
0
100
AcDbCircle
 10
-45.58021526238213
 20
79.11544884670075
 30
0.0
 40
2.0
100
AcDbArc
 50
162.2801918472015
 51
218.0513255193776
  0
ARC
  5
1FC
330
2
100
AcDbEntity
  8
0
100
AcDbCircle
 10
-48.73005097593182
 20
76.6499803359207
 30
0.0
 40
2.0
100
AcDbArc
 50
333.6343274967831
 51
38.05132551937779
  0
ARC
  5
1FD
330
2
100
AcDbEntity
  8
0
100
AcDbCircle
 10
-68.4415668170825
 20
86.42014631425082
 30
0.0
 40
22.0
100
AcDbArc
 50
342.2801918472013
 51
17.71980815279839
  0
ARC
  5
1FE
330
2
100
AcDbEntity
  8
0
100
AcDbCircle
 10
-43.4415668170825
 20
61.42014631425179
 30
0.0
 40
5.0
100
AcDbArc
 50
270.0
 51
0.0
  0
ARC
  5
1FF
330
2
100
AcDbEntity
  8
0
100
AcDbCircle
 10
-43.4415668170825
 20
61.42014631425179
 30
0.0
 40
4.0
100
AcDbArc
 50
270.0
 51
0.0
  0
CIRCLE
  5
200
330
2
100
AcDbEntity
  8
0
100
AcDbCircle
 10
-43.69282947555097
 20
61.67140897272186
 30
0.0
 40
2.25
  0
ARC
  5
202
330
2
100
AcDbEntity
  8
0
100
AcDbCircle
 10
-22.39864206557308
 20
70.73069896279077
 30
0.0
 40
36.555792
100
AcDbArc
 50
203.0460947298144
 51
236.3176429999981
  0
ARC
  5
203
330
2
100
AcDbEntity
  8
0
100
AcDbCircle
 10
-43.29926306557378
 20
39.94799596279182
 30
0.0
 40
0.7499080000000001
100
AcDbArc
 50
85.16289500000455
 51
205.3344229999992
  0
ARC
  5
204
330
2
100
AcDbEntity
  8
0
100
AcDbCircle
 10
-42.60881906557028
 20
41.05895096279077
 30
0.0
 40
0.7499080000000001
100
AcDbArc
 50
265.1628950000044
 51
25.33442299999946
  0
ARC
  5
205
330
2
100
AcDbEntity
  8
0
100
AcDbCircle
 10
-41.25324706557353
 20
41.70072296279072
 30
0.0
 40
0.7499080000000001
100
AcDbArc
 50
85.16289500000455
 51
205.3344229999992
  0
ARC
  5
206
330
2
100
AcDbEntity
  8
0
100
AcDbCircle
 10
-22.39864206557308
 20
70.73069896279077
 30
0.0
 40
35.255792
100
AcDbArc
 50
236.3564240000014
 51
242.0987460000029
  0
ARC
  5
207
330
2
100
AcDbEntity
  8
0
100
AcDbCircle
 10
-40.13957006557234
 20
38.02488496279174
 30
0.0
 40
0.7499080000000001
100
AcDbArc
 50
272.0129819999954
 51
32.18451000000101
  0
ARC
  5
208
330
2
100
AcDbEntity
  8
0
100
AcDbCircle
 10
-38.87021906557333
 20
38.82375796279193
 30
0.0
 40
0.7499080000000001
100
AcDbArc
 50
92.01298199999559
 51
212.184510000001
  0
ARC
  5
209
330
2
100
AcDbEntity
  8
0
100
AcDbCircle
 10
-44.65483606557086
 20
39.30622296279084
 30
0.0
 40
0.7499080000000001
100
AcDbArc
 50
265.1628950000044
 51
25.33442299999946
  0
ARC
  5
20A
330
2
100
AcDbEntity
  8
0
100
AcDbCircle
 10
-22.39864206557308
 20
70.73069896279077
 30
0.0
 40
37.855792
100
AcDbArc
 50
235.2486590000054
 51
242.0987460000029
  0
ARC
  5
20D
330
2
100
AcDbEntity
  8
0
100
AcDbCircle
 10
-22.39864206557308
 20
70.73069896279077
 30
0.0
 40
33.95579199999998
100
AcDbArc
 50
204.9259499999998
 51
236.3981230000006
  0
LINE
  5
20F
330
2
100
AcDbEntity
  8
CEN
 48
0.6
100
AcDbLine
 10
-46.69803329559203
 20
64.67661279276473
 30
0.0
 11
-40.68762565550992
 21
58.66620515267873
 31
0.0
  0
ARC
  5
210
330
2
100
AcDbEntity
  8
CEN
 48
0.6
100
AcDbCircle
 10
-68.4415668170825
 20
86.42014631425082
 30
0.0
 40
35.0
100
AcDbArc
 50
304.6885525890122
 51
322.9113558998458
  0
ARC
  5
211
330
2
100
AcDbEntity
  8
0
100
AcDbCircle
 10
-68.4415668170825
 20
86.42014631425082
 30
0.0
 40
24.0
100
AcDbArc
 50
296.3656725032108
 51
333.6343274967831
  0
ARC
  5
212
330
2
100
AcDbEntity
  8
0
100
AcDbCircle
 10
-61.13686934953353
 20
63.55879475955095
 30
0.0
 40
2.0
100
AcDbArc
 50
51.94867448061305
 51
107.719808152805
  0
ARC
  5
213
330
2
100
AcDbEntity
  8
0
100
AcDbCircle
 10
-58.67140083875188
 20
66.70863047310087
 30
0.0
 40
2.0
100
AcDbArc
 50
231.948674480613
 51
296.3656725032108
  0
ARC
  5
214
330
2
100
AcDbEntity
  8
0
100
AcDbCircle
 10
-22.39864206557308
 20
70.73069896279077
 30
0.0
 40
39.15579199999999
100
AcDbArc
 50
201.4369589999971
 51
235.2486590000054
  0
LINE
  5
215
102
{ACAD_REACTORS
330
1EA
102
}
330
2
100
AcDbEntity
  8
0
100
AcDbLine
 10
85.88643993478909
 20
56.42014631425087
 30
0.0
 11
23.98643993477685
 21
56.42014631425087
 31
0.0
  0
LINE
  5
216
330
2
100
AcDbEntity
  8
0
 62
   123
100
AcDbLine
 10
37.16013818401711
 20
22.1969923950899
 30
0.0
 11
108.3773422504469
 21
22.1969923950899
 31
0.0
  0
LINE
  5
217
330
2
100
AcDbEntity
  8
CEN
 48
0.6
100
AcDbLine
 10
96.37374498543957
 20
86.42014631425082
 30
0.0
 11
1.441022493059563
 21
86.42014631425082
 31
0.0
  0
ARC
  5
218
330
2
100
AcDbEntity
  8
0
100
AcDbCircle
 10
64.61170314484639
 20
55.34444613326292
 30
0.0
 40
32.37830599241379
100
AcDbArc
 50
179.8660441688498
 51
214.7395979650263
  0
ARC
  5
21A
330
2
100
AcDbEntity
  8
0
100
AcDbCircle
 10
64.54766467560853
 20
55.34352028349786
 30
0.0
 40
37.51427265422904
100
AcDbArc
 50
179.8829693302405
 51
213.4780580786804
  0
LINE
  5
21B
330
2
100
AcDbEntity
  8
0
100
AcDbLine
 10
34.38643993478922
 20
55.42014631425087
 30
0.0
 11
25.38643993477831
 21
55.42014631425087
 31
0.0
  0
LINE
  5
21D
330
2
100
AcDbEntity
  8
0
100
AcDbLine
 10
24.88643993478922
 20
56.42014631425087
 30
0.0
 11
24.88643993478922
 21
55.92014631425087
 31
0.0
  0
ARC
  5
21E
330
2
100
AcDbEntity
  8
0
100
AcDbCircle
 10
25.38643993477831
 20
55.92014631425087
 30
0.0
 40
0.5
100
AcDbArc
 50
180.0
 51
270.0
  0
LINE
  5
21F
330
2
100
AcDbEntity
  8
0
100
AcDbLine
 10
34.88643993477831
 20
56.42014631425087
 30
0.0
 11
34.88643993477831
 21
55.92014631425087
 31
0.0
  0
ARC
  5
220
330
2
100
AcDbEntity
  8
0
100
AcDbCircle
 10
34.38643993478922
 20
55.92014631425087
 30
0.0
 40
0.5
100
AcDbArc
 50
270.0
 51
0.0
  0
ARC
  5
222
330
2
100
AcDbEntity
  8
0
100
AcDbCircle
 10
37.28270893477542
 20
32.40442731424973
 30
0.0
 40
0.7499080000000001
100
AcDbArc
 50
249.5129820000002
 51
9.684509999999278
  0
ARC
  5
223
330
2
100
AcDbEntity
  8
0
100
AcDbCircle
 10
38.76115093477869
 20
32.65673031425176
 30
0.0
 40
0.7499080000000001
100
AcDbArc
 50
69.51298200000024
 51
189.6845099999992
  0
ARC
  5
224
330
2
100
AcDbEntity
  8
0
100
AcDbCircle
 10
66.18916193477867
 20
55.83150031425095
 30
0.0
 40
35.255792
100
AcDbArc
 50
213.8564239999993
 51
219.5987459999965
  0
ARC
  5
225
330
2
100
AcDbEntity
  8
0
100
AcDbCircle
 10
35.09947493477534
 20
35.39031231425092
 30
0.0
 40
0.7499080000000001
100
AcDbArc
 50
62.66289500000094
 51
182.8344229999968
  0
ARC
  5
226
330
2
100
AcDbEntity
  8
0
100
AcDbCircle
 10
33.60149393477854
 20
35.31614631425172
 30
0.0
 40
0.7499080000000001
100
AcDbArc
 50
242.6628950000009
 51
2.834422999996808
  0
ARC
  5
227
330
2
100
AcDbEntity
  8
0
100
AcDbCircle
 10
36.16250593477685
 20
36.15247931425078
 30
0.0
 40
0.7499080000000001
100
AcDbArc
 50
242.6628950000009
 51
2.834422999996808
  0
ARC
  5
228
330
2
100
AcDbEntity
  8
0
100
AcDbCircle
 10
37.66048793477762
 20
36.22664531425179
 30
0.0
 40
0.7499080000000001
100
AcDbArc
 50
62.66289500000094
 51
182.8344229999968
  0
ARC
  5
229
330
2
100
AcDbEntity
  8
0
100
AcDbCircle
 10
66.18916193477867
 20
55.83150031425095
 30
0.0
 40
37.855792
100
AcDbArc
 50
212.7486590000019
 51
219.5987459999965
  0
ARC
  5
22A
330
2
100
AcDbEntity
  8
0
100
AcDbCircle
 10
66.18916193477867
 20
55.83150031425095
 30
0.0
 40
36.555792
100
AcDbArc
 50
180.6447499623208
 51
213.8176429999978
  0
ARC
  5
22B
330
2
100
AcDbEntity
  8
0
100
AcDbCircle
 10
10.42656766932646
 20
118.5226280839458
 30
0.0
 40
30.21776684021193
100
AcDbArc
 50
272.7691355265055
 51
280.40961357857
  0
ARC
  5
22C
330
2
100
AcDbEntity
  8
0
100
AcDbCircle
 10
10.42656766932646
 20
54.31766454455378
 30
0.0
 40
30.21776684021463
100
AcDbArc
 50
79.59038642143004
 51
87.23086447349437
  0
LINE
  5
22D
330
2
100
AcDbEntity
  8
2
100
AcDbLine
 10
11.88643993477831
 20
88.34014631425095
 30
0.0
 11
11.88643993477831
 21
84.5001463142508
 31
0.0
  0
LINE
  5
230
330
2
100
AcDbEntity
  8
0
100
AcDbLine
 10
23.98643993477685
 20
65.52140897272176
 30
0.0
 11
24.88643993478922
 21
65.52140897272176
 31
0.0
  0
LINE
  5
231
330
2
100
AcDbEntity
  8
0
100
AcDbLine
 10
5.885730497689793
 20
89.24014631425079
 30
0.0
 11
5.385730497689792
 21
88.74014631425081
 31
0.0
  0
LINE
  5
232
330
2
100
AcDbEntity
  8
0
100
AcDbLine
 10
5.385730497689792
 20
84.10014631425184
 30
0.0
 11
5.885730497689793
 21
83.60014631425178
 31
0.0
  0
LINE
  5
233
330
2
100
AcDbEntity
  8
0
100
AcDbLine
 10
5.385730497689792
 20
88.74014631425081
 30
0.0
 11
5.385730497689792
 21
84.10014631425184
 31
0.0
  0
LINE
  5
234
330
2
100
AcDbEntity
  8
2
100
AcDbLine
 10
5.885730497689793
 20
89.24014631425079
 30
0.0
 11
5.885730497689793
 21
83.60014631425178
 31
0.0
  0
LINE
  5
235
330
2
100
AcDbEntity
  8
0
100
AcDbLine
 10
5.885730497689793
 20
89.24014631425079
 30
0.0
 11
15.8864399347783
 21
89.24014631425079
 31
0.0
  0
LINE
  5
236
330
2
100
AcDbEntity
  8
CEN
 48
0.6
100
AcDbLine
 10
3.386439934778308
 20
88.72964631425094
 30
0.0
 11
18.8864399347783
 21
88.72964631425094
 31
0.0
  0
LINE
  5
237
330
2
100
AcDbEntity
  8
0
100
AcDbLine
 10
5.385730497689792
 20
88.34014631425095
 30
0.0
 11
11.88643993477831
 21
88.34014631425095
 31
0.0
  0
LINE
  5
238
330
2
100
AcDbEntity
  8
0
100
AcDbLine
 10
5.885730497689793
 20
83.60014631425178
 30
0.0
 11
15.8864399347783
 21
83.60014631425178
 31
0.0
  0
LINE
  5
239
330
2
100
AcDbEntity
  8
CEN
 48
0.6
100
AcDbLine
 10
3.386439934778308
 20
84.11064631425169
 30
0.0
 11
18.8864399347783
 21
84.11064631425169
 31
0.0
  0
LINE
  5
23A
330
2
100
AcDbEntity
  8
0
100
AcDbLine
 10
5.385730497689792
 20
84.5001463142508
 30
0.0
 11
11.88643993477831
 21
84.5001463142508
 31
0.0
  0
LINE
  5
23B
330
2
100
AcDbEntity
  8
2
100
AcDbLine
 10
9.886439934778305
 20
88.34014631425095
 30
0.0
 11
5.386439934778309
 21
86.06682962931797
 31
0.0
  0
LINE
  5
23C
330
2
100
AcDbEntity
  8
2
100
AcDbLine
 10
11.88643993477831
 20
88.34014631425095
 30
0.0
 11
5.386439934778309
 21
84.90010096032989
 31
0.0
  0
LINE
  5
23D
330
2
100
AcDbEntity
  8
2
100
AcDbLine
 10
11.88643993477831
 20
87.18544577587072
 30
0.0
 11
6.735364833717312
 21
84.5001463142508
 31
0.0
  0
LINE
  5
23E
330
2
100
AcDbEntity
  8
0
100
AcDbLine
 10
23.98643993477685
 20
57.82140897272079
 30
0.0
 11
24.88643993478922
 21
57.82140897272079
 31
0.0
  0
LINE
  5
23F
330
2
100
AcDbEntity
  8
0
100
AcDbLine
 10
17.88643993477831
 20
59.42014631425087
 30
0.0
 11
15.8864399347783
 21
59.42014631425087
 31
0.0
  0
LINE
  5
240
330
2
100
AcDbEntity
  8
0
100
AcDbLine
 10
17.88643993477831
 20
56.42014631425087
 30
0.0
 11
85.88643993478909
 21
56.42014631425087
 31
0.0
  0
LINE
  5
241
330
2
100
AcDbEntity
  8
0
100
AcDbLine
 10
24.88643993478922
 20
65.52140897272176
 30
0.0
 11
24.88643993478922
 21
57.82140897272079
 31
0.0
  0
LINE
  5
243
330
2
100
AcDbEntity
  8
0
100
AcDbLine
 10
91.88643993477819
 20
57.92014631425178
 30
0.0
 11
85.88643993478909
 21
57.92014631425178
 31
0.0
  0
LINE
  5
244
330
2
100
AcDbEntity
  8
0
100
AcDbLine
 10
92.88643993477819
 20
58.92014631425087
 30
0.0
 11
91.88643993477819
 21
57.92014631425178
 31
0.0
  0
ARC
  5
245
330
2
100
AcDbEntity
  8
0
100
AcDbCircle
 10
-43.4415668170825
 20
111.4201463142508
 30
0.0
 40
5.0
100
AcDbArc
 50
0.0
 51
90.0
  0
LINE
  5
246
330
2
100
AcDbEntity
  8
CEN
 48
0.6
100
AcDbLine
 10
-46.69803329559203
 20
108.1636798357378
 30
0.0
 11
-40.68762565550992
 21
114.1740874758236
 31
0.0
  0
ARC
  5
247
330
2
100
AcDbEntity
  8
0
100
AcDbCircle
 10
-43.4415668170825
 20
111.4201463142508
 30
0.0
 40
4.0
100
AcDbArc
 50
0.0
 51
90.0
  0
CIRCLE
  5
248
330
2
100
AcDbEntity
  8
0
100
AcDbCircle
 10
-43.69282947555097
 20
111.1688836557807
 30
0.0
 40
2.25
  0
ARC
  5
249
330
2
100
AcDbEntity
  8
0
100
AcDbCircle
 10
-61.13686934953353
 20
109.2814978689498
 30
0.0
 40
2.0
100
AcDbArc
 50
252.2801918471949
 51
308.0513255193868
  0
ARC
  5
24A
330
2
100
AcDbEntity
  8
0
100
AcDbCircle
 10
-58.67140083875188
 20
106.1316621553999
 30
0.0
 40
2.0
100
AcDbArc
 50
63.63432749678904
 51
128.0513255193867
  0
ARC
  5
24B
330
2
100
AcDbEntity
  8
0
100
AcDbCircle
 10
-68.4415668170825
 20
86.42014631425082
 30
0.0
 40
24.0
100
AcDbArc
 50
26.36567250321681
 51
63.63432749678904
  0
ARC
  5
24C
102
{ACAD_REACTORS
330
292
102
}
330
2
100
AcDbEntity
  8
CEN
 48
0.6
100
AcDbCircle
 10
-68.4415668170825
 20
86.42014631425082
 30
0.0
 40
35.0
100
AcDbArc
 50
21.71935007261406
 51
51.18655059757116
  0
DIMENSION
  5
24D
102
{ACAD_XDICTIONARY
360
24E
102
}
102
{ACAD_REACTORS
330
24F
102
}
330
2
100
AcDbEntity
  8
0
100
AcDbDimension
  2
*D34
 10
24.88643993478922
 20
125.6284796475847
 30
0.0
 11
21.38643993477831
 21
125.6284796475847
 31
0.0
 70
   160
 71
     5
 42
-1.0
  3
STANDARD
100
AcDbAlignedDimension
 13
17.88643993477831
 23
125.6284796475838
 33
0.0
 14
24.88643993478922
 24
115.0188836557797
 34
0.0
100
AcDbRotatedDimension
  0
DIMENSION
  5
25D
102
{ACAD_XDICTIONARY
360
25E
102
}
102
{ACAD_REACTORS
330
25F
102
}
330
2
100
AcDbEntity
  8
0
100
AcDbDimension
  2
*D33
 10
17.88643993477831
 20
125.6284796475847
 30
0.0
 11
8.886439934778309
 21
125.6284796475847
 31
0.0
 70
   160
 71
     5
 42
-1.0
  3
STANDARD
100
AcDbAlignedDimension
 13
15.8864399347783
 23
113.4201463142508
 33
0.0
 14
17.88643993477831
 24
116.4201463142508
 34
0.0
100
AcDbRotatedDimension
  0
LINE
  5
26E
102
{ACAD_REACTORS
330
24F
102
}
330
2
100
AcDbEntity
  8
0
100
AcDbLine
 10
23.98643993477685
 20
115.0188836557797
 30
0.0
 11
24.88643993478922
 21
115.0188836557797
 31
0.0
  0
LINE
  5
26F
330
2
100
AcDbEntity
  8
0
100
AcDbLine
 10
23.98643993477685
 20
107.3188836557808
 30
0.0
 11
24.88643993478922
 21
107.3188836557808
 31
0.0
  0
LINE
  5
270
330
2
100
AcDbEntity
  8
0
100
AcDbLine
 10
24.88643993478922
 20
107.3188836557808
 30
0.0
 11
24.88643993478922
 21
115.0188836557797
 31
0.0
  0
LINE
  5
271
330
2
100
AcDbEntity
  8
0
100
AcDbLine
 10
17.88643993477831
 20
113.4201463142508
 30
0.0
 11
15.8864399347783
 21
113.4201463142508
 31
0.0
  0
LINE
  5
272
330
2
100
AcDbEntity
  8
0
100
AcDbLine
 10
17.88643993477831
 20
116.4201463142508
 30
0.0
 11
85.88643993478909
 21
116.4201463142508
 31
0.0
  0
LINE
  5
273
330
2
100
AcDbEntity
  8
0
100
AcDbLine
 10
91.88643993477819
 20
114.9201463142508
 30
0.0
 11
85.88643993478909
 21
114.9201463142508
 31
0.0
  0
LINE
  5
274
330
2
100
AcDbEntity
  8
0
100
AcDbLine
 10
92.88643993477819
 20
113.9201463142508
 30
0.0
 11
91.88643993477819
 21
114.9201463142508
 31
0.0
  0
ARC
  5
275
330
2
100
AcDbEntity
  8
0
100
AcDbCircle
 10
-88.15308265823318
 20
96.19031229258185
 30
0.0
 40
2.0
100
AcDbArc
 50
153.634327496783
 51
218.0513255193776
  0
LINE
  5
276
102
{ACAD_REACTORS
330
2A8
102
}
330
2
100
AcDbEntity
  8
0
100
AcDbLine
 10
-98.4415668170825
 20
111.4201463142508
 30
0.0
 11
-98.4415668170825
 21
61.42014631425179
 31
0.0
  0
LINE
  5
277
330
2
100
AcDbEntity
  8
0
100
AcDbLine
 10
-97.4415668170825
 20
111.4201463142508
 30
0.0
 11
-97.4415668170825
 21
61.42014631425179
 31
0.0
  0
LINE
  5
278
102
{ACAD_REACTORS
330
A0
102
}
330
2
100
AcDbEntity
  8
CEN
 48
0.6
100
AcDbLine
 10
-68.4415668170825
 20
51.42014631425086
 30
0.0
 11
-68.4415668170825
 21
121.4201463142508
 31
0.0
  0
CIRCLE
  5
279
330
2
100
AcDbEntity
  8
0
100
AcDbCircle
 10
-68.4415668170825
 20
86.42014631425082
 30
0.0
 40
2.000000000000053
  0
CIRCLE
  5
27A
330
2
100
AcDbEntity
  8
0
100
AcDbCircle
 10
-68.4415668170825
 20
86.42014631425082
 30
0.0
 40
3.000000000000055
  0
ARC
  5
27B
330
2
100
AcDbEntity
  8
0
100
AcDbCircle
 10
-78.21173279540949
 20
66.70863047310087
 30
0.0
 40
2.0
100
AcDbArc
 50
243.634327496789
 51
308.0513255193868
  0
ARC
  5
27C
330
2
100
AcDbEntity
  8
0
100
AcDbCircle
 10
-75.74626428462057
 20
63.55879475955095
 30
0.0
 40
2.0
100
AcDbArc
 50
72.28019184719491
 51
128.0513255193867
  0
ARC
  5
27D
330
2
100
AcDbEntity
  8
0
100
AcDbCircle
 10
-91.30291837178289
 20
93.72484378180187
 30
0.0
 40
2.0
100
AcDbArc
 50
342.2801918472013
 51
38.05132551937779
  0
ARC
  5
27E
330
2
100
AcDbEntity
  8
0
100
AcDbCircle
 10
-91.30291837178289
 20
79.11544884670075
 30
0.0
 40
2.0
100
AcDbArc
 50
321.9486744806221
 51
17.71980815279839
  0
ARC
  5
27F
330
2
100
AcDbEntity
  8
0
100
AcDbCircle
 10
-88.15308265823318
 20
76.6499803359207
 30
0.0
 40
2.0
100
AcDbArc
 50
141.9486744806222
 51
206.3656725032168
  0
ARC
  5
280
330
2
100
AcDbEntity
  8
0
100
AcDbCircle
 10
-68.4415668170825
 20
86.42014631425082
 30
0.0
 40
22.0
100
AcDbArc
 50
162.2801918472015
 51
197.7198081527984
  0
ARC
  5
281
330
2
100
AcDbEntity
  8
0
100
AcDbCircle
 10
-93.4415668170825
 20
61.42014631425179
 30
0.0
 40
5.0
100
AcDbArc
 50
180.0
 51
270.0
  0
ARC
  5
282
330
2
100
AcDbEntity
  8
0
100
AcDbCircle
 10
-93.4415668170825
 20
61.42014631425179
 30
0.0
 40
4.0
100
AcDbArc
 50
180.0
 51
270.0
  0
CIRCLE
  5
283
330
2
100
AcDbEntity
  8
0
100
AcDbCircle
 10
-93.19030415861041
 20
61.67140897272186
 30
0.0
 40
2.25
  0
ARC
  5
284
330
2
100
AcDbEntity
  8
0
100
AcDbCircle
 10
-68.4415668170825
 20
86.42014631425082
 30
0.0
 40
24.0
100
AcDbArc
 50
206.3656725032168
 51
243.634327496789
  0
LINE
  5
285
330
2
100
AcDbEntity
  8
CEN
 48
0.6
100
AcDbLine
 10
-90.18510033856205
 20
64.67661279276473
 30
0.0
 11
-96.19550797865144
 21
58.66620515267873
 31
0.0
  0
ARC
  5
286
330
2
100
AcDbEntity
  8
CEN
 48
0.6
100
AcDbCircle
 10
-68.4415668170825
 20
86.42014631425082
 30
0.0
 40
35.0
100
AcDbArc
 50
199.5241366191914
 51
231.1865505975712
  0
LWPOLYLINE
  5
287
330
2
100
AcDbEntity
  8
3
100
AcDbPolyline
 90
        4
 70
     1
 43
0.0
 10
-75.3898302300024
 20
130.8113304738808
 10
-72.08983022999951
 20
130.8113304738808
 10
-72.08983022999951
 20
134.3113304738808
 10
-75.3898302300024
 20
134.3113304738808
  0
ARC
  5
288
330
2
100
AcDbEntity
  8
0
100
AcDbCircle
 10
-78.21173279540949
 20
106.1316621553999
 30
0.0
 40
2.0
100
AcDbArc
 50
51.94867448061305
 51
116.3656725032109
  0
ARC
  5
289
330
2
100
AcDbEntity
  8
0
100
AcDbCircle
 10
-75.74626428462057
 20
109.2814978689498
 30
0.0
 40
2.0
100
AcDbArc
 50
231.948674480613
 51
287.7198081528051
  0
ARC
  5
28A
330
2
100
AcDbEntity
  8
0
100
AcDbCircle
 10
-93.4415668170825
 20
111.4201463142508
 30
0.0
 40
5.0
100
AcDbArc
 50
90.0
 51
180.0
  0
ARC
  5
28B
330
2
100
AcDbEntity
  8
CEN
 48
0.6
100
AcDbCircle
 10
-68.4415668170825
 20
86.42014631425082
 30
0.0
 40
35.0
100
AcDbArc
 50
124.6885525890122
 51
145.106569353258
  0
LINE
  5
28C
330
2
100
AcDbEntity
  8
CEN
 48
0.6
100
AcDbLine
 10
-90.18510033856205
 20
108.1636798357378
 30
0.0
 11
-96.19550797865144
 21
114.1740874758236
 31
0.0
  0
ARC
  5
28D
330
2
100
AcDbEntity
  8
0
100
AcDbCircle
 10
-93.4415668170825
 20
111.4201463142508
 30
0.0
 40
4.0
100
AcDbArc
 50
90.0
 51
180.0
  0
CIRCLE
  5
28E
330
2
100
AcDbEntity
  8
0
100
AcDbCircle
 10
-93.19030415861041
 20
111.1688836557807
 30
0.0
 40
2.25
  0
ARC
  5
28F
330
2
100
AcDbEntity
  8
0
100
AcDbCircle
 10
-68.4415668170825
 20
86.42014631425082
 30
0.0
 40
24.0
100
AcDbArc
 50
116.3656725032109
 51
153.634327496783
  0
DIMENSION
  5
290
102
{ACAD_XDICTIONARY
360
291
102
}
102
{ACAD_REACTORS
330
292
102
}
330
2
100
AcDbEntity
  8
0
100
AcDbDimension
  2
*D32
 10
-98.18347772721088
 20
67.96970633539139
 30
0.0
 11
-24.07149156132879
 21
113.9451904459974
 31
0.0
 70
   163
  1
<>%%p0.5
 71
     5
 42
-1.0
  3
STANDARD
100
AcDbDiametricDimension
 15
-38.69965590694814
 25
104.8705862931139
 35
0.0
 40
0.0
  0
CIRCLE
  5
29E
330
2
100
AcDbEntity
  8
0
100
AcDbCircle
 10
-68.4415668170825
 20
86.42014631425082
 30
0.0
 40
13.0
  0
CIRCLE
  5
29F
330
2
100
AcDbEntity
  8
0
100
AcDbCircle
 10
-68.4415668170825
 20
86.42014631425082
 30
0.0
 40
27.00000000000005
  0
CIRCLE
  5
2A0
330
2
100
AcDbEntity
  8
0
100
AcDbCircle
 10
-68.4415668170825
 20
86.42014631425082
 30
0.0
 40
28.5
  0
ARC
  5
2A1
330
2
100
AcDbEntity
  8
0
100
AcDbCircle
 10
-68.4415668170825
 20
86.42014631425082
 30
0.0
 40
22.0
100
AcDbArc
 50
252.2801918471949
 51
287.7198081528051
  0
LINE
  5
2A2
330
2
100
AcDbEntity
  8
CEN
 48
0.6
100
AcDbLine
 10
-103.4415668170824
 20
86.42014631425082
 30
0.0
 11
-33.44156681708251
 21
86.42014631425082
 31
0.0
  0
LINE
  5
2A3
330
2
100
AcDbEntity
  8
0
100
AcDbLine
 10
-93.4415668170825
 20
56.42014631425087
 30
0.0
 11
-43.4415668170825
 21
56.42014631425087
 31
0.0
  0
LINE
  5
2A4
330
2
100
AcDbEntity
  8
0
100
AcDbLine
 10
-93.4415668170825
 20
57.42014631425087
 30
0.0
 11
-43.4415668170825
 21
57.42014631425087
 31
0.0
  0
LINE
  5
2A5
102
{ACAD_REACTORS
330
A0
102
}
330
2
100
AcDbEntity
  8
CEN
  6
CENTER
 62
     1
 48
0.6
100
AcDbLine
 10
-68.4415668170825
 20
86.42014631425082
 30
0.0
 11
-55.14815819892304
 21
54.32701893812286
 31
0.0
  0
DIMENSION
  5
2A6
102
{ACAD_XDICTIONARY
360
2A7
102
}
102
{ACAD_REACTORS
330
2A8
102
}
330
2
100
AcDbEntity
  8
0
100
AcDbDimension
  2
*D31
 10
-38.4415668170825
 20
130.0712441085568
 30
0.0
 11
-68.77230557674034
 21
130.0712441085568
 31
0.0
 70
   160
  1
60
 71
     5
 42
-1.0
  3
STANDARD
100
AcDbAlignedDimension
 13
-98.4415668170825
 23
111.4201463142508
 33
0.0
 14
-38.4415668170825
 24
111.4201463142508
 34
0.0
100
AcDbRotatedDimension
  0
ARC
  5
2B5
330
2
100
AcDbEntity
  8
0
100
AcDbCircle
 10
-68.4415668170825
 20
86.42014631425082
 30
0.0
 40
22.0
100
AcDbArc
 50
72.28019184719491
 51
107.719808152805
  0
LINE
  5
2B6
330
2
100
AcDbEntity
  8
0
100
AcDbLine
 10
-93.4415668170825
 20
116.4201463142508
 30
0.0
 11
-43.4415668170825
 21
116.4201463142508
 31
0.0
  0
LINE
  5
2B7
330
2
100
AcDbEntity
  8
0
100
AcDbLine
 10
-93.4415668170825
 20
115.4201463142508
 30
0.0
 11
-43.4415668170825
 21
115.4201463142508
 31
0.0
  0
DIMENSION
  5
2B8
330
2
100
AcDbEntity
  8
0
100
AcDbDimension
  2
*D30
 10
17.88643993477831
 20
135.5705185325477
 30
0.0
 11
11.63643993478922
 21
135.5705185325477
 31
0.0
 70
   160
 71
     5
 42
-1.0
  3
STANDARD
100
AcDbAlignedDimension
 13
5.385730497689792
 23
88.74014631425081
 33
0.0
 14
17.88643993477831
 24
116.4201463142508
 34
0.0
100
AcDbRotatedDimension
  0
DIMENSION
  5
2C5
102
{ACAD_XDICTIONARY
360
2C6
102
}
102
{ACAD_REACTORS
330
2C7
102
}
330
2
100
AcDbEntity
  8
0
100
AcDbDimension
  2
*D29
 10
92.88643993477819
 20
135.5705185325477
 30
0.0
 11
55.38643993478921
 21
135.5705185325477
 31
0.0
 70
   160
 71
     5
 42
-1.0
  3
STANDARD
100
AcDbAlignedDimension
 13
17.88643993477831
 23
135.5705185325477
 33
0.0
 14
92.88643993477819
 24
113.9201463142508
 34
0.0
100
AcDbRotatedDimension
  0
ENDSEC
  0
SECTION
  2
OBJECTS
  0
DICTIONARY
  5
8
330
0
100
AcDbDictionary
281
     1
  3
ACAD_CIP_PREVIOUS_PRODUCT_INFO
350
7AF
  3
ACAD_COLOR
350
793
  3
ACAD_GROUP
350
97
  3
ACAD_LAYOUT
350
C
  3
ACAD_MATERIAL
350
761
  3
ACAD_MLEADERSTYLE
350
7A8
  3
ACAD_MLINESTYLE
350
98
  3
ACAD_PLOTSETTINGS
350
99
  3
ACAD_PLOTSTYLENAME
350
7
  3
ACAD_SCALELIST
350
796
  3
ACAD_TABLESTYLE
350
794
  3
ACAD_VISUALSTYLE
350
77A
  3
ACDB_RECOMPOSE_DATA
350
7D9
  3
ACDBVARIABLEDICTIONARY
350
2D4
  3
DWGPROPS
350
7DA
  0
DICTIONARY
  5
13
330
12
100
AcDbDictionary
280
     1
281
     1
  3
ACAD_LAYERFILTERS
360
14
  3
ACAD_LAYERSTATES
360
87
  0
DICTIONARY
  5
7C6
330
5
100
AcDbDictionary
280
     1
281
     1
  3
ADSK_XREC_LAYER_RECONCILED
360
7C7
  0
DICTIONARY
  5
7C8
330
183
100
AcDbDictionary
280
     1
281
     1
  3
ADSK_XREC_LAYER_RECONCILED
360
7C9
  0
DICTIONARY
  5
7CA
330
B2
100
AcDbDictionary
280
     1
281
     1
  3
ADSK_XREC_LAYER_RECONCILED
360
7CB
  0
DICTIONARY
  5
7CC
330
E0
100
AcDbDictionary
280
     1
281
     1
  3
ADSK_XREC_LAYER_RECONCILED
360
7CD
  0
DICTIONARY
  5
7CE
330
164
100
AcDbDictionary
280
     1
281
     1
  3
ADSK_XREC_LAYER_RECONCILED
360
7CF
  0
DICTIONARY
  5
3
330
2
100
AcDbDictionary
280
     1
281
     1
  3
ACAD_LAYOUTSELFREF
360
747
  0
DICTIONARY
  5
E
330
D
100
AcDbDictionary
280
     1
281
     1
  3
ACAD_LAYOUTSELFREF
360
748
  0
DICTIONARY
  5
7DD
330
71F
100
AcDbDictionary
280
     1
281
     1
  3
ACAD_MTEXT_RT
360
7DE
  0
DICTIONARY
  5
7DB
330
717
100
AcDbDictionary
280
     1
281
     1
  3
ACAD_MTEXT_RT
360
7DC
  0
DICTIONARY
  5
9F
330
9E
100
AcDbDictionary
280
     1
281
     1
  3
ACAD_DIMASSOC
360
A0
  0
DICTIONARY
  5
BA
330
B9
100
AcDbDictionary
280
     1
281
     1
  3
ACAD_DIMASSOC
360
BB
  0
DICTIONARY
  5
CB
330
CA
100
AcDbDictionary
280
     1
281
     1
  3
ACAD_DIMASSOC
360
CC
  0
DICTIONARY
  5
F2
330
F1
100
AcDbDictionary
280
     1
281
     1
  3
ACAD_DIMASSOC
360
F3
  0
DICTIONARY
  5
106
330
105
100
AcDbDictionary
280
     1
281
     1
  3
ACAD_DIMASSOC
360
107
  0
DICTIONARY
  5
16E
330
16D
100
AcDbDictionary
280
     1
281
     1
  3
ACAD_DIMASSOC
360
16F
  0
DICTIONARY
  5
191
330
190
100
AcDbDictionary
280
     1
281
     1
  3
ACAD_DIMASSOC
360
192
  0
DICTIONARY
  5
1A2
330
1A1
100
AcDbDictionary
280
     1
281
     1
  3
ACAD_DIMASSOC
360
1A3
  0
DICTIONARY
  5
1C5
330
1C4
100
AcDbDictionary
280
     1
281
     1
  3
ACAD_DIMASSOC
360
1C6
  0
DICTIONARY
  5
1D4
330
1D3
100
AcDbDictionary
280
     1
281
     1
  3
ACAD_DIMASSOC
360
1D5
  0
DICTIONARY
  5
1E9
330
1E8
100
AcDbDictionary
280
     1
281
     1
  3
ACAD_DIMASSOC
360
1EA
  0
DICTIONARY
  5
24E
330
24D
100
AcDbDictionary
280
     1
281
     1
  3
ACAD_DIMASSOC
360
24F
  0
DICTIONARY
  5
25E
330
25D
100
AcDbDictionary
280
     1
281
     1
  3
ACAD_DIMASSOC
360
25F
  0
DICTIONARY
  5
291
330
290
100
AcDbDictionary
280
     1
281
     1
  3
ACAD_DIMASSOC
360
292
  0
DICTIONARY
  5
2A7
330
2A6
100
AcDbDictionary
280
     1
281
     1
  3
ACAD_DIMASSOC
360
2A8
  0
DICTIONARY
  5
2C6
330
2C5
100
AcDbDictionary
280
     1
281
     1
  3
ACAD_DIMASSOC
360
2C7
  0
XRECORD
  5
7AF
102
{ACAD_REACTORS
330
8
102
}
330
8
100
AcDbXrecord
280
     1
300
AMECH_PP
300
2012
300
PDSP_F_S
  0
DICTIONARY
  5
793
102
{ACAD_REACTORS
330
8
102
}
330
8
100
AcDbDictionary
281
     1
  0
DICTIONARY
  5
97
102
{ACAD_REACTORS
330
8
102
}
330
8
100
AcDbDictionary
281
     1
  0
DICTIONARY
  5
C
102
{ACAD_REACTORS
330
8
102
}
330
8
100
AcDbDictionary
281
     1
  3
Model
350
7AA
  3
배치1
350
7AB
  0
DICTIONARY
  5
761
102
{ACAD_REACTORS
330
8
102
}
330
8
100
AcDbDictionary
281
     1
  3
ByBlock
350
76A
  3
ByLayer
350
762
  3
Global
350
772
  0
DICTIONARY
  5
7A8
102
{ACAD_REACTORS
330
8
102
}
330
8
100
AcDbDictionary
281
     1
  3
Standard
350
7A9
  0
DICTIONARY
  5
98
102
{ACAD_REACTORS
330
8
102
}
330
8
100
AcDbDictionary
281
     1
  3
STANDARD
350
9A
  0
DICTIONARY
  5
99
102
{ACAD_REACTORS
330
8
102
}
330
8
100
AcDbDictionary
281
     1
  0
ACDBDICTIONARYWDFLT
  5
7
102
{ACAD_REACTORS
330
8
102
}
330
8
100
AcDbDictionary
281
     1
  3
Normal
350
6
100
AcDbDictionaryWithDefault
340
6
  0
DICTIONARY
  5
796
102
{ACAD_REACTORS
330
8
102
}
330
8
100
AcDbDictionary
281
     1
  3
A0
350
797
  3
A1
350
798
  3
A2
350
799
  3
A3
350
79A
  3
A4
350
79B
  3
A5
350
79C
  3
A6
350
79D
  3
A7
350
79E
  3
A8
350
79F
  3
A9
350
7A0
  3
B0
350
7A1
  3
B1
350
7A2
  3
B2
350
7A3
  3
B3
350
7A4
  3
B4
350
7A5
  3
B5
350
7A6
  3
B6
350
7A7
  0
DICTIONARY
  5
794
102
{ACAD_REACTORS
330
8
102
}
330
8
100
AcDbDictionary
281
     1
  3
Standard
350
795
  0
DICTIONARY
  5
77A
102
{ACAD_REACTORS
330
8
102
}
330
8
100
AcDbDictionary
281
     1
  3
2dWireframe
350
780
  3
Basic
350
77F
  3
Brighten
350
786
  3
ColorChange
350
78A
  3
Conceptual
350
783
  3
Dim
350
785
  3
EdgeColorOff
350
792
  3
Facepattern
350
789
  3
Flat
350
77B
  3
FlatWithEdges
350
77C
  3
Gouraud
350
77D
  3
GouraudWithEdges
350
77E
  3
Hidden
350
782
  3
JitterOff
350
790
  3
Linepattern
350
788
  3
OverhangOff
350
791
  3
Realistic
350
784
  3
Shaded
350
78F
  3
Shaded with edges
350
78E
  3
Shades of Gray
350
78B
  3
Sketchy
350
78C
  3
Thicken
350
787
  3
Wireframe
350
781
  3
X-Ray
350
78D
  0
XRECORD
  5
7D9
102
{ACAD_REACTORS
330
8
102
}
330
8
100
AcDbXrecord
280
     1
 90
        1
330
795
  0
DICTIONARY
  5
2D4
102
{ACAD_REACTORS
330
8
102
}
330
8
100
AcDbDictionary
281
     1
  3
CANNOSCALE
350
7D2
  3
CMLEADERSTYLE
350
7D1
  3
CTABLESTYLE
350
7D0
  3
DIMASSOC
350
2D6
  3
HIDETEXT
350
2D5
  3
INDEXCTL
350
7D4
  3
SORTENTS
350
7D3
  3
XCLIPFRAME
350
7D5
  0
XRECORD
  5
7DA
102
{ACAD_REACTORS
330
8
102
}
330
8
100
AcDbXrecord
280
     1
  1
DWGPROPS COOKIE
  2

  3

  4

  6

  7

  8
김성진
  9

300
=
301
=
302
=
303
=
304
=
305
=
306
=
307
=
308
=
309
=
 40
11.11836744212963
 41
2452839.586179271
 42
2456237.787272616
  1

 90
        0
  0
DICTIONARY
  5
14
102
{ACAD_REACTORS
330
13
102
}
330
13
100
AcDbDictionary
280
     1
281
     1
  3
$LAYERS
360
15
  3
-_UND_0
360
16
  3
-PEGC
360
17
  3
101
360
18
  3
102
360
19
  3
1DUC
360
1A
  3
1EQ
360
1B
  3
1TUB
360
1C
  3
2
360
1D
  3
2000
360
1E
  3
50
360
1F
  3
58J
360
20
  3
65
360
21
  3
AA
360
22
  3
ACABADOS
360
23
  3
AGUA_Y_DREN
360
24
  3
AIRE
360
25
  3
ALLE_AUS
360
26
  3
ALLES_MIT_S
360
27
  3
AMARILLO
360
28
  3
APAGADOS
360
29
  3
ARR
360
2A
  3
BA
360
2B
  3
BACKS
360
2C
  3
BASE
360
2D
  3
BLOQ_INUTIL
360
2E
  3
CADKON
360
2F
  3
CARPINTERIA
360
30
  3
CERRADOS
360
31
  3
COL
360
32
  3
COLOR
360
33
  3
COLOR_250
360
34
  3
COLORES
360
35
  3
CONGELADOS
360
36
  3
CONJUNTO
360
37
  3
D1
360
38
  3
DA_
360
39
  3
DET-
360
3A
  3
DOR-H
360
3B
  3
EJES
360
3C
  3
ELECTRICO
360
3D
  3
F1
360
3E
  3
FROZEN
360
3F
  3
GRID
360
40
  3
GRIDTXT
360
41
  3
HATCH
360
42
  3
HCAD
360
43
  3
INSTALACIONES
360
44
  3
JIZNI
360
45
  3
KCK
360
46
  3
KKK
360
47
  3
LAY
360
48
  3
LAYER-0
360
4C
  3
LAYER-1
360
4D
  3
LAYER_1_UND_0
360
49
  3
LAYER_2_UND_0
360
4A
  3
LAYER_9_UND_0_SCHRAFFUR
360
4B
  3
LOCK
360
4E
  3
LOCKED
360
4F
  3
LOTES
360
50
  3
LUNAR
360
51
  3
LUNAR2
360
52
  3
M
360
53
  3
MIS_LAYERS
360
54
  3
MRKCK
360
55
  3
NECADKON
360
56
  3
NI_LH
360
57
  3
NI_RH
360
58
  3
NUM
360
59
  3
OFF
360
5A
  3
ON
360
5B
  3
PBASE
360
5C
  3
PEGC
360
5D
  3
PEGCT
360
5E
  3
PFRAME
360
5F
  3
PGRID
360
60
  3
PGRIDT
360
61
  3
PLAFONES
360
62
  3
PLANTAS
360
63
  3
PLOT
360
64
  3
PRENDIDAS
360
65
  3
PRENDIDOS
360
66
  3
PRINT
360
67
  3
PT
360
68
  3
PTH
360
69
  3
PVGRID
360
6A
  3
RED_DE_AGUA_POTABLE
360
6B
  3
RED_DE_ENERGIA_ELECTRICA
360
6C
  3
SEVERNI
360
6D
  3
SHIN
360
6E
  3
SHOW_ALL_LAYER
360
6F
  3
SIN
360
70
  3
STORAGE-CART
360
71
  3
T
360
72
  3
TEXTOS
360
73
  3
TEXTURAS
360
74
  3
TUBERIAS
360
75
  3
UNFRZ
360
76
  3
VA
360
78
  3
VENTILACI\U+00D3N
360
79
  3
VYHODNI
360
7A
  3
V\U+0160ECHNY_NEPOU\U+017D\U+00CDVAN\U+00C9
360
77
  3
YO
360
7B
  3
ZAPADNI
360
7C
  3
사용
360
7D
  3
신규
360
7E
  3
실박스
360
7F
  3
우리토목
360
80
  3
주차
360
81
  3
지상정밀
360
82
  3
쩜선
360
83
  3
플로터_작업층
360
84
  3
현재_작업층
360
85
  3
현재_잠금
360
86
  0
DICTIONARY
  5
87
102
{ACAD_REACTORS
330
13
102
}
330
13
100
AcDbDictionary
281
     1
  0
XRECORD
  5
7C7
102
{ACAD_REACTORS
330
7C6
102
}
330
7C6
100
AcDbXrecord
280
     1
290
     1
  0
XRECORD
  5
7C9
102
{ACAD_REACTORS
330
7C8
102
}
330
7C8
100
AcDbXrecord
280
     1
290
     1
  0
XRECORD
  5
7CB
102
{ACAD_REACTORS
330
7CA
102
}
330
7CA
100
AcDbXrecord
280
     1
290
     1
  0
XRECORD
  5
7CD
102
{ACAD_REACTORS
330
7CC
102
}
330
7CC
100
AcDbXrecord
280
     1
290
     1
  0
XRECORD
  5
7CF
102
{ACAD_REACTORS
330
7CE
102
}
330
7CE
100
AcDbXrecord
280
     1
290
     1
  0
XRECORD
  5
747
102
{ACAD_REACTORS
330
3
102
}
330
3
100
AcDbXrecord
280
     1
340
2
  0
XRECORD
  5
748
102
{ACAD_REACTORS
330
E
102
}
330
E
100
AcDbXrecord
280
     1
340
D
  0
XRECORD
  5
7DE
102
{ACAD_REACTORS
330
7DD
102
}
330
7DD
100
AcDbXrecord
280
     1
 40
10589.0
  1
\A1;\U+220570%%p0.5
  0
XRECORD
  5
7DC
102
{ACAD_REACTORS
330
7DB
102
}
330
7DB
100
AcDbXrecord
280
     1
 40
10589.0
  1
\A1;\U+220570%%p0.5
  0
DIMASSOC
  5
A0
102
{ACAD_REACTORS
330
9F
102
}
330
9F
100
AcDbDimAssoc
330
9E
 90
       15
 70
     0
 71
     0
  1
AcDbOsnapPointRef
 72
    13
331
2A5
 73
     2
 91
        0
 40
0.0
 10
-68.4415668170825
 20
86.42014631425082
 30
0.0
 75
     0
  1
AcDbOsnapPointRef
 72
     1
331
2A5
 73
     2
 91
        0
 40
1.0
 10
-55.14815819892304
 20
54.32701893812286
 30
0.0
 75
     0
  1
AcDbOsnapPointRef
 72
    13
331
278
 73
     2
 91
        0
 40
0.0
 10
-68.4415668170825
 20
51.42014631425086
 30
0.0
 75
     0
  1
AcDbOsnapPointRef
 72
     1
331
278
 73
     2
 91
        0
 40
1.0
 10
-68.4415668170825
 20
121.4201463142508
 30
0.0
 75
     0
  0
DIMASSOC
  5
BB
102
{ACAD_REACTORS
330
BA
102
}
330
BA
100
AcDbDimAssoc
330
B9
 90
       15
 70
     0
 71
     0
  1
AcDbOsnapPointRef
 72
    13
331
11F
 73
     2
 91
        0
 40
0.0
 10
-75.30102110298162
 20
-84.21392777728028
 30
0.0
 75
     0
  1
AcDbOsnapPointRef
 72
     1
331
11F
 73
     2
 91
        0
 40
1.0
 10
-62.00761248482216
 20
-116.3070551534102
 30
0.0
 75
     0
  1
AcDbOsnapPointRef
 72
    13
331
DF
 73
     2
 91
        0
 40
0.0
 10
-75.30102110298162
 20
-119.2139277772822
 30
0.0
 75
     0
  1
AcDbOsnapPointRef
 72
     1
331
DF
 73
     2
 91
        0
 40
1.0
 10
-75.30102110298162
 20
-49.21392777728121
 30
0.0
 75
     0
  0
DIMASSOC
  5
CC
102
{ACAD_REACTORS
330
CB
102
}
330
CB
100
AcDbDimAssoc
330
CA
 90
        2
 70
     0
 71
     0
  1
AcDbOsnapPointRef
 72
     3
331
17F
 73
     2
 91
        0
 40
0.0
 10
-75.30102110299253
 20
-84.21392777728028
 30
0.0
 75
     0
  0
DIMASSOC
  5
F3
102
{ACAD_REACTORS
330
F2
102
}
330
F2
100
AcDbDimAssoc
330
F1
 90
        3
 70
     0
 71
     0
  1
AcDbOsnapPointRef
 72
    13
331
101
 73
     2
 91
        0
 40
0.0
 10
26.30693842575942
 20
-57.21392777728119
 30
0.0
 75
     0
  1
AcDbOsnapPointRef
 72
     1
331
101
 73
     2
 91
        0
 40
1.0
 10
26.30693842575942
 20
-111.2139277772822
 30
0.0
 75
     0
  0
DIMASSOC
  5
107
102
{ACAD_REACTORS
330
106
102
}
330
106
100
AcDbDimAssoc
330
105
 90
        3
 70
     0
 71
     0
  1
AcDbOsnapPointRef
 72
     1
331
115
 73
     2
 91
        0
 40
1.0
 10
96.30693842575931
 20
-54.21392777728232
 30
0.0
 75
     0
  1
AcDbOsnapPointRef
 72
    13
331
147
 73
     2
 91
        0
 40
0.0
 10
96.30693842575931
 20
-114.2139277772822
 30
0.0
 75
     0
  0
DIMASSOC
  5
16F
102
{ACAD_REACTORS
330
16E
102
}
330
16E
100
AcDbDimAssoc
330
16D
 90
        3
 70
     0
 71
     0
  1
AcDbOsnapPointRef
 72
    13
331
DC
 73
     2
 91
        0
 40
0.0
 10
-105.3010211029816
 20
-59.21392777728029
 30
0.0
 75
     0
  1
AcDbOsnapPointRef
 72
    13
331
104
 73
     2
 91
        0
 40
0.0
 10
-45.30102110298162
 20
-59.21392777728029
 30
0.0
 75
     0
  0
DIMASSOC
  5
192
102
{ACAD_REACTORS
330
191
102
}
330
191
100
AcDbDimAssoc
330
190
 90
        3
 70
     0
 71
     0
  1
AcDbOsnapPointRef
 72
    13
331
101
 73
     2
 91
        0
 40
0.0
 10
26.30693842575942
 20
-57.21392777728119
 30
0.0
 75
     0
  1
AcDbOsnapPointRef
 72
    13
331
100
 73
     2
 91
        0
 40
0.0
 10
28.30693842575943
 20
-54.21392777728029
 30
0.0
 75
     0
  0
DIMASSOC
  5
1A3
102
{ACAD_REACTORS
330
1A2
102
}
330
1A2
100
AcDbDimAssoc
330
1A1
 90
        2
 70
     0
 71
     0
  1
AcDbOsnapPointRef
 72
     1
331
1B3
 73
     2
 91
        0
 40
1.0
 10
35.30693842575942
 20
-55.61519043575136
 30
0.0
 75
     0
  0
DIMASSOC
  5
1C6
102
{ACAD_REACTORS
330
1C5
102
}
330
1C5
100
AcDbDimAssoc
330
1C4
 90
        2
 70
     0
 71
     0
  1
AcDbOsnapPointRef
 72
    13
331
116
 73
     2
 91
        0
 40
0.0
 10
103.3069384257593
 20
-56.71392777728232
 30
0.0
 75
     0
  0
DIMASSOC
  5
1D5
102
{ACAD_REACTORS
330
1D4
102
}
330
1D4
100
AcDbDimAssoc
330
1D3
 90
        3
 70
     0
 71
     0
  1
AcDbOsnapPointRef
 72
    13
331
1E3
 73
     2
 91
        0
 40
0.0
 10
15.8864399347783
 20
113.4201463142508
 30
0.0
 75
     0
  1
AcDbOsnapPointRef
 72
     1
331
1E3
 73
     2
 91
        0
 40
1.0
 10
15.8864399347783
 20
59.42014631425087
 30
0.0
 75
     0
  0
DIMASSOC
  5
1EA
102
{ACAD_REACTORS
330
1E9
102
}
330
1E9
100
AcDbDimAssoc
330
1E8
 90
        3
 70
     0
 71
     0
  1
AcDbOsnapPointRef
 72
     1
331
1F8
 73
     2
 91
        0
 40
1.0
 10
85.88643993478909
 20
116.4201463142508
 30
0.0
 75
     0
  1
AcDbOsnapPointRef
 72
    13
331
215
 73
     2
 91
        0
 40
0.0
 10
85.88643993478909
 20
56.42014631425087
 30
0.0
 75
     0
  0
DIMASSOC
  5
24F
102
{ACAD_REACTORS
330
24E
102
}
330
24E
100
AcDbDimAssoc
330
24D
 90
        2
 70
     0
 71
     0
  1
AcDbOsnapPointRef
 72
     1
331
26E
 73
     2
 91
        0
 40
1.0
 10
24.88643993478922
 20
115.0188836557797
 30
0.0
 75
     0
  0
DIMASSOC
  5
25F
102
{ACAD_REACTORS
330
25E
102
}
330
25E
100
AcDbDimAssoc
330
25D
 90
        3
 70
     0
 71
     0
  1
AcDbOsnapPointRef
 72
    13
331
1E3
 73
     2
 91
        0
 40
0.0
 10
15.8864399347783
 20
113.4201463142508
 30
0.0
 75
     0
  1
AcDbOsnapPointRef
 72
    13
331
1E5
 73
     2
 91
        0
 40
0.0
 10
17.88643993477831
 20
116.4201463142508
 30
0.0
 75
     0
  0
DIMASSOC
  5
292
102
{ACAD_REACTORS
330
291
102
}
330
291
100
AcDbDimAssoc
330
290
 90
        2
 70
     0
 71
     0
  1
AcDbOsnapPointRef
 72
     3
331
24C
 73
     2
 91
        0
 40
0.0
 10
-68.4415668170825
 20
86.42014631425082
 30
0.0
 75
     0
  0
DIMASSOC
  5
2A8
102
{ACAD_REACTORS
330
2A7
102
}
330
2A7
100
AcDbDimAssoc
330
2A6
 90
        3
 70
     0
 71
     0
  1
AcDbOsnapPointRef
 72
    13
331
276
 73
     2
 91
        0
 40
0.0
 10
-98.4415668170825
 20
111.4201463142508
 30
0.0
 75
     0
  1
AcDbOsnapPointRef
 72
    13
331
1E6
 73
     2
 91
        0
 40
0.0
 10
-38.4415668170825
 20
111.4201463142508
 30
0.0
 75
     0
  0
DIMASSOC
  5
2C7
102
{ACAD_REACTORS
330
2C6
102
}
330
2C6
100
AcDbDimAssoc
330
2C5
 90
        2
 70
     0
 71
     0
  1
AcDbOsnapPointRef
 72
    13
331
1F7
 73
     2
 91
        0
 40
0.0
 10
92.88643993477819
 20
113.9201463142508
 30
0.0
 75
     0
  0
LAYOUT
  5
7AA
102
{ACAD_XDICTIONARY
360
814
102
}
102
{ACAD_REACTORS
330
C
102
}
330
C
100
AcDbPlotSettings
  1

  2
RICOH Aficio 2027 RPCS
  4

  6

 40
0.0
 41
0.0
 42
0.0
 43
0.0
 44
0.0
 45
0.0
 46
0.0
 47
0.0
 48
0.0
 49
0.0
140
0.0
141
0.0
142
1.0
143
1.0
 70
  1712
 72
     0
 73
     0
 74
     0
  7

 75
     0
147
1.0
148
0.0
149
0.0
100
AcDbLayout
  1
Model
 70
     1
 71
     0
 10
0.0
 20
0.0
 11
12.0
 21
9.0
 12
0.0
 22
0.0
 32
0.0
 14
0.0
 24
0.0
 34
0.0
 15
0.0
 25
0.0
 35
0.0
146
0.0
 13
0.0
 23
0.0
 33
0.0
 16
1.0
 26
0.0
 36
0.0
 17
0.0
 27
1.0
 37
0.0
 76
     0
330
2
331
725
  0
LAYOUT
  5
7AB
102
{ACAD_XDICTIONARY
360
816
102
}
102
{ACAD_REACTORS
330
C
102
}
330
C
100
AcDbPlotSettings
  1

  2
RICOH Aficio 2027 RPCS
  4

  6

 40
0.0
 41
0.0
 42
0.0
 43
0.0
 44
0.0
 45
0.0
 46
0.0
 47
0.0
 48
0.0
 49
0.0
140
0.0
141
0.0
142
1.0
143
1.0
 70
   688
 72
     0
 73
     0
 74
     5
  7

 75
    16
147
1.0
148
0.0
149
0.0
100
AcDbLayout
  1
배치1
 70
     1
 71
     1
 10
0.0
 20
0.0
 11
12.0
 21
9.0
 12
0.0
 22
0.0
 32
0.0
 14
0.0
 24
0.0
 34
0.0
 15
0.0
 25
0.0
 35
0.0
146
0.0
 13
0.0
 23
0.0
 33
0.0
 16
1.0
 26
0.0
 36
0.0
 17
0.0
 27
1.0
 37
0.0
 76
     0
330
D
  0
MATERIAL
  5
76A
102
{ACAD_XDICTIONARY
360
76B
102
}
102
{ACAD_REACTORS
330
761
102
}
330
761
100
AcDbMaterial
  1
ByBlock
 72
     0
 43
0.0008202099737533
 43
0.0
 43
0.0
 43
0.0
 43
0.0
 43
0.0008202099737533
 43
0.0
 43
0.0
 43
0.0
 43
0.0
 43
1.0
 43
0.0
 43
0.0
 43
0.0
 43
0.0
 43
1.0
 77
     0
 47
0.0008202099737533
 47
0.0
 47
0.0
 47
0.0
 47
0.0
 47
0.0008202099737533
 47
0.0
 47
0.0
 47
0.0
 47
0.0
 47
1.0
 47
0.0
 47
0.0
 47
0.0
 47
0.0
 47
1.0
171
     0
 49
0.0008202099737533
 49
0.0
 49
0.0
 49
0.0
 49
0.0
 49
0.0008202099737533
 49
0.0
 49
0.0
 49
0.0
 49
0.0
 49
1.0
 49
0.0
 49
0.0
 49
0.0
 49
0.0
 49
1.0
175
     0
142
0.0008202099737533
142
0.0
142
0.0
142
0.0
142
0.0
142
0.0008202099737533
142
0.0
142
0.0
142
0.0
142
0.0
142
1.0
142
0.0
142
0.0
142
0.0
142
0.0
142
1.0
179
     0
144
0.0008202099737533
144
0.0
144
0.0
144
0.0
144
0.0
144
0.0008202099737533
144
0.0
144
0.0
144
0.0
144
0.0
144
1.0
144
0.0
144
0.0
144
0.0
144
0.0
144
1.0
147
0.0008202099737533
147
0.0
147
0.0
147
0.0
147
0.0
147
0.0008202099737533
147
0.0
147
0.0
147
0.0
147
0.0
147
1.0
147
0.0
147
0.0
147
0.0
147
0.0
147
1.0
  0
MATERIAL
  5
762
102
{ACAD_XDICTIONARY
360
763
102
}
102
{ACAD_REACTORS
330
761
102
}
330
761
100
AcDbMaterial
  1
ByLayer
 72
     0
 43
0.0008202099737533
 43
0.0
 43
0.0
 43
0.0
 43
0.0
 43
0.0008202099737533
 43
0.0
 43
0.0
 43
0.0
 43
0.0
 43
1.0
 43
0.0
 43
0.0
 43
0.0
 43
0.0
 43
1.0
 77
     0
 47
0.0008202099737533
 47
0.0
 47
0.0
 47
0.0
 47
0.0
 47
0.0008202099737533
 47
0.0
 47
0.0
 47
0.0
 47
0.0
 47
1.0
 47
0.0
 47
0.0
 47
0.0
 47
0.0
 47
1.0
171
     0
 49
0.0008202099737533
 49
0.0
 49
0.0
 49
0.0
 49
0.0
 49
0.0008202099737533
 49
0.0
 49
0.0
 49
0.0
 49
0.0
 49
1.0
 49
0.0
 49
0.0
 49
0.0
 49
0.0
 49
1.0
175
     0
142
0.0008202099737533
142
0.0
142
0.0
142
0.0
142
0.0
142
0.0008202099737533
142
0.0
142
0.0
142
0.0
142
0.0
142
1.0
142
0.0
142
0.0
142
0.0
142
0.0
142
1.0
179
     0
144
0.0008202099737533
144
0.0
144
0.0
144
0.0
144
0.0
144
0.0008202099737533
144
0.0
144
0.0
144
0.0
144
0.0
144
1.0
144
0.0
144
0.0
144
0.0
144
0.0
144
1.0
147
0.0008202099737533
147
0.0
147
0.0
147
0.0
147
0.0
147
0.0008202099737533
147
0.0
147
0.0
147
0.0
147
0.0
147
1.0
147
0.0
147
0.0
147
0.0
147
0.0
147
1.0
  0
MATERIAL
  5
772
102
{ACAD_XDICTIONARY
360
773
102
}
102
{ACAD_REACTORS
330
761
102
}
330
761
100
AcDbMaterial
  1
Global
 72
     0
 43
0.0008202099737533
 43
0.0
 43
0.0
 43
0.0
 43
0.0
 43
0.0008202099737533
 43
0.0
 43
0.0
 43
0.0
 43
0.0
 43
1.0
 43
0.0
 43
0.0
 43
0.0
 43
0.0
 43
1.0
 77
     0
 47
0.0008202099737533
 47
0.0
 47
0.0
 47
0.0
 47
0.0
 47
0.0008202099737533
 47
0.0
 47
0.0
 47
0.0
 47
0.0
 47
1.0
 47
0.0
 47
0.0
 47
0.0
 47
0.0
 47
1.0
171
     0
 49
0.0008202099737533
 49
0.0
 49
0.0
 49
0.0
 49
0.0
 49
0.0008202099737533
 49
0.0
 49
0.0
 49
0.0
 49
0.0
 49
1.0
 49
0.0
 49
0.0
 49
0.0
 49
0.0
 49
1.0
175
     0
142
0.0008202099737533
142
0.0
142
0.0
142
0.0
142
0.0
142
0.0008202099737533
142
0.0
142
0.0
142
0.0
142
0.0
142
1.0
142
0.0
142
0.0
142
0.0
142
0.0
142
1.0
179
     0
144
0.0008202099737533
144
0.0
144
0.0
144
0.0
144
0.0
144
0.0008202099737533
144
0.0
144
0.0
144
0.0
144
0.0
144
1.0
144
0.0
144
0.0
144
0.0
144
0.0
144
1.0
147
0.0008202099737533
147
0.0
147
0.0
147
0.0
147
0.0
147
0.0008202099737533
147
0.0
147
0.0
147
0.0
147
0.0
147
1.0
147
0.0
147
0.0
147
0.0
147
0.0
147
1.0
  0
MLEADERSTYLE
  5
7A9
102
{ACAD_REACTORS
330
7A8
102
}
330
7A8
100
AcDbMLeaderStyle
170
     2
171
     1
172
     0
 90
        2
 40
0.0
 41
0.0
173
     1
 91
-1056964608
340
8C
 92
       -2
290
     1
 42
2.0
291
     1
 43
0.36
  3
Standard
 44
4.0
300

342
89
174
     1
178
     6
175
     1
176
     0
 93
-1056964608
 45
4.0
292
     0
297
     0
 46
4.0
 94
-1056964608
 47
1.0
 49
1.0
140
1.0
293
     1
141
0.0
294
     1
177
     0
142
1.0
295
     0
296
     0
143
0.125
1001
ACAD_MLEADERVER
1070
     2
  0
MLINESTYLE
  5
9A
102
{ACAD_REACTORS
330
98
102
}
330
98
100
AcDbMlineStyle
  2
STANDARD
 70
     0
  3

 62
   256
 51
90.0
 52
90.0
 71
     2
 49
0.5
 62
   256
  6
BYLAYER
 49
-0.5
 62
   256
  6
BYLAYER
  0
ACDBPLACEHOLDER
  5
6
102
{ACAD_REACTORS
330
7
102
}
330
7
  0
SCALE
  5
797
102
{ACAD_REACTORS
330
796
102
}
330
796
100
AcDbScale
 70
     0
300
1:1
140
1.0
141
1.0
290
     1
  0
SCALE
  5
798
102
{ACAD_REACTORS
330
796
102
}
330
796
100
AcDbScale
 70
     0
300
1:2
140
1.0
141
2.0
290
     0
  0
SCALE
  5
799
102
{ACAD_REACTORS
330
796
102
}
330
796
100
AcDbScale
 70
     0
300
1:4
140
1.0
141
4.0
290
     0
  0
SCALE
  5
79A
102
{ACAD_REACTORS
330
796
102
}
330
796
100
AcDbScale
 70
     0
300
1:5
140
1.0
141
5.0
290
     0
  0
SCALE
  5
79B
102
{ACAD_REACTORS
330
796
102
}
330
796
100
AcDbScale
 70
     0
300
1:8
140
1.0
141
8.0
290
     0
  0
SCALE
  5
79C
102
{ACAD_REACTORS
330
796
102
}
330
796
100
AcDbScale
 70
     0
300
1:10
140
1.0
141
10.0
290
     0
  0
SCALE
  5
79D
102
{ACAD_REACTORS
330
796
102
}
330
796
100
AcDbScale
 70
     0
300
1:16
140
1.0
141
16.0
290
     0
  0
SCALE
  5
79E
102
{ACAD_REACTORS
330
796
102
}
330
796
100
AcDbScale
 70
     0
300
1:20
140
1.0
141
20.0
290
     0
  0
SCALE
  5
79F
102
{ACAD_REACTORS
330
796
102
}
330
796
100
AcDbScale
 70
     0
300
1:30
140
1.0
141
30.0
290
     0
  0
SCALE
  5
7A0
102
{ACAD_REACTORS
330
796
102
}
330
796
100
AcDbScale
 70
     0
300
1:40
140
1.0
141
40.0
290
     0
  0
SCALE
  5
7A1
102
{ACAD_REACTORS
330
796
102
}
330
796
100
AcDbScale
 70
     0
300
1:50
140
1.0
141
50.0
290
     0
  0
SCALE
  5
7A2
102
{ACAD_REACTORS
330
796
102
}
330
796
100
AcDbScale
 70
     0
300
1:100
140
1.0
141
100.0
290
     0
  0
SCALE
  5
7A3
102
{ACAD_REACTORS
330
796
102
}
330
796
100
AcDbScale
 70
     0
300
2:1
140
2.0
141
1.0
290
     0
  0
SCALE
  5
7A4
102
{ACAD_REACTORS
330
796
102
}
330
796
100
AcDbScale
 70
     0
300
4:1
140
4.0
141
1.0
290
     0
  0
SCALE
  5
7A5
102
{ACAD_REACTORS
330
796
102
}
330
796
100
AcDbScale
 70
     0
300
8:1
140
8.0
141
1.0
290
     0
  0
SCALE
  5
7A6
102
{ACAD_REACTORS
330
796
102
}
330
796
100
AcDbScale
 70
     0
300
10:1
140
10.0
141
1.0
290
     0
  0
SCALE
  5
7A7
102
{ACAD_REACTORS
330
796
102
}
330
796
100
AcDbScale
 70
     0
300
100:1
140
100.0
141
1.0
290
     0
  0
TABLESTYLE
  5
795
102
{ACAD_XDICTIONARY
360
7D7
102
}
102
{ACAD_REACTORS
330
794
102
}
330
794
100
AcDbTableStyle
  3
Standard
 70
     0
 71
     0
 40
1.5
 41
1.5
280
     0
281
     0
  7
STANDARD
140
4.5
170
     2
 62
     0
 63
     7
283
     0
274
    -2
284
     1
 64
     0
275
    -2
285
     1
 65
     0
276
    -2
286
     1
 66
     0
277
    -2
287
     1
 67
     0
278
    -2
288
     1
 68
     0
279
    -2
289
     1
 69
     0
  7
STANDARD
140
6.0
170
     5
 62
     0
 63
     7
283
     0
274
    -2
284
     1
 64
     0
275
    -2
285
     1
 65
     0
276
    -2
286
     1
 66
     0
277
    -2
287
     1
 67
     0
278
    -2
288
     1
 68
     0
279
    -2
289
     1
 69
     0
  7
STANDARD
140
4.5
170
     5
 62
     0
 63
     7
283
     0
274
    -2
284
     1
 64
     0
275
    -2
285
     1
 65
     0
276
    -2
286
     1
 66
     0
277
    -2
287
     1
 67
     0
278
    -2
288
     1
 68
     0
279
    -2
289
     1
 69
     0
  0
VISUALSTYLE
  5
780
102
{ACAD_XDICTIONARY
360
7EC
102
}
102
{ACAD_REACTORS
330
77A
102
}
330
77A
100
AcDbVisualStyle
  2
2dWireframe
 70
     4
 71
     0
 72
     2
 73
     0
 90
        0
 40
-0.6
 41
-30.0
 62
     5
 63
     7
 74
     1
 91
        4
 64
     7
 65
   257
 75
     1
175
     1
 42
1.0
 92
        0
 66
   257
 43
1.0
 76
     1
 77
     6
 78
     2
 67
     7
 79
     5
170
     0
171
     0
290
     0
174
     0
 93
        1
 44
0.0
173
     0
291
     0
 45
0.0
1001
ACAD
1000
AcDbSavedByObjectVersion
1070
     0
  0
VISUALSTYLE
  5
77F
102
{ACAD_XDICTIONARY
360
7EA
102
}
102
{ACAD_REACTORS
330
77A
102
}
330
77A
100
AcDbVisualStyle
  2
Basic
 70
     7
 71
     1
 72
     0
 73
     1
 90
        0
 40
-0.6
 41
-30.0
 62
     5
 63
     7
 74
     0
 91
        4
 64
     7
 65
   257
 75
     1
175
     1
 42
1.0
 92
        8
 66
     7
 43
1.0
 76
     1
 77
     6
 78
     2
 67
     7
 79
     5
170
     0
171
     0
290
     0
174
     0
 93
        1
 44
0.0
173
     0
291
     1
 45
0.0
1001
ACAD
1000
AcDbSavedByObjectVersion
1070
     0
  0
VISUALSTYLE
  5
786
102
{ACAD_XDICTIONARY
360
7F8
102
}
102
{ACAD_REACTORS
330
77A
102
}
330
77A
100
AcDbVisualStyle
  2
Brighten
 70
    12
 71
     2
 72
     2
 73
     0
 90
        0
 40
-0.6
 41
-30.0
 62
     5
 63
     7
 74
     1
 91
        4
 64
     7
 65
   257
 75
     1
175
     1
 42
1.0
 92
        8
 66
     7
 43
1.0
 76
     1
 77
     6
 78
     2
 67
     7
 79
     5
170
     0
171
     0
290
     0
174
     0
 93
        1
 44
50.0
173
     0
291
     1
 45
0.0
1001
ACAD
1000
AcDbSavedByObjectVersion
1070
     0
  0
VISUALSTYLE
  5
78A
102
{ACAD_XDICTIONARY
360
800
102
}
102
{ACAD_REACTORS
330
77A
102
}
330
77A
100
AcDbVisualStyle
  2
ColorChange
 70
    16
 71
     2
 72
     2
 73
     3
 90
        0
 40
-0.6
 41
-30.0
 62
     5
 63
     8
 74
     1
 91
        4
 64
     7
 65
   257
 75
     1
175
     1
 42
1.0
 92
        8
 66
     8
 43
1.0
 76
     1
 77
     6
 78
     2
 67
     7
 79
     5
170
     0
171
     0
290
     0
174
     0
 93
        1
 44
0.0
173
     0
291
     1
 45
0.0
1001
ACAD
1000
AcDbSavedByObjectVersion
1070
     0
  0
VISUALSTYLE
  5
783
102
{ACAD_XDICTIONARY
360
7F2
102
}
102
{ACAD_REACTORS
330
77A
102
}
330
77A
100
AcDbVisualStyle
  2
Conceptual
 70
     9
 71
     3
 72
     2
 73
     0
 90
        0
 40
-0.6
 41
-30.0
 62
     5
 63
     7
 74
     2
 91
        2
 64
     7
 65
   257
 75
     1
175
     1
 42
179.0
 92
        8
 66
     7
 43
1.0
 76
     1
 77
     6
 78
     2
 67
     7
 79
     3
170
     0
171
     0
290
     0
174
     0
 93
        1
 44
0.0
173
     0
291
     0
 45
0.0
1001
ACAD
1000
AcDbSavedByObjectVersion
1070
     0
  0
VISUALSTYLE
  5
785
102
{ACAD_XDICTIONARY
360
7F6
102
}
102
{ACAD_REACTORS
330
77A
102
}
330
77A
100
AcDbVisualStyle
  2
Dim
 70
    11
 71
     2
 72
     2
 73
     0
 90
        0
 40
-0.6
 41
-30.0
 62
     5
 63
     7
 74
     1
 91
        4
 64
     7
 65
   257
 75
     1
175
     1
 42
1.0
 92
        8
 66
     7
 43
1.0
 76
     1
 77
     6
 78
     2
 67
     7
 79
     5
170
     0
171
     0
290
     0
174
     0
 93
        1
 44
-50.0
173
     0
291
     1
 45
0.0
1001
ACAD
1000
AcDbSavedByObjectVersion
1070
     0
  0
VISUALSTYLE
  5
792
102
{ACAD_XDICTIONARY
360
810
102
}
102
{ACAD_REACTORS
330
77A
102
}
330
77A
100
AcDbVisualStyle
  2
EdgeColorOff
 70
    22
 71
     2
 72
     2
 73
     0
 90
        0
 40
-0.6
 41
-30.0
 62
     5
 63
     7
 74
     1
 91
        4
 64
     7
 65
   257
 75
     1
175
     1
 42
1.0
 92
        8
 66
     7
 43
1.0
 76
     1
 77
     6
 78
     2
 67
     7
 79
     5
170
     0
171
     0
290
     0
174
     0
 93
        1
 44
0.0
173
     0
291
     1
 45
0.0
1001
ACAD
1000
AcDbSavedByObjectVersion
1070
     0
  0
VISUALSTYLE
  5
789
102
{ACAD_XDICTIONARY
360
7FE
102
}
102
{ACAD_REACTORS
330
77A
102
}
330
77A
100
AcDbVisualStyle
  2
Facepattern
 70
    15
 71
     2
 72
     2
 73
     0
 90
        0
 40
-0.6
 41
-30.0
 62
     5
 63
     7
 74
     1
 91
        4
 64
     7
 65
   257
 75
     1
175
     1
 42
1.0
 92
        8
 66
     7
 43
1.0
 76
     1
 77
     6
 78
     2
 67
     7
 79
     5
170
     0
171
     0
290
     0
174
     0
 93
        1
 44
0.0
173
     0
291
     1
 45
0.0
1001
ACAD
1000
AcDbSavedByObjectVersion
1070
     0
  0
VISUALSTYLE
  5
77B
102
{ACAD_XDICTIONARY
360
7E2
102
}
102
{ACAD_REACTORS
330
77A
102
}
330
77A
100
AcDbVisualStyle
  2
Flat
 70
     0
 71
     2
 72
     1
 73
     1
 90
        2
 40
-0.6
 41
30.0
 62
     5
 63
     7
 74
     0
 91
        0
 64
     7
 65
   257
 75
     1
175
     1
 42
1.0
 92
        8
 66
     7
 43
1.0
 76
     1
 77
     6
 78
     2
 67
     7
 79
     5
170
     0
171
     0
290
     0
174
     0
 93
       13
 44
0.0
173
     0
291
     1
 45
0.0
1001
ACAD
1000
AcDbSavedByObjectVersion
1070
     0
  0
VISUALSTYLE
  5
77C
102
{ACAD_XDICTIONARY
360
7E4
102
}
102
{ACAD_REACTORS
330
77A
102
}
330
77A
100
AcDbVisualStyle
  2
FlatWithEdges
 70
     1
 71
     2
 72
     1
 73
     1
 90
        2
 40
-0.6
 41
30.0
 62
     5
 63
     7
 74
     1
 91
        0
 64
     7
 65
   257
 75
     1
175
     1
 42
1.0
 92
        0
 66
   257
 43
1.0
 76
     1
 77
     6
 78
     2
 67
     7
 79
     5
170
     0
171
     0
290
     0
174
     0
 93
       13
 44
0.0
173
     0
291
     1
 45
0.0
1001
ACAD
1000
AcDbSavedByObjectVersion
1070
     0
  0
VISUALSTYLE
  5
77D
102
{ACAD_XDICTIONARY
360
7E6
102
}
102
{ACAD_REACTORS
330
77A
102
}
330
77A
100
AcDbVisualStyle
  2
Gouraud
 70
     2
 71
     2
 72
     2
 73
     1
 90
        2
 40
-0.6
 41
30.0
 62
     5
 63
     7
 74
     0
 91
        0
 64
     7
 65
   257
 75
     1
175
     1
 42
1.0
 92
        0
 66
     7
 43
1.0
 76
     1
 77
     6
 78
     2
 67
     7
 79
     5
170
     0
171
     0
290
     0
174
     0
 93
       13
 44
0.0
173
     0
291
     1
 45
0.0
1001
ACAD
1000
AcDbSavedByObjectVersion
1070
     0
  0
VISUALSTYLE
  5
77E
102
{ACAD_XDICTIONARY
360
7E8
102
}
102
{ACAD_REACTORS
330
77A
102
}
330
77A
100
AcDbVisualStyle
  2
GouraudWithEdges
 70
     3
 71
     2
 72
     2
 73
     1
 90
        2
 40
-0.6
 41
30.0
 62
     5
 63
     7
 74
     1
 91
        0
 64
     7
 65
   257
 75
     1
175
     1
 42
1.0
 92
        0
 66
   257
 43
1.0
 76
     1
 77
     6
 78
     2
 67
     7
 79
     5
170
     0
171
     0
290
     0
174
     0
 93
       13
 44
0.0
173
     0
291
     1
 45
0.0
1001
ACAD
1000
AcDbSavedByObjectVersion
1070
     0
  0
VISUALSTYLE
  5
782
102
{ACAD_XDICTIONARY
360
7F0
102
}
102
{ACAD_REACTORS
330
77A
102
}
330
77A
100
AcDbVisualStyle
  2
Hidden
 70
     6
 71
     1
 72
     2
 73
     2
 90
        0
 40
-0.6
 41
-30.0
 62
     5
 63
     7
 74
     2
 91
        2
 64
     7
 65
   257
 75
     2
175
     1
 42
40.0
 92
        0
 66
   257
 43
1.0
 76
     1
 77
     6
 78
     2
 67
     7
 79
     3
170
     0
171
     0
290
     0
174
     0
 93
        1
 44
0.0
173
     0
291
     0
 45
0.0
1001
ACAD
1000
AcDbSavedByObjectVersion
1070
     0
  0
VISUALSTYLE
  5
790
102
{ACAD_XDICTIONARY
360
80C
102
}
102
{ACAD_REACTORS
330
77A
102
}
330
77A
100
AcDbVisualStyle
  2
JitterOff
 70
    20
 71
     2
 72
     2
 73
     0
 90
        0
 40
-0.6
 41
-30.0
 62
     5
 63
     7
 74
     1
 91
        4
 64
     7
 65
   257
 75
     1
175
     1
 42
1.0
 92
       10
 66
     7
 43
1.0
 76
     1
 77
     6
 78
     2
 67
     7
 79
     5
170
     0
171
     0
290
     0
174
     0
 93
        1
 44
0.0
173
     0
291
     1
 45
0.0
1001
ACAD
1000
AcDbSavedByObjectVersion
1070
     0
  0
VISUALSTYLE
  5
788
102
{ACAD_XDICTIONARY
360
7FC
102
}
102
{ACAD_REACTORS
330
77A
102
}
330
77A
100
AcDbVisualStyle
  2
Linepattern
 70
    14
 71
     2
 72
     2
 73
     0
 90
        0
 40
-0.6
 41
-30.0
 62
     5
 63
     7
 74
     1
 91
        4
 64
     7
 65
   257
 75
     7
175
     7
 42
1.0
 92
        8
 66
     7
 43
1.0
 76
     1
 77
     6
 78
     2
 67
     7
 79
     5
170
     0
171
     0
290
     0
174
     0
 93
        1
 44
0.0
173
     0
291
     1
 45
0.0
1001
ACAD
1000
AcDbSavedByObjectVersion
1070
     0
  0
VISUALSTYLE
  5
791
102
{ACAD_XDICTIONARY
360
80E
102
}
102
{ACAD_REACTORS
330
77A
102
}
330
77A
100
AcDbVisualStyle
  2
OverhangOff
 70
    21
 71
     2
 72
     2
 73
     0
 90
        0
 40
-0.6
 41
-30.0
 62
     5
 63
     7
 74
     1
 91
        4
 64
     7
 65
   257
 75
     1
175
     1
 42
1.0
 92
        9
 66
     7
 43
1.0
 76
     1
 77
     6
 78
     2
 67
     7
 79
     5
170
     0
171
     0
290
     0
174
     0
 93
        1
 44
0.0
173
     0
291
     1
 45
0.0
1001
ACAD
1000
AcDbSavedByObjectVersion
1070
     0
  0
VISUALSTYLE
  5
784
102
{ACAD_XDICTIONARY
360
7F4
102
}
102
{ACAD_REACTORS
330
77A
102
}
330
77A
100
AcDbVisualStyle
  2
Realistic
 70
     8
 71
     2
 72
     3
 73
     0
 90
        2
 40
-0.6
 41
30.0
 62
     5
 63
     7
 74
     0
 91
        0
 64
     7
 65
   257
 75
     1
175
     1
 42
1.0
 92
        8
 66
   257
 43
1.0
 76
     1
 77
     6
 78
     2
 67
     7
 79
     3
170
     0
171
     0
290
     0
174
     0
 93
       13
 44
0.0
173
     0
291
     0
 45
0.0
1001
ACAD
1000
AcDbSavedByObjectVersion
1070
     0
  0
VISUALSTYLE
  5
78F
102
{ACAD_XDICTIONARY
360
80A
102
}
102
{ACAD_REACTORS
330
77A
102
}
330
77A
100
AcDbVisualStyle
  2
Shaded
 70
    27
 71
     2
 72
     2
 73
     1
 90
        2
 40
-0.6
 41
30.0
 62
     5
 63
     7
 74
     0
 91
        4
 64
     7
 65
   257
 75
     1
175
     1
 42
1.0
 92
        8
 66
   257
 43
1.0
 76
     1
 77
     6
 78
     2
 67
     8
 79
     3
170
     0
171
     0
290
     0
174
     0
 93
        5
 44
0.0
173
     0
291
     0
 45
0.0
1001
ACAD
1000
AcDbSavedByObjectVersion
1070
     0
  0
VISUALSTYLE
  5
78E
102
{ACAD_XDICTIONARY
360
808
102
}
102
{ACAD_REACTORS
330
77A
102
}
330
77A
100
AcDbVisualStyle
  2
Shaded with edges
 70
    26
 71
     2
 72
     2
 73
     1
 90
        2
 40
-0.6
 41
30.0
 62
     5
 63
     7
 74
     1
 91
       10
 64
     7
 65
   257
 75
     2
175
     1
 42
1.0
 92
        8
 66
   257
 43
1.0
 76
     1
 77
     6
 78
     2
 67
     7
 79
     3
170
     0
171
     0
290
     0
174
     0
 93
        5
 44
0.0
173
     0
291
     0
 45
0.0
1001
ACAD
1000
AcDbSavedByObjectVersion
1070
     0
  0
VISUALSTYLE
  5
78B
102
{ACAD_XDICTIONARY
360
802
102
}
102
{ACAD_REACTORS
330
77A
102
}
330
77A
100
AcDbVisualStyle
  2
Shades of Gray
 70
    23
 71
     2
 72
     2
 73
     3
 90
        0
 40
-0.6
 41
-30.0
 62
     5
 63
     7
 74
     2
 91
        2
 64
     7
 65
     7
 75
     1
175
     1
 42
40.0
 92
        8
 66
     7
 43
1.0
 76
     1
 77
     6
 78
     2
 67
     7
 79
     3
170
     0
171
     0
290
     0
174
     0
 93
        1
 44
0.0
173
     0
291
     0
 45
0.0
1001
ACAD
1000
AcDbSavedByObjectVersion
1070
     0
  0
VISUALSTYLE
  5
78C
102
{ACAD_XDICTIONARY
360
804
102
}
102
{ACAD_REACTORS
330
77A
102
}
330
77A
100
AcDbVisualStyle
  2
Sketchy
 70
    24
 71
     1
 72
     2
 73
     2
 90
        0
 40
-0.6
 41
-30.0
 62
     5
 63
     7
 74
     2
 91
        2
 64
     7
 65
     7
 75
     1
175
     1
 42
40.0
 92
       11
 66
     7
 43
1.0
 76
     1
 77
     6
 78
     2
 67
     7
 79
     6
170
     0
171
     0
290
     0
174
     0
 93
        1
 44
0.0
173
     0
291
     0
 45
0.0
1001
ACAD
1000
AcDbSavedByObjectVersion
1070
     0
  0
VISUALSTYLE
  5
787
102
{ACAD_XDICTIONARY
360
7FA
102
}
102
{ACAD_REACTORS
330
77A
102
}
330
77A
100
AcDbVisualStyle
  2
Thicken
 70
    13
 71
     2
 72
     2
 73
     0
 90
        0
 40
-0.6
 41
-30.0
 62
     5
 63
     7
 74
     1
 91
        4
 64
     7
 65
   257
 75
     1
175
     1
 42
1.0
 92
       12
 66
     7
 43
1.0
 76
     1
 77
     6
 78
     2
 67
     7
 79
     5
170
     0
171
     0
290
     0
174
     0
 93
        1
 44
0.0
173
     0
291
     1
 45
0.0
1001
ACAD
1000
AcDbSavedByObjectVersion
1070
     0
  0
VISUALSTYLE
  5
781
102
{ACAD_XDICTIONARY
360
7EE
102
}
102
{ACAD_REACTORS
330
77A
102
}
330
77A
100
AcDbVisualStyle
  2
Wireframe
 70
     5
 71
     0
 72
     2
 73
     0
 90
        0
 40
-0.6
 41
-30.0
 62
     5
 63
     7
 74
     1
 91
        4
 64
     7
 65
   257
 75
     1
175
     1
 42
1.0
 92
        0
 66
   257
 43
1.0
 76
     1
 77
     6
 78
     2
 67
     7
 79
     3
170
     0
171
     0
290
     0
174
     0
 93
        1
 44
0.0
173
     0
291
     0
 45
0.0
1001
ACAD
1000
AcDbSavedByObjectVersion
1070
     0
  0
VISUALSTYLE
  5
78D
102
{ACAD_XDICTIONARY
360
806
102
}
102
{ACAD_REACTORS
330
77A
102
}
330
77A
100
AcDbVisualStyle
  2
X-Ray
 70
    25
 71
     2
 72
     2
 73
     1
 90
        1
 40
0.5
 41
-30.0
 62
     5
 63
     7
 74
     1
 91
        0
 64
     7
 65
   257
 75
     1
175
     1
 42
1.0
 92
        8
 66
     7
 43
1.0
 76
     1
 77
     6
 78
     2
 67
     7
 79
     3
170
     0
171
     0
290
     0
174
     0
 93
       13
 44
0.0
173
     0
291
     0
 45
0.0
1001
ACAD
1000
AcDbSavedByObjectVersion
1070
     0
  0
DICTIONARYVAR
  5
7D2
102
{ACAD_REACTORS
330
2D4
102
}
330
2D4
100
DictionaryVariables
280
     0
  1
1:1
  0
DICTIONARYVAR
  5
7D1
102
{ACAD_REACTORS
330
2D4
102
}
330
2D4
100
DictionaryVariables
280
     0
  1
STANDARD
  0
DICTIONARYVAR
  5
7D0
102
{ACAD_REACTORS
330
2D4
102
}
330
2D4
100
DictionaryVariables
280
     0
  1
STANDARD
  0
DICTIONARYVAR
  5
2D6
102
{ACAD_REACTORS
330
2D4
102
}
330
2D4
100
DictionaryVariables
280
     0
  1
2
  0
DICTIONARYVAR
  5
2D5
102
{ACAD_REACTORS
330
2D4
102
}
330
2D4
100
DictionaryVariables
280
     0
  1
1
  0
DICTIONARYVAR
  5
7D4
102
{ACAD_REACTORS
330
2D4
102
}
330
2D4
100
DictionaryVariables
280
     0
  1
0
  0
DICTIONARYVAR
  5
7D3
102
{ACAD_REACTORS
330
2D4
102
}
330
2D4
100
DictionaryVariables
280
     0
  1
127
  0
DICTIONARYVAR
  5
7D5
102
{ACAD_REACTORS
330
2D4
102
}
330
2D4
100
DictionaryVariables
280
     0
  1
2
  0
XRECORD
  5
15
102
{ACAD_REACTORS
330
14
102
}
330
14
100
AcDbXrecord
280
     1
  1
$layers
  1
*
  1
*
  1
*
 70
     0
  1
*
  1
*
  0
XRECORD
  5
16
102
{ACAD_REACTORS
330
14
102
}
330
14
100
AcDbXrecord
280
     1
  1
- und 0
  1
-*,0
  1
*
  1
*
 70
     0
  1
*
  1
*
  0
XRECORD
  5
17
102
{ACAD_REACTORS
330
14
102
}
330
14
100
AcDbXrecord
280
     1
  1
-pegc
  1
*-pegc
  1
*
  1
*
 70
     0
  1
*
  1
*
  0
XRECORD
  5
18
102
{ACAD_REACTORS
330
14
102
}
330
14
100
AcDbXrecord
280
     1
  1
101
  1
*101
  1
*
  1
*
 70
   256
  1
*
  1
*
  0
XRECORD
  5
19
102
{ACAD_REACTORS
330
14
102
}
330
14
100
AcDbXrecord
280
     1
  1
102
  1
102*
  1
*
  1
*
 70
     0
  1
*
  1
*
  0
XRECORD
  5
1A
102
{ACAD_REACTORS
330
14
102
}
330
14
100
AcDbXrecord
280
     1
  1
1duc
  1
*1duc*
  1
*
  1
*
 70
     0
  1
*
  1
*
  0
XRECORD
  5
1B
102
{ACAD_REACTORS
330
14
102
}
330
14
100
AcDbXrecord
280
     1
  1
1eq
  1
*1eq*
  1
*
  1
*
 70
     0
  1
*
  1
*
  0
XRECORD
  5
1C
102
{ACAD_REACTORS
330
14
102
}
330
14
100
AcDbXrecord
280
     1
  1
1tub
  1
*1t*
  1
*
  1
*
 70
     0
  1
*
  1
*
  0
XRECORD
  5
1D
102
{ACAD_REACTORS
330
14
102
}
330
14
100
AcDbXrecord
280
     1
  1
2
  1
*
  1
2
  1
*
 70
     0
  1
*
  1
*
  0
XRECORD
  5
1E
102
{ACAD_REACTORS
330
14
102
}
330
14
100
AcDbXrecord
280
     1
  1
2000
  1
2000*
  1
*
  1
*
 70
     0
  1
*
  1
*
  0
XRECORD
  5
1F
102
{ACAD_REACTORS
330
14
102
}
330
14
100
AcDbXrecord
280
     1
  1
50
  1
*-50
  1
*
  1
*
 70
     0
  1
*
  1
*
  0
XRECORD
  5
20
102
{ACAD_REACTORS
330
14
102
}
330
14
100
AcDbXrecord
280
     1
  1
58J
  1
*58*
  1
*
  1
*
 70
     0
  1
*
  1
*
  0
XRECORD
  5
21
102
{ACAD_REACTORS
330
14
102
}
330
14
100
AcDbXrecord
280
     1
  1
65
  1
*65
  1
*
  1
*
 70
     0
  1
*
  1
*
  0
XRECORD
  5
22
102
{ACAD_REACTORS
330
14
102
}
330
14
100
AcDbXrecord
280
     1
  1
aa
  1
aa*
  1
*
  1
*
 70
     0
  1
*
  1
*
  0
XRECORD
  5
23
102
{ACAD_REACTORS
330
14
102
}
330
14
100
AcDbXrecord
280
     1
  1
acabados
  1
a-*
  1
*
  1
*
 70
     5
  1
*
  1
*
  0
XRECORD
  5
24
102
{ACAD_REACTORS
330
14
102
}
330
14
100
AcDbXrecord
280
     1
  1
AGUA Y DREN
  1
A-DS-*
  1
*
  1
*
 70
     0
  1
*
  1
*
  0
XRECORD
  5
25
102
{ACAD_REACTORS
330
14
102
}
330
14
100
AcDbXrecord
280
     1
  1
Aire
  1
*
  1
*
  1
*
 70
     0
  1
*
  1
*
  0
XRECORD
  5
26
102
{ACAD_REACTORS
330
14
102
}
330
14
100
AcDbXrecord
280
     1
  1
alle aus
  1
99999999999
  1
*
  1
*
 70
     0
  1
*
  1
*
  0
XRECORD
  5
27
102
{ACAD_REACTORS
330
14
102
}
330
14
100
AcDbXrecord
280
     1
  1
Alles mit S
  1
s*
  1
*
  1
*
 70
     0
  1
*
  1
*
  0
XRECORD
  5
28
102
{ACAD_REACTORS
330
14
102
}
330
14
100
AcDbXrecord
280
     1
  1
amarillo
  1
*
  1
yellow
  1
*
 70
     0
  1
*
  1
*
  0
XRECORD
  5
29
102
{ACAD_REACTORS
330
14
102
}
330
14
100
AcDbXrecord
280
     1
  1
APAGADOS
  1
*
  1
*
  1
*
 70
     4
  1
*
  1
*
  0
XRECORD
  5
2A
102
{ACAD_REACTORS
330
14
102
}
330
14
100
AcDbXrecord
280
     1
  1
ARR
  1
ARR*
  1
*
  1
*
 70
     0
  1
*
  1
*
  0
XRECORD
  5
2B
102
{ACAD_REACTORS
330
14
102
}
330
14
100
AcDbXrecord
280
     1
  1
ba
  1
*
  1
*
  1
*
 70
     0
  1
*
  1
*
  0
XRECORD
  5
2C
102
{ACAD_REACTORS
330
14
102
}
330
14
100
AcDbXrecord
280
     1
  1
BACKS
  1
*-H
  1
*
  1
*
 70
     0
  1
*
  1
*
  0
XRECORD
  5
2D
102
{ACAD_REACTORS
330
14
102
}
330
14
100
AcDbXrecord
280
     1
  1
BASE
  1
*-PBASE
  1
*
  1
*
 70
     0
  1
*
  1
*
  0
XRECORD
  5
2E
102
{ACAD_REACTORS
330
14
102
}
330
14
100
AcDbXrecord
280
     1
  1
BLOQ_INUTIL
  1
*
  1
*
  1
*
 70
     0
  1
*
  1
*
  0
XRECORD
  5
2F
102
{ACAD_REACTORS
330
14
102
}
330
14
100
AcDbXrecord
280
     1
  1
CADKON
  1
?[KAHBSM]?????[23M],?[KAHBSM]?????[23M][1456A-DGHILN-SU-Z]
  1
*
  1
*
 70
     0
  1
*
  1
*
  0
XRECORD
  5
30
102
{ACAD_REACTORS
330
14
102
}
330
14
100
AcDbXrecord
280
     1
  1
carpinteria
  1
carp*
  1
*
  1
*
 70
     0
  1
*
  1
*
  0
XRECORD
  5
31
102
{ACAD_REACTORS
330
14
102
}
330
14
100
AcDbXrecord
280
     1
  1
cerrados
  1
*
  1
*
  1
*
 70
   256
  1
*
  1
*
  0
XRECORD
  5
32
102
{ACAD_REACTORS
330
14
102
}
330
14
100
AcDbXrecord
280
     1
  1
COL
  1
*
  1
*
  1
*
 70
     1
  1
*
  1
*
  0
XRECORD
  5
33
102
{ACAD_REACTORS
330
14
102
}
330
14
100
AcDbXrecord
280
     1
  1
COLOR
  1
*
  1
253
  1
*
 70
     0
  1
*
  1
*
  0
XRECORD
  5
34
102
{ACAD_REACTORS
330
14
102
}
330
14
100
AcDbXrecord
280
     1
  1
color 250
  1
*
  1
250
  1
*
 70
     0
  1
*
  1
*
  0
XRECORD
  5
35
102
{ACAD_REACTORS
330
14
102
}
330
14
100
AcDbXrecord
280
     1
  1
COLORES
  1
*
  1
6
  1
*
 70
     0
  1
*
  1
*
  0
XRECORD
  5
36
102
{ACAD_REACTORS
330
14
102
}
330
14
100
AcDbXrecord
280
     1
  1
Congelados
  1
*
  1
*
  1
*
 70
     4
  1
*
  1
*
  0
XRECORD
  5
37
102
{ACAD_REACTORS
330
14
102
}
330
14
100
AcDbXrecord
280
     1
  1
CONJUNTO
  1
CON-*
  1
*
  1
*
 70
     0
  1
*
  1
*
  0
XRECORD
  5
38
102
{ACAD_REACTORS
330
14
102
}
330
14
100
AcDbXrecord
280
     1
  1
d1
  1
achurados
  1
*
  1
*
 70
     0
  1
*
  1
*
  0
XRECORD
  5
39
102
{ACAD_REACTORS
330
14
102
}
330
14
100
AcDbXrecord
280
     1
  1
DA_
  1
DA*
  1
*
  1
*
 70
     0
  1
*
  1
*
  0
XRECORD
  5
3A
102
{ACAD_REACTORS
330
14
102
}
330
14
100
AcDbXrecord
280
     1
  1
DET-
  1
*
  1
*
  1
*
 70
     0
  1
*
  1
*
  0
XRECORD
  5
3B
102
{ACAD_REACTORS
330
14
102
}
330
14
100
AcDbXrecord
280
     1
  1
DOR-H
  1
*
  1
7
  1
*
 70
     0
  1
*
  1
*
  0
XRECORD
  5
3C
102
{ACAD_REACTORS
330
14
102
}
330
14
100
AcDbXrecord
280
     1
  1
ejes
  1
eje*
  1
*
  1
*
 70
     0
  1
*
  1
*
  0
XRECORD
  5
3D
102
{ACAD_REACTORS
330
14
102
}
330
14
100
AcDbXrecord
280
     1
  1
ELECTRICO
  1
ELEC-*
  1
*
  1
*
 70
     0
  1
*
  1
*
  0
XRECORD
  5
3E
102
{ACAD_REACTORS
330
14
102
}
330
14
100
AcDbXrecord
280
     1
  1
F1
  1
Halaxref*
  1
*
  1
*
 70
     0
  1
*
  1
*
  0
XRECORD
  5
3F
102
{ACAD_REACTORS
330
14
102
}
330
14
100
AcDbXrecord
280
     1
  1
frozen
  1
*
  1
*
  1
*
 70
     4
  1
*
  1
*
  0
XRECORD
  5
40
102
{ACAD_REACTORS
330
14
102
}
330
14
100
AcDbXrecord
280
     1
  1
grid
  1
*-PGRID
  1
*
  1
*
 70
     1
  1
*
  1
*
  0
XRECORD
  5
41
102
{ACAD_REACTORS
330
14
102
}
330
14
100
AcDbXrecord
280
     1
  1
GRIDTXT
  1
*-PGRIDT
  1
*
  1
*
 70
     0
  1
*
  1
*
  0
XRECORD
  5
42
102
{ACAD_REACTORS
330
14
102
}
330
14
100
AcDbXrecord
280
     1
  1
HATCH
  1
HAT*
  1
*
  1
*
 70
     0
  1
*
  1
*
  0
XRECORD
  5
43
102
{ACAD_REACTORS
330
14
102
}
330
14
100
AcDbXrecord
280
     1
  1
HCAD
  1
1HCAD-*
  1
*
  1
*
 70
    13
  1
*
  1
*
  0
XRECORD
  5
44
102
{ACAD_REACTORS
330
14
102
}
330
14
100
AcDbXrecord
280
     1
  1
INSTALACIONES
  1
I-*
  1
*
  1
*
 70
     0
  1
*
  1
*
  0
XRECORD
  5
45
102
{ACAD_REACTORS
330
14
102
}
330
14
100
AcDbXrecord
280
     1
  1
JIZNI
  1
*-J
  1
*
  1
*
 70
     0
  1
*
  1
*
  0
XRECORD
  5
46
102
{ACAD_REACTORS
330
14
102
}
330
14
100
AcDbXrecord
280
     1
  1
kck
  1
*
  1
*
  1
*
 70
     0
  1
*
  1
*
  0
XRECORD
  5
47
102
{ACAD_REACTORS
330
14
102
}
330
14
100
AcDbXrecord
280
     1
  1
kkk
  1
k
  1
*
  1
*
 70
     0
  1
*
  1
*
  0
XRECORD
  5
48
102
{ACAD_REACTORS
330
14
102
}
330
14
100
AcDbXrecord
280
     1
  1
lay
  1
??-*
  1
*
  1
*
 70
     0
  1
*
  1
*
  0
XRECORD
  5
4C
102
{ACAD_REACTORS
330
14
102
}
330
14
100
AcDbXrecord
280
     1
  1
Layer-0
  1
0*
  1
*
  1
*
 70
     0
  1
*
  1
*
  0
XRECORD
  5
4D
102
{ACAD_REACTORS
330
14
102
}
330
14
100
AcDbXrecord
280
     1
  1
Layer-1
  1
1*
  1
*
  1
*
 70
     0
  1
*
  1
*
  0
XRECORD
  5
49
102
{ACAD_REACTORS
330
14
102
}
330
14
100
AcDbXrecord
280
     1
  1
Layer 1 und 0
  1
1*,0
  1
*
  1
*
 70
     0
  1
*
  1
*
  0
XRECORD
  5
4A
102
{ACAD_REACTORS
330
14
102
}
330
14
100
AcDbXrecord
280
     1
  1
Layer 2 und 0
  1
2*,0
  1
*
  1
*
 70
     0
  1
*
  1
*
  0
XRECORD
  5
4B
102
{ACAD_REACTORS
330
14
102
}
330
14
100
AcDbXrecord
280
     1
  1
Layer 9 und 0 Schraffur
  1
9*,0
  1
*
  1
*
 70
     0
  1
*
  1
*
  0
XRECORD
  5
4E
102
{ACAD_REACTORS
330
14
102
}
330
14
100
AcDbXrecord
280
     1
  1
LOCK
  1
*
  1
*
  1
*
 70
   256
  1
*
  1
*
  0
XRECORD
  5
4F
102
{ACAD_REACTORS
330
14
102
}
330
14
100
AcDbXrecord
280
     1
  1
locked
  1
*
  1
*
  1
*
 70
   256
  1
*
  1
*
  0
XRECORD
  5
50
102
{ACAD_REACTORS
330
14
102
}
330
14
100
AcDbXrecord
280
     1
  1
Lotes
  1
*
  1
*
  1
*
 70
     1
  1
*
  1
*
  0
XRECORD
  5
51
102
{ACAD_REACTORS
330
14
102
}
330
14
100
AcDbXrecord
280
     1
  1
LUNAR
  1
*
  1
*
  1
*
 70
    48
  1
*
  1
*
  0
XRECORD
  5
52
102
{ACAD_REACTORS
330
14
102
}
330
14
100
AcDbXrecord
280
     1
  1
LUNAR2
  1
*
  1
*
  1
*
 70
    12
  1
*
  1
*
  0
XRECORD
  5
53
102
{ACAD_REACTORS
330
14
102
}
330
14
100
AcDbXrecord
280
     1
  1
M
  1
M*
  1
*
  1
*
 70
     0
  1
*
  1
*
  0
XRECORD
  5
54
102
{ACAD_REACTORS
330
14
102
}
330
14
100
AcDbXrecord
280
     1
  1
mis_layers
  1
mis_*
  1
*
  1
*
 70
     0
  1
*
  1
*
  0
XRECORD
  5
55
102
{ACAD_REACTORS
330
14
102
}
330
14
100
AcDbXrecord
280
     1
  1
MRKCK
  1
*
  1
*
  1
*
 70
     0
  1
*
  1
*
  0
XRECORD
  5
56
102
{ACAD_REACTORS
330
14
102
}
330
14
100
AcDbXrecord
280
     1
  1
NECADKON
  1
~*?[KAHBSM]?????[23M]*
  1
*
  1
*
 70
     0
  1
*
  1
*
  0
XRECORD
  5
57
102
{ACAD_REACTORS
330
14
102
}
330
14
100
AcDbXrecord
280
     1
  1
NI_LH
  1
NI_LH*
  1
*
  1
*
 70
     0
  1
*
  1
*
  0
XRECORD
  5
58
102
{ACAD_REACTORS
330
14
102
}
330
14
100
AcDbXrecord
280
     1
  1
NI_RH
  1
NI_RH*
  1
*
  1
*
 70
     0
  1
*
  1
*
  0
XRECORD
  5
59
102
{ACAD_REACTORS
330
14
102
}
330
14
100
AcDbXrecord
280
     1
  1
NUM
  1
NUM*
  1
*
  1
*
 70
     0
  1
*
  1
*
  0
XRECORD
  5
5A
102
{ACAD_REACTORS
330
14
102
}
330
14
100
AcDbXrecord
280
     1
  1
off
  1
*
  1
*
  1
*
 70
     3
  1
*
  1
*
  0
XRECORD
  5
5B
102
{ACAD_REACTORS
330
14
102
}
330
14
100
AcDbXrecord
280
     1
  1
on
  1
*
  1
*
  1
*
 70
     0
  1
*
  1
*
  0
XRECORD
  5
5C
102
{ACAD_REACTORS
330
14
102
}
330
14
100
AcDbXrecord
280
     1
  1
PBASE
  1
*PBASE
  1
*
  1
*
 70
     0
  1
*
  1
*
  0
XRECORD
  5
5D
102
{ACAD_REACTORS
330
14
102
}
330
14
100
AcDbXrecord
280
     1
  1
PEGC
  1
*PEGC
  1
*
  1
*
 70
     0
  1
*
  1
*
  0
XRECORD
  5
5E
102
{ACAD_REACTORS
330
14
102
}
330
14
100
AcDbXrecord
280
     1
  1
PEGCT
  1
*PEGCT
  1
*
  1
*
 70
     0
  1
*
  1
*
  0
XRECORD
  5
5F
102
{ACAD_REACTORS
330
14
102
}
330
14
100
AcDbXrecord
280
     1
  1
PFRAME
  1
PFRAME*
  1
*
  1
*
 70
     0
  1
*
  1
*
  0
XRECORD
  5
60
102
{ACAD_REACTORS
330
14
102
}
330
14
100
AcDbXrecord
280
     1
  1
PGRID
  1
*PGRID
  1
*
  1
*
 70
     0
  1
*
  1
*
  0
XRECORD
  5
61
102
{ACAD_REACTORS
330
14
102
}
330
14
100
AcDbXrecord
280
     1
  1
PGRIDT
  1
*PGRIDT
  1
*
  1
*
 70
     0
  1
*
  1
*
  0
XRECORD
  5
62
102
{ACAD_REACTORS
330
14
102
}
330
14
100
AcDbXrecord
280
     1
  1
PLAFONES
  1
0-*
  1
*
  1
*
 70
     0
  1
*
  1
*
  0
XRECORD
  5
63
102
{ACAD_REACTORS
330
14
102
}
330
14
100
AcDbXrecord
280
     1
  1
PLANTAS
  1
P-*
  1
*
  1
*
 70
     0
  1
*
  1
*
  0
XRECORD
  5
64
102
{ACAD_REACTORS
330
14
102
}
330
14
100
AcDbXrecord
280
     1
  1
Plot
  1
*
  1
*
  1
*
 70
  1024
  1
*
  1
*
  0
XRECORD
  5
65
102
{ACAD_REACTORS
330
14
102
}
330
14
100
AcDbXrecord
280
     1
  1
PRENDIDAS
  1
*
  1
*
  1
*
 70
    13
  1
*
  1
*
  0
XRECORD
  5
66
102
{ACAD_REACTORS
330
14
102
}
330
14
100
AcDbXrecord
280
     1
  1
PRENDIDOS
  1
*
  1
*
  1
*
 70
    12
  1
*
  1
*
  0
XRECORD
  5
67
102
{ACAD_REACTORS
330
14
102
}
330
14
100
AcDbXrecord
280
     1
  1
print
  1
*
  1
7
  1
*
 70
  1280
  1
*
  1
*
  0
XRECORD
  5
68
102
{ACAD_REACTORS
330
14
102
}
330
14
100
AcDbXrecord
280
     1
  1
PT
  1
PT-*
  1
*
  1
*
 70
     0
  1
*
  1
*
  0
XRECORD
  5
69
102
{ACAD_REACTORS
330
14
102
}
330
14
100
AcDbXrecord
280
     1
  1
PTH
  1
PTH*
  1
*
  1
*
 70
     0
  1
*
  1
*
  0
XRECORD
  5
6A
102
{ACAD_REACTORS
330
14
102
}
330
14
100
AcDbXrecord
280
     1
  1
PVGRID
  1
*PVGRID
  1
*
  1
*
 70
     0
  1
*
  1
*
  0
XRECORD
  5
6B
102
{ACAD_REACTORS
330
14
102
}
330
14
100
AcDbXrecord
280
     1
  1
Red de Agua Potable
  1
Red de Agua Potable
  1
*
  1
*
 70
     1
  1
*
  1
*
  0
XRECORD
  5
6C
102
{ACAD_REACTORS
330
14
102
}
330
14
100
AcDbXrecord
280
     1
  1
Red de Energia Electrica
  1
Lotes
  1
*
  1
*
 70
     1
  1
*
  1
*
  0
XRECORD
  5
6D
102
{ACAD_REACTORS
330
14
102
}
330
14
100
AcDbXrecord
280
     1
  1
SEVERNI
  1
*-S
  1
*
  1
*
 70
     0
  1
*
  1
*
  0
XRECORD
  5
6E
102
{ACAD_REACTORS
330
14
102
}
330
14
100
AcDbXrecord
280
     1
  1
shin
  1
일*
  1
*
  1
*
 70
     0
  1
*
  1
*
  0
XRECORD
  5
6F
102
{ACAD_REACTORS
330
14
102
}
330
14
100
AcDbXrecord
280
     1
  1
SHOW ALL LAYER
  1
*
  1
*
  1
*
 70
     0
  1
*
  1
*
  0
XRECORD
  5
70
102
{ACAD_REACTORS
330
14
102
}
330
14
100
AcDbXrecord
280
     1
  1
sin
  1
sin
  1
*
  1
*
 70
     0
  1
*
  1
*
  0
XRECORD
  5
71
102
{ACAD_REACTORS
330
14
102
}
330
14
100
AcDbXrecord
280
     1
  1
STORAGE-CART
  1
STORAGE-CART*
  1
*
  1
*
 70
     0
  1
*
  1
*
  0
XRECORD
  5
72
102
{ACAD_REACTORS
330
14
102
}
330
14
100
AcDbXrecord
280
     1
  1
T
  1
T*
  1
*
  1
*
 70
     0
  1
*
  1
*
  0
XRECORD
  5
73
102
{ACAD_REACTORS
330
14
102
}
330
14
100
AcDbXrecord
280
     1
  1
TEXTOS
  1
TXT*
  1
*
  1
*
 70
     0
  1
*
  1
*
  0
XRECORD
  5
74
102
{ACAD_REACTORS
330
14
102
}
330
14
100
AcDbXrecord
280
     1
  1
TEXTURAS
  1
*TEXTURAS
  1
*
  1
*
 70
     0
  1
*
  1
*
  0
XRECORD
  5
75
102
{ACAD_REACTORS
330
14
102
}
330
14
100
AcDbXrecord
280
     1
  1
TUBERIAS
  1
T*
  1
*
  1
*
 70
     0
  1
*
  1
*
  0
XRECORD
  5
76
102
{ACAD_REACTORS
330
14
102
}
330
14
100
AcDbXrecord
280
     1
  1
UNFRZ
  1
*
  1
*
  1
*
 70
    12
  1
*
  1
*
  0
XRECORD
  5
78
102
{ACAD_REACTORS
330
14
102
}
330
14
100
AcDbXrecord
280
     1
  1
VA
  1
VA*
  1
*
  1
*
 70
     0
  1
*
  1
*
  0
XRECORD
  5
79
102
{ACAD_REACTORS
330
14
102
}
330
14
100
AcDbXrecord
280
     1
  1
Ventilaci\U+00F3n
  1
*
  1
*
  1
*
 70
     0
  1
*
  1
*
  0
XRECORD
  5
7A
102
{ACAD_REACTORS
330
14
102
}
330
14
100
AcDbXrecord
280
     1
  1
VYHODNI
  1
*-V
  1
*
  1
*
 70
     0
  1
*
  1
*
  0
XRECORD
  5
77
102
{ACAD_REACTORS
330
14
102
}
330
14
100
AcDbXrecord
280
     1
  1
v\U+0161echny nepou\U+017E\U+00EDvan\U+00E9
  1
*
  1
*
  1
*
 70
     0
  1
*
  1
*
  0
XRECORD
  5
7B
102
{ACAD_REACTORS
330
14
102
}
330
14
100
AcDbXrecord
280
     1
  1
Yo
  1
Muros
  1
*
  1
*
 70
     0
  1
*
  1
*
  0
XRECORD
  5
7C
102
{ACAD_REACTORS
330
14
102
}
330
14
100
AcDbXrecord
280
     1
  1
ZAPADNI
  1
*-Z
  1
*
  1
*
 70
     0
  1
*
  1
*
  0
XRECORD
  5
7D
102
{ACAD_REACTORS
330
14
102
}
330
14
100
AcDbXrecord
280
     1
  1
사용
  1
*
  1
*
  1
*
 70
   256
  1
*
  1
*
  0
XRECORD
  5
7E
102
{ACAD_REACTORS
330
14
102
}
330
14
100
AcDbXrecord
280
     1
  1
신규
  1
신규
  1
*
  1
*
 70
     0
  1
*
  1
*
  0
XRECORD
  5
7F
102
{ACAD_REACTORS
330
14
102
}
330
14
100
AcDbXrecord
280
     1
  1
실박스
  1
BLO,SYM,SYM1,SYM2
  1
*
  1
*
 70
     0
  1
*
  1
*
  0
XRECORD
  5
80
102
{ACAD_REACTORS
330
14
102
}
330
14
100
AcDbXrecord
280
     1
  1
우리토목
  1
w-*
  1
*
  1
*
 70
     0
  1
*
  1
*
  0
XRECORD
  5
81
102
{ACAD_REACTORS
330
14
102
}
330
14
100
AcDbXrecord
280
     1
  1
주차
  1
car*
  1
*
  1
*
 70
     0
  1
*
  1
*
  0
XRECORD
  5
82
102
{ACAD_REACTORS
330
14
102
}
330
14
100
AcDbXrecord
280
     1
  1
지상정밀
  1
*
  1
*
  1
*
 70
     0
  1
*
  1
*
  0
XRECORD
  5
83
102
{ACAD_REACTORS
330
14
102
}
330
14
100
AcDbXrecord
280
     1
  1
쩜선
  1
*
  1
*
  1
*
 70
     0
  1
*
  1
*
  0
XRECORD
  5
84
102
{ACAD_REACTORS
330
14
102
}
330
14
100
AcDbXrecord
280
     1
  1
플로터 작업층
  1
*
  1
*
  1
*
 70
  1025
  1
*
  1
*
  0
XRECORD
  5
85
102
{ACAD_REACTORS
330
14
102
}
330
14
100
AcDbXrecord
280
     1
  1
현재 작업층
  1
*
  1
*
  1
*
 70
     1
  1
*
  1
*
  0
XRECORD
  5
86
102
{ACAD_REACTORS
330
14
102
}
330
14
100
AcDbXrecord
280
     1
  1
현재 잠금
  1
*
  1
*
  1
*
 70
   257
  1
*
  1
*
  0
DICTIONARY
  5
814
330
7AA
100
AcDbDictionary
280
     1
281
     1
  3
ACAD_XREC_ROUNDTRIP
360
815
  0
DICTIONARY
  5
816
330
7AB
100
AcDbDictionary
280
     1
281
     1
  3
ACAD_XREC_ROUNDTRIP
360
817
  0
DICTIONARY
  5
76B
330
76A
100
AcDbDictionary
280
     1
281
     1
  3
ACAD_XREC_ROUNDTRIP
360
7E0
  3
BUMPTILE
360
76D
  3
DIFFUSETILE
360
76C
  3
OPACITYTILE
360
770
  3
REFLECTIONTILE
360
76F
  3
REFRACTIONTILE
360
771
  3
SPECULARTILE
360
76E
  0
DICTIONARY
  5
763
330
762
100
AcDbDictionary
280
     1
281
     1
  3
ACAD_XREC_ROUNDTRIP
360
7DF
  3
BUMPTILE
360
765
  3
DIFFUSETILE
360
764
  3
OPACITYTILE
360
768
  3
REFLECTIONTILE
360
767
  3
REFRACTIONTILE
360
769
  3
SPECULARTILE
360
766
  0
DICTIONARY
  5
773
330
772
100
AcDbDictionary
280
     1
281
     1
  3
ACAD_XREC_ROUNDTRIP
360
7E1
  3
BUMPTILE
360
775
  3
DIFFUSETILE
360
774
  3
OPACITYTILE
360
778
  3
REFLECTIONTILE
360
777
  3
REFRACTIONTILE
360
779
  3
SPECULARTILE
360
776
  0
DICTIONARY
  5
7D7
330
795
100
AcDbDictionary
280
     1
281
     1
  3
ACAD_ROUNDTRIP_2008_TABLESTYLE_CELLSTYLEMAP
360
7D8
  3
ACAD_XREC_ROUNDTRIP
360
812
  0
DICTIONARY
  5
7EC
330
780
100
AcDbDictionary
280
     1
281
     1
  3
ACAD_XREC_ROUNDTRIP
360
7ED
  0
DICTIONARY
  5
7EA
330
77F
100
AcDbDictionary
280
     1
281
     1
  3
ACAD_XREC_ROUNDTRIP
360
7EB
  0
DICTIONARY
  5
7F8
330
786
100
AcDbDictionary
280
     1
281
     1
  3
ACAD_XREC_ROUNDTRIP
360
7F9
  0
DICTIONARY
  5
800
330
78A
100
AcDbDictionary
280
     1
281
     1
  3
ACAD_XREC_ROUNDTRIP
360
801
  0
DICTIONARY
  5
7F2
330
783
100
AcDbDictionary
280
     1
281
     1
  3
ACAD_XREC_ROUNDTRIP
360
7F3
  0
DICTIONARY
  5
7F6
330
785
100
AcDbDictionary
280
     1
281
     1
  3
ACAD_XREC_ROUNDTRIP
360
7F7
  0
DICTIONARY
  5
810
330
792
100
AcDbDictionary
280
     1
281
     1
  3
ACAD_XREC_ROUNDTRIP
360
811
  0
DICTIONARY
  5
7FE
330
789
100
AcDbDictionary
280
     1
281
     1
  3
ACAD_XREC_ROUNDTRIP
360
7FF
  0
DICTIONARY
  5
7E2
330
77B
100
AcDbDictionary
280
     1
281
     1
  3
ACAD_XREC_ROUNDTRIP
360
7E3
  0
DICTIONARY
  5
7E4
330
77C
100
AcDbDictionary
280
     1
281
     1
  3
ACAD_XREC_ROUNDTRIP
360
7E5
  0
DICTIONARY
  5
7E6
330
77D
100
AcDbDictionary
280
     1
281
     1
  3
ACAD_XREC_ROUNDTRIP
360
7E7
  0
DICTIONARY
  5
7E8
330
77E
100
AcDbDictionary
280
     1
281
     1
  3
ACAD_XREC_ROUNDTRIP
360
7E9
  0
DICTIONARY
  5
7F0
330
782
100
AcDbDictionary
280
     1
281
     1
  3
ACAD_XREC_ROUNDTRIP
360
7F1
  0
DICTIONARY
  5
80C
330
790
100
AcDbDictionary
280
     1
281
     1
  3
ACAD_XREC_ROUNDTRIP
360
80D
  0
DICTIONARY
  5
7FC
330
788
100
AcDbDictionary
280
     1
281
     1
  3
ACAD_XREC_ROUNDTRIP
360
7FD
  0
DICTIONARY
  5
80E
330
791
100
AcDbDictionary
280
     1
281
     1
  3
ACAD_XREC_ROUNDTRIP
360
80F
  0
DICTIONARY
  5
7F4
330
784
100
AcDbDictionary
280
     1
281
     1
  3
ACAD_XREC_ROUNDTRIP
360
7F5
  0
DICTIONARY
  5
80A
330
78F
100
AcDbDictionary
280
     1
281
     1
  3
ACAD_XREC_ROUNDTRIP
360
80B
  0
DICTIONARY
  5
808
330
78E
100
AcDbDictionary
280
     1
281
     1
  3
ACAD_XREC_ROUNDTRIP
360
809
  0
DICTIONARY
  5
802
330
78B
100
AcDbDictionary
280
     1
281
     1
  3
ACAD_XREC_ROUNDTRIP
360
803
  0
DICTIONARY
  5
804
330
78C
100
AcDbDictionary
280
     1
281
     1
  3
ACAD_XREC_ROUNDTRIP
360
805
  0
DICTIONARY
  5
7FA
330
787
100
AcDbDictionary
280
     1
281
     1
  3
ACAD_XREC_ROUNDTRIP
360
7FB
  0
DICTIONARY
  5
7EE
330
781
100
AcDbDictionary
280
     1
281
     1
  3
ACAD_XREC_ROUNDTRIP
360
7EF
  0
DICTIONARY
  5
806
330
78D
100
AcDbDictionary
280
     1
281
     1
  3
ACAD_XREC_ROUNDTRIP
360
807
  0
XRECORD
  5
815
102
{ACAD_REACTORS
330
814
102
}
330
814
100
AcDbXrecord
280
     1
102
SHADEPLOT
 70
     0
102
SHADEPLOTRESLEVEL
 70
     2
102
SHADEPLOTCUSTOMDPI
 70
   300
  0
XRECORD
  5
817
102
{ACAD_REACTORS
330
816
102
}
330
816
100
AcDbXrecord
280
     1
102
SHADEPLOT
 70
     0
102
SHADEPLOTRESLEVEL
 70
     2
102
SHADEPLOTCUSTOMDPI
 70
   300
  0
XRECORD
  5
7E0
102
{ACAD_REACTORS
330
76B
102
}
330
76B
100
AcDbXrecord
280
     1
102
MATERIAL
148
0.0
149
0.0
149
0.0
 93
        0
 94
      127
282
     0
 72
     0
 77
     0
171
     0
175
     0
179
     0
273
     0
  0
XRECORD
  5
76D
102
{ACAD_REACTORS
330
76B
102
}
330
76B
100
AcDbXrecord
280
     1
270
     1
271
     1
  0
XRECORD
  5
76C
102
{ACAD_REACTORS
330
76B
102
}
330
76B
100
AcDbXrecord
280
     1
270
     1
271
     1
  0
XRECORD
  5
770
102
{ACAD_REACTORS
330
76B
102
}
330
76B
100
AcDbXrecord
280
     1
270
     1
271
     1
  0
XRECORD
  5
76F
102
{ACAD_REACTORS
330
76B
102
}
330
76B
100
AcDbXrecord
280
     1
270
     1
271
     1
  0
XRECORD
  5
771
102
{ACAD_REACTORS
330
76B
102
}
330
76B
100
AcDbXrecord
280
     1
270
     1
271
     1
  0
XRECORD
  5
76E
102
{ACAD_REACTORS
330
76B
102
}
330
76B
100
AcDbXrecord
280
     1
270
     1
271
     1
  0
XRECORD
  5
7DF
102
{ACAD_REACTORS
330
763
102
}
330
763
100
AcDbXrecord
280
     1
102
MATERIAL
148
0.0
149
0.0
149
0.0
 93
        0
 94
      127
282
     0
 72
     0
 77
     0
171
     0
175
     0
179
     0
273
     0
  0
XRECORD
  5
765
102
{ACAD_REACTORS
330
763
102
}
330
763
100
AcDbXrecord
280
     1
270
     1
271
     1
  0
XRECORD
  5
764
102
{ACAD_REACTORS
330
763
102
}
330
763
100
AcDbXrecord
280
     1
270
     1
271
     1
  0
XRECORD
  5
768
102
{ACAD_REACTORS
330
763
102
}
330
763
100
AcDbXrecord
280
     1
270
     1
271
     1
  0
XRECORD
  5
767
102
{ACAD_REACTORS
330
763
102
}
330
763
100
AcDbXrecord
280
     1
270
     1
271
     1
  0
XRECORD
  5
769
102
{ACAD_REACTORS
330
763
102
}
330
763
100
AcDbXrecord
280
     1
270
     1
271
     1
  0
XRECORD
  5
766
102
{ACAD_REACTORS
330
763
102
}
330
763
100
AcDbXrecord
280
     1
270
     1
271
     1
  0
XRECORD
  5
7E1
102
{ACAD_REACTORS
330
773
102
}
330
773
100
AcDbXrecord
280
     1
102
MATERIAL
148
0.0
149
0.0
149
0.0
 93
        0
 94
      127
282
     0
 72
     0
 77
     0
171
     0
175
     0
179
     0
273
     0
  0
XRECORD
  5
775
102
{ACAD_REACTORS
330
773
102
}
330
773
100
AcDbXrecord
280
     1
270
     1
271
     1
  0
XRECORD
  5
774
102
{ACAD_REACTORS
330
773
102
}
330
773
100
AcDbXrecord
280
     1
270
     1
271
     1
  0
XRECORD
  5
778
102
{ACAD_REACTORS
330
773
102
}
330
773
100
AcDbXrecord
280
     1
270
     1
271
     1
  0
XRECORD
  5
777
102
{ACAD_REACTORS
330
773
102
}
330
773
100
AcDbXrecord
280
     1
270
     1
271
     1
  0
XRECORD
  5
779
102
{ACAD_REACTORS
330
773
102
}
330
773
100
AcDbXrecord
280
     1
270
     1
271
     1
  0
XRECORD
  5
776
102
{ACAD_REACTORS
330
773
102
}
330
773
100
AcDbXrecord
280
     1
270
     1
271
     1
  0
CELLSTYLEMAP
  5
7D8
102
{ACAD_REACTORS
330
7D7
102
}
330
7D7
100
AcDbCellStyleMap
 90
        3
300
CELLSTYLE
  1
TABLEFORMAT_BEGIN
 90
        5
170
     1
 91
        0
 92
    32768
 62
   257
 93
        1
300
CONTENTFORMAT
  1
CONTENTFORMAT_BEGIN
 90
        0
 91
        0
 92
      512
 93
        0
300

 40
0.0
140
1.0
 94
        5
 62
     0
340
89
144
6.0
309
CONTENTFORMAT_END
171
     1
301
MARGIN
  1
CELLMARGIN_BEGIN
 40
1.5
 40
1.5
 40
1.5
 40
1.5
 40
4.5
 40
4.5
309
CELLMARGIN_END
 94
        6
 95
        1
302
GRIDFORMAT
  1
GRIDFORMAT_BEGIN
 90
        0
 91
        1
 62
     0
 92
       -2
340
0
 93
        0
 40
1.125
309
GRIDFORMAT_END
 95
        2
302
GRIDFORMAT
  1
GRIDFORMAT_BEGIN
 90
        0
 91
        1
 62
     0
 92
       -2
340
0
 93
        0
 40
1.125
309
GRIDFORMAT_END
 95
        4
302
GRIDFORMAT
  1
GRIDFORMAT_BEGIN
 90
        0
 91
        1
 62
     0
 92
       -2
340
0
 93
        0
 40
1.125
309
GRIDFORMAT_END
 95
        8
302
GRIDFORMAT
  1
GRIDFORMAT_BEGIN
 90
        0
 91
        1
 62
     0
 92
       -2
340
0
 93
        0
 40
1.125
309
GRIDFORMAT_END
 95
       16
302
GRIDFORMAT
  1
GRIDFORMAT_BEGIN
 90
        0
 91
        1
 62
     0
 92
       -2
340
0
 93
        0
 40
1.125
309
GRIDFORMAT_END
 95
       32
302
GRIDFORMAT
  1
GRIDFORMAT_BEGIN
 90
        0
 91
        1
 62
     0
 92
       -2
340
0
 93
        0
 40
1.125
309
GRIDFORMAT_END
309
TABLEFORMAT_END
  1
CELLSTYLE_BEGIN
 90
        1
 91
        1
300
_TITLE
309
CELLSTYLE_END
300
CELLSTYLE
  1
TABLEFORMAT_BEGIN
 90
        5
170
     1
 91
        0
 92
        0
 62
   257
 93
        1
300
CONTENTFORMAT
  1
CONTENTFORMAT_BEGIN
 90
        0
 91
        0
 92
      512
 93
        0
300

 40
0.0
140
1.0
 94
        5
 62
     0
340
89
144
4.5
309
CONTENTFORMAT_END
171
     1
301
MARGIN
  1
CELLMARGIN_BEGIN
 40
1.5
 40
1.5
 40
1.5
 40
1.5
 40
4.5
 40
4.5
309
CELLMARGIN_END
 94
        6
 95
        1
302
GRIDFORMAT
  1
GRIDFORMAT_BEGIN
 90
        0
 91
        1
 62
     0
 92
       -2
340
0
 93
        0
 40
1.125
309
GRIDFORMAT_END
 95
        2
302
GRIDFORMAT
  1
GRIDFORMAT_BEGIN
 90
        0
 91
        1
 62
     0
 92
       -2
340
0
 93
        0
 40
1.125
309
GRIDFORMAT_END
 95
        4
302
GRIDFORMAT
  1
GRIDFORMAT_BEGIN
 90
        0
 91
        1
 62
     0
 92
       -2
340
0
 93
        0
 40
1.125
309
GRIDFORMAT_END
 95
        8
302
GRIDFORMAT
  1
GRIDFORMAT_BEGIN
 90
        0
 91
        1
 62
     0
 92
       -2
340
0
 93
        0
 40
1.125
309
GRIDFORMAT_END
 95
       16
302
GRIDFORMAT
  1
GRIDFORMAT_BEGIN
 90
        0
 91
        1
 62
     0
 92
       -2
340
0
 93
        0
 40
1.125
309
GRIDFORMAT_END
 95
       32
302
GRIDFORMAT
  1
GRIDFORMAT_BEGIN
 90
        0
 91
        1
 62
     0
 92
       -2
340
0
 93
        0
 40
1.125
309
GRIDFORMAT_END
309
TABLEFORMAT_END
  1
CELLSTYLE_BEGIN
 90
        2
 91
        1
300
_HEADER
309
CELLSTYLE_END
300
CELLSTYLE
  1
TABLEFORMAT_BEGIN
 90
        5
170
     1
 91
        0
 92
        0
 62
   257
 93
        1
300
CONTENTFORMAT
  1
CONTENTFORMAT_BEGIN
 90
        0
 91
        0
 92
      512
 93
        0
300

 40
0.0
140
1.0
 94
        2
 62
     0
340
89
144
4.5
309
CONTENTFORMAT_END
171
     1
301
MARGIN
  1
CELLMARGIN_BEGIN
 40
1.5
 40
1.5
 40
1.5
 40
1.5
 40
4.5
 40
4.5
309
CELLMARGIN_END
 94
        6
 95
        1
302
GRIDFORMAT
  1
GRIDFORMAT_BEGIN
 90
        0
 91
        1
 62
     0
 92
       -2
340
0
 93
        0
 40
1.125
309
GRIDFORMAT_END
 95
        2
302
GRIDFORMAT
  1
GRIDFORMAT_BEGIN
 90
        0
 91
        1
 62
     0
 92
       -2
340
0
 93
        0
 40
1.125
309
GRIDFORMAT_END
 95
        4
302
GRIDFORMAT
  1
GRIDFORMAT_BEGIN
 90
        0
 91
        1
 62
     0
 92
       -2
340
0
 93
        0
 40
1.125
309
GRIDFORMAT_END
 95
        8
302
GRIDFORMAT
  1
GRIDFORMAT_BEGIN
 90
        0
 91
        1
 62
     0
 92
       -2
340
0
 93
        0
 40
1.125
309
GRIDFORMAT_END
 95
       16
302
GRIDFORMAT
  1
GRIDFORMAT_BEGIN
 90
        0
 91
        1
 62
     0
 92
       -2
340
0
 93
        0
 40
1.125
309
GRIDFORMAT_END
 95
       32
302
GRIDFORMAT
  1
GRIDFORMAT_BEGIN
 90
        0
 91
        1
 62
     0
 92
       -2
340
0
 93
        0
 40
1.125
309
GRIDFORMAT_END
309
TABLEFORMAT_END
  1
CELLSTYLE_BEGIN
 90
        3
 91
        2
300
_DATA
309
CELLSTYLE_END
  0
XRECORD
  5
812
102
{ACAD_REACTORS
330
7D7
102
}
330
7D7
100
AcDbXrecord
280
     1
102
ACAD_ROUNDTRIP_PRE2007_TABLESTYLE
 90
      512
 91
        0
  1

 92
      512
 93
        0
  2

 94
      512
 95
        0
  3

  0
XRECORD
  5
7ED
102
{ACAD_REACTORS
330
7EC
102
}
330
7EC
100
AcDbXrecord
280
     1
102
RTVSPropertyOp0
 70
     1
102
RTVSPropertyOp1
 70
     1
102
RTVSPropertyOp2
 70
     1
102
RTVSPropertyOp3
 70
     1
102
RTVSPropertyOp4
 70
     1
102
RTVSPropertyOp5
 70
     1
102
RTVSPropertyOp6
 70
     1
102
RTVSPropertyOp7
 70
     1
102
RTVSPropertyOp8
 70
     1
102
RTVSPropertyOp9
 70
     1
102
RTVSPropertyOp10
 70
     1
102
RTVSPropertyOp11
 70
     1
102
RTVSPropertyOp12
 70
     1
102
RTVSPropertyOp13
 70
     1
102
RTVSPropertyOp14
 70
     1
102
RTVSPropertyOp15
 70
     1
102
RTVSPropertyOp16
 70
     1
102
RTVSPropertyOp17
 70
     1
102
RTVSPropertyOp18
 70
     1
102
RTVSPropertyOp19
 70
     1
102
RTVSPropertyOp20
 70
     1
102
RTVSPropertyOp21
 70
     1
102
RTVSPropertyOp22
 70
     1
102
RTVSPropertyOp23
 70
     1
102
RTVSPropertyOp24
 70
     1
102
RTVSPropertyOp25
 70
     1
102
RTVSPropertyOp26
 70
     1
102
RTVSPropertyOp27
 70
     1
102
RTVSPropertyOp28
 70
     1
102
RTVSPropertyOp29
 70
     1
102
RTVSPropertyOp30
 70
     1
102
RTVSPropertyOp31
 70
     1
102
RTVSPropertyOp32
 70
     1
  0
XRECORD
  5
7EB
102
{ACAD_REACTORS
330
7EA
102
}
330
7EA
100
AcDbXrecord
280
     1
102
RTVSPropertyOp0
 70
     1
102
RTVSPropertyOp1
 70
     1
102
RTVSPropertyOp2
 70
     1
102
RTVSPropertyOp3
 70
     1
102
RTVSPropertyOp4
 70
     1
102
RTVSPropertyOp5
 70
     1
102
RTVSPropertyOp6
 70
     1
102
RTVSPropertyOp7
 70
     1
102
RTVSPropertyOp8
 70
     1
102
RTVSPropertyOp9
 70
     1
102
RTVSPropertyOp10
 70
     1
102
RTVSPropertyOp11
 70
     1
102
RTVSPropertyOp12
 70
     1
102
RTVSPropertyOp13
 70
     1
102
RTVSPropertyOp14
 70
     1
102
RTVSPropertyOp15
 70
     1
102
RTVSPropertyOp16
 70
     1
102
RTVSPropertyOp17
 70
     1
102
RTVSPropertyOp18
 70
     1
102
RTVSPropertyOp19
 70
     1
102
RTVSPropertyOp20
 70
     1
102
RTVSPropertyOp21
 70
     1
102
RTVSPropertyOp22
 70
     1
102
RTVSPropertyOp23
 70
     1
102
RTVSPropertyOp24
 70
     1
102
RTVSPropertyOp25
 70
     1
102
RTVSPropertyOp26
 70
     1
102
RTVSPropertyOp27
 70
     1
102
RTVSPropertyOp28
 70
     1
102
RTVSPropertyOp29
 70
     1
102
RTVSPropertyOp30
 70
     1
102
RTVSPropertyOp31
 70
     1
102
RTVSPropertyOp32
 70
     1
  0
XRECORD
  5
7F9
102
{ACAD_REACTORS
330
7F8
102
}
330
7F8
100
AcDbXrecord
280
     1
102
RTVSPropertyOp0
 70
     1
102
RTVSPropertyOp1
 70
     1
102
RTVSPropertyOp2
 70
     1
102
RTVSPropertyOp3
 70
     1
102
RTVSPropertyOp4
 70
     1
102
RTVSPropertyOp5
 70
     1
102
RTVSPropertyOp6
 70
     1
102
RTVSPropertyOp7
 70
     1
102
RTVSPropertyOp8
 70
     1
102
RTVSPropertyOp9
 70
     1
102
RTVSPropertyOp10
 70
     1
102
RTVSPropertyOp11
 70
     1
102
RTVSPropertyOp12
 70
     1
102
RTVSPropertyOp13
 70
     1
102
RTVSPropertyOp14
 70
     1
102
RTVSPropertyOp15
 70
     1
102
RTVSPropertyOp16
 70
     1
102
RTVSPropertyOp17
 70
     1
102
RTVSPropertyOp18
 70
     1
102
RTVSPropertyOp19
 70
     1
102
RTVSPropertyOp20
 70
     1
102
RTVSPropertyOp21
 70
     1
102
RTVSPropertyOp22
 70
     1
102
RTVSPropertyOp23
 70
     1
102
RTVSPropertyOp24
 70
     1
102
RTVSPropertyOp25
 70
     1
102
RTVSPropertyOp26
 70
     1
102
RTVSPropertyOp27
 70
     1
102
RTVSPropertyOp28
 70
     1
102
RTVSPropertyOp29
 70
     1
102
RTVSPropertyOp30
 70
     1
102
RTVSPropertyOp31
 70
     1
102
RTVSPropertyOp32
 70
     1
  0
XRECORD
  5
801
102
{ACAD_REACTORS
330
800
102
}
330
800
100
AcDbXrecord
280
     1
102
RTVSPropertyOp0
 70
     1
102
RTVSPropertyOp1
 70
     1
102
RTVSPropertyOp2
 70
     1
102
RTVSPropertyOp3
 70
     1
102
RTVSPropertyOp4
 70
     1
102
RTVSPropertyOp5
 70
     1
102
RTVSPropertyOp6
 70
     1
102
RTVSPropertyOp7
 70
     1
102
RTVSPropertyOp8
 70
     1
102
RTVSPropertyOp9
 70
     1
102
RTVSPropertyOp10
 70
     1
102
RTVSPropertyOp11
 70
     1
102
RTVSPropertyOp12
 70
     1
102
RTVSPropertyOp13
 70
     1
102
RTVSPropertyOp14
 70
     1
102
RTVSPropertyOp15
 70
     1
102
RTVSPropertyOp16
 70
     1
102
RTVSPropertyOp17
 70
     1
102
RTVSPropertyOp18
 70
     1
102
RTVSPropertyOp19
 70
     1
102
RTVSPropertyOp20
 70
     1
102
RTVSPropertyOp21
 70
     1
102
RTVSPropertyOp22
 70
     1
102
RTVSPropertyOp23
 70
     1
102
RTVSPropertyOp24
 70
     1
102
RTVSPropertyOp25
 70
     1
102
RTVSPropertyOp26
 70
     1
102
RTVSPropertyOp27
 70
     1
102
RTVSPropertyOp28
 70
     1
102
RTVSPropertyOp29
 70
     1
102
RTVSPropertyOp30
 70
     1
102
RTVSPropertyOp31
 70
     1
102
RTVSPropertyOp32
 70
     1
  0
XRECORD
  5
7F3
102
{ACAD_REACTORS
330
7F2
102
}
330
7F2
100
AcDbXrecord
280
     1
102
RTVSPropertyOp0
 70
     1
102
RTVSPropertyOp1
 70
     1
102
RTVSPropertyOp2
 70
     1
102
RTVSPropertyOp3
 70
     1
102
RTVSPropertyOp4
 70
     1
102
RTVSPropertyOp5
 70
     1
102
RTVSPropertyOp6
 70
     1
102
RTVSPropertyOp7
 70
     1
102
RTVSPropertyOp8
 70
     1
102
RTVSPropertyOp9
 70
     1
102
RTVSPropertyOp10
 70
     1
102
RTVSPropertyOp11
 70
     1
102
RTVSPropertyOp12
 70
     1
102
RTVSPropertyOp13
 70
     1
102
RTVSPropertyOp14
 70
     1
102
RTVSPropertyOp15
 70
     1
102
RTVSPropertyOp16
 70
     1
102
RTVSPropertyOp17
 70
     1
102
RTVSPropertyOp18
 70
     1
102
RTVSPropertyOp19
 70
     1
102
RTVSPropertyOp20
 70
     1
102
RTVSPropertyOp21
 70
     1
102
RTVSPropertyOp22
 70
     1
102
RTVSPropertyOp23
 70
     1
102
RTVSPropertyOp24
 70
     1
102
RTVSPropertyOp25
 70
     1
102
RTVSPropertyOp26
 70
     1
102
RTVSPropertyOp27
 70
     1
102
RTVSPropertyOp28
 70
     1
102
RTVSPropertyOp29
 70
     1
102
RTVSPropertyOp30
 70
     1
102
RTVSPropertyOp31
 70
     1
102
RTVSPropertyOp32
 70
     1
  0
XRECORD
  5
7F7
102
{ACAD_REACTORS
330
7F6
102
}
330
7F6
100
AcDbXrecord
280
     1
102
RTVSPropertyOp0
 70
     1
102
RTVSPropertyOp1
 70
     1
102
RTVSPropertyOp2
 70
     1
102
RTVSPropertyOp3
 70
     1
102
RTVSPropertyOp4
 70
     1
102
RTVSPropertyOp5
 70
     1
102
RTVSPropertyOp6
 70
     1
102
RTVSPropertyOp7
 70
     1
102
RTVSPropertyOp8
 70
     1
102
RTVSPropertyOp9
 70
     1
102
RTVSPropertyOp10
 70
     1
102
RTVSPropertyOp11
 70
     1
102
RTVSPropertyOp12
 70
     1
102
RTVSPropertyOp13
 70
     1
102
RTVSPropertyOp14
 70
     1
102
RTVSPropertyOp15
 70
     1
102
RTVSPropertyOp16
 70
     1
102
RTVSPropertyOp17
 70
     1
102
RTVSPropertyOp18
 70
     1
102
RTVSPropertyOp19
 70
     1
102
RTVSPropertyOp20
 70
     1
102
RTVSPropertyOp21
 70
     1
102
RTVSPropertyOp22
 70
     1
102
RTVSPropertyOp23
 70
     1
102
RTVSPropertyOp24
 70
     1
102
RTVSPropertyOp25
 70
     1
102
RTVSPropertyOp26
 70
     1
102
RTVSPropertyOp27
 70
     1
102
RTVSPropertyOp28
 70
     1
102
RTVSPropertyOp29
 70
     1
102
RTVSPropertyOp30
 70
     1
102
RTVSPropertyOp31
 70
     1
102
RTVSPropertyOp32
 70
     1
  0
XRECORD
  5
811
102
{ACAD_REACTORS
330
810
102
}
330
810
100
AcDbXrecord
280
     1
102
RTVSPropertyOp0
 70
     0
102
RTVSPropertyOp1
 70
     0
102
RTVSPropertyOp2
 70
     0
102
RTVSPropertyOp3
 70
     0
102
RTVSPropertyOp4
 70
     0
102
RTVSPropertyOp5
 70
     0
102
RTVSPropertyOp6
 70
     0
102
RTVSPropertyOp7
 70
     0
102
RTVSPropertyOp8
 70
     0
102
RTVSPropertyOp9
 70
     0
102
RTVSPropertyOp10
 70
     0
102
RTVSPropertyOp11
 70
     0
102
RTVSPropertyOp12
 70
     0
102
RTVSPropertyOp13
 70
     0
102
RTVSPropertyOp14
 70
     2
102
RTVSPropertyOp15
 70
     0
102
RTVSPropertyOp16
 70
     0
102
RTVSPropertyOp17
 70
     0
102
RTVSPropertyOp18
 70
     0
102
RTVSPropertyOp19
 70
     0
102
RTVSPropertyOp20
 70
     0
102
RTVSPropertyOp21
 70
     0
102
RTVSPropertyOp22
 70
     0
102
RTVSPropertyOp23
 70
     0
102
RTVSPropertyOp24
 70
     0
102
RTVSPropertyOp25
 70
     0
102
RTVSPropertyOp26
 70
     0
102
RTVSPropertyOp27
 70
     0
102
RTVSPropertyOp28
 70
     0
102
RTVSPropertyOp29
 70
     0
102
RTVSPropertyOp30
 70
     0
102
RTVSPropertyOp31
 70
     0
102
RTVSPropertyOp32
 70
     0
  0
XRECORD
  5
7FF
102
{ACAD_REACTORS
330
7FE
102
}
330
7FE
100
AcDbXrecord
280
     1
102
RTVSPropertyOp0
 70
     1
102
RTVSPropertyOp1
 70
     1
102
RTVSPropertyOp2
 70
     1
102
RTVSPropertyOp3
 70
     1
102
RTVSPropertyOp4
 70
     1
102
RTVSPropertyOp5
 70
     1
102
RTVSPropertyOp6
 70
     1
102
RTVSPropertyOp7
 70
     1
102
RTVSPropertyOp8
 70
     1
102
RTVSPropertyOp9
 70
     1
102
RTVSPropertyOp10
 70
     1
102
RTVSPropertyOp11
 70
     1
102
RTVSPropertyOp12
 70
     1
102
RTVSPropertyOp13
 70
     1
102
RTVSPropertyOp14
 70
     1
102
RTVSPropertyOp15
 70
     1
102
RTVSPropertyOp16
 70
     1
102
RTVSPropertyOp17
 70
     1
102
RTVSPropertyOp18
 70
     1
102
RTVSPropertyOp19
 70
     1
102
RTVSPropertyOp20
 70
     1
102
RTVSPropertyOp21
 70
     1
102
RTVSPropertyOp22
 70
     1
102
RTVSPropertyOp23
 70
     1
102
RTVSPropertyOp24
 70
     1
102
RTVSPropertyOp25
 70
     1
102
RTVSPropertyOp26
 70
     1
102
RTVSPropertyOp27
 70
     1
102
RTVSPropertyOp28
 70
     1
102
RTVSPropertyOp29
 70
     1
102
RTVSPropertyOp30
 70
     1
102
RTVSPropertyOp31
 70
     1
102
RTVSPropertyOp32
 70
     1
  0
XRECORD
  5
7E3
102
{ACAD_REACTORS
330
7E2
102
}
330
7E2
100
AcDbXrecord
280
     1
102
RTVSPropertyOp0
 70
     1
102
RTVSPropertyOp1
 70
     1
102
RTVSPropertyOp2
 70
     1
102
RTVSPropertyOp3
 70
     1
102
RTVSPropertyOp4
 70
     1
102
RTVSPropertyOp5
 70
     1
102
RTVSPropertyOp6
 70
     1
102
RTVSPropertyOp7
 70
     1
102
RTVSPropertyOp8
 70
     1
102
RTVSPropertyOp9
 70
     1
102
RTVSPropertyOp10
 70
     1
102
RTVSPropertyOp11
 70
     1
102
RTVSPropertyOp12
 70
     1
102
RTVSPropertyOp13
 70
     1
102
RTVSPropertyOp14
 70
     1
102
RTVSPropertyOp15
 70
     1
102
RTVSPropertyOp16
 70
     1
102
RTVSPropertyOp17
 70
     1
102
RTVSPropertyOp18
 70
     1
102
RTVSPropertyOp19
 70
     1
102
RTVSPropertyOp20
 70
     1
102
RTVSPropertyOp21
 70
     1
102
RTVSPropertyOp22
 70
     1
102
RTVSPropertyOp23
 70
     1
102
RTVSPropertyOp24
 70
     1
102
RTVSPropertyOp25
 70
     1
102
RTVSPropertyOp26
 70
     1
102
RTVSPropertyOp27
 70
     1
102
RTVSPropertyOp28
 70
     1
102
RTVSPropertyOp29
 70
     1
102
RTVSPropertyOp30
 70
     1
102
RTVSPropertyOp31
 70
     1
102
RTVSPropertyOp32
 70
     1
  0
XRECORD
  5
7E5
102
{ACAD_REACTORS
330
7E4
102
}
330
7E4
100
AcDbXrecord
280
     1
102
RTVSPropertyOp0
 70
     1
102
RTVSPropertyOp1
 70
     1
102
RTVSPropertyOp2
 70
     1
102
RTVSPropertyOp3
 70
     1
102
RTVSPropertyOp4
 70
     1
102
RTVSPropertyOp5
 70
     1
102
RTVSPropertyOp6
 70
     1
102
RTVSPropertyOp7
 70
     1
102
RTVSPropertyOp8
 70
     1
102
RTVSPropertyOp9
 70
     1
102
RTVSPropertyOp10
 70
     1
102
RTVSPropertyOp11
 70
     1
102
RTVSPropertyOp12
 70
     1
102
RTVSPropertyOp13
 70
     1
102
RTVSPropertyOp14
 70
     1
102
RTVSPropertyOp15
 70
     1
102
RTVSPropertyOp16
 70
     1
102
RTVSPropertyOp17
 70
     1
102
RTVSPropertyOp18
 70
     1
102
RTVSPropertyOp19
 70
     1
102
RTVSPropertyOp20
 70
     1
102
RTVSPropertyOp21
 70
     1
102
RTVSPropertyOp22
 70
     1
102
RTVSPropertyOp23
 70
     1
102
RTVSPropertyOp24
 70
     1
102
RTVSPropertyOp25
 70
     1
102
RTVSPropertyOp26
 70
     1
102
RTVSPropertyOp27
 70
     1
102
RTVSPropertyOp28
 70
     1
102
RTVSPropertyOp29
 70
     1
102
RTVSPropertyOp30
 70
     1
102
RTVSPropertyOp31
 70
     1
102
RTVSPropertyOp32
 70
     1
  0
XRECORD
  5
7E7
102
{ACAD_REACTORS
330
7E6
102
}
330
7E6
100
AcDbXrecord
280
     1
102
RTVSPropertyOp0
 70
     1
102
RTVSPropertyOp1
 70
     1
102
RTVSPropertyOp2
 70
     1
102
RTVSPropertyOp3
 70
     1
102
RTVSPropertyOp4
 70
     1
102
RTVSPropertyOp5
 70
     1
102
RTVSPropertyOp6
 70
     1
102
RTVSPropertyOp7
 70
     1
102
RTVSPropertyOp8
 70
     1
102
RTVSPropertyOp9
 70
     1
102
RTVSPropertyOp10
 70
     1
102
RTVSPropertyOp11
 70
     1
102
RTVSPropertyOp12
 70
     1
102
RTVSPropertyOp13
 70
     1
102
RTVSPropertyOp14
 70
     1
102
RTVSPropertyOp15
 70
     1
102
RTVSPropertyOp16
 70
     1
102
RTVSPropertyOp17
 70
     1
102
RTVSPropertyOp18
 70
     1
102
RTVSPropertyOp19
 70
     1
102
RTVSPropertyOp20
 70
     1
102
RTVSPropertyOp21
 70
     1
102
RTVSPropertyOp22
 70
     1
102
RTVSPropertyOp23
 70
     1
102
RTVSPropertyOp24
 70
     1
102
RTVSPropertyOp25
 70
     1
102
RTVSPropertyOp26
 70
     1
102
RTVSPropertyOp27
 70
     1
102
RTVSPropertyOp28
 70
     1
102
RTVSPropertyOp29
 70
     1
102
RTVSPropertyOp30
 70
     1
102
RTVSPropertyOp31
 70
     1
102
RTVSPropertyOp32
 70
     1
  0
XRECORD
  5
7E9
102
{ACAD_REACTORS
330
7E8
102
}
330
7E8
100
AcDbXrecord
280
     1
102
RTVSPropertyOp0
 70
     1
102
RTVSPropertyOp1
 70
     1
102
RTVSPropertyOp2
 70
     1
102
RTVSPropertyOp3
 70
     1
102
RTVSPropertyOp4
 70
     1
102
RTVSPropertyOp5
 70
     1
102
RTVSPropertyOp6
 70
     1
102
RTVSPropertyOp7
 70
     1
102
RTVSPropertyOp8
 70
     1
102
RTVSPropertyOp9
 70
     1
102
RTVSPropertyOp10
 70
     1
102
RTVSPropertyOp11
 70
     1
102
RTVSPropertyOp12
 70
     1
102
RTVSPropertyOp13
 70
     1
102
RTVSPropertyOp14
 70
     1
102
RTVSPropertyOp15
 70
     1
102
RTVSPropertyOp16
 70
     1
102
RTVSPropertyOp17
 70
     1
102
RTVSPropertyOp18
 70
     1
102
RTVSPropertyOp19
 70
     1
102
RTVSPropertyOp20
 70
     1
102
RTVSPropertyOp21
 70
     1
102
RTVSPropertyOp22
 70
     1
102
RTVSPropertyOp23
 70
     1
102
RTVSPropertyOp24
 70
     1
102
RTVSPropertyOp25
 70
     1
102
RTVSPropertyOp26
 70
     1
102
RTVSPropertyOp27
 70
     1
102
RTVSPropertyOp28
 70
     1
102
RTVSPropertyOp29
 70
     1
102
RTVSPropertyOp30
 70
     1
102
RTVSPropertyOp31
 70
     1
102
RTVSPropertyOp32
 70
     1
  0
XRECORD
  5
7F1
102
{ACAD_REACTORS
330
7F0
102
}
330
7F0
100
AcDbXrecord
280
     1
102
RTVSPropertyOp0
 70
     1
102
RTVSPropertyOp1
 70
     1
102
RTVSPropertyOp2
 70
     1
102
RTVSPropertyOp3
 70
     1
102
RTVSPropertyOp4
 70
     1
102
RTVSPropertyOp5
 70
     1
102
RTVSPropertyOp6
 70
     1
102
RTVSPropertyOp7
 70
     1
102
RTVSPropertyOp8
 70
     1
102
RTVSPropertyOp9
 70
     1
102
RTVSPropertyOp10
 70
     1
102
RTVSPropertyOp11
 70
     1
102
RTVSPropertyOp12
 70
     1
102
RTVSPropertyOp13
 70
     1
102
RTVSPropertyOp14
 70
     1
102
RTVSPropertyOp15
 70
     1
102
RTVSPropertyOp16
 70
     1
102
RTVSPropertyOp17
 70
     1
102
RTVSPropertyOp18
 70
     1
102
RTVSPropertyOp19
 70
     1
102
RTVSPropertyOp20
 70
     1
102
RTVSPropertyOp21
 70
     1
102
RTVSPropertyOp22
 70
     1
102
RTVSPropertyOp23
 70
     1
102
RTVSPropertyOp24
 70
     1
102
RTVSPropertyOp25
 70
     1
102
RTVSPropertyOp26
 70
     1
102
RTVSPropertyOp27
 70
     1
102
RTVSPropertyOp28
 70
     1
102
RTVSPropertyOp29
 70
     1
102
RTVSPropertyOp30
 70
     1
102
RTVSPropertyOp31
 70
     1
102
RTVSPropertyOp32
 70
     1
  0
XRECORD
  5
80D
102
{ACAD_REACTORS
330
80C
102
}
330
80C
100
AcDbXrecord
280
     1
102
RTVSPropertyOp0
 70
     0
102
RTVSPropertyOp1
 70
     0
102
RTVSPropertyOp2
 70
     0
102
RTVSPropertyOp3
 70
     0
102
RTVSPropertyOp4
 70
     0
102
RTVSPropertyOp5
 70
     0
102
RTVSPropertyOp6
 70
     0
102
RTVSPropertyOp7
 70
     0
102
RTVSPropertyOp8
 70
     0
102
RTVSPropertyOp9
 70
     0
102
RTVSPropertyOp10
 70
     0
102
RTVSPropertyOp11
 70
     0
102
RTVSPropertyOp12
 70
     0
102
RTVSPropertyOp13
 70
     0
102
RTVSPropertyOp14
 70
     2
102
RTVSPropertyOp15
 70
     0
102
RTVSPropertyOp16
 70
     0
102
RTVSPropertyOp17
 70
     0
102
RTVSPropertyOp18
 70
     0
102
RTVSPropertyOp19
 70
     0
102
RTVSPropertyOp20
 70
     0
102
RTVSPropertyOp21
 70
     0
102
RTVSPropertyOp22
 70
     0
102
RTVSPropertyOp23
 70
     0
102
RTVSPropertyOp24
 70
     0
102
RTVSPropertyOp25
 70
     0
102
RTVSPropertyOp26
 70
     0
102
RTVSPropertyOp27
 70
     0
102
RTVSPropertyOp28
 70
     0
102
RTVSPropertyOp29
 70
     0
102
RTVSPropertyOp30
 70
     0
102
RTVSPropertyOp31
 70
     0
102
RTVSPropertyOp32
 70
     0
  0
XRECORD
  5
7FD
102
{ACAD_REACTORS
330
7FC
102
}
330
7FC
100
AcDbXrecord
280
     1
102
RTVSPropertyOp0
 70
     1
102
RTVSPropertyOp1
 70
     1
102
RTVSPropertyOp2
 70
     1
102
RTVSPropertyOp3
 70
     1
102
RTVSPropertyOp4
 70
     1
102
RTVSPropertyOp5
 70
     1
102
RTVSPropertyOp6
 70
     1
102
RTVSPropertyOp7
 70
     1
102
RTVSPropertyOp8
 70
     1
102
RTVSPropertyOp9
 70
     1
102
RTVSPropertyOp10
 70
     1
102
RTVSPropertyOp11
 70
     1
102
RTVSPropertyOp12
 70
     1
102
RTVSPropertyOp13
 70
     1
102
RTVSPropertyOp14
 70
     1
102
RTVSPropertyOp15
 70
     1
102
RTVSPropertyOp16
 70
     1
102
RTVSPropertyOp17
 70
     1
102
RTVSPropertyOp18
 70
     1
102
RTVSPropertyOp19
 70
     1
102
RTVSPropertyOp20
 70
     1
102
RTVSPropertyOp21
 70
     1
102
RTVSPropertyOp22
 70
     1
102
RTVSPropertyOp23
 70
     1
102
RTVSPropertyOp24
 70
     1
102
RTVSPropertyOp25
 70
     1
102
RTVSPropertyOp26
 70
     1
102
RTVSPropertyOp27
 70
     1
102
RTVSPropertyOp28
 70
     1
102
RTVSPropertyOp29
 70
     1
102
RTVSPropertyOp30
 70
     1
102
RTVSPropertyOp31
 70
     1
102
RTVSPropertyOp32
 70
     1
  0
XRECORD
  5
80F
102
{ACAD_REACTORS
330
80E
102
}
330
80E
100
AcDbXrecord
280
     1
102
RTVSPropertyOp0
 70
     0
102
RTVSPropertyOp1
 70
     0
102
RTVSPropertyOp2
 70
     0
102
RTVSPropertyOp3
 70
     0
102
RTVSPropertyOp4
 70
     0
102
RTVSPropertyOp5
 70
     0
102
RTVSPropertyOp6
 70
     0
102
RTVSPropertyOp7
 70
     0
102
RTVSPropertyOp8
 70
     0
102
RTVSPropertyOp9
 70
     0
102
RTVSPropertyOp10
 70
     0
102
RTVSPropertyOp11
 70
     0
102
RTVSPropertyOp12
 70
     0
102
RTVSPropertyOp13
 70
     0
102
RTVSPropertyOp14
 70
     2
102
RTVSPropertyOp15
 70
     0
102
RTVSPropertyOp16
 70
     0
102
RTVSPropertyOp17
 70
     0
102
RTVSPropertyOp18
 70
     0
102
RTVSPropertyOp19
 70
     0
102
RTVSPropertyOp20
 70
     0
102
RTVSPropertyOp21
 70
     0
102
RTVSPropertyOp22
 70
     0
102
RTVSPropertyOp23
 70
     0
102
RTVSPropertyOp24
 70
     0
102
RTVSPropertyOp25
 70
     0
102
RTVSPropertyOp26
 70
     0
102
RTVSPropertyOp27
 70
     0
102
RTVSPropertyOp28
 70
     0
102
RTVSPropertyOp29
 70
     0
102
RTVSPropertyOp30
 70
     0
102
RTVSPropertyOp31
 70
     0
102
RTVSPropertyOp32
 70
     0
  0
XRECORD
  5
7F5
102
{ACAD_REACTORS
330
7F4
102
}
330
7F4
100
AcDbXrecord
280
     1
102
RTVSPropertyOp0
 70
     1
102
RTVSPropertyOp1
 70
     1
102
RTVSPropertyOp2
 70
     1
102
RTVSPropertyOp3
 70
     1
102
RTVSPropertyOp4
 70
     1
102
RTVSPropertyOp5
 70
     1
102
RTVSPropertyOp6
 70
     1
102
RTVSPropertyOp7
 70
     1
102
RTVSPropertyOp8
 70
     1
102
RTVSPropertyOp9
 70
     1
102
RTVSPropertyOp10
 70
     1
102
RTVSPropertyOp11
 70
     1
102
RTVSPropertyOp12
 70
     1
102
RTVSPropertyOp13
 70
     1
102
RTVSPropertyOp14
 70
     1
102
RTVSPropertyOp15
 70
     1
102
RTVSPropertyOp16
 70
     1
102
RTVSPropertyOp17
 70
     1
102
RTVSPropertyOp18
 70
     1
102
RTVSPropertyOp19
 70
     1
102
RTVSPropertyOp20
 70
     1
102
RTVSPropertyOp21
 70
     1
102
RTVSPropertyOp22
 70
     1
102
RTVSPropertyOp23
 70
     1
102
RTVSPropertyOp24
 70
     1
102
RTVSPropertyOp25
 70
     1
102
RTVSPropertyOp26
 70
     1
102
RTVSPropertyOp27
 70
     1
102
RTVSPropertyOp28
 70
     1
102
RTVSPropertyOp29
 70
     1
102
RTVSPropertyOp30
 70
     1
102
RTVSPropertyOp31
 70
     1
102
RTVSPropertyOp32
 70
     1
  0
XRECORD
  5
80B
102
{ACAD_REACTORS
330
80A
102
}
330
80A
100
AcDbXrecord
280
     1
102
RTVSPropertyOp0
 70
     1
102
RTVSPropertyOp1
 70
     1
102
RTVSPropertyOp2
 70
     1
102
RTVSPropertyOp3
 70
     1
102
RTVSPropertyOp4
 70
     1
102
RTVSPropertyOp5
 70
     1
102
RTVSPropertyOp6
 70
     1
102
RTVSPropertyOp7
 70
     1
102
RTVSPropertyOp8
 70
     1
102
RTVSPropertyOp9
 70
     1
102
RTVSPropertyOp10
 70
     1
102
RTVSPropertyOp11
 70
     1
102
RTVSPropertyOp12
 70
     1
102
RTVSPropertyOp13
 70
     1
102
RTVSPropertyOp14
 70
     1
102
RTVSPropertyOp15
 70
     1
102
RTVSPropertyOp16
 70
     1
102
RTVSPropertyOp17
 70
     1
102
RTVSPropertyOp18
 70
     1
102
RTVSPropertyOp19
 70
     1
102
RTVSPropertyOp20
 70
     1
102
RTVSPropertyOp21
 70
     1
102
RTVSPropertyOp22
 70
     1
102
RTVSPropertyOp23
 70
     1
102
RTVSPropertyOp24
 70
     1
102
RTVSPropertyOp25
 70
     1
102
RTVSPropertyOp26
 70
     1
102
RTVSPropertyOp27
 70
     1
102
RTVSPropertyOp28
 70
     1
102
RTVSPropertyOp29
 70
     1
102
RTVSPropertyOp30
 70
     1
102
RTVSPropertyOp31
 70
     1
102
RTVSPropertyOp32
 70
     1
  0
XRECORD
  5
809
102
{ACAD_REACTORS
330
808
102
}
330
808
100
AcDbXrecord
280
     1
102
RTVSPropertyOp0
 70
     1
102
RTVSPropertyOp1
 70
     1
102
RTVSPropertyOp2
 70
     1
102
RTVSPropertyOp3
 70
     1
102
RTVSPropertyOp4
 70
     1
102
RTVSPropertyOp5
 70
     1
102
RTVSPropertyOp6
 70
     1
102
RTVSPropertyOp7
 70
     1
102
RTVSPropertyOp8
 70
     1
102
RTVSPropertyOp9
 70
     1
102
RTVSPropertyOp10
 70
     1
102
RTVSPropertyOp11
 70
     1
102
RTVSPropertyOp12
 70
     1
102
RTVSPropertyOp13
 70
     1
102
RTVSPropertyOp14
 70
     1
102
RTVSPropertyOp15
 70
     1
102
RTVSPropertyOp16
 70
     1
102
RTVSPropertyOp17
 70
     1
102
RTVSPropertyOp18
 70
     1
102
RTVSPropertyOp19
 70
     1
102
RTVSPropertyOp20
 70
     1
102
RTVSPropertyOp21
 70
     1
102
RTVSPropertyOp22
 70
     1
102
RTVSPropertyOp23
 70
     1
102
RTVSPropertyOp24
 70
     1
102
RTVSPropertyOp25
 70
     1
102
RTVSPropertyOp26
 70
     1
102
RTVSPropertyOp27
 70
     1
102
RTVSPropertyOp28
 70
     1
102
RTVSPropertyOp29
 70
     1
102
RTVSPropertyOp30
 70
     1
102
RTVSPropertyOp31
 70
     1
102
RTVSPropertyOp32
 70
     1
  0
XRECORD
  5
803
102
{ACAD_REACTORS
330
802
102
}
330
802
100
AcDbXrecord
280
     1
102
RTVSPropertyOp0
 70
     1
102
RTVSPropertyOp1
 70
     1
102
RTVSPropertyOp2
 70
     1
102
RTVSPropertyOp3
 70
     1
102
RTVSPropertyOp4
 70
     1
102
RTVSPropertyOp5
 70
     1
102
RTVSPropertyOp6
 70
     1
102
RTVSPropertyOp7
 70
     1
102
RTVSPropertyOp8
 70
     1
102
RTVSPropertyOp9
 70
     1
102
RTVSPropertyOp10
 70
     1
102
RTVSPropertyOp11
 70
     1
102
RTVSPropertyOp12
 70
     1
102
RTVSPropertyOp13
 70
     1
102
RTVSPropertyOp14
 70
     1
102
RTVSPropertyOp15
 70
     1
102
RTVSPropertyOp16
 70
     1
102
RTVSPropertyOp17
 70
     1
102
RTVSPropertyOp18
 70
     1
102
RTVSPropertyOp19
 70
     1
102
RTVSPropertyOp20
 70
     1
102
RTVSPropertyOp21
 70
     1
102
RTVSPropertyOp22
 70
     1
102
RTVSPropertyOp23
 70
     1
102
RTVSPropertyOp24
 70
     1
102
RTVSPropertyOp25
 70
     1
102
RTVSPropertyOp26
 70
     1
102
RTVSPropertyOp27
 70
     1
102
RTVSPropertyOp28
 70
     1
102
RTVSPropertyOp29
 70
     1
102
RTVSPropertyOp30
 70
     1
102
RTVSPropertyOp31
 70
     1
102
RTVSPropertyOp32
 70
     1
  0
XRECORD
  5
805
102
{ACAD_REACTORS
330
804
102
}
330
804
100
AcDbXrecord
280
     1
102
RTVSPropertyOp0
 70
     1
102
RTVSPropertyOp1
 70
     1
102
RTVSPropertyOp2
 70
     1
102
RTVSPropertyOp3
 70
     1
102
RTVSPropertyOp4
 70
     1
102
RTVSPropertyOp5
 70
     1
102
RTVSPropertyOp6
 70
     1
102
RTVSPropertyOp7
 70
     1
102
RTVSPropertyOp8
 70
     1
102
RTVSPropertyOp9
 70
     1
102
RTVSPropertyOp10
 70
     1
102
RTVSPropertyOp11
 70
     1
102
RTVSPropertyOp12
 70
     1
102
RTVSPropertyOp13
 70
     1
102
RTVSPropertyOp14
 70
     1
102
RTVSPropertyOp15
 70
     1
102
RTVSPropertyOp16
 70
     1
102
RTVSPropertyOp17
 70
     1
102
RTVSPropertyOp18
 70
     1
102
RTVSPropertyOp19
 70
     1
102
RTVSPropertyOp20
 70
     1
102
RTVSPropertyOp21
 70
     1
102
RTVSPropertyOp22
 70
     1
102
RTVSPropertyOp23
 70
     1
102
RTVSPropertyOp24
 70
     1
102
RTVSPropertyOp25
 70
     1
102
RTVSPropertyOp26
 70
     1
102
RTVSPropertyOp27
 70
     1
102
RTVSPropertyOp28
 70
     1
102
RTVSPropertyOp29
 70
     1
102
RTVSPropertyOp30
 70
     1
102
RTVSPropertyOp31
 70
     1
102
RTVSPropertyOp32
 70
     1
  0
XRECORD
  5
7FB
102
{ACAD_REACTORS
330
7FA
102
}
330
7FA
100
AcDbXrecord
280
     1
102
RTVSPropertyOp0
 70
     1
102
RTVSPropertyOp1
 70
     1
102
RTVSPropertyOp2
 70
     1
102
RTVSPropertyOp3
 70
     1
102
RTVSPropertyOp4
 70
     1
102
RTVSPropertyOp5
 70
     1
102
RTVSPropertyOp6
 70
     1
102
RTVSPropertyOp7
 70
     1
102
RTVSPropertyOp8
 70
     1
102
RTVSPropertyOp9
 70
     1
102
RTVSPropertyOp10
 70
     1
102
RTVSPropertyOp11
 70
     1
102
RTVSPropertyOp12
 70
     1
102
RTVSPropertyOp13
 70
     1
102
RTVSPropertyOp14
 70
     1
102
RTVSPropertyOp15
 70
     1
102
RTVSPropertyOp16
 70
     1
102
RTVSPropertyOp17
 70
     1
102
RTVSPropertyOp18
 70
     1
102
RTVSPropertyOp19
 70
     1
102
RTVSPropertyOp20
 70
     1
102
RTVSPropertyOp21
 70
     1
102
RTVSPropertyOp22
 70
     1
102
RTVSPropertyOp23
 70
     1
102
RTVSPropertyOp24
 70
     1
102
RTVSPropertyOp25
 70
     1
102
RTVSPropertyOp26
 70
     1
102
RTVSPropertyOp27
 70
     1
102
RTVSPropertyOp28
 70
     1
102
RTVSPropertyOp29
 70
     1
102
RTVSPropertyOp30
 70
     1
102
RTVSPropertyOp31
 70
     1
102
RTVSPropertyOp32
 70
     1
  0
XRECORD
  5
7EF
102
{ACAD_REACTORS
330
7EE
102
}
330
7EE
100
AcDbXrecord
280
     1
102
RTVSPropertyOp0
 70
     1
102
RTVSPropertyOp1
 70
     1
102
RTVSPropertyOp2
 70
     1
102
RTVSPropertyOp3
 70
     1
102
RTVSPropertyOp4
 70
     1
102
RTVSPropertyOp5
 70
     1
102
RTVSPropertyOp6
 70
     1
102
RTVSPropertyOp7
 70
     1
102
RTVSPropertyOp8
 70
     1
102
RTVSPropertyOp9
 70
     1
102
RTVSPropertyOp10
 70
     1
102
RTVSPropertyOp11
 70
     1
102
RTVSPropertyOp12
 70
     1
102
RTVSPropertyOp13
 70
     1
102
RTVSPropertyOp14
 70
     1
102
RTVSPropertyOp15
 70
     1
102
RTVSPropertyOp16
 70
     1
102
RTVSPropertyOp17
 70
     1
102
RTVSPropertyOp18
 70
     1
102
RTVSPropertyOp19
 70
     1
102
RTVSPropertyOp20
 70
     1
102
RTVSPropertyOp21
 70
     1
102
RTVSPropertyOp22
 70
     1
102
RTVSPropertyOp23
 70
     1
102
RTVSPropertyOp24
 70
     1
102
RTVSPropertyOp25
 70
     1
102
RTVSPropertyOp26
 70
     1
102
RTVSPropertyOp27
 70
     1
102
RTVSPropertyOp28
 70
     1
102
RTVSPropertyOp29
 70
     1
102
RTVSPropertyOp30
 70
     1
102
RTVSPropertyOp31
 70
     1
102
RTVSPropertyOp32
 70
     1
  0
XRECORD
  5
807
102
{ACAD_REACTORS
330
806
102
}
330
806
100
AcDbXrecord
280
     1
102
RTVSPropertyOp0
 70
     1
102
RTVSPropertyOp1
 70
     1
102
RTVSPropertyOp2
 70
     1
102
RTVSPropertyOp3
 70
     1
102
RTVSPropertyOp4
 70
     1
102
RTVSPropertyOp5
 70
     1
102
RTVSPropertyOp6
 70
     1
102
RTVSPropertyOp7
 70
     1
102
RTVSPropertyOp8
 70
     1
102
RTVSPropertyOp9
 70
     1
102
RTVSPropertyOp10
 70
     1
102
RTVSPropertyOp11
 70
     1
102
RTVSPropertyOp12
 70
     1
102
RTVSPropertyOp13
 70
     1
102
RTVSPropertyOp14
 70
     1
102
RTVSPropertyOp15
 70
     1
102
RTVSPropertyOp16
 70
     1
102
RTVSPropertyOp17
 70
     1
102
RTVSPropertyOp18
 70
     1
102
RTVSPropertyOp19
 70
     1
102
RTVSPropertyOp20
 70
     1
102
RTVSPropertyOp21
 70
     1
102
RTVSPropertyOp22
 70
     1
102
RTVSPropertyOp23
 70
     1
102
RTVSPropertyOp24
 70
     1
102
RTVSPropertyOp25
 70
     1
102
RTVSPropertyOp26
 70
     1
102
RTVSPropertyOp27
 70
     1
102
RTVSPropertyOp28
 70
     1
102
RTVSPropertyOp29
 70
     1
102
RTVSPropertyOp30
 70
     1
102
RTVSPropertyOp31
 70
     1
102
RTVSPropertyOp32
 70
     1
  0
ENDSEC
  0
EOF
